0
SECTION
2
HEADER
9
$ACADVER
1
AC1015
9
$DWGCODEPAGE
3
ANSI_1252
9
$HANDSEED
5
2d6
9
$ANGBASE
50
0
9
$ANGDIR
70
0
9
$ATTMODE
70
1
9
$AUNITS
70
0
9
$AUPREC
70
0
9
$CECOLOR
62
256
9
$CELTSCALE
40
1
9
$CELTYPE
6
ByLayer
9
$CELWEIGHT
370
18
9
$CLAYER
8
0
9
$CMLJUST
70
0
9
$CMLSCALE
40
1
9
$CMLSTYLE
2
Standard
9
$DIMSTYLE
2
Standard
9
$TEXTSIZE
40
0.2
9
$TEXTSTYLE
7
Standard
9
$LUNITS
70
2
9
$LUPREC
70
4
9
$EXTNAMES
290
1
9
$INSUNITS
70
4
9
$LTSCALE
40
1
9
$LWDISPLAY
290
1
9
$PDMODE
70
0
9
$PDSIZE
40
0
9
$PLINEGEN
70
0
0
ENDSEC
0
SECTION
2
CLASSES
0
CLASS
1
RASTERVARIABLES
2
AcDbRasterVariables
3
ISM
90
0
280
0
281
0
0
ENDSEC
0
SECTION
2
TABLES
0
TABLE
2
VPORT
5
2cc
100
AcDbSymbolTable
0
VPORT
5
1
100
AcDbSymbolTableRecord
100
AcDbViewportTableRecord
2
*Active
70
0
10
0
20
0
11
1
21
1
12
-1
22
1
13
0
23
0
14
0.5
24
0.5
15
10
25
10
16
0
26
0
36
1
17
0
27
0
37
0
0
ENDTAB
0
TABLE
2
LTYPE
5
2cd
100
AcDbSymbolTable
0
LTYPE
5
14
100
AcDbSymbolTableRecord
100
AcDbLinetypeTableRecord
70
0
2
ByBlock
3

72
65
73
0
40
0
0
LTYPE
5
15
100
AcDbSymbolTableRecord
100
AcDbLinetypeTableRecord
70
0
2
ByLayer
3

72
65
73
0
40
0
0
LTYPE
5
16
100
AcDbSymbolTableRecord
100
AcDbLinetypeTableRecord
70
0
2
Continuous
3
Solid line
72
65
73
0
40
0
0
LTYPE
5
6E
100
AcDbSymbolTableRecord
100
AcDbLinetypeTableRecord
70
0
2
CENTER
3
____ _ ____ _ ____ _ ____
72
65
73
4
40
47.5
49
22
74
0
49
-8.5
74
0
49
8.5
74
0
49
-8.5
74
0
0
LTYPE
5
6F
100
AcDbSymbolTableRecord
100
AcDbLinetypeTableRecord
70
0
2
DASHED
3
__ __ __ __ __ __ __ __ __
72
65
73
2
40
25.72
49
12.86
74
0
49
-12.86
74
0
0
ENDTAB
0
TABLE
2
LAYER
5
2ce
100
AcDbSymbolTable
0
LAYER
5
10
100
AcDbSymbolTableRecord
100
AcDbLayerTableRecord
2
0
70
0
62
7
6
Continuous
290
1
370
-3
390
0
0
LAYER
5
71
100
AcDbSymbolTableRecord
100
AcDbLayerTableRecord
2
81
70
0
62
-3
6
Continuous
290
1
370
-3
390
0
0
LAYER
5
73
100
AcDbSymbolTableRecord
100
AcDbLayerTableRecord
2
80
70
0
62
-6
6
Continuous
290
1
370
-3
390
0
0
LAYER
5
75
100
AcDbSymbolTableRecord
100
AcDbLayerTableRecord
2
1
70
0
62
4
6
Continuous
290
1
370
-3
390
0
0
LAYER
5
81
100
AcDbSymbolTableRecord
100
AcDbLayerTableRecord
2
4
70
0
62
-2
6
CENTER
290
1
370
-3
390
0
0
LAYER
5
B8
100
AcDbSymbolTableRecord
100
AcDbLayerTableRecord
2
2
70
0
62
7
6
Continuous
290
1
370
-3
390
0
0
LAYER
5
1DE
100
AcDbSymbolTableRecord
100
AcDbLayerTableRecord
2
Defpoints
70
0
62
7
6
Continuous
290
0
370
-3
390
0
0
LAYER
5
2b8
100
AcDbSymbolTableRecord
100
AcDbLayerTableRecord
2
SK4
70
0
62
2
6
CENTER
290
1
370
-3
390
0
0
LAYER
5
2b9
100
AcDbSymbolTableRecord
100
AcDbLayerTableRecord
2
SK1
70
0
62
4
6
Continuous
290
1
370
-3
390
0
0
LAYER
5
2ba
100
AcDbSymbolTableRecord
100
AcDbLayerTableRecord
2
SK2
70
0
62
7
6
Continuous
290
1
370
-3
390
0
0
LAYER
5
2bb
100
AcDbSymbolTableRecord
100
AcDbLayerTableRecord
2
SK6
70
0
62
5
6
Continuous
290
1
370
-3
390
0
0
ENDTAB
0
TABLE
2
STYLE
5
2cf
100
AcDbSymbolTable
0
STYLE
5
11
100
AcDbSymbolTableRecord
100
AcDbTextStyleTableRecord
2
Standard
3
txt
70
0
71
0
40
0
41
1
42
0
50
0
0
STYLE
5
1C4
100
AcDbSymbolTableRecord
100
AcDbTextStyleTableRecord
2
iso_b_vert
3
simplex.shx
70
0
71
0
40
0
41
1
42
0
50
0
0
STYLE
5
1C5
100
AcDbSymbolTableRecord
100
AcDbTextStyleTableRecord
2
DWGDirectTextStyle
3
simplex
70
0
71
0
40
0
41
1
42
0
50
0
0
ENDTAB
0
TABLE
2
DIMSTYLE
5
2d0
100
AcDbSymbolTable
100
AcDbDimStyleTable
0
DIMSTYLE
105
27
100
AcDbSymbolTableRecord
100
AcDbDimStyleTableRecord
2
Standard
70
0
3
<>
41
0.18
42
0.0625
44
0.18
140
0.18
147
0.09
73
0
74
0
77
1
271
2
275
0
278
52
280
0
340
11
0
ENDTAB
0
TABLE
2
VIEW
5
2d1
100
AcDbSymbolTable
0
ENDTAB
0
TABLE
2
UCS
5
2d2
100
AcDbSymbolTable
0
ENDTAB
0
TABLE
2
APPID
5
2d3
100
AcDbSymbolTable
0
APPID
5
12
100
AcDbSymbolTableRecord
100
AcDbRegAppTableRecord
2
ACAD
70
0
0
APPID
5
1DA
100
AcDbSymbolTableRecord
100
AcDbRegAppTableRecord
2
ACAD_DSTYLE_DIMBREAK
70
0
0
APPID
5
277
100
AcDbSymbolTableRecord
100
AcDbRegAppTableRecord
2
ACAD_DSTYLE_DIM_LINETYPE
70
0
0
APPID
5
278
100
AcDbSymbolTableRecord
100
AcDbRegAppTableRecord
2
ACAD_DSTYLE_DIM_EXT1_LINETYPE
70
0
0
APPID
5
279
100
AcDbSymbolTableRecord
100
AcDbRegAppTableRecord
2
ACAD_DSTYLE_DIM_EXT2_LINETYPE
70
0
0
APPID
5
2B4
100
AcDbSymbolTableRecord
100
AcDbRegAppTableRecord
2
ACAD_MLEADERVER
70
0
0
ENDTAB
0
TABLE
2
BLOCK_RECORD
5
2d4
100
AcDbSymbolTable
0
BLOCK_RECORD
5
1F
100
AcDbSymbolTableRecord
100
AcDbBlockTableRecord
2
*Model_Space
340
0
70
0
0
BLOCK_RECORD
5
1B
100
AcDbSymbolTableRecord
100
AcDbBlockTableRecord
2
*Paper_Space
340
0
70
0
0
BLOCK_RECORD
5
23
100
AcDbSymbolTableRecord
100
AcDbBlockTableRecord
2
*Paper_Space0
340
0
70
0
0
BLOCK_RECORD
5
1DF
100
AcDbSymbolTableRecord
100
AcDbBlockTableRecord
2
*D1
340
0
70
0
0
BLOCK_RECORD
5
1ED
100
AcDbSymbolTableRecord
100
AcDbBlockTableRecord
2
_U0
340
0
70
0
0
BLOCK_RECORD
5
1F9
100
AcDbSymbolTableRecord
100
AcDbBlockTableRecord
2
*D3
340
0
70
0
0
BLOCK_RECORD
5
206
100
AcDbSymbolTableRecord
100
AcDbBlockTableRecord
2
_U1
340
0
70
0
0
BLOCK_RECORD
5
213
100
AcDbSymbolTableRecord
100
AcDbBlockTableRecord
2
*D5
340
0
70
0
0
BLOCK_RECORD
5
21F
100
AcDbSymbolTableRecord
100
AcDbBlockTableRecord
2
_U2
340
0
70
0
0
BLOCK_RECORD
5
22C
100
AcDbSymbolTableRecord
100
AcDbBlockTableRecord
2
*D7
340
0
70
0
0
BLOCK_RECORD
5
238
100
AcDbSymbolTableRecord
100
AcDbBlockTableRecord
2
_U3
340
0
70
0
0
BLOCK_RECORD
5
244
100
AcDbSymbolTableRecord
100
AcDbBlockTableRecord
2
*D9
340
0
70
0
0
BLOCK_RECORD
5
250
100
AcDbSymbolTableRecord
100
AcDbBlockTableRecord
2
_U4
340
0
70
0
0
ENDTAB
0
ENDSEC
0
SECTION
2
BLOCKS
0
BLOCK
5
20
100
AcDbEntity
8
0
100
AcDbBlockBegin
2
*Model_Space
70
0
10
0
20
0
30
0
3
*Model_Space
0
ENDBLK
5
21
100
AcDbEntity
8
0
100
AcDbBlockEnd
0
BLOCK
5
1C
100
AcDbEntity
8
0
100
AcDbBlockBegin
2
*Paper_Space
70
0
10
0
20
0
30
0
3
*Paper_Space
0
ENDBLK
5
1D
100
AcDbEntity
8
0
100
AcDbBlockEnd
0
BLOCK
5
24
100
AcDbEntity
8
0
100
AcDbBlockBegin
2
*Paper_Space0
70
0
10
0
20
0
30
0
3
*Paper_Space0
0
ENDBLK
5
25
100
AcDbEntity
8
0
100
AcDbBlockEnd
0
BLOCK
5
1E0
100
AcDbEntity
8
0
100
AcDbBlockBegin
2
*D1
70
1
10
0
20
0
30
0
3
*D1
0
LINE
5
1E2
100
AcDbEntity
8
0
62
256
6
ByLayer
370
-2
48
1
60
0
100
AcDbLine
10
67.5875
20
7.081949
30
0
11
87.5
21
7.081949
31
0
39
0
210
0
220
0
230
1
0
LINE
5
1E3
100
AcDbEntity
8
0
62
256
6
ByLayer
370
-2
48
1
60
0
100
AcDbLine
10
67.5875
20
-7.081949
30
0
11
87.5
21
-7.081949
31
0
39
0
210
0
220
0
230
1
0
LINE
5
1E4
100
AcDbEntity
8
0
62
256
6
ByLayer
370
-2
48
1
60
0
100
AcDbLine
10
85.5
20
7.081949
30
0
11
85.5
21
37.653377
31
0
39
0
210
0
220
0
230
1
0
LINE
5
1E5
100
AcDbEntity
8
0
62
256
6
ByLayer
370
-2
48
1
60
0
100
AcDbLine
10
85.5
20
10.581949
30
0
11
85.5
21
14.081949
31
0
39
0
210
0
220
0
230
1
0
LINE
5
1E6
100
AcDbEntity
8
0
62
256
6
ByLayer
370
-2
48
1
60
0
100
AcDbLine
10
85.5
20
-10.581949
30
0
11
85.5
21
-14.081949
31
0
39
0
210
0
220
0
230
1
0
SOLID
5
1E7
100
AcDbEntity
8
0
62
256
6
ByLayer
370
-1
48
1
60
0
100
AcDbTrace
10
84.916667
20
10.581949
30
0
11
86.083333
21
10.581949
31
0
12
85.5
22
7.081949
32
0
13
85.5
23
7.081949
33
0
39
0
210
0
220
0
230
1
0
SOLID
5
1E8
100
AcDbEntity
8
0
62
256
6
ByLayer
370
-1
48
1
60
0
100
AcDbTrace
10
86.083333
20
-10.581949
30
0
11
84.916667
21
-10.581949
31
0
12
85.5
22
-7.081949
32
0
13
85.5
23
-7.081949
33
0
39
0
210
0
220
0
230
1
0
MTEXT
5
1E9
100
AcDbEntity
8
0
62
256
6
ByLayer
370
18
48
1
60
0
100
AcDbMText
10
79.5
20
25.867663
30
0
210
0
220
0
230
1
1
\A1;14.164
40
3
41
0
44
1
50
90
71
5
72
5
7
iso_b_vert
0
POINT
5
1EA
100
AcDbEntity
8
Defpoints
62
0
6
ByLayer
370
-1
48
1
60
0
100
AcDbPoint
10
66
20
7.081949
30
0
39
0
210
0
220
0
230
1
50
360
0
POINT
5
1EB
100
AcDbEntity
8
Defpoints
62
0
6
ByLayer
370
-1
48
1
60
0
100
AcDbPoint
10
66
20
-7.081949
30
0
39
0
210
0
220
0
230
1
50
360
0
POINT
5
1EC
100
AcDbEntity
8
Defpoints
62
0
6
ByLayer
370
-1
48
1
60
0
100
AcDbPoint
10
85.5
20
-7.081949
30
0
39
0
210
0
220
0
230
1
50
360
0
ENDBLK
5
1E1
100
AcDbEntity
8
0
100
AcDbBlockEnd
0
BLOCK
5
1F4
100
AcDbEntity
8
0
100
AcDbBlockBegin
2
_U0
70
0
10
0
20
0
30
0
3
_U0
0
MTEXT
5
1EE
100
AcDbEntity
8
2
62
256
6
ByLayer
370
18
48
1
60
0
100
AcDbMText
10
84.908886
20
17.216949
30
0
210
0
220
0
230
1
1
\W0.6827;M14
40
3
41
0
44
1.084337
50
90
71
7
72
5
7
iso_b_vert
0
LINE
5
1EF
100
AcDbEntity
8
2
62
256
6
ByLayer
370
13
48
1
60
0
100
AcDbLine
10
67.5875
20
7.081949
30
0
11
87.5
21
7.081949
31
0
39
0
210
0
220
0
230
1
0
LINE
5
1F0
100
AcDbEntity
8
2
62
256
6
ByLayer
370
13
48
1
60
0
100
AcDbLine
10
67.5875
20
-7.081949
30
0
11
87.5
21
-7.081949
31
0
39
0
210
0
220
0
230
1
0
LINE
5
1F1
100
AcDbEntity
8
2
62
256
6
ByLayer
370
13
48
1
60
0
100
AcDbLine
10
85.5
20
-7.081949
30
0
11
85.5
21
23.144577
31
0
39
0
210
0
220
0
230
1
0
SOLID
5
1F2
100
AcDbEntity
8
2
62
256
6
ByLayer
370
18
48
1
60
0
100
AcDbTrace
10
85.5
20
7.081949
30
0
11
85.960784
21
3.581951
31
0
12
85.039216
22
3.581947
32
0
13
85.039216
23
3.581947
33
0
39
0
210
0
220
0
230
1
0
SOLID
5
1F3
100
AcDbEntity
8
2
62
256
6
ByLayer
370
18
48
1
60
0
100
AcDbTrace
10
85.5
20
-7.081949
30
0
11
85.039216
21
-3.581951
31
0
12
85.960784
22
-3.581947
32
0
13
85.960784
23
-3.581947
33
0
39
0
210
0
220
0
230
1
0
ENDBLK
5
1F5
100
AcDbEntity
8
0
100
AcDbBlockEnd
0
BLOCK
5
1FA
100
AcDbEntity
8
0
100
AcDbBlockBegin
2
*D3
70
1
10
0
20
0
30
0
3
*D3
0
LINE
5
1FC
100
AcDbEntity
8
0
62
256
6
ByLayer
370
-2
48
1
60
0
100
AcDbLine
10
66
20
8.669449
30
0
11
66
21
19.812078
31
0
39
0
210
0
220
0
230
1
0
LINE
5
1FD
100
AcDbEntity
8
0
62
256
6
ByLayer
370
-2
48
1
60
0
100
AcDbLine
10
60.5
20
1.5875
30
0
11
60.5
21
19.812078
31
0
39
0
210
0
220
0
230
1
0
LINE
5
1FE
100
AcDbEntity
8
0
62
256
6
ByLayer
370
-2
48
1
60
0
100
AcDbLine
10
69.5
20
17.812078
30
0
11
73
21
17.812078
31
0
39
0
210
0
220
0
230
1
0
LINE
5
1FF
100
AcDbEntity
8
0
62
256
6
ByLayer
370
-2
48
1
60
0
100
AcDbLine
10
57
20
17.812078
30
0
11
53.5
21
17.812078
31
0
39
0
210
0
220
0
230
1
0
SOLID
5
200
100
AcDbEntity
8
0
62
256
6
ByLayer
370
-1
48
1
60
0
100
AcDbTrace
10
69.5
20
18.395411
30
0
11
69.5
21
17.228744
31
0
12
66
22
17.812078
32
0
13
66
23
17.812078
33
0
39
0
210
0
220
0
230
1
0
SOLID
5
201
100
AcDbEntity
8
0
62
256
6
ByLayer
370
-1
48
1
60
0
100
AcDbTrace
10
57
20
17.228744
30
0
11
57
21
18.395411
31
0
12
60.5
22
17.812078
32
0
13
60.5
23
17.812078
33
0
39
0
210
0
220
0
230
1
0
MTEXT
5
202
100
AcDbEntity
8
0
62
256
6
ByLayer
370
18
48
1
60
0
100
AcDbMText
10
63.25
20
23.812078
30
0
210
0
220
0
230
1
1
\A1;5.5
40
3
41
0
44
1
50
0
71
5
72
5
7
iso_b_vert
0
POINT
5
203
100
AcDbEntity
8
Defpoints
62
0
6
ByLayer
370
-1
48
1
60
0
100
AcDbPoint
10
66
20
7.081949
30
0
39
0
210
0
220
0
230
1
50
360
0
POINT
5
204
100
AcDbEntity
8
Defpoints
62
0
6
ByLayer
370
-1
48
1
60
0
100
AcDbPoint
10
60.5
20
0
30
0
39
0
210
0
220
0
230
1
50
360
0
POINT
5
205
100
AcDbEntity
8
Defpoints
62
0
6
ByLayer
370
-1
48
1
60
0
100
AcDbPoint
10
60.5
20
17.812078
30
0
39
0
210
0
220
0
230
1
50
360
0
ENDBLK
5
1FB
100
AcDbEntity
8
0
100
AcDbBlockEnd
0
BLOCK
5
20E
100
AcDbEntity
8
0
100
AcDbBlockBegin
2
_U1
70
0
10
0
20
0
30
0
3
_U1
0
MTEXT
5
207
100
AcDbEntity
8
SK2
62
256
6
ByLayer
370
18
48
1
60
0
100
AcDbMText
10
61.035958
20
18.594711
30
0
210
0
220
0
230
1
1
\W0.6474;'C'
40
3.5
41
0
44
1.084337
50
0
71
7
72
5
7
iso_b_vert
0
MTEXT
5
208
100
AcDbEntity
8
SK2
62
256
6
ByLayer
370
18
48
1
60
0
100
AcDbMText
10
61.009458
20
25.697192
30
0
210
0
220
0
230
1
1
\W0.7121;5.5
40
3
41
0
44
1.084337
50
0
71
7
72
5
7
iso_b_vert
0
LINE
5
209
100
AcDbEntity
8
SK2
62
256
6
ByLayer
370
13
48
1
60
0
100
AcDbLine
10
66
20
8.669449
30
0
11
66
21
19.812078
31
0
39
0
210
0
220
0
230
1
0
LINE
5
20A
100
AcDbEntity
8
SK2
62
256
6
ByLayer
370
13
48
1
60
0
100
AcDbLine
10
60.5
20
1.5875
30
0
11
60.5
21
19.812078
31
0
39
0
210
0
220
0
230
1
0
LINE
5
20B
100
AcDbEntity
8
SK2
62
256
6
ByLayer
370
13
48
1
60
0
100
AcDbLine
10
73.5
20
17.812078
30
0
11
53
21
17.812078
31
0
39
0
210
0
220
0
230
1
0
SOLID
5
20C
100
AcDbEntity
8
SK2
62
256
6
ByLayer
370
18
48
1
60
0
100
AcDbTrace
10
66
20
17.812078
30
0
11
69.499998
21
18.272861
31
0
12
69.500002
22
17.351294
32
0
13
69.500002
23
17.351294
33
0
39
0
210
0
220
0
230
1
0
SOLID
5
20D
100
AcDbEntity
8
SK2
62
256
6
ByLayer
370
18
48
1
60
0
100
AcDbTrace
10
60.5
20
17.812078
30
0
11
57.000002
21
17.351294
31
0
12
56.999998
22
18.272861
32
0
13
56.999998
23
18.272861
33
0
39
0
210
0
220
0
230
1
0
ENDBLK
5
20F
100
AcDbEntity
8
0
100
AcDbBlockEnd
0
BLOCK
5
214
100
AcDbEntity
8
0
100
AcDbBlockBegin
2
*D5
70
1
10
0
20
0
30
0
3
*D5
0
LINE
5
216
100
AcDbEntity
8
0
62
256
6
ByLayer
370
-2
48
1
60
0
100
AcDbLine
10
66
20
-8.669449
30
0
11
66
21
-16.081949
31
0
39
0
210
0
220
0
230
1
0
LINE
5
217
100
AcDbEntity
8
0
62
256
6
ByLayer
370
-2
48
1
60
0
100
AcDbLine
10
48
20
-8.669449
30
0
11
48
21
-16.081949
31
0
39
0
210
0
220
0
230
1
0
LINE
5
218
100
AcDbEntity
8
0
62
256
6
ByLayer
370
-2
48
1
60
0
100
AcDbLine
10
62.5
20
-14.081949
30
0
11
51.5
21
-14.081949
31
0
39
0
210
0
220
0
230
1
0
SOLID
5
219
100
AcDbEntity
8
0
62
256
6
ByLayer
370
-1
48
1
60
0
100
AcDbTrace
10
62.5
20
-14.665282
30
0
11
62.5
21
-13.498616
31
0
12
66
22
-14.081949
32
0
13
66
23
-14.081949
33
0
39
0
210
0
220
0
230
1
0
SOLID
5
21A
100
AcDbEntity
8
0
62
256
6
ByLayer
370
-1
48
1
60
0
100
AcDbTrace
10
51.5
20
-13.498616
30
0
11
51.5
21
-14.665282
31
0
12
48
22
-14.081949
32
0
13
48
23
-14.081949
33
0
39
0
210
0
220
0
230
1
0
MTEXT
5
21B
100
AcDbEntity
8
0
62
256
6
ByLayer
370
18
48
1
60
0
100
AcDbMText
10
56.27027
20
-8.081949
30
0
210
0
220
0
230
1
1
\A1;18
40
3
41
0
44
1
50
0
71
5
72
5
7
iso_b_vert
0
POINT
5
21C
100
AcDbEntity
8
Defpoints
62
0
6
ByLayer
370
-1
48
1
60
0
100
AcDbPoint
10
66
20
-7.081949
30
0
39
0
210
0
220
0
230
1
50
360
0
POINT
5
21D
100
AcDbEntity
8
Defpoints
62
0
6
ByLayer
370
-1
48
1
60
0
100
AcDbPoint
10
48
20
-7.081949
30
0
39
0
210
0
220
0
230
1
50
360
0
POINT
5
21E
100
AcDbEntity
8
Defpoints
62
0
6
ByLayer
370
-1
48
1
60
0
100
AcDbPoint
10
48
20
-14.081949
30
0
39
0
210
0
220
0
230
1
50
360
0
ENDBLK
5
215
100
AcDbEntity
8
0
100
AcDbBlockEnd
0
BLOCK
5
227
100
AcDbEntity
8
0
100
AcDbBlockBegin
2
_U2
70
0
10
0
20
0
30
0
3
_U2
0
MTEXT
5
220
100
AcDbEntity
8
SK2
62
256
6
ByLayer
370
18
48
1
60
0
100
AcDbMText
10
50.137766
20
-13.196834
30
0
210
0
220
0
230
1
1
\W0.5321;18
40
3
41
0
44
1.084337
50
0
71
7
72
5
7
iso_b_vert
0
MTEXT
5
221
100
AcDbEntity
8
SK2
62
256
6
ByLayer
370
18
48
1
60
0
100
AcDbMText
10
55.445037
20
-12.844354
30
0
210
0
220
0
230
1
1
\W0.8315;\W0.4158;%%p\W0.8315;0.5
40
2.5
41
0
44
1.084337
50
0
71
7
72
5
7
iso_b_vert
0
LINE
5
222
100
AcDbEntity
8
SK2
62
256
6
ByLayer
370
13
48
1
60
0
100
AcDbLine
10
66
20
-8.669449
30
0
11
66
21
-16.081949
31
0
39
0
210
0
220
0
230
1
0
LINE
5
223
100
AcDbEntity
8
SK2
62
256
6
ByLayer
370
13
48
1
60
0
100
AcDbLine
10
48
20
-8.669449
30
0
11
48
21
-16.081949
31
0
39
0
210
0
220
0
230
1
0
LINE
5
224
100
AcDbEntity
8
SK2
62
256
6
ByLayer
370
13
48
1
60
0
100
AcDbLine
10
66
20
-14.081949
30
0
11
48
21
-14.081949
31
0
39
0
210
0
220
0
230
1
0
SOLID
5
225
100
AcDbEntity
8
SK2
62
256
6
ByLayer
370
18
48
1
60
0
100
AcDbTrace
10
66
20
-14.081949
30
0
11
62.500002
21
-14.542733
31
0
12
62.499998
22
-13.621165
32
0
13
62.499998
23
-13.621165
33
0
39
0
210
0
220
0
230
1
0
SOLID
5
226
100
AcDbEntity
8
SK2
62
256
6
ByLayer
370
18
48
1
60
0
100
AcDbTrace
10
48
20
-14.081949
30
0
11
51.499998
21
-13.621165
31
0
12
51.500002
22
-14.542733
32
0
13
51.500002
23
-14.542733
33
0
39
0
210
0
220
0
230
1
0
ENDBLK
5
228
100
AcDbEntity
8
0
100
AcDbBlockEnd
0
BLOCK
5
22D
100
AcDbEntity
8
0
100
AcDbBlockBegin
2
*D7
70
1
10
0
20
0
30
0
3
*D7
0
LINE
5
22F
100
AcDbEntity
8
0
62
256
6
ByLayer
370
-2
48
1
60
0
100
AcDbLine
10
66
20
-8.669449
30
0
11
66
21
-38.581949
31
0
39
0
210
0
220
0
230
1
0
LINE
5
230
100
AcDbEntity
8
0
62
256
6
ByLayer
370
-2
48
1
60
0
100
AcDbLine
10
28.5
20
-7.0375
30
0
11
28.5
21
-38.581949
31
0
39
0
210
0
220
0
230
1
0
LINE
5
231
100
AcDbEntity
8
0
62
256
6
ByLayer
370
-2
48
1
60
0
100
AcDbLine
10
62.5
20
-36.581949
30
0
11
32
21
-36.581949
31
0
39
0
210
0
220
0
230
1
0
SOLID
5
232
100
AcDbEntity
8
0
62
256
6
ByLayer
370
-1
48
1
60
0
100
AcDbTrace
10
62.5
20
-37.165282
30
0
11
62.5
21
-35.998616
31
0
12
66
22
-36.581949
32
0
13
66
23
-36.581949
33
0
39
0
210
0
220
0
230
1
0
SOLID
5
233
100
AcDbEntity
8
0
62
256
6
ByLayer
370
-1
48
1
60
0
100
AcDbTrace
10
32
20
-35.998616
30
0
11
32
21
-37.165282
31
0
12
28.5
22
-36.581949
32
0
13
28.5
23
-36.581949
33
0
39
0
210
0
220
0
230
1
0
MTEXT
5
234
100
AcDbEntity
8
0
62
256
6
ByLayer
370
18
48
1
60
0
100
AcDbMText
10
47.25
20
-30.581949
30
0
210
0
220
0
230
1
1
\A1;37.5
40
3
41
0
44
1
50
0
71
5
72
5
7
iso_b_vert
0
POINT
5
235
100
AcDbEntity
8
Defpoints
62
0
6
ByLayer
370
-1
48
1
60
0
100
AcDbPoint
10
66
20
-7.081949
30
0
39
0
210
0
220
0
230
1
50
360
0
POINT
5
236
100
AcDbEntity
8
Defpoints
62
0
6
ByLayer
370
-1
48
1
60
0
100
AcDbPoint
10
28.5
20
-5.45
30
0
39
0
210
0
220
0
230
1
50
360
0
POINT
5
237
100
AcDbEntity
8
Defpoints
62
0
6
ByLayer
370
-1
48
1
60
0
100
AcDbPoint
10
28.5
20
-36.581949
30
0
39
0
210
0
220
0
230
1
50
360
0
ENDBLK
5
22E
100
AcDbEntity
8
0
100
AcDbBlockEnd
0
BLOCK
5
23F
100
AcDbEntity
8
0
100
AcDbBlockBegin
2
_U3
70
0
10
0
20
0
30
0
3
_U3
0
MTEXT
5
239
100
AcDbEntity
8
SK2
62
256
6
ByLayer
370
18
48
1
60
0
100
AcDbMText
10
43.888544
20
-35.696834
30
0
210
0
220
0
230
1
1
\W0.7346;37.5
40
3
41
0
44
1.084337
50
0
71
7
72
5
7
iso_b_vert
0
LINE
5
23A
100
AcDbEntity
8
SK2
62
256
6
ByLayer
370
13
48
1
60
0
100
AcDbLine
10
66
20
-8.669449
30
0
11
66
21
-38.581949
31
0
39
0
210
0
220
0
230
1
0
LINE
5
23B
100
AcDbEntity
8
SK2
62
256
6
ByLayer
370
13
48
1
60
0
100
AcDbLine
10
28.5
20
-7.0375
30
0
11
28.5
21
-38.581949
31
0
39
0
210
0
220
0
230
1
0
LINE
5
23C
100
AcDbEntity
8
SK2
62
256
6
ByLayer
370
13
48
1
60
0
100
AcDbLine
10
66
20
-36.581949
30
0
11
28.5
21
-36.581949
31
0
39
0
210
0
220
0
230
1
0
SOLID
5
23D
100
AcDbEntity
8
SK2
62
256
6
ByLayer
370
18
48
1
60
0
100
AcDbTrace
10
66
20
-36.581949
30
0
11
62.500002
21
-37.042733
31
0
12
62.499998
22
-36.121165
32
0
13
62.499998
23
-36.121165
33
0
39
0
210
0
220
0
230
1
0
SOLID
5
23E
100
AcDbEntity
8
SK2
62
256
6
ByLayer
370
18
48
1
60
0
100
AcDbTrace
10
28.5
20
-36.581949
30
0
11
31.999998
21
-36.121165
31
0
12
32.000002
22
-37.042733
32
0
13
32.000002
23
-37.042733
33
0
39
0
210
0
220
0
230
1
0
ENDBLK
5
240
100
AcDbEntity
8
0
100
AcDbBlockEnd
0
BLOCK
5
245
100
AcDbEntity
8
0
100
AcDbBlockBegin
2
*D9
70
1
10
0
20
0
30
0
3
*D9
0
LINE
5
247
100
AcDbEntity
8
0
62
256
6
ByLayer
370
-2
48
1
60
0
100
AcDbLine
10
66
20
-8.669449
30
0
11
66
21
-27.581949
31
0
39
0
210
0
220
0
230
1
0
LINE
5
248
100
AcDbEntity
8
0
62
256
6
ByLayer
370
-2
48
1
60
0
100
AcDbLine
10
30
20
-1.5875
30
0
11
30
21
-27.581949
31
0
39
0
210
0
220
0
230
1
0
LINE
5
249
100
AcDbEntity
8
0
62
256
6
ByLayer
370
-2
48
1
60
0
100
AcDbLine
10
62.5
20
-25.581949
30
0
11
33.5
21
-25.581949
31
0
39
0
210
0
220
0
230
1
0
SOLID
5
24A
100
AcDbEntity
8
0
62
256
6
ByLayer
370
-1
48
1
60
0
100
AcDbTrace
10
62.5
20
-26.165282
30
0
11
62.5
21
-24.998616
31
0
12
66
22
-25.581949
32
0
13
66
23
-25.581949
33
0
39
0
210
0
220
0
230
1
0
SOLID
5
24B
100
AcDbEntity
8
0
62
256
6
ByLayer
370
-1
48
1
60
0
100
AcDbTrace
10
33.5
20
-24.998616
30
0
11
33.5
21
-26.165282
31
0
12
30
22
-25.581949
32
0
13
30
23
-25.581949
33
0
39
0
210
0
220
0
230
1
0
MTEXT
5
24C
100
AcDbEntity
8
0
62
256
6
ByLayer
370
18
48
1
60
0
100
AcDbMText
10
48
20
-19.581949
30
0
210
0
220
0
230
1
1
\A1;36
40
3
41
0
44
1
50
0
71
5
72
5
7
iso_b_vert
0
POINT
5
24D
100
AcDbEntity
8
Defpoints
62
0
6
ByLayer
370
-1
48
1
60
0
100
AcDbPoint
10
66
20
-7.081949
30
0
39
0
210
0
220
0
230
1
50
360
0
POINT
5
24E
100
AcDbEntity
8
Defpoints
62
0
6
ByLayer
370
-1
48
1
60
0
100
AcDbPoint
10
30
20
0
30
0
39
0
210
0
220
0
230
1
50
360
0
POINT
5
24F
100
AcDbEntity
8
Defpoints
62
0
6
ByLayer
370
-1
48
1
60
0
100
AcDbPoint
10
30
20
-25.581949
30
0
39
0
210
0
220
0
230
1
50
360
0
ENDBLK
5
246
100
AcDbEntity
8
0
100
AcDbBlockEnd
0
BLOCK
5
257
100
AcDbEntity
8
0
100
AcDbBlockBegin
2
_U4
70
0
10
0
20
0
30
0
3
_U4
0
MTEXT
5
251
100
AcDbEntity
8
2
62
256
6
ByLayer
370
18
48
1
60
0
100
AcDbMText
10
46.367172
20
-24.696834
30
0
210
0
220
0
230
1
1
\W0.6740;36
40
3
41
0
44
1.084337
50
0
71
7
72
5
7
iso_b_vert
0
LINE
5
252
100
AcDbEntity
8
2
62
256
6
ByLayer
370
13
48
1
60
0
100
AcDbLine
10
66
20
-8.669449
30
0
11
66
21
-27.581949
31
0
39
0
210
0
220
0
230
1
0
LINE
5
253
100
AcDbEntity
8
2
62
256
6
ByLayer
370
13
48
1
60
0
100
AcDbLine
10
30
20
-1.5875
30
0
11
30
21
-27.581949
31
0
39
0
210
0
220
0
230
1
0
LINE
5
254
100
AcDbEntity
8
2
62
256
6
ByLayer
370
13
48
1
60
0
100
AcDbLine
10
66
20
-25.581949
30
0
11
30
21
-25.581949
31
0
39
0
210
0
220
0
230
1
0
SOLID
5
255
100
AcDbEntity
8
2
62
256
6
ByLayer
370
18
48
1
60
0
100
AcDbTrace
10
66
20
-25.581949
30
0
11
62.500002
21
-26.042733
31
0
12
62.499998
22
-25.121165
32
0
13
62.499998
23
-25.121165
33
0
39
0
210
0
220
0
230
1
0
SOLID
5
256
100
AcDbEntity
8
2
62
256
6
ByLayer
370
18
48
1
60
0
100
AcDbTrace
10
30
20
-25.581949
30
0
11
33.499998
21
-25.121165
31
0
12
33.500002
22
-26.042733
32
0
13
33.500002
23
-26.042733
33
0
39
0
210
0
220
0
230
1
0
ENDBLK
5
258
100
AcDbEntity
8
0
100
AcDbBlockEnd
0
ENDSEC
0
SECTION
2
ENTITIES
0
ARC
5
C1
100
AcDbEntity
8
SK1
62
256
6
ByLayer
370
18
48
1
60
0
100
AcDbCircle
39
0
10
-21.5
20
0
30
0
40
5.37599999999975
210
0
220
0
230
1
100
AcDbArc
50
326.83028
51
33.16972
0
ARC
5
C2
100
AcDbEntity
8
1
62
256
6
ByLayer
370
18
48
1
60
0
100
AcDbCircle
39
0
10
45.960828
20
-6.85
30
0
40
1.4
210
0
220
0
230
1
100
AcDbArc
50
30
51
90
0
ARC
5
C3
100
AcDbEntity
8
1
62
256
6
ByLayer
370
18
48
1
60
0
100
AcDbCircle
39
0
10
29.153835
20
-6.95
30
0
40
1.5
210
0
220
0
230
1
100
AcDbArc
50
90
51
115.841933
0
ARC
5
C4
100
AcDbEntity
8
1
62
256
6
ByLayer
370
18
48
1
60
0
100
AcDbCircle
39
0
10
29.153835
20
6.95
30
0
40
1.5
210
0
220
0
230
1
100
AcDbArc
50
244.158067
51
270
0
POINT
5
70
100
AcDbEntity
8
81
62
256
6
ByLayer
370
18
48
1
60
0
100
AcDbPoint
10
66
20
0
30
0
39
0
210
0
220
0
230
1
50
360
0
POINT
5
72
100
AcDbEntity
8
80
62
256
6
ByLayer
370
18
48
1
60
0
100
AcDbPoint
10
0
20
0
30
0
39
0
210
0
220
0
230
1
50
360
0
POINT
5
74
100
AcDbEntity
8
1
62
256
6
ByLayer
370
18
48
1
60
1
100
AcDbPoint
10
66
20
7.081949
30
0
39
0
210
0
220
0
230
1
50
360
0
POINT
5
76
100
AcDbEntity
8
1
62
256
6
ByLayer
370
18
48
1
60
1
100
AcDbPoint
10
66
20
-7.081949
30
0
39
0
210
0
220
0
230
1
50
360
0
POINT
5
77
100
AcDbEntity
8
1
62
256
6
ByLayer
370
18
48
1
60
1
100
AcDbPoint
10
66
20
7.081949
30
0
39
0
210
0
220
0
230
1
50
360
0
POINT
5
78
100
AcDbEntity
8
1
62
256
6
ByLayer
370
18
48
1
60
1
100
AcDbPoint
10
60.5
20
0
30
0
39
0
210
0
220
0
230
1
50
360
0
POINT
5
79
100
AcDbEntity
8
1
62
256
6
ByLayer
370
18
48
1
60
1
100
AcDbPoint
10
66
20
-7.081949
30
0
39
0
210
0
220
0
230
1
50
360
0
POINT
5
7A
100
AcDbEntity
8
1
62
256
6
ByLayer
370
18
48
1
60
1
100
AcDbPoint
10
48
20
-7.081949
30
0
39
0
210
0
220
0
230
1
50
360
0
POINT
5
7B
100
AcDbEntity
8
1
62
256
6
ByLayer
370
18
48
1
60
1
100
AcDbPoint
10
66
20
-7.081949
30
0
39
0
210
0
220
0
230
1
50
360
0
POINT
5
7C
100
AcDbEntity
8
1
62
256
6
ByLayer
370
18
48
1
60
1
100
AcDbPoint
10
28.5
20
-5.45
30
0
39
0
210
0
220
0
230
1
50
360
0
POINT
5
7D
100
AcDbEntity
8
1
62
256
6
ByLayer
370
18
48
1
60
1
100
AcDbPoint
10
66
20
-7.081949
30
0
39
0
210
0
220
0
230
1
50
360
0
POINT
5
7E
100
AcDbEntity
8
1
62
256
6
ByLayer
370
18
48
1
60
1
100
AcDbPoint
10
30
20
0
30
0
39
0
210
0
220
0
230
1
50
360
0
SPLINE
5
C5
100
AcDbEntity
8
1
62
256
6
ByLayer
370
18
48
1
60
0
100
AcDbSpline
70
4
71
3
72
12
73
8
40
0
40
0
40
0
40
0
40
0.182448859203932
40
0.182448859203932
40
0.454965906135954
40
0.454965906135954
40
1
40
1
40
1
40
1
41
1
10
64.9069560441079
20
5.85703850789815
30
0
41
1
10
64.9086611312247
20
5.86165125594067
30
0
41
1
10
64.91036883758
20
5.86602253598565
30
0
41
1
10
64.9146345124029
20
5.87631682342192
30
0
41
1
10
64.9171976042998
20
5.88194294317722
30
0
41
1
10
64.9248853569711
20
5.89713111095708
30
0
41
1
10
64.9300148749311
20
5.90502225374178
30
0
41
1
10
64.9351545708194
20
5.91067243041007
30
0
0
SPLINE
5
C6
100
AcDbEntity
8
1
62
256
6
ByLayer
370
18
48
1
60
0
100
AcDbSpline
70
4
71
3
72
10
73
6
40
0
40
0
40
0
40
0
40
0.443667822906053
40
0.443667822906053
40
1
40
1
40
1
40
1
41
1
10
49.6038730148872
20
7.06051352646588
30
0
41
1
10
49.6060876241133
20
7.06433902486955
30
0
41
1
10
49.6083060291427
20
7.06765872524784
30
0
41
1
10
49.6132935150362
20
7.0739683116775
30
0
41
1
10
49.6160625213374
20
7.07666793356498
30
0
41
1
10
49.6188261405483
20
7.07856598419804
30
0
0
SPLINE
5
C7
100
AcDbEntity
8
1
62
256
6
ByLayer
370
13
48
1
60
0
100
AcDbSpline
70
4
71
3
72
8
73
4
40
0
40
0
40
0
40
0
40
1
40
1
40
1
40
1
41
1
10
63.5082209676244
20
-5.93354633460896
30
0
41
1
10
63.5053644414622
20
-5.93843976396337
30
0
41
1
10
63.5025079159459
20
-5.94261746303692
30
0
41
1
10
63.4996513910679
20
-5.94607693098635
30
0
0
SPLINE
5
C8
100
AcDbEntity
8
1
62
256
6
ByLayer
370
13
48
1
60
0
100
AcDbSpline
70
4
71
3
72
8
73
4
40
0
40
0
40
0
40
0
40
1
40
1
40
1
40
1
41
1
10
47.4645925862486
20
-5.9523705491693
30
0
41
1
10
47.4798867148977
20
-5.96535444088011
30
0
41
1
10
47.495180843626
20
-5.95774035618919
30
0
41
1
10
47.5104749819697
20
-5.92956879303597
30
0
0
SPLINE
5
C9
100
AcDbEntity
8
1
62
256
6
ByLayer
370
18
48
1
60
0
100
AcDbSpline
70
4
71
3
72
8
73
4
40
0
40
0
40
0
40
0
40
1
40
1
40
1
40
1
41
1
10
47.5104750124797
20
-5.92956873683681
30
0
41
1
10
47.5125594789463
20
-5.92572917854491
30
0
41
1
10
47.5146439455916
20
-5.92150775544133
30
0
41
1
10
47.5167284124396
20
-5.91690457005413
30
0
0
SPLINE
5
CA
100
AcDbEntity
8
1
62
256
6
ByLayer
370
18
48
1
60
0
100
AcDbSpline
70
4
71
3
72
8
73
4
40
0
40
0
40
0
40
0
40
1
40
1
40
1
40
1
41
1
10
50.4811750268646
20
5.95837476904248
30
0
41
1
10
50.4855011772927
20
5.9578330898255
30
0
41
1
10
50.489827328031
20
5.95564382140714
30
0
41
1
10
50.4941534789222
20
5.9518095429147
30
0
0
SPLINE
5
CB
100
AcDbEntity
8
1
62
256
6
ByLayer
370
18
48
1
60
0
100
AcDbSpline
70
4
71
3
72
8
73
4
40
0
40
0
40
0
40
0
40
1
40
1
40
1
40
1
41
1
10
63.3220460700296
20
-6.25108718297167
30
0
41
1
10
63.3194807086328
20
-6.25389029188253
30
0
41
1
10
63.3169183871802
20
-6.25606391262878
30
0
41
1
10
63.3143576890276
20
-6.25760875184073
30
0
0
SPLINE
5
CC
100
AcDbEntity
8
1
62
256
6
ByLayer
370
18
48
1
60
0
100
AcDbSpline
70
4
71
3
72
8
73
4
40
0
40
0
40
0
40
0
40
1
40
1
40
1
40
1
41
1
10
62.2664749589862
20
-6.47434173918106
30
0
41
1
10
62.2701210047932
20
-6.48316521025296
30
0
41
1
10
62.2737707068194
20
-6.49073241810819
30
0
41
1
10
62.2774207654067
20
-6.49704711342741
30
0
0
SPLINE
5
CD
100
AcDbEntity
8
1
62
256
6
ByLayer
370
13
48
1
60
0
100
AcDbSpline
70
4
71
3
72
9
73
5
40
0
40
0
40
0
40
0
40
0.308877457070884
40
1
40
1
40
1
40
1
41
1
10
61.950529110104
20
-5.93331645475573
30
0
41
1
10
61.9486103112598
20
-5.93000911772194
30
0
41
1
10
61.9423981426473
20
-5.91825213897823
30
0
41
1
10
61.9361859740312
20
-5.90309775489007
30
0
41
1
10
61.9318926042504
20
-5.89101588233939
30
0
0
SPLINE
5
CE
100
AcDbEntity
8
1
62
256
6
ByLayer
370
13
48
1
60
0
100
AcDbSpline
70
4
71
3
72
9
73
5
40
0
40
0
40
0
40
0
40
0.0270584598571085
40
1
40
1
40
1
40
1
41
1
10
50.9506881934224
20
5.93358747871085
30
0
41
1
10
50.9512946492954
20
5.93462809174375
30
0
41
1
10
50.9737074501703
20
5.97188704839036
30
0
41
1
10
50.9961202506598
20
5.96478247291896
30
0
41
1
10
51.0179265964362
20
5.91617721830545
30
0
0
SPLINE
5
CF
100
AcDbEntity
8
1
62
256
6
ByLayer
370
13
48
1
60
0
100
AcDbSpline
70
4
71
3
72
9
73
5
40
0
40
0
40
0
40
0
40
0.619982827161503
40
1
40
1
40
1
40
1
41
1
10
61.5058956070716
20
-5.93738322435362
30
0
41
1
10
61.485687467354
20
-5.9692009700903
30
0
41
1
10
61.453092842804
20
-5.96256617420863
30
0
41
1
10
61.4204982503065
20
-5.86234553387155
30
0
41
1
10
61.4081117341263
20
-5.81108725306913
30
0
0
SPLINE
5
D0
100
AcDbEntity
8
1
62
256
6
ByLayer
370
13
48
1
60
0
100
AcDbSpline
70
4
71
3
72
9
73
5
40
0
40
0
40
0
40
0
40
0.332880856995869
40
1
40
1
40
1
40
1
41
1
10
52.5107428242573
20
5.92903622636447
30
0
41
1
10
52.5190795200253
20
5.91354722982535
30
0
41
1
10
52.5441236057407
20
5.84872226797773
30
0
41
1
10
52.569167694808
20
5.72919203340089
30
0
41
1
10
52.5858750717957
20
5.62624152607521
30
0
0
SPLINE
5
D1
100
AcDbEntity
8
1
62
256
6
ByLayer
370
18
48
1
60
0
100
AcDbSpline
70
4
71
3
72
17
73
13
40
0
40
0
40
0
40
0
40
0.0780230505148519
40
0.0780230505148519
40
0.385348700343234
40
0.385348700343234
40
0.462180112800329
40
0.462180112800329
40
0.539011525257424
40
0.692674350171616
40
0.692674350171616
40
1
40
1
40
1
40
1
41
1
10
60.9538751359011
20
-6.87360485796978
30
0
41
1
10
60.9511741480017
20
-6.87429433188882
30
0
41
1
10
60.9484765586903
20
-6.87420998876433
30
0
41
1
10
60.9351629929976
20
-6.86997792730017
30
0
41
1
10
60.9245730773469
20
-6.85461672209502
30
0
41
1
10
60.9110377827689
20
-6.82030260010743
30
0
41
1
10
60.9083128197086
20
-6.81267537945169
30
0
41
1
10
60.902855228145
20
-6.79597115286262
30
0
41
1
10
60.8946532022066
20
-6.76872056882326
30
0
41
1
10
60.8864409324767
20
-6.73487256022429
30
0
41
1
10
60.8700557014728
20
-6.65832662830942
30
0
41
1
10
60.8591969772972
20
-6.5955074897976
30
0
41
1
10
60.8483665310233
20
-6.52067226101647
30
0
0
SPLINE
5
D2
100
AcDbEntity
8
1
62
256
6
ByLayer
370
18
48
1
60
0
100
AcDbSpline
70
4
71
3
72
16
73
12
40
0
40
0
40
0
40
0
40
0.344856534719104
40
0.344856534719104
40
0.689713069438207
40
0.689713069438207
40
0.775927203117983
40
0.775927203117983
40
0.862141336797758
40
0.862141336797758
40
1
40
1
40
1
40
1
41
1
10
60.4449416617596
20
-6.47798316058905
30
0
41
1
10
60.4560287876603
20
-6.56682078533268
30
0
41
1
10
60.4669949994175
20
-6.64380849368362
30
0
41
1
10
60.4888409839485
20
-6.77418618531001
30
0
41
1
10
60.4997439211991
20
-6.82757495112423
30
0
41
1
10
60.5135001049753
20
-6.87940162529378
30
0
41
1
10
60.516258249833
20
-6.88902064367275
30
0
41
1
10
60.521795266404
20
-6.90675836596904
30
0
41
1
10
60.5245748782165
20
-6.91487556884451
30
0
41
1
10
60.5317914286871
20
-6.93390901181877
30
0
41
1
10
60.5362314309735
20
-6.94362105272555
30
0
41
1
10
60.5406676909631
20
-6.95134972856806
30
0
0
SPLINE
5
D3
100
AcDbEntity
8
1
62
256
6
ByLayer
370
13
48
1
60
0
100
AcDbSpline
70
4
71
3
72
9
73
5
40
0
40
0
40
0
40
0
40
0.540830185960994
40
1
40
1
40
1
40
1
41
1
10
59.840336313572
20
-5.39499922221373
30
0
41
1
10
59.8604259045523
20
-5.55461616789623
30
0
41
1
10
59.8975717434297
20
-5.79016775826398
30
0
41
1
10
59.9347175866619
20
-5.90717415972497
30
0
41
1
10
59.9517738363984
20
-5.93537877570054
30
0
0
SPLINE
5
D4
100
AcDbEntity
8
1
62
256
6
ByLayer
370
13
48
1
60
0
100
AcDbSpline
70
4
71
3
72
10
73
6
40
0
40
0
40
0
40
0
40
0.0373732437229658
40
0.527425238522665
40
1
40
1
40
1
40
1
41
1
10
52.9522327299036
20
5.9361705671275
30
0
41
1
10
52.9541936960006
20
5.93935980009968
30
0
41
1
10
52.9818675852555
20
5.97958462549241
30
0
41
1
10
53.0343373682553
20
5.92742942247398
30
0
41
1
10
53.0848461930656
20
5.65448056893331
30
0
41
1
10
53.1096420914882
20
5.47050264012466
30
0
0
SPLINE
5
D5
100
AcDbEntity
8
1
62
256
6
ByLayer
370
13
48
1
60
0
100
AcDbSpline
70
4
71
3
72
10
73
6
40
0
40
0
40
0
40
0
40
0.195779610015882
40
0.651171867150542
40
1
40
1
40
1
40
1
41
1
10
54.5081979308659
20
5.9335946657867
30
0
41
1
10
54.5192522583445
20
5.9146922858416
30
0
41
1
10
54.5560194472498
20
5.81619735660436
30
0
41
1
10
54.6124826721655
20
5.48441033456385
30
0
41
1
10
54.6578915719977
20
5.05206831854608
30
0
41
1
10
54.6775875387409
20
4.83677975672504
30
0
0
SPLINE
5
D6
100
AcDbEntity
8
1
62
256
6
ByLayer
370
13
48
1
60
0
100
AcDbSpline
70
4
71
3
72
11
73
7
40
0
40
0
40
0
40
0
40
0.0400890041658876
40
0.459632451981105
40
0.879175899796322
40
1
40
1
40
1
40
1
41
1
10
59.3165938508548
20
-5.19903262365926
30
0
41
1
10
59.3190508216499
20
-5.22150514528707
30
0
41
1
10
59.3472207322241
20
-5.47381987493628
30
0
41
1
10
59.4011036727038
20
-5.83757464607146
30
0
41
1
10
59.4599344399776
20
-5.97454517672159
30
0
41
1
10
59.493052371344
20
-5.95440682638983
30
0
41
1
10
59.5004574146191
20
-5.94508273235454
30
0
0
SPLINE
5
D7
100
AcDbEntity
8
1
62
256
6
ByLayer
370
18
48
1
60
0
100
AcDbSpline
70
4
71
3
72
8
73
4
40
0
40
0
40
0
40
0
40
1
40
1
40
1
40
1
41
1
10
59.5004573377092
20
-5.94508282919588
30
0
41
1
10
59.5034994359766
20
-5.941252370993
30
0
41
1
10
59.5065415345
20
-5.93660824012073
30
0
41
1
10
59.5095836332798
20
-5.93115324408254
30
0
0
SPLINE
5
D8
100
AcDbEntity
8
1
62
256
6
ByLayer
370
13
48
1
60
0
100
AcDbSpline
70
4
71
3
72
10
73
6
40
0
40
0
40
0
40
0
40
0.359864345668311
40
0.761905602867772
40
1
40
1
40
1
40
1
41
1
10
57.7488118708615
20
-4.45614491819603
30
0
41
1
10
57.7718273313325
20
-4.74213591245888
30
0
41
1
10
57.8205557153805
20
-5.273519655645
30
0
41
1
10
57.8845116488878
20
-5.72970823595341
30
0
41
1
10
57.9254521209137
20
-5.87839413890867
30
0
41
1
10
57.9406796700172
20
-5.91344169172686
30
0
0
SPLINE
5
D9
100
AcDbEntity
8
1
62
256
6
ByLayer
370
18
48
1
60
0
100
AcDbSpline
70
4
71
3
72
8
73
4
40
0
40
0
40
0
40
0
40
1
40
1
40
1
40
1
41
1
10
57.9406795254453
20
-5.91344135898123
30
0
41
1
10
57.9452080032064
20
-5.92386408971774
30
0
41
1
10
57.9497364809818
20
-5.93249546602013
30
0
41
1
10
57.9542649587805
20
-5.93932429086101
30
0
0
SPLINE
5
DA
100
AcDbEntity
8
1
62
256
6
ByLayer
370
18
48
1
60
0
100
AcDbSpline
70
4
71
3
72
9
73
5
40
0
40
0
40
0
40
0
40
0.235601305663688
40
1
40
1
40
1
40
1
41
1
10
54.9601414414959
20
5.94718510788121
30
0
41
1
10
54.9613355252081
20
5.9485729123866
30
0
41
1
10
54.9664037641637
20
5.95392863827379
30
0
41
1
10
54.9714720031789
20
5.95701024482153
30
0
41
1
10
54.9753461584899
20
5.95804043467973
30
0
0
SPLINE
5
DB
100
AcDbEntity
8
1
62
256
6
ByLayer
370
13
48
1
60
0
100
AcDbSpline
70
4
71
3
72
11
73
7
40
0
40
0
40
0
40
0
40
0.289794760412338
40
0.630999743199504
40
0.972204725986671
40
1
40
1
40
1
40
1
41
1
10
54.9753463878025
20
5.95804049565547
30
0
41
1
10
54.9971850807603
20
5.96384740220171
30
0
41
1
10
55.0447367001607
20
5.88478905926291
30
0
41
1
10
55.1180012382686
20
5.45977842159812
30
0
41
1
10
55.1715217139042
20
4.92791594780837
30
0
41
1
10
55.199329266485
20
4.59812593322201
30
0
41
1
10
55.201423895229
20
4.57298639187999
30
0
0
SPLINE
5
DC
100
AcDbEntity
8
1
62
256
6
ByLayer
370
13
48
1
60
0
100
AcDbSpline
70
4
71
3
72
11
73
7
40
0
40
0
40
0
40
0
40
0.0789867584420894
40
0.39850695327482
40
0.71802714810755
40
1
40
1
40
1
40
1
41
1
10
56.5278998985308
20
5.88854798062337
30
0
41
1
10
56.5342562457188
20
5.87037938795271
30
0
41
1
10
56.5663255235913
20
5.76095481964816
30
0
41
1
10
56.6241076739868
20
5.40324751049434
30
0
41
1
10
56.6982250079471
20
4.64105118155939
30
0
41
1
10
56.746629257548
20
3.98411821706242
30
0
41
1
10
56.7693206013541
20
3.64830719314381
30
0
0
SPLINE
5
DD
100
AcDbEntity
8
1
62
256
6
ByLayer
370
13
48
1
60
0
100
AcDbSpline
70
4
71
3
72
11
73
7
40
0
40
0
40
0
40
0
40
0.0667771145891266
40
0.386135585706467
40
0.705494056823808
40
1
40
1
40
1
40
1
41
1
10
57.2250883351709
20
-4.16031003704728
30
0
41
1
10
57.2304648500578
20
-4.23236642598042
30
0
41
1
10
57.2615543057315
20
-4.63873177053529
30
0
41
1
10
57.3183567940806
20
-5.26636281323073
30
0
41
1
10
57.3934944862962
20
-5.79684847583326
30
0
41
1
10
57.4429193226639
20
-5.936626950179
30
0
41
1
10
57.4666312869154
20
-5.95400041944839
30
0
0
SPLINE
5
DE
100
AcDbEntity
8
1
62
256
6
ByLayer
370
13
48
1
60
0
100
AcDbSpline
70
4
71
3
72
12
73
8
40
0
40
0
40
0
40
0
40
0.0027880788450433
40
0.322364876222613
40
0.641941673600183
40
0.961518470977753
40
1
40
1
40
1
40
1
41
1
10
55.6572996612611
20
-3.15160918906963
30
0
41
1
10
55.6575239881118
20
-3.15517300877653
30
0
41
1
10
55.6834612378976
20
-3.56695833149098
30
0
41
1
10
55.7351114074636
20
-4.32394956894086
30
0
41
1
10
55.8122501862721
20
-5.20180610003027
30
0
41
1
10
55.8667722308323
20
-5.60739395741081
30
0
41
1
10
55.8955813501017
20
-5.75109048804006
30
0
41
1
10
55.8986775466541
20
-5.76571431024587
30
0
0
SPLINE
5
DF
100
AcDbEntity
8
1
62
256
6
ByLayer
370
18
48
1
60
0
100
AcDbSpline
70
4
71
3
72
11
73
7
40
0
40
0
40
0
40
0
40
0.151382173023089
40
0.528626409894821
40
0.971315615065832
40
1
40
1
40
1
40
1
41
1
10
66
20
0.539842416131705
30
0
41
1
10
66
20
0.360677303396727
30
0
41
1
10
66
20
-0.269531135917362
30
0
41
1
10
65.9999999999999
20
-1.43520121811511
30
0
41
1
10
66
20
-2.38119615043422
30
0
41
1
10
66
20
-2.85669185051279
30
0
41
1
10
66
20
-2.88543796431225
30
0
0
SPLINE
5
E0
100
AcDbEntity
8
1
62
256
6
ByLayer
370
13
48
1
60
0
100
AcDbSpline
70
4
71
3
72
11
73
7
40
0
40
0
40
0
40
0
40
0.297870692755556
40
0.617269033298442
40
0.936667373841329
40
1
40
1
40
1
40
1
41
1
10
57.0516697355224
20
5.80784084044862
30
0
41
1
10
57.0756495933045
20
5.70745913794744
30
0
41
1
10
57.1253423741301
20
5.39667407695427
30
0
41
1
10
57.2007480720531
20
4.62615144008117
30
0
41
1
10
57.2572724709842
20
3.85046097557941
30
0
41
1
10
57.288083941168
20
3.37774891728637
30
0
41
1
10
57.293182486809
20
3.29825675951278
30
0
0
SPLINE
5
E1
100
AcDbEntity
8
1
62
256
6
ByLayer
370
13
48
1
60
0
100
AcDbSpline
70
4
71
3
72
11
73
7
40
0
40
0
40
0
40
0
40
0.042480447586194
40
0.361661315817826
40
0.680842184049457
40
1
40
1
40
1
40
1
41
1
10
58.6194492877917
20
5.38841835414661
30
0
41
1
10
58.622871470453
20
5.36107934971594
30
0
41
1
10
58.6520065469317
20
5.12036131907468
30
0
41
1
10
58.7068545380025
20
4.54111954353615
30
0
41
1
10
58.7839916674881
20
3.46116822386102
30
0
41
1
10
58.8354155246753
20
2.60626817976271
30
0
41
1
10
58.8611265462581
20
2.15762816866055
30
0
0
SPLINE
5
E2
100
AcDbEntity
8
1
62
256
6
ByLayer
370
13
48
1
60
0
100
AcDbSpline
70
4
71
3
72
12
73
8
40
0
40
0
40
0
40
0
40
0.0245749684735525
40
0.315029901215999
40
0.605484833958445
40
0.895939766700892
40
1
40
1
40
1
40
1
41
1
10
63.5683555102314
20
-1.63463670677064
30
0
41
1
10
63.5663719522794
20
-1.59893086365
30
0
41
1
10
63.540944449955
20
-1.13999004185953
30
0
41
1
10
63.4920730008302
20
-0.229698867002071
30
0
41
1
10
63.4217411734786
20
1.09150736759364
30
0
41
1
10
63.3664541094059
20
2.08837212756393
30
0
41
1
10
63.3346109880174
20
2.62724344573869
30
0
41
1
10
63.3262118112035
20
2.76649568106365
30
0
0
SPLINE
5
E3
100
AcDbEntity
8
1
62
256
6
ByLayer
370
18
48
1
60
0
100
AcDbSpline
70
4
71
3
72
25
73
21
40
0
40
0
40
0
40
0
40
0.125
40
0.125
40
0.25
40
0.25
40
0.375
40
0.375
40
0.4375
40
0.4375
40
0.5
40
0.5
40
0.749999999999999
40
0.749999999999999
40
0.812499999999998
40
0.812499999999998
40
0.843749999999999
40
0.843749999999999
40
0.874999999999999
40
1
40
1
40
1
40
1
41
1
10
63.481466260467
20
2.80612607294265
30
0
41
1
10
63.491943033178
20
2.62480423536388
30
0
41
1
10
63.5022902917253
20
2.44028092267442
30
0
41
1
10
63.5228964670228
20
2.06503862721647
30
0
41
1
10
63.5331551753348
20
1.87432893021295
30
0
41
1
10
63.553766738166
20
1.48680834280077
30
0
41
1
10
63.5641197667783
20
1.28999778332243
30
0
41
1
10
63.5798546966308
20
0.990087609881556
30
0
41
1
10
63.5851430835144
20
0.889124477628627
30
0
41
1
10
63.5956713241463
20
0.687697768531166
30
0
41
1
10
63.6009221830161
20
0.587024877530297
30
0
41
1
10
63.6270988689551
20
0.0838594886780868
30
0
41
1
10
63.647653795068
20
-0.318043895934039
30
0
41
1
10
63.673569144039
20
-0.819603711880916
30
0
41
1
10
63.6787644728501
20
-0.919874452899762
30
0
41
1
10
63.6865870107142
20
-1.07021710823074
30
0
41
1
10
63.689201128675
20
-1.12035307585865
30
0
41
1
10
63.6944333543331
20
-1.22045818634123
30
0
41
1
10
63.7075038197247
20
-1.4699048831128
30
0
41
1
10
63.720533451992
20
-1.71527979093889
30
0
41
1
10
63.7309840786911
20
-1.90897627747802
30
0
0
SPLINE
5
E4
100
AcDbEntity
8
1
62
256
6
ByLayer
370
18
48
1
60
0
100
AcDbSpline
70
4
71
3
72
78
73
74
40
0
40
0
40
0
40
0
40
0.0625000000010003
40
0.0625000000010003
40
0.125000000002001
40
0.125000000002001
40
0.187500000003001
40
0.187500000003001
40
0.218750000003501
40
0.218750000003501
40
0.250000000004001
40
0.250000000004001
40
0.312500000005001
40
0.312500000005001
40
0.375000000006001
40
0.375000000006001
40
0.406250000006501
40
0.406250000006501
40
0.437500000007001
40
0.437500000007001
40
0.468750000007501
40
0.468750000007501
40
0.484375000007751
40
0.484375000007751
40
0.488281250007814
40
0.488281250007814
40
0.490234375007845
40
0.490234375007845
40
0.491210937507861
40
0.491210937507861
40
0.491699218757868
40
0.491699218757868
40
0.491943359382872
40
0.491943359382872
40
0.492187500007876
40
0.492187500007876
40
0.492248535164125
40
0.492248535164125
40
0.492309570320375
40
0.492309570320375
40
0.492431640632873
40
0.492431640632873
40
0.49267578125787
40
0.49267578125787
40
0.493164062507863
40
0.493164062507863
40
0.494140625007847
40
0.494140625007847
40
0.496093750007817
40
0.496093750007817
40
0.500000000007756
40
0.500000000007756
40
0.515625000007513
40
0.515625000007513
40
0.531250000007271
40
0.531250000007271
40
0.562500000006786
40
0.562500000006786
40
0.625000000005817
40
0.625000000005817
40
0.687500000004848
40
0.687500000004848
40
0.718750000004364
40
0.718750000004364
40
0.750000000003879
40
0.750000000003879
40
0.812500000002909
40
0.812500000002909
40
0.875000000001939
40
0.875000000001939
40
0.93750000000097
40
0.93750000000097
40
1
40
1
40
1
40
1
41
1
10
65.290596211731
20
-2.8434316461306
30
0
41
1
10
65.2856068118488
20
-2.74488974499755
30
0
41
1
10
65.2808279563292
20
-2.64469699991102
30
0
41
1
10
65.2713236170413
20
-2.44137053354419
30
0
41
1
10
65.2666187646739
20
-2.33852688909755
30
0
41
1
10
65.2566556480564
20
-2.13059093640749
30
0
41
1
10
65.2513148509427
20
-2.02551001417294
30
0
41
1
10
65.2430222986382
20
-1.86617797870602
30
0
41
1
10
65.2402165871025
20
-1.81278119820632
30
0
41
1
10
65.2346095965893
20
-1.70539914314816
30
0
41
1
10
65.2318057726724
20
-1.65136908725657
30
0
41
1
10
65.2235916543758
20
-1.48876867063865
30
0
41
1
10
65.2185089532343
20
-1.37967394994655
30
0
41
1
10
65.2088722842582
20
-1.1601336554258
30
0
41
1
10
65.2043243149283
20
-1.04968797339345
30
0
41
1
10
65.1969346462484
20
-0.883099193726906
30
0
41
1
10
65.194367363821
20
-0.827417025574391
30
0
41
1
10
65.1890903657794
20
-0.715739459522808
30
0
41
1
10
65.1863777197906
20
-0.659734652043056
30
0
41
1
10
65.181026220861
20
-0.547611961956477
30
0
41
1
10
65.1783600431392
20
-0.491460656045462
30
0
41
1
10
65.174864446859
20
-0.40710820142246
30
0
41
1
10
65.1737467719131
20
-0.378974857715292
30
0
41
1
10
65.1728277173668
20
-0.343765733501698
30
0
41
1
10
65.1726691677042
20
-0.33672179247165
30
0
41
1
10
65.172543310693
20
-0.326153140380853
30
0
41
1
10
65.1725184080261
20
-0.322629737462137
30
0
41
1
10
65.1725577181193
20
-0.317342733233431
30
0
41
1
10
65.1725825301272
20
-0.315579556594884
30
0
41
1
10
65.1726724052181
20
-0.312936319925569
30
0
41
1
10
65.1727104675654
20
-0.312055086497395
30
0
41
1
10
65.1728032610806
20
-0.310735547504152
30
0
41
1
10
65.1728397496976
20
-0.310296201703125
30
0
41
1
10
65.1729438678698
20
-0.309420317410485
30
0
41
1
10
65.1729685798456
20
-0.308963096648512
30
0
41
1
10
65.1732089521867
20
-0.308466976130575
30
0
41
1
10
65.1733240417516
20
-0.308384101365561
30
0
41
1
10
65.173482056188
20
-0.308530478134713
30
0
41
1
10
65.1735264447467
20
-0.308634200509374
30
0
41
1
10
65.1736537122587
20
-0.308933183403667
30
0
41
1
10
65.1737142975651
20
-0.309140925305542
30
0
41
1
10
65.1738842414523
20
-0.309768247047032
30
0
41
1
10
65.1739735139175
20
-0.310193763806211
30
0
41
1
10
65.1742226220319
20
-0.311470953217167
30
0
41
1
10
65.1743593662498
20
-0.31232825495988
30
0
41
1
10
65.1747445127834
20
-0.31490512178064
30
0
41
1
10
65.1749625462257
20
-0.316628876839758
30
0
41
1
10
65.1755809027218
20
-0.321803574375451
30
0
41
1
10
65.1759398073224
20
-0.325260187119852
30
0
41
1
10
65.1769652585787
20
-0.33563612791113
30
0
41
1
10
65.1775729362444
20
-0.342560496450631
30
0
41
1
10
65.1804850906392
20
-0.377189586152923
30
0
41
1
10
65.182430756412
20
-0.404918778252039
30
0
41
1
10
65.1862267998611
20
-0.46034466033467
30
0
41
1
10
65.1880314023092
20
-0.488047529357857
30
0
41
1
10
65.1933423251959
20
-0.571110293185853
30
0
41
1
10
65.1967462647814
20
-0.626448640316369
30
0
41
1
10
65.2070420087808
20
-0.792060505796854
30
0
41
1
10
65.2140663343252
20
-0.901807340209558
30
0
41
1
10
65.2289234010183
20
-1.11993796662867
30
0
41
1
10
65.236518769598
20
-1.2283495365941
30
0
41
1
10
65.2474606047093
20
-1.39006437946696
30
0
41
1
10
65.2510420682389
20
-1.44381765696102
30
0
41
1
10
65.2580062088106
20
-1.55102625880954
30
0
41
1
10
65.2613851019551
20
-1.60448193514719
30
0
41
1
10
65.2714208195779
20
-1.76437802257263
30
0
41
1
10
65.2779462277243
20
-1.86969044842502
30
0
41
1
10
65.2914239000576
20
-2.07765062401486
30
0
41
1
10
65.2984091017582
20
-2.18029799756599
30
0
41
1
10
65.3130085367168
20
-2.38293379476497
30
0
41
1
10
65.320523058205
20
-2.48293897839034
30
0
41
1
10
65.3354430468274
20
-2.68040439905408
30
0
41
1
10
65.3428559139535
20
-2.77786338019908
30
0
41
1
10
65.3500571941555
20
-2.87405240322397
30
0
0
SPLINE
5
E5
100
AcDbEntity
8
1
62
256
6
ByLayer
370
18
48
1
60
0
100
AcDbSpline
70
4
71
3
72
10
73
6
40
0
40
0
40
0
40
0
40
0.366612708476397
40
0.732197676728708
40
1
40
1
40
1
40
1
41
1
10
65.4000000752764
20
-2.89952295872931
30
0
41
1
10
65.4000000886307
20
-2.45978855742769
30
0
41
1
10
65.4000000240774
20
-1.51499054282965
30
0
41
1
10
65.3999999549785
20
-0.133541695392182
30
0
41
1
10
65.3999999323237
20
0.735225946700695
30
0
41
1
10
65.3999999265508
20
1.09485406740089
30
0
0
SPLINE
5
E6
100
AcDbEntity
8
1
62
256
6
ByLayer
370
13
48
1
60
0
100
AcDbSpline
70
4
71
3
72
11
73
7
40
0
40
0
40
0
40
0
40
0.103182248402675
40
0.422857515024841
40
0.742532781647008
40
1
40
1
40
1
40
1
41
1
10
55.1335729131344
20
-2.77994156612911
30
0
41
1
10
55.1418723067626
20
-2.91737057629462
30
0
41
1
10
55.1758845604389
20
-3.46897137130696
30
0
41
1
10
55.235609781275
20
-4.34132155075159
30
0
41
1
10
55.3077449319683
20
-5.15768580517522
30
0
41
1
10
55.3541670741075
20
-5.51748773995311
30
0
41
1
10
55.3748763235498
20
-5.64216400694266
30
0
0
SPLINE
5
E7
100
AcDbEntity
8
1
62
256
6
ByLayer
370
13
48
1
60
0
100
AcDbSpline
70
4
71
3
72
11
73
7
40
0
40
0
40
0
40
0
40
0.214821463272892
40
0.50532276492254
40
0.795824066572189
40
1
40
1
40
1
40
1
41
1
10
63.0445810354899
20
-1.21765403246394
30
0
41
1
10
63.0272445360635
20
-0.89999189765058
30
0
41
1
10
62.9864639558535
20
-0.140040425742427
30
0
41
1
10
62.9222395526147
20
1.06673347769845
30
0
41
1
10
62.8588744977478
20
2.21074651533183
30
0
41
1
10
62.8189533423719
20
2.87658925166974
30
0
41
1
10
62.8024760231032
20
3.13879302564556
30
0
0
SPLINE
5
E8
100
AcDbEntity
8
1
62
256
6
ByLayer
370
18
48
1
60
0
100
AcDbSpline
70
4
71
3
72
27
73
23
40
0
40
0
40
0
40
0
40
0.125000000000001
40
0.125000000000001
40
0.250000000000001
40
0.250000000000001
40
0.375000000000002
40
0.375000000000002
40
0.406250000000001
40
0.406250000000001
40
0.437500000000001
40
0.500000000000001
40
0.500000000000001
40
0.625000000000001
40
0.625000000000001
40
0.75
40
0.75
40
0.8125
40
0.8125
40
0.875
40
0.875
40
1
40
1
40
1
40
1
41
1
10
62.743689266379
20
-1.19492938919521
30
0
41
1
10
62.7331449003289
20
-0.983333276717246
30
0
41
1
10
62.7226677585021
20
-0.77125724483011
30
0
41
1
10
62.7017564817752
20
-0.346172745607589
30
0
41
1
10
62.6913054228424
20
-0.133165000256156
30
0
41
1
10
62.6705362471487
20
0.29380533003112
30
0
41
1
10
62.660208219385
20
0.507765614159723
30
0
41
1
10
62.6471712063877
20
0.775809012802881
30
0
41
1
10
62.6445551087023
20
0.829493770641278
30
0
41
1
10
62.6393332933898
20
0.936343157629778
30
0
41
1
10
62.6315081630838
20
1.0960312621674
30
0
41
1
10
62.6236732646884
20
1.25398472742324
30
0
41
1
10
62.6079800583676
20
1.56761610993442
30
0
41
1
10
62.5974912856855
20
1.77367688559619
30
0
41
1
10
62.5764758480643
20
2.17975789564949
30
0
41
1
10
62.5659498558033
20
2.37977745254224
30
0
41
1
10
62.5501417461555
20
2.67510778204385
30
0
41
1
10
62.5448703917278
20
2.77276720953301
30
0
41
1
10
62.5343229396308
20
2.96648254704815
30
0
41
1
10
62.5290815624371
20
3.061900119379
30
0
41
1
10
62.5134269382653
20
3.34380024452906
30
0
41
1
10
62.5030904124061
20
3.52597721405266
30
0
41
1
10
62.4926517572087
20
3.70249091990254
30
0
0
SPLINE
5
E9
100
AcDbEntity
8
1
62
256
6
ByLayer
370
18
48
1
60
0
100
AcDbSpline
70
4
71
3
72
29
73
25
40
0
40
0
40
0
40
0
40
0.124999999999999
40
0.124999999999999
40
0.249999999999998
40
0.249999999999998
40
0.312499999999998
40
0.312499999999998
40
0.343749999999998
40
0.343749999999998
40
0.374999999999998
40
0.374999999999998
40
0.499999999999998
40
0.499999999999998
40
0.624999999999998
40
0.624999999999998
40
0.749999999999998
40
0.749999999999998
40
0.781249999999998
40
0.781249999999998
40
0.812499999999998
40
0.874999999999999
40
0.874999999999999
40
1
40
1
40
1
40
1
41
1
10
61.6592817307756
20
4.44491675749845
30
0
41
1
10
61.6700258863777
20
4.27690853451781
30
0
41
1
10
61.6807192297489
20
4.10234928539188
30
0
41
1
10
61.702269962363
20
3.74061939708426
30
0
41
1
10
61.7130827669179
20
3.55340317890872
30
0
41
1
10
61.7293484337887
20
3.26281268077241
30
0
41
1
10
61.7347791752607
20
3.16431944676833
30
0
41
1
10
61.7429313105842
20
3.0140870340492
30
0
41
1
10
61.7456498147434
20
2.963593985291
30
0
41
1
10
61.7510893678713
20
2.86176684419485
30
0
41
1
10
61.7538135833894
20
2.81037174027034
30
0
41
1
10
61.7673707047205
20
2.55267370900006
30
0
41
1
10
61.7780413976003
20
2.34337990795538
30
0
41
1
10
61.7993562452388
20
1.91880248475724
30
0
41
1
10
61.8100206620797
20
1.70352147126408
30
0
41
1
10
61.8314815302639
20
1.267033676148
30
0
41
1
10
61.8422750003598
20
1.0458273903605
30
0
41
1
10
61.8559091136656
20
0.765499135254771
30
0
41
1
10
61.8586438890987
20
0.709224941199551
30
0
41
1
10
61.8641259958227
20
0.596357728133825
30
0
41
1
10
61.8723454686833
20
0.427068555218256
30
0
41
1
10
61.8805452101675
20
0.257813712891419
30
0
41
1
10
61.896888016554
20
-0.080651731608441
30
0
41
1
10
61.9076773611168
20
-0.306237708339353
30
0
41
1
10
61.9184893054414
20
-0.531760034076598
30
0
0
SPLINE
5
EA
100
AcDbEntity
8
1
62
256
6
ByLayer
370
13
48
1
60
0
100
AcDbSpline
70
4
71
3
72
12
73
8
40
0
40
0
40
0
40
0
40
0.0999473773666396
40
0.390640178690507
40
0.681332980014374
40
0.972025781338241
40
1
40
1
40
1
40
1
41
1
10
61.4766317169169
20
0.0611782713337163
30
0
41
1
10
61.4685711087607
20
0.212064354242898
30
0
41
1
10
61.4370665562029
20
0.801562269750917
30
0
41
1
10
61.3821180622027
20
1.81649974046945
30
0
41
1
10
61.3117862333346
20
3.02729223826978
30
0
41
1
10
61.2626422623027
20
3.77045786474676
30
0
41
1
10
61.2369422390682
20
4.1192645852062
30
0
41
1
10
61.234686159775
20
4.14957139744348
30
0
0
SPLINE
5
EB
100
AcDbEntity
8
1
62
256
6
ByLayer
370
13
48
1
60
0
100
AcDbSpline
70
4
71
3
72
11
73
7
40
0
40
0
40
0
40
0
40
0.261341057172517
40
0.580431145154456
40
0.899521233136395
40
1
40
1
40
1
40
1
41
1
10
59.143177971954
20
5.1917642666748
30
0
41
1
10
59.1642373618965
20
4.99826501594609
30
0
41
1
10
59.211009675123
20
4.4927564231931
30
0
41
1
10
59.2834949162125
20
3.48165435324228
30
0
41
1
10
59.3430175471377
20
2.49438500377153
30
0
41
1
10
59.3768272513068
20
1.89652297015814
30
0
41
1
10
59.3849240328796
20
1.75164771578244
30
0
0
SPLINE
5
EC
100
AcDbEntity
8
1
62
256
6
ByLayer
370
13
48
1
60
0
100
AcDbSpline
70
4
71
3
72
11
73
7
40
0
40
0
40
0
40
0
40
0.290294720270036
40
0.581083613008336
40
0.871872505746637
40
1
40
1
40
1
40
1
41
1
10
60.9528288048297
20
0.490597120166825
30
0
41
1
10
60.9294246992093
20
0.927214974110683
30
0
41
1
10
60.8825767332346
20
1.79321940321597
30
0
41
1
10
60.8122849765641
20
3.00563561065348
30
0
41
1
10
60.7550670226163
20
3.87347720224713
30
0
41
1
10
60.7212931329869
20
4.31726883939007
30
0
41
1
10
60.7109632394418
20
4.44599762469056
30
0
0
SPLINE
5
ED
100
AcDbEntity
8
1
62
256
6
ByLayer
370
18
48
1
60
0
100
AcDbSpline
70
4
71
3
72
33
73
29
40
0
40
0
40
0
40
0
40
0.0312499999999998
40
0.0312499999999998
40
0.0624999999999996
40
0.124999999999999
40
0.124999999999999
40
0.249999999999998
40
0.249999999999998
40
0.374999999999996
40
0.374999999999996
40
0.406249999999996
40
0.406249999999996
40
0.437499999999996
40
0.437499999999996
40
0.499999999999996
40
0.499999999999996
40
0.624999999999997
40
0.624999999999997
40
0.749999999999997
40
0.749999999999997
40
0.812499999999997
40
0.812499999999997
40
0.843749999999998
40
0.843749999999998
40
0.874999999999998
40
0.874999999999998
40
1
40
1
40
1
40
1
41
1
10
59.812946922342
20
5.92782289515358
30
0
41
1
10
59.8157230373195
20
5.89403530230751
30
0
41
1
10
59.8185076562136
20
5.85945150133566
30
0
41
1
10
59.8240632777728
20
5.78909214237058
30
0
41
1
10
59.8323760788645
20
5.68177737769025
30
0
41
1
10
59.8406390258058
20
5.56920143955682
30
0
41
1
10
59.8571426807113
20
5.33715388050933
30
0
41
1
10
59.8681364741796
20
5.17328004080332
30
0
41
1
10
59.8901274580068
20
4.82735410909754
30
0
41
1
10
59.9011161885417
20
4.64530234525444
30
0
41
1
10
59.9149261404562
20
4.406116646713
30
0
41
1
10
59.9176922545512
20
4.35769697594486
30
0
41
1
10
59.9232365306236
20
4.25967996029516
30
0
41
1
10
59.9260188327491
20
4.21000758404605
30
0
41
1
10
59.9343535142516
20
4.05987233228336
30
0
41
1
10
59.9398955492925
20
3.95830327570945
30
0
41
1
10
59.9564766396055
20
3.64925194278251
30
0
41
1
10
59.9674644543247
20
3.43743672164149
30
0
41
1
10
59.9893935049203
20
3.00244750092779
30
0
41
1
10
60.0003360457181
20
2.77927342066923
30
0
41
1
10
60.0168888550434
20
2.43587368629153
30
0
41
1
10
60.0224272637452
20
2.31996440252291
30
0
41
1
10
60.0307653761199
20
2.14389337660811
30
0
41
1
10
60.0335540563065
20
2.08474646521859
30
0
41
1
10
60.0391177390125
20
1.96623865658827
30
0
41
1
10
60.0418927723224
20
1.90687814991782
30
0
41
1
10
60.0557378217097
20
1.60954890005041
30
0
41
1
10
60.0667117785071
20
1.37000409854664
30
0
41
1
10
60.077680195938
20
1.12882451558053
30
0
0
SPLINE
5
EE
100
AcDbEntity
8
1
62
256
6
ByLayer
370
18
48
1
60
0
100
AcDbSpline
70
4
71
3
72
8
73
4
40
0
40
0
40
0
40
0
40
1
40
1
40
1
40
1
41
1
10
60.0030485851099
20
5.8241842158337
30
0
41
1
10
59.9397495574424
20
5.85939236112102
30
0
41
1
10
59.8763896631807
20
5.89394318342283
30
0
41
1
10
59.8129469223426
20
5.92782289515358
30
0
0
SPLINE
5
EF
100
AcDbEntity
8
1
62
256
6
ByLayer
370
18
48
1
60
0
100
AcDbSpline
70
4
71
3
72
10
73
6
40
0
40
0
40
0
40
0
40
0.5
40
0.5
40
1
40
1
40
1
40
1
41
1
10
60.0268319538537
20
5.80563232256429
30
0
41
1
10
60.1391536104332
20
5.57749260927508
30
0
41
1
10
60.2522174301968
20
5.34983222781364
30
0
41
1
10
60.4803805679576
20
4.89588755295992
30
0
41
1
10
60.5951550446184
20
4.67019931187846
30
0
41
1
10
60.7109632394418
20
4.44599762469056
30
0
0
SPLINE
5
F0
100
AcDbEntity
8
1
62
256
6
ByLayer
370
18
48
1
60
0
100
AcDbSpline
70
4
71
3
72
34
73
30
40
0
40
0
40
0
40
0
40
0.125000000000029
40
0.125000000000029
40
0.187500000000043
40
0.187500000000043
40
0.250000000000056
40
0.250000000000056
40
0.375000000000044
40
0.375000000000044
40
0.437500000000016
40
0.437500000000016
40
0.499999999999988
40
0.499999999999988
40
0.624999999999976
40
0.624999999999976
40
0.687499999999993
40
0.687499999999993
40
0.750000000000009
40
0.750000000000009
40
0.812500000000025
40
0.812500000000025
40
0.843750000000033
40
0.843750000000033
40
0.875000000000042
40
0.875000000000042
40
0.937500000000021
40
0.937500000000021
40
1
40
1
40
1
40
1
41
1
10
60.7109632394418
20
4.44599762469056
30
0
41
1
10
60.7255041468916
20
4.41784680178506
30
0
41
1
10
60.7424683490275
20
4.39142439153605
30
0
41
1
10
60.7706585353079
20
4.35374718454173
30
0
41
1
10
60.7805238994699
20
4.34152227964447
30
0
41
1
10
60.8011406816332
20
4.31770431751337
30
0
41
1
10
60.8117971039466
20
4.30622640200943
30
0
41
1
10
60.8443805020764
20
4.27332682268494
30
0
41
1
10
60.8670551426165
20
4.25325560816049
30
0
41
1
10
60.9023686520601
20
4.22573759118472
30
0
41
1
10
60.9144043437033
20
4.21697135270139
30
0
41
1
10
60.9387087985384
20
4.20047548804175
30
0
41
1
10
60.9509054453066
20
4.19278987667582
30
0
41
1
10
60.9876112524377
20
4.17138990709711
30
0
41
1
10
61.0122348612546
20
4.15930513895714
30
0
41
1
10
61.0493586506307
20
4.14477657147347
30
0
41
1
10
61.0618300745851
20
4.14052514363308
30
0
41
1
10
61.0863430270913
20
4.13351380257066
30
0
41
1
10
61.0984171091921
20
4.13073347665218
30
0
41
1
10
61.1221598884329
20
4.1267333286977
30
0
41
1
10
61.1338290241611
20
4.125511796833
30
0
41
1
10
61.1509782589014
20
4.12501329393351
30
0
41
1
10
61.156655593764
20
4.12507222294167
30
0
41
1
10
61.1677499215761
20
4.12567092199896
30
0
41
1
10
61.1731705558662
20
4.12620855032367
30
0
41
1
10
61.189034449433
20
4.12856941826647
30
0
41
1
10
61.1990831034054
20
4.13113359798223
30
0
41
1
10
61.2179618057281
20
4.1385559195185
30
0
41
1
10
61.2268082402081
20
4.14344708847668
30
0
41
1
10
61.2346861597724
20
4.149571397437
30
0
0
SPLINE
5
F1
100
AcDbEntity
8
1
62
256
6
ByLayer
370
18
48
1
60
0
100
AcDbSpline
70
4
71
3
72
10
73
6
40
0
40
0
40
0
40
0
40
0.5
40
0.5
40
1
40
1
40
1
40
1
41
1
10
61.234686159775
20
4.14957139744345
30
0
41
1
10
61.3060714360331
20
4.20506644070812
30
0
41
1
10
61.3771191656242
20
4.2574603147616
30
0
41
1
10
61.5186380824597
20
4.35594663210353
30
0
41
1
10
61.5891483431537
20
4.4020460052067
30
0
41
1
10
61.6592817307756
20
4.44491675749853
30
0
0
SPLINE
5
F2
100
AcDbEntity
8
1
62
256
6
ByLayer
370
18
48
1
60
0
100
AcDbSpline
70
4
71
3
72
10
73
6
40
0
40
0
40
0
40
0
40
0.5
40
0.5
40
1
40
1
40
1
40
1
41
1
10
61.6592817307757
20
4.44491675749853
30
0
41
1
10
61.7978554289565
20
4.32318122996779
30
0
41
1
10
61.9363929948747
20
4.20024000711078
30
0
41
1
10
62.2141006567014
20
3.95265732978047
30
0
41
1
10
62.3532144661673
20
3.82797620805656
30
0
41
1
10
62.4926517572086
20
3.70249091990243
30
0
0
SPLINE
5
F3
100
AcDbEntity
8
1
62
256
6
ByLayer
370
18
48
1
60
0
100
AcDbSpline
70
4
71
3
72
8
73
4
40
0
40
0
40
0
40
0
40
1
40
1
40
1
40
1
41
1
10
62.4926517572086
20
3.70249091990243
30
0
41
1
10
62.5952743261775
20
3.51138140499853
30
0
41
1
10
62.698462131482
20
3.32340681576119
30
0
41
1
10
62.8024760231032
20
3.13879302564561
30
0
0
SPLINE
5
F4
100
AcDbEntity
8
1
62
256
6
ByLayer
370
18
48
1
60
0
100
AcDbSpline
70
4
71
3
72
34
73
30
40
0
40
0
40
0
40
0
40
0.124999999999971
40
0.124999999999971
40
0.187499999999957
40
0.187499999999957
40
0.249999999999942
40
0.249999999999942
40
0.374999999999952
40
0.374999999999952
40
0.437499999999957
40
0.437499999999957
40
0.499999999999961
40
0.499999999999961
40
0.624999999999973
40
0.624999999999973
40
0.687499999999979
40
0.687499999999979
40
0.749999999999984
40
0.749999999999984
40
0.81249999999999
40
0.81249999999999
40
0.843749999999992
40
0.843749999999992
40
0.874999999999993
40
0.874999999999993
40
0.937499999999997
40
0.937499999999997
40
1
40
1
40
1
40
1
41
1
10
62.8024760231032
20
3.13879302564561
30
0
41
1
10
62.8170305275209
20
3.11296030097856
30
0
41
1
10
62.834012465118
20
3.08786423823741
30
0
41
1
10
62.8622309117229
20
3.05106459534224
30
0
41
1
10
62.8721060474297
20
3.03894190063824
30
0
41
1
10
62.8927427911211
20
3.01496768549976
30
0
41
1
10
62.9034088971862
20
3.00323133910624
30
0
41
1
10
62.9360193493341
20
2.9690701869153
30
0
41
1
10
62.958709558703
20
2.94751483614547
30
0
41
1
10
62.9940430573341
20
2.91685813095592
30
0
41
1
10
63.00608571238
20
2.90688600456065
30
0
41
1
10
63.0303966010822
20
2.88768545575826
30
0
41
1
10
63.0425955630488
20
2.87850776892651
30
0
41
1
10
63.0793051410616
20
2.85221185004758
30
0
41
1
10
63.103926972653
20
2.83631052850896
30
0
41
1
10
63.1410409667773
20
2.81511343377974
30
0
41
1
10
63.1535064470655
20
2.80846676777597
30
0
41
1
10
63.1780010881728
20
2.79640719122389
30
0
41
1
10
63.1900655664073
20
2.79096822130649
30
0
41
1
10
63.2137880398929
20
2.78135620224168
30
0
41
1
10
63.2254465117626
20
2.7771818302628
30
0
41
1
10
63.2425791035178
20
2.7719994214404
30
0
41
1
10
63.2482507009705
20
2.77044827026961
30
0
41
1
10
63.2593337869512
20
2.76777159512994
30
0
41
1
10
63.2647489493198
20
2.76664346993971
30
0
41
1
10
63.2805969625604
20
2.76391880464408
30
0
41
1
10
63.290635729974
20
2.76297567401062
30
0
41
1
10
63.3094967812584
20
2.76311339948458
30
0
41
1
10
63.3183371132865
20
2.76421385241375
30
0
41
1
10
63.326211811201
20
2.76649568105805
30
0
0
SPLINE
5
F5
100
AcDbEntity
8
1
62
256
6
ByLayer
370
18
48
1
60
0
100
AcDbSpline
70
4
71
3
72
8
73
4
40
0
40
0
40
0
40
0
40
1
40
1
40
1
40
1
41
1
10
63.3262118112035
20
2.76649568106365
30
0
41
1
10
63.3781399576978
20
2.78154275123975
30
0
41
1
10
63.4298827582691
20
2.79473840514439
30
0
41
1
10
63.481466260467
20
2.80612607294256
30
0
0
SPLINE
5
F6
100
AcDbEntity
8
1
62
256
6
ByLayer
370
18
48
1
60
0
100
AcDbSpline
70
4
71
3
72
16
73
12
40
0
40
0
40
0
40
0
40
0.499999999999982
40
0.499999999999982
40
0.624999999999986
40
0.624999999999986
40
0.749999999999991
40
0.749999999999991
40
0.874999999999995
40
0.874999999999995
40
1
40
1
40
1
40
1
41
1
10
63.4814662604669
20
2.80612607294262
30
0
41
1
10
63.7934106598764
20
2.521990938991
30
0
41
1
10
64.1088277325251
20
2.23582407666979
30
0
41
1
10
64.5092664937909
20
1.87760223895324
30
0
41
1
10
64.5896918988179
20
1.80590269182633
30
0
41
1
10
64.7510476234672
20
1.66259942393614
30
0
41
1
10
64.8318320141019
20
1.5911230714716
30
0
41
1
10
64.9936176111459
20
1.44852336746683
30
0
41
1
10
65.0746013470392
20
1.37737970414821
30
0
41
1
10
65.2368882909769
20
1.23556339788465
30
0
41
1
10
65.3182467438119
20
1.16495508082383
30
0
41
1
10
65.3999999265507
20
1.09485406740106
30
0
0
SPLINE
5
F7
100
AcDbEntity
8
1
62
256
6
ByLayer
370
18
48
1
60
0
100
AcDbSpline
70
4
71
3
72
12
73
8
40
0
40
0
40
0
40
0
40
0.25
40
0.25
40
0.5
40
0.5
40
1
40
1
40
1
40
1
41
1
10
65.3999999265508
20
1.09485406740092
30
0
41
1
10
65.447910760232
20
1.04207574378125
30
0
41
1
10
65.4962887712113
20
0.990798348378547
30
0
41
1
10
65.5941019980496
20
0.891350682548648
30
0
41
1
10
65.6435694400963
20
0.843156837579272
30
0
41
1
10
65.793586943459
20
0.70373994584034
30
0
41
1
10
65.8956878045951
20
0.617700239574646
30
0
41
1
10
66
20
0.539842416131705
30
0
0
SPLINE
5
F8
100
AcDbEntity
8
1
62
256
6
ByLayer
370
18
48
1
60
0
100
AcDbSpline
70
4
71
3
72
57
73
53
40
0
40
0
40
0
40
0
40
0.0460353066466357
40
0.0460353066466357
40
0.0778341297584139
40
0.0778341297584139
40
0.0937335413143032
40
0.0937335413143032
40
0.109632952870192
40
0.109632952870192
40
0.141431775981971
40
0.141431775981971
40
0.17323059909375
40
0.17323059909375
40
0.236828245317308
40
0.236828245317308
40
0.364023537764423
40
0.364023537764423
40
0.395822360876202
40
0.395822360876202
40
0.411721772432092
40
0.411721772432092
40
0.427621183987981
40
0.491218830211539
40
0.491218830211539
40
0.523017653323318
40
0.523017653323318
40
0.538917064879208
40
0.538917064879208
40
0.554816476435097
40
0.618414122658655
40
0.618414122658655
40
0.682011768882213
40
0.682011768882213
40
0.74560941510577
40
0.74560941510577
40
0.777408238217549
40
0.777408238217549
40
0.793307649773439
40
0.793307649773439
40
0.809207061329328
40
0.809207061329328
40
0.872804707552886
40
0.872804707552886
40
0.904603530664665
40
0.904603530664665
40
0.920502942220555
40
0.920502942220555
40
0.928452647998499
40
0.928452647998499
40
0.936402353776444
40
1
40
1
40
1
40
1
41
1
10
66.0000000000001
20
0.536894629821319
30
0
41
1
10
66.0000000000001
20
0.536774930069413
30
0
41
1
10
66.0000000000001
20
0.543064293574361
30
0
41
1
10
66
20
0.564154599561533
30
0
41
1
10
66
20
0.575765967671828
30
0
41
1
10
66
20
0.597653635861604
30
0
41
1
10
66
20
0.605686115326364
30
0
41
1
10
66
20
0.623301255376049
30
0
41
1
10
66
20
0.632976873691405
30
0
41
1
10
65.9999999999999
20
0.663504310170538
30
0
41
1
10
65.9999999999999
20
0.68546549854932
30
0
41
1
10
65.9999999999999
20
0.732432207293044
30
0
41
1
10
66
20
0.757339895938713
30
0
41
1
10
65.9999999999999
20
0.836268245246345
30
0
41
1
10
66
20
0.894479234182285
30
0
41
1
10
66.0000000000001
20
1.08540833121202
30
0
41
1
10
66
20
1.23440061647753
30
0
41
1
10
66
20
1.44831108561661
30
0
41
1
10
66
20
1.49248185751844
30
0
41
1
10
66.0000000000001
20
1.56085488454698
30
0
41
1
10
66.0000000000001
20
1.58401846145273
30
0
41
1
10
66.0000000000001
20
1.63092177181531
30
0
41
1
10
66.0000000000001
20
1.749659203904
30
0
41
1
10
66.0000000000001
20
1.87572132695732
30
0
41
1
10
66.0000000000001
20
2.03401011237881
30
0
41
1
10
65.9999999999999
20
2.08794186099019
30
0
41
1
10
65.9999999999999
20
2.1706026299502
30
0
41
1
10
66
20
2.19847235091072
30
0
41
1
10
66
20
2.25469164370418
30
0
41
1
10
66
20
2.39635485700117
30
0
41
1
10
66.0000000000001
20
2.54351323199026
30
0
41
1
10
66
20
2.78583152346178
30
0
41
1
10
65.9999999999999
20
2.91042370853719
30
0
41
1
10
65.9999999999999
20
3.16643454769411
30
0
41
1
10
66.0000000000001
20
3.29783862901417
30
0
41
1
10
66.0000000000001
20
3.50012158192345
30
0
41
1
10
66
20
3.56841466040154
30
0
41
1
10
66.0000000000001
20
3.67218336073665
30
0
41
1
10
66
20
3.70698791819117
30
0
41
1
10
66
20
3.77701643565925
30
0
41
1
10
66
20
3.81245862731191
30
0
41
1
10
66
20
3.99057131647177
30
0
41
1
10
66
20
4.1364206730388
30
0
41
1
10
66.0000000000001
20
4.36003855083831
30
0
41
1
10
65.9999999999999
20
4.4353910134854
30
0
41
1
10
66
20
4.54967421484716
30
0
41
1
10
66
20
4.58797693243247
30
0
41
1
10
66
20
4.64574753697988
30
0
41
1
10
66
20
4.66507194921357
30
0
41
1
10
66
20
4.70363887983336
30
0
41
1
10
66.0000000000001
20
4.8770102471162
30
0
41
1
10
66
20
5.04878376747226
30
0
41
1
10
66
20
5.2002492762924
30
0
0
SPLINE
5
F9
100
AcDbEntity
8
1
62
256
6
ByLayer
370
18
48
1
60
0
100
AcDbSpline
70
4
71
3
72
16
73
12
40
0
40
0
40
0
40
0
40
0.499999999999983
40
0.499999999999983
40
0.749999999999991
40
0.749999999999991
40
0.87499999999998
40
0.87499999999998
40
0.93749999999999
40
0.93749999999999
40
1
40
1
40
1
40
1
41
1
10
66
20
5.2002492762924
30
0
41
1
10
65.901673790132
20
5.30138070924139
30
0
41
1
10
65.8025072180415
20
5.40217327544138
30
0
41
1
10
65.6525056426267
20
5.5532446386656
30
0
41
1
10
65.6022993777195
20
5.60357946199272
30
0
41
1
10
65.526671698763
20
5.67910916200523
30
0
41
1
10
65.5014102992172
20
5.70428944391753
30
0
41
1
10
65.4634379929786
20
5.74207398384175
30
0
41
1
10
65.4507675515619
20
5.75467079550515
30
0
41
1
10
65.4253937760806
20
5.77987672872027
30
0
41
1
10
65.4126930232925
20
5.79248325413866
30
0
41
1
10
65.4000000752764
20
5.80507058671094
30
0
0
SPLINE
5
FA
100
AcDbEntity
8
1
62
256
6
ByLayer
370
18
48
1
60
0
100
AcDbSpline
70
4
71
3
72
8
73
4
40
0
40
0
40
0
40
0
40
1
40
1
40
1
40
1
41
1
10
65.4000000752764
20
5.80507058671077
30
0
41
1
10
65.2445637627908
20
5.84376027834654
30
0
41
1
10
65.0894758768181
20
5.87904573033751
30
0
41
1
10
64.9351545708194
20
5.91067243041007
30
0
0
SPLINE
5
FB
100
AcDbEntity
8
1
62
256
6
ByLayer
370
18
48
1
60
0
100
AcDbSpline
70
4
71
3
72
32
73
28
40
0
40
0
40
0
40
0
40
0.124999999999939
40
0.124999999999939
40
0.249999999999878
40
0.249999999999878
40
0.312499999999848
40
0.312499999999848
40
0.374999999999817
40
0.374999999999817
40
0.4999999999998
40
0.4999999999998
40
0.562499999999792
40
0.562499999999792
40
0.624999999999783
40
0.624999999999783
40
0.749999999999812
40
0.749999999999812
40
0.81249999999985
40
0.81249999999985
40
0.874999999999887
40
0.874999999999887
40
0.906249999999906
40
0.906249999999906
40
0.937499999999925
40
0.937499999999925
40
1
40
1
40
1
40
1
41
1
10
64.9351545708194
20
5.91067243041007
30
0
41
1
10
64.9198073417656
20
5.89195088150018
30
0
41
1
10
64.9028090324135
20
5.87536766012622
30
0
41
1
10
64.8658737585927
20
5.84599952899708
30
0
41
1
10
64.8463319450522
20
5.83354264392321
30
0
41
1
10
64.8157040168512
20
5.81796796772718
30
0
41
1
10
64.8052662832774
20
5.81329506608904
30
0
41
1
10
64.7839374729658
20
5.8049925368538
30
0
41
1
10
64.7730048729899
20
5.80135410462248
30
0
41
1
10
64.73999477631
20
5.79218899059472
30
0
41
1
10
64.717618434085
20
5.78833799949746
30
0
41
1
10
64.6835239447911
20
5.7861116003991
30
0
41
1
10
64.6720701161636
20
5.78596603760161
30
0
41
1
10
64.6489792871335
20
5.7869674513519
30
0
41
1
10
64.6372935677561
20
5.788121926055
30
0
41
1
10
64.6022850327262
20
5.7937193439067
30
0
41
1
10
64.5793136388699
20
5.80018095346458
30
0
41
1
10
64.5455830758372
20
5.81484838093417
30
0
41
1
10
64.5343850382953
20
5.82062804812469
30
0
41
1
10
64.512769441733
20
5.83388275356506
30
0
41
1
10
64.502341783003
20
5.84134473839626
30
0
41
1
10
64.4873436118257
20
5.85394411360693
30
0
41
1
10
64.4824518543867
20
5.8583792548574
30
0
41
1
10
64.4729024409364
20
5.86776118984025
30
0
41
1
10
64.4682275523905
20
5.87272930509576
30
0
41
1
10
64.4547742596602
20
5.88826413585571
30
0
41
1
10
64.4465320997934
20
5.89947384682893
30
0
41
1
10
64.4391034858604
20
5.91164173554574
30
0
0
SPLINE
5
FC
100
AcDbEntity
8
1
62
256
6
ByLayer
370
18
48
1
60
0
100
AcDbSpline
70
4
71
3
72
8
73
4
40
0
40
0
40
0
40
0
40
1
40
1
40
1
40
1
41
1
10
64.4391034858604
20
5.91164173554574
30
0
41
1
10
64.4192332243565
20
5.94418873999842
30
0
41
1
10
64.3993809427688
20
5.97664370589416
30
0
41
1
10
64.3795456613325
20
6.00900714695408
30
0
0
SPLINE
5
FD
100
AcDbEntity
8
1
62
256
6
ByLayer
370
18
48
1
60
0
100
AcDbSpline
70
4
71
3
72
12
73
8
40
0
40
0
40
0
40
0
40
0.49999999999999
40
0.49999999999999
40
0.749999999999995
40
0.749999999999995
40
1
40
1
40
1
40
1
41
1
10
64.3795456613325
20
6.00900714695408
30
0
41
1
10
64.1684795109738
20
6.04031192705392
30
0
41
1
10
63.9589177962224
20
6.06434669283175
30
0
41
1
10
63.645998379752
20
6.08931146260585
30
0
41
1
10
63.5419540399321
20
6.09577036780098
30
0
41
1
10
63.3341508635224
20
6.10499265849839
30
0
41
1
10
63.2304472591427
20
6.10772128162111
30
0
41
1
10
63.1269531848278
20
6.10850452657041
30
0
0
SPLINE
5
FE
100
AcDbEntity
8
1
62
256
6
ByLayer
370
18
48
1
60
0
100
AcDbSpline
70
4
71
3
72
8
73
4
40
0
40
0
40
0
40
0
40
1
40
1
40
1
40
1
41
1
10
63.1269531848278
20
6.1085045265705
30
0
41
1
10
63.0420469562139
20
5.94549101401446
30
0
41
1
10
62.956808901482
20
5.78071349546536
30
0
41
1
10
62.8711389332711
20
5.61419330009645
30
0
0
SPLINE
5
FF
100
AcDbEntity
8
1
62
256
6
ByLayer
370
18
48
1
60
0
100
AcDbSpline
70
4
71
3
72
36
73
32
40
0
40
0
40
0
40
0
40
0.124999999999989
40
0.124999999999989
40
0.187499999999967
40
0.187499999999967
40
0.249999999999944
40
0.249999999999944
40
0.374999999999862
40
0.374999999999862
40
0.437499999999841
40
0.437499999999841
40
0.499999999999819
40
0.499999999999819
40
0.62499999999982
40
0.62499999999982
40
0.687499999999821
40
0.687499999999821
40
0.749999999999822
40
0.749999999999822
40
0.781249999999843
40
0.781249999999843
40
0.812499999999865
40
0.812499999999865
40
0.874999999999908
40
0.874999999999908
40
0.906249999999931
40
0.906249999999931
40
0.937499999999953
40
0.937499999999953
40
1
40
1
40
1
40
1
41
1
10
62.8711389332711
20
5.61419330009645
30
0
41
1
10
62.8570986298788
20
5.58690259236349
30
0
41
1
10
62.8407809813143
20
5.56216457555019
30
0
41
1
10
62.8136313220176
20
5.5280267780762
30
0
41
1
10
62.8041264433763
20
5.51715352907479
30
0
41
1
10
62.7842470518141
20
5.4963743091669
30
0
41
1
10
62.7739595357043
20
5.4865631010978
30
0
41
1
10
62.7423258817308
20
5.45893459821522
30
0
41
1
10
62.720133827349
20
5.44281095121033
30
0
41
1
10
62.6852626344046
20
5.42199283757287
30
0
41
1
10
62.6733726707873
20
5.41562927687738
30
0
41
1
10
62.6494770149143
20
5.40427119398541
30
0
41
1
10
62.6374204355988
20
5.39924433370879
30
0
41
1
10
62.6009337857028
20
5.38615091307116
30
0
41
1
10
62.576191706898
20
5.38003235878642
30
0
41
1
10
62.538412556548
20
5.37547208796337
30
0
41
1
10
62.5257328383717
20
5.37474606878587
30
0
41
1
10
62.5007423543133
20
5.37505165557869
30
0
41
1
10
62.4883613426144
20
5.37607139222638
30
0
41
1
10
62.4699899648905
20
5.37905232899206
30
0
41
1
10
62.463899647273
20
5.38028879841124
30
0
41
1
10
62.4517927483368
20
5.38328717227159
30
0
41
1
10
62.4457556791376
20
5.38505631563194
30
0
41
1
10
62.427923920403
20
5.39117675108119
30
0
41
1
10
62.4164687130536
20
5.39630529695438
30
0
41
1
10
62.4000173398468
20
5.40575783430762
30
0
41
1
10
62.3946559655371
20
5.40920327014013
30
0
41
1
10
62.3842000816028
20
5.41673555788478
30
0
41
1
10
62.379085515789
20
5.42084085603597
30
0
41
1
10
62.3643424032888
20
5.43408434390514
30
0
41
1
10
62.3553563196527
20
5.44408293332421
30
0
41
1
10
62.3473202191579
20
5.45540569541421
30
0
0
SPLINE
5
100
100
AcDbEntity
8
1
62
256
6
ByLayer
370
18
48
1
60
0
100
AcDbSpline
70
4
71
3
72
10
73
6
40
0
40
0
40
0
40
0
40
0.5
40
0.5
40
1
40
1
40
1
40
1
41
1
10
62.3473202191579
20
5.45540569541424
30
0
41
1
10
62.2765545452449
20
5.55511361847621
30
0
41
1
10
62.2059927257787
20
5.6527590290128
30
0
41
1
10
62.0653290326637
20
5.84380880866419
30
0
41
1
10
61.9952673814971
20
5.93715966976069
30
0
41
1
10
61.9254265510986
20
6.02836685957925
30
0
0
SPLINE
5
101
100
AcDbEntity
8
1
62
256
6
ByLayer
370
18
48
1
60
0
100
AcDbSpline
70
4
71
3
72
10
73
6
40
0
40
0
40
0
40
0
40
0.5
40
0.5
40
1
40
1
40
1
40
1
41
1
10
61.9254265510986
20
6.02836685957925
30
0
41
1
10
61.8228546759345
20
6.01371136386283
30
0
41
1
10
61.7206650352775
20
5.99706731571049
30
0
41
1
10
61.5168756024423
20
5.95986355532872
30
0
41
1
10
61.4153182863394
20
5.939271225087
30
0
41
1
10
61.3140744445426
20
5.91665951879264
30
0
0
SPLINE
5
102
100
AcDbEntity
8
1
62
256
6
ByLayer
370
18
48
1
60
0
100
AcDbSpline
70
4
71
3
72
12
73
8
40
0
40
0
40
0
40
0
40
0.250000000000004
40
0.250000000000004
40
0.500000000000008
40
0.500000000000008
40
1
40
1
40
1
40
1
41
1
10
61.3140744445425
20
5.91665951879273
30
0
41
1
10
61.2699424462833
20
5.82537259650133
30
0
41
1
10
61.2257045603734
20
5.73390492353647
30
0
41
1
10
61.1369858338483
20
5.55061971448461
30
0
41
1
10
61.0925009467418
20
5.45879368350873
30
0
41
1
10
60.9588247892642
20
5.18320511339235
30
0
41
1
10
60.8693492097097
20
4.99920280606656
30
0
41
1
10
60.7793841108121
20
4.81497852777383
30
0
0
SPLINE
5
103
100
AcDbEntity
8
1
62
256
6
ByLayer
370
18
48
1
60
0
100
AcDbSpline
70
4
71
3
72
14
73
10
40
0
40
0
40
0
40
0
40
0.365680262966961
40
0.365680262966961
40
0.548520394450392
40
0.548520394450392
40
0.731360525933823
40
0.731360525933823
40
1
40
1
40
1
40
1
41
1
10
60.7793841108121
20
4.81497852777383
30
0
41
1
10
60.7653425303301
20
4.78622515494277
30
0
41
1
10
60.749021876685
20
4.75938980453509
30
0
41
1
10
60.7218640511479
20
4.72137913994149
30
0
41
1
10
60.7123558341078
20
4.70909081530957
30
0
41
1
10
60.692468296529
20
4.68524436059107
30
0
41
1
10
60.6821842284844
20
4.6738033577455
30
0
41
1
10
60.6561450896368
20
4.64680875885909
30
0
41
1
10
60.6400544630731
20
4.63178883013012
30
0
41
1
10
60.6233855697632
20
4.61779141179301
30
0
0
SPLINE
5
104
100
AcDbEntity
8
1
62
256
6
ByLayer
370
18
48
1
60
0
100
AcDbSpline
70
4
71
3
72
22
73
18
40
0
40
0
40
0
40
0
40
0.210659367557778
40
0.210659367557778
40
0.31598905133667
40
0.31598905133667
40
0.421318735115563
40
0.421318735115563
40
0.526648418894455
40
0.526648418894455
40
0.631978102673348
40
0.631978102673348
40
0.842637470231133
40
0.842637470231133
40
0.947967154010029
40
0.947967154010029
40
1
40
1
40
1
40
1
41
1
10
34.0603966910029
20
-5.31741909099
30
0
41
1
10
34.3097756732019
20
-5.27645544054337
30
0
41
1
10
34.5583107183865
20
-5.22641266780405
30
0
41
1
10
34.9300165261433
20
-5.13813471991219
30
0
41
1
10
35.0537402818962
20
-5.10650475299914
30
0
41
1
10
35.3008592357859
20
-5.03886428904252
30
0
41
1
10
35.4242286359039
20
-5.00283880659484
30
0
41
1
10
35.6708228254374
20
-4.92649815898486
30
0
41
1
10
35.7941034082193
20
-4.88621446998982
30
0
41
1
10
36.0408399815904
20
-4.80156856502026
30
0
41
1
10
36.1642676605007
20
-4.7571905330085
30
0
41
1
10
36.5347835298958
20
-4.61793414480911
30
0
41
1
10
36.7821484956742
20
-4.51698093655506
30
0
41
1
10
37.1537605540582
20
-4.35318601670994
30
0
41
1
10
37.2776388434882
20
-4.29644502672718
30
0
41
1
10
37.4632954761796
20
-4.20891580928384
30
0
41
1
10
37.5247626549852
20
-4.17951097442761
30
0
41
1
10
37.5863076174952
20
-4.14964025381423
30
0
0
SPLINE
5
105
100
AcDbEntity
8
1
62
256
6
ByLayer
370
18
48
1
60
0
100
AcDbSpline
70
4
71
3
72
10
73
6
40
0
40
0
40
0
40
0
40
0.5
40
0.5
40
1
40
1
40
1
40
1
41
1
10
54.9601414414959
20
5.94718510788121
30
0
41
1
10
55.0732438717509
20
6.14073758575017
30
0
41
1
10
55.1855213536201
20
6.33226712419841
30
0
41
1
10
55.4088374255151
20
6.71105414573597
30
0
41
1
10
55.5196045038195
20
6.89785221551855
30
0
41
1
10
55.6296580505427
20
7.08191452810129
30
0
0
SPLINE
5
106
100
AcDbEntity
8
1
62
256
6
ByLayer
370
18
48
1
60
0
100
AcDbSpline
70
4
71
3
72
8
73
4
40
0
40
0
40
0
40
0
40
1
40
1
40
1
40
1
41
1
10
55.8398961021341
20
7.07831993874018
30
0
41
1
10
55.769917695454
20
7.08050071694217
30
0
41
1
10
55.6998395339798
20
7.08170164653706
30
0
41
1
10
55.6296580505427
20
7.08191452810127
30
0
0
SPLINE
5
107
100
AcDbEntity
8
1
62
256
6
ByLayer
370
18
48
1
60
0
100
AcDbSpline
70
4
71
3
72
12
73
8
40
0
40
0
40
0
40
0
40
0.120275320524217
40
0.120275320524217
40
0.560137660262109
40
0.560137660262109
40
1
40
1
40
1
40
1
41
1
10
56.1343998706444
20
6.5776450868978
30
0
41
1
10
56.1500492276025
20
6.55066776308144
30
0
41
1
10
56.1657159244061
20
6.52360476270061
30
0
41
1
10
56.2387610111738
20
6.39717177758632
30
0
41
1
10
56.29629150222
20
6.29686642777733
30
0
41
1
10
56.4117586856378
20
6.09423859095489
30
0
41
1
10
56.4696955130871
20
5.99191488209482
30
0
41
1
10
56.5278998985308
20
5.88854798062337
30
0
0
SPLINE
5
108
100
AcDbEntity
8
1
62
256
6
ByLayer
370
18
48
1
60
0
100
AcDbSpline
70
4
71
3
72
34
73
30
40
0
40
0
40
0
40
0
40
0.124999999999977
40
0.124999999999977
40
0.187499999999966
40
0.187499999999966
40
0.249999999999956
40
0.249999999999956
40
0.374999999999935
40
0.374999999999935
40
0.437499999999924
40
0.437499999999924
40
0.499999999999914
40
0.499999999999914
40
0.624999999999935
40
0.624999999999935
40
0.687499999999945
40
0.687499999999945
40
0.749999999999956
40
0.749999999999956
40
0.812499999999966
40
0.812499999999966
40
0.843749999999972
40
0.843749999999972
40
0.874999999999978
40
0.874999999999978
40
0.937499999999989
40
0.937499999999989
40
1
40
1
40
1
40
1
41
1
10
56.5278998985308
20
5.88854798062337
30
0
41
1
10
56.5424213271685
20
5.86275894304882
30
0
41
1
10
56.5593575992951
20
5.84016679207801
30
0
41
1
10
56.5875000124706
20
5.80987577236115
30
0
41
1
10
56.5973483613558
20
5.80039400385985
30
0
41
1
10
56.6179293324898
20
5.78259535145691
30
0
41
1
10
56.6285658039287
20
5.77436771679987
30
0
41
1
10
56.661095931667
20
5.75177122583398
30
0
41
1
10
56.6837393530633
20
5.73934215914417
30
0
41
1
10
56.7190136074096
20
5.72440261921133
30
0
41
1
10
56.7310350418865
20
5.72003472761111
30
0
41
1
10
56.7553274351912
20
5.71264785926829
30
0
41
1
10
56.7675198125544
20
5.70964738710927
30
0
41
1
10
56.8042186024552
20
5.70270278933034
30
0
41
1
10
56.8288454176125
20
5.70078126440146
30
0
41
1
10
56.8659852777136
20
5.70242903154531
30
0
41
1
10
56.8784669257608
20
5.70375720320942
30
0
41
1
10
56.9030192057996
20
5.70804668599291
30
0
41
1
10
56.9151138014244
20
5.71099895958793
30
0
41
1
10
56.9388990706803
20
5.71864986576571
30
0
41
1
10
56.9505901842167
20
5.72334658104745
30
0
41
1
10
56.9677732756463
20
5.73189019243904
30
0
41
1
10
56.9734623177508
20
5.73500210570157
30
0
41
1
10
56.9845834213222
20
5.74169878090694
30
0
41
1
10
56.9900171145648
20
5.74528162909093
30
0
41
1
10
57.005919048971
20
5.75676681319172
30
0
41
1
10
57.0159915754537
20
5.76539898300285
30
0
41
1
10
57.0349137797186
20
5.78492248612167
30
0
41
1
10
57.0437787917774
20
5.79586349643429
30
0
41
1
10
57.0516697355196
20
5.80784084044245
30
0
0
SPLINE
5
109
100
AcDbEntity
8
1
62
256
6
ByLayer
370
18
48
1
60
0
100
AcDbSpline
70
4
71
3
72
10
73
6
40
0
40
0
40
0
40
0
40
0.5
40
0.5
40
1
40
1
40
1
40
1
41
1
10
57.0516697355224
20
5.80784084044862
30
0
41
1
10
57.1648058888489
20
5.97956562679622
30
0
41
1
10
57.2771093040865
20
6.14695280406593
30
0
41
1
10
57.5004629639337
20
6.47284541677388
30
0
41
1
10
57.6112379150041
20
6.63096569468809
30
0
41
1
10
57.7212856515402
20
6.78418874238275
30
0
0
SPLINE
5
10A
100
AcDbEntity
8
1
62
256
6
ByLayer
370
18
48
1
60
0
100
AcDbSpline
70
4
71
3
72
8
73
4
40
0
40
0
40
0
40
0
40
1
40
1
40
1
40
1
41
1
10
57.931538509507
20
6.7225807238213
30
0
41
1
10
57.8614281469918
20
6.74407706481736
30
0
41
1
10
57.7913449737484
20
6.76461175006705
30
0
41
1
10
57.7212856515401
20
6.78418874238273
30
0
0
SPLINE
5
10B
100
AcDbEntity
8
1
62
256
6
ByLayer
370
18
48
1
60
0
100
AcDbSpline
70
4
71
3
72
12
73
8
40
0
40
0
40
0
40
0
40
0.25
40
0.25
40
0.5
40
0.5
40
1
40
1
40
1
40
1
41
1
10
57.931538509507
20
6.72258072382132
30
0
41
1
10
57.9880369585709
20
6.6133661487689
30
0
41
1
10
58.0447159153927
20
6.50360169742822
30
0
41
1
10
58.1584938357876
20
6.28300255661756
30
0
41
1
10
58.215598930584
20
6.17214846274032
30
0
41
1
10
58.3876080649849
20
5.83813547947685
30
0
41
1
10
58.5029920532671
20
5.61397024571968
30
0
41
1
10
58.6194492877917
20
5.38841835414661
30
0
0
SPLINE
5
10C
100
AcDbEntity
8
1
62
256
6
ByLayer
370
18
48
1
60
0
100
AcDbSpline
70
4
71
3
72
34
73
30
40
0
40
0
40
0
40
0
40
0.124999999999999
40
0.124999999999999
40
0.187500000000015
40
0.187500000000015
40
0.250000000000031
40
0.250000000000031
40
0.375000000000099
40
0.375000000000099
40
0.437500000000113
40
0.437500000000113
40
0.500000000000127
40
0.500000000000127
40
0.625000000000112
40
0.625000000000112
40
0.687500000000127
40
0.687500000000127
40
0.750000000000141
40
0.750000000000141
40
0.812500000000155
40
0.812500000000155
40
0.843750000000142
40
0.843750000000142
40
0.875000000000129
40
0.875000000000129
40
0.937500000000064
40
0.937500000000064
40
1
40
1
40
1
40
1
41
1
10
58.6194492877917
20
5.38841835414661
30
0
41
1
10
58.6339780864589
20
5.36027928631586
30
0
41
1
10
58.6509258032707
20
5.33471037339021
30
0
41
1
10
58.6790888576695
20
5.29925579006743
30
0
41
1
10
58.6889447057375
20
5.28793312892375
30
0
41
1
10
58.7095417648032
20
5.2662256681065
30
0
41
1
10
58.7201878948972
20
5.25594712541985
30
0
41
1
10
58.7527434755678
20
5.22700120795568
30
0
41
1
10
58.7754022428999
20
5.21005078024885
30
0
41
1
10
58.8106961300189
20
5.18790875474585
30
0
41
1
10
58.8227247608169
20
5.18105969284963
30
0
41
1
10
58.8470238692174
20
5.16860491349678
30
0
41
1
10
58.8592187681618
20
5.16303254252657
30
0
41
1
10
58.8959223112378
20
5.14825336780757
30
0
41
1
10
58.9205484511591
20
5.14095244817736
30
0
41
1
10
58.9576817005988
20
5.13424259915328
30
0
41
1
10
58.9701588890446
20
5.1327206969184
30
0
41
1
10
58.9946919604033
20
5.13130500623845
30
0
41
1
10
59.006776368069
20
5.13139695224197
30
0
41
1
10
59.030540215678
20
5.13330607480123
30
0
41
1
10
59.0422200953612
20
5.13512135829029
30
0
41
1
10
59.059385658794
20
5.13932178826011
30
0
41
1
10
59.0650686164544
20
5.140977077977
30
0
41
1
10
59.0761754637828
20
5.14478446078925
30
0
41
1
10
59.0816021470874
20
5.14693477054624
30
0
41
1
10
59.0974835028819
20
5.15416006205126
30
0
41
1
10
59.1075428968574
20
5.1600021860574
30
0
41
1
10
59.1264407820564
20
5.17406097453198
30
0
41
1
10
59.135294980655
20
5.18232084865423
30
0
41
1
10
59.1431779719512
20
5.1917642666682
30
0
0
SPLINE
5
10D
100
AcDbEntity
8
1
62
256
6
ByLayer
370
18
48
1
60
0
100
AcDbSpline
70
4
71
3
72
10
73
6
40
0
40
0
40
0
40
0
40
0.5
40
0.5
40
1
40
1
40
1
40
1
41
1
10
59.143177971954
20
5.1917642666748
30
0
41
1
10
59.2563653664774
20
5.32735694213244
30
0
41
1
10
59.368709113246
20
5.45662659964108
30
0
41
1
10
59.5921201706186
20
5.70229975806308
30
0
41
1
10
59.7029072695233
20
5.81842898323325
30
0
41
1
10
59.8129469223422
20
5.92782289515412
30
0
0
SPLINE
5
10E
100
AcDbEntity
8
1
62
256
6
ByLayer
370
18
48
1
60
0
100
AcDbSpline
70
4
71
3
72
22
73
18
40
0
40
0
40
0
40
0
40
0.0496547249431624
40
0.0496547249431624
40
0.239723779954363
40
0.239723779954363
40
0.334758307460028
40
0.334758307460028
40
0.429792834965693
40
0.429792834965693
40
0.619861889977022
40
0.619861889977022
40
0.714896417482741
40
0.714896417482741
40
0.809930944988461
40
0.809930944988461
40
1
40
1
40
1
40
1
41
1
10
57.6421693342194
20
-5.82436311339328
30
0
41
1
10
57.6388890302932
20
-5.82522522245566
30
0
41
1
10
57.6356165521561
20
-5.82614234684473
30
0
41
1
10
57.6198751079834
20
-5.83083699362643
30
0
41
1
10
57.6075059701569
20
-5.83537737891427
30
0
41
1
10
57.5891483456316
20
-5.84356354041731
30
0
41
1
10
57.5830619401855
20
-5.8465224078883
30
0
41
1
10
57.5709614478299
20
-5.85293911812383
30
0
41
1
10
57.5649250857393
20
-5.85641135683647
30
0
41
1
10
57.5471282919498
20
-5.86753144410162
30
0
41
1
10
57.5356917067492
20
-5.8758586614602
30
0
41
1
10
57.5192615075434
20
-5.88988860726136
30
0
41
1
10
57.5139060626661
20
-5.89482290933191
30
0
41
1
10
57.50345981726
20
-5.90525323449006
30
0
41
1
10
57.4983477953264
20
-5.91077496802274
30
0
41
1
10
57.4836322533347
20
-5.92806346977224
30
0
41
1
10
57.4746591549052
20
-5.94051034778275
30
0
41
1
10
57.4666312869154
20
-5.95400041944839
30
0
0
SPLINE
5
10F
100
AcDbEntity
8
1
62
256
6
ByLayer
370
18
48
1
60
0
100
AcDbSpline
70
4
71
3
72
12
73
8
40
0
40
0
40
0
40
0
40
0.500000000000001
40
0.500000000000001
40
0.75
40
0.75
40
1
40
1
40
1
40
1
41
1
10
57.4666312869154
20
-5.95400041944839
30
0
41
1
10
57.3545968554103
20
-6.14226366841555
30
0
41
1
10
57.2430780987225
20
-6.32845549993135
30
0
41
1
10
57.0768023752827
20
-6.60380631392692
30
0
41
1
10
57.021508488474
20
-6.69499242159941
30
0
41
1
10
56.9113258126153
20
-6.87585601722898
30
0
41
1
10
56.8564231186622
20
-6.96555682290276
30
0
41
1
10
56.8016815786683
20
-7.05453002957586
30
0
0
SPLINE
5
110
100
AcDbEntity
8
1
62
256
6
ByLayer
370
18
48
1
60
0
100
AcDbSpline
70
4
71
3
72
12
73
8
40
0
40
0
40
0
40
0
40
0.25
40
0.25
40
0.500000000000001
40
0.500000000000001
40
1
40
1
40
1
40
1
41
1
10
56.5914022910076
20
-7.03351258529955
30
0
41
1
10
56.5344103194116
20
-6.93244750645852
30
0
41
1
10
56.4772542580172
20
-6.83018586703915
30
0
41
1
10
56.3625511823553
20
-6.62328489609234
30
0
41
1
10
56.3049847056837
20
-6.51860947823121
30
0
41
1
10
56.1317713494582
20
-6.20133551473552
30
0
41
1
10
56.0155724343905
20
-5.98543141169563
30
0
41
1
10
55.8986775466541
20
-5.76571431024587
30
0
0
SPLINE
5
111
100
AcDbEntity
8
1
62
256
6
ByLayer
370
18
48
1
60
0
100
AcDbSpline
70
4
71
3
72
36
73
32
40
0
40
0
40
0
40
0
40
0.125000000000002
40
0.125000000000002
40
0.187500000000003
40
0.187500000000003
40
0.250000000000004
40
0.250000000000004
40
0.375000000000006
40
0.375000000000006
40
0.437500000000027
40
0.437500000000027
40
0.500000000000048
40
0.500000000000048
40
0.625000000000048
40
0.625000000000048
40
0.687500000000027
40
0.687500000000027
40
0.750000000000005
40
0.750000000000005
40
0.781250000000016
40
0.781250000000016
40
0.812500000000026
40
0.812500000000026
40
0.875000000000008
40
0.875000000000008
40
0.906249999999998
40
0.906249999999998
40
0.937499999999988
40
0.937499999999988
40
1
40
1
40
1
40
1
41
1
10
55.8986775466541
20
-5.76571431024587
30
0
41
1
10
55.8846290017726
20
-5.73930848856517
30
0
41
1
10
55.8682945427762
20
-5.71560257746165
30
0
41
1
10
55.8411064813421
20
-5.68318609397406
30
0
41
1
10
55.8315865825023
20
-5.67291613780455
30
0
41
1
10
55.8116724573266
20
-5.65340070871781
30
0
41
1
10
55.801390501443
20
-5.64426685559403
30
0
41
1
10
55.7697355232715
20
-5.61868591605318
30
0
41
1
10
55.7475225823187
20
-5.60399628375558
30
0
41
1
10
55.7126081704173
20
-5.58544076918909
30
0
41
1
10
55.7007249416263
20
-5.5798614432529
30
0
41
1
10
55.6768340480236
20
-5.57007607957763
30
0
41
1
10
55.6647780476849
20
-5.56584313065358
30
0
41
1
10
55.6282875528757
20
-5.5551581577466
30
0
41
1
10
55.603535798081
20
-5.55067970347176
30
0
41
1
10
55.5657269201223
20
-5.54866056470453
30
0
41
1
10
55.5530804695285
20
-5.54879377448944
30
0
41
1
10
55.528126070328
20
-5.55079906873755
30
0
41
1
10
55.5157589864274
20
-5.55266562061334
30
0
41
1
10
55.4974018543625
20
-5.55691575189377
30
0
41
1
10
55.4913151807482
20
-5.55857511466482
30
0
41
1
10
55.4792132474429
20
-5.56241966917781
30
0
41
1
10
55.4731756273535
20
-5.56461471925164
30
0
41
1
10
55.4553840309319
20
-5.57198264299961
30
0
41
1
10
55.4439485080393
20
-5.57792173740532
30
0
41
1
10
55.4275166806655
20
-5.58856035113391
30
0
41
1
10
55.4221601559474
20
-5.59239617416725
30
0
41
1
10
55.4117107517164
20
-5.60069949840454
30
0
41
1
10
55.4065964303408
20
-5.60518883463067
30
0
41
1
10
55.3918811936731
20
-5.6195242616113
30
0
41
1
10
55.3829066215404
20
-5.63020590386935
30
0
41
1
10
55.3748763235499
20
-5.64216400694266
30
0
0
SPLINE
5
112
100
AcDbEntity
8
1
62
256
6
ByLayer
370
18
48
1
60
0
100
AcDbSpline
70
4
71
3
72
12
73
8
40
0
40
0
40
0
40
0
40
0.499999999999999
40
0.499999999999999
40
0.75
40
0.75
40
1
40
1
40
1
40
1
41
1
10
55.3748763235498
20
-5.64216400694266
30
0
41
1
10
55.2628398952266
20
-5.8090000520607
30
0
41
1
10
55.1513211789638
20
-5.97131353762674
30
0
41
1
10
54.9850404298392
20
-6.20745314609144
30
0
41
1
10
54.9297448489506
20
-6.28499392793151
30
0
41
1
10
54.8195542009045
20
-6.43753356284546
30
0
41
1
10
54.7646439373978
20
-6.51255340956891
30
0
41
1
10
54.7098984531369
20
-6.58629903906706
30
0
0
SPLINE
5
113
100
AcDbEntity
8
1
62
256
6
ByLayer
370
18
48
1
60
0
100
AcDbSpline
70
4
71
3
72
12
73
8
40
0
40
0
40
0
40
0
40
0.25
40
0.25
40
0.500000000000001
40
0.500000000000001
40
1
40
1
40
1
40
1
41
1
10
54.499648424114
20
-6.50812336373608
30
0
41
1
10
54.4426494258048
20
-6.39271078915033
30
0
41
1
10
54.385481265417
20
-6.27676037960018
30
0
41
1
10
54.270758466043
20
-6.04381424649313
30
0
41
1
10
54.2131841631816
20
-5.92677805429619
30
0
41
1
10
54.0399559820774
20
-5.57447413120511
30
0
41
1
10
53.9237795905619
20
-5.33797879047336
30
0
41
1
10
53.8069470446126
20
-5.10051237581578
30
0
0
SPLINE
5
114
100
AcDbEntity
8
1
62
256
6
ByLayer
370
18
48
1
60
0
100
AcDbSpline
70
4
71
3
72
8
73
4
40
0
40
0
40
0
40
0
40
1
40
1
40
1
40
1
41
1
10
47.2574644446112
20
-6.27390235507704
30
0
41
1
10
47.3261989507331
20
-6.16879681953307
30
0
41
1
10
47.3952148312292
20
-6.06162865252989
30
0
41
1
10
47.464592586248
20
-5.95237054916882
30
0
0
SPLINE
5
115
100
AcDbEntity
8
1
62
256
6
ByLayer
370
18
48
1
60
0
100
AcDbSpline
70
4
71
3
72
34
73
30
40
0
40
0
40
0
40
0
40
0.125000000000038
40
0.125000000000038
40
0.187500000000058
40
0.187500000000058
40
0.250000000000078
40
0.250000000000078
40
0.375000000000079
40
0.375000000000079
40
0.437500000000101
40
0.437500000000101
40
0.500000000000122
40
0.500000000000122
40
0.625000000000122
40
0.625000000000122
40
0.687500000000122
40
0.687500000000122
40
0.750000000000122
40
0.750000000000122
40
0.812500000000122
40
0.812500000000122
40
0.843750000000103
40
0.843750000000103
40
0.875000000000083
40
0.875000000000083
40
0.937500000000042
40
0.937500000000042
40
1
40
1
40
1
40
1
41
1
10
47.464592586248
20
-5.95237054916882
30
0
41
1
10
47.4790738756895
20
-5.92956499401396
30
0
41
1
10
47.4959593795583
20
-5.91019960764359
30
0
41
1
10
47.5240224460524
20
-5.88503158077168
30
0
41
1
10
47.5338435742465
20
-5.87730586113284
30
0
41
1
10
47.5543690054739
20
-5.86311274516484
30
0
41
1
10
47.5649765027451
20
-5.85671798263169
30
0
41
1
10
47.5974290156603
20
-5.83964412689681
30
0
41
1
10
47.6200280144107
20
-5.8309555997611
30
0
41
1
10
47.6552477726121
20
-5.82172757734844
30
0
41
1
10
47.6672500510182
20
-5.81928759588735
30
0
41
1
10
47.6915255743494
20
-5.81576152567379
30
0
41
1
10
47.7037117452746
20
-5.81468326614532
30
0
41
1
10
47.7403993079571
20
-5.81348637492036
30
0
41
1
10
47.7650284474383
20
-5.8153714084678
30
0
41
1
10
47.8021890025244
20
-5.82271211154446
30
0
41
1
10
47.8146831965473
20
-5.82594560488835
30
0
41
1
10
47.8392878850468
20
-5.83398214721041
30
0
41
1
10
47.8514104213514
20
-5.83877640416907
30
0
41
1
10
47.8752554135275
20
-5.85004763906664
30
0
41
1
10
47.886978313355
20
-5.85652273272981
30
0
41
1
10
47.9042122321719
20
-5.86768316585355
30
0
41
1
10
47.90991899056
20
-5.87166210571831
30
0
41
1
10
47.921077052801
20
-5.8800564295808
30
0
41
1
10
47.9265290664109
20
-5.88446946491351
30
0
41
1
10
47.9424852525075
20
-5.89838727270256
30
0
41
1
10
47.952593046482
20
-5.90856444707168
30
0
41
1
10
47.9715816962951
20
-5.93100332774893
30
0
41
1
10
47.9804724073371
20
-5.94331083658068
30
0
41
1
10
47.988380175231
20
-5.95650143956678
30
0
0
SPLINE
5
116
100
AcDbEntity
8
1
62
256
6
ByLayer
370
18
48
1
60
0
100
AcDbSpline
70
4
71
3
72
10
73
6
40
0
40
0
40
0
40
0
40
0.5
40
0.5
40
1
40
1
40
1
40
1
41
1
10
47.9883801752346
20
-5.95650143957369
30
0
41
1
10
48.1013751390319
20
-6.14498341412965
30
0
41
1
10
48.2135599283426
20
-6.33078131778009
30
0
41
1
10
48.4367146544819
20
-6.69680258521126
30
0
41
1
10
48.5474132733156
20
-6.87658524168248
30
0
41
1
10
48.6574083784615
20
-7.05302183100588
30
0
0
SPLINE
5
117
100
AcDbEntity
8
1
62
256
6
ByLayer
370
18
48
1
60
0
100
AcDbSpline
70
4
71
3
72
8
73
4
40
0
40
0
40
0
40
0
40
1
40
1
40
1
40
1
41
1
10
48.8677076298115
20
-7.03159221584224
30
0
41
1
10
48.7975859876176
20
-7.03971921157745
30
0
41
1
10
48.7274879177042
20
-7.04686189997872
30
0
41
1
10
48.6574083784614
20
-7.05302183100596
30
0
0
SPLINE
5
118
100
AcDbEntity
8
1
62
256
6
ByLayer
370
18
48
1
60
0
100
AcDbSpline
70
4
71
3
72
10
73
6
40
0
40
0
40
0
40
0
40
0.5
40
0.5
40
1
40
1
40
1
40
1
41
1
10
48.8677076298115
20
-7.03159221584227
30
0
41
1
10
48.9808102741715
20
-6.83147643725556
30
0
41
1
10
49.0946577734698
20
-6.62726636926604
30
0
41
1
10
49.3242368415171
20
-6.21104442287853
30
0
41
1
10
49.4396689454736
20
-5.99956784869826
30
0
41
1
10
49.5561453126822
20
-5.78469567361662
30
0
0
SPLINE
5
119
100
AcDbEntity
8
1
62
256
6
ByLayer
370
18
48
1
60
0
100
AcDbSpline
70
4
71
3
72
34
73
30
40
0
40
0
40
0
40
0
40
0.125000000000009
40
0.125000000000009
40
0.187500000000014
40
0.187500000000014
40
0.250000000000019
40
0.250000000000019
40
0.375000000000028
40
0.375000000000028
40
0.437500000000013
40
0.437500000000013
40
0.499999999999998
40
0.499999999999998
40
0.624999999999967
40
0.624999999999967
40
0.687499999999973
40
0.687499999999973
40
0.749999999999978
40
0.749999999999978
40
0.812499999999984
40
0.812499999999984
40
0.843749999999986
40
0.843749999999986
40
0.874999999999989
40
0.874999999999989
40
0.937499999999994
40
0.937499999999994
40
1
40
1
40
1
40
1
41
1
10
49.5561453126822
20
-5.78469567361662
30
0
41
1
10
49.5706293199729
20
-5.75797600313729
30
0
41
1
10
49.5875168122349
20
-5.73426056233689
30
0
41
1
10
49.6155814519504
20
-5.70207834092142
30
0
41
1
10
49.6254029177063
20
-5.69193069697911
30
0
41
1
10
49.6459290490283
20
-5.67273391422921
30
0
41
1
10
49.656537551607
20
-5.66378063108544
30
0
41
1
10
49.6889924674932
20
-5.63895127744016
30
0
41
1
10
49.7115935909042
20
-5.62495383121788
30
0
41
1
10
49.746820027214
20
-5.60755522825525
30
0
41
1
10
49.7588252963611
20
-5.60234758418665
30
0
41
1
10
49.7831065470511
20
-5.59325284685497
30
0
41
1
10
49.7952957952444
20
-5.58939326986655
30
0
41
1
10
49.8319927328876
20
-5.5798561296601
30
0
41
1
10
49.8566284402474
20
-5.57618637777139
30
0
41
1
10
49.8937958470612
20
-5.57517672362874
30
0
41
1
10
49.9062916874165
20
-5.57560781422097
30
0
41
1
10
49.9308951177202
20
-5.57812844357028
30
0
41
1
10
49.9430160122629
20
-5.58020650132866
30
0
41
1
10
49.9668554160993
20
-5.58613069451727
30
0
41
1
10
49.9785743684708
20
-5.58997486270312
30
0
41
1
10
49.9958004210604
20
-5.59725868514644
30
0
41
1
10
50.0015042043756
20
-5.59995239180185
30
0
41
1
10
50.0126564903438
20
-5.60583024964455
30
0
41
1
10
50.0181053704006
20
-5.60901174496399
30
0
41
1
10
50.0340515338593
20
-5.61931831708193
30
0
41
1
10
50.0441518112653
20
-5.62719835269627
30
0
41
1
10
50.0631246944869
20
-5.645297745883
30
0
41
1
10
50.0720090729394
20
-5.65556228357482
30
0
41
1
10
50.079912189305
20
-5.66692396194955
30
0
0
SPLINE
5
11A
100
AcDbEntity
8
1
62
256
6
ByLayer
370
18
48
1
60
0
100
AcDbSpline
70
4
71
3
72
10
73
6
40
0
40
0
40
0
40
0
40
0.5
40
0.5
40
1
40
1
40
1
40
1
41
1
10
50.0799121893084
20
-5.66692396195714
30
0
41
1
10
50.1929400830059
20
-5.8294151257235
30
0
41
1
10
50.3051509996796
20
-5.98699628908952
30
0
41
1
10
50.5283474272786
20
-6.29215278430189
30
0
41
1
10
50.6390577496408
20
-6.43936877101649
30
0
41
1
10
50.7490536867991
20
-6.58116970524131
30
0
0
SPLINE
5
11B
100
AcDbEntity
8
1
62
256
6
ByLayer
370
18
48
1
60
0
100
AcDbSpline
70
4
71
3
72
8
73
4
40
0
40
0
40
0
40
0
40
1
40
1
40
1
40
1
41
1
10
50.9593700413862
20
-6.50273162456685
30
0
41
1
10
50.8892455313131
20
-6.5298135432256
30
0
41
1
10
50.8191399937098
20
-6.5559579538488
30
0
41
1
10
50.749053686799
20
-6.58116970524145
30
0
0
SPLINE
5
11C
100
AcDbEntity
8
1
62
256
6
ByLayer
370
18
48
1
60
0
100
AcDbSpline
70
4
71
3
72
12
73
8
40
0
40
0
40
0
40
0
40
0.25
40
0.25
40
0.5
40
0.5
40
1
40
1
40
1
40
1
41
1
10
50.9593700413859
20
-6.50273162455531
30
0
41
1
10
51.0159055521177
20
-6.3905414290484
30
0
41
1
10
51.0726162828977
20
-6.2779830736427
30
0
41
1
10
51.186452869184
20
-6.05215907924253
30
0
41
1
10
51.243587347106
20
-5.93887076224817
30
0
41
1
10
51.4157009183123
20
-5.59812176186091
30
0
41
1
10
51.5311623832276
20
-5.37024833166595
30
0
41
1
10
51.6476904262273
20
-5.14181109811602
30
0
0
SPLINE
5
11D
100
AcDbEntity
8
1
62
256
6
ByLayer
370
18
48
1
60
0
100
AcDbSpline
70
4
71
3
72
34
73
30
40
0
40
0
40
0
40
0
40
0.124999999999992
40
0.124999999999992
40
0.187499999999988
40
0.187499999999988
40
0.249999999999984
40
0.249999999999984
40
0.375000000000014
40
0.375000000000014
40
0.437500000000029
40
0.437500000000029
40
0.500000000000044
40
0.500000000000044
40
0.625000000000032
40
0.625000000000032
40
0.687500000000047
40
0.687500000000047
40
0.750000000000063
40
0.750000000000063
40
0.812500000000078
40
0.812500000000078
40
0.843750000000066
40
0.843750000000066
40
0.875000000000053
40
0.875000000000053
40
0.937500000000026
40
0.937500000000026
40
1
40
1
40
1
40
1
41
1
10
51.6476904262273
20
-5.14181109811599
30
0
41
1
10
51.6621829826905
20
-5.11340043043208
30
0
41
1
10
51.6790835851476
20
-5.08730732299009
30
0
41
1
10
51.707172108143
20
-5.05079139819895
30
0
41
1
10
51.7170022739046
20
-5.03906772151061
30
0
41
1
10
51.7375470638648
20
-5.01646939878648
30
0
41
1
10
51.7481664673962
20
-5.00570522556063
30
0
41
1
10
51.7806503254609
20
-4.97520037502167
30
0
41
1
10
51.8032687322327
20
-4.95707390279154
30
0
41
1
10
51.8385154877647
20
-4.93297941515775
30
0
41
1
10
51.8505280031446
20
-4.92544642327744
30
0
41
1
10
51.8748143581633
20
-4.9115621503405
30
0
41
1
10
51.8870051823413
20
-4.90525349330278
30
0
41
1
10
51.923704114362
20
-4.88820180363513
30
0
41
1
10
51.9483374852609
20
-4.87930232028833
30
0
41
1
10
51.9854968130367
20
-4.87005274788098
30
0
41
1
10
51.9979881225516
20
-4.86765435407452
30
0
41
1
10
52.0225704299912
20
-4.86446725827281
30
0
41
1
10
52.0346805118663
20
-4.86366405669193
30
0
41
1
10
52.0584977853977
20
-4.8637623064844
30
0
41
1
10
52.0702054192773
20
-4.8646618642677
30
0
41
1
10
52.0874141411759
20
-4.86747161136526
30
0
41
1
10
52.09311198179
20
-4.86865877154872
30
0
41
1
10
52.1042497592013
20
-4.87153507058716
30
0
41
1
10
52.1096915680396
20
-4.87322204664261
30
0
41
1
10
52.125617132004
20
-4.87906446898123
30
0
41
1
10
52.1357044798791
20
-4.88399403245651
30
0
41
1
10
52.1546537375618
20
-4.89625201711775
30
0
41
1
10
52.1635275570551
20
-4.90361901253436
30
0
41
1
10
52.1714229471705
20
-4.91220410563429
30
0
0
SPLINE
5
11E
100
AcDbEntity
8
1
62
256
6
ByLayer
370
18
48
1
60
0
100
AcDbSpline
70
4
71
3
72
8
73
4
40
0
40
0
40
0
40
0
40
1
40
1
40
1
40
1
41
1
10
52.7291389709633
20
-5.46864716301022
30
0
41
1
10
52.7664164067826
20
-5.50234812014102
30
0
41
1
10
52.8036038940311
20
-5.53523998483328
30
0
41
1
10
52.8407080165697
20
-5.56732315873336
30
0
0
SPLINE
5
11F
100
AcDbEntity
8
1
62
256
6
ByLayer
370
18
48
1
60
0
100
AcDbSpline
70
4
71
3
72
8
73
4
40
0
40
0
40
0
40
0
40
1
40
1
40
1
40
1
41
1
10
53.0510531246362
20
-5.437969002248
30
0
41
1
10
52.9809198954919
20
-5.48189718005554
30
0
41
1
10
52.9108202544007
20
-5.5250236317047
30
0
41
1
10
52.8407080165696
20
-5.56732315873347
30
0
0
SPLINE
5
120
100
AcDbEntity
8
1
62
256
6
ByLayer
370
18
48
1
60
0
100
AcDbSpline
70
4
71
3
72
10
73
6
40
0
40
0
40
0
40
0
40
0.556793055938631
40
0.556793055938631
40
1
40
1
40
1
40
1
41
1
10
53.0510531246362
20
-5.43796900224797
30
0
41
1
10
53.1075299625598
20
-5.32300135380117
30
0
41
1
10
53.1641933901976
20
-5.20834501921908
30
0
41
1
10
53.2663799678443
20
-5.00303191599104
30
0
41
1
10
53.3118227104685
20
-4.91223350084877
30
0
41
1
10
53.3574164270493
20
-4.82167900059386
30
0
0
SPLINE
5
121
100
AcDbEntity
8
1
62
256
6
ByLayer
370
18
48
1
60
0
100
AcDbSpline
70
4
71
3
72
10
73
6
40
0
40
0
40
0
40
0
40
0.5
40
0.5
40
1
40
1
40
1
40
1
41
1
10
65.3500571941344
20
-2.8740524033164
30
0
41
1
10
65.3401764711496
20
-2.86824212770418
30
0
41
1
10
65.3301817675467
20
-2.86271371697441
30
0
41
1
10
65.3102837852805
20
-2.85245287255242
30
0
41
1
10
65.3004024794279
20
-2.84772800892796
30
0
41
1
10
65.290596211731
20
-2.84343164612849
30
0
0
SPLINE
5
122
100
AcDbEntity
8
1
62
256
6
ByLayer
370
18
48
1
60
0
100
AcDbSpline
70
4
71
3
72
16
73
12
40
0
40
0
40
0
40
0
40
0.125
40
0.125
40
0.249999999999999
40
0.249999999999999
40
0.5
40
0.5
40
0.75
40
0.75
40
1
40
1
40
1
40
1
41
1
10
65.2905962117304
20
-2.84343164613068
30
0
41
1
10
65.2245372485664
20
-2.80923995283706
30
0
41
1
10
65.1585373204879
20
-2.77450779923854
30
0
41
1
10
65.0268128120394
20
-2.70372809553828
30
0
41
1
10
64.9610803259882
20
-2.6676909463462
30
0
41
1
10
64.7642327902001
20
-2.55766361439319
30
0
41
1
10
64.6337385557381
20
-2.48190873905779
30
0
41
1
10
64.3740003336909
20
-2.32579176143716
30
0
41
1
10
64.2447646449081
20
-2.24541684822938
30
0
41
1
10
63.9872336829456
20
-2.08036294668082
30
0
41
1
10
63.8589225447328
20
-1.99570660607543
30
0
41
1
10
63.7309840786912
20
-1.90897627747791
30
0
0
SPLINE
5
123
100
AcDbEntity
8
1
62
256
6
ByLayer
370
18
48
1
60
0
100
AcDbSpline
70
4
71
3
72
8
73
4
40
0
40
0
40
0
40
0
40
1
40
1
40
1
40
1
41
1
10
63.7309840786911
20
-1.90897627747802
30
0
41
1
10
63.6769369040368
20
-1.81624674091847
30
0
41
1
10
63.6227389961284
20
-1.72478593001529
30
0
41
1
10
63.5683555102314
20
-1.63463670677055
30
0
0
SPLINE
5
124
100
AcDbEntity
8
1
62
256
6
ByLayer
370
18
48
1
60
0
100
AcDbSpline
70
4
71
3
72
34
73
30
40
0
40
0
40
0
40
0
40
0.125000000000031
40
0.125000000000031
40
0.187500000000047
40
0.187500000000047
40
0.250000000000062
40
0.250000000000062
40
0.375000000000094
40
0.375000000000094
40
0.437500000000111
40
0.437500000000111
40
0.500000000000127
40
0.500000000000127
40
0.625000000000116
40
0.625000000000116
40
0.687500000000111
40
0.687500000000111
40
0.750000000000105
40
0.750000000000105
40
0.8125000000001
40
0.8125000000001
40
0.875000000000094
40
0.875000000000094
40
0.906250000000072
40
0.906250000000072
40
0.937500000000049
40
0.937500000000049
40
1
40
1
40
1
40
1
41
1
10
63.5683555102314
20
-1.63463670677055
30
0
41
1
10
63.5543255209276
20
-1.61137978204411
30
0
41
1
10
63.5380222631966
20
-1.58810191898576
30
0
41
1
10
63.5108955977559
20
-1.55319402354013
30
0
41
1
10
63.50139861177
20
-1.54155888439519
30
0
41
1
10
63.4815345747648
20
-1.51829083985911
30
0
41
1
10
63.4712452280258
20
-1.50675140445296
30
0
41
1
10
63.4396162180544
20
-1.47265820225428
30
0
41
1
10
63.4174256269074
20
-1.45050784890182
30
0
41
1
10
63.3825558097299
20
-1.41808848370181
30
0
41
1
10
63.3706579034544
20
-1.40741473105126
30
0
41
1
10
63.3467480988743
20
-1.38670568388105
30
0
41
1
10
63.3346852446877
20
-1.3766218310725
30
0
41
1
10
63.2981837383193
20
-1.34717702730353
30
0
41
1
10
63.2734372031181
20
-1.32860816443565
30
0
41
1
10
63.2356627894893
20
-1.30254780406884
30
0
41
1
10
63.2229732364961
20
-1.29417765739015
30
0
41
1
10
63.1979725753887
20
-1.27849582584344
30
0
41
1
10
63.1855892670754
20
-1.2711325554088
30
0
41
1
10
63.1610953180761
20
-1.25745862353054
30
0
41
1
10
63.1489390595085
20
-1.25112501823338
30
0
41
1
10
63.1251564851082
20
-1.23979030591727
30
0
41
1
10
63.1137015174094
20
-1.23486732957599
30
0
41
1
10
63.0972552915422
20
-1.22872574285799
30
0
41
1
10
63.0918964314815
20
-1.22688664049761
30
0
41
1
10
63.0814470318884
20
-1.22366083838992
30
0
41
1
10
63.076337728268
20
-1.22226993112807
30
0
41
1
10
63.0615961212229
20
-1.21888268649243
30
0
41
1
10
63.0526130918643
20
-1.21767349849776
30
0
41
1
10
63.0445810354899
20
-1.21765403246394
30
0
0
SPLINE
5
125
100
AcDbEntity
8
1
62
256
6
ByLayer
370
18
48
1
60
0
100
AcDbSpline
70
4
71
3
72
8
73
4
40
0
40
0
40
0
40
0
40
1
40
1
40
1
40
1
41
1
10
63.0445810354899
20
-1.21765403246391
30
0
41
1
10
62.9438387326966
20
-1.21740987916351
30
0
41
1
10
62.8434990020685
20
-1.20971754748152
30
0
41
1
10
62.743689266379
20
-1.19492938919521
30
0
0
SPLINE
5
126
100
AcDbEntity
8
1
62
256
6
ByLayer
370
18
48
1
60
0
100
AcDbSpline
70
4
71
3
72
8
73
4
40
0
40
0
40
0
40
0
40
1
40
1
40
1
40
1
41
1
10
62.743689266379
20
-1.19492938919521
30
0
41
1
10
62.4652137129432
20
-0.980889535848775
30
0
41
1
10
62.1904744016826
20
-0.759498218355361
30
0
41
1
10
61.9184893054414
20
-0.531760034076598
30
0
0
SPLINE
5
127
100
AcDbEntity
8
1
62
256
6
ByLayer
370
18
48
1
60
0
100
AcDbSpline
70
4
71
3
72
10
73
6
40
0
40
0
40
0
40
0
40
0.5
40
0.5
40
1
40
1
40
1
40
1
41
1
10
61.9184893054414
20
-0.531760034076598
30
0
41
1
10
61.8454368625294
20
-0.426675389152933
30
0
41
1
10
61.7720436473554
20
-0.324512707532136
30
0
41
1
10
61.6247826437744
20
-0.126800841695825
30
0
41
1
10
61.5508716795477
20
-0.0311926628368724
30
0
41
1
10
61.4766317169168
20
0.0611782713336879
30
0
0
SPLINE
5
128
100
AcDbEntity
8
1
62
256
6
ByLayer
370
18
48
1
60
0
100
AcDbSpline
70
4
71
3
72
38
73
34
40
0
40
0
40
0
40
0
40
0.12499999999998
40
0.12499999999998
40
0.18749999999997
40
0.18749999999997
40
0.24999999999996
40
0.24999999999996
40
0.374999999999977
40
0.374999999999977
40
0.437499999999985
40
0.437499999999985
40
0.499999999999993
40
0.499999999999993
40
0.625000000000009
40
0.625000000000009
40
0.656250000000002
40
0.656250000000002
40
0.687499999999995
40
0.687499999999995
40
0.749999999999938
40
0.749999999999938
40
0.781249999999931
40
0.781249999999931
40
0.812499999999924
40
0.812499999999924
40
0.87499999999995
40
0.87499999999995
40
0.906249999999963
40
0.906249999999963
40
0.937499999999976
40
0.937499999999976
40
1
40
1
40
1
40
1
41
1
10
61.4766317169168
20
0.0611782713337163
30
0
41
1
10
61.462590874717
20
0.0786481846334084
30
0
41
1
10
61.446270583884
20
0.0970402472971159
30
0
41
1
10
61.4191130945456
20
0.125668199608413
30
0
41
1
10
61.4096049630493
20
0.13538885391273
30
0
41
1
10
61.3897176631021
20
0.155170797050601
30
0
41
1
10
61.3794297040674
20
0.165140434790345
30
0
41
1
10
61.3477883640166
20
0.19509966718681
30
0
41
1
10
61.3255894003929
20
0.21521438077707
30
0
41
1
10
61.2907052154077
20
0.24564232829789
30
0
41
1
10
61.2788144116157
20
0.255822604531886
30
0
41
1
10
61.2549165428155
20
0.275926943702615
30
0
41
1
10
61.2428587017009
20
0.285895723378445
30
0
41
1
10
61.206368005205
20
0.315566673947984
30
0
41
1
10
61.1816229988924
20
0.33503652118867
30
0
41
1
10
61.1501362071165
20
0.358992828067301
30
0
41
1
10
61.1437959935781
20
0.363775582689783
30
0
41
1
10
61.1311950299191
20
0.373198496303331
30
0
41
1
10
61.1249214121137
20
0.37784863437156
30
0
41
1
10
61.1061862364747
20
0.391611358750879
30
0
41
1
10
61.0938098036262
20
0.400537442785463
30
0
41
1
10
61.0754442398268
20
0.413519775464977
30
0
41
1
10
61.0693556914686
20
0.417779157719025
30
0
41
1
10
61.0572519701199
20
0.426152154809074
30
0
41
1
10
61.0512156061408
20
0.430280032273828
30
0
41
1
10
61.0333954640004
20
0.442313139435072
30
0
41
1
10
61.0219466585892
20
0.4498397072648
30
0
41
1
10
61.0055029068609
20
0.460302747905416
30
0
41
1
10
61.00014374256
20
0.463651979042396
30
0
41
1
10
60.9896916232501
20
0.470049234419435
30
0
41
1
10
60.9845782125213
20
0.473109096483853
30
0
41
1
10
60.9698439418155
20
0.481692048654366
30
0
41
1
10
60.9608621089554
20
0.486604881373751
30
0
41
1
10
60.9528288048296
20
0.490597120166825
30
0
0
SPLINE
5
129
100
AcDbEntity
8
1
62
256
6
ByLayer
370
18
48
1
60
0
100
AcDbSpline
70
4
71
3
72
12
73
8
40
0
40
0
40
0
40
0
40
0.5
40
0.5
40
0.75
40
0.75
40
1
40
1
40
1
40
1
41
1
10
60.9528288048296
20
0.490597120166825
30
0
41
1
10
60.8410530742674
20
0.54614529818781
30
0
41
1
10
60.7297772424104
20
0.610433028479434
30
0
41
1
10
60.5638405722553
20
0.71914657444259
30
0
41
1
10
60.5086608781214
20
0.75745698060544
30
0
41
1
10
60.3987028097758
20
0.838027053730315
30
0
41
1
10
60.3439106558371
20
0.880294710965813
30
0
41
1
10
60.2892785703355
20
0.92450395215792
30
0
0
SPLINE
5
12A
100
AcDbEntity
8
1
62
256
6
ByLayer
370
18
48
1
60
0
100
AcDbSpline
70
4
71
3
72
12
73
8
40
0
40
0
40
0
40
0
40
0.25
40
0.25
40
0.499999999999999
40
0.499999999999999
40
1
40
1
40
1
40
1
41
1
10
60.0776801959381
20
1.12882451558056
30
0
41
1
10
60.020698937816
20
1.18976292087021
30
0
41
1
10
59.9635543728144
20
1.24850270480306
30
0
41
1
10
59.8488548361817
20
1.36149225788048
30
0
41
1
10
59.791286428981
20
1.41578439599164
30
0
41
1
10
59.6180497457773
20
1.57173201976559
30
0
41
1
10
59.5018284603844
20
1.66646437804812
30
0
41
1
10
59.3849240328797
20
1.75164771578247
30
0
0
SPLINE
5
12B
100
AcDbEntity
8
1
62
256
6
ByLayer
370
18
48
1
60
0
100
AcDbSpline
70
4
71
3
72
36
73
32
40
0
40
0
40
0
40
0
40
0.125000000000021
40
0.125000000000021
40
0.187500000000015
40
0.187500000000015
40
0.25000000000001
40
0.25000000000001
40
0.375000000000037
40
0.375000000000037
40
0.43750000000005
40
0.43750000000005
40
0.500000000000063
40
0.500000000000063
40
0.625000000000087
40
0.625000000000087
40
0.687500000000121
40
0.687500000000121
40
0.750000000000154
40
0.750000000000154
40
0.78125000000015
40
0.78125000000015
40
0.812500000000146
40
0.812500000000146
40
0.875000000000097
40
0.875000000000097
40
0.906250000000073
40
0.906250000000073
40
0.937500000000049
40
0.937500000000049
40
1
40
1
40
1
40
1
41
1
10
59.3849240328797
20
1.75164771578244
30
0
41
1
10
59.3708788346558
20
1.76188186079631
30
0
41
1
10
59.3545506823201
20
1.77386170235479
30
0
41
1
10
59.327376602794
20
1.79382994941551
30
0
41
1
10
59.3178621257011
20
1.80082740126409
30
0
41
1
10
59.2979604380242
20
1.81547555794282
30
0
41
1
10
59.2876745682012
20
1.82305173909884
30
0
41
1
10
59.2560246625547
20
1.8463876769959
30
0
41
1
10
59.2338176011179
20
1.86278970710887
30
0
41
1
10
59.1989165796572
20
1.88868359742889
30
0
41
1
10
59.1870287129609
20
1.89752287567899
30
0
41
1
10
59.1631334712223
20
1.91534619501059
30
0
41
1
10
59.1510761926211
20
1.92436717377711
30
0
41
1
10
59.1145847803471
20
1.95178314873635
30
0
41
1
10
59.0898361926799
20
1.97052253497279
30
0
41
1
10
59.0520400701569
20
1.99954739969513
30
0
41
1
10
59.0393809348331
20
2.00933738847027
30
0
41
1
10
59.0144152855131
20
2.0288177472145
30
0
41
1
10
59.0020444302889
20
2.03855721037729
30
0
41
1
10
58.9836845905291
20
2.05317623602537
30
0
41
1
10
58.9775975071216
20
2.05805088481384
30
0
41
1
10
58.9654957846962
20
2.06780535094583
30
0
41
1
10
58.9594590393618
20
2.07270328996208
30
0
41
1
10
58.9416551416388
20
2.08725640709801
30
0
41
1
10
58.9302142890153
20
2.09675281397872
30
0
41
1
10
58.9137784137616
20
2.11065720325627
30
0
41
1
10
58.9084211982901
20
2.11523500662185
30
0
41
1
10
58.8979716648672
20
2.12426672203745
30
0
41
1
10
58.8928582495191
20
2.12873943964181
30
0
41
1
10
58.8781350449517
20
2.14179479784943
30
0
41
1
10
58.8691576938107
20
2.14999767445727
30
0
41
1
10
58.8611265462582
20
2.15762816865975
30
0
0
SPLINE
5
12C
100
AcDbEntity
8
1
62
256
6
ByLayer
370
18
48
1
60
0
100
AcDbSpline
70
4
71
3
72
12
73
8
40
0
40
0
40
0
40
0
40
0.499999999999992
40
0.499999999999992
40
0.749999999999996
40
0.749999999999996
40
1
40
1
40
1
40
1
41
1
10
58.8611265462582
20
2.15762816865973
30
0
41
1
10
58.7491084047371
20
2.26405801244712
30
0
41
1
10
58.6376028399906
20
2.37829286015443
30
0
41
1
10
58.4713403408778
20
2.5602193222789
30
0
41
1
10
58.4160501692514
20
2.62265857436276
30
0
41
1
10
58.305870904793
20
2.750809707971
30
0
41
1
10
58.2509691237232
20
2.81653499104206
30
0
41
1
10
58.1962274831126
20
2.88386353101436
30
0
0
SPLINE
5
12D
100
AcDbEntity
8
1
62
256
6
ByLayer
370
18
48
1
60
0
100
AcDbSpline
70
4
71
3
72
12
73
8
40
0
40
0
40
0
40
0
40
0.249999999999998
40
0.249999999999998
40
0.499999999999995
40
0.499999999999995
40
1
40
1
40
1
40
1
41
1
10
57.9859139569607
20
3.0700098000483
30
0
41
1
10
57.9289005024828
20
3.09875322490723
30
0
41
1
10
57.8717254780235
20
3.12508996525745
30
0
41
1
10
57.7569950118668
20
3.17294614953536
30
0
41
1
10
57.6994188862116
20
3.19446809567469
30
0
41
1
10
57.5261885663879
20
3.25166667085514
30
0
41
1
10
57.4100144726052
20
3.27998196489739
30
0
41
1
10
57.293182486809
20
3.29825675951278
30
0
0
SPLINE
5
12E
100
AcDbEntity
8
1
62
256
6
ByLayer
370
18
48
1
60
0
100
AcDbSpline
70
4
71
3
72
36
73
32
40
0
40
0
40
0
40
0
40
0.12500000000001
40
0.12500000000001
40
0.187500000000029
40
0.187500000000029
40
0.250000000000048
40
0.250000000000048
40
0.375000000000049
40
0.375000000000049
40
0.437500000000069
40
0.437500000000069
40
0.500000000000089
40
0.500000000000089
40
0.625000000000129
40
0.625000000000129
40
0.687500000000128
40
0.687500000000128
40
0.750000000000126
40
0.750000000000126
40
0.781250000000126
40
0.781250000000126
40
0.812500000000126
40
0.812500000000126
40
0.875000000000085
40
0.875000000000085
40
0.906250000000064
40
0.906250000000064
40
0.937500000000042
40
0.937500000000042
40
1
40
1
40
1
40
1
41
1
10
57.293182486809
20
3.29825675951278
30
0
41
1
10
57.2791296912119
20
3.30045489002953
30
0
41
1
10
57.2627930490062
20
3.30508340420616
30
0
41
1
10
57.2356075752775
20
3.31482136188683
30
0
41
1
10
57.2260895009861
20
3.31854446542576
30
0
41
1
10
57.2061813421342
20
3.32690324538115
30
0
41
1
10
57.1959029817944
20
3.33149255012742
30
0
41
1
10
57.1642609586415
20
3.34636652189513
30
0
41
1
10
57.1420592081238
20
3.35775865542999
30
0
41
1
10
57.1071643145846
20
3.37706190816382
30
0
41
1
10
57.0952867721315
20
3.38385982458467
30
0
41
1
10
57.0714068669708
20
3.39798615182093
30
0
41
1
10
57.0593561251926
20
3.40534090017366
30
0
41
1
10
57.0228801747625
20
3.42831321796672
30
0
41
1
10
56.9981364993538
20
3.44481909724746
30
0
41
1
10
56.9603348330625
20
3.47178329522799
30
0
41
1
10
56.9476824214
20
3.48110195094566
30
0
41
1
10
56.9227179772793
20
3.50014543073277
30
0
41
1
10
56.9103447264903
20
3.50991293722885
30
0
41
1
10
56.8919765969125
20
3.52498749812995
30
0
41
1
10
56.8858859668189
20
3.53008317301132
30
0
41
1
10
56.8737755424455
20
3.54042959874729
30
0
41
1
10
56.8677333568571
20
3.54570055208299
30
0
41
1
10
56.8499236320234
20
3.56159425725741
30
0
41
1
10
56.8384754684777
20
3.57228884022504
30
0
41
1
10
56.8220244836974
20
3.58850323518368
30
0
41
1
10
56.8166615423995
20
3.59393688443635
30
0
41
1
10
56.8061993791758
20
3.60486756760227
30
0
41
1
10
56.8010786263411
20
3.61038903934167
30
0
41
1
10
56.786344826761
20
3.6268473964434
30
0
41
1
10
56.7773594947142
20
3.63766624751645
30
0
41
1
10
56.7693206013541
20
3.64830719314381
30
0
0
SPLINE
5
12F
100
AcDbEntity
8
1
62
256
6
ByLayer
370
18
48
1
60
0
100
AcDbSpline
70
4
71
3
72
12
73
8
40
0
40
0
40
0
40
0
40
0.5
40
0.5
40
0.75
40
0.75
40
1
40
1
40
1
40
1
41
1
10
56.7693206013541
20
3.64830719314378
30
0
41
1
10
56.6573158909646
20
3.79656591233083
30
0
41
1
10
56.5458056877967
20
3.95072641396189
30
0
41
1
10
56.3795341721576
20
4.18993837395701
30
0
41
1
10
56.3242412774597
20
4.27105640116568
30
0
41
1
10
56.2140661463679
20
4.43570027717877
30
0
41
1
10
56.1591693289581
20
4.51923993785948
30
0
41
1
10
56.1044340343435
20
4.60395168223903
30
0
0
SPLINE
5
130
100
AcDbEntity
8
1
62
256
6
ByLayer
370
18
48
1
60
0
100
AcDbSpline
70
4
71
3
72
12
73
8
40
0
40
0
40
0
40
0
40
0.249999999999997
40
0.249999999999997
40
0.499999999999994
40
0.499999999999994
40
1
40
1
40
1
40
1
41
1
10
55.8941620615686
20
4.75778987644316
30
0
41
1
10
55.8371406378787
20
4.75209624196441
30
0
41
1
10
55.7799602091752
20
4.74398787794019
30
0
41
1
10
55.6652236571792
20
4.72293539231589
30
0
41
1
10
55.6076473430829
20
4.70998341494865
30
0
41
1
10
55.4344208188531
20
4.66382897734965
30
0
41
1
10
55.3182562086363
20
4.62332677080803
30
0
41
1
10
55.201423895229
20
4.57298639187991
30
0
0
SPLINE
5
131
100
AcDbEntity
8
1
62
256
6
ByLayer
370
18
48
1
60
0
100
AcDbSpline
70
4
71
3
72
36
73
32
40
0
40
0
40
0
40
0
40
0.124999999999974
40
0.124999999999974
40
0.18749999999996
40
0.18749999999996
40
0.249999999999947
40
0.249999999999947
40
0.37499999999992
40
0.37499999999992
40
0.437499999999926
40
0.437499999999926
40
0.499999999999933
40
0.499999999999933
40
0.624999999999945
40
0.624999999999945
40
0.687499999999929
40
0.687499999999929
40
0.749999999999914
40
0.749999999999914
40
0.781249999999906
40
0.781249999999906
40
0.812499999999899
40
0.812499999999899
40
0.874999999999921
40
0.874999999999921
40
0.906249999999933
40
0.906249999999933
40
0.937499999999944
40
0.937499999999944
40
1
40
1
40
1
40
1
41
1
10
55.201423895229
20
4.57298639187999
30
0
41
1
10
55.1873756507327
20
4.56693332376389
30
0
41
1
10
55.1710442009812
20
4.56378409431588
30
0
41
1
10
55.1438658496829
20
4.56240980839107
30
0
41
1
10
55.1343500440007
20
4.56252320391124
30
0
41
1
10
55.1144459050399
20
4.56384283151621
30
0
41
1
10
55.1041745467103
20
4.56504196129197
30
0
41
1
10
55.0725445253084
20
4.5701375672019
30
0
41
1
10
55.0503490734997
20
4.57551395178578
30
0
41
1
10
55.0154594441935
20
4.58652907806405
30
0
41
1
10
55.0035871112552
20
4.59069376378059
30
0
41
1
10
54.9797140325067
20
4.59989186044612
30
0
41
1
10
54.9676656895799
20
4.60493961631593
30
0
41
1
10
54.9311928601571
20
4.62146840900743
30
0
41
1
10
54.9064459295903
20
4.63430558756204
30
0
41
1
10
54.8686258587937
20
4.65687305662934
30
0
41
1
10
54.8559722163673
20
4.66491814647426
30
0
41
1
10
54.8309993987031
20
4.68188458077341
30
0
41
1
10
54.8186208863552
20
4.6908398457621
30
0
41
1
10
54.8002441926079
20
4.70507569991889
30
0
41
1
10
54.7941505945539
20
4.70995532436962
30
0
41
1
10
54.7820341480163
20
4.72000723511843
30
0
41
1
10
54.7759889035115
20
4.72519990444167
30
0
41
1
10
54.7581783002932
20
4.74107789330034
30
0
41
1
10
54.7467297857365
20
4.75205926215807
30
0
41
1
10
54.7302788379295
20
4.76920399815435
30
0
41
1
10
54.7249159990512
20
4.77503149373891
30
0
41
1
10
54.714454217467
20
4.78693243812984
30
0
41
1
10
54.7093337290001
20
4.79303358921879
30
0
41
1
10
54.6946054330901
20
4.8115029122383
30
0
41
1
10
54.6856235666521
20
4.82402469947576
30
0
41
1
10
54.677587538741
20
4.83677975672472
30
0
0
SPLINE
5
132
100
AcDbEntity
8
1
62
256
6
ByLayer
370
18
48
1
60
0
100
AcDbSpline
70
4
71
3
72
14
73
10
40
0
40
0
40
0
40
0
40
0.25
40
0.25
40
0.5
40
0.5
40
0.75
40
0.75
40
1
40
1
40
1
40
1
41
1
10
54.6775875387407
20
4.83677975672501
30
0
41
1
10
54.6215764959434
20
4.92568239187599
30
0
41
1
10
54.5656966364771
20
5.01555012624019
30
0
41
1
10
54.4542010252566
20
5.19702963832256
30
0
41
1
10
54.3986231406001
20
5.28858298725785
30
0
41
1
10
54.2877676861055
20
5.47330338812347
30
0
41
1
10
54.232471574044
20
5.56650265180735
30
0
41
1
10
54.1222934401362
20
5.75418135260747
30
0
41
1
10
54.0673960692548
20
5.84868561186207
30
0
41
1
10
54.0126630138813
20
5.94382954570233
30
0
0
SPLINE
5
133
100
AcDbEntity
8
1
62
256
6
ByLayer
370
18
48
1
60
0
100
AcDbSpline
70
4
71
3
72
12
73
8
40
0
40
0
40
0
40
0
40
0.25
40
0.25
40
0.5
40
0.5
40
1
40
1
40
1
40
1
41
1
10
53.8024215595479
20
6.05286533231006
30
0
41
1
10
53.7453933408861
20
6.01325843761563
30
0
41
1
10
53.6882109781692
20
5.97143010868257
30
0
41
1
10
53.573476216136
20
5.88331018495774
30
0
41
1
10
53.5159048062266
20
5.83700353824526
30
0
41
1
10
53.3426909054887
20
5.69141719664762
30
0
41
1
10
53.2265369661171
20
5.58547003858561
30
0
41
1
10
53.1096420914882
20
5.47050264012466
30
0
0
SPLINE
5
134
100
AcDbEntity
8
1
62
256
6
ByLayer
370
18
48
1
60
0
100
AcDbSpline
70
4
71
3
72
36
73
32
40
0
40
0
40
0
40
0
40
0.125000000000023
40
0.125000000000023
40
0.187500000000049
40
0.187500000000049
40
0.250000000000076
40
0.250000000000076
40
0.375000000000094
40
0.375000000000094
40
0.437500000000102
40
0.437500000000102
40
0.50000000000011
40
0.50000000000011
40
0.625000000000126
40
0.625000000000126
40
0.687500000000113
40
0.687500000000113
40
0.7500000000001
40
0.7500000000001
40
0.781250000000093
40
0.781250000000093
40
0.812500000000086
40
0.812500000000086
40
0.875000000000069
40
0.875000000000069
40
0.906250000000061
40
0.906250000000061
40
0.937500000000053
40
0.937500000000053
40
1
40
1
40
1
40
1
41
1
10
53.1096420914882
20
5.47050264012466
30
0
41
1
10
53.0956027340324
20
5.45669477722325
30
0
41
1
10
53.0792804692144
20
5.44601621354457
30
0
41
1
10
53.0521093613166
20
5.43361612236657
30
0
41
1
10
53.0425949152811
20
5.43009991503851
30
0
41
1
10
53.0226904382153
20
5.42424839875341
30
0
41
1
10
53.0124140974642
20
5.42194766227144
30
0
41
1
10
52.9807704926587
20
5.41681069596018
30
0
41
1
10
52.9585605845858
20
5.41570490223512
30
0
41
1
10
52.9236432196282
20
5.41749465114839
30
0
41
1
10
52.9117577727373
20
5.41867691615178
30
0
41
1
10
52.8878618335793
20
5.42218044439039
30
0
41
1
10
52.8758028931928
20
5.42450321879622
30
0
41
1
10
52.8393025380646
20
5.43322695917416
30
0
41
1
10
52.8145427939046
20
5.4413472322716
30
0
41
1
10
52.7767208450746
20
5.45768147746932
30
0
41
1
10
52.7640707617993
20
5.46380397527329
30
0
41
1
10
52.7391101051098
20
5.47732059433494
30
0
41
1
10
52.726740437797
20
5.48473826708425
30
0
41
1
10
52.7083804545851
20
5.49697819280789
30
0
41
1
10
52.7022930016058
20
5.50124445143399
30
0
41
1
10
52.6901898916215
20
5.5101815740897
30
0
41
1
10
52.6841518617762
20
5.51487127036606
30
0
41
1
10
52.6663605940661
20
5.52944206677915
30
0
41
1
10
52.6549262971411
20
5.5398133707088
30
0
41
1
10
52.638497666062
20
5.55648058605414
30
0
41
1
10
52.6331424330296
20
5.56222217137591
30
0
41
1
10
52.6226960240883
20
5.57411076873265
30
0
41
1
10
52.6175834526797
20
5.5802861451354
30
0
41
1
10
52.6028731524439
20
5.59924429613753
30
0
41
1
10
52.5939020942331
20
5.61243265128246
30
0
41
1
10
52.5858750717957
20
5.62624152607518
30
0
0
SPLINE
5
135
100
AcDbEntity
8
1
62
256
6
ByLayer
370
18
48
1
60
0
100
AcDbSpline
70
4
71
3
72
12
73
8
40
0
40
0
40
0
40
0
40
0.499999999999993
40
0.499999999999993
40
0.749999999999997
40
0.749999999999997
40
1
40
1
40
1
40
1
41
1
10
52.5858750717957
20
5.62624152607518
30
0
41
1
10
52.4738262292675
20
5.81899898367624
30
0
41
1
10
52.3623020187934
20
6.01310498317676
30
0
41
1
10
52.1960084777452
20
6.30520782561794
30
0
41
1
10
52.1407080070575
20
6.40279301480757
30
0
41
1
10
52.0305214440335
20
6.59800684173999
30
0
41
1
10
51.9756181378661
20
6.69566575980613
30
0
41
1
10
51.9208784094805
20
6.79336262090331
30
0
0
SPLINE
5
136
100
AcDbEntity
8
1
62
256
6
ByLayer
370
18
48
1
60
0
100
AcDbSpline
70
4
71
3
72
14
73
10
40
0
40
0
40
0
40
0
40
0.25
40
0.25
40
0.5
40
0.5
40
0.75
40
0.75
40
1
40
1
40
1
40
1
41
1
10
51.7106178364773
20
6.84851911022002
30
0
41
1
10
51.653621945028
20
6.77828860308713
30
0
41
1
10
51.5964703348335
20
6.70618978365726
30
0
41
1
10
51.481785114924
20
6.55822318245666
30
0
41
1
10
51.4242326542692
20
6.48233120397646
30
0
41
1
10
51.3087765013221
20
6.32686027169797
30
0
41
1
10
51.2508606364248
20
6.24726086883936
30
0
41
1
10
51.134651990783
20
6.08439724845709
30
0
41
1
10
51.0763849405838
20
6.00117361378344
30
0
41
1
10
51.0179265964363
20
5.91617721830534
30
0
0
SPLINE
5
137
100
AcDbEntity
8
1
62
256
6
ByLayer
370
18
48
1
60
0
100
AcDbSpline
70
4
71
3
72
34
73
30
40
0
40
0
40
0
40
0
40
0.124999999999943
40
0.124999999999943
40
0.249999999999885
40
0.249999999999885
40
0.374999999999828
40
0.374999999999828
40
0.437499999999799
40
0.437499999999799
40
0.49999999999977
40
0.49999999999977
40
0.624999999999756
40
0.624999999999756
40
0.68749999999977
40
0.68749999999977
40
0.749999999999784
40
0.749999999999784
40
0.781249999999792
40
0.781249999999792
40
0.812499999999799
40
0.812499999999799
40
0.874999999999853
40
0.874999999999853
40
0.906249999999882
40
0.906249999999882
40
0.93749999999991
40
0.93749999999991
40
1
40
1
40
1
40
1
41
1
10
51.0179265964363
20
5.91617721830534
30
0
41
1
10
51.0038777175164
20
5.89575063787245
30
0
41
1
10
50.987539403199
20
5.87843297839126
30
0
41
1
10
50.9512711804856
20
5.8486107516816
30
0
41
1
10
50.9311623320128
20
5.83609744842113
30
0
41
1
10
50.8889470507125
20
5.81627548817397
30
0
41
1
10
50.8667243982739
20
5.8088380214619
30
0
41
1
10
50.8317853882564
20
5.8013455486726
30
0
41
1
10
50.8199059488632
20
5.79947948073288
30
0
41
1
10
50.7960144133125
20
5.79705726204466
30
0
41
1
10
50.7839568296492
20
5.79649050166671
30
0
41
1
10
50.7474579604831
20
5.79676563505646
30
0
41
1
10
50.7226960327728
20
5.79954267734595
30
0
41
1
10
50.6848638083233
20
5.80835665778389
30
0
41
1
10
50.6722363047099
20
5.81206361635418
30
0
41
1
10
50.6472975986376
20
5.82103997944608
30
0
41
1
10
50.634936628381
20
5.82631908156975
30
0
41
1
10
50.6165858722612
20
5.83557068406759
30
0
41
1
10
50.6105008567584
20
5.83887757094624
30
0
41
1
10
50.5984012528149
20
5.8459754630189
30
0
41
1
10
50.5923649999294
20
5.84978200837742
30
0
41
1
10
50.5745951577685
20
5.86184886343216
30
0
41
1
10
50.5631710131455
20
5.87075868853807
30
0
41
1
10
50.5467517671547
20
5.88558460339831
30
0
41
1
10
50.5413986871702
20
5.89077118461856
30
0
41
1
10
50.5309546914012
20
5.90167836119522
30
0
41
1
10
50.5258424203597
20
5.9074261600733
30
0
41
1
10
50.511145047689
20
5.92531040143936
30
0
41
1
10
50.5021787225919
20
5.93807986789955
30
0
41
1
10
50.4941534789222
20
5.9518095429147
30
0
0
SPLINE
5
138
100
AcDbEntity
8
1
62
256
6
ByLayer
370
18
48
1
60
0
100
AcDbSpline
70
4
71
3
72
14
73
10
40
0
40
0
40
0
40
0
40
0.25
40
0.25
40
0.5
40
0.5
40
0.75
40
0.75
40
1
40
1
40
1
40
1
41
1
10
50.4941534789222
20
5.9518095429147
30
0
41
1
10
50.4381191116408
20
6.04767375391222
30
0
41
1
10
50.3822091872768
20
6.14322224350818
30
0
41
1
10
50.2706957992476
20
6.33350789783603
30
0
41
1
10
50.2151116049343
20
6.42821208425133
30
0
41
1
10
50.1042379403545
20
6.61673873586363
30
0
41
1
10
50.0489333954066
20
6.7105863938753
30
0
41
1
10
49.9387426830194
20
6.89709494411963
30
0
41
1
10
49.8838361738682
20
6.98979101740434
30
0
41
1
10
49.829087714719
20
7.0819358385323
30
0
0
SPLINE
5
139
100
AcDbEntity
8
1
62
256
6
ByLayer
370
18
48
1
60
0
100
AcDbSpline
70
4
71
3
72
8
73
4
40
0
40
0
40
0
40
0
40
1
40
1
40
1
40
1
41
1
10
49.6188261405483
20
7.07856598419804
30
0
41
1
10
49.6889378043066
20
7.08068120517157
30
0
41
1
10
49.7590313190452
20
7.0818043448794
30
0
41
1
10
49.829087714719
20
7.08193583853227
30
0
0
SPLINE
5
13A
100
AcDbEntity
8
1
62
256
6
ByLayer
370
18
48
1
60
0
100
AcDbSpline
70
4
71
3
72
12
73
8
40
0
40
0
40
0
40
0
40
0.249999999999997
40
0.249999999999997
40
0.499999999999994
40
0.499999999999994
40
1
40
1
40
1
40
1
41
1
10
49.6188261405483
20
7.07856598419806
30
0
41
1
10
49.5618473434327
20
6.98351462538608
30
0
41
1
10
49.5047065690602
20
6.88709609835567
30
0
41
1
10
49.39001146833
20
6.69148311578405
30
0
41
1
10
49.3324393951467
20
6.59225854313445
30
0
41
1
10
49.1592224021398
20
6.29079289850398
30
0
41
1
10
49.0430595158528
20
6.08472286867413
30
0
41
1
10
48.9262212023057
20
5.87410286876855
30
0
0
SPLINE
5
13B
100
AcDbEntity
8
1
62
256
6
ByLayer
370
18
48
1
60
0
100
AcDbSpline
70
4
71
3
72
34
73
30
40
0
40
0
40
0
40
0
40
0.124999999999986
40
0.124999999999986
40
0.187499999999977
40
0.187499999999977
40
0.249999999999969
40
0.249999999999969
40
0.374999999999953
40
0.374999999999953
40
0.437499999999945
40
0.437499999999945
40
0.499999999999937
40
0.499999999999937
40
0.624999999999921
40
0.624999999999921
40
0.687499999999934
40
0.687499999999934
40
0.749999999999947
40
0.749999999999947
40
0.81249999999996
40
0.81249999999996
40
0.843749999999967
40
0.843749999999967
40
0.874999999999973
40
0.874999999999973
40
0.937499999999987
40
0.937499999999987
40
1
40
1
40
1
40
1
41
1
10
48.9262212023056
20
5.87410286876852
30
0
41
1
10
48.9121546743147
20
5.84874567185102
30
0
41
1
10
48.8957792118318
20
5.82619948610588
30
0
41
1
10
48.8684880176306
20
5.79566749046433
30
0
41
1
10
48.858889341945
20
5.78601707181201
30
0
41
1
10
48.838977718121
20
5.76794680986231
30
0
41
1
10
48.8287252544357
20
5.75957369695487
30
0
41
1
10
48.797150475294
20
5.73628847589129
30
0
41
1
10
48.7750201810581
20
5.72318697283831
30
0
41
1
10
48.7402813446605
20
5.70708070156596
30
0
41
1
10
48.7283845910614
20
5.70229097234153
30
0
41
1
10
48.7043613852291
20
5.69406873532574
30
0
41
1
10
48.6922608783103
20
5.69063704106003
30
0
41
1
10
48.6557061426434
20
5.68239390829106
30
0
41
1
10
48.6310022978591
20
5.67959655011902
30
0
41
1
10
48.59344008222
20
5.68008131517681
30
0
41
1
10
48.5807555782792
20
5.68104621956408
30
0
41
1
10
48.5556801424044
20
5.68472436124631
30
0
41
1
10
48.5432871640274
20
5.68742404702809
30
0
41
1
10
48.5188312156751
20
5.6947189048239
30
0
41
1
10
48.5067677633854
20
5.699311390509
30
0
41
1
10
48.4889695486008
20
5.70786389214351
30
0
41
1
10
48.4830866855546
20
5.71099687392569
30
0
41
1
10
48.4716136263596
20
5.7177643175572
30
0
41
1
10
48.4660005749575
20
5.72140889024146
30
0
41
1
10
48.4495542172832
20
5.73317052782645
30
0
41
1
10
48.4391095983665
20
5.74210644261225
30
0
41
1
10
48.4194561671316
20
5.76258099861732
30
0
41
1
10
48.4104281067533
20
5.77394658461316
30
0
41
1
10
48.4023933640639
20
5.78647158268527
30
0
0
SPLINE
5
13C
100
AcDbEntity
8
1
62
256
6
ByLayer
370
18
48
1
60
0
100
AcDbSpline
70
4
71
3
72
14
73
10
40
0
40
0
40
0
40
0
40
0.25
40
0.25
40
0.5
40
0.5
40
0.75
40
0.75
40
1
40
1
40
1
40
1
41
1
10
48.4023933640639
20
5.78647158268527
30
0
41
1
10
48.3463635632731
20
5.87381391261539
30
0
41
1
10
48.2904550207084
20
5.96021833245399
30
0
41
1
10
48.178949745081
20
6.13100694677868
30
0
41
1
10
48.1233655589376
20
6.21537218309783
30
0
41
1
10
48.0124871714281
20
6.382052535448
30
0
41
1
10
47.9571793003936
20
6.46438707307968
30
0
41
1
10
47.8469842997463
20
6.62674078899826
30
0
41
1
10
47.7920770555698
20
6.70678903852317
30
0
41
1
10
47.7373313213145
20
6.78572459626341
30
0
0
SPLINE
5
13D
100
AcDbEntity
8
1
62
256
6
ByLayer
370
18
48
1
60
0
100
AcDbSpline
70
4
71
3
72
8
73
4
40
0
40
0
40
0
40
0
40
1
40
1
40
1
40
1
41
1
10
47.711324865404
20
6.77841327212559
30
0
41
1
10
47.7199943588499
20
6.78086492660992
30
0
41
1
10
47.7286631495317
20
6.78330204270802
30
0
41
1
10
47.7373313213145
20
6.78572459626341
30
0
0
SPLINE
5
13E
100
AcDbEntity
8
1
62
256
6
ByLayer
370
18
48
1
60
0
100
AcDbSpline
70
4
71
3
72
8
73
4
40
0
40
0
40
0
40
0
40
1
40
1
40
1
40
1
41
1
10
47.7113248654052
20
6.7784132721261
30
0
41
1
10
47.5332462239286
20
6.41289127802054
30
0
41
1
10
47.3541583742714
20
6.04003560613523
30
0
41
1
10
47.1732639114038
20
5.66004629357994
30
0
0
SPLINE
5
13F
100
AcDbEntity
8
1
62
256
6
ByLayer
370
18
48
1
60
0
100
AcDbSpline
70
4
71
3
72
30
73
26
40
0
40
0
40
0
40
0
40
0.0624999999999949
40
0.0624999999999949
40
0.12499999999999
40
0.12499999999999
40
0.24999999999998
40
0.24999999999998
40
0.37499999999997
40
0.37499999999997
40
0.437499999999971
40
0.437499999999971
40
0.499999999999973
40
0.499999999999973
40
0.562499999999974
40
0.562499999999974
40
0.624999999999976
40
0.624999999999976
40
0.749999999999978
40
0.749999999999978
40
0.87499999999998
40
0.87499999999998
40
0.93749999999999
40
0.93749999999999
40
1
40
1
40
1
40
1
41
1
10
47.1732639114038
20
5.66004629357977
30
0
41
1
10
47.1569746600832
20
5.62582887579242
30
0
41
1
10
47.1398708970349
20
5.59219309756969
30
0
41
1
10
47.1041218798075
20
5.52600844470803
30
0
41
1
10
47.0854431856062
20
5.49340791356573
30
0
41
1
10
47.0275421740044
20
5.39772213526592
30
0
41
1
10
46.9864182213052
20
5.33662847346972
30
0
41
1
10
46.8996191650243
20
5.21923489990471
30
0
41
1
10
46.8539382731288
20
5.16293910276187
30
0
41
1
10
46.7821994267618
20
5.08188442599769
30
0
41
1
10
46.7577634649134
20
5.05543143998474
30
0
41
1
10
46.7077567233313
20
5.00365423627136
30
0
41
1
10
46.6821629957093
20
4.97833331097766
30
0
41
1
10
46.6297902205842
20
4.92884853325504
30
0
41
1
10
46.6031255248405
20
4.90478638229379
30
0
41
1
10
46.5490762816856
20
4.85815854389097
30
0
41
1
10
46.5216645624148
20
4.83556705431428
30
0
41
1
10
46.4383563365804
20
4.76992819785576
30
0
41
1
10
46.3813923906484
20
4.72901118803873
30
0
41
1
10
46.2649921828423
20
4.65278843401535
30
0
41
1
10
46.2055549883366
20
4.61748092796066
30
0
41
1
10
46.1147301220295
20
4.56880526429495
30
0
41
1
10
46.084137650236
20
4.55327874135827
30
0
41
1
10
46.0226936619069
20
4.52382354465357
30
0
41
1
10
45.9918257449494
20
4.50988326703316
30
0
41
1
10
45.9608283461056
20
4.49673887828482
30
0
0
SPLINE
5
140
100
AcDbEntity
8
1
62
256
6
ByLayer
370
18
48
1
60
0
100
AcDbSpline
70
4
71
3
72
11
73
7
40
0
40
0
40
0
40
0
40
0.330742319561438
40
0.330742319561438
40
0.661484639122876
40
1
40
1
40
1
40
1
41
1
10
45.9608283461056
20
4.49673887828482
30
0
41
1
10
45.8772147903028
20
4.46128270702212
30
0
41
1
10
45.7936610968147
20
4.42506304596952
30
0
41
1
10
45.6268475127417
20
4.35097588967167
30
0
41
1
10
45.4583926015243
20
4.27433075132438
30
0
41
1
10
45.2904968243712
20
4.19435656570928
30
0
41
1
10
45.2056948086805
20
4.15307540816184
30
0
0
SPLINE
5
141
100
AcDbEntity
8
1
62
256
6
ByLayer
370
18
48
1
60
0
100
AcDbSpline
70
4
71
3
72
10
73
6
40
0
40
0
40
0
40
0
40
0.5
40
0.5
40
1
40
1
40
1
40
1
41
1
10
53.5657897199224
20
-1.58839882384129
30
0
41
1
10
53.6788668947694
20
-1.69710681813967
30
0
41
1
10
53.7911187216022
20
-1.81308473287638
30
0
41
1
10
54.0143890222615
20
-2.05944449649385
30
0
41
1
10
54.125131456475
20
-2.18947748533927
30
0
41
1
10
54.2351527940969
20
-2.32606218493734
30
0
0
SPLINE
5
142
100
AcDbEntity
8
1
62
256
6
ByLayer
370
18
48
1
60
0
100
AcDbSpline
70
4
71
3
72
12
73
8
40
0
40
0
40
0
40
0
40
0.250000000000003
40
0.250000000000003
40
0.500000000000007
40
0.500000000000007
40
1
40
1
40
1
40
1
41
1
10
54.4454750002264
20
-2.51863463536105
30
0
41
1
10
54.5019878634708
20
-2.54971239854473
30
0
41
1
10
54.5586772384366
20
-2.57852661966467
30
0
41
1
10
54.672475666974
20
-2.63159938463963
30
0
41
1
10
54.7295976816103
20
-2.65585663945672
30
0
41
1
10
54.9016626668979
20
-2.7215421446509
30
0
41
1
10
55.0170765733076
20
-2.75576207809422
30
0
41
1
10
55.1335729131344
20
-2.77994156612908
30
0
0
SPLINE
5
143
100
AcDbEntity
8
1
62
256
6
ByLayer
370
18
48
1
60
0
100
AcDbSpline
70
4
71
3
72
34
73
30
40
0
40
0
40
0
40
0
40
0.12500000000002
40
0.12500000000002
40
0.18750000000003
40
0.18750000000003
40
0.25000000000004
40
0.25000000000004
40
0.375000000000059
40
0.375000000000059
40
0.43750000000009
40
0.43750000000009
40
0.50000000000012
40
0.50000000000012
40
0.625000000000139
40
0.625000000000139
40
0.687500000000149
40
0.687500000000149
40
0.750000000000159
40
0.750000000000159
40
0.812500000000169
40
0.812500000000169
40
0.843750000000154
40
0.843750000000154
40
0.875000000000139
40
0.875000000000139
40
0.937500000000069
40
0.937500000000069
40
1
40
1
40
1
40
1
41
1
10
55.1335729131344
20
-2.77994156612911
30
0
41
1
10
55.1480837797746
20
-2.78295338029272
30
0
41
1
10
55.1650083067774
20
-2.7886554240323
30
0
41
1
10
55.1931349400103
20
-2.80021532664202
30
0
41
1
10
55.202978277153
20
-2.80458374013398
30
0
41
1
10
55.2235499641981
20
-2.81429762533963
30
0
41
1
10
55.2341832036256
20
-2.81960002117552
30
0
41
1
10
55.2667042490805
20
-2.83657057547393
30
0
41
1
10
55.2893437334813
20
-2.84935163497235
30
0
41
1
10
55.3246151827489
20
-2.87063030938134
30
0
41
1
10
55.3366361226935
20
-2.87810614107244
30
0
41
1
10
55.360929009954
20
-2.89367599665948
30
0
41
1
10
55.3731219117242
20
-2.90171775562666
30
0
41
1
10
55.4098231463408
20
-2.92662392585567
30
0
41
1
10
55.4344527452257
20
-2.94425530348823
30
0
41
1
10
55.4715985268308
20
-2.9725050283835
30
0
41
1
10
55.4840824952267
20
-2.98228208177642
30
0
41
1
10
55.5086386752866
20
-3.00215005180246
30
0
41
1
10
55.5207351768436
20
-3.01225567730901
30
0
41
1
10
55.5445242987714
20
-3.03285123834803
30
0
41
1
10
55.556217360079
20
-3.04334075533987
30
0
41
1
10
55.5734035146691
20
-3.05941286051785
30
0
41
1
10
55.5790935871724
20
-3.06484714909666
30
0
41
1
10
55.5902151418902
20
-3.07571492959036
30
0
41
1
10
55.595649035899
20
-3.08114961204825
30
0
41
1
10
55.6115515182557
20
-3.0974568338053
30
0
41
1
10
55.62162434221
20
-3.10833280837485
30
0
41
1
10
55.6405470234313
20
-3.13009276112581
30
0
41
1
10
55.6494107064829
20
-3.14100590496639
30
0
41
1
10
55.657299661258
20
-3.1516091890708
30
0
0
SPLINE
5
144
100
AcDbEntity
8
1
62
256
6
ByLayer
370
18
48
1
60
0
100
AcDbSpline
70
4
71
3
72
10
73
6
40
0
40
0
40
0
40
0
40
0.5
40
0.5
40
1
40
1
40
1
40
1
41
1
10
55.6572996612611
20
-3.1516091890696
30
0
41
1
10
55.7704308764437
20
-3.30366512675479
30
0
41
1
10
55.8827285803064
20
-3.46139866271349
30
0
41
1
10
56.1060656996113
20
-3.78808484223217
30
0
41
1
10
56.216826602263
20
-3.95657458202786
30
0
41
1
10
56.3268426559865
20
-4.12995730200211
30
0
0
SPLINE
5
145
100
AcDbEntity
8
1
62
256
6
ByLayer
370
18
48
1
60
0
100
AcDbSpline
70
4
71
3
72
10
73
6
40
0
40
0
40
0
40
0
40
0.5
40
0.5
40
1
40
1
40
1
40
1
41
1
10
56.5371318094075
20
-4.29511608673545
30
0
41
1
10
56.6500566155705
20
-4.29164552057324
30
0
41
1
10
56.7637645382528
20
-4.27876927039372
30
0
41
1
10
56.9931963204076
20
-4.23387061752996
30
0
41
1
10
57.1086180081451
20
-4.20196782815057
30
0
41
1
10
57.2250883351709
20
-4.16031003704725
30
0
0
SPLINE
5
146
100
AcDbEntity
8
1
62
256
6
ByLayer
370
18
48
1
60
0
100
AcDbSpline
70
4
71
3
72
34
73
30
40
0
40
0
40
0
40
0
40
0.124999999999939
40
0.124999999999939
40
0.187499999999908
40
0.187499999999908
40
0.249999999999878
40
0.249999999999878
40
0.374999999999817
40
0.374999999999817
40
0.437499999999786
40
0.437499999999786
40
0.499999999999756
40
0.499999999999756
40
0.624999999999738
40
0.624999999999738
40
0.687499999999749
40
0.687499999999749
40
0.749999999999761
40
0.749999999999761
40
0.812499999999773
40
0.812499999999773
40
0.843749999999798
40
0.843749999999798
40
0.874999999999824
40
0.874999999999824
40
0.937499999999912
40
0.937499999999912
40
1
40
1
40
1
40
1
41
1
10
57.2250883351709
20
-4.16031003704725
30
0
41
1
10
57.2396112399359
20
-4.15511564849905
30
0
41
1
10
57.2565520252869
20
-4.15320839166739
30
0
41
1
10
57.2847048620628
20
-4.15402947700505
30
0
41
1
10
57.2945573035911
20
-4.15493358038785
30
0
41
1
10
57.3151476309243
20
-4.15793682249861
30
0
41
1
10
57.3257905824392
20
-4.16002560409453
30
0
41
1
10
57.3583375593764
20
-4.16783935881338
30
0
41
1
10
57.380991661297
20
-4.17511000666056
30
0
41
1
10
57.416280119431
20
-4.18895000576569
30
0
41
1
10
57.4283069385504
20
-4.19407844202942
30
0
41
1
10
57.452604382951
20
-4.20527224692631
30
0
41
1
10
57.4647987085984
20
-4.21129943222221
30
0
41
1
10
57.5015014202365
20
-4.23067396887853
30
0
41
1
10
57.5261281992279
20
-4.24529207572749
30
0
41
1
10
57.5632644894589
20
-4.27013579879028
30
0
41
1
10
57.5757433034082
20
-4.27896128312324
30
0
41
1
10
57.6002815246459
20
-4.29736888041393
30
0
41
1
10
57.6123687428098
20
-4.30696351475913
30
0
41
1
10
57.6361387498046
20
-4.32700914736526
30
0
41
1
10
57.6478219785055
20
-4.33745920870473
30
0
41
1
10
57.6649930306448
20
-4.35387593278915
30
0
41
1
10
57.6706779072007
20
-4.35949377137405
30
0
41
1
10
57.6817882538586
20
-4.37086965338523
30
0
41
1
10
57.6872166973266
20
-4.37662884585384
30
0
41
1
10
57.7031033417308
20
-4.3941308172289
30
0
41
1
10
57.7131662792575
20
-4.40609616722202
30
0
41
1
10
57.7320710448922
20
-4.43071350869238
30
0
41
1
10
57.7409275896977
20
-4.44340621273551
30
0
41
1
10
57.7488118708587
20
-4.45614491819512
30
0
0
SPLINE
5
147
100
AcDbEntity
8
1
62
256
6
ByLayer
370
18
48
1
60
0
100
AcDbSpline
70
4
71
3
72
10
73
6
40
0
40
0
40
0
40
0
40
0.5
40
0.5
40
1
40
1
40
1
40
1
41
1
10
57.7488118708615
20
-4.45614491819603
30
0
41
1
10
57.8620046465183
20
-4.6390315250861
30
0
41
1
10
57.9743526632933
20
-4.82550159401529
30
0
41
1
10
58.1977466594915
20
-5.20553222262006
30
0
41
1
10
58.3084894655303
20
-5.39861017947945
30
0
41
1
10
58.4185366364018
20
-5.59424232375645
30
0
0
SPLINE
5
148
100
AcDbEntity
8
1
62
256
6
ByLayer
370
18
48
1
60
0
100
AcDbSpline
70
4
71
3
72
10
73
6
40
0
40
0
40
0
40
0
40
0.5
40
0.5
40
1
40
1
40
1
40
1
41
1
10
58.6288057901084
20
-5.71770511914744
30
0
41
1
10
58.741726825544
20
-5.64865927770435
30
0
41
1
10
58.855430636257
20
-5.57087526357699
30
0
41
1
10
59.0848070091615
20
-5.39781423985932
30
0
41
1
10
59.2001866206408
20
-5.30278891903049
30
0
41
1
10
59.3165938508549
20
-5.19903262365926
30
0
0
SPLINE
5
149
100
AcDbEntity
8
1
62
256
6
ByLayer
370
18
48
1
60
0
100
AcDbSpline
70
4
71
3
72
34
73
30
40
0
40
0
40
0
40
0
40
0.125000000000047
40
0.125000000000047
40
0.18750000000007
40
0.18750000000007
40
0.250000000000094
40
0.250000000000094
40
0.375000000000143
40
0.375000000000143
40
0.437500000000146
40
0.437500000000146
40
0.50000000000015
40
0.50000000000015
40
0.625000000000112
40
0.625000000000112
40
0.687500000000094
40
0.687500000000094
40
0.750000000000075
40
0.750000000000075
40
0.812500000000056
40
0.812500000000056
40
0.843750000000047
40
0.843750000000047
40
0.875000000000037
40
0.875000000000037
40
0.937500000000019
40
0.937500000000019
40
1
40
1
40
1
40
1
41
1
10
59.3165938508548
20
-5.19903262365926
30
0
41
1
10
59.3311318109754
20
-5.18607462370011
30
0
41
1
10
59.3480920509773
20
-5.17673331734144
30
0
41
1
10
59.3762752796901
20
-5.16677674882098
30
0
41
1
10
59.3861381282197
20
-5.16415198480453
30
0
41
1
10
59.4067493630952
20
-5.16021745214843
30
0
41
1
10
59.4174022677759
20
-5.15893074760021
30
0
41
1
10
59.449976444971
20
-5.15697568618134
30
0
41
1
10
59.4726453967048
20
-5.15815898080101
30
0
41
1
10
59.5079505988291
20
-5.1634526375172
30
0
41
1
10
59.5199829703243
20
-5.16582166786921
30
0
41
1
10
59.5442844244252
20
-5.17174018322862
30
0
41
1
10
59.5564798024553
20
-5.17526738605622
30
0
41
1
10
59.5931826120743
20
-5.18754610774025
30
0
41
1
10
59.617805332253
20
-5.19796600623883
30
0
41
1
10
59.6549296174476
20
-5.21738205884114
30
0
41
1
10
59.6674023750024
20
-5.22453699555066
30
0
41
1
10
59.6919227755192
20
-5.23998369412743
30
0
41
1
10
59.7040007956572
20
-5.24828364068625
30
0
41
1
10
59.7277519131575
20
-5.26613857841176
30
0
41
1
10
59.7394254491215
20
-5.27569219759917
30
0
41
1
10
59.7565816710551
20
-5.29110436468247
30
0
41
1
10
59.7622614900235
20
-5.29644361902655
30
0
41
1
10
59.773362081655
20
-5.30739196970779
30
0
41
1
10
59.7787858080555
20
-5.31300152941733
30
0
41
1
10
59.7946588097553
20
-5.33025589884738
30
0
41
1
10
59.8047133148094
20
-5.34232266419869
30
0
41
1
10
59.8236030031792
20
-5.36776032061852
30
0
41
1
10
59.832454532692
20
-5.38118119897601
30
0
41
1
10
59.8403363135694
20
-5.39499922221106
30
0
0
SPLINE
5
14A
100
AcDbEntity
8
1
62
256
6
ByLayer
370
18
48
1
60
0
100
AcDbSpline
70
4
71
3
72
12
73
8
40
0
40
0
40
0
40
0
40
0.500000000000001
40
0.500000000000001
40
0.75
40
0.75
40
1
40
1
40
1
40
1
41
1
10
59.840336313572
20
-5.39499922221373
30
0
41
1
10
59.9423771065149
20
-5.57389306229837
30
0
41
1
10
60.0436984418588
20
-5.75376401448258
30
0
41
1
10
60.1948985443686
20
-6.0248257704265
30
0
41
1
10
60.2451624177624
20
-6.11537907135832
30
0
41
1
10
60.3453008098164
20
-6.2965677178837
30
0
41
1
10
60.3951968576466
20
-6.38724159924442
30
0
41
1
10
60.4449416617595
20
-6.47798316058905
30
0
0
SPLINE
5
14B
100
AcDbEntity
8
1
62
256
6
ByLayer
370
18
48
1
60
0
100
AcDbSpline
70
4
71
3
72
8
73
4
40
0
40
0
40
0
40
0
40
1
40
1
40
1
40
1
41
1
10
60.4449416617596
20
-6.47798316058905
30
0
41
1
10
60.5786949124604
20
-6.49641753502891
30
0
41
1
10
60.7131416884037
20
-6.51065307033429
30
0
41
1
10
60.8483665310233
20
-6.52067226101647
30
0
0
SPLINE
5
14C
100
AcDbEntity
8
1
62
256
6
ByLayer
370
18
48
1
60
0
100
AcDbSpline
70
4
71
3
72
12
73
8
40
0
40
0
40
0
40
0
40
0.250000000000004
40
0.250000000000004
40
0.500000000000007
40
0.500000000000007
40
1
40
1
40
1
40
1
41
1
10
60.8483665310233
20
-6.52067226101644
30
0
41
1
10
60.8944482726521
20
-6.46624501205628
30
0
41
1
10
60.940664796365
20
-6.41061915336391
30
0
41
1
10
61.0334059268562
20
-6.29696797197354
30
0
41
1
10
61.0799445360511
20
-6.23892434966533
30
0
41
1
10
61.2198870007931
20
-6.061431816582
30
0
41
1
10
61.3136621544735
20
-5.93857424755697
30
0
41
1
10
61.4081117341263
20
-5.81108725306913
30
0
0
SPLINE
5
14D
100
AcDbEntity
8
1
62
256
6
ByLayer
370
18
48
1
60
0
100
AcDbSpline
70
4
71
3
72
34
73
30
40
0
40
0
40
0
40
0
40
0.124999999999955
40
0.124999999999955
40
0.187499999999949
40
0.187499999999949
40
0.249999999999943
40
0.249999999999943
40
0.374999999999933
40
0.374999999999933
40
0.437499999999927
40
0.437499999999927
40
0.499999999999922
40
0.499999999999922
40
0.624999999999912
40
0.624999999999912
40
0.687499999999928
40
0.687499999999928
40
0.749999999999944
40
0.749999999999944
40
0.812499999999961
40
0.812499999999961
40
0.843749999999968
40
0.843749999999968
40
0.874999999999975
40
0.874999999999975
40
0.937499999999988
40
0.937499999999988
40
1
40
1
40
1
40
1
41
1
10
61.4081117341263
20
-5.81108725306913
30
0
41
1
10
61.4226661673871
20
-5.79144184056739
30
0
41
1
10
61.4396468969034
20
-5.77544555800134
30
0
41
1
10
61.467861494755
20
-5.75554482793706
30
0
41
1
10
61.4777349839819
20
-5.74961172834202
30
0
41
1
10
61.4983674412641
20
-5.73907180674453
30
0
41
1
10
61.5090296508691
20
-5.73452012858559
30
0
41
1
10
61.5416298776566
20
-5.72297033431778
30
0
41
1
10
61.5643126421352
20
-5.71797749511322
30
0
41
1
10
61.5996323067421
20
-5.71430081776185
30
0
41
1
10
61.6116693314684
20
-5.71371890390918
30
0
41
1
10
61.6359721246401
20
-5.71388305464589
30
0
41
1
10
61.6481671963232
20
-5.7146233155828
30
0
41
1
10
61.6848661413533
20
-5.71880308209859
30
0
41
1
10
61.70948232781
20
-5.72416866478494
30
0
41
1
10
61.7465916087883
20
-5.73655468548779
30
0
41
1
10
61.7590572316775
20
-5.74144798561446
30
0
41
1
10
61.7835591540177
20
-5.7526569753316
30
0
41
1
10
61.795628208093
20
-5.75897496079443
30
0
41
1
10
61.819362244831
20
-5.77315869879493
30
0
41
1
10
61.8310276664249
20
-5.78102275825759
30
0
41
1
10
61.8481725408772
20
-5.79414979017079
30
0
41
1
10
61.8538486364544
20
-5.79876666084735
30
0
41
1
10
61.8649420753805
20
-5.80837671680405
30
0
41
1
10
61.8703625638676
20
-5.81336982084812
30
0
41
1
10
61.8862268476001
20
-5.82894026380285
30
0
41
1
10
61.8962768707026
20
-5.84010339683775
30
0
41
1
10
61.9151600594548
20
-5.86424215679878
30
0
41
1
10
61.9240103858202
20
-5.87727177382592
30
0
41
1
10
61.9318926042479
20
-5.89101588233524
30
0
0
SPLINE
5
14E
100
AcDbEntity
8
1
62
256
6
ByLayer
370
18
48
1
60
0
100
AcDbSpline
70
4
71
3
72
8
73
4
40
0
40
0
40
0
40
0
40
1
40
1
40
1
40
1
41
1
10
61.9318926042504
20
-5.89101588233939
30
0
41
1
10
62.0441740460629
20
-6.08679938340248
30
0
41
1
10
62.1556333583259
20
-6.28128070538577
30
0
41
1
10
62.2664749589863
20
-6.47434173918109
30
0
0
SPLINE
5
14F
100
AcDbEntity
8
1
62
256
6
ByLayer
370
18
48
1
60
0
100
AcDbSpline
70
4
71
3
72
10
73
6
40
0
40
0
40
0
40
0
40
0.5
40
0.5
40
1
40
1
40
1
40
1
41
1
10
62.2664749589863
20
-6.47434173918106
30
0
41
1
10
62.4400240605356
20
-6.45077113120502
30
0
41
1
10
62.6140231460358
20
-6.42085611303375
30
0
41
1
10
62.963220669621
20
-6.34854847040913
30
0
41
1
10
63.1384427669507
20
-6.30615053368652
30
0
41
1
10
63.3143576890276
20
-6.25760875184071
30
0
0
SPLINE
5
150
100
AcDbEntity
8
1
62
256
6
ByLayer
370
18
48
1
60
0
100
AcDbSpline
70
4
71
3
72
8
73
4
40
0
40
0
40
0
40
0
40
1
40
1
40
1
40
1
41
1
10
63.3143576890277
20
-6.25760875184071
30
0
41
1
10
63.3758727414206
20
-6.15511464755477
30
0
41
1
10
63.4376112762973
20
-6.0512872266325
30
0
41
1
10
63.499651391068
20
-5.94607693098624
30
0
0
SPLINE
5
151
100
AcDbEntity
8
1
62
256
6
ByLayer
370
18
48
1
60
0
100
AcDbSpline
70
4
71
3
72
34
73
30
40
0
40
0
40
0
40
0
40
0.124999999999927
40
0.124999999999927
40
0.187499999999907
40
0.187499999999907
40
0.249999999999887
40
0.249999999999887
40
0.374999999999884
40
0.374999999999884
40
0.437499999999884
40
0.437499999999884
40
0.499999999999883
40
0.499999999999883
40
0.624999999999882
40
0.624999999999882
40
0.687499999999903
40
0.687499999999903
40
0.749999999999924
40
0.749999999999924
40
0.812499999999945
40
0.812499999999945
40
0.843749999999955
40
0.843749999999955
40
0.874999999999965
40
0.874999999999965
40
0.937499999999982
40
0.937499999999982
40
1
40
1
40
1
40
1
41
1
10
63.499651391068
20
-5.94607693098624
30
0
41
1
10
63.5142081995144
20
-5.92139086897657
30
0
41
1
10
63.5311902761807
20
-5.90007426821879
30
0
41
1
10
63.5594057901951
20
-5.87187911990139
30
0
41
1
10
63.5692794356525
20
-5.86312740455998
30
0
41
1
10
63.5899122349954
20
-5.84684755435975
30
0
41
1
10
63.6005751578631
20
-5.8394015692765
30
0
41
1
10
63.6331770216561
20
-5.81919086808531
30
0
41
1
10
63.6558612542931
20
-5.8084137432181
30
0
41
1
10
63.6911856458564
20
-5.79603419274659
30
0
41
1
10
63.7032247175952
20
-5.79253614136246
30
0
41
1
10
63.7275316367131
20
-5.78690660522611
30
0
41
1
10
63.7397288785671
20
-5.78478569821502
30
0
41
1
10
63.7764343818289
20
-5.78048230686952
30
0
41
1
10
63.8010549866664
20
-5.78032476912324
30
0
41
1
10
63.8381699281172
20
-5.784623684178
30
0
41
1
10
63.8506371331101
20
-5.78684119397221
30
0
41
1
10
63.8751400125018
20
-5.79287124773847
30
0
41
1
10
63.8872089135078
20
-5.79667846263348
30
0
41
1
10
63.9109407659139
20
-5.80600612976951
30
0
41
1
10
63.9226041807786
20
-5.81152473284166
30
0
41
1
10
63.9397443426159
20
-5.82127224679834
30
0
41
1
10
63.9454185832828
20
-5.82478194771124
30
0
41
1
10
63.9565083201356
20
-5.8322531977044
30
0
41
1
10
63.9619267094061
20
-5.83621377694789
30
0
41
1
10
63.9777840259242
20
-5.84880199525693
30
0
41
1
10
63.9878284949853
20
-5.85812966688573
30
0
41
1
10
64.0066994473527
20
-5.87894970538039
30
0
41
1
10
64.01554452609
20
-5.89049595267866
30
0
41
1
10
64.0234229619657
20
-5.90301175633664
30
0
0
SPLINE
5
152
100
AcDbEntity
8
1
62
256
6
ByLayer
370
18
48
1
60
0
100
AcDbSpline
70
4
71
3
72
8
73
4
40
0
40
0
40
0
40
0
40
1
40
1
40
1
40
1
41
1
10
64.023422961968
20
-5.90301175634158
30
0
41
1
10
64.0452548469514
20
-5.93769422253885
30
0
41
1
10
64.0670553995141
20
-5.97223881363632
30
0
41
1
10
64.0888260932992
20
-6.0066447615869
30
0
0
SPLINE
5
153
100
AcDbEntity
8
1
62
256
6
ByLayer
370
18
48
1
60
0
100
AcDbSpline
70
4
71
3
72
15
73
11
40
0
40
0
40
0
40
0
40
0.249999999999991
40
0.374999999999987
40
0.374999999999987
40
0.499999999999982
40
0.499999999999982
40
0.749999999999991
40
0.749999999999991
40
1
40
1
40
1
40
1
41
1
10
64.0888260932992
20
-6.00664476158681
30
0
41
1
10
64.1963098983661
20
-5.96683770224504
30
0
41
1
10
64.3583050695392
20
-5.90386372638125
30
0
41
1
10
64.521567281168
20
-5.83607030173789
30
0
41
1
10
64.6306999050408
20
-5.789809449019
30
0
41
1
10
64.6854181495001
20
-5.76614320288547
30
0
41
1
10
64.8496250924752
20
-5.69373018897497
30
0
41
1
10
64.9592912233676
20
-5.64351629578846
30
0
41
1
10
65.1790417992273
20
-5.53930018947034
30
0
41
1
10
65.2891485847506
20
-5.48529134791372
30
0
41
1
10
65.3999999265507
20
-5.42950643216955
30
0
0
SPLINE
5
154
100
AcDbEntity
8
1
62
256
6
ByLayer
370
18
48
1
60
0
100
AcDbSpline
70
4
71
3
72
12
73
8
40
0
40
0
40
0
40
0
40
0.25
40
0.25
40
0.499999999999999
40
0.499999999999999
40
1
40
1
40
1
40
1
41
1
10
65.3999999265508
20
-5.42950643216935
30
0
41
1
10
65.447910760232
20
-5.37033455593064
30
0
41
1
10
65.4962887712113
20
-5.31078586384689
30
0
41
1
10
65.5941019980496
20
-5.19100321241373
30
0
41
1
10
65.6435694400963
20
-5.13073211555238
30
0
41
1
10
65.793586943459
20
-4.94925733111049
30
0
41
1
10
65.8956878045951
20
-4.82744986808476
30
0
41
1
10
66.0000000000001
20
-4.70583012374675
30
0
0
SPLINE
5
155
100
AcDbEntity
8
1
62
256
6
ByLayer
370
18
48
1
60
0
100
AcDbSpline
70
4
71
3
72
27
73
23
40
0
40
0
40
0
40
0
40
0.0851752738407047
40
0.0851752738407047
40
0.127762910761057
40
0.127762910761057
40
0.170350547681409
40
0.170350547681409
40
0.255525821522113
40
0.255525821522113
40
0.298113458442465
40
0.298113458442465
40
0.340701095362817
40
0.340701095362817
40
0.511051643044222
40
0.553639279964573
40
0.553639279964573
40
0.596226916884924
40
0.596226916884924
40
0.681402190725627
40
0.681402190725627
40
1
40
1
40
1
40
1
41
1
10
66.0000000000001
20
-4.70583012374678
30
0
41
1
10
66.0000000000001
20
-4.63763059358757
30
0
41
1
10
66.0000000000001
20
-4.57067717014186
30
0
41
1
10
66.0000000000001
20
-4.47215018016598
30
0
41
1
10
66.0000000000001
20
-4.43956965881847
30
0
41
1
10
66.0000000000001
20
-4.3753100115122
30
0
41
1
10
66
20
-4.34373629892605
30
0
41
1
10
65.9999999999999
20
-4.25066060431053
30
0
41
1
10
66.0000000000001
20
-4.19081195271733
30
0
41
1
10
66
20
-4.10422535915959
30
0
41
1
10
66.0000000000001
20
-4.07588811968014
30
0
41
1
10
66
20
-4.02031099223129
30
0
41
1
10
66
20
-3.99312947918153
30
0
41
1
10
66
20
-3.85880488088111
30
0
41
1
10
66
20
-3.72983172333619
30
0
41
1
10
66.0000000000001
20
-3.60775252485359
30
0
41
1
10
66.0000000000001
20
-3.55947381837527
30
0
41
1
10
66.0000000000001
20
-3.53558762507086
30
0
41
1
10
66
20
-3.46499691197312
30
0
41
1
10
66
20
-3.41933046763785
30
0
41
1
10
66
20
-3.20933429186428
30
0
41
1
10
66
20
-3.06271376216589
30
0
41
1
10
66
20
-2.93486712374627
30
0
0
SPLINE
5
156
100
AcDbEntity
8
1
62
256
6
ByLayer
370
18
48
1
60
0
100
AcDbSpline
70
4
71
3
72
16
73
12
40
0
40
0
40
0
40
0
40
0.500000000000002
40
0.500000000000002
40
0.750000000000002
40
0.750000000000002
40
0.874999999999987
40
0.874999999999987
40
0.937499999999994
40
0.937499999999994
40
1
40
1
40
1
40
1
41
1
10
66.0000000000001
20
-2.88543796431227
30
0
41
1
10
65.9016737901321
20
-2.88588742053886
30
0
41
1
10
65.8025072180415
20
-2.88691608223516
30
0
41
1
10
65.6525056426267
20
-2.89011059228719
30
0
41
1
10
65.6022993777196
20
-2.89145442822314
30
0
41
1
10
65.526671698763
20
-2.89403112180608
30
0
41
1
10
65.5014102992172
20
-2.89498382102658
30
0
41
1
10
65.4634379929786
20
-2.89657504034389
30
0
41
1
10
65.4507675515618
20
-2.89713105075796
30
0
41
1
10
65.4253937760806
20
-2.89832351565056
30
0
41
1
10
65.4126930232925
20
-2.89895017267773
30
0
41
1
10
65.4000000752764
20
-2.89952295872936
30
0
0
SPLINE
5
157
100
AcDbEntity
8
1
62
256
6
ByLayer
370
18
48
1
60
0
100
AcDbSpline
70
4
71
3
72
8
73
4
40
0
40
0
40
0
40
0
40
1
40
1
40
1
40
1
41
1
10
65.4000000752764
20
-2.89952295872925
30
0
41
1
10
65.3833473564424
20
-2.89106887213947
30
0
41
1
10
65.3666998676958
20
-2.88257851489007
30
0
41
1
10
65.3500571941393
20
-2.87405240331611
30
0
0
SPLINE
5
158
100
AcDbEntity
8
1
62
256
6
ByLayer
370
18
48
1
60
0
100
AcDbSpline
70
4
71
3
72
8
73
4
40
0
40
0
40
0
40
0
40
1
40
1
40
1
40
1
41
1
10
60.0030485851098
20
5.8241842158337
30
0
41
1
10
60.0109746831686
20
5.8180090506998
30
0
41
1
10
60.0189024051117
20
5.81182506031487
30
0
41
1
10
60.0268319538537
20
5.80563232256426
30
0
0
SPLINE
5
159
100
AcDbEntity
8
1
62
256
6
ByLayer
370
18
48
1
60
0
100
AcDbSpline
70
4
71
3
72
33
73
29
40
0
40
0
40
0
40
0
40
0.124999999999999
40
0.124999999999999
40
0.249999999999997
40
0.249999999999997
40
0.312499999999997
40
0.312499999999997
40
0.374999999999996
40
0.374999999999996
40
0.390624999999997
40
0.390624999999997
40
0.406249999999997
40
0.406249999999997
40
0.437499999999997
40
0.499999999999998
40
0.499999999999998
40
0.624999999999999
40
0.624999999999999
40
0.750000000000001
40
0.750000000000001
40
0.781250000000001
40
0.781250000000001
40
0.812500000000001
40
0.812500000000001
40
0.875000000000001
40
0.875000000000001
40
1
40
1
40
1
40
1
41
1
10
60.2804968132435
20
0.932801870692856
30
0
41
1
10
60.2683215216496
20
1.17839968442573
30
0
41
1
10
60.2565971656296
20
1.42020171392647
30
0
41
1
10
60.2341314897823
20
1.89647467406974
30
0
41
1
10
60.2233892390423
20
2.13094457746283
30
0
41
1
10
60.2072464706052
20
2.47712556862734
30
0
41
1
10
60.2018521642575
20
2.59159641212978
30
0
41
1
10
60.1908043808323
20
2.8186621054605
30
0
41
1
10
60.1851434283726
20
2.93125669644491
30
0
41
1
10
60.1778732846471
20
3.07080371154126
30
0
41
1
10
60.176409744913
20
3.09865327088252
30
0
41
1
10
60.1734638329627
20
3.1542319834173
30
0
41
1
10
60.1719806589767
20
3.18197573695088
30
0
41
1
10
60.16751628718
20
3.26479224728735
30
0
41
1
10
60.1585185996765
20
3.42896189465142
30
0
41
1
10
60.1493478061877
20
3.58879830532359
30
0
41
1
10
60.1309681920592
20
3.90280106662507
30
0
41
1
10
60.1186299166459
20
4.10459049921261
30
0
41
1
10
60.0956594939022
20
4.49329446039502
30
0
41
1
10
60.0850621396544
20
4.68020869933645
30
0
41
1
10
60.0713577522467
20
4.9042827283678
30
0
41
1
10
60.068598150519
20
4.94861807944241
30
0
41
1
10
60.0630201313202
20
5.03631885034625
30
0
41
1
10
60.0601986733151
20
5.07973276140393
30
0
41
1
10
60.051645908377
20
5.20810608444475
30
0
41
1
10
60.0458270531727
20
5.29112865012087
30
0
41
1
10
60.0279689725299
20
5.53259533537491
30
0
41
1
10
60.0154567289922
20
5.68345775975962
30
0
41
1
10
60.0030485851099
20
5.8241842158337
30
0
0
SPLINE
5
15A
100
AcDbEntity
8
1
62
256
6
ByLayer
370
18
48
1
60
0
100
AcDbSpline
70
4
71
3
72
18
73
14
40
0
40
0
40
0
40
0
40
0.114679069742156
40
0.114679069742156
40
0.417020469608285
40
0.417020469608285
40
0.56819116954135
40
0.56819116954135
40
0.719361869474415
40
0.719361869474415
40
0.870532569407481
40
0.870532569407481
40
1
40
1
40
1
40
1
41
1
10
34.0603915059195
20
-5.31741895811408
30
0
41
1
10
34.0606289512993
20
-5.21874359299466
30
0
41
1
10
34.0636665445352
20
-5.120305869009
30
0
41
1
10
34.0856932514852
20
-4.76327754989535
30
0
41
1
10
34.1218359254324
20
-4.51585387180339
30
0
41
1
10
34.2112932212317
20
-4.16482015764515
30
0
41
1
10
34.24746405535
20
-4.05142392539469
30
0
41
1
10
34.3263664501431
20
-3.82836541116893
30
0
41
1
10
34.3696512403678
20
-3.72013886500872
30
0
41
1
10
34.4635032622666
20
-3.5132283290138
30
0
41
1
10
34.5141888346701
20
-3.41416035915125
30
0
41
1
10
34.6158660703599
20
-3.23909644602105
30
0
41
1
10
34.6660440344373
20
-3.16148153125115
30
0
41
1
10
34.7189626689133
20
-3.08845218116099
30
0
0
SPLINE
5
15B
100
AcDbEntity
8
1
62
256
6
ByLayer
370
18
48
1
60
0
100
AcDbSpline
70
4
71
3
72
8
73
4
40
0
40
0
40
0
40
0
40
1
40
1
40
1
40
1
41
1
10
47.2707231398435
20
-6.31880551955194
30
0
41
1
10
47.2662896995749
20
-6.31112017803156
30
0
41
1
10
47.2618783510177
20
-6.29610631079456
30
0
41
1
10
47.2574644446034
20
-6.2739023550902
30
0
0
SPLINE
5
15C
100
AcDbEntity
8
1
62
256
6
ByLayer
370
18
48
1
60
0
100
AcDbSpline
70
4
71
3
72
15
73
11
40
0
40
0
40
0
40
0
40
0.19265689032844
40
0.19265689032844
40
0.293574779037385
40
0.293574779037385
40
0.39449266774633
40
0.596328445164219
40
0.596328445164219
40
1
40
1
40
1
40
1
41
1
10
51.628680201979
20
7.08195566996037
30
0
41
1
10
51.6339484733481
20
7.08194733495614
30
0
41
1
10
51.6392281211843
20
7.07903171036116
30
0
41
1
10
51.6472962259298
20
7.07009024519658
30
0
41
1
10
51.6500774461316
20
7.06619719339577
30
0
41
1
10
51.6556210656618
20
7.05682366055973
30
0
41
1
10
51.6639172651375
20
7.04037720919024
30
0
41
1
10
51.6721701039262
20
7.0168581397067
30
0
41
1
10
51.6886675412104
20
6.96054261660842
30
0
41
1
10
51.6996475254679
20
6.9106534507477
30
0
41
1
10
51.7106178364773
20
6.84851911022002
30
0
0
SPLINE
5
15D
100
AcDbEntity
8
1
62
256
6
ByLayer
370
18
48
1
60
0
100
AcDbSpline
70
4
71
3
72
16
73
12
40
0
40
0
40
0
40
0
40
0.362581572866755
40
0.362581572866755
40
0.543872359300133
40
0.543872359300133
40
0.634517752516822
40
0.634517752516822
40
0.725163145733511
40
0.725163145733511
40
1
40
1
40
1
40
1
41
1
10
51.9208784094805
20
6.79336262090331
30
0
41
1
10
51.9099160348017
20
6.86229302131125
30
0
41
1
10
51.8989861628655
20
6.91910779700956
30
0
41
1
10
51.8824763709305
20
6.98595254900209
30
0
41
1
10
51.8769527030307
20
7.00516521421557
30
0
41
1
10
51.8686384262265
20
7.0292985011543
30
0
41
1
10
51.8658621248745
20
7.03656156445811
30
0
41
1
10
51.8602990772345
20
7.04950604703194
30
0
41
1
10
51.8575190725535
20
7.05517019805745
30
0
41
1
10
51.8463464544635
20
7.07471286598241
30
0
41
1
10
51.8380076604119
20
7.08197031861425
30
0
41
1
10
51.8296921279535
20
7.08195248061602
30
0
0
SPLINE
5
15E
100
AcDbEntity
8
1
62
256
6
ByLayer
370
18
48
1
60
0
100
AcDbSpline
70
4
71
3
72
25
73
21
40
0
40
0
40
0
40
0
40
0.0489991554462227
40
0.239199324356977
40
0.239199324356977
40
0.334299408812355
40
0.334299408812355
40
0.381849451040043
40
0.381849451040043
40
0.429399493267732
40
0.429399493267732
40
0.619599662178488
40
0.619599662178488
40
0.809799831089244
40
0.809799831089244
40
0.904899915544622
40
0.904899915544622
40
0.952449957772311
40
0.952449957772311
40
1
40
1
40
1
40
1
41
1
10
53.6286769908046
20
7.08195267434979
30
0
41
1
10
53.6315055873786
20
7.08194374068884
30
0
41
1
10
53.6453062144047
20
7.07781388157142
30
0
41
1
10
53.659070177896
20
7.05382051900406
30
0
41
1
10
53.6755769333901
20
7.00606504225036
30
0
41
1
10
53.6810964483752
20
6.98695062360093
30
0
41
1
10
53.6894246122503
20
6.95338765490968
30
0
41
1
10
53.6922116589931
20
6.9413664354291
30
0
41
1
10
53.6977703899291
20
6.91581386642889
30
0
41
1
10
53.7005445661783
20
6.90227454829744
30
0
41
1
10
53.7143900004116
20
6.83080573166481
30
0
41
1
10
53.7253789760941
20
6.76159056039504
30
0
41
1
10
53.7472913387812
20
6.59966574194871
30
0
41
1
10
53.7582246295061
20
6.50695510651499
30
0
41
1
10
53.7747351542156
20
6.35013485527446
30
0
41
1
10
53.7802518563312
20
6.29489648054377
30
0
41
1
10
53.7885490560422
20
6.20751999313006
30
0
41
1
10
53.7913185599863
20
6.17764095141212
30
0
41
1
10
53.7968664938427
20
6.11635896710592
30
0
41
1
10
53.7996486020498
20
6.08491227180909
30
0
41
1
10
53.8024215595476
20
6.05286533230961
30
0
0
SPLINE
5
15F
100
AcDbEntity
8
1
62
256
6
ByLayer
370
18
48
1
60
0
100
AcDbSpline
70
4
71
3
72
24
73
20
40
0
40
0
40
0
40
0
40
0.0451416304564511
40
0.0451416304564511
40
0.0902832609129021
40
0.180566521825804
40
0.180566521825804
40
0.361133043651607
40
0.361133043651607
40
0.541699565477411
40
0.541699565477411
40
0.586841195933862
40
0.586841195933862
40
0.631982826390313
40
0.631982826390313
40
0.722266087303214
40
0.722266087303214
40
0.902832609129018
40
1
40
1
40
1
40
1
41
1
10
54.0126630138813
20
5.94382954570233
30
0
41
1
10
54.0098821795231
20
5.9774496095489
30
0
41
1
10
54.0071049036031
20
6.01036001942856
30
0
41
1
10
54.0015667574201
20
6.07464244995455
30
0
41
1
10
53.993278581733
20
6.16882349488932
30
0
41
1
10
53.9850365628013
20
6.25635103372034
30
0
41
1
10
53.9685725996504
20
6.42266187676387
30
0
41
1
10
53.9576026657599
20
6.52189937524906
30
0
41
1
10
53.935638632016
20
6.69721079935411
30
0
41
1
10
53.9246543757801
20
6.77328624625471
30
0
41
1
10
53.9108372673114
20
6.85349944812276
30
0
41
1
10
53.9080690897664
20
6.86879609107223
30
0
41
1
10
53.9025194020614
20
6.89787918724372
30
0
41
1
10
53.8997459167078
20
6.91162233809271
30
0
41
1
10
53.8914419494425
20
6.95038684079364
30
0
41
1
10
53.8859172032707
20
6.97298722053077
30
0
41
1
10
53.8693774547955
20
7.03124043501404
30
0
41
1
10
53.8525007481451
20
7.07143143759944
30
0
41
1
10
53.8356622572451
20
7.08194679404431
30
0
41
1
10
53.829757640023
20
7.08195527590257
30
0
0
SPLINE
5
160
100
AcDbEntity
8
1
62
256
6
ByLayer
370
18
48
1
60
0
100
AcDbSpline
70
4
71
3
72
27
73
23
40
0
40
0
40
0
40
0
40
0.0125290331076576
40
0.0125290331076576
40
0.177107527589715
40
0.341686022071772
40
0.341686022071772
40
0.423975269312801
40
0.423975269312801
40
0.465119892933315
40
0.465119892933315
40
0.506264516553829
40
0.506264516553829
40
0.670843011035887
40
0.670843011035887
40
0.835421505517944
40
0.835421505517944
40
0.917710752758972
40
0.917710752758972
40
0.958855376379486
40
0.958855376379486
40
1
40
1
40
1
40
1
41
1
10
58.8297649168778
20
-7.0819490096047
30
0
41
1
10
58.8289248281042
20
-7.0819502287772
30
0
41
1
10
58.828084892783
20
-7.08187745503335
30
0
41
1
10
58.8162131433805
20
-7.07980595117562
30
0
41
1
10
58.794217433603
20
-7.05054870135788
30
0
41
1
10
58.7723093839084
20
-6.97122174318818
30
0
41
1
10
58.7557712628008
20
-6.89262110085818
30
0
41
1
10
58.750236386379
20
-6.86323039457494
30
0
41
1
10
58.7418896875018
20
-6.81425691124355
30
0
41
1
10
58.739100623134
20
-6.7971140127263
30
0
41
1
10
58.7335420085951
20
-6.76140110497781
30
0
41
1
10
58.7307683142057
20
-6.74280755688849
30
0
41
1
10
58.7169262300912
20
-6.64619425932699
30
0
41
1
10
58.7059427571461
20
-6.55726768468867
30
0
41
1
10
58.6840200695105
20
-6.35667093350881
30
0
41
1
10
58.6730621246136
20
-6.24500026942798
30
0
41
1
10
58.6565236673005
20
-6.06027797966604
30
0
41
1
10
58.6509990438585
20
-5.99582873226222
30
0
41
1
10
58.6426900847607
20
-5.89476881074614
30
0
41
1
10
58.639916677502
20
-5.86035077915571
30
0
41
1
10
58.6343605931633
20
-5.79003492212834
30
0
41
1
10
58.6315778622252
20
-5.75413374504384
30
0
41
1
10
58.6288057901011
20
-5.71770511915656
30
0
0
SPLINE
5
161
100
AcDbEntity
8
1
62
256
6
ByLayer
370
18
48
1
60
0
100
AcDbSpline
70
4
71
3
72
26
73
22
40
0
40
0
40
0
40
0
40
0.0393445230217148
40
0.0393445230217148
40
0.0786890460434296
40
0.157378092086859
40
0.157378092086859
40
0.314756184173717
40
0.314756184173717
40
0.472134276260575
40
0.472134276260575
40
0.51147879928229
40
0.51147879928229
40
0.550823322304005
40
0.550823322304005
40
0.629512368347435
40
0.629512368347435
40
0.786890460434295
40
0.944268552521155
40
0.944268552521155
40
1
40
1
40
1
40
1
41
1
10
58.4185366364018
20
-5.59424232375648
30
0
41
1
10
58.4213184817837
20
-5.63215925649504
30
0
41
1
10
58.4241044507078
20
-5.66950454866802
30
0
41
1
10
58.4296547518227
20
-5.74263654908162
30
0
41
1
10
58.4379602333375
20
-5.85016571716582
30
0
41
1
10
58.4462152752078
20
-5.95126332769669
30
0
41
1
10
58.4626961079793
20
-6.14501362780774
30
0
41
1
10
58.4736653256086
20
-6.26294230815139
30
0
41
1
10
58.4956538362969
20
-6.4764665550309
30
0
41
1
10
58.5066542783459
20
-6.57206365051695
30
0
41
1
10
58.52048000204
20
-6.67723710916383
30
0
41
1
10
58.523249314129
20
-6.69755378982703
30
0
41
1
10
58.5287996470344
20
-6.73673424320208
30
0
41
1
10
58.5315799166951
20
-6.75558976100331
30
0
41
1
10
58.5398948577842
20
-6.80964456120597
30
0
41
1
10
58.5454227011974
20
-6.84245215729183
30
0
41
1
10
58.5619822622206
20
-6.93137549186127
30
0
41
1
10
58.5839651220177
20
-7.02465840153846
30
0
41
1
10
58.6058647623693
20
-7.06810574824129
30
0
41
1
10
58.6208099007465
20
-7.08034977079538
30
0
41
1
10
58.6247312536178
20
-7.081958296458
30
0
41
1
10
58.6286652966446
20
-7.08194918095276
30
0
0
SPLINE
5
162
100
AcDbEntity
8
1
62
256
6
ByLayer
370
18
48
1
60
0
100
AcDbSpline
70
4
71
3
72
29
73
25
40
0
40
0
40
0
40
0
40
0.125000000000001
40
0.125000000000001
40
0.250000000000002
40
0.250000000000002
40
0.375000000000003
40
0.375000000000003
40
0.406250000000003
40
0.406250000000003
40
0.437500000000003
40
0.500000000000003
40
0.500000000000003
40
0.625000000000003
40
0.625000000000003
40
0.750000000000002
40
0.750000000000002
40
0.781250000000002
40
0.781250000000002
40
0.812500000000002
40
0.812500000000002
40
0.875000000000001
40
0.875000000000001
40
1
40
1
40
1
40
1
41
1
10
55.6296580505427
20
7.08191452810127
30
0
41
1
10
55.640780336093
20
7.08114440384989
30
0
41
1
10
55.6517992008535
20
7.06747991191887
30
0
41
1
10
55.6737415955459
20
7.01520253969747
30
0
41
1
10
55.6846719997883
20
6.97658731977788
30
0
41
1
10
55.706662619652
20
6.87442236138017
30
0
41
1
10
55.7176975470227
20
6.81087461733281
30
0
41
1
10
55.7315713723002
20
6.71535587585984
30
0
41
1
10
55.734354450271
20
6.69541570888276
30
0
41
1
10
55.7399036133841
20
6.65411715346045
30
0
41
1
10
55.7482073682203
20
6.59001141911656
30
0
41
1
10
55.756464332989
20
6.51951080165648
30
0
41
1
10
55.7729629727838
20
6.37012429075403
30
0
41
1
10
55.7839526164263
20
6.25937521219402
30
0
41
1
10
55.8059187147089
20
6.01575502270629
30
0
41
1
10
55.8168928355808
20
5.88288464182264
30
0
41
1
10
55.8306962454577
20
5.70264457330998
30
0
41
1
10
55.8334616292788
20
5.66588714333906
30
0
41
1
10
55.8390059295827
20
5.59093780261836
30
0
41
1
10
55.8417888666698
20
5.55269040090013
30
0
41
1
10
55.8501220595936
20
5.43636616625327
30
0
41
1
10
55.8556616839518
20
5.35662296105528
30
0
41
1
10
55.8722307821873
20
5.11094719458603
30
0
41
1
10
55.8832057120806
20
4.93858530259911
30
0
41
1
10
55.8941620615686
20
4.75778987644318
30
0
0
SPLINE
5
163
100
AcDbEntity
8
1
62
256
6
ByLayer
370
18
48
1
60
0
100
AcDbSpline
70
4
71
3
72
28
73
24
40
0
40
0
40
0
40
0
40
0.124999999999999
40
0.124999999999999
40
0.187499999999999
40
0.187499999999999
40
0.249999999999999
40
0.249999999999999
40
0.374999999999998
40
0.374999999999998
40
0.499999999999998
40
0.499999999999998
40
0.562499999999997
40
0.562499999999997
40
0.593749999999997
40
0.593749999999997
40
0.624999999999997
40
0.624999999999997
40
0.749999999999998
40
0.749999999999998
40
0.874999999999999
40
0.874999999999999
40
1
40
1
40
1
40
1
41
1
10
56.1044340343433
20
4.60395168223894
30
0
41
1
10
56.0934501434899
20
4.78941293761793
30
0
41
1
10
56.0824783073207
20
4.96680638774117
30
0
41
1
10
56.0659360532607
20
5.22054968517747
30
0
41
1
10
56.0604066051037
20
5.30306884282263
30
0
41
1
10
56.0492834921429
20
5.46388941114247
30
0
41
1
10
56.0437330792226
20
5.54153920856831
30
0
41
1
10
56.0271396885862
20
5.76609574802771
30
0
41
1
10
56.0161506739528
20
5.90476424865301
30
0
41
1
10
55.9942296864716
20
6.16047582780249
30
0
41
1
10
55.9832954210444
20
6.27751824165767
30
0
41
1
10
55.9667635125915
20
6.43666822513819
30
0
41
1
10
55.9612342671557
20
6.48697730456792
30
0
41
1
10
55.9529129122048
20
6.55825469303301
30
0
41
1
10
55.950134463931
20
6.58131574555384
30
0
41
1
10
55.9445672856123
20
6.62602455362787
30
0
41
1
10
55.9417884912268
20
6.64759184210473
30
0
41
1
10
55.9279326549908
20
6.75139479666097
30
0
41
1
10
55.9169566797008
20
6.82171646375312
30
0
41
1
10
55.8950223365382
20
6.93763686021151
30
0
41
1
10
55.8840402424636
20
6.98323378675701
30
0
41
1
10
55.8620286541737
20
7.04961266663125
30
0
41
1
10
55.851006034463
20
7.0703972635057
30
0
41
1
10
55.839896102134
20
7.07831993874021
30
0
0
SPLINE
5
164
100
AcDbEntity
8
1
62
256
6
ByLayer
370
18
48
1
60
0
100
AcDbSpline
70
4
71
3
72
114
73
110
40
0
40
0
40
0
40
0
40
0.0625000000000046
40
0.0625000000000046
40
0.125000000000009
40
0.125000000000009
40
0.15625000000001
40
0.15625000000001
40
0.187500000000011
40
0.187500000000011
40
0.19531250000001
40
0.19531250000001
40
0.203125000000008
40
0.203125000000008
40
0.218750000000008
40
0.218750000000008
40
0.250000000000007
40
0.250000000000007
40
0.281250000000006
40
0.281250000000006
40
0.312500000000004
40
0.312500000000004
40
0.328125000000005
40
0.328125000000005
40
0.343750000000006
40
0.343750000000006
40
0.375000000000006
40
0.375000000000006
40
0.406250000000006
40
0.406250000000006
40
0.421875000000006
40
0.421875000000006
40
0.429687500000007
40
0.429687500000007
40
0.437500000000008
40
0.453125000000009
40
0.453125000000009
40
0.46875000000001
40
0.46875000000001
40
0.476562500000011
40
0.476562500000011
40
0.484375000000012
40
0.484375000000012
40
0.500000000000013
40
0.500000000000013
40
0.515625000000014
40
0.515625000000014
40
0.523437500000015
40
0.523437500000015
40
0.531250000000015
40
0.531250000000015
40
0.546875000000015
40
0.546875000000015
40
0.550781250000016
40
0.550781250000016
40
0.554687500000016
40
0.562500000000017
40
0.562500000000017
40
0.578125000000018
40
0.578125000000018
40
0.582031250000018
40
0.582031250000018
40
0.585937500000018
40
0.593750000000019
40
0.593750000000019
40
0.601562500000019
40
0.601562500000019
40
0.605468750000019
40
0.605468750000019
40
0.60937500000002
40
0.60937500000002
40
0.62500000000002
40
0.62500000000002
40
0.632812500000021
40
0.632812500000021
40
0.640625000000021
40
0.648437500000021
40
0.648437500000021
40
0.656250000000022
40
0.656250000000022
40
0.671875000000022
40
0.671875000000022
40
0.687500000000022
40
0.687500000000022
40
0.703125000000022
40
0.703125000000022
40
0.718750000000022
40
0.718750000000022
40
0.726562500000022
40
0.726562500000022
40
0.734375000000022
40
0.734375000000022
40
0.750000000000021
40
0.750000000000021
40
0.781250000000018
40
0.781250000000018
40
0.812500000000016
40
0.812500000000016
40
0.843750000000014
40
0.843750000000014
40
0.875000000000011
40
0.875000000000011
40
0.906250000000009
40
0.906250000000009
40
0.921875000000008
40
0.921875000000008
40
0.937500000000007
40
0.937500000000007
40
1
40
1
40
1
40
1
41
1
10
38.0136310002458
20
5.02265601516089
30
0
41
1
10
37.7512826094249
20
5.1023688251087
30
0
41
1
10
37.4844881622109
20
5.16772385013914
30
0
41
1
10
36.9370968071601
20
5.27350490168922
30
0
41
1
10
36.656529330653
20
5.31395672901067
30
0
41
1
10
36.2216986044969
20
5.36004860438413
30
0
41
1
10
36.0744619101391
20
5.37300367495661
30
0
41
1
10
35.7745887740281
20
5.39483548134777
30
0
41
1
10
35.6219345116348
20
5.40370856251727
30
0
41
1
10
35.4271545540904
20
5.41275624912018
30
0
41
1
10
35.3880034015734
20
5.41446336616724
30
0
41
1
10
35.3096275361684
20
5.41767436798273
30
0
41
1
10
35.270362046613
20
5.41918022212542
30
0
41
1
10
35.1523288889594
20
5.4234235900675
30
0
41
1
10
35.0733307274882
20
5.42588959365173
30
0
41
1
10
34.8352642408354
20
5.43233927168669
30
0
41
1
10
34.6751718403006
20
5.43542226137203
30
0
41
1
10
34.3530005458948
20
5.44025985188375
30
0
41
1
10
34.1909862053418
20
5.44201663370595
30
0
41
1
10
33.8649587195899
20
5.4446591444887
30
0
41
1
10
33.7009406988673
20
5.44554449791829
30
0
41
1
10
33.4532498366639
20
5.44646309801325
30
0
41
1
10
33.3704090767369
20
5.44670007906132
30
0
41
1
10
33.2041259618145
20
5.44705898138551
30
0
41
1
10
33.1205627544735
20
5.44718141937091
30
0
41
1
10
32.8705195469053
20
5.44739355093267
30
0
41
1
10
32.7043157561307
20
5.44734188043574
30
0
41
1
10
32.3730580321156
20
5.44673334887878
30
0
41
1
10
32.2079943840347
20
5.44618652123637
30
0
41
1
10
31.9613896421798
20
5.44460491993232
30
0
41
1
10
31.8793545570293
20
5.44394690982369
30
0
41
1
10
31.7565890145489
20
5.44265787266809
30
0
41
1
10
31.7156704134319
20
5.4421766289239
30
0
41
1
10
31.6343679443249
20
5.44109314382487
30
0
41
1
10
31.513103925474
20
5.43928264051124
30
0
41
1
10
31.3939538149708
20
5.43682074252928
30
0
41
1
10
31.2372155828174
20
5.43268729268547
30
0
41
1
10
31.1599087409053
20
5.43019709705524
30
0
41
1
10
31.0458013220771
20
5.42552647834674
30
0
41
1
10
31.0080740820049
20
5.423812821604
30
0
41
1
10
30.9332877371284
20
5.4200061128584
30
0
41
1
10
30.8961392069816
20
5.41790717931619
30
0
41
1
10
30.7866252159545
20
5.41097044017383
30
0
41
1
10
30.7161731483993
20
5.40550172705576
30
0
41
1
10
30.5811425597241
20
5.39220334549918
30
0
41
1
10
30.5165618652854
20
5.38437960585884
30
0
41
1
10
30.4250765227868
20
5.37010604405555
30
0
41
1
10
30.3953821468562
20
5.36489833483202
30
0
41
1
10
30.3388603988997
20
5.35363153845523
30
0
41
1
10
30.311954906161
20
5.34756463542189
30
0
41
1
10
30.2355079651336
20
5.32788352732086
30
0
41
1
10
30.1902014132658
20
5.31280361325898
30
0
41
1
10
30.1415820101757
20
5.2907491362977
30
0
41
1
10
30.132239177143
20
5.28616251181251
30
0
41
1
10
30.114547415112
20
5.276730274568
30
0
41
1
10
30.0894804411948
20
5.26219131871756
30
0
41
1
10
30.068748277628
20
5.24644986453222
30
0
41
1
10
30.0329360689051
20
5.2132754058311
30
0
41
1
10
30.0166169050073
20
5.18890310395182
30
0
41
1
10
30.0053392637456
20
5.15530505791193
30
0
41
1
10
30.0035469899813
20
5.14843925796595
30
0
41
1
10
30.000881962463
20
5.13452612386388
30
0
41
1
10
29.9982476431002
20
5.11333774058431
30
0
41
1
10
29.999506165772
20
5.09119727986629
30
0
41
1
10
30.0043443768108
20
5.06083568542724
30
0
41
1
10
30.0083448660958
20
5.04523440753783
30
0
41
1
10
30.0165389781474
20
5.02120464815843
30
0
41
1
10
30.0196355299682
20
5.01309006305763
30
0
41
1
10
30.0265307657496
20
4.99665185243984
30
0
41
1
10
30.0303267014708
20
4.98833736285294
30
0
41
1
10
30.0508382987415
20
4.94653241698467
30
0
41
1
10
30.0721983464995
20
4.91212806578474
30
0
41
1
10
30.1100777071532
20
4.85912970063254
30
0
41
1
10
30.1236452730977
20
4.84122542444265
30
0
41
1
10
30.1524380827845
20
4.80494050683231
30
0
41
1
10
30.1829585570503
20
4.7681899600515
30
0
41
1
10
30.2169122032031
20
4.73057022094648
30
0
41
1
10
30.2525488124654
20
4.69254117793986
30
0
41
1
10
30.271254821407
20
4.67327680388561
30
0
41
1
10
30.3293892233401
20
4.6153237462992
30
0
41
1
10
30.3708884551425
20
4.57647685164969
30
0
41
1
10
30.4580680355134
20
4.49821297080499
30
0
41
1
10
30.5037417275023
20
4.45879122361171
30
0
41
1
10
30.5983869492094
20
4.37926800252214
30
0
41
1
10
30.6473624096803
20
4.33916696696079
30
0
41
1
10
30.7480010419944
20
4.25821045617573
30
0
41
1
10
30.7996664347818
20
4.21735522310877
30
0
41
1
10
30.8788416345532
20
4.15546115421756
30
0
41
1
10
30.90551393951
20
4.13472801886036
30
0
41
1
10
30.9593735067809
20
4.09305145876735
30
0
41
1
10
30.9865845814894
20
4.07208981993369
30
0
41
1
10
31.0687264692692
20
4.00903573611006
30
0
41
1
10
31.1241478754539
20
3.96678504102314
30
0
41
1
10
31.2920240442581
20
3.83927994703072
30
0
41
1
10
31.4060724923882
20
3.75326816333745
30
0
41
1
10
31.6370963826622
20
3.57880304563687
30
0
41
1
10
31.7540811123193
20
3.49035185216567
30
0
41
1
10
31.9901843720432
20
3.3107271960863
30
0
41
1
10
32.109305550155
20
3.21955355433903
30
0
41
1
10
32.3491344898977
20
3.03423762387345
30
0
41
1
10
32.4698441740749
20
2.94009552687666
30
0
41
1
10
32.7124875787187
20
2.74863120406601
30
0
41
1
10
32.8344222781415
20
2.65130891079292
30
0
41
1
10
33.0180767106734
20
2.50280567726452
30
0
41
1
10
33.0794501789886
20
2.45286087657954
30
0
41
1
10
33.2021294992221
20
2.3523635019738
30
0
41
1
10
33.2634667331701
20
2.30178585340036
30
0
41
1
10
33.5701156702092
20
2.04723500916495
30
0
41
1
10
33.8152523768083
20
1.83822576427264
30
0
41
1
10
34.0603915061219
20
1.62397884952873
30
0
0
SPLINE
5
165
100
AcDbEntity
8
1
62
256
6
ByLayer
370
18
48
1
60
0
100
AcDbSpline
70
4
71
3
72
29
73
25
40
0
40
0
40
0
40
0
40
0.125
40
0.125
40
0.25
40
0.25
40
0.375
40
0.375
40
0.40625
40
0.40625
40
0.4375
40
0.5
40
0.5
40
0.625
40
0.625
40
0.75
40
0.75
40
0.78125
40
0.78125
40
0.8125
40
0.8125
40
0.875
40
0.875
40
1
40
1
40
1
40
1
41
1
10
56.8016815786683
20
-7.05453002957589
30
0
41
1
10
56.7905666734617
20
-7.03281656241379
30
0
41
1
10
56.7795586542035
20
-6.9984417047626
30
0
41
1
10
56.7576222620632
20
-6.90515282756385
30
0
41
1
10
56.7466780334311
20
-6.84623688852454
30
0
41
1
10
56.7246669570301
20
-6.70383959541442
30
0
41
1
10
56.7136283135027
20
-6.62036025664946
30
0
41
1
10
56.6997439172036
20
-6.50013774493604
30
0
41
1
10
56.6969613478774
20
-6.47528602653068
30
0
41
1
10
56.6914168274989
20
-6.42428279444064
30
0
41
1
10
56.6831186736878
20
-6.34572450468471
30
0
41
1
10
56.6748614099219
20
-6.26107826097868
30
0
41
1
10
56.6583517909413
20
-6.08379631878918
30
0
41
1
10
56.6473627487681
20
-5.95497657134877
30
0
41
1
10
56.6253993183964
20
-5.676222819646
30
0
41
1
10
56.6144253023096
20
-5.52628974339407
30
0
41
1
10
56.6006047457612
20
-5.32534367749318
30
0
41
1
10
56.5978350715004
20
-5.28447623973304
30
0
41
1
10
56.5922800842978
20
-5.20136936253047
30
0
41
1
10
56.5894934242225
20
-5.15911303057257
30
0
41
1
10
56.5811586347419
20
-5.03103161761732
30
0
41
1
10
56.5756200834427
20
-4.94365431481751
30
0
41
1
10
56.5590566645413
20
-4.67567061243645
30
0
41
1
10
56.5480888640372
20
-4.48922763365113
30
0
41
1
10
56.5371318093993
20
-4.2951160867444
30
0
0
SPLINE
5
166
100
AcDbEntity
8
1
62
256
6
ByLayer
370
18
48
1
60
0
100
AcDbSpline
70
4
71
3
72
31
73
27
40
0
40
0
40
0
40
0
40
0.125
40
0.125
40
0.1875
40
0.1875
40
0.203125
40
0.203125
40
0.218750000000001
40
0.25
40
0.25
40
0.375000000000001
40
0.500000000000001
40
0.500000000000001
40
0.562500000000001
40
0.562500000000001
40
0.593750000000001
40
0.593750000000001
40
0.609375000000001
40
0.609375000000001
40
0.625000000000001
40
0.750000000000001
40
0.750000000000001
40
0.875
40
0.875
40
1
40
1
40
1
40
1
41
1
10
56.3268426559866
20
-4.12995730200208
30
0
41
1
10
56.3378296819029
20
-4.32826016881194
30
0
41
1
10
56.3488064179301
20
-4.51928573598127
30
0
41
1
10
56.3653420522127
20
-4.79470649650114
30
0
41
1
10
56.370866964404
20
-4.88465676492717
30
0
41
1
10
56.3778085530815
20
-4.99472305165654
30
0
41
1
10
56.3791995258506
20
-5.01663085909772
30
0
41
1
10
56.3819780932766
20
-5.06008968939352
30
0
41
1
10
56.3861431658667
20
-5.12477573214466
30
0
41
1
10
56.3903003129065
20
-5.18796474495153
30
0
41
1
10
56.4041383802164
20
-5.39530369295997
30
0
41
1
10
56.4261450574128
20
-5.7060382086454
30
0
41
1
10
56.4480101567892
20
-5.97567585325768
30
0
41
1
10
56.4645204001251
20
-6.16233465590804
30
0
41
1
10
56.4700446560294
20
-6.22195420509783
30
0
41
1
10
56.47836022457
20
-6.30741601968185
30
0
41
1
10
56.4811370107794
20
-6.33524168921619
30
0
41
1
10
56.4853100388108
20
-6.37597606676232
30
0
41
1
10
56.4867032244536
20
-6.38939483476292
30
0
41
1
10
56.4894848081748
20
-6.41582429308085
30
0
41
1
10
56.5019871919552
20
-6.53297730213322
30
0
41
1
10
56.514350177872
20
-6.63429517377622
30
0
41
1
10
56.5362852856584
20
-6.79014219856703
30
0
41
1
10
56.5472581592638
20
-6.8559267032584
30
0
41
1
10
56.5692727805331
20
-6.96317183350914
30
0
41
1
10
56.5802988531468
20
-7.00463497838734
30
0
41
1
10
56.5914022910076
20
-7.03351258529955
30
0
0
SPLINE
5
167
100
AcDbEntity
8
1
62
256
6
ByLayer
370
18
48
1
60
0
100
AcDbSpline
70
4
71
3
72
30
73
26
40
0
40
0
40
0
40
0
40
0.124999999999999
40
0.124999999999999
40
0.249999999999999
40
0.249999999999999
40
0.374999999999998
40
0.374999999999998
40
0.437499999999998
40
0.437499999999998
40
0.468749999999997
40
0.468749999999997
40
0.499999999999997
40
0.499999999999997
40
0.624999999999998
40
0.624999999999998
40
0.749999999999999
40
0.749999999999999
40
0.874999999999999
40
0.874999999999999
40
0.9375
40
0.9375
40
0.96875
40
0.96875
40
1
40
1
40
1
40
1
41
1
10
47.0220569680928
20
-0.543090567443443
30
0
41
1
10
47.0167368381127
20
-0.362699398823906
30
0
41
1
10
47.0116126390361
20
-0.183169999236441
30
0
41
1
10
47.0016403618999
20
0.174198803546972
30
0
41
1
10
46.9967963990975
20
0.352038823972265
30
0
41
1
10
46.9873918130265
20
0.706040619206505
30
0
41
1
10
46.9828322206529
20
0.88220255930932
30
0
41
1
10
46.9761757620158
20
1.145160653484
30
0
41
1
10
46.9739870227246
20
1.23259884594549
30
0
41
1
10
46.9707403100574
20
1.36342742882721
30
0
41
1
10
46.9696638646099
20
1.40698211255656
30
0
41
1
10
46.9675228110918
20
1.49398060017933
30
0
41
1
10
46.9664598846265
20
1.53736163782716
30
0
41
1
10
46.96120350691
20
1.75293060907833
30
0
41
1
10
46.9571690582467
20
1.92183637333591
30
0
41
1
10
46.9494539279412
20
2.25275014455545
30
0
41
1
10
46.9457741606438
20
2.41475798924532
30
0
41
1
10
46.9387181580439
20
2.73187616495161
30
0
41
1
10
46.9353240869277
20
2.88697901713954
30
0
41
1
10
46.9304920687169
20
3.11436604004666
30
0
41
1
10
46.9289255981564
20
3.18928292486987
30
0
41
1
10
46.9266494705221
20
3.30031675778918
30
0
41
1
10
46.9259021856663
20
3.33714548104436
30
0
41
1
10
46.924439971539
20
3.40999642950325
30
0
41
1
10
46.9237243696952
20
3.44605062654046
30
0
41
1
10
46.9230241990221
20
3.48173747959854
30
0
0
SPLINE
5
168
100
AcDbEntity
8
1
62
256
6
ByLayer
370
18
48
1
60
0
100
AcDbSpline
70
4
71
3
72
30
73
26
40
0
40
0
40
0
40
0
40
0.125
40
0.125
40
0.1875
40
0.1875
40
0.21875
40
0.21875
40
0.25
40
0.25
40
0.374999999999999
40
0.374999999999999
40
0.499999999999999
40
0.499999999999999
40
0.562499999999999
40
0.562499999999999
40
0.593749999999999
40
0.593749999999999
40
0.624999999999999
40
0.624999999999999
40
0.749999999999999
40
0.749999999999999
40
0.875
40
0.875
40
1
40
1
40
1
40
1
41
1
10
57.7212856515401
20
6.78418874238273
30
0
41
1
10
57.732271165069
20
6.71411803210273
30
0
41
1
10
57.7432345426731
20
6.63199033999953
30
0
41
1
10
57.7597563143583
20
6.49044030539906
30
0
41
1
10
57.7652776159562
20
6.44019117650424
30
0
41
1
10
57.7736063817186
20
6.36012719038052
30
0
41
1
10
57.7763947408934
20
6.33261476805126
30
0
41
1
10
57.7819601051371
20
6.27627916950007
30
0
41
1
10
57.7847380209192
20
6.24744967704959
30
0
41
1
10
57.7986034806883
20
6.10003160804254
30
0
41
1
10
57.8096125659202
20
5.97165814598091
30
0
41
1
10
57.8315558851015
20
5.69455591517703
30
0
41
1
10
57.8424938083327
20
5.54582615365823
30
0
41
1
10
57.8590175547159
20
5.30736059394278
30
0
41
1
10
57.8645411203906
20
5.22530510574586
30
0
41
1
10
57.8728502692973
20
5.09831054793054
30
0
41
1
10
57.8756240311715
20
5.05532680254481
30
0
41
1
10
57.8811806823774
20
4.96804048640729
30
0
41
1
10
57.8839676402896
20
4.92367155036501
30
0
41
1
10
57.8978623775868
20
4.69957739264766
30
0
41
1
10
57.9088609695303
20
4.51289902859105
30
0
41
1
10
57.9308272972724
20
4.12523046132671
30
0
41
1
10
57.9418153996859
20
3.92423972659009
30
0
41
1
10
57.963815775168
20
3.50795993375007
30
0
41
1
10
57.9748231792351
20
3.29267181531426
30
0
41
1
10
57.9859139569688
20
3.07000980005674
30
0
0
SPLINE
5
169
100
AcDbEntity
8
1
62
256
6
ByLayer
370
18
48
1
60
0
100
AcDbSpline
70
4
71
3
72
26
73
22
40
0
40
0
40
0
40
0
40
0.125
40
0.125
40
0.249999999999999
40
0.249999999999999
40
0.374999999999999
40
0.374999999999999
40
0.499999999999999
40
0.499999999999999
40
0.624999999999998
40
0.624999999999998
40
0.749999999999998
40
0.749999999999998
40
0.781249999999998
40
0.781249999999998
40
0.812499999999998
40
0.812499999999998
40
0.874999999999999
40
0.874999999999999
40
1
40
1
40
1
40
1
41
1
10
58.1962274831125
20
2.88386353101418
30
0
41
1
10
58.1851193741929
20
3.10925729062979
30
0
41
1
10
58.174101757015
20
3.32772248964037
30
0
41
1
10
58.1521496452008
20
3.75118126343534
30
0
41
1
10
58.1412101858087
20
3.95617369207667
30
0
41
1
10
58.1191845506578
20
4.35262418144455
30
0
41
1
10
58.1081210617086
20
4.54408464289398
30
0
41
1
10
58.0858462514451
20
4.91297135260572
30
0
41
1
10
58.0748294500768
20
5.08715979108925
30
0
41
1
10
58.0528390861995
20
5.41561758805699
30
0
41
1
10
58.0418459667798
20
5.56990866453444
30
0
41
1
10
58.0198539172307
20
5.85869661451582
30
0
41
1
10
58.0088586439799
20
5.9931947947905
30
0
41
1
10
57.9950179251873
20
6.14859057880403
30
0
41
1
10
57.9922445204574
20
6.1790317149194
30
0
41
1
10
57.9866829733871
20
6.23862207337299
30
0
41
1
10
57.9839067974194
20
6.26764259621785
30
0
41
1
10
57.9755869879405
20
6.35238894946346
30
0
41
1
10
57.9700525529915
20
6.40580997991208
30
0
41
1
10
57.9534901887394
20
6.55701111065332
30
0
41
1
10
57.9425080541875
20
6.64575315762792
30
0
41
1
10
57.931538509507
20
6.7225807238213
30
0
0
SPLINE
5
16A
100
AcDbEntity
8
1
62
256
6
ByLayer
370
13
48
1
60
0
100
AcDbSpline
70
4
71
3
72
12
73
8
40
0
40
0
40
0
40
0
40
0.0391283285052412
40
0.358997409356971
40
0.6788664902087
40
0.99873557106043
40
1
40
1
40
1
40
1
41
1
10
53.5657897199224
20
-1.58839882384129
30
0
41
1
10
53.5689350810633
20
-1.64514893804346
30
0
41
1
10
53.5977933670549
20
-2.16368344538591
30
0
41
1
10
53.652364573791
20
-3.10303487031783
30
0
41
1
10
53.7295033425556
20
-4.24956153353523
30
0
41
1
10
53.7810308359181
20
-4.84949971838674
30
0
41
1
10
53.8068454025104
20
-5.09952869714056
30
0
41
1
10
53.8069470446127
20
-5.10051237581578
30
0
0
SPLINE
5
16B
100
AcDbEntity
8
1
62
256
6
ByLayer
370
18
48
1
60
0
100
AcDbSpline
70
4
71
3
72
30
73
26
40
0
40
0
40
0
40
0
40
0.125
40
0.125
40
0.1875
40
0.1875
40
0.21875
40
0.21875
40
0.249999999999999
40
0.249999999999999
40
0.374999999999998
40
0.374999999999998
40
0.499999999999997
40
0.499999999999997
40
0.562499999999997
40
0.562499999999997
40
0.593749999999997
40
0.593749999999997
40
0.624999999999997
40
0.624999999999997
40
0.749999999999998
40
0.749999999999998
40
0.874999999999999
40
0.874999999999999
40
1
40
1
40
1
40
1
41
1
10
54.709898453137
20
-6.58629903906709
30
0
41
1
10
54.6989244285188
20
-6.49661086969795
30
0
41
1
10
54.6879731359223
20
-6.39521201007094
30
0
41
1
10
54.6714521614188
20
-6.22525103424167
30
0
41
1
10
54.6659268837255
20
-6.16561442853273
30
0
41
1
10
54.6575899783928
20
-6.0715917700287
30
0
41
1
10
54.6548020181904
20
-6.03946812549177
30
0
41
1
10
54.6492443545653
20
-5.97407074913795
30
0
41
1
10
54.646470707366
20
-5.94075354061286
30
0
41
1
10
54.6326276575924
20
-5.77110883598934
30
0
41
1
10
54.6216397086979
20
-5.6256303434873
30
0
41
1
10
54.5997223714976
20
-5.31560327011553
30
0
41
1
10
54.5887815631165
20
-5.15105421820545
30
0
41
1
10
54.5722576086673
20
-4.88980595942169
30
0
41
1
10
54.5667362185021
20
-4.8003141945276
30
0
41
1
10
54.5584313858213
20
-4.66240276216402
30
0
41
1
10
54.5556592360985
20
-4.61581966846637
30
0
41
1
10
54.5501057436735
20
-4.52141421621349
30
0
41
1
10
54.547322696929
20
-4.47356059189497
30
0
41
1
10
54.5334606019845
20
-4.23258558219939
30
0
41
1
10
54.522483709257
20
-4.03330937731445
30
0
41
1
10
54.5005270793959
20
-3.6221783986862
30
0
41
1
10
54.4895441420701
20
-3.41032277195706
30
0
41
1
10
54.4675633374916
20
-2.97402286148733
30
0
41
1
10
54.456566106161
20
-2.74957964664193
30
0
41
1
10
54.4454750002176
20
-2.51863463536918
30
0
0
SPLINE
5
16C
100
AcDbEntity
8
1
62
256
6
ByLayer
370
18
48
1
60
0
100
AcDbSpline
70
4
71
3
72
31
73
27
40
0
40
0
40
0
40
0
40
0.124999999999999
40
0.124999999999999
40
0.249999999999998
40
0.249999999999998
40
0.374999999999996
40
0.374999999999996
40
0.390624999999996
40
0.390624999999996
40
0.406249999999996
40
0.437499999999997
40
0.499999999999997
40
0.499999999999997
40
0.624999999999998
40
0.624999999999998
40
0.749999999999998
40
0.749999999999998
40
0.781249999999998
40
0.781249999999998
40
0.796874999999998
40
0.796874999999998
40
0.812499999999998
40
0.874999999999999
40
0.874999999999999
40
1
40
1
40
1
40
1
41
1
10
54.2351527940969
20
-2.32606218493734
30
0
41
1
10
54.2462579903449
20
-2.55913311914713
30
0
41
1
10
54.2572771806576
20
-2.78616653388349
30
0
41
1
10
54.2792214044181
20
-3.22851381118835
30
0
41
1
10
54.2901466992707
20
-3.44382671851994
30
0
41
1
10
54.3121348279186
20
-3.86269597913758
30
0
41
1
10
54.3231909220835
20
-4.06625385581711
30
0
41
1
10
54.3357080680665
20
-4.28841126436868
30
0
41
1
10
54.3371006788936
20
-4.3130106232974
30
0
41
1
10
54.3398805329081
20
-4.36187720675639
30
0
41
1
10
54.344044977341
20
-4.43472718756172
30
0
41
1
10
54.3537274778736
20
-4.60158040080276
30
0
41
1
10
54.361978389264
20
-4.73929154273031
30
0
41
1
10
54.3784565267272
20
-5.00774422115737
30
0
41
1
10
54.3894315565111
20
-5.17743750859384
30
0
41
1
10
54.4114060536854
20
-5.49838073465145
30
0
41
1
10
54.4223943197601
20
-5.64963198489482
30
0
41
1
10
54.436212784363
20
-5.82685942877339
30
0
41
1
10
54.4389810444428
20
-5.86171153885485
30
0
41
1
10
54.4431430921543
20
-5.91308899497838
30
0
41
1
10
54.4445327007773
20
-5.93007224309042
30
0
41
1
10
54.4473077290281
20
-5.96364108496471
30
0
41
1
10
54.4542384836253
20
-6.0466235874587
30
0
41
1
10
54.4611502420104
20
-6.12494202185917
30
0
41
1
10
54.47770446679
20
-6.30412215997222
30
0
41
1
10
54.4886859480406
20
-6.4118867457035
30
0
41
1
10
54.499648424114
20
-6.50812336373608
30
0
0
SPLINE
5
16D
100
AcDbEntity
8
1
62
256
6
ByLayer
370
13
48
1
60
0
100
AcDbSpline
70
4
71
3
72
11
73
7
40
0
40
0
40
0
40
0
40
0.148913936266968
40
0.469647736623777
40
0.790381536980585
40
1
40
1
40
1
40
1
41
1
10
47.2911704182732
20
3.32953875720318
30
0
41
1
10
47.3031087066842
20
3.14420059026958
30
0
41
1
10
47.3407599188544
20
2.53757711698549
30
0
41
1
10
47.4041240601546
20
1.41897810034769
30
0
41
1
10
47.4723548190288
20
0.141069165177527
30
0
41
1
10
47.5148726550616
20
-0.654568224898696
30
0
41
1
10
47.5316775677933
20
-0.965003822129802
30
0
0
SPLINE
5
16E
100
AcDbEntity
8
1
62
256
6
ByLayer
370
13
48
1
60
0
100
AcDbSpline
70
4
71
3
72
11
73
7
40
0
40
0
40
0
40
0
40
0.139794224974484
40
0.459779372739898
40
0.779764520505312
40
1
40
1
40
1
40
1
41
1
10
53.0420240653817
20
-1.17081428876128
30
0
41
1
10
53.0532574579692
20
-1.37700063860618
30
0
41
1
10
53.0902037791273
20
-2.04795741162607
30
0
41
1
10
53.1528630887867
20
-3.12444119342874
30
0
41
1
10
53.2219864147284
20
-4.14845650820007
30
0
41
1
10
53.2653966203047
20
-4.6730902054322
30
0
41
1
10
53.2830939630094
20
-4.86444242297623
30
0
0
SPLINE
5
16F
100
AcDbEntity
8
1
62
256
6
ByLayer
370
18
48
1
60
0
100
AcDbSpline
70
4
71
3
72
33
73
29
40
0
40
0
40
0
40
0
40
0.124999999999998
40
0.124999999999998
40
0.156249999999998
40
0.156249999999998
40
0.187499999999998
40
0.249999999999997
40
0.249999999999997
40
0.374999999999997
40
0.374999999999997
40
0.499999999999997
40
0.499999999999997
40
0.531249999999997
40
0.531249999999997
40
0.562499999999997
40
0.562499999999997
40
0.624999999999998
40
0.624999999999998
40
0.749999999999998
40
0.749999999999998
40
0.874999999999999
40
0.874999999999999
40
0.937499999999999
40
0.937499999999999
40
0.96875
40
0.96875
40
1
40
1
40
1
40
1
41
1
10
47.9602201372568
20
3.5748668685157
30
0
41
1
10
47.9711712183226
20
3.36424995685192
30
0
41
1
10
47.9821782936197
20
3.14660269419539
30
0
41
1
10
47.9960684676216
20
2.86543615930592
30
0
41
1
10
47.9988431645524
20
2.80893003379933
30
0
41
1
10
48.0043771558387
20
2.69557182531719
30
0
41
1
10
48.012659809178
20
2.52492174019335
30
0
41
1
10
48.0208931267973
20
2.35245383755895
30
0
41
1
10
48.0373219436322
20
2.0051302288735
30
0
41
1
10
48.0482269300812
20
1.77040376059259
30
0
41
1
10
48.0701508639052
20
1.29463491503665
30
0
41
1
10
48.0811439514475
20
1.05359181671494
30
0
41
1
10
48.0949545735683
20
0.748230915401507
30
0
41
1
10
48.0977205808763
20
0.686955375116128
30
0
41
1
10
48.1032628552475
20
0.563992749196501
30
0
41
1
10
48.1060315144549
20
0.502474427763275
30
0
41
1
10
48.1143142064824
20
0.318264433003122
30
0
41
1
10
48.1198133434514
20
0.195725678563519
30
0
41
1
10
48.1362908611266
20
-0.171099606748555
30
0
41
1
10
48.1472602457433
20
-0.414596744899455
30
0
41
1
10
48.1691741779726
20
-0.899511797442699
30
0
41
1
10
48.1801165528858
20
-1.14092983441688
30
0
41
1
10
48.1966204176865
20
-1.50146257465235
30
0
41
1
10
48.2021381982735
20
-1.62137384759276
30
0
41
1
10
48.21046443197
20
-1.8008313950871
30
0
41
1
10
48.2132414838474
20
-1.86044736001543
30
0
41
1
10
48.218780749509
20
-1.97890090354656
30
0
41
1
10
48.2215456679638
20
-2.03779680182012
30
0
41
1
10
48.2243059428159
20
-2.09636526515086
30
0
0
SPLINE
5
170
100
AcDbEntity
8
1
62
256
6
ByLayer
370
13
48
1
60
0
100
AcDbSpline
70
4
71
3
72
11
73
7
40
0
40
0
40
0
40
0
40
0.176462392869488
40
0.496705528942376
40
0.816948665015265
40
1
40
1
40
1
40
1
41
1
10
50.9504718885769
20
0.534574035820327
30
0
41
1
10
50.9646403800355
20
0.270409691574031
30
0
41
1
10
51.0045217755132
20
-0.477620226661372
30
0
41
1
10
51.0701160686458
20
-1.69773844741653
30
0
41
1
10
51.1362395476024
20
-2.84269775549242
30
0
41
1
10
51.1766500118957
20
-3.46944679779969
30
0
41
1
10
51.1913475510407
20
-3.685635608144
30
0
0
SPLINE
5
171
100
AcDbEntity
8
1
62
256
6
ByLayer
370
18
48
1
60
0
100
AcDbSpline
70
4
71
3
72
29
73
25
40
0
40
0
40
0
40
0
40
0.124999999999999
40
0.124999999999999
40
0.187499999999998
40
0.187499999999998
40
0.218749999999998
40
0.218749999999998
40
0.249999999999998
40
0.249999999999998
40
0.374999999999998
40
0.374999999999998
40
0.499999999999998
40
0.499999999999998
40
0.624999999999999
40
0.624999999999999
40
0.656249999999999
40
0.656249999999999
40
0.687499999999999
40
0.749999999999999
40
0.749999999999999
40
0.875
40
0.875
40
1
40
1
40
1
40
1
41
1
10
50.5263825383777
20
-4.10263122090203
30
0
41
1
10
50.5154272626241
20
-3.90376608248422
30
0
41
1
10
50.5045007036506
20
-3.69787524961018
30
0
41
1
10
50.4879898407894
20
-3.37842031522314
30
0
41
1
10
50.4824703671825
20
-3.27016191500698
30
0
41
1
10
50.4741668835573
20
-3.10507062277426
30
0
41
1
10
50.4713949310867
20
-3.04958934392283
30
0
41
1
10
50.4658417090933
20
-2.93771491961411
30
0
41
1
10
50.4630575213813
20
-2.88126140252862
30
0
41
1
10
50.4491871616158
20
-2.59828870487823
30
0
41
1
10
50.4382058114825
20
-2.3686211602483
30
0
41
1
10
50.4162685212404
20
-1.90292495273761
30
0
41
1
10
50.4052940166155
20
-1.66689657047056
30
0
41
1
10
50.3833229699454
20
-1.1884793827474
30
0
41
1
10
50.3723303513239
20
-0.946090937356985
30
0
41
1
10
50.3584833927665
20
-0.639003741423608
30
0
41
1
10
50.3557051703932
20
-0.577312030988338
30
0
41
1
10
50.3501639918912
20
-0.454200777678693
30
0
41
1
10
50.3418652408947
20
-0.269736107686754
30
0
41
1
10
50.3335884855387
20
-0.0858715601868312
30
0
41
1
10
50.3170695895735
20
0.28107053270395
30
0
41
1
10
50.3061079891684
20
0.52465154273213
30
0
41
1
10
50.2841957152512
20
1.00973216816846
30
0
41
1
10
50.2732406902781
20
1.25123167005879
30
0
41
1
10
50.2621763969185
20
1.49166000973619
30
0
0
SPLINE
5
172
100
AcDbEntity
8
1
62
256
6
ByLayer
370
13
48
1
60
0
100
AcDbSpline
70
4
71
3
72
11
73
7
40
0
40
0
40
0
40
0
40
0.0756235772546806
40
0.39582345823242
40
0.716023339210159
40
1
40
1
40
1
40
1
41
1
10
51.4742606246634
20
0.105542312808495
30
0
41
1
10
51.480333404138
20
-0.0081194044419419
30
0
41
1
10
51.5121191071558
20
-0.603333678628132
30
0
41
1
10
51.5696177328869
20
-1.67360369026309
30
0
41
1
10
51.6438476841893
20
-2.9612911137379
30
0
41
1
10
51.6923647095711
20
-3.6984654258855
30
0
41
1
10
51.7151688095549
20
-4.01398144281066
30
0
0
SPLINE
5
173
100
AcDbEntity
8
1
62
256
6
ByLayer
370
18
48
1
60
0
100
AcDbSpline
70
4
71
3
72
33
73
29
40
0
40
0
40
0
40
0
40
0.03125
40
0.03125
40
0.0624999999999999
40
0.125
40
0.125
40
0.25
40
0.25
40
0.375
40
0.375
40
0.40625
40
0.40625
40
0.4375
40
0.4375
40
0.5
40
0.5
40
0.625
40
0.625
40
0.75
40
0.75
40
0.8125
40
0.8125
40
0.84375
40
0.84375
40
0.875
40
0.875
40
1
40
1
40
1
40
1
41
1
10
52.6181444460828
20
-5.57445922523701
30
0
41
1
10
52.6153711760973
20
-5.53639107752198
30
0
41
1
10
52.6125911856817
20
-5.49757696336252
30
0
41
1
10
52.6070516479346
20
-5.41896628712905
30
0
41
1
10
52.5987616341065
20
-5.29942508224906
30
0
41
1
10
52.5905159627476
20
-5.17506630159451
30
0
41
1
10
52.5740355763703
20
-4.92002861315817
30
0
41
1
10
52.5630551098917
20
-4.7415935308718
30
0
41
1
10
52.5411034860016
20
-4.36803033939987
30
0
41
1
10
52.5301339118138
20
-4.17290286675634
30
0
41
1
10
52.5163327405551
20
-3.91830439167191
30
0
41
1
10
52.513567637912
20
-3.86684887695947
30
0
41
1
10
52.5080235868461
20
-3.76285415465785
30
0
41
1
10
52.5052420320065
20
-3.71026799409947
30
0
41
1
10
52.4969188568764
20
-3.55178370927587
30
0
41
1
10
52.4913863219664
20
-3.44489255499454
30
0
41
1
10
52.4748388368663
20
-3.120588011716
30
0
41
1
10
52.4638787806495
20
-2.89955287473285
30
0
41
1
10
52.4419920696527
20
-2.44797343763889
30
0
41
1
10
52.4310574228422
20
-2.21742945872577
30
0
41
1
10
52.4145099001755
20
-1.86437117767525
30
0
41
1
10
52.4089750626704
20
-1.74547542565867
30
0
41
1
10
52.4006430457204
20
-1.56527978407357
30
0
41
1
10
52.3978580113943
20
-1.50484751999662
30
0
41
1
10
52.3923083312249
20
-1.38404934274749
30
0
41
1
10
52.3895402152195
20
-1.32360878247621
30
0
41
1
10
52.3757285612039
20
-1.02120111570201
30
0
41
1
10
52.3647774008692
20
-0.778620831565149
30
0
41
1
10
52.3538189364541
20
-0.535406520643022
30
0
0
SPLINE
5
174
100
AcDbEntity
8
1
62
256
6
ByLayer
370
18
48
1
60
0
100
AcDbSpline
70
4
71
3
72
34
73
30
40
0
40
0
40
0
40
0
40
0.125000000000001
40
0.125000000000001
40
0.156250000000002
40
0.156250000000002
40
0.187500000000002
40
0.187500000000002
40
0.250000000000002
40
0.250000000000002
40
0.375000000000002
40
0.375000000000002
40
0.500000000000002
40
0.500000000000002
40
0.562500000000002
40
0.562500000000002
40
0.593750000000002
40
0.593750000000002
40
0.625000000000001
40
0.625000000000001
40
0.750000000000001
40
0.750000000000001
40
0.875
40
0.875
40
0.9375
40
0.9375
40
0.96875
40
0.96875
40
1
40
1
40
1
40
1
41
1
10
52.1435197596986
20
-0.33106804502728
30
0
41
1
10
52.1544890907946
20
-0.57473278912039
30
0
41
1
10
52.1654969969088
20
-0.818243609099824
30
0
41
1
10
52.1793255938937
20
-1.12243360653719
30
0
41
1
10
52.1820951598665
20
-1.18326163570202
30
0
41
1
10
52.1876441949473
20
-1.30489741847373
30
0
41
1
10
52.1904185261643
20
-1.36559214536069
30
0
41
1
10
52.1987143744616
20
-1.54663785617916
30
0
41
1
10
52.2042208757185
20
-1.66622267609884
30
0
41
1
10
52.2207129345275
20
-2.02170090891195
30
0
41
1
10
52.2316914254861
20
-2.25432582423014
30
0
41
1
10
52.2536368843655
20
-2.71097020721902
30
0
41
1
10
52.2645961187542
20
-2.93499009344777
30
0
41
1
10
52.281113529358
20
-3.26444065473228
30
0
41
1
10
52.28663369319
20
-3.37315874182079
30
0
41
1
10
52.2949599742755
20
-3.53455065667609
30
0
41
1
10
52.2977391243419
20
-3.58797938824088
30
0
41
1
10
52.3032826243253
20
-3.69367673434621
30
0
41
1
10
52.3060501451577
20
-3.74600976401109
30
0
41
1
10
52.3198662483393
20
-4.00512380396859
30
0
41
1
10
52.3308444028614
20
-4.20427257159105
30
0
41
1
10
52.352738114039
20
-4.58663106250933
30
0
41
1
10
52.3636551024343
20
-4.76984018343896
30
0
41
1
10
52.380157650173
20
-5.03256728102528
30
0
41
1
10
52.385677243025
20
-5.11812468530513
30
0
41
1
10
52.3939838729977
20
-5.24338024530414
30
0
41
1
10
52.3967573714343
20
-5.28461840096807
30
0
41
1
10
52.402314485259
20
-5.36605504163154
30
0
41
1
10
52.4050942898866
20
-5.40619592909152
30
0
41
1
10
52.407864051337
20
-5.44559035896236
30
0
0
SPLINE
5
175
100
AcDbEntity
8
1
62
256
6
ByLayer
370
13
48
1
60
0
100
AcDbSpline
70
4
71
3
72
11
73
7
40
0
40
0
40
0
40
0
40
0.11230146453011
40
0.432774185163928
40
0.753246905797745
40
1
40
1
40
1
40
1
41
1
10
49.3827008151576
20
1.79136516517636
30
0
41
1
10
49.3917112519334
20
1.63049874192521
30
0
41
1
10
49.4264346142486
20
1.00229563743486
30
0
41
1
10
49.4868708986803
20
-0.131734884335685
30
0
41
1
10
49.5580948170051
20
-1.46115726123904
30
0
41
1
10
49.6036058211913
20
-2.26267326419554
30
0
41
1
10
49.623403899093
20
-2.59627369566573
30
0
0
SPLINE
5
176
100
AcDbEntity
8
1
62
256
6
ByLayer
370
18
48
1
60
0
100
AcDbSpline
70
4
71
3
72
29
73
25
40
0
40
0
40
0
40
0
40
0.125
40
0.125
40
0.25
40
0.25
40
0.3125
40
0.3125
40
0.34375
40
0.34375
40
0.375
40
0.375
40
0.5
40
0.5
40
0.625
40
0.625
40
0.75
40
0.75
40
0.78125
40
0.78125
40
0.8125
40
0.875
40
0.875
40
1
40
1
40
1
40
1
41
1
10
50.0518697374449
20
1.69127265693848
30
0
41
1
10
50.0629059568342
20
1.45272304014063
30
0
41
1
10
50.073907638076
20
1.21261912624973
30
0
41
1
10
50.095857733348
20
0.729368510629797
30
0
41
1
10
50.1068019395355
20
0.486221524633066
30
0
41
1
10
50.1232829124937
20
0.119198310921121
30
0
41
1
10
50.1287885881415
20
-0.0035272501298209
30
0
41
1
10
50.1370907412057
20
-0.188201464534444
30
0
41
1
10
50.1398655374382
20
-0.249857226519794
30
0
41
1
10
50.1454292886846
20
-0.373366527212624
30
0
41
1
10
50.1482119612585
20
-0.43508053061106
30
0
41
1
10
50.1620849891116
20
-0.742477807093366
30
0
41
1
10
50.1730916518752
20
-0.985612964070157
30
0
41
1
10
50.19501586702
20
-1.46647539288077
30
0
41
1
10
50.2059373828163
20
-1.70420207696952
30
0
41
1
10
50.2279211027118
20
-2.17422121192627
30
0
41
1
10
50.238962289926
20
-2.40651517312762
30
0
41
1
10
50.2528526169345
20
-2.69336488614695
30
0
41
1
10
50.2556297622938
20
-2.75043844150193
30
0
41
1
10
50.2611656134198
20
-2.86361089101268
30
0
41
1
10
50.2694505202906
20
-3.0320860921336
30
0
41
1
10
50.2776911411528
20
-3.19675358541798
30
0
41
1
10
50.2941580301429
20
-3.5210844815422
30
0
41
1
10
50.3051328264619
20
-3.73064548992477
30
0
41
1
10
50.3161110529782
20
-3.93358168272701
30
0
0
SPLINE
5
177
100
AcDbEntity
8
1
62
256
6
ByLayer
370
18
48
1
60
0
100
AcDbSpline
70
4
71
3
72
34
73
30
40
0
40
0
40
0
40
0
40
0.0312499999999998
40
0.0312499999999998
40
0.0624999999999995
40
0.0624999999999995
40
0.124999999999999
40
0.124999999999999
40
0.249999999999999
40
0.249999999999999
40
0.374999999999999
40
0.374999999999999
40
0.437499999999999
40
0.437499999999999
40
0.468749999999999
40
0.468749999999999
40
0.499999999999999
40
0.499999999999999
40
0.624999999999999
40
0.624999999999999
40
0.75
40
0.75
40
0.8125
40
0.8125
40
0.84375
40
0.84375
40
0.875
40
0.875
40
1
40
1
40
1
40
1
41
1
10
48.4346099171489
20
-2.29173761377274
30
0
41
1
10
48.4318540598459
20
-2.2336450348555
30
0
41
1
10
48.4290937490117
20
-2.17519581873711
30
0
41
1
10
48.4235603752645
20
-2.05757623418421
30
0
41
1
10
48.4207842013047
20
-1.99833886444716
30
0
41
1
10
48.4124759930651
20
-1.82052431452604
30
0
41
1
10
48.4069508166959
20
-1.70158614586083
30
0
41
1
10
48.3904199901782
20
-1.34360990608948
30
0
41
1
10
48.3794642297889
20
-1.10341291044367
30
0
41
1
10
48.3575941662171
20
-0.619979937485738
30
0
41
1
10
48.3466777801185
20
-0.376744038220124
30
0
41
1
10
48.3301612062322
20
-0.0095823157711266
30
0
41
1
10
48.3246350333769
20
0.113190463786538
30
0
41
1
10
48.3163151320858
20
0.29793977691844
30
0
41
1
10
48.313533173389
20
0.359698216461624
30
0
41
1
10
48.3079878893657
20
0.48274930525443
30
0
41
1
10
48.3052219312155
20
0.544100447553177
30
0
41
1
10
48.2914215114742
20
0.849993762871293
30
0
41
1
10
48.2804808621344
20
1.09195608517962
30
0
41
1
10
48.2586028588533
20
1.57050076017211
30
0
41
1
10
48.247641289926
20
1.807081822855
30
0
41
1
10
48.2311515316818
20
2.15788522853001
30
0
41
1
10
48.225647529518
20
2.27414035286859
30
0
41
1
10
48.2173714476646
20
2.44748729712921
30
0
41
1
10
48.2146093250243
20
2.50509689497301
30
0
41
1
10
48.2090757056661
20
2.61996670493124
30
0
41
1
10
48.2063004662594
20
2.6773033429661
30
0
41
1
10
48.1924649342952
20
2.96162265476406
30
0
41
1
10
48.1814783559893
20
3.1822423724139
30
0
41
1
10
48.1705030280826
20
3.39624543993267
30
0
0
SPLINE
5
178
100
AcDbEntity
8
1
62
256
6
ByLayer
370
13
48
1
60
0
100
AcDbSpline
70
4
71
3
72
11
73
7
40
0
40
0
40
0
40
0
40
0.213012967303353
40
0.533500334180338
40
0.853987701057322
40
1
40
1
40
1
40
1
41
1
10
48.8589601803129
20
2.19542592833219
30
0
41
1
10
48.8760503511163
20
1.89799907245205
30
0
41
1
10
48.9188533940956
20
1.12931959909977
30
0
41
1
10
48.9873692883266
20
-0.156882185415384
30
0
41
1
10
49.0505098641347
20
-1.33464780047237
30
0
41
1
10
49.0879374438805
20
-1.99988115640701
30
0
41
1
10
49.0996521055543
20
-2.2036301407866
30
0
0
SPLINE
5
179
100
AcDbEntity
8
1
62
256
6
ByLayer
370
18
48
1
60
0
100
AcDbSpline
70
4
71
3
72
30
73
26
40
0
40
0
40
0
40
0
40
0.0494548244986157
40
0.0494548244986157
40
0.102262889804248
40
0.102262889804248
40
0.155070955109881
40
0.155070955109881
40
0.207879020415513
40
0.207879020415513
40
0.260687085721146
40
0.260687085721146
40
0.366303216332411
40
0.366303216332411
40
0.471919346943675
40
0.471919346943675
40
0.577535477554941
40
0.577535477554941
40
0.683151608166205
40
0.683151608166205
40
0.78876773877747
40
0.78876773877747
40
0.894383869388735
40
0.894383869388735
40
1
40
1
40
1
40
1
41
1
10
42.719767938214
20
-5.4500000033934
30
0
41
1
10
42.6422931412544
20
-5.44999741441865
30
0
41
1
10
42.5646705224
20
-5.44905761633618
30
0
41
1
10
42.4039157593132
20
-5.44517784093088
30
0
41
1
10
42.3207912114693
20
-5.4421039269227
30
0
41
1
10
42.1541900276191
20
-5.4338168793949
30
0
41
1
10
42.0707543424685
20
-5.42860172075513
30
0
41
1
10
41.903697354891
20
-5.41599427119385
30
0
41
1
10
41.8200053280632
20
-5.40859518919351
30
0
41
1
10
41.6531257292374
20
-5.39168065537277
30
0
41
1
10
41.5698529764061
20
-5.38216030682713
30
0
41
1
10
41.3204918146166
20
-5.35043352584117
30
0
41
1
10
41.1549220991092
20
-5.32503477057926
30
0
41
1
10
40.8239914815577
20
-5.26617783551845
30
0
41
1
10
40.6585576598629
20
-5.23276759967459
30
0
41
1
10
40.3283006974724
20
-5.15789925959939
30
0
41
1
10
40.1633734837586
20
-5.11647236120433
30
0
41
1
10
39.8336861644783
20
-5.02575777951995
30
0
41
1
10
39.6689447942625
20
-4.97645983812117
30
0
41
1
10
39.3393604747152
20
-4.87011602994664
30
0
41
1
10
39.1745549041968
20
-4.81303898960803
30
0
41
1
10
38.8439408945363
20
-4.69168583069049
30
0
41
1
10
38.6782205552359
20
-4.6273711942238
30
0
41
1
10
38.3463660456072
20
-4.49109428310629
30
0
41
1
10
38.1802053657455
20
-4.41914085723903
30
0
41
1
10
38.0136249919083
20
-4.3434250826096
30
0
0
SPLINE
5
17A
100
AcDbEntity
8
1
62
256
6
ByLayer
370
18
48
1
60
0
100
AcDbSpline
70
4
71
3
72
8
73
4
40
0
40
0
40
0
40
0
40
1
40
1
40
1
40
1
41
1
10
56.5914022910076
20
-7.03351258529955
30
0
41
1
10
56.6615103525993
20
-7.04150189020748
30
0
41
1
10
56.7315977826515
20
-7.04850917798689
30
0
41
1
10
56.8016815786683
20
-7.05453002957589
30
0
0
SPLINE
5
17B
100
AcDbEntity
8
1
62
256
6
ByLayer
370
18
48
1
60
0
100
AcDbSpline
70
4
71
3
72
8
73
4
40
0
40
0
40
0
40
0
40
1
40
1
40
1
40
1
41
1
10
54.499648424114
20
-6.50812336373608
30
0
41
1
10
54.5697450944922
20
-6.53508579078817
30
0
41
1
10
54.6398098711779
20
-6.56115220492177
30
0
41
1
10
54.7098984531369
20
-6.58629903906706
30
0
0
SPLINE
5
17C
100
AcDbEntity
8
1
62
256
6
ByLayer
370
18
48
1
60
0
100
AcDbSpline
70
4
71
3
72
34
73
30
40
0
40
0
40
0
40
0
40
0.12500000000001
40
0.12500000000001
40
0.250000000000019
40
0.250000000000019
40
0.375000000000029
40
0.375000000000029
40
0.437500000000014
40
0.437500000000014
40
0.499999999999999
40
0.499999999999999
40
0.624999999999969
40
0.624999999999969
40
0.687499999999953
40
0.687499999999953
40
0.749999999999938
40
0.749999999999938
40
0.781249999999931
40
0.781249999999931
40
0.812499999999923
40
0.812499999999923
40
0.874999999999948
40
0.874999999999948
40
0.906249999999961
40
0.906249999999961
40
0.937499999999973
40
0.937499999999973
40
1
40
1
40
1
40
1
41
1
10
53.8069470446127
20
-5.10051237581578
30
0
41
1
10
53.7928906645729
20
-5.07194227025161
30
0
41
1
10
53.7765468613185
20
-5.04549566804513
30
0
41
1
10
53.7402776116152
20
-4.99590815893066
30
0
41
1
10
53.7201718999504
20
-4.97266551365908
30
0
41
1
10
53.6779674049739
20
-4.93066258207259
30
0
41
1
10
53.6557547131844
20
-4.91171064651681
30
0
41
1
10
53.6208385149116
20
-4.88628601033685
30
0
41
1
10
53.6089633119453
20
-4.87834712189004
30
0
41
1
10
53.5850829031727
20
-4.86375383059593
30
0
41
1
10
53.5730313304945
20
-4.85706472905727
30
0
41
1
10
53.5365510658702
20
-4.83884755868945
30
0
41
1
10
53.511802151716
20
-4.82913284409699
30
0
41
1
10
53.4739879008977
20
-4.81885720436708
30
0
41
1
10
53.461351075928
20
-4.8161882345093
30
0
41
1
10
53.4364022957438
20
-4.81256008192094
30
0
41
1
10
53.4240355660223
20
-4.81158397732673
30
0
41
1
10
53.4056750425771
20
-4.81152514272756
30
0
41
1
10
53.3995865839181
20
-4.81174066204429
30
0
41
1
10
53.3874797203433
20
-4.81268109337549
30
0
41
1
10
53.381439172344
20
-4.8134104183778
30
0
41
1
10
53.3636476951584
20
-4.81640106312705
30
0
41
1
10
53.3522090378609
20
-4.81945089632242
30
0
41
1
10
53.3357684024488
20
-4.82580511403253
30
0
41
1
10
53.3304082579128
20
-4.8282211049231
30
0
41
1
10
53.3199503925437
20
-4.83370324482223
30
0
41
1
10
53.3148311373573
20
-4.83678538827829
30
0
41
1
10
53.300110066228
20
-4.84697579849009
30
0
41
1
10
53.2911300913868
20
-4.85500606036123
30
0
41
1
10
53.2830939630094
20
-4.86444242297623
30
0
0
SPLINE
5
17D
100
AcDbEntity
8
1
62
256
6
ByLayer
370
18
48
1
60
0
100
AcDbSpline
70
4
71
3
72
14
73
10
40
0
40
0
40
0
40
0
40
0.25
40
0.25
40
0.5
40
0.5
40
0.75
40
0.75
40
1
40
1
40
1
40
1
41
1
10
53.2830939630094
20
-4.86444242297623
30
0
41
1
10
53.2270840938838
20
-4.93021158571989
30
0
41
1
10
53.1711996988731
20
-4.9943599757294
30
0
41
1
10
53.0597086827356
20
-5.11941815076381
30
0
41
1
10
53.0041296835535
20
-5.18030466521671
30
0
41
1
10
52.8932664884009
20
-5.29875188663968
30
0
41
1
10
52.8379657171694
20
-5.3563215073072
30
0
41
1
10
52.7277816378186
20
-5.4679668913752
30
0
41
1
10
52.6728809468898
20
-5.52206444992513
30
0
41
1
10
52.6181444460828
20
-5.57445922523704
30
0
0
SPLINE
5
17E
100
AcDbEntity
8
1
62
256
6
ByLayer
370
18
48
1
60
0
100
AcDbSpline
70
4
71
3
72
8
73
4
40
0
40
0
40
0
40
0
40
1
40
1
40
1
40
1
41
1
10
52.407864051337
20
-5.44559035896236
30
0
41
1
10
52.4779434464272
20
-5.48931524377733
30
0
41
1
10
52.5480316394316
20
-5.53227495497046
30
0
41
1
10
52.6181444460828
20
-5.57445922523701
30
0
0
SPLINE
5
17F
100
AcDbEntity
8
1
62
256
6
ByLayer
370
18
48
1
60
0
100
AcDbSpline
70
4
71
3
72
12
73
8
40
0
40
0
40
0
40
0
40
0.249999999999998
40
0.249999999999998
40
0.499999999999995
40
0.499999999999995
40
1
40
1
40
1
40
1
41
1
10
52.407864051337
20
-5.44559035896236
30
0
41
1
10
52.3508509006664
20
-5.32535514204034
30
0
41
1
10
52.2936808246453
20
-5.20528123527825
30
0
41
1
10
52.1789593173208
20
-4.96549013309848
30
0
41
1
10
52.121387544782
20
-4.84573227158253
30
0
41
1
10
51.9481678237627
20
-4.48739720830446
30
0
41
1
10
51.8320038864474
20
-4.24972126621273
30
0
41
1
10
51.7151688095549
20
-4.01398144281063
30
0
0
SPLINE
5
180
100
AcDbEntity
8
1
62
256
6
ByLayer
370
18
48
1
60
0
100
AcDbSpline
70
4
71
3
72
34
73
30
40
0
40
0
40
0
40
0
40
0.12499999999999
40
0.12499999999999
40
0.24999999999998
40
0.24999999999998
40
0.37499999999997
40
0.37499999999997
40
0.437499999999966
40
0.437499999999966
40
0.499999999999961
40
0.499999999999961
40
0.624999999999908
40
0.624999999999908
40
0.687499999999903
40
0.687499999999903
40
0.749999999999897
40
0.749999999999897
40
0.781249999999894
40
0.781249999999894
40
0.81249999999989
40
0.81249999999989
40
0.874999999999927
40
0.874999999999927
40
0.906249999999945
40
0.906249999999945
40
0.937499999999963
40
0.937499999999963
40
1
40
1
40
1
40
1
41
1
10
51.7151688095549
20
-4.01398144281066
30
0
41
1
10
51.7011195124185
20
-3.98563397290738
30
0
41
1
10
51.6847844067485
20
-3.95865247416882
30
0
41
1
10
51.6485323105999
20
-3.90683319411193
30
0
41
1
10
51.6284373181922
20
-3.88186812670591
30
0
41
1
10
51.586253870262
20
-3.83546601258052
30
0
41
1
10
51.5640494251252
20
-3.81383205502274
30
0
41
1
10
51.5291390587978
20
-3.78366483805382
30
0
41
1
10
51.5172676996298
20
-3.77402989669866
30
0
41
1
10
51.493391516192
20
-3.75585408610985
30
0
41
1
10
51.4813410016294
20
-3.74727296084546
30
0
41
1
10
51.4448607485887
20
-3.72306754890769
30
0
41
1
10
51.4201078618987
20
-3.70895086063757
30
0
41
1
10
51.3822790045154
20
-3.69132334659176
30
0
41
1
10
51.3696412188073
20
-3.68609484641667
30
0
41
1
10
51.3446853897457
20
-3.67717967024458
30
0
41
1
10
51.3323141650371
20
-3.67346653520568
30
0
41
1
10
51.3139454924981
20
-3.66914251862764
30
0
41
1
10
51.3078540837641
20
-3.66790960138215
30
0
41
1
10
51.2957408726961
20
-3.66589487459476
30
0
41
1
10
51.2896971760497
20
-3.66511177598511
30
0
41
1
10
51.2719025629083
20
-3.66352361659048
30
0
41
1
10
51.2604614929977
20
-3.66346247475335
30
0
41
1
10
51.244017463188
20
-3.66504840058988
30
0
41
1
10
51.2386562236479
20
-3.66585791496277
30
0
41
1
10
51.2281963244353
20
-3.66808955049507
30
0
41
1
10
51.2230762258692
20
-3.66952032868502
30
0
41
1
10
51.2083584328001
20
-3.67475847048908
30
0
41
1
10
51.19938103674
20
-3.67949158808162
30
0
41
1
10
51.1913475510408
20
-3.685635608144
30
0
0
SPLINE
5
181
100
AcDbEntity
8
1
62
256
6
ByLayer
370
18
48
1
60
0
100
AcDbSpline
70
4
71
3
72
12
73
8
40
0
40
0
40
0
40
0
40
0.500000000000007
40
0.500000000000007
40
0.750000000000004
40
0.750000000000004
40
1
40
1
40
1
40
1
41
1
10
51.1913475510408
20
-3.685635608144
30
0
41
1
10
51.0793047107847
20
-3.77132611462517
30
0
41
1
10
50.9677740474285
20
-3.84896637864415
30
0
41
1
10
50.8014823684777
20
-3.95320948713436
30
0
41
1
10
50.7461838646172
20
-3.98594360943577
30
0
41
1
10
50.6360079693389
20
-4.04731659841818
30
0
41
1
10
50.581112936882
20
-4.07597058620433
30
0
41
1
10
50.5263825383777
20
-4.10263122090205
30
0
0
SPLINE
5
182
100
AcDbEntity
8
1
62
256
6
ByLayer
370
18
48
1
60
0
100
AcDbSpline
70
4
71
3
72
8
73
4
40
0
40
0
40
0
40
0
40
1
40
1
40
1
40
1
41
1
10
50.3161110529786
20
-3.93358168272692
30
0
41
1
10
50.3861819111347
20
-3.99049612968852
30
0
41
1
10
50.4562671621886
20
-4.04685033739239
30
0
41
1
10
50.5263825383777
20
-4.10263122090203
30
0
0
SPLINE
5
183
100
AcDbEntity
8
1
62
256
6
ByLayer
370
18
48
1
60
0
100
AcDbSpline
70
4
71
3
72
14
73
10
40
0
40
0
40
0
40
0
40
0.25
40
0.25
40
0.5
40
0.5
40
0.75
40
0.75
40
1
40
1
40
1
40
1
41
1
10
50.3161110529786
20
-3.93358168272729
30
0
41
1
10
50.25909246499
20
-3.8184638597989
30
0
41
1
10
50.2019203223022
20
-3.70418091882956
30
0
41
1
10
50.0872052809133
20
-3.47732865720988
30
0
41
1
10
50.0296436155678
20
-3.36471972802619
30
0
41
1
10
49.9141903570761
20
-3.14149393493941
30
0
41
1
10
49.8562880070759
20
-3.03086624687498
30
0
41
1
10
49.7401054177019
20
-2.81184116550088
30
0
41
1
10
49.6818511754303
20
-2.70347751628756
30
0
41
1
10
49.623403899093
20
-2.59627369566576
30
0
0
SPLINE
5
184
100
AcDbEntity
8
1
62
256
6
ByLayer
370
18
48
1
60
0
100
AcDbSpline
70
4
71
3
72
36
73
32
40
0
40
0
40
0
40
0
40
0.12499999999993
40
0.12499999999993
40
0.18749999999991
40
0.18749999999991
40
0.24999999999989
40
0.24999999999989
40
0.374999999999886
40
0.374999999999886
40
0.437499999999885
40
0.437499999999885
40
0.499999999999883
40
0.499999999999883
40
0.624999999999881
40
0.624999999999881
40
0.68749999999988
40
0.68749999999988
40
0.749999999999879
40
0.749999999999879
40
0.781249999999879
40
0.781249999999879
40
0.812499999999878
40
0.812499999999878
40
0.874999999999918
40
0.874999999999918
40
0.906249999999938
40
0.906249999999938
40
0.937499999999958
40
0.937499999999958
40
1
40
1
40
1
40
1
41
1
10
49.623403899093
20
-2.59627369566573
30
0
41
1
10
49.6093639499538
20
-2.57052166266448
30
0
41
1
10
49.5930365145482
20
-2.54526522008007
30
0
41
1
10
49.5658502239975
20
-2.50798628706485
30
0
41
1
10
49.5563259367026
20
-2.49565826967958
30
0
41
1
10
49.5364129511572
20
-2.47121673382855
30
0
41
1
10
49.5261503933893
20
-2.45925733447655
30
0
41
1
10
49.4945140153802
20
-2.42410348949611
30
0
41
1
10
49.4723009479059
20
-2.40162554615205
30
0
41
1
10
49.4373585286745
20
-2.36928916480502
30
0
41
1
10
49.4254863241521
20
-2.35879125529107
30
0
41
1
10
49.401598380809
20
-2.33860344695961
30
0
41
1
10
49.3895400817408
20
-2.32887372730465
30
0
41
1
10
49.3530318963875
20
-2.3007818807171
30
0
41
1
10
49.3282540526391
20
-2.28349639532351
30
0
41
1
10
49.2903860045474
20
-2.26005673543761
30
0
41
1
10
49.2777633726738
20
-2.25274062705518
30
0
41
1
10
49.25281802887
20
-2.23933177995326
30
0
41
1
10
49.2404523430924
20
-2.23321139664543
30
0
41
1
10
49.2220923855617
20
-2.22500429151441
30
0
41
1
10
49.2160039473386
20
-2.2224314699526
30
0
41
1
10
49.2038967697047
20
-2.21763786049101
30
0
41
1
10
49.1978575736525
20
-2.21541077355616
30
0
41
1
10
49.1800900784256
20
-2.20938589575883
30
0
41
1
10
49.1686659213397
20
-2.2062175131538
30
0
41
1
10
49.1522445644463
20
-2.20289195075014
30
0
41
1
10
49.1468904308004
20
-2.2020223680974
30
0
41
1
10
49.1364436850243
20
-2.20080473662742
30
0
41
1
10
49.1313301443087
20
-2.20045734583067
30
0
41
1
10
49.1166388868585
20
-2.20028519708995
30
0
41
1
10
49.1076754616865
20
-2.20130884255255
30
0
41
1
10
49.0996521055544
20
-2.20363014078836
30
0
0
SPLINE
5
185
100
AcDbEntity
8
1
62
256
6
ByLayer
370
18
48
1
60
0
100
AcDbSpline
70
4
71
3
72
14
73
10
40
0
40
0
40
0
40
0
40
0.25
40
0.25
40
0.5
40
0.5
40
0.75
40
0.75
40
1
40
1
40
1
40
1
41
1
10
49.0996521055537
20
-2.20363014078657
30
0
41
1
10
49.0436167945148
20
-2.21984214316004
30
0
41
1
10
48.987705306
20
-2.23378107691002
30
0
41
1
10
48.8761926310819
20
-2.25719744782239
30
0
41
1
10
48.8206091279086
20
-2.26667148524078
30
0
41
1
10
48.7097372522605
20
-2.28124729555518
30
0
41
1
10
48.6544338727252
20
-2.28634822786481
30
0
41
1
10
48.5442493161192
20
-2.29224363312642
30
0
41
1
10
48.4893482575765
20
-2.29304141248249
30
0
41
1
10
48.4346099171489
20
-2.29173761377274
30
0
0
SPLINE
5
186
100
AcDbEntity
8
1
62
256
6
ByLayer
370
18
48
1
60
0
100
AcDbSpline
70
4
71
3
72
8
73
4
40
0
40
0
40
0
40
0
40
1
40
1
40
1
40
1
41
1
10
48.2243059428159
20
-2.09636526515086
30
0
41
1
10
48.2944182224561
20
-2.16179915608674
30
0
41
1
10
48.364511125998
20
-2.2269314272381
30
0
41
1
10
48.4346099171489
20
-2.29173761377274
30
0
0
SPLINE
5
187
100
AcDbEntity
8
1
62
256
6
ByLayer
370
18
48
1
60
0
100
AcDbSpline
70
4
71
3
72
14
73
10
40
0
40
0
40
0
40
0
40
0.25
40
0.25
40
0.5
40
0.5
40
0.75
40
0.75
40
1
40
1
40
1
40
1
41
1
10
48.2243059428159
20
-2.09636526515086
30
0
41
1
10
48.1673096701025
20
-1.9959261604003
30
0
41
1
10
48.1101558388479
20
-1.8969423412461
30
0
41
1
10
47.9954661369437
20
-1.70194466613464
30
0
41
1
10
47.9379104742638
20
-1.60589836684397
30
0
41
1
10
47.822460146931
20
-1.4170345195646
30
0
41
1
10
47.7645574326808
20
-1.32420131443681
30
0
41
1
10
47.6483812294763
20
-1.14196340989551
30
0
41
1
10
47.5901284213484
20
-1.05259798557569
30
0
41
1
10
47.5316775677933
20
-0.965003822129802
30
0
0
SPLINE
5
188
100
AcDbEntity
8
1
62
256
6
ByLayer
370
18
48
1
60
0
100
AcDbSpline
70
4
71
3
72
34
73
30
40
0
40
0
40
0
40
0
40
0.125000000000053
40
0.125000000000053
40
0.187500000000065
40
0.187500000000065
40
0.250000000000076
40
0.250000000000076
40
0.375000000000097
40
0.375000000000097
40
0.437500000000087
40
0.437500000000087
40
0.500000000000077
40
0.500000000000077
40
0.625000000000058
40
0.625000000000058
40
0.687500000000048
40
0.687500000000048
40
0.750000000000039
40
0.750000000000039
40
0.812500000000029
40
0.812500000000029
40
0.875000000000019
40
0.875000000000019
40
0.93750000000001
40
0.93750000000001
40
0.968750000000005
40
0.968750000000005
40
1
40
1
40
1
40
1
41
1
10
47.5316775677933
20
-0.96500382212983
30
0
41
1
10
47.5181188019477
20
-0.944684721905048
30
0
41
1
10
47.5024104257781
20
-0.923965072462266
30
0
41
1
10
47.4762927490084
20
-0.892443602672273
30
0
41
1
10
47.4671395531672
20
-0.881846002483172
30
0
41
1
10
47.4480570961725
20
-0.860567070062046
30
0
41
1
10
47.438222956739
20
-0.849990525533769
30
0
41
1
10
47.4079084496057
20
-0.818432139222438
30
0
41
1
10
47.3866248612214
20
-0.797620631405039
30
0
41
1
10
47.3531573385218
20
-0.766699025389613
30
0
41
1
10
47.3417692477088
20
-0.756469073217374
30
0
41
1
10
47.3188514155723
20
-0.736432403478119
30
0
41
1
10
47.3072784650313
20
-0.726585402256887
30
0
41
1
10
47.2722268286029
20
-0.697548481673778
30
0
41
1
10
47.2484200944758
20
-0.678855132473899
30
0
41
1
10
47.2120138049939
20
-0.65189002425231
30
0
41
1
10
47.1997794672046
20
-0.64309984489978
30
0
41
1
10
47.1756027068149
20
-0.626287171080378
30
0
41
1
10
47.1635971530847
20
-0.618216952574301
30
0
41
1
10
47.1397790070001
20
-0.602802461025192
30
0
41
1
10
47.1279661658928
20
-0.595457296190375
30
0
41
1
10
47.1045744429627
20
-0.581598545186438
30
0
41
1
10
47.0931454383619
20
-0.575176828208356
30
0
41
1
10
47.0711723933641
20
-0.5636119439163
30
0
41
1
10
47.0605840522294
20
-0.558441193982787
30
0
41
1
10
47.0454043745336
20
-0.551758310795577
30
0
41
1
10
47.0404501443778
20
-0.54970702749327
30
0
41
1
10
47.0309619167912
20
-0.546062709798917
30
0
41
1
10
47.0264089030419
20
-0.54446056050466
30
0
41
1
10
47.0220569680928
20
-0.543090567443016
30
0
0
SPLINE
5
189
100
AcDbEntity
8
1
62
256
6
ByLayer
370
18
48
1
60
0
100
AcDbSpline
70
4
71
3
72
24
73
20
40
0
40
0
40
0
40
0
40
0.124999999999986
40
0.124999999999986
40
0.249999999999972
40
0.249999999999972
40
0.374999999999957
40
0.374999999999957
40
0.43749999999996
40
0.43749999999996
40
0.499999999999962
40
0.499999999999962
40
0.74999999999997
40
0.74999999999997
40
0.874999999999974
40
0.874999999999974
40
0.937499999999987
40
0.937499999999987
40
1
40
1
40
1
40
1
41
1
10
47.0220569680932
20
-0.5430905674435
30
0
41
1
10
46.9885479485769
20
-0.501812183150662
30
0
41
1
10
46.9533787132785
20
-0.460530599023002
30
0
41
1
10
46.879956214306
20
-0.378007137953233
30
0
41
1
10
46.8416997709708
20
-0.336768185918118
30
0
41
1
10
46.7622444640792
20
-0.254316729509668
30
0
41
1
10
46.7210838954451
20
-0.213057778059067
30
0
41
1
10
46.6568278413807
20
-0.151625724358098
30
0
41
1
10
46.6349798257358
20
-0.131178132717139
30
0
41
1
10
46.5907955684561
20
-0.0906150473129514
30
0
41
1
10
46.5684277787469
20
-0.0704687085205364
30
0
41
1
10
46.4552986183357
20
0.0297033977983574
30
0
41
1
10
46.3607067425964
20
0.108087811876658
30
0
41
1
10
46.2139705933378
20
0.224893674385783
30
0
41
1
10
46.164242440422
20
0.263692808949628
30
0
41
1
10
46.0885179445268
20
0.321870958820511
30
0
41
1
10
46.0630943684795
20
0.341253780937308
30
0
41
1
10
46.0121039513552
20
0.3798724029418
30
0
41
1
10
45.9865106251534
20
0.399129238307125
30
0
41
1
10
45.9608283461056
20
0.418347567851839
30
0
0
SPLINE
5
18A
100
AcDbEntity
8
1
62
256
6
ByLayer
370
18
48
1
60
0
100
AcDbSpline
70
4
71
3
72
45
73
41
40
0
40
0
40
0
40
0
40
0.0312499999999984
40
0.0312499999999984
40
0.0624999999999969
40
0.124999999999997
40
0.124999999999997
40
0.187499999999997
40
0.187499999999997
40
0.249999999999998
40
0.249999999999998
40
0.312499999999998
40
0.312499999999998
40
0.374999999999998
40
0.374999999999998
40
0.406249999999998
40
0.406249999999998
40
0.437499999999998
40
0.437499999999998
40
0.468749999999998
40
0.468749999999998
40
0.499999999999998
40
0.499999999999998
40
0.531249999999998
40
0.531249999999998
40
0.562499999999998
40
0.562499999999998
40
0.624999999999999
40
0.624999999999999
40
0.687499999999999
40
0.687499999999999
40
0.749999999999999
40
0.749999999999999
40
0.812499999999999
40
0.812499999999999
40
0.875
40
0.875
40
0.9375
40
0.9375
40
1
40
1
40
1
40
1
41
1
10
45.9608283461056
20
0.418347567851811
30
0
41
1
10
45.8772147903011
20
0.480916503687269
30
0
41
1
10
45.7936610968115
20
0.543174131700056
30
0
41
1
10
45.626847512735
20
0.667320082714014
30
0
41
1
10
45.3770999056154
20
0.853027473790803
30
0
41
1
10
45.1285812967591
20
1.03695583709373
30
0
41
1
10
44.7979847491225
20
1.28018585518683
30
0
41
1
10
44.6330298373766
20
1.40074522861371
30
0
41
1
10
44.3031333370213
20
1.63890023355808
30
0
41
1
10
44.1382651574888
20
1.75659377945539
30
0
41
1
10
43.80848767945
20
1.98897422627687
30
0
41
1
10
43.6434484831442
20
2.10349987358538
30
0
41
1
10
43.3134912832086
20
2.32974278860792
30
0
41
1
10
43.1485358808886
20
2.44140945733821
30
0
41
1
10
42.9008313970332
20
2.60632216710547
30
0
41
1
10
42.8182315830257
20
2.66087798391524
30
0
41
1
10
42.6528188599559
20
2.76897604046348
30
0
41
1
10
42.5699417349153
20
2.8224427500079
30
0
41
1
10
42.4039157592422
20
2.92829484726354
30
0
41
1
10
42.3207912113964
20
2.98070808542789
30
0
41
1
10
42.1541900275428
20
3.08435674376017
30
0
41
1
10
42.0707543423905
20
3.13563995264045
30
0
41
1
10
41.9036973548095
20
3.23721226521474
30
0
41
1
10
41.82000532798
20
3.28751600857407
30
0
41
1
10
41.6531257291512
20
3.38660435519444
30
0
41
1
10
41.5698529763184
20
3.43544157962458
30
0
41
1
10
41.3204918145243
20
3.57979691439286
30
0
41
1
10
41.1549220990137
20
3.67321376060636
30
0
41
1
10
40.8239914814557
20
3.85334786467678
30
0
41
1
10
40.6585576597577
20
3.94001415518429
30
0
41
1
10
40.3283006973608
20
4.10716633650108
30
0
41
1
10
40.1633734836438
20
4.18754732233145
30
0
41
1
10
39.833686164357
20
4.34172850632413
30
0
41
1
10
39.668944794138
20
4.41554357982591
30
0
41
1
10
39.339360474584
20
4.55635001006928
30
0
41
1
10
39.1745549040622
20
4.62336179201455
30
0
41
1
10
38.8439408943946
20
4.74989388337875
30
0
41
1
10
38.6782205550908
20
4.80949253993336
30
0
41
1
10
38.3463660454552
20
4.92155714300679
30
0
41
1
10
38.18020536559
20
4.97399714578205
30
0
41
1
10
38.0136249917493
20
5.02265430045796
30
0
0
SPLINE
5
18B
100
AcDbEntity
8
1
62
256
6
ByLayer
370
18
48
1
60
0
100
AcDbSpline
70
4
71
3
72
34
73
30
40
0
40
0
40
0
40
0
40
0.0343389079151152
40
0.0343389079151152
40
0.0957426660588795
40
0.0957426660588795
40
0.218550182346408
40
0.218550182346408
40
0.279953940490172
40
0.279953940490172
40
0.341357698633936
40
0.341357698633936
40
0.464165214921465
40
0.464165214921465
40
0.525568973065227
40
0.525568973065227
40
0.58697273120899
40
0.58697273120899
40
0.648376489352753
40
0.648376489352753
40
0.709780247496516
40
0.709780247496516
40
0.832587763784044
40
0.832587763784044
40
0.893991521927808
40
0.893991521927808
40
0.955395280071572
40
0.955395280071572
40
1
40
1
40
1
40
1
41
1
10
34.4808468200492
20
1.30075410689364
30
0
41
1
10
34.5089780403552
20
1.30567161338951
30
0
41
1
10
34.5383298399739
20
1.31232070326303
30
0
41
1
10
34.6237293226836
20
1.33591233983654
30
0
41
1
10
34.6829591170082
20
1.35700828436029
30
0
41
1
10
34.8714945556104
20
1.43848458098617
30
0
41
1
10
35.0103380919685
20
1.51605079286853
30
0
41
1
10
35.2401261579805
20
1.67044211866167
30
0
41
1
10
35.3199296195168
20
1.72809197188499
30
0
41
1
10
35.4820761969566
20
1.85295796300255
30
0
41
1
10
35.5649719299204
20
1.92057387646878
30
0
41
1
10
35.8190802258355
20
2.1388388791153
30
0
41
1
10
35.9976912202683
20
2.3070802782814
30
0
41
1
10
36.2605982074218
20
2.57436427322256
30
0
41
1
10
36.3479606040134
20
2.66638397250398
30
0
41
1
10
36.5221692423583
20
2.85594828727338
30
0
41
1
10
36.6095004078799
20
2.95406696963283
30
0
41
1
10
36.7806892820092
20
3.15228832490413
30
0
41
1
10
36.864594681588
20
3.25240397457247
30
0
41
1
10
37.0292642046558
20
3.45450432337853
30
0
41
1
10
37.1099616730819
20
3.55652868207062
30
0
41
1
10
37.3438009384318
20
3.86751235064656
30
0
41
1
10
37.4819178209908
20
4.06994706295714
30
0
41
1
10
37.6666626892707
20
4.36569973785561
30
0
41
1
10
37.7248702821281
20
4.46374759515624
30
0
41
1
10
37.831679038304
20
4.65358615581948
30
0
41
1
10
37.8803231229227
20
4.74531697525413
30
0
41
1
10
37.9565555366148
20
4.89849326510785
30
0
41
1
10
37.9862653040811
20
4.96135968224058
30
0
41
1
10
38.0136310112087
20
5.02265603971668
30
0
0
SPLINE
5
18C
100
AcDbEntity
8
1
62
256
6
ByLayer
370
18
48
1
60
0
100
AcDbSpline
70
4
71
3
72
62
73
58
40
0
40
0
40
0
40
0
40
0.062499999999996
40
0.062499999999996
40
0.0937499999999952
40
0.0937499999999952
40
0.124999999999994
40
0.124999999999994
40
0.156249999999994
40
0.156249999999994
40
0.187499999999993
40
0.187499999999993
40
0.249999999999991
40
0.249999999999991
40
0.281249999999989
40
0.281249999999989
40
0.312499999999987
40
0.312499999999987
40
0.328124999999986
40
0.328124999999986
40
0.343749999999985
40
0.374999999999985
40
0.374999999999985
40
0.406249999999986
40
0.406249999999986
40
0.421874999999987
40
0.421874999999987
40
0.437499999999988
40
0.437499999999988
40
0.499999999999989
40
0.499999999999989
40
0.56249999999999
40
0.56249999999999
40
0.57812499999999
40
0.57812499999999
40
0.593749999999991
40
0.593749999999991
40
0.624999999999992
40
0.656249999999994
40
0.656249999999994
40
0.671874999999994
40
0.671874999999994
40
0.687499999999995
40
0.687499999999995
40
0.718749999999996
40
0.718749999999996
40
0.749999999999997
40
0.749999999999997
40
0.8125
40
0.8125
40
0.84375
40
0.84375
40
0.875
40
0.875
40
0.9375
40
0.9375
40
1
40
1
40
1
40
1
41
1
10
34.0603966910029
20
1.6239797942649
30
0
41
1
10
34.3097756732019
20
1.44561551471296
30
0
41
1
10
34.5583107183864
20
1.26559282391
30
0
41
1
10
34.9300165261433
20
0.993318014164828
30
0
41
1
10
35.0537402818962
20
0.902192244607335
30
0
41
1
10
35.3008592357859
20
0.719243915228219
30
0
41
1
10
35.424228635904
20
0.627386534753498
30
0
41
1
10
35.6708228254374
20
0.443222296724258
30
0
41
1
10
35.7941034082193
20
0.350990689385981
30
0
41
1
10
36.0408399815904
20
0.166511467471395
30
0
41
1
10
36.1642676605007
20
0.0742256775118619
30
0
41
1
10
36.5347835298958
20
-0.202695780843385
30
0
41
1
10
36.7821484956756
20
-0.387334901475981
30
0
41
1
10
37.1537605540597
20
-0.664298972383676
30
0
41
1
10
37.2776388434883
20
-0.756739887924596
30
0
41
1
10
37.526175193807
20
-0.940819868519327
30
0
41
1
10
37.6507659497636
20
-1.0325504493261
30
0
41
1
10
37.8381242891035
20
-1.16969987566498
30
0
41
1
10
37.900706119136
20
-1.21536978251268
30
0
41
1
10
38.0258193901003
20
-1.30637211643091
30
0
41
1
10
38.2132657614317
20
-1.442263115342
30
0
41
1
10
38.4000822249155
20
-1.57628457335599
30
0
41
1
10
38.6486505256122
20
-1.75329219934588
30
0
41
1
10
38.7726781829609
20
-1.84094782617376
30
0
41
1
10
38.9582992460668
20
-1.97121112789401
30
0
41
1
10
39.020088317183
20
-2.01444690977709
30
0
41
1
10
39.1436288089087
20
-2.10038125628432
30
0
41
1
10
39.2054080963641
20
-2.14304504935572
30
0
41
1
10
39.5142956058996
20
-2.35492840532629
30
0
41
1
10
39.7610945122168
20
-2.5201954816487
30
0
41
1
10
40.2547861873302
20
-2.84146228564197
30
0
41
1
10
40.5016114423073
20
-2.99754603437461
30
0
41
1
10
40.8103228325088
20
-3.18664871969037
30
0
41
1
10
40.8720734887816
20
-3.22416899913037
30
0
41
1
10
40.995717490653
20
-3.29846898859932
30
0
41
1
10
41.0576103157202
20
-3.33524972902316
30
0
41
1
10
41.2434484375468
20
-3.44454148236795
30
0
41
1
10
41.4916712107969
20
-3.58744836448756
30
0
41
1
10
41.7408902539096
20
-3.72456389131727
30
0
41
1
10
41.9282238793728
20
-3.82515894994035
30
0
41
1
10
41.9907517420959
20
-3.85832426670186
30
0
41
1
10
42.1158959226932
20
-3.92386755425088
30
0
41
1
10
42.1783826587684
20
-3.95617679247243
30
0
41
1
10
42.3655847370334
20
-4.05172704996343
30
0
41
1
10
42.4899743807208
20
-4.11365105142684
30
0
41
1
10
42.7383771851055
20
-4.23356763526624
30
0
41
1
10
42.8624954520937
20
-4.29147283500305
30
0
41
1
10
43.2344660601563
20
-4.45924690417277
30
0
41
1
10
43.4819362473234
20
-4.56317649774294
30
0
41
1
10
43.8526842985399
20
-4.70707053445037
30
0
41
1
10
43.9762123660064
20
-4.75301798293225
30
0
41
1
10
44.223161424099
20
-4.84086508414737
30
0
41
1
10
44.3465066545425
20
-4.88280645771758
30
0
41
1
10
44.7171898087399
20
-5.00203748833772
30
0
41
1
10
44.9648899231642
20
-5.0729389496432
30
0
41
1
10
45.4616989512094
20
-5.19731886750367
30
0
41
1
10
45.7107997656393
20
-5.25079886726459
30
0
41
1
10
45.9608283461056
20
-5.29520306968027
30
0
0
SPLINE
5
18D
100
AcDbEntity
8
1
62
256
6
ByLayer
370
18
48
1
60
0
100
AcDbSpline
70
4
71
3
72
28
73
24
40
0
40
0
40
0
40
0
40
0.125000000000007
40
0.125000000000007
40
0.250000000000014
40
0.250000000000014
40
0.375000000000021
40
0.375000000000021
40
0.437500000000015
40
0.437500000000015
40
0.50000000000001
40
0.50000000000001
40
0.624999999999997
40
0.624999999999997
40
0.6875
40
0.6875
40
0.750000000000003
40
0.750000000000003
40
0.812500000000006
40
0.812500000000006
40
0.875000000000009
40
0.875000000000009
40
1
40
1
40
1
40
1
41
1
10
45.9608283461056
20
-5.29520306968027
30
0
41
1
10
46.0176777609421
20
-5.30529932715172
30
0
41
1
10
46.0742979987467
20
-5.31816605307901
30
0
41
1
10
46.1869473968723
20
-5.34949429541666
30
0
41
1
10
46.2429769695442
20
-5.36795491146441
30
0
41
1
10
46.3542986158483
20
-5.41075876330262
30
0
41
1
10
46.4095908535764
20
-5.43509734200117
30
0
41
1
10
46.4918962251115
20
-5.47645910461034
30
0
41
1
10
46.5192954207979
20
-5.49109875566305
30
0
41
1
10
46.5734866289301
20
-5.52189523276135
30
0
41
1
10
46.6002618702564
20
-5.53803685571916
30
0
41
1
10
46.6796060608749
20
-5.58878096381665
30
0
41
1
10
46.7311967358242
20
-5.62568467997724
30
0
41
1
10
46.8064966359773
20
-5.68627686428727
30
0
41
1
10
46.8312516240335
20
-5.70735308506079
30
0
41
1
10
46.8800056757481
20
-5.75141266448537
30
0
41
1
10
46.9039869187505
20
-5.77438878440341
30
0
41
1
10
46.9509542515745
20
-5.82231577573097
30
0
41
1
10
46.9737908945027
20
-5.84711222355617
30
0
41
1
10
47.0178974494754
20
-5.89818048671881
30
0
41
1
10
47.0392059772085
20
-5.92449106699942
30
0
41
1
10
47.1008039901863
20
-6.00586022709632
30
0
41
1
10
47.1387813714039
20
-6.06333548619344
30
0
41
1
10
47.1732639114038
20
-6.12452190033309
30
0
0
SPLINE
5
18E
100
AcDbEntity
8
1
62
256
6
ByLayer
370
18
48
1
60
0
100
AcDbSpline
70
4
71
3
72
8
73
4
40
0
40
0
40
0
40
0
40
1
40
1
40
1
40
1
41
1
10
47.1732639114038
20
-6.12452190033295
30
0
41
1
10
47.2013837622976
20
-6.17441824910352
30
0
41
1
10
47.2294495393591
20
-6.22421246370595
30
0
41
1
10
47.2574644446012
20
-6.2739023550854
30
0
0
SPLINE
5
18F
100
AcDbEntity
8
1
62
256
6
ByLayer
370
18
48
1
60
0
100
AcDbSpline
70
4
71
3
72
8
73
4
40
0
40
0
40
0
40
0
40
1
40
1
40
1
40
1
41
1
10
60.0776801959381
20
1.12882451558053
30
0
41
1
10
60.1452993572698
20
1.06360424202495
30
0
41
1
10
60.2128988642721
20
0.998257182880081
30
0
41
1
10
60.2804968132435
20
0.932801870692856
30
0
0
SPLINE
5
190
100
AcDbEntity
8
1
62
256
6
ByLayer
370
18
48
1
60
0
100
AcDbSpline
70
4
71
3
72
8
73
4
40
0
40
0
40
0
40
0
40
1
40
1
40
1
40
1
41
1
10
57.9859139569594
20
3.07000980005267
30
0
41
1
10
58.0560626219544
20
3.00839163144835
30
0
41
1
10
58.1261713332899
20
2.94634698961482
30
0
41
1
10
58.1962274831129
20
2.88386353101421
30
0
0
SPLINE
5
191
100
AcDbEntity
8
1
62
256
6
ByLayer
370
18
48
1
60
0
100
AcDbSpline
70
4
71
3
72
8
73
4
40
0
40
0
40
0
40
0
40
1
40
1
40
1
40
1
41
1
10
55.8941620615686
20
4.75778987644318
30
0
41
1
10
55.9642730811037
20
4.70715804530394
30
0
41
1
10
56.0343646383267
20
4.65587918936964
30
0
41
1
10
56.1044340343438
20
4.60395168223897
30
0
0
SPLINE
5
192
100
AcDbEntity
8
1
62
256
6
ByLayer
370
18
48
1
60
0
100
AcDbSpline
70
4
71
3
72
8
73
4
40
0
40
0
40
0
40
0
40
1
40
1
40
1
40
1
41
1
10
53.802421559548
20
6.05286533230961
30
0
41
1
10
53.8725065266946
20
6.01734630914976
30
0
41
1
10
53.9425835422554
20
5.98099851177892
30
0
41
1
10
54.0126630138813
20
5.9438295457023
30
0
0
SPLINE
5
193
100
AcDbEntity
8
1
62
256
6
ByLayer
370
18
48
1
60
0
100
AcDbSpline
70
4
71
3
72
8
73
4
40
0
40
0
40
0
40
0
40
1
40
1
40
1
40
1
41
1
10
51.7106178364772
20
6.84851911022002
30
0
41
1
10
51.780713691229
20
6.8310842772039
30
0
41
1
10
51.8507957290194
20
6.8126968200454
30
0
41
1
10
51.9208784094805
20
6.79336262090331
30
0
0
SPLINE
5
194
100
AcDbEntity
8
1
62
256
6
ByLayer
370
18
48
1
60
0
100
AcDbSpline
70
4
71
3
72
33
73
29
40
0
40
0
40
0
40
0
40
0.114904334619341
40
0.114904334619341
40
0.146514894097223
40
0.146514894097223
40
0.178125453575106
40
0.178125453575106
40
0.24134657253087
40
0.304567691486635
40
0.304567691486635
40
0.336178250964517
40
0.336178250964517
40
0.3677888104424
40
0.3677888104424
40
0.43100992939816
40
0.43100992939816
40
0.49423104835392
40
0.49423104835392
40
0.62067328626544
40
0.62067328626544
40
0.6838944052212
40
0.6838944052212
40
0.74711552417696
40
0.74711552417696
40
0.87355776208848
40
0.87355776208848
40
1
40
1
40
1
40
1
41
1
10
40.075514296061
20
5.45000033825849
30
0
41
1
10
40.2998331858365
20
5.4500134987083
30
0
41
1
10
40.5241474696613
20
5.44229550388752
30
0
41
1
10
40.8103228325088
20
5.42248063856866
30
0
41
1
10
40.8720734887816
20
5.41761182437097
30
0
41
1
10
40.995717490653
20
5.40670229449367
30
0
41
1
10
41.0576103157203
20
5.40066243728839
30
0
41
1
10
41.2434484375468
20
5.38077806331472
30
0
41
1
10
41.491671210797
20
5.34956127619631
30
0
41
1
10
41.7408902539096
20
5.30889334018877
30
0
41
1
10
41.9282238793728
20
5.27481512492682
30
0
41
1
10
41.9907517420959
20
5.26285653661128
30
0
41
1
10
42.1158959226933
20
5.23774902635998
30
0
41
1
10
42.1783826587684
20
5.22462680929479
30
0
41
1
10
42.3655847370334
20
5.18356158594281
30
0
41
1
10
42.4899743807208
20
5.15388881595177
30
0
41
1
10
42.7383771851055
20
5.09017810054289
30
0
41
1
10
42.8624954520937
20
5.05619518965258
30
0
41
1
10
43.2344660601563
20
4.94789700785489
30
0
41
1
10
43.4819362473235
20
4.86723723374004
30
0
41
1
10
43.85268429854
20
4.73385044783862
30
0
41
1
10
43.9762123660064
20
4.68733406519829
30
0
41
1
10
44.2231614240991
20
4.59018285230746
30
0
41
1
10
44.3465066545425
20
4.53948747179763
30
0
41
1
10
44.71718980874
20
4.38179448742136
30
0
41
1
10
44.9648899231642
20
4.26900897697786
30
0
41
1
10
45.4616989512095
20
4.02821627373933
30
0
41
1
10
45.7107997656393
20
3.9001997432793
30
0
41
1
10
45.9608283461056
20
3.76451394776075
30
0
0
SPLINE
5
195
100
AcDbEntity
8
1
62
256
6
ByLayer
370
18
48
1
60
0
100
AcDbSpline
70
4
71
3
72
18
73
14
40
0
40
0
40
0
40
0
40
0.250000000000001
40
0.250000000000001
40
0.500000000000001
40
0.500000000000001
40
0.625000000000001
40
0.625000000000001
40
0.750000000000001
40
0.750000000000001
40
0.875
40
0.875
40
1
40
1
40
1
40
1
41
1
10
45.9608283461056
20
3.76451394776078
30
0
41
1
10
46.0456545560339
20
3.71848036330624
30
0
41
1
10
46.1299722976286
20
3.67762487106759
30
0
41
1
10
46.2971388128028
20
3.60604241848256
30
0
41
1
10
46.3799740718987
20
3.57528132101459
30
0
41
1
10
46.5028132789507
20
3.53751507781584
30
0
41
1
10
46.5436401712134
20
3.52631647474732
30
0
41
1
10
46.6236149643619
20
3.50734625280276
30
0
41
1
10
46.6628832661326
20
3.49952872938317
30
0
41
1
10
46.7399257694685
20
3.48757179215332
30
0
41
1
10
46.7777015334806
20
3.48343201783206
30
0
41
1
10
46.8516680183934
20
3.47939300535054
30
0
41
1
10
46.8878928869323
20
3.47959099517632
30
0
41
1
10
46.9230241990225
20
3.4817374795989
30
0
0
SPLINE
5
196
100
AcDbEntity
8
1
62
256
6
ByLayer
370
18
48
1
60
0
100
AcDbSpline
70
4
71
3
72
29
73
25
40
0
40
0
40
0
40
0
40
0.12500000000002
40
0.12500000000002
40
0.187499999999999
40
0.187499999999999
40
0.249999999999979
40
0.249999999999979
40
0.374999999999937
40
0.374999999999937
40
0.499999999999896
40
0.499999999999896
40
0.562499999999907
40
0.562499999999907
40
0.624999999999918
40
0.624999999999918
40
0.749999999999943
40
0.749999999999943
40
0.812499999999957
40
0.812499999999957
40
0.874999999999971
40
0.937499999999986
40
0.937499999999986
40
1
40
1
40
1
40
1
41
1
10
46.9230241990227
20
3.48173747959836
30
0
41
1
10
46.9382735606213
20
3.46783609468062
30
0
41
1
10
46.9539079398044
20
3.45457022512508
30
0
41
1
10
46.9779287941205
20
3.4356223262638
30
0
41
1
10
46.9860576956397
20
3.42944668167715
30
0
41
1
10
47.0023366611072
20
3.41754632153689
30
0
41
1
10
47.0104919072496
20
3.4118156994264
30
0
41
1
10
47.0350001177608
20
3.39527482643041
30
0
41
1
10
47.0513954083748
20
3.38511134008164
30
0
41
1
10
47.0842775859288
20
3.36656940715267
30
0
41
1
10
47.1007644855988
20
3.35818890988819
30
0
41
1
10
47.1255509862101
20
3.34711792978123
30
0
41
1
10
47.1338221838762
20
3.34368205169562
30
0
41
1
10
47.1501182710901
20
3.3374524569075
30
0
41
1
10
47.1581753489203
20
3.33464362592804
30
0
41
1
10
47.1820541450263
20
3.32718078151501
30
0
41
1
10
47.1975874809851
20
3.32347633996841
30
0
41
1
10
47.2201744550211
20
3.32020507273049
30
0
41
1
10
47.227565032487
20
3.3195063832035
30
0
41
1
10
47.2417779186978
20
3.31897719540254
30
0
41
1
10
47.2554954586427
20
3.3193039609763
30
0
41
1
10
47.2681406379505
20
3.3214859919587
30
0
41
1
10
47.2801847365126
20
3.3247122071497
30
0
41
1
10
47.2858983367555
20
3.32685234783295
30
0
41
1
10
47.2911704182733
20
3.32953875720273
30
0
0
SPLINE
5
197
100
AcDbEntity
8
1
62
256
6
ByLayer
370
18
48
1
60
0
100
AcDbSpline
70
4
71
3
72
10
73
6
40
0
40
0
40
0
40
0
40
0.5
40
0.5
40
1
40
1
40
1
40
1
41
1
10
47.2911704182733
20
3.32953875720321
30
0
41
1
10
47.4042059796382
20
3.38713646128602
30
0
41
1
10
47.516416109083
20
3.43642610939119
30
0
41
1
10
47.7395783496457
20
3.51813965814978
30
0
41
1
10
47.8502456309287
20
3.55049530869064
30
0
41
1
10
47.9602201372567
20
3.5748668685155
30
0
0
SPLINE
5
198
100
AcDbEntity
8
1
62
256
6
ByLayer
370
18
48
1
60
0
100
AcDbSpline
70
4
71
3
72
8
73
4
40
0
40
0
40
0
40
0
40
1
40
1
40
1
40
1
41
1
10
48.1705030280826
20
3.39624543993267
30
0
41
1
10
48.1003815421136
20
3.45624815629677
30
0
41
1
10
48.0302892646811
20
3.51579083497222
30
0
41
1
10
47.9602201372566
20
3.57486686851567
30
0
0
SPLINE
5
199
100
AcDbEntity
8
1
62
256
6
ByLayer
370
18
48
1
60
0
100
AcDbSpline
70
4
71
3
72
10
73
6
40
0
40
0
40
0
40
0
40
0.5
40
0.5
40
1
40
1
40
1
40
1
41
1
10
48.1705030280826
20
3.39624543993267
30
0
41
1
10
48.2835467199807
20
3.18634889053041
30
0
41
1
10
48.3973695440101
20
2.98100545764589
30
0
41
1
10
48.6269647697413
20
2.5800482535202
30
0
41
1
10
48.7424434845656
20
2.38490466708893
30
0
41
1
10
48.8589601803129
20
2.19542592833219
30
0
0
SPLINE
5
19A
100
AcDbEntity
8
1
62
256
6
ByLayer
370
18
48
1
60
0
100
AcDbSpline
70
4
71
3
72
34
73
30
40
0
40
0
40
0
40
0
40
0.124999999999983
40
0.124999999999983
40
0.187499999999991
40
0.187499999999991
40
0.249999999999999
40
0.249999999999999
40
0.375000000000054
40
0.375000000000054
40
0.437500000000061
40
0.437500000000061
40
0.500000000000068
40
0.500000000000068
40
0.625000000000082
40
0.625000000000082
40
0.687500000000067
40
0.687500000000067
40
0.750000000000052
40
0.750000000000052
40
0.812500000000038
40
0.812500000000038
40
0.843750000000031
40
0.843750000000031
40
0.875000000000025
40
0.875000000000025
40
0.937500000000013
40
0.937500000000013
40
1
40
1
40
1
40
1
41
1
10
48.8589601803129
20
2.19542592833216
30
0
41
1
10
48.8734433348217
20
2.17187351095586
30
0
41
1
10
48.8903327335086
20
2.1484442646665
30
0
41
1
10
48.9184047871675
20
2.11346109154363
30
0
41
1
10
48.9282294577433
20
2.10182664081182
30
0
41
1
10
48.9487633137077
20
2.07860668075011
30
0
41
1
10
48.9593768679566
20
2.06713254072844
30
0
41
1
10
48.9918460129277
20
2.03341841111168
30
0
41
1
10
49.0144567868679
20
2.01172613703994
30
0
41
1
10
49.0496947292766
20
1.98025127202936
30
0
41
1
10
49.0617041494581
20
1.96990515111142
30
0
41
1
10
49.0859884838131
20
1.94972734349912
30
0
41
1
10
49.0981786809432
20
1.93996335418993
30
0
41
1
10
49.1348768267969
20
1.91161984026059
30
0
41
1
10
49.1595111160793
20
1.89397399800819
30
0
41
1
10
49.1966740033648
20
1.86951994529841
30
0
41
1
10
49.2091673962813
20
1.86166759401223
30
0
41
1
10
49.233759379628
20
1.84698978551157
30
0
41
1
10
49.24587453544
20
1.84014828179241
30
0
41
1
10
49.2697025954931
20
1.82752975281971
30
0
41
1
10
49.2814159413379
20
1.82175153117683
30
0
41
1
10
49.2986339093169
20
1.81399139752045
30
0
41
1
10
49.3043349984822
20
1.81154858697971
30
0
41
1
10
49.3154801047497
20
1.80704636358723
30
0
41
1
10
49.3209255939103
20
1.8049850541735
30
0
41
1
10
49.3368622326212
20
1.79939710538605
30
0
41
1
10
49.3469570227917
20
1.79646059376074
30
0
41
1
10
49.3659209794251
20
1.79242023765661
30
0
41
1
10
49.3748009844914
20
1.79132937088485
30
0
41
1
10
49.3827008151541
20
1.791365165169
30
0
0
SPLINE
5
19B
100
AcDbEntity
8
1
62
256
6
ByLayer
370
18
48
1
60
0
100
AcDbSpline
70
4
71
3
72
10
73
6
40
0
40
0
40
0
40
0
40
0.5
40
0.5
40
1
40
1
40
1
40
1
41
1
10
49.3827008151576
20
1.79136516517636
30
0
41
1
10
49.4957419880034
20
1.7918773569026
30
0
41
1
10
49.6079401347311
20
1.78356658162343
30
0
41
1
10
49.8311296369561
20
1.74992595141668
30
0
41
1
10
49.941850443073
20
1.72469162880151
30
0
41
1
10
50.0518697374449
20
1.69127265693848
30
0
0
SPLINE
5
19C
100
AcDbEntity
8
1
62
256
6
ByLayer
370
18
48
1
60
0
100
AcDbSpline
70
4
71
3
72
8
73
4
40
0
40
0
40
0
40
0
40
1
40
1
40
1
40
1
41
1
10
50.2621763969263
20
1.49166000973929
30
0
41
1
10
50.1920457335124
20
1.55841986816654
30
0
41
1
10
50.1219461077176
20
1.62496000076166
30
0
41
1
10
50.0518697374449
20
1.69127265693851
30
0
0
SPLINE
5
19D
100
AcDbEntity
8
1
62
256
6
ByLayer
370
18
48
1
60
0
100
AcDbSpline
70
4
71
3
72
10
73
6
40
0
40
0
40
0
40
0
40
0.5
40
0.5
40
1
40
1
40
1
40
1
41
1
10
50.2621763969256
20
1.49166000973551
30
0
41
1
10
50.375222588881
20
1.3181989602862
30
0
41
1
10
50.489025624851
20
1.15141928703045
30
0
41
1
10
50.7185631782566
20
0.831816372690014
30
0
41
1
10
50.8340071753216
20
0.679348928224783
30
0
41
1
10
50.9504718885769
20
0.534574035820299
30
0
0
SPLINE
5
19E
100
AcDbEntity
8
1
62
256
6
ByLayer
370
18
48
1
60
0
100
AcDbSpline
70
4
71
3
72
34
73
30
40
0
40
0
40
0
40
0
40
0.124999999999973
40
0.124999999999973
40
0.187499999999977
40
0.187499999999977
40
0.249999999999981
40
0.249999999999981
40
0.375000000000027
40
0.375000000000027
40
0.437500000000029
40
0.437500000000029
40
0.500000000000031
40
0.500000000000031
40
0.625000000000035
40
0.625000000000035
40
0.687500000000038
40
0.687500000000038
40
0.75000000000004
40
0.75000000000004
40
0.812500000000042
40
0.812500000000042
40
0.843750000000023
40
0.843750000000023
40
0.875000000000004
40
0.875000000000004
40
0.937500000000002
40
0.937500000000002
40
1
40
1
40
1
40
1
41
1
10
50.9504718885769
20
0.534574035820327
30
0
41
1
10
50.9649729140153
20
0.516548109005953
30
0
41
1
10
50.9818841621471
20
0.49760850022497
30
0
41
1
10
51.009988171551
20
0.468190585998172
30
0
41
1
10
51.0198234305437
20
0.458211225263909
30
0
41
1
10
51.0403776348846
20
0.437922017834922
30
0
41
1
10
51.0509997002279
20
0.42770942099537
30
0
41
1
10
51.0834913864277
20
0.397179957661194
30
0
41
1
10
51.1061123357862
20
0.376839323969051
30
0
41
1
10
51.141355448299
20
0.3462983770292
30
0
41
1
10
51.1533653655868
20
0.336078412704126
30
0
41
1
10
51.1776438262863
20
0.315774238420317
30
0
41
1
10
51.1898298514972
20
0.305757849565964
30
0
41
1
10
51.2265129433404
20
0.276094429625061
30
0
41
1
10
51.2511338009524
20
0.256827757817177
30
0
41
1
10
51.2882768163825
20
0.228699643120166
30
0
41
1
10
51.3007631176061
20
0.219403247562269
30
0
41
1
10
51.3253408704263
20
0.201427999342485
30
0
41
1
10
51.337450272407
20
0.192733532921096
30
0
41
1
10
51.3612694340543
20
0.175966000883648
30
0
41
1
10
51.3729795655267
20
0.167892124288642
30
0
41
1
10
51.3901940598511
20
0.156306094207878
30
0
41
1
10
51.3958941785234
20
0.15251856783695
30
0
41
1
10
51.4070374088924
20
0.14521857514319
30
0
41
1
10
51.4124822293153
20
0.141704484765995
30
0
41
1
10
51.428417510063
20
0.13158849686954
30
0
41
1
10
51.4385122525176
20
0.125408603601244
30
0
41
1
10
51.4574771542538
20
0.114359002432877
30
0
41
1
10
51.466358656131
20
0.109488639575829
30
0
41
1
10
51.4742606246601
20
0.105542312802783
30
0
0
SPLINE
5
19F
100
AcDbEntity
8
1
62
256
6
ByLayer
370
18
48
1
60
0
100
AcDbSpline
70
4
71
3
72
10
73
6
40
0
40
0
40
0
40
0
40
0.5
40
0.5
40
1
40
1
40
1
40
1
41
1
10
51.4742606246634
20
0.105542312808495
30
0
41
1
10
51.587309222397
20
0.0490846458063743
30
0
41
1
10
51.6995347288674
20
-0.0156634019861599
30
0
41
1
10
51.9227638585434
20
-0.161555479244157
30
0
41
1
10
52.0334950887651
20
-0.242475013149885
30
0
41
1
10
52.1435197596985
20
-0.331068045027251
30
0
0
SPLINE
5
1A0
100
AcDbEntity
8
1
62
256
6
ByLayer
370
18
48
1
60
0
100
AcDbSpline
70
4
71
3
72
8
73
4
40
0
40
0
40
0
40
0
40
1
40
1
40
1
40
1
41
1
10
52.353818936454
20
-0.535406520642994
30
0
41
1
10
52.2837055235018
20
-0.467338747653486
30
0
41
1
10
52.2136073847852
20
-0.399224279594051
30
0
41
1
10
52.1435197596985
20
-0.331068045027251
30
0
0
SPLINE
5
1A1
100
AcDbEntity
8
1
62
256
6
ByLayer
370
18
48
1
60
0
100
AcDbSpline
70
4
71
3
72
10
73
6
40
0
40
0
40
0
40
0
40
0.5
40
0.5
40
1
40
1
40
1
40
1
41
1
10
52.353818936454
20
-0.535406520642994
30
0
41
1
10
52.4668769605437
20
-0.658210927722479
30
0
41
1
10
52.580677901301
20
-0.772797427882267
30
0
41
1
10
52.8101840553434
20
-0.985025961852386
30
0
41
1
10
52.9255910800919
20
-1.08249548099656
30
0
41
1
10
53.0420240653817
20
-1.17081428876128
30
0
0
SPLINE
5
1A2
100
AcDbEntity
8
1
62
256
6
ByLayer
370
18
48
1
60
0
100
AcDbSpline
70
4
71
3
72
34
73
30
40
0
40
0
40
0
40
0
40
0.124999999999984
40
0.124999999999984
40
0.187499999999992
40
0.187499999999992
40
0.25
40
0.25
40
0.375000000000056
40
0.375000000000056
40
0.437500000000063
40
0.437500000000063
40
0.500000000000071
40
0.500000000000071
40
0.625000000000086
40
0.625000000000086
40
0.687500000000072
40
0.687500000000072
40
0.750000000000057
40
0.750000000000057
40
0.812500000000043
40
0.812500000000043
40
0.843750000000036
40
0.843750000000036
40
0.87500000000003
40
0.87500000000003
40
0.937500000000015
40
0.937500000000015
40
1
40
1
40
1
40
1
41
1
10
53.0420240653817
20
-1.17081428876128
30
0
41
1
10
53.05652507088
20
-1.18181384798248
30
0
41
1
10
53.0734340273872
20
-1.19469244467126
30
0
41
1
10
53.1015328796105
20
-1.2160976324931
30
0
41
1
10
53.1113662008739
20
-1.22359060125527
30
0
41
1
10
53.131917195786
20
-1.23925466302268
30
0
41
1
10
53.142538885147
20
-1.24735253281594
30
0
41
1
10
53.1750305926555
20
-1.27213854061117
30
0
41
1
10
53.1976544190928
20
-1.28941387033771
30
0
41
1
10
53.2329086678307
20
-1.31643181253227
30
0
41
1
10
53.2449236531396
20
-1.32565620342834
30
0
41
1
10
53.2692136490026
20
-1.34435602266922
30
0
41
1
10
53.2814060450283
20
-1.35376770970032
30
0
41
1
10
53.3181081614517
20
-1.38220628399114
30
0
41
1
10
53.3427414215317
20
-1.40143241763164
30
0
41
1
10
53.3798968958334
20
-1.43080861720608
30
0
41
1
10
53.3923861716001
20
-1.44074744864258
30
0
41
1
10
53.416964063648
20
-1.46047096212175
30
0
41
1
10
53.4290716516841
20
-1.4702697176063
30
0
41
1
10
53.4528833728609
20
-1.48974483932002
30
0
41
1
10
53.4645879478986
20
-1.4994213461797
30
0
41
1
10
53.4817916458153
20
-1.51383955842638
30
0
41
1
10
53.4874877379208
20
-1.51864709896748
30
0
41
1
10
53.4986237500197
20
-1.52812053004377
30
0
41
1
10
53.5040646765685
20
-1.53278693641599
30
0
41
1
10
53.5199876073504
20
-1.54656601432811
30
0
41
1
10
53.530073212834
20
-1.55546089363796
30
0
41
1
10
53.5490191626481
20
-1.572573488567
30
0
41
1
10
53.5578932076771
20
-1.58080742435161
30
0
41
1
10
53.5657897199194
20
-1.58839882384456
30
0
0
SPLINE
5
1A3
100
AcDbEntity
8
1
62
256
6
ByLayer
370
18
48
1
60
0
100
AcDbSpline
70
4
71
3
72
8
73
4
40
0
40
0
40
0
40
0
40
1
40
1
40
1
40
1
41
1
10
54.4454750002271
20
-2.51863463536515
30
0
41
1
10
54.375371856022
20
-2.45475040867623
30
0
41
1
10
54.305264873506
20
-2.39055887787688
30
0
41
1
10
54.2351527940969
20
-2.32606218493734
30
0
0
SPLINE
5
1A4
100
AcDbEntity
8
1
62
256
6
ByLayer
370
18
48
1
60
0
100
AcDbSpline
70
4
71
3
72
8
73
4
40
0
40
0
40
0
40
0
40
1
40
1
40
1
40
1
41
1
10
56.5371318094082
20
-4.29511608674301
30
0
41
1
10
56.4670297641446
20
-4.24063541411553
30
0
41
1
10
56.3969600169653
20
-4.18555987847418
30
0
41
1
10
56.3268426559865
20
-4.12995730200208
30
0
0
SPLINE
5
1A5
100
AcDbEntity
8
1
62
256
6
ByLayer
370
18
48
1
60
0
100
AcDbSpline
70
4
71
3
72
8
73
4
40
0
40
0
40
0
40
0
40
1
40
1
40
1
40
1
41
1
10
58.628805790109
20
-5.71770511915679
30
0
41
1
10
58.5586743253927
20
-5.67735023174743
30
0
41
1
10
58.4885866747325
20
-5.63619496628519
30
0
41
1
10
58.4185366364017
20
-5.59424232375645
30
0
0
SPLINE
5
1A6
100
AcDbEntity
8
1
62
256
6
ByLayer
370
18
48
1
60
0
100
AcDbSpline
70
4
71
3
72
26
73
22
40
0
40
0
40
0
40
0
40
0.125000000000001
40
0.125000000000001
40
0.250000000000001
40
0.250000000000001
40
0.312500000000001
40
0.312500000000001
40
0.343750000000002
40
0.343750000000002
40
0.375000000000002
40
0.375000000000002
40
0.500000000000001
40
0.500000000000001
40
0.625000000000001
40
0.625000000000001
40
0.750000000000001
40
0.750000000000001
40
0.875
40
0.875
40
1
40
1
40
1
40
1
41
1
10
60.2892785703354
20
0.924503952157892
30
0
41
1
10
60.2784221438251
20
1.16762275673261
30
0
41
1
10
60.2675818776777
20
1.40769136284072
30
0
41
1
10
60.2457807327652
20
1.88184979203285
30
0
41
1
10
60.2348018979316
20
2.115940036903
30
0
41
1
10
60.2182086564987
20
2.46248506094011
30
0
41
1
10
60.2126641036338
20
2.57723283620561
30
0
41
1
10
60.2043514795167
20
2.74816994873712
30
0
41
1
10
60.2015788109797
20
2.805007283571
30
0
41
1
10
60.1960469024495
20
2.91802824102356
30
0
41
1
10
60.1932940384451
20
2.97408150642119
30
0
41
1
10
60.1795878018119
20
3.25208967269742
30
0
41
1
10
60.1688132565316
20
3.46728193962366
30
0
41
1
10
60.1472858780563
20
3.88376369313238
30
0
41
1
10
60.1365614719931
20
4.08504864817769
30
0
41
1
10
60.1147878794428
20
4.4739502933306
30
0
41
1
10
60.1037166957939
20
4.66160895004734
30
0
41
1
10
60.0814057383162
20
5.02230957034365
30
0
41
1
10
60.0703465968269
20
5.19274155841822
30
0
41
1
10
60.0485019635079
20
5.51393573944455
30
0
41
1
10
60.0377187860329
20
5.6646937730458
30
0
41
1
10
60.0268319538538
20
5.80563232256421
30
0
0
SPLINE
5
1A7
100
AcDbEntity
8
1
62
256
6
ByLayer
370
18
48
1
60
0
100
AcDbSpline
70
4
71
3
72
8
73
4
40
0
40
0
40
0
40
0
40
1
40
1
40
1
40
1
41
1
10
60.2892785703355
20
0.924503952157892
30
0
41
1
10
60.2863511877341
20
0.927269352122494
30
0
41
1
10
60.2834239358327
20
0.930035325441963
30
0
41
1
10
60.2804968132435
20
0.932801870692856
30
0
0
SPLINE
5
1A8
100
AcDbEntity
8
1
62
256
6
ByLayer
370
18
48
1
60
0
100
AcDbSpline
70
4
71
3
72
114
73
110
40
0
40
0
40
0
40
0
40
0.0624999999999882
40
0.0624999999999882
40
0.124999999999976
40
0.124999999999976
40
0.15624999999997
40
0.15624999999997
40
0.187499999999965
40
0.187499999999965
40
0.195312499999963
40
0.195312499999963
40
0.203124999999962
40
0.203124999999962
40
0.218749999999961
40
0.218749999999961
40
0.249999999999961
40
0.249999999999961
40
0.28124999999996
40
0.28124999999996
40
0.312499999999959
40
0.312499999999959
40
0.328124999999959
40
0.328124999999959
40
0.343749999999958
40
0.343749999999958
40
0.374999999999957
40
0.374999999999957
40
0.406249999999957
40
0.406249999999957
40
0.421874999999956
40
0.421874999999956
40
0.429687499999957
40
0.429687499999957
40
0.437499999999957
40
0.453124999999959
40
0.453124999999959
40
0.468749999999961
40
0.468749999999961
40
0.476562499999963
40
0.476562499999963
40
0.484374999999965
40
0.484374999999965
40
0.499999999999968
40
0.499999999999968
40
0.515624999999971
40
0.515624999999971
40
0.523437499999973
40
0.523437499999973
40
0.531249999999974
40
0.531249999999974
40
0.546874999999976
40
0.546874999999976
40
0.550781249999977
40
0.550781249999977
40
0.554687499999978
40
0.562499999999979
40
0.562499999999979
40
0.578124999999981
40
0.578124999999981
40
0.582031249999981
40
0.582031249999981
40
0.585937499999982
40
0.593749999999983
40
0.593749999999983
40
0.601562499999985
40
0.601562499999985
40
0.605468749999985
40
0.605468749999985
40
0.609374999999986
40
0.609374999999986
40
0.624999999999989
40
0.624999999999989
40
0.63281249999999
40
0.63281249999999
40
0.640624999999991
40
0.648437499999992
40
0.648437499999992
40
0.656249999999993
40
0.656249999999993
40
0.671874999999995
40
0.671874999999995
40
0.687499999999996
40
0.687499999999996
40
0.703124999999998
40
0.703124999999998
40
0.718749999999999
40
0.718749999999999
40
0.7265625
40
0.7265625
40
0.734375
40
0.734375
40
0.75
40
0.75
40
0.78125
40
0.78125
40
0.8125
40
0.8125
40
0.84375
40
0.84375
40
0.875
40
0.875
40
0.906249999999999
40
0.906249999999999
40
0.921874999999999
40
0.921874999999999
40
0.937499999999999
40
0.937499999999999
40
1
40
1
40
1
40
1
41
1
10
38.0136310002458
20
-4.3434224142708
30
0
41
1
10
37.7512826094249
20
-4.21938032297686
30
0
41
1
10
37.4844881622109
20
-4.09161104973603
30
0
41
1
10
36.9370968071601
20
-3.83881081269729
30
0
41
1
10
36.656529330653
20
-3.71375408304547
30
0
41
1
10
36.2216986044968
20
-3.5367096124962
30
0
41
1
10
36.0744619101391
20
-3.47941193473201
30
0
41
1
10
35.774588774028
20
-3.37002118070609
30
0
41
1
10
35.6219345116348
20
-3.31795242328826
30
0
41
1
10
35.4271545540902
20
-3.25737659571331
30
0
41
1
10
35.3880034015734
20
-3.2454886699411
30
0
41
1
10
35.3096275361684
20
-3.22229027187129
30
0
41
1
10
35.2703620466129
20
-3.21096693476556
30
0
41
1
10
35.1523288889592
20
-3.17785569881838
30
0
41
1
10
35.0733307274882
20
-3.15690155759083
30
0
41
1
10
34.8352642408355
20
-3.09809449386685
30
0
41
1
10
34.6751718403006
20
-3.06411859094371
30
0
41
1
10
34.3530005458948
20
-3.00392396406201
30
0
41
1
10
34.1909862053418
20
-2.9774300073216
30
0
41
1
10
33.8649587195899
20
-2.93251036285969
30
0
41
1
10
33.7009406988674
20
-2.91410534357502
30
0
41
1
10
33.4532498366639
20
-2.89339226578795
30
0
41
1
10
33.3704090767369
20
-2.88763571681005
30
0
41
1
10
33.2041259618146
20
-2.87863409144498
30
0
41
1
10
33.1205627544735
20
-2.87537891099214
30
0
41
1
10
32.8705195469053
20
-2.86970192874898
30
0
41
1
10
32.7043157561308
20
-2.87128094984794
30
0
41
1
10
32.3730580321156
20
-2.88695382663559
30
0
41
1
10
32.2079943840347
20
-2.90094504365669
30
0
41
1
10
31.9613896421798
20
-2.93253969046472
30
0
41
1
10
31.8793545570294
20
-2.9448523823896
30
0
41
1
10
31.756589014549
20
-2.96635155126043
30
0
41
1
10
31.7156704134319
20
-2.97403477818276
30
0
41
1
10
31.634367944325
20
-2.99040914616018
30
0
41
1
10
31.513103925474
20
-3.01651824888654
30
0
41
1
10
31.3939538149709
20
-3.04732304086963
30
0
41
1
10
31.2372155828174
20
-3.09301322162634
30
0
41
1
10
31.1599087409053
20
-3.11816317399155
30
0
41
1
10
31.0458013220772
20
-3.15979617286715
30
0
41
1
10
31.0080740820049
20
-3.1743240952903
30
0
41
1
10
30.9332877371285
20
-3.20476518130101
30
0
41
1
10
30.8961392069817
20
-3.22072008701611
30
0
41
1
10
30.7866252159546
20
-3.2704618337653
30
0
41
1
10
30.7161731483993
20
-3.30612740450493
30
0
41
1
10
30.5811425597241
20
-3.38294754461179
30
0
41
1
10
30.5165618652855
20
-3.42410323575362
30
0
41
1
10
30.4250765227868
20
-3.49063717420168
30
0
41
1
10
30.3953821468561
20
-3.51371038253418
30
0
41
1
10
30.3388603988997
20
-3.56087901804833
30
0
41
1
10
30.311954906161
20
-3.58502021538536
30
0
41
1
10
30.2355079651336
20
-3.65911936296297
30
0
41
1
10
30.1902014132658
20
-3.710741108993
30
0
41
1
10
30.1415820101757
20
-3.77812153240436
30
0
41
1
10
30.1322391771431
20
-3.79178197686721
30
0
41
1
10
30.1145474151121
20
-3.81914332534401
30
0
41
1
10
30.0894804411949
20
-3.86026002628884
30
0
41
1
10
30.068748277628
20
-3.9015581327277
30
0
41
1
10
30.0329360689051
20
-3.98429741633433
30
0
41
1
10
30.0166169050073
20
-4.03965215103733
30
0
41
1
10
30.0053392637455
20
-4.10877187963925
30
0
41
1
10
30.0035469899813
20
-4.12256869322175
30
0
41
1
10
30.000881962463
20
-4.149883051687
30
0
41
1
10
29.9982476431002
20
-4.19053182294576
30
0
41
1
10
29.999506165772
20
-4.23022377367312
30
0
41
1
10
30.0043443768108
20
-4.28231275164697
30
0
41
1
10
30.0083448660958
20
-4.30794038335105
30
0
41
1
10
30.0165389781474
20
-4.34576636100775
30
0
41
1
10
30.0196355299682
20
-4.35827243696079
30
0
41
1
10
30.0265307657496
20
-4.38308083559286
30
0
41
1
10
30.0303267014708
20
-4.39536841547138
30
0
41
1
10
30.0508382987415
20
-4.45589587465017
30
0
41
1
10
30.0721983464995
20
-4.50174765789649
30
0
41
1
10
30.1100777071531
20
-4.56724897992379
30
0
41
1
10
30.1236452730977
20
-4.58854163155104
30
0
41
1
10
30.1524380827845
20
-4.63012003543309
30
0
41
1
10
30.1829585570502
20
-4.6706781879451
30
0
41
1
10
30.216912203203
20
-4.70926194542014
30
0
41
1
10
30.2525488124654
20
-4.74689370271579
30
0
41
1
10
30.271254821407
20
-4.76527413008978
30
0
41
1
10
30.3293892233401
20
-4.81865755115658
30
0
41
1
10
30.3708884551424
20
-4.85192955519159
30
0
41
1
10
30.4580680355133
20
-4.91466037512581
30
0
41
1
10
30.5037417275022
20
-4.94411881980523
30
0
41
1
10
30.5983869492094
20
-4.99976661368922
30
0
41
1
10
30.6473624096802
20
-5.02595348525867
30
0
41
1
10
30.7480010419944
20
-5.07543512231533
30
0
41
1
10
30.7996664347818
20
-5.09872848163317
30
0
41
1
10
30.8788416345531
20
-5.13170425092446
30
0
41
1
10
30.90551393951
20
-5.1423681015774
30
0
41
1
10
30.9593735067809
20
-5.16306697347073
30
0
41
1
10
30.9865845814893
20
-5.17311022331404
30
0
41
1
10
31.0687264692691
20
-5.20226097462117
30
0
41
1
10
31.1241478754538
20
-5.22038972165737
30
0
41
1
10
31.292024044258
20
-5.27121815732366
30
0
41
1
10
31.4060724923881
20
-5.30037942967499
30
0
41
1
10
31.6370963826622
20
-5.35050039926676
30
0
41
1
10
31.7540811123193
20
-5.37145009999637
30
0
41
1
10
31.9901843720432
20
-5.40584296715724
30
0
41
1
10
32.1093055501549
20
-5.41928200373758
30
0
41
1
10
32.3491344898976
20
-5.43904760012185
30
0
41
1
10
32.4698441740748
20
-5.44537168314423
30
0
41
1
10
32.7124875787187
20
-5.45109023708238
30
0
41
1
10
32.8344222781414
20
-5.450483179234
30
0
41
1
10
33.0180767106734
20
-5.44439721711316
30
0
41
1
10
33.0794501789885
20
-5.44150228211984
30
0
41
1
10
33.2021294992221
20
-5.43399985119694
30
0
41
1
10
33.2634667331701
20
-5.42939208649355
30
0
41
1
10
33.5701156702092
20
-5.4020869811869
30
0
41
1
10
33.8152523768083
20
-5.36662347004173
30
0
41
1
10
34.0603915061219
20
-5.31741887401912
30
0
0
SPLINE
5
1A9
100
AcDbEntity
8
SK1
62
256
6
ByLayer
370
18
48
1
60
0
100
AcDbSpline
70
4
71
3
72
25
73
21
40
0
40
0
40
0
40
0
40
0.0624655675253685
40
0.0624655675253685
40
0.124931135050737
40
0.124931135050737
40
0.249862270101474
40
0.249862270101474
40
0.499724540202948
40
0.499724540202948
40
0.624655675253685
40
0.624655675253685
40
0.687121242779054
40
0.687121242779054
40
0.749586810304422
40
0.749586810304422
40
0.874517945355159
40
0.874517945355159
40
0.999449080405897
40
1
40
1
40
1
40
1
41
1
10
-27.4
20
4.49999999999997
30
0
41
1
10
-27.4311367448717
20
4.49999999999997
30
0
41
1
10
-27.4618017005308
20
4.49999999999997
30
0
41
1
10
-27.5219584252964
20
4.49999999999997
30
0
41
1
10
-27.5514718932726
20
4.49999999999997
30
0
41
1
10
-27.6381875615391
20
4.49999999999997
30
0
41
1
10
-27.6935687995339
20
4.49999999999997
30
0
41
1
10
-27.8512551921764
20
4.49999999999997
30
0
41
1
10
-27.9451701677745
20
4.49999999999997
30
0
41
1
10
-28.0634067907065
20
4.49999999999997
30
0
41
1
10
-28.0990295553438
20
4.49999999999997
30
0
41
1
10
-28.1459052548477
20
4.49999999999997
30
0
41
1
10
-28.1604364231714
20
4.49999999999997
30
0
41
1
10
-28.1871540601511
20
4.49999999999997
30
0
41
1
10
-28.1993515291616
20
4.49999999999997
30
0
41
1
10
-28.2319216927846
20
4.49999999999997
30
0
41
1
10
-28.2483816914388
20
4.49999999999997
30
0
41
1
10
-28.2704055848042
20
4.49999999999997
30
0
41
1
10
-28.2759930206869
20
4.49999999999997
30
0
41
1
10
-28.2760009944789
20
4.49999999999997
30
0
41
1
10
-28.2759994558552
20
4.49999999999997
30
0
0
SPLINE
5
1AA
100
AcDbEntity
8
SK1
62
256
6
ByLayer
370
18
48
1
60
0
100
AcDbSpline
70
4
71
3
72
25
73
21
40
0
40
0
40
0
40
0
40
0.0001597169753177
40
0.125139752353403
40
0.125139752353403
40
0.250119787731489
40
0.250119787731489
40
0.312609805420531
40
0.312609805420531
40
0.375099823109574
40
0.375099823109574
40
0.500079858487659
40
0.500079858487659
40
0.750039929243829
40
0.750039929243829
40
0.875019964621915
40
0.875019964621915
40
0.937509982310957
40
0.937509982310957
40
1
40
1
40
1
40
1
41
1
10
-28.2760004890694
20
-4.5
30
0
41
1
10
-28.2759994889694
20
-4.5
30
0
41
1
10
-28.2759756800257
20
-4.5
30
0
41
1
10
-28.2704055848042
20
-4.50000000000003
30
0
41
1
10
-28.2483816914388
20
-4.50000000000003
30
0
41
1
10
-28.2319216927846
20
-4.50000000000003
30
0
41
1
10
-28.1993515291616
20
-4.50000000000003
30
0
41
1
10
-28.1871540601511
20
-4.50000000000003
30
0
41
1
10
-28.1604364231714
20
-4.50000000000003
30
0
41
1
10
-28.1459052548477
20
-4.50000000000003
30
0
41
1
10
-28.0990295553438
20
-4.50000000000003
30
0
41
1
10
-28.0634067907065
20
-4.50000000000003
30
0
41
1
10
-27.9451701677745
20
-4.50000000000003
30
0
41
1
10
-27.8512551921764
20
-4.50000000000003
30
0
41
1
10
-27.6935687995339
20
-4.50000000000003
30
0
41
1
10
-27.6381875615391
20
-4.50000000000003
30
0
41
1
10
-27.5514718932726
20
-4.50000000000003
30
0
41
1
10
-27.5219584252964
20
-4.50000000000003
30
0
41
1
10
-27.4618017005308
20
-4.50000000000003
30
0
41
1
10
-27.4311367448717
20
-4.50000000000003
30
0
41
1
10
-27.4
20
-4.50000000000003
30
0
0
SPLINE
5
1AB
100
AcDbEntity
8
SK1
62
256
6
ByLayer
370
18
48
1
60
0
100
AcDbSpline
70
4
71
3
72
40
73
36
40
0
40
0
40
0
40
0
40
0.03125
40
0.03125
40
0.0625000000000001
40
0.0625000000000001
40
0.125
40
0.125
40
0.25
40
0.25
40
0.375
40
0.375
40
0.390625
40
0.390625
40
0.40625
40
0.4375
40
0.4375
40
0.5
40
0.5625
40
0.5625
40
0.625
40
0.625
40
0.65625
40
0.65625
40
0.6875
40
0.6875
40
0.75
40
0.75
40
0.875
40
0.875
40
0.9375
40
0.9375
40
0.96875
40
0.96875
40
1
40
1
40
1
40
1
41
1
10
-27.4
20
-2.94132215168628
30
0
41
1
10
-27.4310382364686
20
-2.88459203147164
30
0
41
1
10
-27.46163023449
20
-2.82752854205751
30
0
41
1
10
-27.5218393191433
20
-2.7126732408905
30
0
41
1
10
-27.5514830258125
20
-2.65482661005109
30
0
41
1
10
-27.638504003197
20
-2.48072005285042
30
0
41
1
10
-27.6940367913292
20
-2.36378607915756
30
0
41
1
10
-27.8520258693282
20
-2.0099899339215
30
0
41
1
10
-27.9459329815045
20
-1.77015444343107
30
0
41
1
10
-28.1032897815964
20
-1.27989067330532
30
0
41
1
10
-28.1667223108241
20
-1.02945642604908
30
0
41
1
10
-28.2156834521506
20
-0.739927242821864
30
0
41
1
10
-28.2208128339499
20
-0.707635001929077
30
0
41
1
10
-28.2303862544563
20
-0.643134124334267
30
0
41
1
10
-28.2437382713465
20
-0.546398448332383
30
0
41
1
10
-28.2540405608728
20
-0.449710087349075
30
0
41
1
10
-28.2705309292409
20
-0.256397195335723
30
0
41
1
10
-28.2815315569234
20
0.0011828767426323
30
0
41
1
10
-28.2704055848042
20
0.25841966551863
30
0
41
1
10
-28.2483816914388
20
0.515487378411905
30
0
41
1
10
-28.2319216927846
20
0.643936711014419
30
0
41
1
10
-28.1993515291616
20
0.836488453027926
30
0
41
1
10
-28.1871540601511
20
0.90077279807744
30
0
41
1
10
-28.1604364231714
20
1.02825663422877
30
0
41
1
10
-28.1459052548477
20
1.09155259531275
30
0
41
1
10
-28.0990295553438
20
1.28019194544112
30
0
41
1
10
-28.0634067907065
20
1.40428830813863
30
0
41
1
10
-27.9451701677745
20
1.77225293124303
30
0
41
1
10
-27.8512551921764
20
2.01182229371875
30
0
41
1
10
-27.6935687995339
20
2.36478038881003
30
0
41
1
10
-27.6381875615391
20
2.48136071057465
30
0
41
1
10
-27.5514718932726
20
2.65484510259643
30
0
41
1
10
-27.5219584252964
20
2.71244185932292
30
0
41
1
10
-27.4618017005308
20
2.8272056058191
30
0
41
1
10
-27.4311367448717
20
2.88441198279
30
0
41
1
10
-27.4
20
2.94132215168617
30
0
0
SPLINE
5
1AC
100
AcDbEntity
8
1
62
256
6
ByLayer
370
18
48
1
60
0
100
AcDbSpline
70
4
71
1
72
4
73
2
40
0
40
0
40
1
40
1
41
1
10
49.6078593776268
20
7.06739742143788
30
0
41
1
10
49.3502710370824
20
6.62277079490647
30
0
0
SPLINE
5
1AD
100
AcDbEntity
8
1
62
256
6
ByLayer
370
18
48
1
60
0
100
AcDbSpline
70
4
71
1
72
4
73
2
40
0
40
0
40
1
40
1
41
1
10
56.1349353722217
20
6.57675309535168
30
0
41
1
10
55.8504413690657
20
7.06745437618809
30
0
0
SPLINE
5
1AE
100
AcDbEntity
8
1
62
256
6
ByLayer
370
18
48
1
60
0
100
AcDbSpline
70
4
71
2
72
6
73
3
40
0
40
0
40
0
40
1
40
1
40
1
41
1
10
63.3293901589413
20
-6.24157299050353
30
0
41
1
10
63.4188530721012
20
-6.08742156527057
30
0
41
1
10
63.5083703828508
20
-5.933289723135
30
0
0
SPLINE
5
1AF
100
AcDbEntity
8
1
62
256
6
ByLayer
370
18
48
1
60
0
100
AcDbSpline
70
4
71
3
72
8
73
4
40
0
40
0
40
0
40
0
40
1
40
1
40
1
40
1
41
1
10
47.5171593952378
20
-5.91594737891015
30
0
41
1
10
47.5352751573155
20
-5.89090918266476
30
0
41
1
10
47.5541553804761
20
-5.86996158110423
30
0
41
1
10
47.5749259640227
20
-5.85393918902432
30
0
0
SPLINE
5
1B0
100
AcDbEntity
8
1
62
256
6
ByLayer
370
18
48
1
60
0
100
AcDbSpline
70
4
71
1
72
4
73
2
40
0
40
0
40
1
40
1
41
1
10
66
20
5.20588127378326
30
0
41
1
10
65.5745359434382
20
5.63129539285566
30
0
0
SPLINE
5
1B1
100
AcDbEntity
8
1
62
256
6
ByLayer
370
18
48
1
60
0
100
AcDbSpline
70
4
71
2
72
6
73
3
40
0
40
0
40
0
40
1
40
1
40
1
41
1
10
47.2954394130419
20
-6.29982146524421
30
0
41
1
10
47.4029889808359
20
-6.11452817480853
30
0
41
1
10
47.5105743124294
20
-5.92938553884261
30
0
0
SPLINE
5
1B2
100
AcDbEntity
8
1
62
256
6
ByLayer
370
18
48
1
60
0
100
AcDbSpline
70
4
71
3
72
12
73
8
40
0
40
0
40
0
40
0
40
0.232106284461
40
0.485509820634543
40
0.617954007400116
40
0.749987072188101
40
1
40
1
40
1
40
1
41
1
10
50.9511562663161
20
5.93438419866652
30
0
41
1
10
50.9335324399689
20
5.90120995520905
30
0
41
1
10
50.8821913046909
20
5.84727577513877
30
0
41
1
10
50.7627492820022
20
5.80323950518334
30
0
41
1
10
50.6568281432175
20
5.8148578756805
30
0
41
1
10
50.5573380101243
20
5.85751393702736
30
0
41
1
10
50.5067398332693
20
5.91185409636864
30
0
41
1
10
50.481714214476
20
5.95829872622252
30
0
0
SPLINE
5
1B3
100
AcDbEntity
8
1
62
256
6
ByLayer
370
18
48
1
60
0
100
AcDbSpline
70
4
71
1
72
4
73
2
40
0
40
0
40
1
40
1
41
1
10
62.325213953587
20
-6.51053364117857
30
0
41
1
10
63.3240157481252
20
-6.25056844285308
30
0
0
SPLINE
5
1B4
100
AcDbEntity
8
1
62
256
6
ByLayer
370
18
48
1
60
0
100
AcDbSpline
70
4
71
2
72
6
73
3
40
0
40
0
40
0
40
1
40
1
40
1
41
1
10
61.9505314569542
20
-5.9333204997418
30
0
41
1
10
62.1158748319456
20
-6.21830106953743
30
0
41
1
10
62.2810884175635
20
-6.50337030967503
30
0
0
SPLINE
5
1B5
100
AcDbEntity
8
1
62
256
6
ByLayer
370
18
48
1
60
0
100
AcDbSpline
70
4
71
3
72
14
73
10
40
0
40
0
40
0
40
0
40
0.256694501011193
40
0.450779112106378
40
0.584366624528626
40
0.618606766523586
40
0.699558531916313
40
0.829070115098521
40
1
40
1
40
1
40
1
41
1
10
61.5083618708468
20
-5.93332169883072
30
0
41
1
10
61.5160722900345
20
-5.91295172193412
30
0
41
1
10
61.5480794768263
20
-5.8793321660547
30
0
41
1
10
61.6227894270961
20
-5.83046248161935
30
0
41
1
10
61.6972101072491
20
-5.81305236383412
30
0
41
1
10
61.7627252318326
20
-5.81486211425812
30
0
41
1
10
61.8209829783962
20
-5.82612642014516
30
0
41
1
10
61.9029957711065
20
-5.86920612185941
30
0
41
1
10
61.9433687369254
20
-5.9151952154983
30
0
41
1
10
61.959893742958
20
-5.94688434068155
30
0
0
SPLINE
5
1B6
100
AcDbEntity
8
1
62
256
6
ByLayer
370
18
48
1
60
0
100
AcDbSpline
70
4
71
2
72
6
73
3
40
0
40
0
40
0
40
1
40
1
40
1
41
1
10
51.6080242562459
20
7.06771677708244
30
0
41
1
10
51.2795606471099
20
6.50047180504689
30
0
41
1
10
50.9506218056289
20
5.93347343480917
30
0
0
SPLINE
5
1B7
100
AcDbEntity
8
1
62
256
6
ByLayer
370
18
48
1
60
0
100
AcDbSpline
70
4
71
2
72
6
73
3
40
0
40
0
40
0
40
1
40
1
40
1
41
1
10
52.5107246687595
20
5.92906994837949
30
0
41
1
10
52.1822307656003
20
6.49450983032548
30
0
41
1
10
51.854074138384
20
7.06073025694212
30
0
0
SPLINE
5
1B8
100
AcDbEntity
8
1
62
256
6
ByLayer
370
18
48
1
60
0
100
AcDbSpline
70
4
71
2
72
6
73
3
40
0
40
0
40
0
40
1
40
1
40
1
41
1
10
60.9707504463224
20
-6.85990581002864
30
0
41
1
10
61.2393715021498
20
-6.39649632727887
30
0
41
1
10
61.5083682316601
20
-5.93331076236186
30
0
0
SPLINE
5
1B9
100
AcDbEntity
8
1
62
256
6
ByLayer
370
18
48
1
60
0
100
AcDbSpline
70
4
71
3
72
11
73
7
40
0
40
0
40
0
40
0
40
0.229579266620314
40
0.476228412534186
40
0.73566904381826
40
1
40
1
40
1
40
1
41
1
10
52.9504604457208
20
5.93319595463882
30
0
41
1
10
52.9351029431825
20
5.90340958518595
30
0
41
1
10
52.8881123810958
20
5.85494823703087
30
0
41
1
10
52.7489893332066
20
5.79828723176664
30
0
41
1
10
52.5880845587308
20
5.83912130544823
30
0
41
1
10
52.5299182593812
20
5.89459284832122
30
0
41
1
10
52.5083855313757
20
5.93325358181264
30
0
0
SPLINE
5
1BA
100
AcDbEntity
8
1
62
256
6
ByLayer
370
18
48
1
60
0
100
AcDbSpline
70
4
71
1
72
4
73
2
40
0
40
0
40
1
40
1
41
1
10
60.5723301185205
20
-6.97302340094149
30
0
41
1
10
60.9574097679263
20
-6.87268149722803
30
0
0
SPLINE
5
1BB
100
AcDbEntity
8
1
62
256
6
ByLayer
370
18
48
1
60
0
100
AcDbSpline
70
4
71
2
72
6
73
3
40
0
40
0
40
0
40
1
40
1
40
1
41
1
10
59.9504791370187
20
-5.93318882145803
30
0
41
1
10
60.2481263005565
20
-6.44621649183151
30
0
41
1
10
60.5453872627948
20
-6.95949933781645
30
0
0
SPLINE
5
1BC
100
AcDbEntity
8
1
62
256
6
ByLayer
370
18
48
1
60
0
100
AcDbSpline
70
4
71
3
72
13
73
9
40
0
40
0
40
0
40
0
40
0.307358046776992
40
0.483948349223087
40
0.524988327614581
40
0.609945780454858
40
0.769633133175448
40
1
40
1
40
1
40
1
41
1
10
59.5108134832818
20
-5.92890374669665
30
0
41
1
10
59.5277759494449
20
-5.89168160976257
30
0
41
1
10
59.5824901181936
20
-5.84896485169716
30
0
41
1
10
59.6721631133915
20
-5.81567606975915
30
0
41
1
10
59.7486896264542
20
-5.81353491544286
30
0
41
1
10
59.8080770847771
20
-5.82207789113073
30
0
41
1
10
59.8942700853058
20
-5.86161492463978
30
0
41
1
10
59.9353431199556
20
-5.90319632047186
30
0
41
1
10
59.9505845636323
20
-5.9333708133633
30
0
0
SPLINE
5
1BD
100
AcDbEntity
8
1
62
256
6
ByLayer
370
18
48
1
60
0
100
AcDbSpline
70
4
71
2
72
6
73
3
40
0
40
0
40
0
40
1
40
1
40
1
41
1
10
53.6038923544153
20
7.06003477752708
30
0
41
1
10
53.2758637618099
20
6.4935899026996
30
0
41
1
10
52.947507995601
20
5.92783126093607
30
0
0
SPLINE
5
1BE
100
AcDbEntity
8
1
62
256
6
ByLayer
370
18
48
1
60
0
100
AcDbSpline
70
4
71
2
72
6
73
3
40
0
40
0
40
0
40
1
40
1
40
1
41
1
10
54.5083289784311
20
5.93337007886069
30
0
41
1
10
54.1791350191666
20
6.50023113238771
30
0
41
1
10
53.8504670235448
20
7.06743987990956
30
0
0
SPLINE
5
1BF
100
AcDbEntity
8
1
62
256
6
ByLayer
370
18
48
1
60
0
100
AcDbSpline
70
4
71
3
72
12
73
8
40
0
40
0
40
0
40
0
40
0.209910565855645
40
0.456352192598109
40
0.590274019923979
40
0.727284006805903
40
1
40
1
40
1
40
1
41
1
10
54.9746403578324
20
5.95783808877457
30
0
41
1
10
54.954853257197
20
5.92046580953567
30
0
41
1
10
54.9006359101306
20
5.85552183629824
30
0
41
1
10
54.782439258219
20
5.80702651619455
30
0
41
1
10
54.6782556375763
20
5.8120054301001
30
0
41
1
10
54.5779237232116
20
5.84886255785662
30
0
41
1
10
54.5290096911421
20
5.89532447968625
30
0
41
1
10
54.5064744745712
20
5.93645489935395
30
0
0
SPLINE
5
1C0
100
AcDbEntity
8
1
62
256
6
ByLayer
370
18
48
1
60
0
100
AcDbSpline
70
4
71
2
72
6
73
3
40
0
40
0
40
0
40
1
40
1
40
1
41
1
10
58.8453736626253
20
-7.07533838922356
30
0
41
1
10
59.1728920686693
20
-6.50989891398188
30
0
41
1
10
59.5005813614865
20
-5.94492621384873
30
0
0
SPLINE
5
1C1
100
AcDbEntity
8
1
62
256
6
ByLayer
370
18
48
1
60
0
100
AcDbSpline
70
4
71
3
72
10
73
6
40
0
40
0
40
0
40
0
40
0.344299101363853
40
0.698829518342305
40
1
40
1
40
1
40
1
41
1
10
57.6420912572939
20
-5.82660009413485
30
0
41
1
10
57.66439148894
20
-5.81159841856902
30
0
41
1
10
57.7177926912861
20
-5.79853105248418
30
0
41
1
10
57.8461513726153
20
-5.81055197561031
30
0
41
1
10
57.9105301839455
20
-5.87346279301306
30
0
41
1
10
57.9397567716934
20
-5.91129276233553
30
0
0
SPLINE
5
1C2
100
AcDbEntity
8
1
62
256
6
ByLayer
370
18
48
1
60
0
100
AcDbSpline
70
4
71
2
72
6
73
3
40
0
40
0
40
0
40
1
40
1
40
1
41
1
10
57.9541879103701
20
-5.93920792996059
30
0
41
1
10
58.282397046692
20
-6.50513827477536
30
0
41
1
10
58.6103128260251
20
-7.07144886397566
30
0
0
LINE
5
7F
100
AcDbEntity
8
80
62
256
6
ByLayer
370
18
48
1
60
0
100
AcDbLine
10
0
20
0
30
0
11
-5
21
0
31
0
39
0
210
0
220
0
230
1
0
LINE
5
80
100
AcDbEntity
8
4
62
256
6
ByLayer
370
18
48
0.05
60
0
100
AcDbLine
10
0
20
0
30
0
11
66
21
0
31
0
39
0
210
0
220
0
230
1
0
LINE
5
82
100
AcDbEntity
8
81
62
256
6
ByLayer
370
18
48
1
60
0
100
AcDbLine
10
66
20
0
30
0
11
71
21
0
31
0
39
0
210
0
220
0
230
1
0
LINE
5
83
100
AcDbEntity
8
SK4
62
256
6
ByLayer
370
18
48
0.05
60
0
100
AcDbLine
10
-29
20
0
30
0
11
66
21
0
31
0
39
0
210
0
220
0
230
1
0
LINE
5
85
100
AcDbEntity
8
1
62
256
6
ByLayer
370
18
48
1
60
0
100
AcDbLine
10
0
20
5.6
30
0
11
0
21
-5.6
31
0
39
0
210
0
220
0
230
1
0
LINE
5
86
100
AcDbEntity
8
1
62
256
6
ByLayer
370
18
48
1
60
0
100
AcDbLine
10
66
20
5.205881
30
0
11
66
21
5.200249
31
0
39
0
210
0
220
0
230
1
0
LINE
5
87
100
AcDbEntity
8
1
62
256
6
ByLayer
370
18
48
1
60
0
100
AcDbLine
10
61.508387
20
-5.933279
30
0
11
61.505896
21
-5.937383
31
0
39
0
210
0
220
0
230
1
0
LINE
5
88
100
AcDbEntity
8
1
62
256
6
ByLayer
370
18
48
1
60
0
100
AcDbLine
10
52.506378
20
5.936589
30
0
11
52.510743
21
5.929036
31
0
39
0
210
0
220
0
230
1
0
LINE
5
89
100
AcDbEntity
8
1
62
256
6
ByLayer
370
18
48
1
60
0
100
AcDbLine
10
52.947521
20
5.927855
30
0
11
52.952233
21
5.93617
31
0
39
0
210
0
220
0
230
1
0
LINE
5
8A
100
AcDbEntity
8
1
62
256
6
ByLayer
370
18
48
1
60
0
100
AcDbLine
10
54.505861
20
5.937431
30
0
11
54.508198
21
5.933595
31
0
39
0
210
0
220
0
230
1
0
LINE
5
8B
100
AcDbEntity
8
1
62
256
6
ByLayer
370
13
48
1
60
0
100
AcDbLine
10
47.173264
20
-6.15
30
0
11
47.173264
21
-6.124522
31
0
39
0
210
0
220
0
230
1
0
LINE
5
8C
100
AcDbEntity
8
1
62
256
6
ByLayer
370
13
48
1
60
0
100
AcDbLine
10
45.960828
20
-5.45
30
0
11
45.960828
21
-5.295203
31
0
39
0
210
0
220
0
230
1
0
LINE
5
8D
100
AcDbEntity
8
1
62
256
6
ByLayer
370
13
48
1
60
0
100
AcDbLine
10
29.153835
20
-5.45
30
0
11
29.153835
21
5.45
31
0
39
0
210
0
220
0
230
1
0
LINE
5
8E
100
AcDbEntity
8
1
62
256
6
ByLayer
370
18
48
1
60
0
100
AcDbLine
10
28.5
20
5.6
30
0
11
28.5
21
-5.6
31
0
39
0
210
0
220
0
230
1
0
LINE
5
8F
100
AcDbEntity
8
1
62
256
6
ByLayer
370
13
48
1
60
0
100
AcDbLine
10
45.960828
20
0.418348
30
0
11
45.960828
21
3.764514
31
0
39
0
210
0
220
0
230
1
0
LINE
5
90
100
AcDbEntity
8
SK1
62
256
6
ByLayer
370
18
48
1
60
0
100
AcDbLine
10
-29
20
3.776
30
0
11
-29
21
-3.776
31
0
39
0
210
0
220
0
230
1
0
LINE
5
92
100
AcDbEntity
8
SK1
62
256
6
ByLayer
370
18
48
1
60
0
100
AcDbLine
10
-17
20
2.941322
30
0
11
-17
21
-2.941322
31
0
39
0
210
0
220
0
230
1
0
LINE
5
93
100
AcDbEntity
8
SK1
62
256
6
ByLayer
370
18
48
1
60
0
100
AcDbLine
10
-17
20
4.5
30
0
11
-16.124
21
5.376
31
0
39
0
210
0
220
0
230
1
0
LINE
5
94
100
AcDbEntity
8
SK1
62
256
6
ByLayer
370
18
48
1
60
0
100
AcDbLine
10
-27.4
20
4.5
30
0
11
-17
21
4.5
31
0
39
0
210
0
220
0
230
1
0
LINE
5
95
100
AcDbEntity
8
SK1
62
256
6
ByLayer
370
18
48
1
60
0
100
AcDbLine
10
-27.4
20
2.941322
30
0
11
-27.4
21
4.5
31
0
39
0
210
0
220
0
230
1
0
LINE
5
96
100
AcDbEntity
8
SK1
62
256
6
ByLayer
370
18
48
1
60
0
100
AcDbLine
10
-17
20
2.941322
30
0
11
-27.4
21
2.941322
31
0
39
0
210
0
220
0
230
1
0
LINE
5
97
100
AcDbEntity
8
SK1
62
256
6
ByLayer
370
18
48
1
60
0
100
AcDbLine
10
-27.4
20
-2.941322
30
0
11
-17
21
-2.941322
31
0
39
0
210
0
220
0
230
1
0
LINE
5
98
100
AcDbEntity
8
SK1
62
256
6
ByLayer
370
18
48
1
60
0
100
AcDbLine
10
-27.4
20
-4.5
30
0
11
-27.4
21
-2.941322
31
0
39
0
210
0
220
0
230
1
0
LINE
5
99
100
AcDbEntity
8
SK1
62
256
6
ByLayer
370
18
48
1
60
0
100
AcDbLine
10
-17
20
-4.5
30
0
11
-27.4
21
-4.5
31
0
39
0
210
0
220
0
230
1
0
LINE
5
9A
100
AcDbEntity
8
SK1
62
256
6
ByLayer
370
18
48
1
60
0
100
AcDbLine
10
-17
20
-4.5
30
0
11
-16.124
21
-5.376
31
0
39
0
210
0
220
0
230
1
0
LINE
5
9B
100
AcDbEntity
8
SK1
62
256
6
ByLayer
370
18
48
1
60
0
100
AcDbLine
10
0
20
5.6
30
0
11
0
21
-5.6
31
0
39
0
210
0
220
0
230
1
0
LINE
5
9C
100
AcDbEntity
8
SK1
62
256
6
ByLayer
370
18
48
1
60
0
100
AcDbLine
10
-14.6
20
5.376
30
0
11
-14.6
21
-5.376
31
0
39
0
210
0
220
0
230
1
0
LINE
5
9D
100
AcDbEntity
8
SK1
62
256
6
ByLayer
370
18
48
1
60
0
100
AcDbLine
10
-14.376
20
-5.6
30
0
11
-14.376
21
5.6
31
0
39
0
210
0
220
0
230
1
0
LINE
5
9E
100
AcDbEntity
8
1
62
256
6
ByLayer
370
18
48
1
60
0
100
AcDbLine
10
28.5
20
5.6
30
0
11
0
21
5.6
31
0
39
0
210
0
220
0
230
1
0
LINE
5
9F
100
AcDbEntity
8
1
62
256
6
ByLayer
370
18
48
1
60
0
100
AcDbLine
10
0
20
-5.6
30
0
11
28.5
21
-5.6
31
0
39
0
210
0
220
0
230
1
0
LINE
5
A0
100
AcDbEntity
8
1
62
256
6
ByLayer
370
18
48
1
60
0
100
AcDbLine
10
47.173264
20
-6.15
30
0
11
47.266393
21
-6.311305
31
0
39
0
210
0
220
0
230
1
0
LINE
5
A1
100
AcDbEntity
8
1
62
256
6
ByLayer
370
18
48
1
60
0
100
AcDbLine
10
51.829714
20
7.081949
30
0
11
51.628658
21
7.081949
31
0
39
0
210
0
220
0
230
1
0
LINE
5
A2
100
AcDbEntity
8
1
62
256
6
ByLayer
370
18
48
1
60
0
100
AcDbLine
10
53.82972
20
7.081949
30
0
11
53.628659
21
7.081949
31
0
39
0
210
0
220
0
230
1
0
LINE
5
A3
100
AcDbEntity
8
1
62
256
6
ByLayer
370
18
48
1
60
0
100
AcDbLine
10
58.62866
20
-7.081949
30
0
11
58.829722
21
-7.081949
31
0
39
0
210
0
220
0
230
1
0
LINE
5
A4
100
AcDbEntity
8
1
62
256
6
ByLayer
370
18
48
1
60
0
100
AcDbLine
10
29.153835
20
-5.45
30
0
11
32.746881
21
-5.45
31
0
39
0
210
0
220
0
230
1
0
LINE
5
A5
100
AcDbEntity
8
1
62
256
6
ByLayer
370
18
48
1
60
0
100
AcDbLine
10
42.71931
20
-5.45
30
0
11
45.960828
21
-5.45
31
0
39
0
210
0
220
0
230
1
0
LINE
5
A6
100
AcDbEntity
8
1
62
256
6
ByLayer
370
18
48
1
60
0
100
AcDbLine
10
40.075725
20
5.45
30
0
11
29.153835
21
5.45
31
0
39
0
210
0
220
0
230
1
0
LINE
5
A7
100
AcDbEntity
8
SK1
62
256
6
ByLayer
370
18
48
1
60
0
100
AcDbLine
10
-29
20
-3.776
30
0
11
-28.276
21
-4.5
31
0
39
0
210
0
220
0
230
1
0
LINE
5
A8
100
AcDbEntity
8
SK1
62
256
6
ByLayer
370
18
48
1
60
0
100
AcDbLine
10
-28.276
20
4.5
30
0
11
-29
21
3.776
31
0
39
0
210
0
220
0
230
1
0
LINE
5
A9
100
AcDbEntity
8
SK1
62
256
6
ByLayer
370
18
48
1
60
0
100
AcDbLine
10
-14.6
20
5.376
30
0
11
-16.124
21
5.376
31
0
39
0
210
0
220
0
230
1
0
LINE
5
AA
100
AcDbEntity
8
SK1
62
256
6
ByLayer
370
18
48
1
60
0
100
AcDbLine
10
-16.124
20
-5.376
30
0
11
-14.6
21
-5.376
31
0
39
0
210
0
220
0
230
1
0
LINE
5
AB
100
AcDbEntity
8
SK1
62
256
6
ByLayer
370
18
48
1
60
0
100
AcDbLine
10
0
20
5.6
30
0
11
-14.376
21
5.6
31
0
39
0
210
0
220
0
230
1
0
LINE
5
AC
100
AcDbEntity
8
SK1
62
256
6
ByLayer
370
18
48
1
60
0
100
AcDbLine
10
-14.376
20
-5.6
30
0
11
0
21
-5.6
31
0
39
0
210
0
220
0
230
1
0
LINE
5
AD
100
AcDbEntity
8
SK1
62
256
6
ByLayer
370
18
48
1
60
0
100
AcDbLine
10
-14.6
20
-5.376
30
0
11
-14.376
21
-5.6
31
0
39
0
210
0
220
0
230
1
0
LINE
5
AE
100
AcDbEntity
8
SK1
62
256
6
ByLayer
370
18
48
1
60
0
100
AcDbLine
10
-14.376
20
5.6
30
0
11
-14.6
21
5.376
31
0
39
0
210
0
220
0
230
1
0
LINE
5
AF
100
AcDbEntity
8
SK2
62
256
6
ByLayer
370
18
48
1
60
0
100
AcDbLine
10
15.062
20
-5.6
30
0
11
15.062
21
22.641141
31
0
39
0
210
0
220
0
230
1
0
LINE
5
B1
100
AcDbEntity
8
1
62
256
6
ByLayer
370
18
48
1
60
1
100
AcDbLine
10
15.062
20
5.6
30
0
11
15.522784
21
2.100002
31
0
39
0
210
0
220
0
230
1
0
LINE
5
B2
100
AcDbEntity
8
1
62
256
6
ByLayer
370
18
48
1
60
1
100
AcDbLine
10
15.522784
20
2.100002
30
0
11
14.601216
21
2.099998
31
0
39
0
210
0
220
0
230
1
0
LINE
5
B3
100
AcDbEntity
8
1
62
256
6
ByLayer
370
18
48
1
60
1
100
AcDbLine
10
14.601216
20
2.099998
30
0
11
15.062
21
5.6
31
0
39
0
210
0
220
0
230
1
0
LINE
5
B4
100
AcDbEntity
8
1
62
256
6
ByLayer
370
18
48
1
60
1
100
AcDbLine
10
15.062
20
-5.6
30
0
11
14.601216
21
-2.100002
31
0
39
0
210
0
220
0
230
1
0
LINE
5
B5
100
AcDbEntity
8
1
62
256
6
ByLayer
370
18
48
1
60
1
100
AcDbLine
10
14.601216
20
-2.100002
30
0
11
15.522784
21
-2.099998
31
0
39
0
210
0
220
0
230
1
0
LINE
5
B6
100
AcDbEntity
8
1
62
256
6
ByLayer
370
18
48
1
60
1
100
AcDbLine
10
15.522784
20
-2.099998
30
0
11
15.062
21
-5.6
31
0
39
0
210
0
220
0
230
1
0
LINE
5
B7
100
AcDbEntity
8
2
62
256
6
ByLayer
370
18
48
1
60
0
100
AcDbLine
10
66
20
-44.581949
30
0
11
-29
21
-44.581949
31
0
39
0
210
0
220
0
230
1
0
LINE
5
B9
100
AcDbEntity
8
2
62
256
6
ByLayer
370
18
48
1
60
0
100
AcDbLine
10
-29
20
-5.3635
30
0
11
-29
21
-46.581949
31
0
39
0
210
0
220
0
230
1
0
LINE
5
BA
100
AcDbEntity
8
2
62
256
6
ByLayer
370
18
48
1
60
0
100
AcDbLine
10
66
20
-8.669449
30
0
11
66
21
-46.581949
31
0
39
0
210
0
220
0
230
1
0
LINE
5
BB
100
AcDbEntity
8
1
62
256
6
ByLayer
370
18
48
1
60
1
100
AcDbLine
10
-29
20
-44.581949
30
0
11
-25.500002
21
-44.121165
31
0
39
0
210
0
220
0
230
1
0
LINE
5
BC
100
AcDbEntity
8
1
62
256
6
ByLayer
370
18
48
1
60
1
100
AcDbLine
10
-25.500002
20
-44.121165
30
0
11
-25.499998
21
-45.042733
31
0
39
0
210
0
220
0
230
1
0
LINE
5
BD
100
AcDbEntity
8
1
62
256
6
ByLayer
370
18
48
1
60
1
100
AcDbLine
10
-25.499998
20
-45.042733
30
0
11
-29
21
-44.581949
31
0
39
0
210
0
220
0
230
1
0
LINE
5
BE
100
AcDbEntity
8
1
62
256
6
ByLayer
370
18
48
1
60
1
100
AcDbLine
10
66
20
-44.581949
30
0
11
62.500002
21
-45.042733
31
0
39
0
210
0
220
0
230
1
0
LINE
5
BF
100
AcDbEntity
8
1
62
256
6
ByLayer
370
18
48
1
60
1
100
AcDbLine
10
62.500002
20
-45.042733
30
0
11
62.499998
21
-44.121165
31
0
39
0
210
0
220
0
230
1
0
LINE
5
C0
100
AcDbEntity
8
1
62
256
6
ByLayer
370
18
48
1
60
1
100
AcDbLine
10
62.499998
20
-44.121165
30
0
11
66
21
-44.581949
31
0
39
0
210
0
220
0
230
1
0
LINE
5
1C7
100
AcDbEntity
8
1
62
256
6
ByLayer
370
18
48
1
60
1
100
AcDbLine
10
15.062
20
5.6
30
0
11
15.522784
21
2.100002
31
0
39
0
210
0
220
0
230
1
0
LINE
5
1C8
100
AcDbEntity
8
1
62
256
6
ByLayer
370
18
48
1
60
1
100
AcDbLine
10
15.522784
20
2.100002
30
0
11
14.601216
21
2.099998
31
0
39
0
210
0
220
0
230
1
0
LINE
5
1C9
100
AcDbEntity
8
1
62
256
6
ByLayer
370
18
48
1
60
1
100
AcDbLine
10
14.601216
20
2.099998
30
0
11
15.062
21
5.6
31
0
39
0
210
0
220
0
230
1
0
LINE
5
1CB
100
AcDbEntity
8
1
62
256
6
ByLayer
370
18
48
1
60
1
100
AcDbLine
10
15.062
20
-5.6
30
0
11
14.601216
21
-2.100002
31
0
39
0
210
0
220
0
230
1
0
LINE
5
1CC
100
AcDbEntity
8
1
62
256
6
ByLayer
370
18
48
1
60
1
100
AcDbLine
10
14.601216
20
-2.100002
30
0
11
15.522784
21
-2.099998
31
0
39
0
210
0
220
0
230
1
0
LINE
5
1CD
100
AcDbEntity
8
1
62
256
6
ByLayer
370
18
48
1
60
1
100
AcDbLine
10
15.522784
20
-2.099998
30
0
11
15.062
21
-5.6
31
0
39
0
210
0
220
0
230
1
0
LINE
5
1D0
100
AcDbEntity
8
1
62
256
6
ByLayer
370
18
48
1
60
1
100
AcDbLine
10
-29
20
-44.581949
30
0
11
-25.500002
21
-44.121165
31
0
39
0
210
0
220
0
230
1
0
LINE
5
1D1
100
AcDbEntity
8
1
62
256
6
ByLayer
370
18
48
1
60
1
100
AcDbLine
10
-25.500002
20
-44.121165
30
0
11
-25.499998
21
-45.042733
31
0
39
0
210
0
220
0
230
1
0
LINE
5
1D2
100
AcDbEntity
8
1
62
256
6
ByLayer
370
18
48
1
60
1
100
AcDbLine
10
-25.499998
20
-45.042733
30
0
11
-29
21
-44.581949
31
0
39
0
210
0
220
0
230
1
0
LINE
5
1D4
100
AcDbEntity
8
1
62
256
6
ByLayer
370
18
48
1
60
1
100
AcDbLine
10
66
20
-44.581949
30
0
11
62.500002
21
-45.042733
31
0
39
0
210
0
220
0
230
1
0
LINE
5
1D5
100
AcDbEntity
8
1
62
256
6
ByLayer
370
18
48
1
60
1
100
AcDbLine
10
62.500002
20
-45.042733
30
0
11
62.499998
21
-44.121165
31
0
39
0
210
0
220
0
230
1
0
LINE
5
1D6
100
AcDbEntity
8
1
62
256
6
ByLayer
370
18
48
1
60
1
100
AcDbLine
10
62.499998
20
-44.121165
30
0
11
66
21
-44.581949
31
0
39
0
210
0
220
0
230
1
0
MTEXT
5
1C3
100
AcDbEntity
8
SK2
62
256
6
ByLayer
370
18
48
1
60
0
100
AcDbMText
10
13.720886
20
11.258437
30
0
210
0
220
0
230
1
1
%%c
40
3
41
0
44
1.084337
50
90
71
7
72
5
7
iso_b_vert
0
MTEXT
5
1C6
100
AcDbEntity
8
SK2
62
256
6
ByLayer
370
18
48
1
60
0
100
AcDbMText
10
13.720886
20
17.235
30
0
210
0
220
0
230
1
1
\W0.5779;11.2
40
3
41
0
44
1.084337
50
90
71
7
72
5
7
iso_b_vert
0
MTEXT
5
1CF
100
AcDbEntity
8
2
62
256
6
ByLayer
370
18
48
1
60
0
100
AcDbMText
10
16.867172
20
-43.696834
30
0
210
0
220
0
230
1
1
\W0.6740;95
40
3
41
0
44
1.084337
50
0
71
7
72
5
7
iso_b_vert
0
MTEXT
5
1D8
100
AcDbEntity
8
SK6
62
256
6
ByLayer
370
18
48
1
60
0
100
AcDbMText
10
3.321444
20
-82.114886
30
0
210
0
220
0
230
1
1
\W0.7254;T300-XM101IA-M14    C150
40
3
41
0
44
1.084337
50
0
71
7
72
5
7
iso_b_vert
0
HATCH
5
1CA
100
AcDbEntity
8
SK2
62
256
6
ByLayer
370
13
48
1
60
0
100
AcDbHatch
10
0
20
0
30
0
210
0
220
0
230
1
2
ANSI31
70
0
71
0
91
1
92
5
93
3
72
1
10
15.062
20
5.60000000000002
11
15.5227837415528
21
2.10000169255321
72
1
10
15.5227837415528
20
2.10000169255321
11
14.6012162584472
21
2.09999830744684
72
1
10
14.6012162584472
20
2.09999830744684
11
15.062
21
5.60000000000002
97
0
75
0
76
1
52
0
41
0.0062
77
0
78
1
53
45
43
0
44
0
45
-0.0139193969876572
46
0.0139193969876572
79
0
47
0
98
1
10
0
20
0
0
HATCH
5
1CE
100
AcDbEntity
8
SK2
62
256
6
ByLayer
370
13
48
1
60
0
100
AcDbHatch
10
0
20
0
30
0
210
0
220
0
230
1
2
ANSI31
70
0
71
0
91
1
92
5
93
3
72
1
10
15.062
20
-5.59999999999997
11
14.6012162584472
21
-2.10000169255315
72
1
10
14.6012162584472
20
-2.10000169255315
11
15.5227837415528
21
-2.09999830744678
72
1
10
15.5227837415528
20
-2.09999830744678
11
15.062
21
-5.59999999999997
97
0
75
0
76
1
52
0
41
0.0062
77
0
78
1
53
45
43
0
44
0
45
-0.0139193969876572
46
0.0139193969876572
79
0
47
0
98
1
10
0
20
0
0
HATCH
5
1D3
100
AcDbEntity
8
2
62
256
6
ByLayer
370
13
48
1
60
0
100
AcDbHatch
10
0
20
0
30
0
210
0
220
0
230
1
2
ANSI31
70
0
71
0
91
1
92
5
93
3
72
1
10
-29
20
-44.5819489098993
11
-25.5000016925532
21
-44.1211651683465
72
1
10
-25.5000016925532
20
-44.1211651683465
11
-25.4999983074468
21
-45.042732651452
72
1
10
-25.4999983074468
20
-45.042732651452
11
-29
21
-44.5819489098993
97
0
75
0
76
1
52
0
41
0.0062
77
0
78
1
53
45
43
0
44
0
45
-0.0139193969876572
46
0.0139193969876572
79
0
47
0
98
1
10
0
20
0
0
HATCH
5
1D7
100
AcDbEntity
8
2
62
256
6
ByLayer
370
13
48
1
60
0
100
AcDbHatch
10
0
20
0
30
0
210
0
220
0
230
1
2
ANSI31
70
0
71
0
91
1
92
5
93
3
72
1
10
66.0000000000001
20
-44.5819489098993
11
62.5000016925533
21
-45.042732651452
72
1
10
62.5000016925533
20
-45.042732651452
11
62.4999983074468
21
-44.1211651683465
72
1
10
62.4999983074468
20
-44.1211651683465
11
66.0000000000001
21
-44.5819489098993
97
0
75
0
76
1
52
0
41
0.0062
77
0
78
1
53
45
43
0
44
0
45
-0.0139193969876572
46
0.0139193969876572
79
0
47
0
98
1
10
0
20
0
0
DIMENSION
5
1DB
100
AcDbEntity
8
2
62
256
6
ByLayer
370
18
48
1
60
0
100
AcDbDimension
2
_U0
10
85.5
20
-7.081949
30
0
11
85.5
21
25.867663
31
0
70
32
71
1
72
1
41
1
210
0
220
0
230
1
3
Standard
100
AcDbAlignedDimension
13
66
23
7.081949
33
0
14
66
24
-7.081949
34
0
50
90
100
AcDbRotatedDimension
1001
ACAD
1000
DSTYLE
1002
{
1070
   371
1070
    13
1070
   372
1070
    13
1070
     3
1000

1070
   170
1070
     0
1070
   144
1040
1.0
1070
   277
1070
     2
1070
   284
1070
     8
1070
   278
1070
    46
1070
   146
1040
1.166667
1070
   345
1005
16
1070
   347
1005
16
1070
   346
1005
16
1070
   344
1005
0
1070
   343
1005
0
1070
   172
1070
     1
1070
    76
1070
     0
1070
    75
1070
     0
1070
   282
1070
     0
1070
   281
1070
     0
1070
    71
1070
     0
1070
    74
1070
     0
1070
   279
1070
     0
1070
   173
1070
     1
1070
   340
1005
1C4
1070
   271
1070
     3
1070
   272
1070
     3
1070
    77
1070
     1
1070
    73
1070
     0
1070
   171
1070
     3
1070
   274
1070
     4
1070
   177
1070
     2
1070
   176
1070
     2
1070
   178
1070
     2
1070
    78
1070
     8
1070
    48
1040
-0.1
1070
    41
1040
3.5
1070
   147
1040
1.5
1070
    42
1040
1.5875
1070
    44
1040
2.0
1070
   140
1040
3.0
1002
}
1001
ACAD_DSTYLE_DIM_LINETYPE
1070
   380
1005
16
1001
ACAD_DSTYLE_DIM_EXT1_LINETYPE
1070
   381
1005
16
1001
ACAD_DSTYLE_DIM_EXT2_LINETYPE
1070
   382
1005
16
0
DIMENSION
5
1F6
100
AcDbEntity
8
SK2
62
256
6
ByLayer
370
18
48
1
60
0
100
AcDbDimension
2
_U1
10
60.5
20
17.812078
30
0
11
63.25
21
17.812078
31
0
70
32
71
1
72
1
41
1
210
0
220
0
230
1
3
Standard
100
AcDbAlignedDimension
13
66
23
7.081949
33
0
14
60.5
24
0
34
0
50
0
100
AcDbRotatedDimension
1001
ACAD
1000
DSTYLE
1002
{
1070
   371
1070
    13
1070
   372
1070
    13
1070
   170
1070
     0
1070
   144
1040
1.0
1070
   277
1070
     2
1070
   284
1070
     8
1070
   278
1070
    46
1070
   146
1040
1.166667
1070
   345
1005
16
1070
   347
1005
16
1070
   346
1005
16
1070
   344
1005
0
1070
   343
1005
0
1070
   172
1070
     1
1070
    76
1070
     0
1070
    75
1070
     0
1070
   282
1070
     0
1070
   281
1070
     0
1070
    71
1070
     0
1070
    74
1070
     0
1070
   279
1070
     0
1070
   173
1070
     1
1070
   340
1005
1C4
1070
   271
1070
     3
1070
   272
1070
     3
1070
    77
1070
     1
1070
    73
1070
     1
1070
   171
1070
     3
1070
   274
1070
     4
1070
   177
1070
     2
1070
   176
1070
     2
1070
   178
1070
     2
1070
    78
1070
     8
1070
    48
1040
-0.1
1070
    41
1040
3.5
1070
   147
1040
1.5
1070
    42
1040
1.5875
1070
    44
1040
2.0
1070
   140
1040
3.0
1002
}
1001
ACAD_DSTYLE_DIM_LINETYPE
1070
   380
1005
16
1001
ACAD_DSTYLE_DIM_EXT1_LINETYPE
1070
   381
1005
16
1001
ACAD_DSTYLE_DIM_EXT2_LINETYPE
1070
   382
1005
16
0
DIMENSION
5
210
100
AcDbEntity
8
SK2
62
256
6
ByLayer
370
18
48
1
60
0
100
AcDbDimension
2
_U2
10
48
20
-14.081949
30
0
11
56.27027
21
-14.081949
31
0
70
32
71
1
72
1
41
1
210
0
220
0
230
1
3
Standard
100
AcDbAlignedDimension
13
66
23
-7.081949
33
0
14
48
24
-7.081949
34
0
50
0
100
AcDbRotatedDimension
1001
ACAD
1000
DSTYLE
1002
{
1070
   371
1070
    13
1070
   372
1070
    13
1070
   170
1070
     0
1070
   144
1040
1.0
1070
   277
1070
     2
1070
   284
1070
     8
1070
   278
1070
    46
1070
   146
1040
0.833333
1070
   345
1005
16
1070
   347
1005
16
1070
   346
1005
16
1070
   344
1005
0
1070
   343
1005
0
1070
   172
1070
     1
1070
    76
1070
     0
1070
    75
1070
     0
1070
   282
1070
     0
1070
   281
1070
     0
1070
    47
1040
0.5
1070
    72
1070
     0
1070
    71
1070
     1
1070
    74
1070
     0
1070
   279
1070
     0
1070
   173
1070
     1
1070
   340
1005
1C4
1070
   271
1070
     1
1070
   272
1070
     3
1070
    77
1070
     1
1070
    73
1070
     1
1070
   171
1070
     3
1070
   274
1070
     4
1070
   177
1070
     2
1070
   176
1070
     2
1070
   178
1070
     2
1070
    78
1070
     8
1070
    48
1040
0.5
1070
    41
1040
3.5
1070
   147
1040
1.5
1070
    42
1040
1.5875
1070
    44
1040
2.0
1070
   140
1040
3.0
1002
}
1001
ACAD_DSTYLE_DIM_LINETYPE
1070
   380
1005
16
1001
ACAD_DSTYLE_DIM_EXT1_LINETYPE
1070
   381
1005
16
1001
ACAD_DSTYLE_DIM_EXT2_LINETYPE
1070
   382
1005
16
0
DIMENSION
5
229
100
AcDbEntity
8
SK2
62
256
6
ByLayer
370
18
48
1
60
0
100
AcDbDimension
2
_U3
10
28.5
20
-36.581949
30
0
11
47.25
21
-36.581949
31
0
70
32
71
1
72
1
41
1
210
0
220
0
230
1
3
Standard
100
AcDbAlignedDimension
13
66
23
-7.081949
33
0
14
28.5
24
-5.45
34
0
50
0
100
AcDbRotatedDimension
1001
ACAD
1000
DSTYLE
1002
{
1070
   371
1070
    13
1070
   372
1070
    13
1070
   170
1070
     0
1070
   144
1040
1.0
1070
   277
1070
     2
1070
   284
1070
     8
1070
   278
1070
    46
1070
   146
1040
1.166667
1070
   345
1005
16
1070
   347
1005
16
1070
   346
1005
16
1070
   344
1005
0
1070
   343
1005
0
1070
   172
1070
     1
1070
    76
1070
     0
1070
    75
1070
     0
1070
   282
1070
     0
1070
   281
1070
     0
1070
    71
1070
     0
1070
    74
1070
     0
1070
   279
1070
     0
1070
   173
1070
     1
1070
   340
1005
1C4
1070
   271
1070
     1
1070
   272
1070
     3
1070
    77
1070
     1
1070
    73
1070
     1
1070
   171
1070
     3
1070
   274
1070
     4
1070
   177
1070
     2
1070
   176
1070
     2
1070
   178
1070
     2
1070
    78
1070
     8
1070
    48
1040
-0.1
1070
    41
1040
3.5
1070
   147
1040
1.5
1070
    42
1040
1.5875
1070
    44
1040
2.0
1070
   140
1040
3.0
1002
}
1001
ACAD_DSTYLE_DIM_LINETYPE
1070
   380
1005
16
1001
ACAD_DSTYLE_DIM_EXT1_LINETYPE
1070
   381
1005
16
1001
ACAD_DSTYLE_DIM_EXT2_LINETYPE
1070
   382
1005
16
0
DIMENSION
5
241
100
AcDbEntity
8
2
62
256
6
ByLayer
370
18
48
1
60
0
100
AcDbDimension
2
_U4
10
30
20
-25.581949
30
0
11
48
21
-25.581949
31
0
70
32
71
1
72
1
41
1
210
0
220
0
230
1
3
Standard
100
AcDbAlignedDimension
13
66
23
-7.081949
33
0
14
30
24
0
34
0
50
0
100
AcDbRotatedDimension
1001
ACAD
1000
DSTYLE
1002
{
1070
   371
1070
    13
1070
   372
1070
    13
1070
   170
1070
     0
1070
   144
1040
1.0
1070
   277
1070
     2
1070
   284
1070
     8
1070
   278
1070
    46
1070
   146
1040
1.166667
1070
   345
1005
16
1070
   347
1005
16
1070
   346
1005
16
1070
   344
1005
0
1070
   343
1005
0
1070
   172
1070
     1
1070
    76
1070
     0
1070
    75
1070
     0
1070
   282
1070
     0
1070
   281
1070
     0
1070
    71
1070
     0
1070
    74
1070
     0
1070
   279
1070
     0
1070
   173
1070
     1
1070
   340
1005
1C4
1070
   271
1070
     1
1070
   272
1070
     3
1070
    77
1070
     1
1070
    73
1070
     1
1070
   171
1070
     3
1070
   274
1070
     4
1070
   177
1070
     2
1070
   176
1070
     2
1070
   178
1070
     2
1070
    78
1070
     8
1070
    48
1040
-0.1
1070
    41
1040
3.5
1070
   147
1040
1.5
1070
    42
1040
1.5875
1070
    44
1040
2.0
1070
   140
1040
3.0
1002
}
1001
ACAD_DSTYLE_DIM_LINETYPE
1070
   380
1005
16
1001
ACAD_DSTYLE_DIM_EXT1_LINETYPE
1070
   381
1005
16
1001
ACAD_DSTYLE_DIM_EXT2_LINETYPE
1070
   382
1005
16
0
ENDSEC
0
SECTION
2
OBJECTS
0
DICTIONARY
5
2c9
330
0
100
AcDbDictionary
280
0
281
1
3
ACAD_GROUP
350
2ca
3
ACAD_MLINESTYLE
350
2cb
0
DICTIONARY
5
2ca
330
0
100
AcDbDictionary
280
0
281
1
0
DICTIONARY
5
2cb
330
0
100
AcDbDictionary
280
0
281
1
3
Standard
350
18
0
MLINESTYLE
5
18
330
2cb
100
AcDbMlineStyle
2
Standard
70
0
3

62
256
51
90
52
90
71
2
49
-0.5
62
256
6
ByLayer
49
0.5
62
256
6
ByLayer
0
RASTERVARIABLES
5
2b7
330

100
AcDbRasterVariables
90
0
70
1
71
1
72
1
0
ENDSEC
0
EOF
