0
SECTION
2
HEADER
9
$ACADVER
1
AC1015
9
$DWGCODEPAGE
3
ANSI_1252
9
$HANDSEED
5
2f4
9
$ANGBASE
50
0
9
$ANGDIR
70
0
9
$ATTMODE
70
1
9
$AUNITS
70
0
9
$AUPREC
70
0
9
$CECOLOR
62
256
9
$CELTSCALE
40
1
9
$CELTYPE
6
ByLayer
9
$CELWEIGHT
370
18
9
$CLAYER
8
0
9
$CMLJUST
70
0
9
$CMLSCALE
40
1
9
$CMLSTYLE
2
Standard
9
$DIMSTYLE
2
Standard
9
$TEXTSIZE
40
0.2
9
$TEXTSTYLE
7
Standard
9
$LUNITS
70
2
9
$LUPREC
70
4
9
$EXTNAMES
290
1
9
$INSUNITS
70
4
9
$LTSCALE
40
1
9
$LWDISPLAY
290
1
9
$PDMODE
70
0
9
$PDSIZE
40
0
9
$PLINEGEN
70
0
0
ENDSEC
0
SECTION
2
CLASSES
0
CLASS
1
RASTERVARIABLES
2
AcDbRasterVariables
3
ISM
90
0
280
0
281
0
0
ENDSEC
0
SECTION
2
TABLES
0
TABLE
2
VPORT
5
2ea
100
AcDbSymbolTable
0
VPORT
5
1
100
AcDbSymbolTableRecord
100
AcDbViewportTableRecord
2
*Active
70
0
10
0
20
0
11
1
21
1
12
-1
22
1
13
0
23
0
14
0.5
24
0.5
15
10
25
10
16
0
26
0
36
1
17
0
27
0
37
0
0
ENDTAB
0
TABLE
2
LTYPE
5
2eb
100
AcDbSymbolTable
0
LTYPE
5
14
100
AcDbSymbolTableRecord
100
AcDbLinetypeTableRecord
70
0
2
ByBlock
3

72
65
73
0
40
0
0
LTYPE
5
15
100
AcDbSymbolTableRecord
100
AcDbLinetypeTableRecord
70
0
2
ByLayer
3

72
65
73
0
40
0
0
LTYPE
5
16
100
AcDbSymbolTableRecord
100
AcDbLinetypeTableRecord
70
0
2
Continuous
3
Solid line
72
65
73
0
40
0
0
LTYPE
5
6E
100
AcDbSymbolTableRecord
100
AcDbLinetypeTableRecord
70
0
2
CENTER
3
____ _ ____ _ ____ _ ____
72
65
73
4
40
47.5
49
22
74
0
49
-8.5
74
0
49
8.5
74
0
49
-8.5
74
0
0
LTYPE
5
6F
100
AcDbSymbolTableRecord
100
AcDbLinetypeTableRecord
70
0
2
DASHED
3
__ __ __ __ __ __ __ __ __
72
65
73
2
40
25.72
49
12.86
74
0
49
-12.86
74
0
0
ENDTAB
0
TABLE
2
LAYER
5
2ec
100
AcDbSymbolTable
0
LAYER
5
10
100
AcDbSymbolTableRecord
100
AcDbLayerTableRecord
2
0
70
0
62
7
6
Continuous
290
1
370
-3
390
0
0
LAYER
5
71
100
AcDbSymbolTableRecord
100
AcDbLayerTableRecord
2
80
70
0
62
-6
6
Continuous
290
1
370
-3
390
0
0
LAYER
5
73
100
AcDbSymbolTableRecord
100
AcDbLayerTableRecord
2
81
70
0
62
-3
6
Continuous
290
1
370
-3
390
0
0
LAYER
5
75
100
AcDbSymbolTableRecord
100
AcDbLayerTableRecord
2
1
70
0
62
4
6
Continuous
290
1
370
-3
390
0
0
LAYER
5
81
100
AcDbSymbolTableRecord
100
AcDbLayerTableRecord
2
4
70
0
62
-2
6
CENTER
290
1
370
-3
390
0
0
LAYER
5
CA
100
AcDbSymbolTableRecord
100
AcDbLayerTableRecord
2
2
70
0
62
7
6
Continuous
290
1
370
-3
390
0
0
LAYER
5
1FA
100
AcDbSymbolTableRecord
100
AcDbLayerTableRecord
2
Defpoints
70
0
62
7
6
Continuous
290
0
370
-3
390
0
0
LAYER
5
2d6
100
AcDbSymbolTableRecord
100
AcDbLayerTableRecord
2
SK4
70
0
62
2
6
CENTER
290
1
370
-3
390
0
0
LAYER
5
2d7
100
AcDbSymbolTableRecord
100
AcDbLayerTableRecord
2
SK1
70
0
62
4
6
Continuous
290
1
370
-3
390
0
0
LAYER
5
2d8
100
AcDbSymbolTableRecord
100
AcDbLayerTableRecord
2
SK2
70
0
62
7
6
Continuous
290
1
370
-3
390
0
0
LAYER
5
2d9
100
AcDbSymbolTableRecord
100
AcDbLayerTableRecord
2
SK6
70
0
62
5
6
Continuous
290
1
370
-3
390
0
0
ENDTAB
0
TABLE
2
STYLE
5
2ed
100
AcDbSymbolTable
0
STYLE
5
11
100
AcDbSymbolTableRecord
100
AcDbTextStyleTableRecord
2
Standard
3
txt
70
0
71
0
40
0
41
1
42
0
50
0
0
STYLE
5
1E0
100
AcDbSymbolTableRecord
100
AcDbTextStyleTableRecord
2
iso_b_vert
3
simplex.shx
70
0
71
0
40
0
41
1
42
0
50
0
0
STYLE
5
1E1
100
AcDbSymbolTableRecord
100
AcDbTextStyleTableRecord
2
DWGDirectTextStyle
3
simplex
70
0
71
0
40
0
41
1
42
0
50
0
0
ENDTAB
0
TABLE
2
DIMSTYLE
5
2ee
100
AcDbSymbolTable
100
AcDbDimStyleTable
0
DIMSTYLE
105
27
100
AcDbSymbolTableRecord
100
AcDbDimStyleTableRecord
2
Standard
70
0
3
<>
41
0.18
42
0.0625
44
0.18
140
0.18
147
0.09
73
0
74
0
77
1
271
2
275
0
278
52
280
0
340
11
0
ENDTAB
0
TABLE
2
VIEW
5
2ef
100
AcDbSymbolTable
0
ENDTAB
0
TABLE
2
UCS
5
2f0
100
AcDbSymbolTable
0
ENDTAB
0
TABLE
2
APPID
5
2f1
100
AcDbSymbolTable
0
APPID
5
12
100
AcDbSymbolTableRecord
100
AcDbRegAppTableRecord
2
ACAD
70
0
0
APPID
5
1F6
100
AcDbSymbolTableRecord
100
AcDbRegAppTableRecord
2
ACAD_DSTYLE_DIMBREAK
70
0
0
APPID
5
295
100
AcDbSymbolTableRecord
100
AcDbRegAppTableRecord
2
ACAD_DSTYLE_DIM_LINETYPE
70
0
0
APPID
5
296
100
AcDbSymbolTableRecord
100
AcDbRegAppTableRecord
2
ACAD_DSTYLE_DIM_EXT1_LINETYPE
70
0
0
APPID
5
297
100
AcDbSymbolTableRecord
100
AcDbRegAppTableRecord
2
ACAD_DSTYLE_DIM_EXT2_LINETYPE
70
0
0
APPID
5
2D2
100
AcDbSymbolTableRecord
100
AcDbRegAppTableRecord
2
ACAD_MLEADERVER
70
0
0
ENDTAB
0
TABLE
2
BLOCK_RECORD
5
2f2
100
AcDbSymbolTable
0
BLOCK_RECORD
5
1F
100
AcDbSymbolTableRecord
100
AcDbBlockTableRecord
2
*Model_Space
340
0
70
0
0
BLOCK_RECORD
5
1B
100
AcDbSymbolTableRecord
100
AcDbBlockTableRecord
2
*Paper_Space
340
0
70
0
0
BLOCK_RECORD
5
23
100
AcDbSymbolTableRecord
100
AcDbBlockTableRecord
2
*Paper_Space0
340
0
70
0
0
BLOCK_RECORD
5
1FB
100
AcDbSymbolTableRecord
100
AcDbBlockTableRecord
2
*D1
340
0
70
0
0
BLOCK_RECORD
5
209
100
AcDbSymbolTableRecord
100
AcDbBlockTableRecord
2
_U0
340
0
70
0
0
BLOCK_RECORD
5
215
100
AcDbSymbolTableRecord
100
AcDbBlockTableRecord
2
*D3
340
0
70
0
0
BLOCK_RECORD
5
222
100
AcDbSymbolTableRecord
100
AcDbBlockTableRecord
2
_U1
340
0
70
0
0
BLOCK_RECORD
5
22F
100
AcDbSymbolTableRecord
100
AcDbBlockTableRecord
2
*D5
340
0
70
0
0
BLOCK_RECORD
5
23D
100
AcDbSymbolTableRecord
100
AcDbBlockTableRecord
2
_U2
340
0
70
0
0
BLOCK_RECORD
5
24A
100
AcDbSymbolTableRecord
100
AcDbBlockTableRecord
2
*D7
340
0
70
0
0
BLOCK_RECORD
5
256
100
AcDbSymbolTableRecord
100
AcDbBlockTableRecord
2
_U3
340
0
70
0
0
BLOCK_RECORD
5
262
100
AcDbSymbolTableRecord
100
AcDbBlockTableRecord
2
*D9
340
0
70
0
0
BLOCK_RECORD
5
26E
100
AcDbSymbolTableRecord
100
AcDbBlockTableRecord
2
_U4
340
0
70
0
0
ENDTAB
0
ENDSEC
0
SECTION
2
BLOCKS
0
BLOCK
5
20
100
AcDbEntity
8
0
100
AcDbBlockBegin
2
*Model_Space
70
0
10
0
20
0
30
0
3
*Model_Space
0
ENDBLK
5
21
100
AcDbEntity
8
0
100
AcDbBlockEnd
0
BLOCK
5
1C
100
AcDbEntity
8
0
100
AcDbBlockBegin
2
*Paper_Space
70
0
10
0
20
0
30
0
3
*Paper_Space
0
ENDBLK
5
1D
100
AcDbEntity
8
0
100
AcDbBlockEnd
0
BLOCK
5
24
100
AcDbEntity
8
0
100
AcDbBlockBegin
2
*Paper_Space0
70
0
10
0
20
0
30
0
3
*Paper_Space0
0
ENDBLK
5
25
100
AcDbEntity
8
0
100
AcDbBlockEnd
0
BLOCK
5
1FC
100
AcDbEntity
8
0
100
AcDbBlockBegin
2
*D1
70
1
10
0
20
0
30
0
3
*D1
0
LINE
5
1FE
100
AcDbEntity
8
0
62
256
6
ByLayer
370
-2
48
1
60
0
100
AcDbLine
10
117.5875
20
4.064208
30
0
11
137.5
21
4.064208
31
0
39
0
210
0
220
0
230
1
0
LINE
5
1FF
100
AcDbEntity
8
0
62
256
6
ByLayer
370
-2
48
1
60
0
100
AcDbLine
10
117.5875
20
-4.064208
30
0
11
137.5
21
-4.064208
31
0
39
0
210
0
220
0
230
1
0
LINE
5
200
100
AcDbEntity
8
0
62
256
6
ByLayer
370
-2
48
1
60
0
100
AcDbLine
10
135.5
20
4.064208
30
0
11
135.5
21
32.064208
31
0
39
0
210
0
220
0
230
1
0
LINE
5
201
100
AcDbEntity
8
0
62
256
6
ByLayer
370
-2
48
1
60
0
100
AcDbLine
10
135.5
20
7.564208
30
0
11
135.5
21
11.064208
31
0
39
0
210
0
220
0
230
1
0
LINE
5
202
100
AcDbEntity
8
0
62
256
6
ByLayer
370
-2
48
1
60
0
100
AcDbLine
10
135.5
20
-7.564208
30
0
11
135.5
21
-11.064208
31
0
39
0
210
0
220
0
230
1
0
SOLID
5
203
100
AcDbEntity
8
0
62
256
6
ByLayer
370
-1
48
1
60
0
100
AcDbTrace
10
134.916667
20
7.564208
30
0
11
136.083333
21
7.564208
31
0
12
135.5
22
4.064208
32
0
13
135.5
23
4.064208
33
0
39
0
210
0
220
0
230
1
0
SOLID
5
204
100
AcDbEntity
8
0
62
256
6
ByLayer
370
-1
48
1
60
0
100
AcDbTrace
10
136.083333
20
-7.564208
30
0
11
134.916667
21
-7.564208
31
0
12
135.5
22
-4.064208
32
0
13
135.5
23
-4.064208
33
0
39
0
210
0
220
0
230
1
0
MTEXT
5
205
100
AcDbEntity
8
0
62
256
6
ByLayer
370
18
48
1
60
0
100
AcDbMText
10
129.5
20
21.564208
30
0
210
0
220
0
230
1
1
\A1;8.128
40
3
41
0
44
1
50
90
71
5
72
5
7
iso_b_vert
0
POINT
5
206
100
AcDbEntity
8
Defpoints
62
0
6
ByLayer
370
-1
48
1
60
0
100
AcDbPoint
10
116
20
4.064208
30
0
39
0
210
0
220
0
230
1
50
360
0
POINT
5
207
100
AcDbEntity
8
Defpoints
62
0
6
ByLayer
370
-1
48
1
60
0
100
AcDbPoint
10
116
20
-4.064208
30
0
39
0
210
0
220
0
230
1
50
360
0
POINT
5
208
100
AcDbEntity
8
Defpoints
62
0
6
ByLayer
370
-1
48
1
60
0
100
AcDbPoint
10
135.5
20
-4.064208
30
0
39
0
210
0
220
0
230
1
50
360
0
ENDBLK
5
1FD
100
AcDbEntity
8
0
100
AcDbBlockEnd
0
BLOCK
5
210
100
AcDbEntity
8
0
100
AcDbBlockBegin
2
_U0
70
0
10
0
20
0
30
0
3
_U0
0
MTEXT
5
20A
100
AcDbEntity
8
2
62
256
6
ByLayer
370
18
48
1
60
0
100
AcDbMText
10
134.908886
20
14.199208
30
0
210
0
220
0
230
1
1
\W0.7203;M8
40
3
41
0
44
1.084337
50
90
71
7
72
5
7
iso_b_vert
0
LINE
5
20B
100
AcDbEntity
8
2
62
256
6
ByLayer
370
13
48
1
60
0
100
AcDbLine
10
117.5875
20
4.064208
30
0
11
137.5
21
4.064208
31
0
39
0
210
0
220
0
230
1
0
LINE
5
20C
100
AcDbEntity
8
2
62
256
6
ByLayer
370
13
48
1
60
0
100
AcDbLine
10
117.5875
20
-4.064208
30
0
11
137.5
21
-4.064208
31
0
39
0
210
0
220
0
230
1
0
LINE
5
20D
100
AcDbEntity
8
2
62
256
6
ByLayer
370
13
48
1
60
0
100
AcDbLine
10
135.5
20
-4.064208
30
0
11
135.5
21
18.319008
31
0
39
0
210
0
220
0
230
1
0
SOLID
5
20E
100
AcDbEntity
8
2
62
256
6
ByLayer
370
18
48
1
60
0
100
AcDbTrace
10
135.5
20
4.064208
30
0
11
135.960784
21
0.56421
31
0
12
135.039216
22
0.564207
32
0
13
135.039216
23
0.564207
33
0
39
0
210
0
220
0
230
1
0
SOLID
5
20F
100
AcDbEntity
8
2
62
256
6
ByLayer
370
18
48
1
60
0
100
AcDbTrace
10
135.5
20
-4.064208
30
0
11
135.039216
21
-0.56421
31
0
12
135.960784
22
-0.564207
32
0
13
135.960784
23
-0.564207
33
0
39
0
210
0
220
0
230
1
0
ENDBLK
5
211
100
AcDbEntity
8
0
100
AcDbBlockEnd
0
BLOCK
5
216
100
AcDbEntity
8
0
100
AcDbBlockBegin
2
*D3
70
1
10
0
20
0
30
0
3
*D3
0
LINE
5
218
100
AcDbEntity
8
0
62
256
6
ByLayer
370
-2
48
1
60
0
100
AcDbLine
10
116
20
5.651708
30
0
11
116
21
15.038592
31
0
39
0
210
0
220
0
230
1
0
LINE
5
219
100
AcDbEntity
8
0
62
256
6
ByLayer
370
-2
48
1
60
0
100
AcDbLine
10
112.56
20
1.5875
30
0
11
112.56
21
15.038592
31
0
39
0
210
0
220
0
230
1
0
LINE
5
21A
100
AcDbEntity
8
0
62
256
6
ByLayer
370
-2
48
1
60
0
100
AcDbLine
10
119.5
20
13.038592
30
0
11
123
21
13.038592
31
0
39
0
210
0
220
0
230
1
0
LINE
5
21B
100
AcDbEntity
8
0
62
256
6
ByLayer
370
-2
48
1
60
0
100
AcDbLine
10
109.06
20
13.038592
30
0
11
105.56
21
13.038592
31
0
39
0
210
0
220
0
230
1
0
SOLID
5
21C
100
AcDbEntity
8
0
62
256
6
ByLayer
370
-1
48
1
60
0
100
AcDbTrace
10
119.5
20
13.621926
30
0
11
119.5
21
12.455259
31
0
12
116
22
13.038592
32
0
13
116
23
13.038592
33
0
39
0
210
0
220
0
230
1
0
SOLID
5
21D
100
AcDbEntity
8
0
62
256
6
ByLayer
370
-1
48
1
60
0
100
AcDbTrace
10
109.06
20
12.455259
30
0
11
109.06
21
13.621926
31
0
12
112.56
22
13.038592
32
0
13
112.56
23
13.038592
33
0
39
0
210
0
220
0
230
1
0
MTEXT
5
21E
100
AcDbEntity
8
0
62
256
6
ByLayer
370
18
48
1
60
0
100
AcDbMText
10
114.28
20
19.038592
30
0
210
0
220
0
230
1
1
\A1;3.44
40
3
41
0
44
1
50
0
71
5
72
5
7
iso_b_vert
0
POINT
5
21F
100
AcDbEntity
8
Defpoints
62
0
6
ByLayer
370
-1
48
1
60
0
100
AcDbPoint
10
116
20
4.064208
30
0
39
0
210
0
220
0
230
1
50
360
0
POINT
5
220
100
AcDbEntity
8
Defpoints
62
0
6
ByLayer
370
-1
48
1
60
0
100
AcDbPoint
10
112.56
20
0
30
0
39
0
210
0
220
0
230
1
50
360
0
POINT
5
221
100
AcDbEntity
8
Defpoints
62
0
6
ByLayer
370
-1
48
1
60
0
100
AcDbPoint
10
112.56
20
13.038592
30
0
39
0
210
0
220
0
230
1
50
360
0
ENDBLK
5
217
100
AcDbEntity
8
0
100
AcDbBlockEnd
0
BLOCK
5
22A
100
AcDbEntity
8
0
100
AcDbBlockBegin
2
_U1
70
0
10
0
20
0
30
0
3
_U1
0
MTEXT
5
223
100
AcDbEntity
8
SK2
62
256
6
ByLayer
370
18
48
1
60
0
100
AcDbMText
10
110.629158
20
13.821226
30
0
210
0
220
0
230
1
1
\W0.6474;'C'
40
3.5
41
0
44
1.084337
50
0
71
7
72
5
7
iso_b_vert
0
MTEXT
5
224
100
AcDbEntity
8
SK2
62
256
6
ByLayer
370
18
48
1
60
0
100
AcDbMText
10
110.602658
20
20.923707
30
0
210
0
220
0
230
1
1
\W0.7865;3.44
40
3
41
0
44
1.084337
50
0
71
7
72
5
7
iso_b_vert
0
LINE
5
225
100
AcDbEntity
8
SK2
62
256
6
ByLayer
370
13
48
1
60
0
100
AcDbLine
10
116
20
5.651708
30
0
11
116
21
15.038592
31
0
39
0
210
0
220
0
230
1
0
LINE
5
226
100
AcDbEntity
8
SK2
62
256
6
ByLayer
370
13
48
1
60
0
100
AcDbLine
10
112.56
20
1.5875
30
0
11
112.56
21
15.038592
31
0
39
0
210
0
220
0
230
1
0
LINE
5
227
100
AcDbEntity
8
SK2
62
256
6
ByLayer
370
13
48
1
60
0
100
AcDbLine
10
123.5
20
13.038592
30
0
11
105.06
21
13.038592
31
0
39
0
210
0
220
0
230
1
0
SOLID
5
228
100
AcDbEntity
8
SK2
62
256
6
ByLayer
370
18
48
1
60
0
100
AcDbTrace
10
116
20
13.038592
30
0
11
119.499998
21
13.499376
31
0
12
119.500002
22
12.577808
32
0
13
119.500002
23
12.577808
33
0
39
0
210
0
220
0
230
1
0
SOLID
5
229
100
AcDbEntity
8
SK2
62
256
6
ByLayer
370
18
48
1
60
0
100
AcDbTrace
10
112.56
20
13.038592
30
0
11
109.060002
21
12.577808
31
0
12
109.059998
22
13.499376
32
0
13
109.059998
23
13.499376
33
0
39
0
210
0
220
0
230
1
0
ENDBLK
5
22B
100
AcDbEntity
8
0
100
AcDbBlockEnd
0
BLOCK
5
230
100
AcDbEntity
8
0
100
AcDbBlockBegin
2
*D5
70
1
10
0
20
0
30
0
3
*D5
0
LINE
5
232
100
AcDbEntity
8
0
62
256
6
ByLayer
370
-2
48
1
60
0
100
AcDbLine
10
116
20
-5.651708
30
0
11
116
21
-13.064208
31
0
39
0
210
0
220
0
230
1
0
LINE
5
233
100
AcDbEntity
8
0
62
256
6
ByLayer
370
-2
48
1
60
0
100
AcDbLine
10
103
20
-5.651708
30
0
11
103
21
-13.064208
31
0
39
0
210
0
220
0
230
1
0
LINE
5
234
100
AcDbEntity
8
0
62
256
6
ByLayer
370
-2
48
1
60
0
100
AcDbLine
10
116
20
-11.064208
30
0
11
136.428571
21
-11.064208
31
0
39
0
210
0
220
0
230
1
0
LINE
5
235
100
AcDbEntity
8
0
62
256
6
ByLayer
370
-2
48
1
60
0
100
AcDbLine
10
119.5
20
-11.064208
30
0
11
123
21
-11.064208
31
0
39
0
210
0
220
0
230
1
0
LINE
5
236
100
AcDbEntity
8
0
62
256
6
ByLayer
370
-2
48
1
60
0
100
AcDbLine
10
99.5
20
-11.064208
30
0
11
96
21
-11.064208
31
0
39
0
210
0
220
0
230
1
0
SOLID
5
237
100
AcDbEntity
8
0
62
256
6
ByLayer
370
-1
48
1
60
0
100
AcDbTrace
10
119.5
20
-10.480875
30
0
11
119.5
21
-11.647542
31
0
12
116
22
-11.064208
32
0
13
116
23
-11.064208
33
0
39
0
210
0
220
0
230
1
0
SOLID
5
238
100
AcDbEntity
8
0
62
256
6
ByLayer
370
-1
48
1
60
0
100
AcDbTrace
10
99.5
20
-11.647542
30
0
11
99.5
21
-10.480875
31
0
12
103
22
-11.064208
32
0
13
103
23
-11.064208
33
0
39
0
210
0
220
0
230
1
0
MTEXT
5
239
100
AcDbEntity
8
0
62
256
6
ByLayer
370
18
48
1
60
0
100
AcDbMText
10
129.714286
20
-5.064208
30
0
210
0
220
0
230
1
1
\A1;13
40
3
41
0
44
1
50
0
71
5
72
5
7
iso_b_vert
0
POINT
5
23A
100
AcDbEntity
8
Defpoints
62
0
6
ByLayer
370
-1
48
1
60
0
100
AcDbPoint
10
116
20
-4.064208
30
0
39
0
210
0
220
0
230
1
50
360
0
POINT
5
23B
100
AcDbEntity
8
Defpoints
62
0
6
ByLayer
370
-1
48
1
60
0
100
AcDbPoint
10
103
20
-4.064208
30
0
39
0
210
0
220
0
230
1
50
360
0
POINT
5
23C
100
AcDbEntity
8
Defpoints
62
0
6
ByLayer
370
-1
48
1
60
0
100
AcDbPoint
10
103
20
-11.064208
30
0
39
0
210
0
220
0
230
1
50
360
0
ENDBLK
5
231
100
AcDbEntity
8
0
100
AcDbBlockEnd
0
BLOCK
5
245
100
AcDbEntity
8
0
100
AcDbBlockBegin
2
_U2
70
0
10
0
20
0
30
0
3
_U2
0
MTEXT
5
23E
100
AcDbEntity
8
SK2
62
256
6
ByLayer
370
18
48
1
60
0
100
AcDbMText
10
122.159
20
-10.179094
30
0
210
0
220
0
230
1
1
\W0.5321;13
40
3
41
0
44
1.084337
50
0
71
7
72
5
7
iso_b_vert
0
MTEXT
5
23F
100
AcDbEntity
8
SK2
62
256
6
ByLayer
370
18
48
1
60
0
100
AcDbMText
10
127.466271
20
-9.826613
30
0
210
0
220
0
230
1
1
\W0.8315;\W0.4158;%%p\W0.8315;0.5
40
2.5
41
0
44
1.084337
50
0
71
7
72
5
7
iso_b_vert
0
LINE
5
240
100
AcDbEntity
8
SK2
62
256
6
ByLayer
370
13
48
1
60
0
100
AcDbLine
10
116
20
-5.651708
30
0
11
116
21
-13.064208
31
0
39
0
210
0
220
0
230
1
0
LINE
5
241
100
AcDbEntity
8
SK2
62
256
6
ByLayer
370
13
48
1
60
0
100
AcDbLine
10
103
20
-5.651708
30
0
11
103
21
-13.064208
31
0
39
0
210
0
220
0
230
1
0
LINE
5
242
100
AcDbEntity
8
SK2
62
256
6
ByLayer
370
13
48
1
60
0
100
AcDbLine
10
103
20
-11.064208
30
0
11
134.583008
21
-11.064208
31
0
39
0
210
0
220
0
230
1
0
SOLID
5
243
100
AcDbEntity
8
SK2
62
256
6
ByLayer
370
18
48
1
60
0
100
AcDbTrace
10
116
20
-11.064208
30
0
11
112.500002
21
-11.524992
31
0
12
112.499998
22
-10.603425
32
0
13
112.499998
23
-10.603425
33
0
39
0
210
0
220
0
230
1
0
SOLID
5
244
100
AcDbEntity
8
SK2
62
256
6
ByLayer
370
18
48
1
60
0
100
AcDbTrace
10
103
20
-11.064208
30
0
11
106.499998
21
-10.603425
31
0
12
106.500002
22
-11.524992
32
0
13
106.500002
23
-11.524992
33
0
39
0
210
0
220
0
230
1
0
ENDBLK
5
246
100
AcDbEntity
8
0
100
AcDbBlockEnd
0
BLOCK
5
24B
100
AcDbEntity
8
0
100
AcDbBlockBegin
2
*D7
70
1
10
0
20
0
30
0
3
*D7
0
LINE
5
24D
100
AcDbEntity
8
0
62
256
6
ByLayer
370
-2
48
1
60
0
100
AcDbLine
10
116
20
-5.651708
30
0
11
116
21
-35.564208
31
0
39
0
210
0
220
0
230
1
0
LINE
5
24E
100
AcDbEntity
8
0
62
256
6
ByLayer
370
-2
48
1
60
0
100
AcDbLine
10
76
20
-4.5875
30
0
11
76
21
-35.564208
31
0
39
0
210
0
220
0
230
1
0
LINE
5
24F
100
AcDbEntity
8
0
62
256
6
ByLayer
370
-2
48
1
60
0
100
AcDbLine
10
112.5
20
-33.564208
30
0
11
79.5
21
-33.564208
31
0
39
0
210
0
220
0
230
1
0
SOLID
5
250
100
AcDbEntity
8
0
62
256
6
ByLayer
370
-1
48
1
60
0
100
AcDbTrace
10
112.5
20
-34.147542
30
0
11
112.5
21
-32.980875
31
0
12
116
22
-33.564208
32
0
13
116
23
-33.564208
33
0
39
0
210
0
220
0
230
1
0
SOLID
5
251
100
AcDbEntity
8
0
62
256
6
ByLayer
370
-1
48
1
60
0
100
AcDbTrace
10
79.5
20
-32.980875
30
0
11
79.5
21
-34.147542
31
0
12
76
22
-33.564208
32
0
13
76
23
-33.564208
33
0
39
0
210
0
220
0
230
1
0
MTEXT
5
252
100
AcDbEntity
8
0
62
256
6
ByLayer
370
18
48
1
60
0
100
AcDbMText
10
96
20
-27.564208
30
0
210
0
220
0
230
1
1
\A1;40
40
3
41
0
44
1
50
0
71
5
72
5
7
iso_b_vert
0
POINT
5
253
100
AcDbEntity
8
Defpoints
62
0
6
ByLayer
370
-1
48
1
60
0
100
AcDbPoint
10
116
20
-4.064208
30
0
39
0
210
0
220
0
230
1
50
360
0
POINT
5
254
100
AcDbEntity
8
Defpoints
62
0
6
ByLayer
370
-1
48
1
60
0
100
AcDbPoint
10
76
20
-3
30
0
39
0
210
0
220
0
230
1
50
360
0
POINT
5
255
100
AcDbEntity
8
Defpoints
62
0
6
ByLayer
370
-1
48
1
60
0
100
AcDbPoint
10
76
20
-33.564208
30
0
39
0
210
0
220
0
230
1
50
360
0
ENDBLK
5
24C
100
AcDbEntity
8
0
100
AcDbBlockEnd
0
BLOCK
5
25D
100
AcDbEntity
8
0
100
AcDbBlockBegin
2
_U3
70
0
10
0
20
0
30
0
3
_U3
0
MTEXT
5
257
100
AcDbEntity
8
SK2
62
256
6
ByLayer
370
18
48
1
60
0
100
AcDbMText
10
94.209229
20
-32.679094
30
0
210
0
220
0
230
1
1
\W0.7361;40
40
3
41
0
44
1.084337
50
0
71
7
72
5
7
iso_b_vert
0
LINE
5
258
100
AcDbEntity
8
SK2
62
256
6
ByLayer
370
13
48
1
60
0
100
AcDbLine
10
116
20
-5.651708
30
0
11
116
21
-35.564208
31
0
39
0
210
0
220
0
230
1
0
LINE
5
259
100
AcDbEntity
8
SK2
62
256
6
ByLayer
370
13
48
1
60
0
100
AcDbLine
10
76
20
-4.5875
30
0
11
76
21
-35.564208
31
0
39
0
210
0
220
0
230
1
0
LINE
5
25A
100
AcDbEntity
8
SK2
62
256
6
ByLayer
370
13
48
1
60
0
100
AcDbLine
10
116
20
-33.564208
30
0
11
76
21
-33.564208
31
0
39
0
210
0
220
0
230
1
0
SOLID
5
25B
100
AcDbEntity
8
SK2
62
256
6
ByLayer
370
18
48
1
60
0
100
AcDbTrace
10
116
20
-33.564208
30
0
11
112.500002
21
-34.024992
31
0
12
112.499998
22
-33.103425
32
0
13
112.499998
23
-33.103425
33
0
39
0
210
0
220
0
230
1
0
SOLID
5
25C
100
AcDbEntity
8
SK2
62
256
6
ByLayer
370
18
48
1
60
0
100
AcDbTrace
10
76
20
-33.564208
30
0
11
79.499998
21
-33.103425
31
0
12
79.500002
22
-34.024992
32
0
13
79.500002
23
-34.024992
33
0
39
0
210
0
220
0
230
1
0
ENDBLK
5
25E
100
AcDbEntity
8
0
100
AcDbBlockEnd
0
BLOCK
5
263
100
AcDbEntity
8
0
100
AcDbBlockBegin
2
*D9
70
1
10
0
20
0
30
0
3
*D9
0
LINE
5
265
100
AcDbEntity
8
0
62
256
6
ByLayer
370
-2
48
1
60
0
100
AcDbLine
10
116
20
-5.651708
30
0
11
116
21
-24.564208
31
0
39
0
210
0
220
0
230
1
0
LINE
5
266
100
AcDbEntity
8
0
62
256
6
ByLayer
370
-2
48
1
60
0
100
AcDbLine
10
82
20
-1.5875
30
0
11
82
21
-24.564208
31
0
39
0
210
0
220
0
230
1
0
LINE
5
267
100
AcDbEntity
8
0
62
256
6
ByLayer
370
-2
48
1
60
0
100
AcDbLine
10
112.5
20
-22.564208
30
0
11
85.5
21
-22.564208
31
0
39
0
210
0
220
0
230
1
0
SOLID
5
268
100
AcDbEntity
8
0
62
256
6
ByLayer
370
-1
48
1
60
0
100
AcDbTrace
10
112.5
20
-23.147542
30
0
11
112.5
21
-21.980875
31
0
12
116
22
-22.564208
32
0
13
116
23
-22.564208
33
0
39
0
210
0
220
0
230
1
0
SOLID
5
269
100
AcDbEntity
8
0
62
256
6
ByLayer
370
-1
48
1
60
0
100
AcDbTrace
10
85.5
20
-21.980875
30
0
11
85.5
21
-23.147542
31
0
12
82
22
-22.564208
32
0
13
82
23
-22.564208
33
0
39
0
210
0
220
0
230
1
0
MTEXT
5
26A
100
AcDbEntity
8
0
62
256
6
ByLayer
370
18
48
1
60
0
100
AcDbMText
10
99
20
-16.564208
30
0
210
0
220
0
230
1
1
\A1;34
40
3
41
0
44
1
50
0
71
5
72
5
7
iso_b_vert
0
POINT
5
26B
100
AcDbEntity
8
Defpoints
62
0
6
ByLayer
370
-1
48
1
60
0
100
AcDbPoint
10
116
20
-4.064208
30
0
39
0
210
0
220
0
230
1
50
360
0
POINT
5
26C
100
AcDbEntity
8
Defpoints
62
0
6
ByLayer
370
-1
48
1
60
0
100
AcDbPoint
10
82
20
0
30
0
39
0
210
0
220
0
230
1
50
360
0
POINT
5
26D
100
AcDbEntity
8
Defpoints
62
0
6
ByLayer
370
-1
48
1
60
0
100
AcDbPoint
10
82
20
-22.564208
30
0
39
0
210
0
220
0
230
1
50
360
0
ENDBLK
5
264
100
AcDbEntity
8
0
100
AcDbBlockEnd
0
BLOCK
5
275
100
AcDbEntity
8
0
100
AcDbBlockBegin
2
_U4
70
0
10
0
20
0
30
0
3
_U4
0
MTEXT
5
26F
100
AcDbEntity
8
2
62
256
6
ByLayer
370
18
48
1
60
0
100
AcDbMText
10
97.209229
20
-21.679094
30
0
210
0
220
0
230
1
1
\W0.7167;34
40
3
41
0
44
1.084337
50
0
71
7
72
5
7
iso_b_vert
0
LINE
5
270
100
AcDbEntity
8
2
62
256
6
ByLayer
370
13
48
1
60
0
100
AcDbLine
10
116
20
-5.651708
30
0
11
116
21
-24.564208
31
0
39
0
210
0
220
0
230
1
0
LINE
5
271
100
AcDbEntity
8
2
62
256
6
ByLayer
370
13
48
1
60
0
100
AcDbLine
10
82
20
-1.5875
30
0
11
82
21
-24.564208
31
0
39
0
210
0
220
0
230
1
0
LINE
5
272
100
AcDbEntity
8
2
62
256
6
ByLayer
370
13
48
1
60
0
100
AcDbLine
10
116
20
-22.564208
30
0
11
82
21
-22.564208
31
0
39
0
210
0
220
0
230
1
0
SOLID
5
273
100
AcDbEntity
8
2
62
256
6
ByLayer
370
18
48
1
60
0
100
AcDbTrace
10
116
20
-22.564208
30
0
11
112.500002
21
-23.024992
31
0
12
112.499998
22
-22.103425
32
0
13
112.499998
23
-22.103425
33
0
39
0
210
0
220
0
230
1
0
SOLID
5
274
100
AcDbEntity
8
2
62
256
6
ByLayer
370
18
48
1
60
0
100
AcDbTrace
10
82
20
-22.564208
30
0
11
85.499998
21
-22.103425
31
0
12
85.500002
22
-23.024992
32
0
13
85.500002
23
-23.024992
33
0
39
0
210
0
220
0
230
1
0
ENDBLK
5
276
100
AcDbEntity
8
0
100
AcDbBlockEnd
0
ENDSEC
0
SECTION
2
ENTITIES
0
ARC
5
D3
100
AcDbEntity
8
SK1
62
256
6
ByLayer
370
18
48
1
60
0
100
AcDbCircle
39
0
10
-18.1
20
0
30
0
40
3.84000000000008
210
0
220
0
230
1
100
AcDbArc
50
323.832158
51
36.167842
0
ARC
5
D4
100
AcDbEntity
8
1
62
256
6
ByLayer
370
18
48
1
60
0
100
AcDbCircle
39
0
10
76.096238
20
-4.1
30
0
40
1.1
210
0
220
0
230
1
100
AcDbArc
50
90
51
100
0
ARC
5
D5
100
AcDbEntity
8
1
62
256
6
ByLayer
370
18
48
1
60
0
100
AcDbCircle
39
0
10
76.096238
20
4.1
30
0
40
1.1
210
0
220
0
230
1
100
AcDbArc
50
260
51
270
0
POINT
5
70
100
AcDbEntity
8
80
62
256
6
ByLayer
370
18
48
1
60
0
100
AcDbPoint
10
0
20
0
30
0
39
0
210
0
220
0
230
1
50
360
0
POINT
5
72
100
AcDbEntity
8
81
62
256
6
ByLayer
370
18
48
1
60
0
100
AcDbPoint
10
117.55
20
0
30
0
39
0
210
0
220
0
230
1
50
360
0
POINT
5
74
100
AcDbEntity
8
1
62
256
6
ByLayer
370
18
48
1
60
1
100
AcDbPoint
10
116
20
4.064208
30
0
39
0
210
0
220
0
230
1
50
360
0
POINT
5
76
100
AcDbEntity
8
1
62
256
6
ByLayer
370
18
48
1
60
1
100
AcDbPoint
10
116
20
-4.064208
30
0
39
0
210
0
220
0
230
1
50
360
0
POINT
5
77
100
AcDbEntity
8
1
62
256
6
ByLayer
370
18
48
1
60
1
100
AcDbPoint
10
116
20
4.064208
30
0
39
0
210
0
220
0
230
1
50
360
0
POINT
5
78
100
AcDbEntity
8
1
62
256
6
ByLayer
370
18
48
1
60
1
100
AcDbPoint
10
112.56
20
0
30
0
39
0
210
0
220
0
230
1
50
360
0
POINT
5
79
100
AcDbEntity
8
1
62
256
6
ByLayer
370
18
48
1
60
1
100
AcDbPoint
10
116
20
-4.064208
30
0
39
0
210
0
220
0
230
1
50
360
0
POINT
5
7A
100
AcDbEntity
8
1
62
256
6
ByLayer
370
18
48
1
60
1
100
AcDbPoint
10
103
20
-4.064208
30
0
39
0
210
0
220
0
230
1
50
360
0
POINT
5
7B
100
AcDbEntity
8
1
62
256
6
ByLayer
370
18
48
1
60
1
100
AcDbPoint
10
116
20
-4.064208
30
0
39
0
210
0
220
0
230
1
50
360
0
POINT
5
7C
100
AcDbEntity
8
1
62
256
6
ByLayer
370
18
48
1
60
1
100
AcDbPoint
10
76
20
-3
30
0
39
0
210
0
220
0
230
1
50
360
0
POINT
5
7D
100
AcDbEntity
8
1
62
256
6
ByLayer
370
18
48
1
60
1
100
AcDbPoint
10
116
20
-4.064208
30
0
39
0
210
0
220
0
230
1
50
360
0
POINT
5
7E
100
AcDbEntity
8
1
62
256
6
ByLayer
370
18
48
1
60
1
100
AcDbPoint
10
82
20
0
30
0
39
0
210
0
220
0
230
1
50
360
0
SPLINE
5
D6
100
AcDbEntity
8
1
62
256
6
ByLayer
370
13
48
1
60
0
100
AcDbSpline
70
4
71
3
72
9
73
5
40
0
40
0
40
0
40
0
40
0.435297896943096
40
1
40
1
40
1
40
1
41
1
10
114.466825283253
20
-3.3307678754104
30
0
41
1
10
114.462881516204
20
-3.33888005818355
30
0
41
1
10
114.453821602859
20
-3.35300206076019
30
0
41
1
10
114.444761725585
20
-3.35659200770232
30
0
41
1
10
114.439645595286
20
-3.35528352937735
30
0
0
SPLINE
5
D7
100
AcDbEntity
8
1
62
256
6
ByLayer
370
18
48
1
60
0
100
AcDbSpline
70
4
71
3
72
8
73
4
40
0
40
0
40
0
40
0
40
1
40
1
40
1
40
1
41
1
10
107.282617885913
20
3.86213678024109
30
0
41
1
10
107.278934062927
20
3.86624386709286
30
0
41
1
10
107.275264096089
20
3.86803187855114
30
0
41
1
10
107.271600552698
20
3.86751547029678
30
0
0
SPLINE
5
D8
100
AcDbEntity
8
1
62
256
6
ByLayer
370
18
48
1
60
0
100
AcDbSpline
70
4
71
3
72
8
73
4
40
0
40
0
40
0
40
0
40
1
40
1
40
1
40
1
41
1
10
106.876348368915
20
3.7963975614615
30
0
41
1
10
106.879853355718
20
3.80245449094676
30
0
41
1
10
106.883364234647
20
3.80702668153032
30
0
41
1
10
106.88688385283
20
3.81010720176107
30
0
0
SPLINE
5
D9
100
AcDbEntity
8
1
62
256
6
ByLayer
370
13
48
1
60
0
100
AcDbSpline
70
4
71
3
72
9
73
5
40
0
40
0
40
0
40
0
40
0.0309587924275262
40
1
40
1
40
1
40
1
41
1
10
105.675807199387
20
-3.34355298278197
30
0
41
1
10
105.676171899829
20
-3.34407380101959
30
0
41
1
10
105.687952090184
20
-3.36034908757881
30
0
41
1
10
105.69973230856
20
-3.35891291845459
30
0
41
1
10
105.711147817599
20
-3.34106858442701
30
0
0
SPLINE
5
DA
100
AcDbEntity
8
1
62
256
6
ByLayer
370
18
48
1
60
0
100
AcDbSpline
70
4
71
3
72
8
73
4
40
0
40
0
40
0
40
0
40
1
40
1
40
1
40
1
41
1
10
107.575002667586
20
3.35324309279844
30
0
41
1
10
107.579108962371
20
3.35069563461266
30
0
41
1
10
107.583215257383
20
3.34601212820047
30
0
41
1
10
107.5873215547
20
3.33919433585609
30
0
0
SPLINE
5
DB
100
AcDbEntity
8
1
62
256
6
ByLayer
370
18
48
1
60
0
100
AcDbSpline
70
4
71
3
72
8
73
4
40
0
40
0
40
0
40
0
40
1
40
1
40
1
40
1
41
1
10
114.335443485335
20
-3.54664551982287
30
0
41
1
10
114.330689727456
20
-3.54827569467591
30
0
41
1
10
114.325953837087
20
-3.5469081852483
30
0
41
1
10
114.321242072472
20
-3.54252964952374
30
0
0
SPLINE
5
DC
100
AcDbEntity
8
1
62
256
6
ByLayer
370
18
48
1
60
0
100
AcDbSpline
70
4
71
3
72
12
73
8
40
0
40
0
40
0
40
0
40
0.439369660371114
40
0.439369660371114
40
0.878739320742229
40
0.878739320742229
40
1
40
1
40
1
40
1
41
1
10
113.666519964221
20
-3.61972437337221
30
0
41
1
10
113.673551602985
20
-3.64844688956478
30
0
41
1
10
113.680583700319
20
-3.67032782430161
30
0
41
1
10
113.694547774077
20
-3.70049466791298
30
0
41
1
10
113.701483976888
20
-3.70878002480174
30
0
41
1
10
113.710308274209
20
-3.71054575572074
30
0
41
1
10
113.712215360963
20
-3.71040136222138
30
0
41
1
10
113.714122352287
20
-3.70972602753798
30
0
0
SPLINE
5
DD
100
AcDbEntity
8
1
62
256
6
ByLayer
370
18
48
1
60
0
100
AcDbSpline
70
4
71
3
72
10
73
6
40
0
40
0
40
0
40
0
40
0.244941036141118
40
0.244941036141118
40
1
40
1
40
1
40
1
41
1
10
105.53754049879
20
-3.62380814361961
30
0
41
1
10
105.535476804571
20
-3.62352259068541
30
0
41
1
10
105.53341640334
20
-3.6225505779415
30
0
41
1
10
105.525010549289
20
-3.6158106810735
30
0
41
1
10
105.518663366502
20
-3.60426756681196
30
0
41
1
10
105.512292709602
20
-3.58628346980061
30
0
0
SPLINE
5
DE
100
AcDbEntity
8
1
62
256
6
ByLayer
370
18
48
1
60
0
100
AcDbSpline
70
4
71
3
72
15
73
11
40
0
40
0
40
0
40
0
40
0.331155504627188
40
0.662311009254375
40
0.662311009254375
40
0.827888761567971
40
0.827888761567971
40
0.993466513881567
40
0.993466513881567
40
1
40
1
40
1
40
1
41
1
10
104.787705699879
20
-3.34839050676098
30
0
41
1
10
104.795201848727
20
-3.38675043846672
30
0
41
1
10
104.81011672513
20
-3.45106807038064
30
0
41
1
10
104.824930230205
20
-3.49107960046308
30
0
41
1
10
104.836085671306
20
-3.51187625010033
30
0
41
1
10
104.839812365292
20
-3.51727022627824
30
0
41
1
10
104.847304436919
20
-3.52492903672757
30
0
41
1
10
104.851079372727
20
-3.52718942233699
30
0
41
1
10
104.854980879641
20
-3.5278749428488
30
0
41
1
10
104.855128960799
20
-3.52789850185957
30
0
41
1
10
104.855277018851
20
-3.52791959834857
30
0
0
SPLINE
5
DF
100
AcDbEntity
8
1
62
256
6
ByLayer
370
13
48
1
60
0
100
AcDbSpline
70
4
71
3
72
8
73
4
40
0
40
0
40
0
40
0
40
1
40
1
40
1
40
1
41
1
10
113.485344807975
20
-3.33803455295791
30
0
41
1
10
113.474982999868
20
-3.32011014770251
30
0
41
1
10
113.46462119155
20
-3.28861591025333
30
0
41
1
10
113.454259383392
20
-3.24378196518143
30
0
0
SPLINE
5
E0
100
AcDbEntity
8
1
62
256
6
ByLayer
370
13
48
1
60
0
100
AcDbSpline
70
4
71
3
72
9
73
5
40
0
40
0
40
0
40
0
40
0.89094166903964
40
1
40
1
40
1
40
1
41
1
10
107.863485481584
20
3.34299004825311
30
0
41
1
10
107.879285812557
20
3.36609119368902
30
0
41
1
10
107.897020230692
20
3.35647555541013
30
0
41
1
10
107.91475464614
20
3.30704862722965
30
0
41
1
10
107.916688731865
20
3.30118873494919
30
0
0
SPLINE
5
E1
100
AcDbEntity
8
1
62
256
6
ByLayer
370
13
48
1
60
0
100
AcDbSpline
70
4
71
3
72
8
73
4
40
0
40
0
40
0
40
0
40
1
40
1
40
1
40
1
41
1
10
104.690434875603
20
-3.17624476765542
30
0
41
1
10
104.704942291731
20
-3.25517499036087
30
0
41
1
10
104.71944970853
20
-3.30863281646444
30
0
41
1
10
104.733957125215
20
-3.33547862221263
30
0
0
SPLINE
5
E2
100
AcDbEntity
8
1
62
256
6
ByLayer
370
13
48
1
60
0
100
AcDbSpline
70
4
71
3
72
10
73
6
40
0
40
0
40
0
40
0
40
0.154650749651089
40
0.714916369658995
40
1
40
1
40
1
40
1
41
1
10
104.361203854963
20
-3.07816559888346
30
0
41
1
10
104.366404821174
20
-3.11310156882635
30
0
41
1
10
104.390447743448
20
-3.26003435857848
30
0
41
1
10
104.424078127193
20
-3.36769771983788
30
0
41
1
10
104.452507523114
20
-3.35532047033215
30
0
41
1
10
104.462094990078
20
-3.33955110755909
30
0
0
SPLINE
5
E3
100
AcDbEntity
8
1
62
256
6
ByLayer
370
18
48
1
60
0
100
AcDbSpline
70
4
71
3
72
15
73
11
40
0
40
0
40
0
40
0
40
0.0796959634943768
40
0.0796959634943768
40
0.163359966813072
40
0.330687973450459
40
0.330687973450459
40
0.66534398672523
40
0.66534398672523
40
1
40
1
40
1
40
1
41
1
10
108.256324218341
20
4.00590559049877
30
0
41
1
10
108.258221894421
20
4.00616947839538
30
0
41
1
10
108.260124654779
20
4.00597129638652
30
0
41
1
10
108.264015363744
20
4.00461570374247
30
0
41
1
10
108.26997602891
20
4.00100797383269
30
0
41
1
10
108.27589478854
20
3.99288924747083
30
0
41
1
10
108.287710309729
20
3.9707538486058
30
0
41
1
10
108.295577167905
20
3.94815289462329
30
0
41
1
10
108.311326851384
20
3.88743098629857
30
0
41
1
10
108.319196761875
20
3.84930872957432
30
0
41
1
10
108.3270990865
20
3.80323187960553
30
0
0
SPLINE
5
E4
100
AcDbEntity
8
1
62
256
6
ByLayer
370
18
48
1
60
0
100
AcDbSpline
70
4
71
3
72
16
73
12
40
0
40
0
40
0
40
0
40
0.294345845933427
40
0.294345845933427
40
0.588691691866853
40
0.588691691866853
40
0.735864614833566
40
0.735864614833566
40
0.88303753780028
40
0.88303753780028
40
1
40
1
40
1
40
1
41
1
10
108.495769941507
20
3.76661619995406
30
0
41
1
10
108.48909858372
20
3.81855838782795
30
0
41
1
10
108.482448860204
20
3.86289433552929
30
0
41
1
10
108.469156026091
20
3.93645193845592
30
0
41
1
10
108.462513218686
20
3.96567458833985
30
0
41
1
10
108.452450405094
20
3.99783025060393
30
0
41
1
10
108.449068779933
20
4.00660326167642
30
0
41
1
10
108.442339009625
20
4.02001500362744
30
0
41
1
10
108.438984430005
20
4.02468900114226
30
0
41
1
10
108.432981792614
20
4.029498500431
30
0
41
1
10
108.430330554799
20
4.03037147386661
30
0
41
1
10
108.427683558537
20
4.0299925957352
30
0
0
SPLINE
5
E5
100
AcDbEntity
8
1
62
256
6
ByLayer
370
13
48
1
60
0
100
AcDbSpline
70
4
71
3
72
10
73
6
40
0
40
0
40
0
40
0
40
0.0333977134510303
40
0.951262726453362
40
1
40
1
40
1
40
1
41
1
10
108.840291956514
20
3.33390659540069
30
0
41
1
10
108.840977545407
20
3.33259473430681
30
0
41
1
10
108.860505085457
20
3.29352898258037
30
0
41
1
10
108.881033131189
20
3.20154630467548
30
0
41
1
10
108.900875558225
20
3.06636343522786
30
0
41
1
10
108.901876037684
20
3.05943071972143
30
0
0
SPLINE
5
E6
100
AcDbEntity
8
1
62
256
6
ByLayer
370
13
48
1
60
0
100
AcDbSpline
70
4
71
3
72
10
73
6
40
0
40
0
40
0
40
0
40
0.340322895338728
40
0.806563491282701
40
1
40
1
40
1
40
1
41
1
10
113.213003047997
20
-3.33817293314053
30
0
41
1
10
113.203020021465
20
-3.35536368987184
30
0
41
1
10
113.179360334245
20
-3.36609838072468
30
0
41
1
10
113.150026040599
20
-3.29119829170747
30
0
41
1
10
113.130674798184
20
-3.19521612586672
30
0
41
1
10
113.12500044679
20
-3.16322023396916
30
0
0
SPLINE
5
E7
100
AcDbEntity
8
1
62
256
6
ByLayer
370
18
48
1
60
0
100
AcDbSpline
70
4
71
3
72
19
73
15
40
0
40
0
40
0
40
0
40
0.0650965926274294
40
0.0650965926274294
40
0.298822444470577
40
0.298822444470577
40
0.41568537039215
40
0.474116833352936
40
0.474116833352936
40
0.532548296313721
40
0.532548296313721
40
0.766274148156861
40
0.766274148156861
40
1
40
1
40
1
40
1
41
1
10
112.860739415115
20
-3.93377396334518
30
0
41
1
10
112.858715098843
20
-3.93432165315394
30
0
41
1
10
112.856698038863
20
-3.93426799462222
30
0
41
1
10
112.847474314937
20
-3.93127225786068
30
0
41
1
10
112.840351633035
20
-3.92120895554879
30
0
41
1
10
112.829704089547
20
-3.89449065934008
30
0
41
1
10
112.824387092802
20
-3.87822262135086
30
0
41
1
10
112.819032223954
20
-3.85755859078134
30
0
41
1
10
112.815446232574
20
-3.84280050790466
30
0
41
1
10
112.813648571907
20
-3.83494304488178
30
0
41
1
10
112.804646178458
20
-3.79342855289659
30
0
41
1
10
112.797314294322
20
-3.75306234574475
30
0
41
1
10
112.782636726803
20
-3.65797626612755
30
0
41
1
10
112.775312404773
20
-3.60322642055689
30
0
41
1
10
112.767991585885
20
-3.54113821400858
30
0
0
SPLINE
5
E8
100
AcDbEntity
8
1
62
256
6
ByLayer
370
18
48
1
60
0
100
AcDbSpline
70
4
71
3
72
17
73
13
40
0
40
0
40
0
40
0
40
0.254955401116977
40
0.254955401116977
40
0.509910802233955
40
0.509910802233955
40
0.573649652513198
40
0.573649652513198
40
0.637388502792441
40
0.764866203350927
40
0.764866203350927
40
1
40
1
40
1
40
1
41
1
10
112.523363217974
20
-3.48079533407744
30
0
41
1
10
112.530468189614
20
-3.55172708317653
30
0
41
1
10
112.53761555061
20
-3.61566114959874
30
0
41
1
10
112.551894984864
20
-3.72939415318561
30
0
41
1
10
112.55902703134
20
-3.77919396717672
30
0
41
1
10
112.568069999686
20
-3.83240036718689
30
0
41
1
10
112.569887183997
20
-3.84259493557042
30
0
41
1
10
112.573520572717
20
-3.86196030090801
30
0
41
1
10
112.578980092087
20
-3.88952309872161
30
0
41
1
10
112.58445610064
20
-3.91265629310376
30
0
41
1
10
112.594822048339
20
-3.95095449361543
30
0
41
1
10
112.601515985871
20
-3.96913627841005
30
0
41
1
10
112.608163818823
20
-3.98062391793371
30
0
0
SPLINE
5
E9
100
AcDbEntity
8
1
62
256
6
ByLayer
370
18
48
1
60
0
100
AcDbSpline
70
4
71
3
72
18
73
14
40
0
40
0
40
0
40
0
40
0.0550755679505806
40
0.0550755679505806
40
0.291306675962937
40
0.291306675962937
40
0.527537783975293
40
0.527537783975293
40
0.64565333798147
40
0.64565333798147
40
0.763768891987647
40
0.763768891987647
40
1
40
1
40
1
40
1
41
1
10
104.381483871942
20
-3.46133384058274
30
0
41
1
10
104.380042623131
20
-3.46112971721453
30
0
41
1
10
104.378602396742
20
-3.4606060138525
30
0
41
1
10
104.370986393021
20
-3.45615861540867
30
0
41
1
10
104.364804386551
20
-3.44671493481951
30
0
41
1
10
104.352418044649
20
-3.41618735634387
30
0
41
1
10
104.346217384842
20
-3.39510466217394
30
0
41
1
10
104.336863265258
20
-3.3545019922633
30
0
41
1
10
104.333727975391
20
-3.33942190703968
30
0
41
1
10
104.327489258612
20
-3.30654492403582
30
0
41
1
10
104.324380462703
20
-3.28873224049698
30
0
41
1
10
104.315059664541
20
-3.23124202758723
30
0
41
1
10
104.308853080668
20
-3.18752254104038
30
0
41
1
10
104.302651518262
20
-3.13847737637889
30
0
0
SPLINE
5
EA
100
AcDbEntity
8
1
62
256
6
ByLayer
370
13
48
1
60
0
100
AcDbSpline
70
4
71
3
72
10
73
6
40
0
40
0
40
0
40
0
40
0.1103087592367
40
0.700955994721792
40
1
40
1
40
1
40
1
41
1
10
112.139768382777
20
-2.80105410972521
30
0
41
1
10
112.143287288727
20
-2.83374758386742
30
0
41
1
10
112.165648143705
20
-3.03313744919953
30
0
41
1
10
112.197548649293
20
-3.23879453008249
30
0
41
1
10
112.225930259073
20
-3.32174301115654
30
0
41
1
10
112.235469917249
20
-3.3381491749499
30
0
0
SPLINE
5
EB
100
AcDbEntity
8
1
62
256
6
ByLayer
370
18
48
1
60
0
100
AcDbSpline
70
4
71
3
72
25
73
21
40
0
40
0
40
0
40
0
40
0.151348875618092
40
0.151348875618092
40
0.302697751236184
40
0.302697751236184
40
0.454046626854275
40
0.454046626854275
40
0.491883845758799
40
0.491883845758799
40
0.529721064663323
40
0.529721064663323
40
0.605395502472373
40
0.605395502472373
40
0.756744378090475
40
0.908093253708577
40
0.908093253708577
40
0.983767691517628
40
0.983767691517628
40
1
40
1
40
1
40
1
41
1
10
103.342918510415
20
-2.62031520330927
30
0
41
1
10
103.350751110925
20
-2.68959863311025
30
0
41
1
10
103.358480497358
20
-2.75388337517927
30
0
41
1
10
103.373901630369
20
-2.87281159909406
30
0
41
1
10
103.381564598546
20
-2.92745175876843
30
0
41
1
10
103.396800603908
20
-3.02712877490049
30
0
41
1
10
103.40437457073
20
-3.07216604867372
30
0
41
1
10
103.413867154199
20
-3.12231528079926
30
0
41
1
10
103.415767194943
20
-3.1320370529329
30
0
41
1
10
103.419573373953
20
-3.15085788719566
30
0
41
1
10
103.421480433033
20
-3.15996013578601
30
0
41
1
10
103.427183634664
20
-3.18617890704581
30
0
41
1
10
103.430973785309
20
-3.20226194812565
30
0
41
1
10
103.442298896577
20
-3.24640142224226
30
0
41
1
10
103.457269505189
20
-3.29431390142358
30
0
41
1
10
103.472044765299
20
-3.32069579875449
30
0
41
1
10
103.483151953524
20
-3.33230880871739
30
0
41
1
10
103.486859671941
20
-3.33481527578479
30
0
41
1
10
103.491382125774
20
-3.33617367826562
30
0
41
1
10
103.492181719843
20
-3.33634938416878
30
0
41
1
10
103.492981804891
20
-3.33646082876444
30
0
0
SPLINE
5
EC
100
AcDbEntity
8
1
62
256
6
ByLayer
370
18
48
1
60
0
100
AcDbSpline
70
4
71
3
72
27
73
23
40
0
40
0
40
0
40
0
40
0.0394020947465009
40
0.0394020947465009
40
0.176630366925574
40
0.176630366925574
40
0.313858639104646
40
0.313858639104646
40
0.382472775194182
40
0.382472775194182
40
0.451086911283719
40
0.451086911283719
40
0.58831518346279
40
0.58831518346279
40
0.725543455641861
40
0.725543455641861
40
0.794157591731395
40
0.828464659776163
40
0.828464659776163
40
0.862771727820931
40
0.862771727820931
40
1
40
1
40
1
40
1
41
1
10
103.241293196647
20
-3.30109061812851
30
0
41
1
10
103.239738262143
20
-3.30087186539481
30
0
41
1
10
103.238184717944
20
-3.30022343401578
30
0
41
1
10
103.231218055503
20
-3.29540879831617
30
0
41
1
10
103.225814030662
20
-3.28650711812429
30
0
41
1
10
103.215071076083
20
-3.25845351314129
30
0
41
1
10
103.209733021577
20
-3.23930200338827
30
0
41
1
10
103.201730420124
20
-3.20271064751273
30
0
41
1
10
103.199059741656
20
-3.18918383681091
30
0
41
1
10
103.19371011036
20
-3.15951361822994
30
0
41
1
10
103.191044836127
20
-3.14346225187472
30
0
41
1
10
103.183059889473
20
-3.09173277708095
30
0
41
1
10
103.177767670918
20
-3.05248961258334
30
0
41
1
10
103.167296421503
20
-2.96468144782244
30
0
41
1
10
103.162118302415
20
-2.91611620280892
30
0
41
1
10
103.154380387813
20
-2.83620983925758
30
0
41
1
10
103.150517145976
20
-2.79448879866123
30
0
41
1
10
103.146634925548
20
-2.75007285108731
30
0
41
1
10
103.144038411038
20
-2.71985632443844
30
0
41
1
10
103.142735180227
20
-2.70442964994757
30
0
41
1
10
103.136222906022
20
-2.62597042709388
30
0
41
1
10
103.131040858501
20
-2.55910443887211
30
0
41
1
10
103.125918366893
20
-2.48817204587635
30
0
0
SPLINE
5
ED
100
AcDbEntity
8
1
62
256
6
ByLayer
370
18
48
1
60
0
100
AcDbSpline
70
4
71
3
72
8
73
4
40
0
40
0
40
0
40
0
40
1
40
1
40
1
40
1
41
1
10
109.108663216891
20
3.33493934220823
30
0
41
1
10
109.110418359471
20
3.33821950546852
30
0
41
1
10
109.11217350204
20
3.34111007923812
30
0
41
1
10
109.113928644599
20
3.34361082693067
30
0
0
SPLINE
5
EE
100
AcDbEntity
8
1
62
256
6
ByLayer
370
13
48
1
60
0
100
AcDbSpline
70
4
71
3
72
10
73
6
40
0
40
0
40
0
40
0
40
0.34514904258927
40
0.826558622283123
40
1
40
1
40
1
40
1
41
1
10
109.113928644599
20
3.34361082693084
30
0
41
1
10
109.127437475962
20
3.36285836821384
30
0
41
1
10
109.159788255398
20
3.35364914635883
30
0
41
1
10
109.198927377817
20
3.18152973466732
30
0
41
1
10
109.224557671493
20
2.99146969420252
30
0
41
1
10
109.231346015361
20
2.93601610229672
30
0
0
SPLINE
5
EF
100
AcDbEntity
8
1
62
256
6
ByLayer
370
18
48
1
60
0
100
AcDbSpline
70
4
71
3
72
28
73
24
40
0
40
0
40
0
40
0
40
0.0053669709581601
40
0.0053669709581601
40
0.17113914246513
40
0.17113914246513
40
0.254025228218614
40
0.254025228218614
40
0.295468271095357
40
0.295468271095357
40
0.3369113139721
40
0.3369113139721
40
0.502683485479076
40
0.502683485479076
40
0.668455656986052
40
0.668455656986052
40
0.75134174273954
40
0.75134174273954
40
0.792784785616283
40
0.792784785616283
40
0.834227828493026
40
0.834227828493026
40
1
40
1
40
1
40
1
41
1
10
109.540023173134
20
4.06420837695504
30
0
41
1
10
109.540257646784
20
4.06420775594304
30
0
41
1
10
109.540492085303
20
4.06419866166917
30
0
41
1
10
109.547966654809
20
4.06363874244747
30
0
41
1
10
109.555174398471
20
4.05501925711033
30
0
41
1
10
109.566073076407
20
4.02989966576123
30
0
41
1
10
109.569721928856
20
4.01949030899789
30
0
41
1
10
109.575216050115
20
4.00077072173772
30
0
41
1
10
109.577050948462
20
3.99401296536769
30
0
41
1
10
109.580727958011
20
3.97944933197976
30
0
41
1
10
109.582571866801
20
3.9716339411392
30
0
41
1
10
109.591755349957
20
3.93016478578295
30
0
41
1
10
109.59902216913
20
3.88921726709216
30
0
41
1
10
109.613506124815
20
3.79227918180925
30
0
41
1
10
109.620736579851
20
3.73628749008827
30
0
41
1
10
109.631651711458
20
3.64097868987773
30
0
41
1
10
109.635297434203
20
3.60731797713689
30
0
41
1
10
109.640778822589
20
3.55394658879996
30
0
41
1
10
109.642608144755
20
3.53567579647321
30
0
41
1
10
109.646272202964
20
3.49816282755094
30
0
41
1
10
109.648109573611
20
3.47889212531646
30
0
41
1
10
109.657280279202
20
3.38043968565151
30
0
41
1
10
109.664530286111
20
3.2953384128073
30
0
41
1
10
109.671777415558
20
3.20412130204377
30
0
0
SPLINE
5
F0
100
AcDbEntity
8
1
62
256
6
ByLayer
370
18
48
1
60
0
100
AcDbSpline
70
4
71
3
72
9
73
5
40
0
40
0
40
0
40
0
40
0.0867836131271532
40
1
40
1
40
1
40
1
41
1
10
110.085288659437
20
3.34246024245437
30
0
41
1
10
110.085498298205
20
3.34214748265512
30
0
41
1
10
110.087913947321
20
3.33847900959751
30
0
41
1
10
110.090329595032
20
3.33406639029872
30
0
41
1
10
110.092535603167
20
3.32942094317599
30
0
0
SPLINE
5
F1
100
AcDbEntity
8
1
62
256
6
ByLayer
370
13
48
1
60
0
100
AcDbSpline
70
4
71
3
72
10
73
6
40
0
40
0
40
0
40
0
40
0.402414698389284
40
0.858191612387613
40
1
40
1
40
1
40
1
41
1
10
110.092535603167
20
3.32942094317596
30
0
41
1
10
110.109171533442
20
3.29438873580861
30
0
41
1
10
110.144649288112
20
3.14499797545579
30
0
41
1
10
110.185989661803
20
2.79629556951917
30
0
41
1
10
110.210693994634
20
2.52616421122676
30
0
41
1
10
110.216556388699
20
2.45886357183258
30
0
0
SPLINE
5
F2
100
AcDbEntity
8
1
62
256
6
ByLayer
370
13
48
1
60
0
100
AcDbSpline
70
4
71
3
72
11
73
7
40
0
40
0
40
0
40
0
40
0.17511326721397
40
0.530776742374996
40
0.886440217536023
40
1
40
1
40
1
40
1
41
1
10
111.810387980895
20
-2.64074031172464
30
0
41
1
10
111.819664914641
20
-2.73728838800969
30
0
41
1
10
111.847783736596
20
-3.00391245130325
30
0
41
1
10
111.894744724334
20
-3.30286653438017
30
0
41
1
10
111.938444557573
20
-3.37631987905641
30
0
41
1
10
111.963302547082
20
-3.339059643605
30
0
41
1
10
111.969318592847
20
-3.32548952902579
30
0
0
SPLINE
5
F3
100
AcDbEntity
8
1
62
256
6
ByLayer
370
18
48
1
60
0
100
AcDbSpline
70
4
71
3
72
11
73
7
40
0
40
0
40
0
40
0
40
0.196729491693129
40
0.557621597525627
40
0.981039232997104
40
1
40
1
40
1
40
1
41
1
10
116
20
0.413359627721604
30
0
41
1
10
116
20
0.276751236517441
30
0
41
1
10
116
20
-0.115359345418881
30
0
41
1
10
116
20
-0.810582963226636
30
0
41
1
10
116
20
-1.33936566191105
30
0
41
1
10
116
20
-1.60351403706392
30
0
41
1
10
116
20
-1.61478520374104
30
0
0
SPLINE
5
F4
100
AcDbEntity
8
1
62
256
6
ByLayer
370
13
48
1
60
0
100
AcDbSpline
70
4
71
3
72
11
73
7
40
0
40
0
40
0
40
0
40
0.0695813467673422
40
0.425568049267514
40
0.781554751767685
40
1
40
1
40
1
40
1
41
1
10
110.38697522883
20
3.35403934839528
30
0
41
1
10
110.390658085966
20
3.35211862685767
30
0
41
1
10
110.41318289212
20
3.32982296977284
30
0
41
1
10
110.454549653204
20
3.17003262485645
30
0
41
1
10
110.503795586825
20
2.75832321664655
30
0
41
1
10
110.534199585696
20
2.41027425747646
30
0
41
1
10
110.545761632256
20
2.26647175057391
30
0
0
SPLINE
5
F5
100
AcDbEntity
8
1
62
256
6
ByLayer
370
13
48
1
60
0
100
AcDbSpline
70
4
71
3
72
11
73
7
40
0
40
0
40
0
40
0
40
0.0865710435725195
40
0.441976454349929
40
0.797381865127339
40
1
40
1
40
1
40
1
41
1
10
111.372243139729
20
3.23007868603244
30
0
41
1
10
111.376832735797
20
3.20911962707621
30
0
41
1
10
111.400264285325
20
3.08896151699946
30
0
41
1
10
111.442537829674
20
2.75277549306918
30
0
41
1
10
111.490963501
20
2.17856773398864
30
0
41
1
10
111.520547394568
20
1.75916014124422
30
0
41
1
10
111.531289289843
20
1.59990014931131
30
0
0
SPLINE
5
F6
100
AcDbEntity
8
1
62
256
6
ByLayer
370
13
48
1
60
0
100
AcDbSpline
70
4
71
3
72
11
73
7
40
0
40
0
40
0
40
0
40
0.320211125995205
40
0.578256846908206
40
0.836302567821208
40
1
40
1
40
1
40
1
41
1
10
114.489772523722
20
-0.777019493562676
30
0
41
1
10
114.472800892722
20
-0.498499840309165
30
0
41
1
10
114.442152483218
20
0.0197502026790062
30
0
41
1
10
114.397827299203
20
0.765497528010712
30
0
41
1
10
114.36179755107
20
1.34331585068097
30
0
41
1
10
114.339444583432
20
1.67462034203612
30
0
41
1
10
114.330768394344
20
1.79812067223969
30
0
0
SPLINE
5
F7
100
AcDbEntity
8
1
62
256
6
ByLayer
370
18
48
1
60
0
100
AcDbSpline
70
4
71
3
72
10
73
6
40
0
40
0
40
0
40
0
40
0.352196595959483
40
0.703958787068353
40
1
40
1
40
1
40
1
41
1
10
115.700000030518
20
-1.61732765587882
30
0
41
1
10
115.700000036037
20
-1.37210928338294
30
0
41
1
10
115.699999997611
20
-0.845086579316302
30
0
41
1
10
115.699999926841
20
-0.0436721273745491
30
0
41
1
10
115.699999918249
20
0.471235221082765
30
0
41
1
10
115.699999917502
20
0.700151995520315
30
0
0
SPLINE
5
F8
100
AcDbEntity
8
1
62
256
6
ByLayer
370
18
48
1
60
0
100
AcDbSpline
70
4
71
3
72
27
73
23
40
0
40
0
40
0
40
0
40
0.125
40
0.125
40
0.250000000000001
40
0.250000000000001
40
0.375000000000001
40
0.375000000000001
40
0.406250000000001
40
0.406250000000001
40
0.437500000000001
40
0.500000000000002
40
0.500000000000002
40
0.750000000000002
40
0.750000000000002
40
0.781250000000001
40
0.781250000000001
40
0.8125
40
0.8125
40
0.875
40
0.875
40
1
40
1
40
1
40
1
41
1
10
114.429519870668
20
1.83561750226787
30
0
41
1
10
114.436262562378
20
1.73241843128744
30
0
41
1
10
114.442889688696
20
1.62672391287219
30
0
41
1
10
114.456128076783
20
1.41051920419162
30
0
41
1
10
114.462751107112
20
1.30001058805314
30
0
41
1
10
114.476098346496
20
1.07424495043668
30
0
41
1
10
114.482821410348
20
0.958988513766059
30
0
41
1
10
114.491343929612
20
0.811864481938699
30
0
41
1
10
114.493052786697
20
0.782315264799792
30
0
41
1
10
114.496464148043
20
0.723242282091263
30
0
41
1
10
114.501578202544
20
0.634555046402056
30
0
41
1
10
114.506684778161
20
0.545636994843392
30
0
41
1
10
114.523696331224
20
0.248736338289405
30
0
41
1
10
114.537277514636
20
0.0096027475292431
30
0
41
1
10
114.552570867864
20
-0.261301091057504
30
0
41
1
10
114.554271254641
20
-0.29142755194286
30
0
41
1
10
114.557675910131
20
-0.351732860830396
30
0
41
1
10
114.55938110856
20
-0.381928111325351
30
0
41
1
10
114.564480600974
20
-0.472163399720131
30
0
41
1
10
114.567866555063
20
-0.531989665910061
30
0
41
1
10
114.578000295419
20
-0.710488749866443
30
0
41
1
10
114.58472402697
20
-0.82818533438595
30
0
41
1
10
114.59145251412
20
-0.944566965763443
30
0
0
SPLINE
5
F9
100
AcDbEntity
8
1
62
256
6
ByLayer
370
13
48
1
60
0
100
AcDbSpline
70
4
71
3
72
11
73
7
40
0
40
0
40
0
40
0
40
0.211790790542614
40
0.469933516792016
40
0.728076243041418
40
1
40
1
40
1
40
1
41
1
10
114.160413846153
20
-0.508292395148629
30
0
41
1
10
114.149192966539
20
-0.321200475390015
30
0
41
1
10
114.124295452088
20
0.0992703590285942
30
0
41
1
10
114.085721256027
20
0.748665480146059
30
0
41
1
10
114.043960240864
20
1.41946053061608
30
0
41
1
10
114.015876458496
20
1.82820268831995
30
0
41
1
10
114.001469575043
20
2.02213594705103
30
0
0
SPLINE
5
FA
100
AcDbEntity
8
1
62
256
6
ByLayer
370
13
48
1
60
0
100
AcDbSpline
70
4
71
3
72
10
73
6
40
0
40
0
40
0
40
0
40
0.334325706932296
40
0.689864718208318
40
1
40
1
40
1
40
1
41
1
10
111.70149093779
20
3.14598290669963
30
0
41
1
10
111.719208677942
20
3.04196508627817
30
0
41
1
10
111.755768367681
20
2.74973708509288
30
0
41
1
10
111.808763817217
20
2.12468934694005
30
0
41
1
10
111.844041525829
20
1.61032647474059
30
0
41
1
10
111.86047728476
20
1.35678806527014
30
0
0
SPLINE
5
FB
100
AcDbEntity
8
1
62
256
6
ByLayer
370
13
48
1
60
0
100
AcDbSpline
70
4
71
3
72
11
73
7
40
0
40
0
40
0
40
0
40
0.20160374774286
40
0.717919290544588
40
0.976077061945451
40
1
40
1
40
1
40
1
41
1
10
112.845822558854
20
0.576324830362211
30
0
41
1
10
112.835141856649
20
0.753802620655932
30
0
41
1
10
112.79710719575
20
1.37690219473285
30
0
41
1
10
112.745396294889
20
2.14099695504959
30
0
41
1
10
112.703099352673
20
2.61470300756912
30
0
41
1
10
112.688155266471
20
2.75889726893519
30
0
41
1
10
112.686887874598
20
2.77095744747743
30
0
0
SPLINE
5
FC
100
AcDbEntity
8
1
62
256
6
ByLayer
370
18
48
1
60
0
100
AcDbSpline
70
4
71
3
72
32
73
28
40
0
40
0
40
0
40
0
40
0.124999999999999
40
0.124999999999999
40
0.249999999999997
40
0.249999999999997
40
0.374999999999996
40
0.374999999999996
40
0.437499999999996
40
0.437499999999996
40
0.468749999999995
40
0.468749999999995
40
0.499999999999995
40
0.499999999999995
40
0.624999999999996
40
0.624999999999996
40
0.749999999999998
40
0.749999999999998
40
0.812499999999999
40
0.812499999999999
40
0.843749999999999
40
0.843749999999999
40
0.874999999999999
40
0.874999999999999
40
0.9375
40
0.9375
40
1
40
1
40
1
40
1
41
1
10
112.414335437025
20
0.930265984417815
30
0
41
1
10
112.407414132628
20
1.07221600982473
30
0
41
1
10
112.400977181815
20
1.21094021745699
30
0
41
1
10
112.388721664828
20
1.48219507087515
30
0
41
1
10
112.382899721731
20
1.61472443042265
30
0
41
1
10
112.37086669266
20
1.87360250689855
30
0
41
1
10
112.364619785999
20
1.99995017446733
30
0
41
1
10
112.354494924958
20
2.18470709874069
30
0
41
1
10
112.350999973659
20
2.2454972590553
30
0
41
1
10
112.345583294561
20
2.33545958140647
30
0
41
1
10
112.343746644258
20
2.36528097388424
30
0
41
1
10
112.340045486259
20
2.42414888685693
30
0
41
1
10
112.338178911438
20
2.45323156259909
30
0
41
1
10
112.328793687396
20
2.59690992043983
30
0
41
1
10
112.321085787022
20
2.70631510448601
30
0
41
1
10
112.30649792526
20
2.91435856696992
30
0
41
1
10
112.29984284155
20
3.01300294167967
30
0
41
1
10
112.289984756377
20
3.15278894636233
30
0
41
1
10
112.28671372604
20
3.19801797789498
30
0
41
1
10
112.281785476483
20
3.26377374234616
30
0
41
1
10
112.280139840224
20
3.28534419936048
30
0
41
1
10
112.27684461359
20
3.32778031991401
30
0
41
1
10
112.275197614045
20
3.34861195368703
30
0
41
1
10
112.270284888833
20
3.40977421180131
30
0
41
1
10
112.267038683404
20
3.44884654249589
30
0
41
1
10
112.260744632652
20
3.52361314106199
30
0
41
1
10
112.257746466401
20
3.55930835090211
30
0
41
1
10
112.254749906685
20
3.59330944155556
30
0
0
SPLINE
5
FD
100
AcDbEntity
8
1
62
256
6
ByLayer
370
18
48
1
60
0
100
AcDbSpline
70
4
71
3
72
8
73
4
40
0
40
0
40
0
40
0
40
1
40
1
40
1
40
1
41
1
10
112.254749906686
20
3.59330944155556
30
0
41
1
10
112.253287862736
20
3.60726084016787
30
0
41
1
10
112.251824274162
20
3.62093074116751
30
0
41
1
10
112.250358363758
20
3.63431777867174
30
0
0
SPLINE
5
FE
100
AcDbEntity
8
1
62
256
6
ByLayer
370
18
48
1
60
0
100
AcDbSpline
70
4
71
3
72
27
73
23
40
0
40
0
40
0
40
0
40
0.25
40
0.25
40
0.3125
40
0.3125
40
0.34375
40
0.34375
40
0.375000000000001
40
0.375000000000001
40
0.500000000000002
40
0.500000000000002
40
0.625000000000003
40
0.625000000000003
40
0.750000000000004
40
0.750000000000004
40
0.781250000000004
40
0.781250000000004
40
0.812500000000003
40
0.875000000000002
40
0.875000000000002
40
1
40
1
40
1
40
1
41
1
10
113.971452229255
20
-0.47471188761503
30
0
41
1
10
113.957348568913
20
-0.218831543205709
30
0
41
1
10
113.943631983579
20
0.0368879090084704
30
0
41
1
10
113.926435864156
20
0.35630964275245
30
0
41
1
10
113.9229898783
20
0.420182395987695
30
0
41
1
10
113.917794878222
20
0.51597316035901
30
0
41
1
10
113.916058866659
20
0.547900351932668
30
0
41
1
10
113.912575401909
20
0.611748417173345
30
0
41
1
10
113.910825471575
20
0.64371417373215
30
0
41
1
10
113.902083134852
20
0.80274628936192
30
0
41
1
10
113.895089697749
20
0.92769596522831
30
0
41
1
10
113.881022345957
20
1.17319303372622
30
0
41
1
10
113.873952891998
20
1.29373990061148
30
0
41
1
10
113.85969594602
20
1.53038136298682
30
0
41
1
10
113.852492391579
20
1.64647294060478
30
0
41
1
10
113.843486640395
20
1.78865916358538
30
0
41
1
10
113.841684550134
20
1.81696599903179
30
0
41
1
10
113.838101374246
20
1.87298095577489
30
0
41
1
10
113.832750940377
20
1.95621554152456
30
0
41
1
10
113.827476609396
20
2.03710526292971
30
0
41
1
10
113.817017345493
20
2.19579506272896
30
0
41
1
10
113.810170912189
20
2.29747244983514
30
0
41
1
10
113.803332095784
20
2.39508267291615
30
0
0
SPLINE
5
FF
100
AcDbEntity
8
1
62
256
6
ByLayer
370
18
48
1
60
0
100
AcDbSpline
70
4
71
3
72
30
73
26
40
0
40
0
40
0
40
0
40
0.124999999999997
40
0.124999999999997
40
0.249999999999995
40
0.249999999999995
40
0.312499999999994
40
0.312499999999994
40
0.343749999999994
40
0.343749999999994
40
0.374999999999994
40
0.374999999999994
40
0.499999999999995
40
0.499999999999995
40
0.624999999999996
40
0.624999999999996
40
0.687499999999995
40
0.687499999999995
40
0.718749999999995
40
0.718749999999995
40
0.749999999999995
40
0.749999999999995
40
0.874999999999998
40
0.874999999999998
40
1
40
1
40
1
40
1
41
1
10
113.285237466922
20
2.84056798275361
30
0
41
1
10
113.29226237439
20
2.75036952629736
30
0
41
1
10
113.299299188201
20
2.65539027777595
30
0
41
1
10
113.31355755448
20
2.4560602083111
30
0
41
1
10
113.320732965669
20
2.35167648482641
30
0
41
1
10
113.331449429185
20
2.18781255892875
30
0
41
1
10
113.33501528075
20
2.13197485892741
30
0
41
1
10
113.340353632264
20
2.04635094375482
30
0
41
1
10
113.342134181676
20
2.01745290144297
30
0
41
1
10
113.345675855959
20
1.95930860280777
30
0
41
1
10
113.347437325993
20
1.93005815352601
30
0
41
1
10
113.356202907386
20
1.78292562121231
30
0
41
1
10
113.363075536732
20
1.66240801990776
30
0
41
1
10
113.376773067614
20
1.41594832170674
30
0
41
1
10
113.383614165509
20
1.29001066336241
30
0
41
1
10
113.394052862432
20
1.09705811934998
30
0
41
1
10
113.397556567709
20
1.03206459761262
30
0
41
1
10
113.40285060766
20
0.93354570641543
30
0
41
1
10
113.404621703873
20
0.900534516404576
30
0
41
1
10
113.408177155293
20
0.834165024161763
30
0
41
1
10
113.4099616375
20
0.800804168099944
30
0
41
1
10
113.418869029897
20
0.634045009729476
30
0
41
1
10
113.42598892472
20
0.500054381406358
30
0
41
1
10
113.440214641641
20
0.230920343806019
30
0
41
1
10
113.447313165171
20
0.0957764516462305
30
0
41
1
10
113.454381539027
20
-0.0399632244646284
30
0
0
SPLINE
5
100
100
AcDbEntity
8
1
62
256
6
ByLayer
370
13
48
1
60
0
100
AcDbSpline
70
4
71
3
72
11
73
7
40
0
40
0
40
0
40
0
40
0.0517948855144793
40
0.309788857066384
40
0.825776800170195
40
1
40
1
40
1
40
1
41
1
10
113.175154513721
20
0.305383230270508
30
0
41
1
10
113.172408762924
20
0.351508918762363
30
0
41
1
10
113.155986233933
20
0.6268717487917
30
0
41
1
10
113.112210145055
20
1.34882057398207
30
0
41
1
10
113.061943890199
20
2.08922096078419
30
0
41
1
10
113.025354414241
20
2.51078192642001
30
0
41
1
10
113.016118493128
20
2.60877226063093
30
0
0
SPLINE
5
101
100
AcDbEntity
8
1
62
256
6
ByLayer
370
18
48
1
60
0
100
AcDbSpline
70
4
71
3
72
20
73
16
40
0
40
0
40
0
40
0
40
0.123192124190446
40
0.123192124190446
40
0.269326770158705
40
0.269326770158705
40
0.415461416126964
40
0.415461416126964
40
0.561596062095223
40
0.561596062095223
40
0.707730708063482
40
0.707730708063482
40
0.853865354031741
40
0.853865354031741
40
1
40
1
40
1
40
1
41
1
10
110.24318576152
20
3.26636835220373
30
0
41
1
10
110.249698773771
20
3.26702621919677
30
0
41
1
10
110.256224482765
20
3.26799930174283
30
0
41
1
10
110.270515544088
20
3.27084669585796
30
0
41
1
10
110.278328414042
20
3.27287582416693
30
0
41
1
10
110.293711819881
20
3.27790011997146
30
0
41
1
10
110.301289107609
20
3.28088996440158
30
0
41
1
10
110.316189381124
20
3.28790507689502
30
0
41
1
10
110.323512643873
20
3.29192929667809
30
0
41
1
10
110.337860671181
20
3.30116236733201
30
0
41
1
10
110.34490032797
20
3.30639532039444
30
0
41
1
10
110.358213890325
20
3.31791977183062
30
0
41
1
10
110.364539338438
20
3.32423775676188
30
0
41
1
10
110.37642340283
20
3.33816316834606
30
0
41
1
10
110.382002891342
20
3.34581586029469
30
0
41
1
10
110.38697522883
20
3.35403934839491
30
0
0
SPLINE
5
102
100
AcDbEntity
8
1
62
256
6
ByLayer
370
18
48
1
60
0
100
AcDbSpline
70
4
71
3
72
10
73
6
40
0
40
0
40
0
40
0
40
0.5
40
0.5
40
1
40
1
40
1
40
1
41
1
10
110.38697522883
20
3.35403934839493
30
0
41
1
10
110.458892082246
20
3.47297885916944
30
0
41
1
10
110.530159783947
20
3.58973035542729
30
0
41
1
10
110.671810823774
20
3.81885241814712
30
0
41
1
10
110.741968898587
20
3.93085152998586
30
0
41
1
10
110.811615228708
20
4.04022554638539
30
0
0
SPLINE
5
103
100
AcDbEntity
8
1
62
256
6
ByLayer
370
18
48
1
60
0
100
AcDbSpline
70
4
71
3
72
10
73
6
40
0
40
0
40
0
40
0
40
0.5
40
0.5
40
1
40
1
40
1
40
1
41
1
10
110.935671034068
20
4.0248391006881
30
0
41
1
10
111.007189123583
20
3.89747015372905
30
0
41
1
10
111.079264729412
20
3.76735219391506
30
0
41
1
10
111.224875547432
20
3.50194459586214
30
0
41
1
10
111.298186017232
20
3.36706481868797
30
0
41
1
10
111.372243139729
20
3.23007868603244
30
0
0
SPLINE
5
104
100
AcDbEntity
8
1
62
256
6
ByLayer
370
18
48
1
60
0
100
AcDbSpline
70
4
71
3
72
32
73
28
40
0
40
0
40
0
40
0
40
0.125000000000051
40
0.125000000000051
40
0.187500000000024
40
0.187500000000024
40
0.249999999999998
40
0.249999999999998
40
0.375000000000066
40
0.375000000000066
40
0.437500000000101
40
0.437500000000101
40
0.500000000000135
40
0.500000000000135
40
0.625000000000204
40
0.625000000000204
40
0.68750000000017
40
0.68750000000017
40
0.750000000000136
40
0.750000000000136
40
0.812500000000102
40
0.812500000000102
40
0.875000000000068
40
0.875000000000068
40
0.937500000000034
40
0.937500000000034
40
1
40
1
40
1
40
1
41
1
10
111.372243139729
20
3.23007868603244
30
0
41
1
10
111.381433959582
20
3.21307809479666
30
0
41
1
10
111.392148371127
20
3.19796035785296
30
0
41
1
10
111.40993314562
20
3.17738519659861
30
0
41
1
10
111.416154108672
20
3.17088647643442
30
0
41
1
10
111.429147533054
20
3.15856762976887
30
0
41
1
10
111.435851931558
20
3.15281503712771
30
0
41
1
10
111.456357640972
20
3.13681218626081
30
0
41
1
10
111.470622209304
20
3.12772983000937
30
0
41
1
10
111.492821890914
20
3.11632421601246
30
0
41
1
10
111.500383191656
20
3.11288609243934
30
0
41
1
10
111.515654960489
20
3.10682631498671
30
0
41
1
10
111.523316597091
20
3.10422075099544
30
0
41
1
10
111.546366048362
20
3.09765887523815
30
0
41
1
10
111.561817414012
20
3.09493662508078
30
0
41
1
10
111.585091110049
20
3.09359620994789
30
0
41
1
10
111.59290807773
20
3.09361640069056
30
0
41
1
10
111.608293801416
20
3.09467530490971
30
0
41
1
10
111.615871682725
20
3.09570705045451
30
0
41
1
10
111.63077197478
20
3.09885621325714
30
0
41
1
10
111.638094721644
20
3.10097261184649
30
0
41
1
10
111.652440452435
20
3.1064439844109
30
0
41
1
10
111.659475126805
20
3.10981728248459
30
0
41
1
10
111.672775249628
20
3.11778858786701
30
0
41
1
10
111.679092822519
20
3.12240014983212
30
0
41
1
10
111.690959571247
20
3.13307382234959
30
0
41
1
10
111.696528660016
20
3.1391742762151
30
0
41
1
10
111.701490937789
20
3.14598290669676
30
0
0
SPLINE
5
105
100
AcDbEntity
8
1
62
256
6
ByLayer
370
18
48
1
60
0
100
AcDbSpline
70
4
71
3
72
12
73
8
40
0
40
0
40
0
40
0
40
0.500000000000001
40
0.500000000000001
40
0.75
40
0.75
40
1
40
1
40
1
40
1
41
1
10
111.70149093779
20
3.14598290669963
30
0
41
1
10
111.773487240612
20
3.24476742550965
30
0
41
1
10
111.844809699538
20
3.33946421108726
30
0
41
1
10
111.951069847678
20
3.47531491360954
30
0
41
1
10
111.986312250968
20
3.51947991525179
30
0
41
1
10
112.056464054833
20
3.60561846091395
30
0
41
1
10
112.091391847316
20
3.64765028312226
30
0
41
1
10
112.126194884442
20
3.68864808130314
30
0
0
SPLINE
5
106
100
AcDbEntity
8
1
62
256
6
ByLayer
370
18
48
1
60
0
100
AcDbSpline
70
4
71
3
72
8
73
4
40
0
40
0
40
0
40
0
40
1
40
1
40
1
40
1
41
1
10
112.250358363758
20
3.63431777867174
30
0
41
1
10
112.209024081161
20
3.65296704291492
30
0
41
1
10
112.167619992677
20
3.67109077291028
30
0
41
1
10
112.126194884442
20
3.68864808130311
30
0
0
SPLINE
5
107
100
AcDbEntity
8
1
62
256
6
ByLayer
370
18
48
1
60
0
100
AcDbSpline
70
4
71
3
72
10
73
6
40
0
40
0
40
0
40
0
40
0.5
40
0.5
40
1
40
1
40
1
40
1
41
1
10
112.250358363758
20
3.63431777867186
30
0
41
1
10
112.321851614398
20
3.49127512790648
30
0
41
1
10
112.393885250746
20
3.34758960907146
30
0
41
1
10
112.539494205889
20
3.05921179201709
30
0
41
1
10
112.612813005528
20
2.91502404556107
30
0
41
1
10
112.686887874598
20
2.77095744747743
30
0
0
SPLINE
5
108
100
AcDbEntity
8
1
62
256
6
ByLayer
370
18
48
1
60
0
100
AcDbSpline
70
4
71
3
72
32
73
28
40
0
40
0
40
0
40
0
40
0.124999999999916
40
0.124999999999916
40
0.187499999999874
40
0.187499999999874
40
0.249999999999833
40
0.249999999999833
40
0.374999999999751
40
0.374999999999751
40
0.437499999999775
40
0.437499999999775
40
0.4999999999998
40
0.4999999999998
40
0.624999999999849
40
0.624999999999849
40
0.687499999999874
40
0.687499999999874
40
0.749999999999899
40
0.749999999999899
40
0.812499999999924
40
0.812499999999924
40
0.874999999999949
40
0.874999999999949
40
0.937499999999975
40
0.937499999999975
40
1
40
1
40
1
40
1
41
1
10
112.686887874598
20
2.7709574474774
30
0
41
1
10
112.696078578804
20
2.75308264721727
30
0
41
1
10
112.70679231407
20
2.73655638524517
30
0
41
1
10
112.724575619227
20
2.71327793118482
30
0
41
1
10
112.730796013265
20
2.70577681260482
30
0
41
1
10
112.743788183139
20
2.69126166992774
30
0
41
1
10
112.750491482416
20
2.68432678282659
30
0
41
1
10
112.770993393723
20
2.66457599476632
30
0
41
1
10
112.785254549097
20
2.6527183707631
30
0
41
1
10
112.807449930872
20
2.6367515150572
30
0
41
1
10
112.815010096474
20
2.63171991201972
30
0
41
1
10
112.83027920681
20
2.62235873638806
30
0
41
1
10
112.837939781699
20
2.61805578813898
30
0
41
1
10
112.860987031221
20
2.60625933189365
30
0
41
1
10
112.876438272923
20
2.59985988356502
30
0
41
1
10
112.899713792957
20
2.59267517394684
30
0
41
1
10
112.907531707336
20
2.59068042408793
30
0
41
1
10
112.922918785729
20
2.58765645854197
30
0
41
1
10
112.930497433377
20
2.58661864457679
30
0
41
1
10
112.945399260523
20
2.58556505595479
30
0
41
1
10
112.952722775862
20
2.58554835835102
30
0
41
1
10
112.967069881776
20
2.58667741908616
30
0
41
1
10
112.974104699112
20
2.58783613062656
30
0
41
1
10
112.987404752812
20
2.59142097573485
30
0
41
1
10
112.993722218152
20
2.59384567918426
30
0
41
1
10
113.005588491518
20
2.60016024504304
30
0
41
1
10
113.011156964709
20
2.60407848489393
30
0
41
1
10
113.016118493128
20
2.60877226063013
30
0
0
SPLINE
5
109
100
AcDbEntity
8
1
62
256
6
ByLayer
370
18
48
1
60
0
100
AcDbSpline
70
4
71
3
72
10
73
6
40
0
40
0
40
0
40
0
40
0.5
40
0.5
40
1
40
1
40
1
40
1
41
1
10
113.016118493128
20
2.60877226063093
30
0
41
1
10
113.06142895472
20
2.6516375084461
30
0
41
1
10
113.106482785864
20
2.69237800775167
30
0
41
1
10
113.196174607555
20
2.76965125396106
30
0
41
1
10
113.240845150663
20
2.80620745936727
30
0
41
1
10
113.285237466922
20
2.8405679827537
30
0
0
SPLINE
5
10A
100
AcDbEntity
8
1
62
256
6
ByLayer
370
18
48
1
60
0
100
AcDbSpline
70
4
71
3
72
10
73
6
40
0
40
0
40
0
40
0
40
0.5
40
0.5
40
1
40
1
40
1
40
1
41
1
10
113.285237466922
20
2.84056798275373
30
0
41
1
10
113.371475535333
20
2.76868472427282
30
0
41
1
10
113.457729030795
20
2.69556092159419
30
0
41
1
10
113.630354330035
20
2.54700102355957
30
0
41
1
10
113.716641983538
20
2.47149944307409
30
0
41
1
10
113.803332095784
20
2.39508267291626
30
0
0
SPLINE
5
10B
100
AcDbEntity
8
1
62
256
6
ByLayer
370
18
48
1
60
0
100
AcDbSpline
70
4
71
3
72
8
73
4
40
0
40
0
40
0
40
0
40
1
40
1
40
1
40
1
41
1
10
113.803332095784
20
2.39508267291626
30
0
41
1
10
113.868860133731
20
2.26892132608234
30
0
41
1
10
113.934844361072
20
2.14456963134788
30
0
41
1
10
114.001469575043
20
2.02213594705103
30
0
0
SPLINE
5
10C
100
AcDbEntity
8
1
62
256
6
ByLayer
370
18
48
1
60
0
100
AcDbSpline
70
4
71
3
72
31
73
27
40
0
40
0
40
0
40
0
40
0.125000000000077
40
0.125000000000077
40
0.187500000000063
40
0.187500000000063
40
0.250000000000049
40
0.250000000000049
40
0.375000000000019
40
0.375000000000019
40
0.437500000000003
40
0.437500000000003
40
0.499999999999987
40
0.499999999999987
40
0.625000000000091
40
0.625000000000091
40
0.687500000000076
40
0.687500000000076
40
0.750000000000061
40
0.812500000000046
40
0.812500000000046
40
0.87500000000003
40
0.87500000000003
40
0.937500000000015
40
0.937500000000015
40
1
40
1
40
1
40
1
41
1
10
114.001469575043
20
2.02213594705105
30
0
41
1
10
114.010669304431
20
2.00523008369513
30
0
41
1
10
114.021392392459
20
1.98899696859363
30
0
41
1
10
114.039188148439
20
1.96541002153094
30
0
41
1
10
114.045412463538
20
1.9576777770786
30
0
41
1
10
114.058411879034
20
1.94245802050233
30
0
41
1
10
114.065117049894
20
1.93505432537759
30
0
41
1
10
114.085625282787
20
1.91358422883553
30
0
41
1
10
114.099889236833
20
1.90016703924826
30
0
41
1
10
114.122086796124
20
1.88127228129514
30
0
41
1
10
114.129647401471
20
1.87516122409508
30
0
41
1
10
114.144916338292
20
1.86345315108792
30
0
41
1
10
114.152576730596
20
1.8578904551313
30
0
41
1
10
114.175623206339
20
1.84205529794426
30
0
41
1
10
114.191073674429
20
1.8326218341056
30
0
41
1
10
114.214347296283
20
1.82030177003523
30
0
41
1
10
114.222164417884
20
1.81648585169049
30
0
41
1
10
114.23755134353
20
1.80966386207632
30
0
41
1
10
114.25270835214
20
1.80363440927263
30
0
41
1
10
114.267355331841
20
1.79930282289058
30
0
41
1
10
114.28170216797
20
1.79593409408051
30
0
41
1
10
114.288738369506
20
1.79473735450759
30
0
41
1
10
114.30204203379
20
1.7935217382055
30
0
41
1
10
114.308361433686
20
1.79348637409467
30
0
41
1
10
114.320231703457
20
1.79474253070762
30
0
41
1
10
114.325803220865
20
1.79604961710763
30
0
41
1
10
114.330768394344
20
1.7981206722387
30
0
0
SPLINE
5
10D
100
AcDbEntity
8
1
62
256
6
ByLayer
370
18
48
1
60
0
100
AcDbSpline
70
4
71
3
72
8
73
4
40
0
40
0
40
0
40
0
40
1
40
1
40
1
40
1
41
1
10
114.330768394344
20
1.79812067223966
30
0
41
1
10
114.36381507778
20
1.81190498482627
30
0
41
1
10
114.396725702954
20
1.82439715613427
30
0
41
1
10
114.429519870668
20
1.83561750226789
30
0
0
SPLINE
5
10E
100
AcDbEntity
8
1
62
256
6
ByLayer
370
18
48
1
60
0
100
AcDbSpline
70
4
71
3
72
16
73
12
40
0
40
0
40
0
40
0
40
0.249999999999991
40
0.249999999999991
40
0.375000000000004
40
0.375000000000004
40
0.500000000000018
40
0.500000000000018
40
0.750000000000009
40
0.750000000000009
40
1
40
1
40
1
40
1
41
1
10
114.429519870669
20
1.83561750226778
30
0
41
1
10
114.532933953616
20
1.74241218297706
30
0
41
1
10
114.637175331386
20
1.64827413970835
30
0
41
1
10
114.794981032972
20
1.50587562929471
30
0
41
1
10
114.847819261507
20
1.45821386704589
30
0
41
1
10
114.953460872901
20
1.36300758593413
30
0
41
1
10
115.006331612719
20
1.31540231453647
30
0
41
1
10
115.165118798137
20
1.17261178020451
30
0
41
1
10
115.271279333771
20
1.07752699844593
30
0
41
1
10
115.484297371331
20
0.887691603065662
30
0
41
1
10
115.591508390418
20
0.793324669912892
30
0
41
1
10
115.699999917502
20
0.700151995520457
30
0
0
SPLINE
5
10F
100
AcDbEntity
8
1
62
256
6
ByLayer
370
18
48
1
60
0
100
AcDbSpline
70
4
71
3
72
10
73
6
40
0
40
0
40
0
40
0
40
0.5
40
0.5
40
1
40
1
40
1
40
1
41
1
10
115.699999917502
20
0.700151995520429
30
0
41
1
10
115.748130400188
20
0.646664552692869
30
0
41
1
10
115.797137032057
20
0.595783169744237
30
0
41
1
10
115.897148610754
20
0.499836737526294
30
0
41
1
10
115.948082086212
20
0.454845402425775
30
0
41
1
10
116
20
0.413359627721491
30
0
0
SPLINE
5
110
100
AcDbEntity
8
1
62
256
6
ByLayer
370
18
48
1
60
0
100
AcDbSpline
70
4
71
3
72
56
73
52
40
0
40
0
40
0
40
0
40
0.0118836149196484
40
0.0118836149196484
40
0.0280822441832604
40
0.0928767612377095
40
0.0928767612377095
40
0.125274019764934
40
0.125274019764934
40
0.141472649028546
40
0.141472649028546
40
0.157671278292159
40
0.157671278292159
40
0.222465795346609
40
0.222465795346609
40
0.352054829455508
40
0.352054829455508
40
0.416849346509957
40
0.416849346509957
40
0.449246605037182
40
0.449246605037182
40
0.481643863564407
40
0.481643863564407
40
0.611232897673306
40
0.611232897673306
40
0.676027414727755
40
0.676027414727755
40
0.70842467325498
40
0.70842467325498
40
0.724623302518593
40
0.724623302518593
40
0.740821931782205
40
0.740821931782205
40
0.757020561045818
40
0.757020561045818
40
0.77321919030943
40
0.805616448836654
40
0.805616448836654
40
0.838013707363879
40
0.838013707363879
40
0.854212336627491
40
0.854212336627491
40
0.870410965891103
40
0.870410965891103
40
0.935205482945552
40
0.935205482945552
40
0.967602741472776
40
0.967602741472776
40
0.983801370736388
40
0.983801370736388
40
1
40
1
40
1
40
1
41
1
10
116
20
0.406215051636394
30
0
41
1
10
116
20
0.406135156194409
30
0
41
1
10
116
20
0.406280529986617
30
0
41
1
10
116
20
0.407154382323796
30
0
41
1
10
116
20
0.411750833240234
30
0
41
1
10
116
20
0.426598881210765
30
0
41
1
10
116
20
0.453959769565358
30
0
41
1
10
116
20
0.464698467430878
30
0
41
1
10
116
20
0.483340199052378
30
0
41
1
10
116
20
0.489979015528064
30
0
41
1
10
116
20
0.503734666369326
30
0
41
1
10
116
20
0.510860505989712
30
0
41
1
10
116
20
0.547339190026293
30
0
41
1
10
116
20
0.579346934376844
30
0
41
1
10
116
20
0.684012704196533
30
0
41
1
10
116
20
0.765093816424724
30
0
41
1
10
116
20
0.903582397494972
30
0
41
1
10
116
20
0.952571877510451
30
0
41
1
10
116
20
1.03039572859126
30
0
41
1
10
116
20
1.05712126660367
30
0
41
1
10
116
20
1.11164487394581
30
0
41
1
10
116
20
1.13945978073275
30
0
41
1
10
116
20
1.28125740665448
30
0
41
1
10
116
20
1.40337237761318
30
0
41
1
10
116
20
1.59930987987161
30
0
41
1
10
116
20
1.66675696938643
30
0
41
1
10
116
20
1.77118905906985
30
0
41
1
10
116
20
1.80654084596151
30
0
41
1
10
116
20
1.86040421218945
30
0
41
1
10
116
20
1.87850207383886
30
0
41
1
10
116
20
1.91495442739461
30
0
41
1
10
116
20
1.93324545241643
30
0
41
1
10
116
20
1.97004957717047
30
0
41
1
10
116
20
1.98858775824377
30
0
41
1
10
116
20
2.02607012567739
30
0
41
1
10
116
20
2.0828513987961
30
0
41
1
10
116
20
2.14125647174393
30
0
41
1
10
116
20
2.2205886040731
30
0
41
1
10
116
20
2.26098463223161
30
0
41
1
10
116
20
2.32268135102336
30
0
41
1
10
116
20
2.34343119894612
30
0
41
1
10
116
20
2.38530684136885
30
0
41
1
10
116
20
2.40636927546365
30
0
41
1
10
116
20
2.51163197093496
30
0
41
1
10
116
20
2.59632453921463
30
0
41
1
10
116
20
2.72405513454851
30
0
41
1
10
116
20
2.7667485168972
30
0
41
1
10
116
20
2.83096934813054
30
0
41
1
10
116
20
2.85240630704294
30
0
41
1
10
116
20
2.89534092133027
30
0
41
1
10
116
20
2.91685560225184
30
0
41
1
10
116
20
2.93816653775718
30
0
0
SPLINE
5
111
100
AcDbEntity
8
1
62
256
6
ByLayer
370
18
48
1
60
0
100
AcDbSpline
70
4
71
3
72
10
73
6
40
0
40
0
40
0
40
0
40
0.5
40
0.5
40
1
40
1
40
1
40
1
41
1
10
116
20
2.93816653775716
30
0
41
1
10
115.950706913011
20
2.98868050217723
30
0
41
1
10
115.901059476977
20
3.03902526910429
30
0
41
1
10
115.801057413379
20
3.13957860138652
30
0
41
1
10
115.750712494948
20
3.18977729365108
30
0
41
1
10
115.700000030518
20
3.2400271497639
30
0
0
SPLINE
5
112
100
AcDbEntity
8
1
62
256
6
ByLayer
370
18
48
1
60
0
100
AcDbSpline
70
4
71
3
72
10
73
6
40
0
40
0
40
0
40
0
40
0.5
40
0.5
40
1
40
1
40
1
40
1
41
1
10
115.700000030518
20
3.2400271497639
30
0
41
1
10
115.64071107799
20
3.25484581978125
30
0
41
1
10
115.581554890646
20
3.2687358577156
30
0
41
1
10
115.463374167318
20
3.29473451525422
30
0
41
1
10
115.404417351843
20
3.30682369592617
30
0
41
1
10
115.345717711921
20
3.31795442941447
30
0
0
SPLINE
5
113
100
AcDbEntity
8
1
62
256
6
ByLayer
370
18
48
1
60
0
100
AcDbSpline
70
4
71
3
72
30
73
26
40
0
40
0
40
0
40
0
40
0.124999999999888
40
0.124999999999888
40
0.249999999999777
40
0.249999999999777
40
0.312499999999721
40
0.312499999999721
40
0.374999999999666
40
0.374999999999666
40
0.499999999999555
40
0.499999999999555
40
0.562499999999574
40
0.562499999999574
40
0.624999999999593
40
0.624999999999593
40
0.749999999999632
40
0.749999999999632
40
0.812499999999724
40
0.812499999999724
40
0.874999999999816
40
0.874999999999816
40
0.937499999999908
40
0.937499999999908
40
1
40
1
40
1
40
1
41
1
10
115.345717711921
20
3.31795442941447
30
0
41
1
10
115.335983203987
20
3.30645969641444
30
0
41
1
10
115.325224404979
20
3.29619634060225
30
0
41
1
10
115.30209980061
20
3.27807351474811
30
0
41
1
10
115.28992622845
20
3.27035353715559
30
0
41
1
10
115.270829648247
20
3.26061676932491
30
0
41
1
10
115.264323640312
20
3.25768180688297
30
0
41
1
10
115.251032203368
20
3.25244116892361
30
0
41
1
10
115.244233134851
20
3.25013442779309
30
0
41
1
10
115.22373551901
20
3.24428069255225
30
0
41
1
10
115.209841942038
20
3.24174345580985
30
0
41
1
10
115.188678309564
20
3.24010109645806
30
0
41
1
10
115.181569396887
20
3.23991705614992
30
0
41
1
10
115.167239061288
20
3.24033877914596
30
0
41
1
10
115.159986427127
20
3.24094890358421
30
0
41
1
10
115.13826838066
20
3.24408873744179
30
0
41
1
10
115.124009457236
20
3.24786212266082
30
0
41
1
10
115.103059732033
20
3.25661101938988
30
0
41
1
10
115.09610344581
20
3.26007907412426
30
0
41
1
10
115.082675466278
20
3.26807191528263
30
0
41
1
10
115.076196229497
20
3.27258928975797
30
0
41
1
10
115.063769014944
20
3.28279602468925
30
0
41
1
10
115.057783296988
20
3.28852678523856
30
0
41
1
10
115.046628274455
20
3.30118925064971
30
0
41
1
10
115.041500882507
20
3.30805953584664
30
0
41
1
10
115.036877758853
20
3.31553676396001
30
0
0
SPLINE
5
114
100
AcDbEntity
8
1
62
256
6
ByLayer
370
18
48
1
60
0
100
AcDbSpline
70
4
71
3
72
8
73
4
40
0
40
0
40
0
40
0
40
1
40
1
40
1
40
1
41
1
10
115.036877758851
20
3.31553676395808
30
0
41
1
10
115.025123867255
20
3.33454696902061
30
0
41
1
10
115.013382733094
20
3.35349171883746
30
0
41
1
10
115.001653429979
20
3.37237300701551
30
0
0
SPLINE
5
115
100
AcDbEntity
8
1
62
256
6
ByLayer
370
18
48
1
60
0
100
AcDbSpline
70
4
71
3
72
10
73
6
40
0
40
0
40
0
40
0
40
0.5
40
0.5
40
1
40
1
40
1
40
1
41
1
10
115.001653429979
20
3.37237300701551
30
0
41
1
10
114.868226590906
20
3.38917999766249
30
0
41
1
10
114.735929615693
20
3.40073666263504
30
0
41
1
10
114.473174457076
20
3.41285959190122
30
0
41
1
10
114.34265911115
20
3.41344154763399
30
0
41
1
10
114.212642725381
20
3.40844395369564
30
0
0
SPLINE
5
116
100
AcDbEntity
8
1
62
256
6
ByLayer
370
18
48
1
60
0
100
AcDbSpline
70
4
71
3
72
8
73
4
40
0
40
0
40
0
40
0
40
1
40
1
40
1
40
1
41
1
10
114.212642725381
20
3.40844395369561
30
0
41
1
10
114.159207077648
20
3.30423601592509
30
0
41
1
10
114.105502072854
20
3.19887263296434
30
0
41
1
10
114.051510507996
20
3.09252643902445
30
0
0
SPLINE
5
117
100
AcDbEntity
8
1
62
256
6
ByLayer
370
18
48
1
60
0
100
AcDbSpline
70
4
71
3
72
28
73
24
40
0
40
0
40
0
40
0
40
0.124999999999948
40
0.124999999999948
40
0.249999999999896
40
0.249999999999896
40
0.374999999999845
40
0.374999999999845
40
0.499999999999793
40
0.499999999999793
40
0.624999999999741
40
0.624999999999741
40
0.687499999999784
40
0.687499999999784
40
0.749999999999827
40
0.749999999999827
40
0.812499999999871
40
0.812499999999871
40
0.874999999999914
40
0.874999999999914
40
0.937499999999957
40
0.937499999999957
40
1
40
1
40
1
40
1
41
1
10
114.051510507996
20
3.09252643902383
30
0
41
1
10
114.042650652975
20
3.07507534526872
30
0
41
1
10
114.032367976471
20
3.0591598125304
30
0
41
1
10
114.009590874489
20
3.02969731359397
30
0
41
1
10
113.996971086734
20
3.01608543441031
30
0
41
1
10
113.970568617738
20
2.99191160601805
30
0
41
1
10
113.956712727674
20
2.98123220115147
30
0
41
1
10
113.927763937929
20
2.96258810146247
30
0
41
1
10
113.912532463533
20
2.95458562159519
30
0
41
1
10
113.881882188704
20
2.94205126167111
30
0
41
1
10
113.86638187822
20
2.93743072362406
30
0
41
1
10
113.842878373966
20
2.93330180624406
30
0
41
1
10
113.835001145478
20
2.93239716203732
30
0
41
1
10
113.819155288398
20
2.93167439100839
30
0
41
1
10
113.811270181039
20
2.93186550173456
30
0
41
1
10
113.795802818189
20
2.93346083096912
30
0
41
1
10
113.788189210161
20
2.93486211925654
30
0
41
1
10
113.773251442181
20
2.93905377335304
30
0
41
1
10
113.765887614768
20
2.94187306919159
30
0
41
1
10
113.751972770235
20
2.94896309545999
30
0
41
1
10
113.745371086093
20
2.95323714241138
30
0
41
1
10
113.732997032993
20
2.96348425684062
30
0
41
1
10
113.727235802283
20
2.96947323469632
30
0
41
1
10
113.72215524616
20
2.97626631736523
30
0
0
SPLINE
5
118
100
AcDbEntity
8
1
62
256
6
ByLayer
370
18
48
1
60
0
100
AcDbSpline
70
4
71
3
72
10
73
6
40
0
40
0
40
0
40
0
40
0.5
40
0.5
40
1
40
1
40
1
40
1
41
1
10
113.722155246154
20
2.97626631738029
30
0
41
1
10
113.677595542701
20
3.03584596613979
30
0
41
1
10
113.633197158174
20
3.09397067174817
30
0
41
1
10
113.544706191333
20
3.20688806643048
30
0
41
1
10
113.500576533707
20
3.26173127765057
30
0
41
1
10
113.456685137089
20
3.31478643582011
30
0
0
SPLINE
5
119
100
AcDbEntity
8
1
62
256
6
ByLayer
370
18
48
1
60
0
100
AcDbSpline
70
4
71
3
72
8
73
4
40
0
40
0
40
0
40
0
40
1
40
1
40
1
40
1
41
1
10
113.456685137089
20
3.31478643582008
30
0
41
1
10
113.328149383612
20
3.287698866244
30
0
41
1
10
113.201149462191
20
3.25484468238184
30
0
41
1
10
113.075289887572
20
3.21646417608952
30
0
0
SPLINE
5
11A
100
AcDbEntity
8
1
62
256
6
ByLayer
370
18
48
1
60
0
100
AcDbSpline
70
4
71
3
72
10
73
6
40
0
40
0
40
0
40
0
40
0.613591148118652
40
0.613591148118652
40
1
40
1
40
1
40
1
41
1
10
113.075289887572
20
3.21646417608943
30
0
41
1
10
113.019527722547
20
3.09981310057637
30
0
41
1
10
112.963414794395
20
2.98284538246077
30
0
41
1
10
112.871498294034
20
2.79231991278178
30
0
41
1
10
112.835862873954
20
2.71871608657361
30
0
41
1
10
112.80010589713
20
2.64519812276305
30
0
0
SPLINE
5
11B
100
AcDbEntity
8
1
62
256
6
ByLayer
370
18
48
1
60
0
100
AcDbSpline
70
4
71
3
72
8
73
4
40
0
40
0
40
0
40
0
40
1
40
1
40
1
40
1
41
1
10
103
20
-2.40951013566345
30
0
41
1
10
103.042089276918
20
-2.43604244522254
30
0
41
1
10
103.084062427811
20
-2.46226321783553
30
0
41
1
10
103.125918366893
20
-2.48817204587635
30
0
0
SPLINE
5
11C
100
AcDbEntity
8
1
62
256
6
ByLayer
370
18
48
1
60
0
100
AcDbSpline
70
4
71
3
72
18
73
14
40
0
40
0
40
0
40
0
40
0.250000000000114
40
0.250000000000114
40
0.500000000000227
40
0.500000000000227
40
0.62500000000017
40
0.62500000000017
40
0.750000000000114
40
0.750000000000114
40
0.875000000000057
40
0.875000000000057
40
1
40
1
40
1
40
1
41
1
10
103.125918366893
20
-2.48817204587556
30
0
41
1
10
103.142759906937
20
-2.49185367177455
30
0
41
1
10
103.160445383952
20
-2.49744403067919
30
0
41
1
10
103.197380869739
20
-2.51247253674731
30
0
41
1
10
103.216009505972
20
-2.52166004896191
30
0
41
1
10
103.24411852255
20
-2.5381079621377
30
0
41
1
10
103.253516483537
20
-2.54404083751493
30
0
41
1
10
103.272362855003
20
-2.55692938564732
30
0
41
1
10
103.28171515433
20
-2.56382426076018
30
0
41
1
10
103.299979068289
20
-2.57840727849356
30
0
41
1
10
103.308931589947
20
-2.58612136546734
30
0
41
1
10
103.326405211275
20
-2.60254508404392
30
0
41
1
10
103.334947648966
20
-2.61129232855504
30
0
41
1
10
103.342918510415
20
-2.62031520330746
30
0
0
SPLINE
5
11D
100
AcDbEntity
8
1
62
256
6
ByLayer
370
18
48
1
60
0
100
AcDbSpline
70
4
71
3
72
12
73
8
40
0
40
0
40
0
40
0
40
0.249999999999987
40
0.249999999999987
40
0.499999999999974
40
0.499999999999974
40
1
40
1
40
1
40
1
41
1
10
103.342918510415
20
-2.62031520330908
30
0
41
1
10
103.424002460581
20
-2.66885982701524
30
0
41
1
10
103.504643555766
20
-2.71618912872231
30
0
41
1
10
103.665137445689
20
-2.80829604614132
30
0
41
1
10
103.745182445424
20
-2.85296327885803
30
0
41
1
10
103.984787880023
20
-2.98273925886326
30
0
41
1
10
104.143844443961
20
-3.06361031207246
30
0
41
1
10
104.30265151827
20
-3.13847737637966
30
0
0
SPLINE
5
11E
100
AcDbEntity
8
1
62
256
6
ByLayer
370
18
48
1
60
0
100
AcDbSpline
70
4
71
3
72
8
73
4
40
0
40
0
40
0
40
0
40
1
40
1
40
1
40
1
41
1
10
104.302651518265
20
-3.13847737637326
30
0
41
1
10
104.322118742305
20
-3.11878419494227
30
0
41
1
10
104.341634617594
20
-3.09868077353281
30
0
41
1
10
104.361203854962
20
-3.07816559888261
30
0
0
SPLINE
5
11F
100
AcDbEntity
8
1
62
256
6
ByLayer
370
18
48
1
60
0
100
AcDbSpline
70
4
71
3
72
32
73
28
40
0
40
0
40
0
40
0
40
0.125000000000051
40
0.125000000000051
40
0.187500000000077
40
0.187500000000077
40
0.250000000000103
40
0.250000000000103
40
0.375000000000155
40
0.375000000000155
40
0.437500000000181
40
0.437500000000181
40
0.500000000000206
40
0.500000000000206
40
0.625000000000258
40
0.625000000000258
40
0.687500000000215
40
0.687500000000215
40
0.750000000000172
40
0.750000000000172
40
0.812500000000129
40
0.812500000000129
40
0.875000000000086
40
0.875000000000086
40
0.937500000000043
40
0.937500000000043
40
1
40
1
40
1
40
1
41
1
10
104.361203854963
20
-3.07816559888332
30
0
41
1
10
104.370373596824
20
-3.06855261028093
30
0
41
1
10
104.381060077759
20
-3.06123761403924
30
0
41
1
10
104.398800468055
20
-3.05282051797053
30
0
41
1
10
104.405006116195
20
-3.05045267438567
30
0
41
1
10
104.417968361425
20
-3.04654443913108
30
0
41
1
10
104.424657474935
20
-3.04502700034411
30
0
41
1
10
104.445119434976
20
-3.04170575156752
30
0
41
1
10
104.459356985508
20
-3.04109241065404
30
0
41
1
10
104.481524428425
20
-3.04243600423934
30
0
41
1
10
104.489074708544
20
-3.04326988338426
30
0
41
1
10
104.504337334682
20
-3.04571184573322
30
0
41
1
10
104.511996051312
20
-3.04730881914466
30
0
41
1
10
104.535041973772
20
-3.05322221586343
30
0
41
1
10
104.550497988208
20
-3.05864238448677
30
0
41
1
10
104.573789567658
20
-3.06926848610814
30
0
41
1
10
104.581615319841
20
-3.07325726203342
30
0
41
1
10
104.59703253612
20
-3.0820341407061
30
0
41
1
10
104.60462657674
20
-3.08681705962508
30
0
41
1
10
104.619559409039
20
-3.09724108927017
30
0
41
1
10
104.626898438817
20
-3.10288131259779
30
0
41
1
10
104.641276686875
20
-3.11514727572381
30
0
41
1
10
104.648329057864
20
-3.12179734704202
30
0
41
1
10
104.661661592811
20
-3.13583744088305
30
0
41
1
10
104.66799418462
20
-3.14326633690848
30
0
41
1
10
104.679887727942
20
-3.15907068156923
30
0
41
1
10
104.685467013597
20
-3.16748950807113
30
0
41
1
10
104.690434875603
20
-3.17624476765585
30
0
0
SPLINE
5
120
100
AcDbEntity
8
1
62
256
6
ByLayer
370
18
48
1
60
0
100
AcDbSpline
70
4
71
3
72
8
73
4
40
0
40
0
40
0
40
0
40
1
40
1
40
1
40
1
41
1
10
104.690434875603
20
-3.17624476765542
30
0
41
1
10
104.722984385107
20
-3.23360936529363
30
0
41
1
10
104.755402111312
20
-3.29099438853703
30
0
41
1
10
104.787705699873
20
-3.34839050675376
30
0
0
SPLINE
5
121
100
AcDbEntity
8
1
62
256
6
ByLayer
370
18
48
1
60
0
100
AcDbSpline
70
4
71
3
72
15
73
11
40
0
40
0
40
0
40
0
40
0.249999999999951
40
0.374999999999959
40
0.374999999999959
40
0.499999999999968
40
0.499999999999968
40
0.749999999999984
40
0.749999999999984
40
1
40
1
40
1
40
1
41
1
10
104.787705699864
20
-3.3483905067593
30
0
41
1
10
104.848431121648
20
-3.37225775798495
30
0
41
1
10
104.939491072113
20
-3.40665082568302
30
0
41
1
10
105.030538126362
20
-3.43885978190352
30
0
41
1
10
105.091236580077
20
-3.4598378332621
30
0
41
1
10
105.121612329442
20
-3.47008729613015
30
0
41
1
10
105.212457588027
20
-3.49999298152613
30
0
41
1
10
105.272642821874
20
-3.51882639424903
30
0
41
1
10
105.392719281245
20
-3.55423782818124
30
0
41
1
10
105.452575433359
20
-3.5708210010464
30
0
41
1
10
105.512292709603
20
-3.58628346980066
30
0
0
SPLINE
5
122
100
AcDbEntity
8
1
62
256
6
ByLayer
370
18
48
1
60
0
100
AcDbSpline
70
4
71
3
72
8
73
4
40
0
40
0
40
0
40
0
40
1
40
1
40
1
40
1
41
1
10
105.512292709602
20
-3.58628346980063
30
0
41
1
10
105.566439121046
20
-3.50781085905064
30
0
41
1
10
105.62091058478
20
-3.42689924941749
30
0
41
1
10
105.675807199387
20
-3.34355298278197
30
0
0
SPLINE
5
123
100
AcDbEntity
8
1
62
256
6
ByLayer
370
18
48
1
60
0
100
AcDbSpline
70
4
71
3
72
32
73
28
40
0
40
0
40
0
40
0
40
0.124999999999867
40
0.124999999999867
40
0.187499999999801
40
0.187499999999801
40
0.249999999999735
40
0.249999999999735
40
0.374999999999602
40
0.374999999999602
40
0.437499999999601
40
0.437499999999601
40
0.4999999999996
40
0.4999999999996
40
0.624999999999598
40
0.624999999999598
40
0.687499999999665
40
0.687499999999665
40
0.749999999999732
40
0.749999999999732
40
0.812499999999799
40
0.812499999999799
40
0.874999999999866
40
0.874999999999866
40
0.937499999999933
40
0.937499999999933
40
1
40
1
40
1
40
1
41
1
10
105.675807199387
20
-3.34355298278197
30
0
41
1
10
105.684983421637
20
-3.32962127001798
30
0
41
1
10
105.695676394648
20
-3.31791843960011
30
0
41
1
10
105.713424800312
20
-3.30284400637481
30
0
41
1
10
105.719632865445
20
-3.29824395572461
30
0
41
1
10
105.732599250056
20
-3.28984587648699
30
0
41
1
10
105.739289049598
20
-3.28609512482899
30
0
41
1
10
105.75975341174
20
-3.27615785000248
30
0
41
1
10
105.773990596943
20
-3.27122161088761
30
0
41
1
10
105.796155559177
20
-3.2661923059103
30
0
41
1
10
105.803704463513
20
-3.26491392117137
30
0
41
1
10
105.818964986671
20
-3.26319733875204
30
0
41
1
10
105.826622644631
20
-3.26276229925298
30
0
41
1
10
105.849665541526
20
-3.26271554645925
30
0
41
1
10
105.86511979633
20
-3.26434131349572
30
0
41
1
10
105.888408889521
20
-3.2695575379787
30
0
41
1
10
105.896233813537
20
-3.27178105914996
30
0
41
1
10
105.911652725307
20
-3.27719161664646
30
0
41
1
10
105.919247675906
20
-3.28037163758091
30
0
41
1
10
105.934182172789
20
-3.28776062180182
30
0
41
1
10
105.941521864744
20
-3.291968434925
30
0
41
1
10
105.955901567935
20
-3.30156154530522
30
0
41
1
10
105.962956252426
20
-3.30697130195824
30
0
41
1
10
105.976293912975
20
-3.31882704857301
30
0
41
1
10
105.98262905718
20
-3.32530118093177
30
0
41
1
10
105.994527458421
20
-3.33951492312374
30
0
41
1
10
106.000109859534
20
-3.34729840027558
30
0
41
1
10
106.005080979687
20
-3.35562912957204
30
0
0
SPLINE
5
124
100
AcDbEntity
8
1
62
256
6
ByLayer
370
18
48
1
60
0
100
AcDbSpline
70
4
71
3
72
8
73
4
40
0
40
0
40
0
40
0
40
1
40
1
40
1
40
1
41
1
10
106.005080979687
20
-3.35562912957204
30
0
41
1
10
106.078356161792
20
-3.47842553912852
30
0
41
1
10
106.150974340738
20
-3.59922700309619
30
0
41
1
10
106.223136175629
20
-3.71799118391863
30
0
0
SPLINE
5
125
100
AcDbEntity
8
1
62
256
6
ByLayer
370
18
48
1
60
0
100
AcDbSpline
70
4
71
3
72
8
73
4
40
0
40
0
40
0
40
0
40
1
40
1
40
1
40
1
41
1
10
106.223136175629
20
-3.7179911839186
30
0
41
1
10
106.390008148119
20
-3.73633511697878
30
0
41
1
10
106.556229774913
20
-3.74556182744479
30
0
41
1
10
106.722006181311
20
-3.74520940303145
30
0
0
SPLINE
5
126
100
AcDbEntity
8
1
62
256
6
ByLayer
370
18
48
1
60
0
100
AcDbSpline
70
4
71
3
72
10
73
6
40
0
40
0
40
0
40
0
40
0.5
40
0.5
40
1
40
1
40
1
40
1
41
1
10
106.722006181311
20
-3.74520940303148
30
0
41
1
10
106.766288625747
20
-3.66619828681968
30
0
41
1
10
106.810816866546
20
-3.58611645930088
30
0
41
1
10
106.900231142109
20
-3.42426917885487
30
0
41
1
10
106.945130264585
20
-3.34247152898084
30
0
41
1
10
106.990317827657
20
-3.25976642267821
30
0
0
SPLINE
5
127
100
AcDbEntity
8
1
62
256
6
ByLayer
370
18
48
1
60
0
100
AcDbSpline
70
4
71
3
72
30
73
26
40
0
40
0
40
0
40
0
40
0.125000000000082
40
0.125000000000082
40
0.250000000000164
40
0.250000000000164
40
0.375000000000245
40
0.375000000000245
40
0.437500000000221
40
0.437500000000221
40
0.500000000000196
40
0.500000000000196
40
0.625000000000147
40
0.625000000000147
40
0.687500000000122
40
0.687500000000122
40
0.750000000000098
40
0.750000000000098
40
0.812500000000074
40
0.812500000000074
40
0.875000000000049
40
0.875000000000049
40
0.937500000000025
40
0.937500000000025
40
1
40
1
40
1
40
1
41
1
10
106.990317827657
20
-3.25976642267821
30
0
41
1
10
106.999503891076
20
-3.24295351443766
30
0
41
1
10
107.010206266344
20
-3.22806654573893
30
0
41
1
10
107.033885957579
20
-3.20115222767507
30
0
41
1
10
107.047017043448
20
-3.18907000142033
30
0
41
1
10
107.074306678376
20
-3.16834612839585
30
0
41
1
10
107.088545360387
20
-3.15958234456079
30
0
41
1
10
107.110710939268
20
-3.1486747099496
30
0
41
1
10
107.118259498073
20
-3.14540734318987
30
0
41
1
10
107.133519997781
20
-3.13969028728135
30
0
41
1
10
107.141177614053
20
-3.13725797224257
30
0
41
1
10
107.164220006217
20
-3.13122342540808
30
0
41
1
10
107.179673334681
20
-3.1288627582565
30
0
41
1
10
107.202959408401
20
-3.12808814990092
30
0
41
1
10
107.210782910919
20
-3.12830150978763
30
0
41
1
10
107.226204700382
20
-3.129753090923
30
0
41
1
10
107.233801206874
20
-3.13098394129597
30
0
41
1
10
107.248738909143
20
-3.13453693731779
30
0
41
1
10
107.256080232003
20
-3.13685777979856
30
0
41
1
10
107.270463268928
20
-3.14274485830305
30
0
41
1
10
107.277522581946
20
-3.14633299859952
30
0
41
1
10
107.290870907223
20
-3.15473462595207
30
0
41
1
10
107.297211419669
20
-3.15956229172309
30
0
41
1
10
107.309120349531
20
-3.17067058898169
30
0
41
1
10
107.31470954524
20
-3.17699128881622
30
0
41
1
10
107.319687863705
20
-3.18401531361414
30
0
0
SPLINE
5
128
100
AcDbEntity
8
1
62
256
6
ByLayer
370
18
48
1
60
0
100
AcDbSpline
70
4
71
3
72
12
73
8
40
0
40
0
40
0
40
0
40
0.500000000000029
40
0.500000000000029
40
0.750000000000014
40
0.750000000000014
40
1
40
1
40
1
40
1
41
1
10
107.319687863705
20
-3.18401531361451
30
0
41
1
10
107.376914087953
20
-3.26475711851896
30
0
41
1
10
107.433735013345
20
-3.3431209700486
30
0
41
1
10
107.518509826485
20
-3.45715362633209
30
0
41
1
10
107.546704584095
20
-3.49459459697823
30
0
41
1
10
107.602875010126
20
-3.56818819665773
30
0
41
1
10
107.630856077802
20
-3.60434860598895
30
0
41
1
10
107.658745684283
20
-3.63987697643364
30
0
0
SPLINE
5
129
100
AcDbEntity
8
1
62
256
6
ByLayer
370
18
48
1
60
0
100
AcDbSpline
70
4
71
3
72
8
73
4
40
0
40
0
40
0
40
0
40
1
40
1
40
1
40
1
41
1
10
107.658745684278
20
-3.63987697644112
30
0
41
1
10
107.750163322867
20
-3.61957944731023
30
0
41
1
10
107.841244817079
20
-3.59642301344007
30
0
41
1
10
107.932037747917
20
-3.57041948130228
30
0
0
SPLINE
5
12A
100
AcDbEntity
8
1
62
256
6
ByLayer
370
18
48
1
60
0
100
AcDbSpline
70
4
71
3
72
12
73
8
40
0
40
0
40
0
40
0
40
0.25
40
0.25
40
0.5
40
0.5
40
1
40
1
40
1
40
1
41
1
10
107.932037747915
20
-3.57041948129924
30
0
41
1
10
107.962654573699
20
-3.50966763738026
30
0
41
1
10
107.993377350706
20
-3.44876022392432
30
0
41
1
10
108.055071066918
20
-3.32664908564496
30
0
41
1
10
108.086056234369
20
-3.26541735815385
30
0
41
1
10
108.179270883961
20
-3.08163390914154
30
0
41
1
10
108.241792628532
20
-2.95892531726639
30
0
41
1
10
108.304843919932
20
-2.83610071239443
30
0
0
SPLINE
5
12B
100
AcDbEntity
8
1
62
256
6
ByLayer
370
18
48
1
60
0
100
AcDbSpline
70
4
71
3
72
20
73
16
40
0
40
0
40
0
40
0
40
0.236315747729832
40
0.236315747729832
40
0.354473621594849
40
0.354473621594849
40
0.472631495459866
40
0.472631495459866
40
0.708947243190124
40
0.708947243190124
40
0.82710511705513
40
0.82710511705513
40
0.945262990920136
40
0.945262990920136
40
1
40
1
40
1
40
1
41
1
10
108.304843919932
20
-2.83610071239454
30
0
41
1
10
108.314040458316
20
-2.81818575509337
30
0
41
1
10
108.324760537812
20
-2.80168800169517
30
0
41
1
10
108.342552468204
20
-2.77852774376731
30
0
41
1
10
108.34877558464
20
-2.77107895506265
30
0
41
1
10
108.361772527946
20
-2.75669270676369
30
0
41
1
10
108.368475803234
20
-2.74983583371008
30
0
41
1
10
108.38898063252
20
-2.73034289380692
30
0
41
1
10
108.40324342986
20
-2.7186939759043
30
0
41
1
10
108.425438407202
20
-2.70309132486085
30
0
41
1
10
108.432997385833
20
-2.69819055892558
30
0
41
1
10
108.448266049213
20
-2.68910468709058
30
0
41
1
10
108.455926206617
20
-2.6849460533949
30
0
41
1
10
108.467166560357
20
-2.67941319194
30
0
41
1
10
108.470729742769
20
-2.6777415345473
30
0
41
1
10
108.474297250175
20
-2.67615171341197
30
0
0
SPLINE
5
12C
100
AcDbEntity
8
1
62
256
6
ByLayer
370
18
48
1
60
0
100
AcDbSpline
70
4
71
3
72
8
73
4
40
0
40
0
40
0
40
0
40
1
40
1
40
1
40
1
41
1
10
111.604132940039
20
-3.9560030741124
30
0
41
1
10
111.585622340258
20
-3.98792427468834
30
0
41
1
10
111.5671473905
20
-4.01976405989294
30
0
41
1
10
111.548705674156
20
-4.05152001576752
30
0
0
SPLINE
5
12D
100
AcDbEntity
8
1
62
256
6
ByLayer
370
18
48
1
60
0
100
AcDbSpline
70
4
71
3
72
12
73
8
40
0
40
0
40
0
40
0
40
0.500000000000001
40
0.500000000000001
40
0.75
40
0.75
40
1
40
1
40
1
40
1
41
1
10
108.901876037684
20
3.05943071972143
30
0
41
1
10
108.833394721789
20
3.17529168249106
30
0
41
1
10
108.765348434761
20
3.29233073216594
30
0
41
1
10
108.663725199672
20
3.46944610369263
30
0
41
1
10
108.629955119426
20
3.52869232016303
30
0
41
1
10
108.562686900418
20
3.64743538604427
30
0
41
1
10
108.529175350399
20
3.70695589241362
30
0
41
1
10
108.495769941507
20
3.76661619995409
30
0
0
SPLINE
5
12E
100
AcDbEntity
8
1
62
256
6
ByLayer
370
18
48
1
60
0
100
AcDbSpline
70
4
71
3
72
8
73
4
40
0
40
0
40
0
40
0
40
1
40
1
40
1
40
1
41
1
10
108.495769941507
20
3.76661619995406
30
0
41
1
10
108.439531283858
20
3.7801126256185
30
0
41
1
10
108.383307026638
20
3.79230803134416
30
0
41
1
10
108.327099086488
20
3.80323187960377
30
0
0
SPLINE
5
12F
100
AcDbEntity
8
1
62
256
6
ByLayer
370
18
48
1
60
0
100
AcDbSpline
70
4
71
3
72
12
73
8
40
0
40
0
40
0
40
0
40
0.25000000000001
40
0.25000000000001
40
0.500000000000019
40
0.500000000000019
40
1
40
1
40
1
40
1
41
1
10
108.327099086494
20
3.80323187959527
30
0
41
1
10
108.29336118541
20
3.76631083336923
30
0
41
1
10
108.259512491188
20
3.72813378840715
30
0
41
1
10
108.191558237315
20
3.64928085939695
30
0
41
1
10
108.157444472727
20
3.60859504451869
30
0
41
1
10
108.05481987914
20
3.48297875050503
30
0
41
1
10
107.985975063226
20
3.39443284029502
30
0
41
1
10
107.916688731865
20
3.30118873494919
30
0
0
SPLINE
5
130
100
AcDbEntity
8
1
62
256
6
ByLayer
370
18
48
1
60
0
100
AcDbSpline
70
4
71
3
72
28
73
24
40
0
40
0
40
0
40
0
40
0.125000000000052
40
0.125000000000052
40
0.250000000000103
40
0.250000000000103
40
0.375000000000155
40
0.375000000000155
40
0.500000000000207
40
0.500000000000207
40
0.625000000000258
40
0.625000000000258
40
0.687500000000215
40
0.687500000000215
40
0.750000000000172
40
0.750000000000172
40
0.812500000000129
40
0.812500000000129
40
0.875000000000086
40
0.875000000000086
40
0.937500000000043
40
0.937500000000043
40
1
40
1
40
1
40
1
41
1
10
107.916688731865
20
3.30118873494911
30
0
41
1
10
107.907815799651
20
3.28924772710701
30
0
41
1
10
107.897513748116
20
3.27927752262755
30
0
41
1
10
107.874691244548
20
3.26236480699524
30
0
41
1
10
107.862043879522
20
3.25541638705582
30
0
41
1
10
107.835592337739
20
3.24473063614838
30
0
41
1
10
107.821718208694
20
3.2409170893587
30
0
41
1
10
107.792747564507
20
3.23624863766372
30
0
41
1
10
107.777512663294
20
3.23541865089717
30
0
41
1
10
107.746863261318
20
3.23702288834656
30
0
41
1
10
107.73136501499
20
3.2394118011519
30
0
41
1
10
107.707869900418
20
3.24572779376209
30
0
41
1
10
107.699996438882
20
3.2482930375549
30
0
41
1
10
107.684162062501
20
3.25448699181396
30
0
41
1
10
107.67629255532
20
3.25808448831793
30
0
41
1
10
107.660852082493
20
3.26630116713173
30
0
41
1
10
107.65325342943
20
3.27092953143273
30
0
41
1
10
107.638344948554
20
3.28139198391634
30
0
41
1
10
107.630995879192
20
3.28727075384657
30
0
41
1
10
107.617106016545
20
3.30007721377385
30
0
41
1
10
107.610514788638
20
3.30703005757209
30
0
41
1
10
107.598157140382
20
3.32221799476181
30
0
41
1
10
107.592400372643
20
3.33046543952159
30
0
41
1
10
107.587321554706
20
3.33919433584632
30
0
0
SPLINE
5
131
100
AcDbEntity
8
1
62
256
6
ByLayer
370
18
48
1
60
0
100
AcDbSpline
70
4
71
3
72
10
73
6
40
0
40
0
40
0
40
0
40
0.5
40
0.5
40
1
40
1
40
1
40
1
41
1
10
107.587321554701
20
3.33919433585609
30
0
41
1
10
107.536085652431
20
3.42725279446435
30
0
41
1
10
107.485097398493
20
3.51489517084463
30
0
41
1
10
107.383518316878
20
3.68930463160498
30
0
41
1
10
107.332903651922
20
3.77611126376968
30
0
41
1
10
107.282617885921
20
3.86213678022679
30
0
0
SPLINE
5
132
100
AcDbEntity
8
1
62
256
6
ByLayer
370
18
48
1
60
0
100
AcDbSpline
70
4
71
3
72
8
73
4
40
0
40
0
40
0
40
0
40
1
40
1
40
1
40
1
41
1
10
107.282617885919
20
3.86213678024183
30
0
41
1
10
107.151806749564
20
3.85157438246375
30
0
41
1
10
107.020328252015
20
3.83427755912808
30
0
41
1
10
106.88688385282
20
3.81010720175965
30
0
0
SPLINE
5
133
100
AcDbEntity
8
1
62
256
6
ByLayer
370
18
48
1
60
0
100
AcDbSpline
70
4
71
3
72
10
73
6
40
0
40
0
40
0
40
0
40
0.5
40
0.5
40
1
40
1
40
1
40
1
41
1
10
106.886883852826
20
3.81010720175294
30
0
41
1
10
106.839841449399
20
3.73175784983863
30
0
41
1
10
106.79254122707
20
3.65165099729731
30
0
41
1
10
106.697529192124
20
3.48830319608683
30
0
41
1
10
106.649833931492
20
3.40508565316591
30
0
41
1
10
106.601905131314
20
3.32037039095818
30
0
0
SPLINE
5
134
100
AcDbEntity
8
1
62
256
6
ByLayer
370
18
48
1
60
0
100
AcDbSpline
70
4
71
3
72
28
73
24
40
0
40
0
40
0
40
0
40
0.125
40
0.125
40
0.25
40
0.25
40
0.375000000000001
40
0.375000000000001
40
0.500000000000001
40
0.500000000000001
40
0.625000000000001
40
0.625000000000001
40
0.687500000000001
40
0.687500000000001
40
0.750000000000001
40
0.750000000000001
40
0.8125
40
0.8125
40
0.875
40
0.875
40
0.9375
40
0.9375
40
1
40
1
40
1
40
1
41
1
10
106.601905131314
20
3.32037039095803
30
0
41
1
10
106.59304196971
20
3.3047045479459
30
0
41
1
10
106.582749957692
20
3.29083491778778
30
0
41
1
10
106.559943156353
20
3.26586644248411
30
0
41
1
10
106.547300690135
20
3.25472553086223
30
0
41
1
10
106.520852094799
20
3.23570391207866
30
0
41
1
10
106.506976814898
20
3.22771985380496
30
0
41
1
10
106.47800120301
20
3.2146980729924
30
0
41
1
10
106.462762377876
20
3.20965057899801
30
0
41
1
10
106.432105677367
20
3.20308438661826
30
0
41
1
10
106.416602397182
20
3.20149258186092
30
0
41
1
10
106.393098248659
20
3.20199703933068
30
0
41
1
10
106.385221552697
20
3.20265197612002
30
0
41
1
10
106.369380797034
20
3.20508341955846
30
0
41
1
10
106.361516427228
20
3.20684887415533
30
0
41
1
10
106.346080183848
20
3.21155175692678
30
0
41
1
10
106.338483843107
20
3.21449128505694
30
0
41
1
10
106.323580307022
20
3.22173011552761
30
0
41
1
10
106.316236061795
20
3.22606562390411
30
0
41
1
10
106.302358788464
20
3.2360578689734
30
0
41
1
10
106.295773823405
20
3.24172925301912
30
0
41
1
10
106.283428247653
20
3.25464718573568
30
0
41
1
10
106.277679483729
20
3.26190679267012
30
0
41
1
10
106.272607431998
20
3.26985466197422
30
0
0
SPLINE
5
135
100
AcDbEntity
8
1
62
256
6
ByLayer
370
18
48
1
60
0
100
AcDbSpline
70
4
71
3
72
8
73
4
40
0
40
0
40
0
40
0
40
1
40
1
40
1
40
1
41
1
10
106.272607431992
20
3.26985466198812
30
0
41
1
10
106.204453874544
20
3.37665080604088
30
0
41
1
10
106.136735865456
20
3.48088689952351
30
0
41
1
10
106.069334324348
20
3.58255894103579
30
0
0
SPLINE
5
136
100
AcDbEntity
8
1
62
256
6
ByLayer
370
18
48
1
60
0
100
AcDbSpline
70
4
71
3
72
10
73
6
40
0
40
0
40
0
40
0
40
0.5
40
0.5
40
1
40
1
40
1
40
1
41
1
10
106.069334324348
20
3.58255894103581
30
0
41
1
10
105.965990594386
20
3.54408613741896
30
0
41
1
10
105.862500712874
20
3.5020399329475
30
0
41
1
10
105.654969471022
20
3.41096411629348
30
0
41
1
10
105.550929806164
20
3.36193238450062
30
0
41
1
10
105.44641777723
20
3.30948250279559
30
0
0
SPLINE
5
137
100
AcDbEntity
8
1
62
256
6
ByLayer
370
18
48
1
60
0
100
AcDbSpline
70
4
71
3
72
10
73
6
40
0
40
0
40
0
40
0
40
0.5
40
0.5
40
1
40
1
40
1
40
1
41
1
10
105.446417777236
20
3.30948250279124
30
0
41
1
10
105.420020804669
20
3.25677083450083
30
0
41
1
10
105.393553610244
20
3.2038271807541
30
0
41
1
10
105.340479218186
20
3.09758395621375
30
0
41
1
10
105.313859945584
20
3.04426852408926
30
0
41
1
10
105.287150720454
20
2.99076587905503
30
0
0
SPLINE
5
138
100
AcDbEntity
8
1
62
256
6
ByLayer
370
18
48
1
60
0
100
AcDbSpline
70
4
71
3
72
30
73
26
40
0
40
0
40
0
40
0
40
0.124999999999989
40
0.124999999999989
40
0.249999999999978
40
0.249999999999978
40
0.374999999999968
40
0.374999999999968
40
0.437500000000025
40
0.437500000000025
40
0.500000000000082
40
0.500000000000082
40
0.625000000000061
40
0.625000000000061
40
0.687500000000051
40
0.687500000000051
40
0.750000000000041
40
0.750000000000041
40
0.812500000000031
40
0.812500000000031
40
0.87500000000002
40
0.87500000000002
40
0.93750000000001
40
0.93750000000001
40
1
40
1
40
1
40
1
41
1
10
105.287150720453
20
2.9907658790533
30
0
41
1
10
105.278313630149
20
2.97306384152103
30
0
41
1
10
105.268054363549
20
2.95679417350854
30
0
41
1
10
105.245317563476
20
2.92647528389187
30
0
41
1
10
105.232722662046
20
2.91235940354178
30
0
41
1
10
105.206272841255
20
2.88700769709135
30
0
41
1
10
105.192357926068
20
2.87566617628093
30
0
41
1
10
105.170493295813
20
2.86060919496666
30
0
41
1
10
105.163034093008
20
2.85592206225047
30
0
41
1
10
105.148039693887
20
2.84737633154589
30
0
41
1
10
105.140473051138
20
2.84349471498203
30
0
41
1
10
105.1175712987
20
2.83304164072791
30
0
41
1
10
105.102037478216
20
2.82763863109648
30
0
41
1
10
105.078315869625
20
2.82229922285595
30
0
41
1
10
105.07032941345
20
2.82099230365688
30
0
41
1
10
105.054591989729
20
2.81947829802067
30
0
41
1
10
105.046795576061
20
2.81925804945573
30
0
41
1
10
105.031373787216
20
2.8200122405961
30
0
41
1
10
105.023728773441
20
2.8209891544837
30
0
41
1
10
105.008732054571
20
2.82434063262221
30
0
41
1
10
105.001509211374
20
2.82668376433111
30
0
41
1
10
104.987684995863
20
2.83286070354077
30
0
41
1
10
104.981058092821
20
2.83671005727774
30
0
41
1
10
104.96865930409
20
2.84612851991719
30
0
41
1
10
104.962995455787
20
2.85160833788743
30
0
41
1
10
104.957935553862
20
2.85796312448292
30
0
0
SPLINE
5
139
100
AcDbEntity
8
1
62
256
6
ByLayer
370
18
48
1
60
0
100
AcDbSpline
70
4
71
3
72
8
73
4
40
0
40
0
40
0
40
0
40
1
40
1
40
1
40
1
41
1
10
104.957935553862
20
2.85796312448292
30
0
41
1
10
104.92382270347
20
2.90080582927112
30
0
41
1
10
104.889816987186
20
2.94261639301274
30
0
41
1
10
104.855905923019
20
2.98338513904241
30
0
0
SPLINE
5
13A
100
AcDbEntity
8
1
62
256
6
ByLayer
370
18
48
1
60
0
100
AcDbSpline
70
4
71
3
72
8
73
4
40
0
40
0
40
0
40
0
40
1
40
1
40
1
40
1
41
1
10
104.855905923011
20
2.98338513906296
30
0
41
1
10
104.730157542708
20
2.90788543000417
30
0
41
1
10
104.604814631792
20
2.82871845635717
30
0
41
1
10
104.479685812756
20
2.74611592607681
30
0
0
SPLINE
5
13B
100
AcDbEntity
8
1
62
256
6
ByLayer
370
18
48
1
60
0
100
AcDbSpline
70
4
71
3
72
32
73
28
40
0
40
0
40
0
40
0
40
0.124999999999878
40
0.124999999999878
40
0.187499999999868
40
0.187499999999868
40
0.249999999999858
40
0.249999999999858
40
0.37499999999984
40
0.37499999999984
40
0.437499999999897
40
0.437499999999897
40
0.499999999999953
40
0.499999999999953
40
0.625000000000065
40
0.625000000000065
40
0.687500000000054
40
0.687500000000054
40
0.750000000000043
40
0.750000000000043
40
0.812500000000033
40
0.812500000000033
40
0.875000000000022
40
0.875000000000022
40
0.937500000000011
40
0.937500000000011
40
1
40
1
40
1
40
1
41
1
10
111.810387980895
20
-2.64074031172464
30
0
41
1
10
111.819598317479
20
-2.6351825457605
30
0
41
1
10
111.830334704492
20
-2.63185259582457
30
0
41
1
10
111.848149316925
20
-2.62932487928407
30
0
41
1
10
111.854379757222
20
-2.62890526997961
30
0
41
1
10
111.867390288617
20
-2.62886459515661
30
0
41
1
10
111.874098702156
20
-2.6292458200538
30
0
41
1
10
111.894616964586
20
-2.63147334216282
30
0
41
1
10
111.908884716406
20
-2.63438751609661
30
0
41
1
10
111.931078201576
20
-2.64078506535904
30
0
41
1
10
111.938635367193
20
-2.64326925836178
30
0
41
1
10
111.953895670648
20
-2.64890311771168
30
0
41
1
10
111.961550494171
20
-2.65203275314198
30
0
41
1
10
111.984576183466
20
-2.66235761892608
30
0
41
1
10
112.000006609376
20
-2.67047326109437
30
0
41
1
10
112.023253703244
20
-2.68472903227178
30
0
41
1
10
112.031062622166
20
-2.6898632401529
30
0
41
1
10
112.046443367613
20
-2.70073536918997
30
0
41
1
10
112.054021523441
20
-2.70647218067489
30
0
41
1
10
112.06892833314
20
-2.71860360370553
30
0
41
1
10
112.076257084778
20
-2.72499766147519
30
0
41
1
10
112.090618086498
20
-2.73854696287842
30
0
41
1
10
112.097663800103
20
-2.74572583143808
30
0
41
1
10
112.110988165917
20
-2.76053849413444
30
0
41
1
10
112.117318755334
20
-2.76821637705021
30
0
41
1
10
112.129211624479
20
-2.78420133015877
30
0
41
1
10
112.134794128299
20
-2.79255144458278
30
0
41
1
10
112.139768382778
20
-2.80105410972592
30
0
0
SPLINE
5
13C
100
AcDbEntity
8
1
62
256
6
ByLayer
370
18
48
1
60
0
100
AcDbSpline
70
4
71
3
72
12
73
8
40
0
40
0
40
0
40
0
40
0.5
40
0.5
40
0.75
40
0.75
40
1
40
1
40
1
40
1
41
1
10
112.139768382777
20
-2.80105410972521
30
0
41
1
10
112.204643914956
20
-2.91194809967089
30
0
41
1
10
112.268970074626
20
-3.02421851341623
30
0
41
1
10
112.364904210988
20
-3.1944192905955
30
0
41
1
10
112.396783646216
20
-3.25144626918126
30
0
41
1
10
112.460254661277
20
-3.36583210826271
30
0
41
1
10
112.491863374825
20
-3.42322132907515
30
0
41
1
10
112.523363217974
20
-3.48079533407741
30
0
0
SPLINE
5
13D
100
AcDbEntity
8
1
62
256
6
ByLayer
370
18
48
1
60
0
100
AcDbSpline
70
4
71
3
72
8
73
4
40
0
40
0
40
0
40
0
40
1
40
1
40
1
40
1
41
1
10
112.523363217974
20
-3.48079533407744
30
0
41
1
10
112.604373651163
20
-3.50364563412049
30
0
41
1
10
112.685896359283
20
-3.52377376960541
30
0
41
1
10
112.767991585885
20
-3.5411382140085
30
0
0
SPLINE
5
13E
100
AcDbEntity
8
1
62
256
6
ByLayer
370
18
48
1
60
0
100
AcDbSpline
70
4
71
3
72
12
73
8
40
0
40
0
40
0
40
0
40
0.25
40
0.25
40
0.5
40
0.5
40
1
40
1
40
1
40
1
41
1
10
112.767991585885
20
-3.5411382140085
30
0
41
1
10
112.797317817819
20
-3.51336402546082
30
0
41
1
10
112.826745723274
20
-3.48464793394123
30
0
41
1
10
112.885835733238
20
-3.42532466459687
30
0
41
1
10
112.915509467196
20
-3.39470463148783
30
0
41
1
10
113.004772784793
20
-3.30015754180036
30
0
41
1
10
113.06464155436
20
-3.23351142971274
30
0
41
1
10
113.12500044679
20
-3.16322023396916
30
0
0
SPLINE
5
13F
100
AcDbEntity
8
1
62
256
6
ByLayer
370
18
48
1
60
0
100
AcDbSpline
70
4
71
3
72
32
73
28
40
0
40
0
40
0
40
0
40
0.124999999999972
40
0.124999999999972
40
0.187499999999906
40
0.187499999999906
40
0.249999999999839
40
0.249999999999839
40
0.374999999999707
40
0.374999999999707
40
0.437499999999641
40
0.437499999999641
40
0.499999999999574
40
0.499999999999574
40
0.624999999999578
40
0.624999999999578
40
0.687499999999649
40
0.687499999999649
40
0.749999999999719
40
0.749999999999719
40
0.812499999999789
40
0.812499999999789
40
0.874999999999859
40
0.874999999999859
40
0.93749999999993
40
0.93749999999993
40
1
40
1
40
1
40
1
41
1
10
113.12500044679
20
-3.16322023396916
30
0
41
1
10
113.134199884094
20
-3.15250699152486
30
0
41
1
10
113.144925102267
20
-3.14412612426338
30
0
41
1
10
113.162726696156
20
-3.13414498059743
30
0
41
1
10
113.168953403013
20
-3.13126171559173
30
0
41
1
10
113.181958379038
20
-3.12633294352608
30
0
41
1
10
113.18866755303
20
-3.1243163592236
30
0
41
1
10
113.209187498698
20
-3.11953589091232
30
0
41
1
10
113.223460221151
20
-3.11799592825966
30
0
41
1
10
113.245669120663
20
-3.11801019989096
30
0
41
1
10
113.253233633134
20
-3.11841007424084
30
0
41
1
10
113.26850684521
20
-3.12000793765307
30
0
41
1
10
113.276168733765
20
-3.12119806810767
30
0
41
1
10
113.299217499779
20
-3.12593367591259
30
0
41
1
10
113.314666498677
20
-3.13062506881678
30
0
41
1
10
113.337933519835
20
-3.14024092253106
30
0
41
1
10
113.345747256116
20
-3.14390488500757
30
0
41
1
10
113.361122475093
20
-3.15206327909144
30
0
41
1
10
113.368695071472
20
-3.15655646057937
30
0
41
1
10
113.383584828691
20
-3.16644226175902
30
0
41
1
10
113.390902324494
20
-3.17183397220239
30
0
41
1
10
113.405237727475
20
-3.1836490297647
30
0
41
1
10
113.412267047557
20
-3.19009537459743
30
0
41
1
10
113.425557868026
20
-3.20379468061861
30
0
41
1
10
113.431871365748
20
-3.21108459468292
30
0
41
1
10
113.443731253046
20
-3.22668357408145
30
0
41
1
10
113.449298030482
20
-3.23503861633739
30
0
41
1
10
113.454259383393
20
-3.24378196518174
30
0
0
SPLINE
5
140
100
AcDbEntity
8
1
62
256
6
ByLayer
370
18
48
1
60
0
100
AcDbSpline
70
4
71
3
72
8
73
4
40
0
40
0
40
0
40
0
40
1
40
1
40
1
40
1
41
1
10
113.454259383392
20
-3.24378196518143
30
0
41
1
10
113.525614431712
20
-3.36953034279304
30
0
41
1
10
113.59630368168
20
-3.49487669586031
30
0
41
1
10
113.666519964221
20
-3.61972437337224
30
0
0
SPLINE
5
141
100
AcDbEntity
8
1
62
256
6
ByLayer
370
18
48
1
60
0
100
AcDbSpline
70
4
71
3
72
12
73
8
40
0
40
0
40
0
40
0
40
0.249999999999984
40
0.249999999999984
40
0.499999999999967
40
0.499999999999967
40
1
40
1
40
1
40
1
41
1
10
113.666519964221
20
-3.61972437337221
30
0
41
1
10
113.720477750427
20
-3.61799336980803
30
0
41
1
10
113.774502469288
20
-3.61510786954497
30
0
41
1
10
113.882899220649
20
-3.60694782457728
30
0
41
1
10
113.937251991809
20
-3.60168403902173
30
0
41
1
10
114.100838174831
20
-3.58236208427121
30
0
41
1
10
114.210595382993
20
-3.56477484406443
30
0
41
1
10
114.321242072472
20
-3.54252964952354
30
0
0
SPLINE
5
142
100
AcDbEntity
8
1
62
256
6
ByLayer
370
18
48
1
60
0
100
AcDbSpline
70
4
71
3
72
8
73
4
40
0
40
0
40
0
40
0
40
1
40
1
40
1
40
1
41
1
10
114.321242072472
20
-3.54252964952283
30
0
41
1
10
114.360518938113
20
-3.48123707635085
30
0
41
1
10
114.399973994297
20
-3.41882102525636
30
0
41
1
10
114.439645595286
20
-3.35528352937735
30
0
0
SPLINE
5
143
100
AcDbEntity
8
1
62
256
6
ByLayer
370
18
48
1
60
0
100
AcDbSpline
70
4
71
3
72
32
73
28
40
0
40
0
40
0
40
0
40
0.125000000000091
40
0.125000000000091
40
0.187500000000137
40
0.187500000000137
40
0.250000000000182
40
0.250000000000182
40
0.375000000000152
40
0.375000000000152
40
0.437500000000137
40
0.437500000000137
40
0.500000000000122
40
0.500000000000122
40
0.625000000000091
40
0.625000000000091
40
0.687500000000076
40
0.687500000000076
40
0.750000000000061
40
0.750000000000061
40
0.812500000000046
40
0.812500000000046
40
0.87500000000003
40
0.87500000000003
40
0.937500000000015
40
0.937500000000015
40
1
40
1
40
1
40
1
41
1
10
114.439645595286
20
-3.35528352937735
30
0
41
1
10
114.44884026013
20
-3.34055747937904
30
0
41
1
10
114.459559348311
20
-3.32803031425678
30
0
41
1
10
114.477351216206
20
-3.31168516557702
30
0
41
1
10
114.483574577638
20
-3.30665563882241
30
0
41
1
10
114.496572824628
20
-3.2973869296691
30
0
41
1
10
114.503279354277
20
-3.29319954981176
30
0
41
1
10
114.523790353475
20
-3.28196119671662
30
0
41
1
10
114.538057201635
20
-3.27616279057619
30
0
41
1
10
114.560259420751
20
-3.26984312760078
30
0
41
1
10
114.567821844024
20
-3.2681333728851
30
0
41
1
10
114.583093160857
20
-3.26556155684449
30
0
41
1
10
114.590754494832
20
-3.26470420145603
30
0
41
1
10
114.6138029019
20
-3.26340374121935
30
0
41
1
10
114.629253414051
20
-3.26421119228235
30
0
41
1
10
114.652525406658
20
-3.26821852376764
30
0
41
1
10
114.660341457686
20
-3.27004013459623
30
0
41
1
10
114.67572230195
20
-3.27465876749827
30
0
41
1
10
114.683297747017
20
-3.27745121374676
30
0
41
1
10
114.698193130944
20
-3.28408265074566
30
0
41
1
10
114.705513404811
20
-3.28792062502794
30
0
41
1
10
114.719854167551
20
-3.29679321259144
30
0
41
1
10
114.72688558723
20
-3.30184896708076
30
0
41
1
10
114.740179338231
20
-3.3130371842463
30
0
41
1
10
114.746493837838
20
-3.31919556994424
30
0
41
1
10
114.758354689626
20
-3.3328188165695
30
0
41
1
10
114.76392103418
20
-3.34032741550726
30
0
41
1
10
114.768881339808
20
-3.34841932778576
30
0
0
SPLINE
5
144
100
AcDbEntity
8
1
62
256
6
ByLayer
370
18
48
1
60
0
100
AcDbSpline
70
4
71
3
72
8
73
4
40
0
40
0
40
0
40
0
40
1
40
1
40
1
40
1
41
1
10
114.768881339808
20
-3.34841932778585
30
0
41
1
10
114.782745902464
20
-3.37103705201443
30
0
41
1
10
114.796586360408
20
-3.3935651403373
30
0
41
1
10
114.810404127076
20
-3.41600343223902
30
0
0
SPLINE
5
145
100
AcDbEntity
8
1
62
256
6
ByLayer
370
18
48
1
60
0
100
AcDbSpline
70
4
71
3
72
16
73
12
40
0
40
0
40
0
40
0
40
0.249999999999987
40
0.249999999999987
40
0.499999999999974
40
0.499999999999974
40
0.624999999999967
40
0.624999999999967
40
0.749999999999961
40
0.749999999999961
40
1
40
1
40
1
40
1
41
1
10
114.810404127076
20
-3.41600343223905
30
0
41
1
10
114.883882489011
20
-3.39291685290735
30
0
41
1
10
114.957445184181
20
-3.36803460912813
30
0
41
1
10
115.104791743282
20
-3.31480879695715
30
0
41
1
10
115.178564975675
20
-3.28646535727728
30
0
41
1
10
115.289547327596
20
-3.24142251001416
30
0
41
1
10
115.326575040653
20
-3.22598801716049
30
0
41
1
10
115.400696437867
20
-3.19428590780282
30
0
41
1
10
115.437825128789
20
-3.17801743267151
30
0
41
1
10
115.549558209116
20
-3.12798360004913
30
0
41
1
10
115.62446906926
20
-3.09298858997838
30
0
41
1
10
115.699999917502
20
-3.0564344291806
30
0
0
SPLINE
5
146
100
AcDbEntity
8
1
62
256
6
ByLayer
370
18
48
1
60
0
100
AcDbSpline
70
4
71
3
72
10
73
6
40
0
40
0
40
0
40
0
40
0.5
40
0.5
40
1
40
1
40
1
40
1
41
1
10
115.699999917502
20
-3.0564344291806
30
0
41
1
10
115.748130400188
20
-2.99798884764891
30
0
41
1
10
115.797137032057
20
-2.93874383436517
30
0
41
1
10
115.897148610754
20
-2.81908571043451
30
0
41
1
10
115.948082086212
20
-2.75875801101873
30
0
41
1
10
116
20
-2.69831381789137
30
0
0
SPLINE
5
147
100
AcDbEntity
8
1
62
256
6
ByLayer
370
18
48
1
60
0
100
AcDbSpline
70
4
71
3
72
27
73
23
40
0
40
0
40
0
40
0
40
0.0832570281117375
40
0.0832570281117375
40
0.124885542167606
40
0.124885542167606
40
0.166514056223475
40
0.333028112446948
40
0.333028112446948
40
0.416285140558685
40
0.416285140558685
40
0.457913654614553
40
0.457913654614553
40
0.499542168670421
40
0.499542168670421
40
0.582799196782158
40
0.582799196782158
40
0.666056224893895
40
0.666056224893895
40
0.999084337340842
40
0.999084337340842
40
1
40
1
40
1
40
1
41
1
10
116
20
-2.69831381789086
30
0
41
1
10
116
20
-2.6594572849321
30
0
41
1
10
116
20
-2.62115197643587
30
0
41
1
10
116
20
-2.56453828069499
30
0
41
1
10
116
20
-2.54575866131879
30
0
41
1
10
116
20
-2.50877370495897
30
0
41
1
10
116
20
-2.41776599945789
30
0
41
1
10
116
20
-2.33389982420954
30
0
41
1
10
116
20
-2.23977758141356
30
0
41
1
10
116
20
-2.20951019958755
30
0
41
1
10
116
20
-2.16582050586618
30
0
41
1
10
116
20
-2.15154335961043
30
0
41
1
10
116
20
-2.12330839201619
30
0
41
1
10
116
20
-2.10935545494786
30
0
41
1
10
116
20
-2.06790331884807
30
0
41
1
10
116
20
-2.04078036290983
30
0
41
1
10
116
20
-1.98775893397985
30
0
41
1
10
116
20
-1.96198611471024
30
0
41
1
10
116
20
-1.83674235139696
30
0
41
1
10
116
20
-1.74803333405623
30
0
41
1
10
116
20
-1.67030084246622
30
0
41
1
10
116
20
-1.67008778764045
30
0
41
1
10
116
20
-1.66987481788624
30
0
0
SPLINE
5
148
100
AcDbEntity
8
1
62
256
6
ByLayer
370
18
48
1
60
0
100
AcDbSpline
70
4
71
3
72
10
73
6
40
0
40
0
40
0
40
0
40
0.5
40
0.5
40
1
40
1
40
1
40
1
41
1
10
116
20
-1.61478520374089
30
0
41
1
10
115.950706913011
20
-1.6145602652019
30
0
41
1
10
115.901059476977
20
-1.61452103407956
30
0
41
1
10
115.801057413379
20
-1.61521650132335
30
0
41
1
10
115.750712494948
20
-1.61592781027125
30
0
41
1
10
115.700000030518
20
-1.6173276558788
30
0
0
SPLINE
5
149
100
AcDbEntity
8
1
62
256
6
ByLayer
370
18
48
1
60
0
100
AcDbSpline
70
4
71
3
72
16
73
12
40
0
40
0
40
0
40
0
40
0.124999999999994
40
0.124999999999994
40
0.249999999999988
40
0.249999999999988
40
0.374999999999983
40
0.374999999999983
40
0.499999999999977
40
0.499999999999977
40
1
40
1
40
1
40
1
41
1
10
115.700000030518
20
-1.61732765587877
30
0
41
1
10
115.652863295613
20
-1.59295398352836
30
0
41
1
10
115.605823345384
20
-1.56815131673451
30
0
41
1
10
115.511801460141
20
-1.51786297037427
30
0
41
1
10
115.464845216086
20
-1.49234684664069
30
0
41
1
10
115.371209504885
20
-1.44036580326963
30
0
41
1
10
115.324520979342
20
-1.41391206407624
30
0
41
1
10
115.231530546792
20
-1.35990774049847
30
0
41
1
10
115.185220061437
20
-1.33236735854416
30
0
41
1
10
114.954428806259
20
-1.19215004815402
30
0
41
1
10
114.772085577287
20
-1.07213479195684
30
0
41
1
10
114.59145251412
20
-0.944566965763158
30
0
0
SPLINE
5
14A
100
AcDbEntity
8
1
62
256
6
ByLayer
370
18
48
1
60
0
100
AcDbSpline
70
4
71
3
72
8
73
4
40
0
40
0
40
0
40
0
40
1
40
1
40
1
40
1
41
1
10
114.59145251412
20
-0.944566965763187
30
0
41
1
10
114.55766328112
20
-0.887771242854853
30
0
41
1
10
114.523778429834
20
-0.831914141248518
30
0
41
1
10
114.489772523722
20
-0.777019493562676
30
0
0
SPLINE
5
14B
100
AcDbEntity
8
1
62
256
6
ByLayer
370
18
48
1
60
0
100
AcDbSpline
70
4
71
3
72
28
73
24
40
0
40
0
40
0
40
0
40
0.125
40
0.125
40
0.25
40
0.25
40
0.375
40
0.375
40
0.499999999999999
40
0.499999999999999
40
0.624999999999999
40
0.624999999999999
40
0.687499999999999
40
0.687499999999999
40
0.749999999999999
40
0.749999999999999
40
0.8125
40
0.8125
40
0.875
40
0.875
40
0.9375
40
0.9375
40
1
40
1
40
1
40
1
41
1
10
114.489772523722
20
-0.777019493562307
30
0
41
1
10
114.480913435938
20
-0.762718551217091
30
0
41
1
10
114.47063106856
20
-0.748322888479208
30
0
41
1
10
114.447853366185
20
-0.719407550629853
30
0
41
1
10
114.435232843238
20
-0.704777062560481
30
0
41
1
10
114.408827214136
20
-0.676373284227935
30
0
41
1
10
114.394968571147
20
-0.662501002558031
30
0
41
1
10
114.366013359516
20
-0.635359765768129
30
0
41
1
10
114.35077858154
20
-0.621984566285931
30
0
41
1
10
114.320124964183
20
-0.59675128409765
30
0
41
1
10
114.304623861686
20
-0.584798397112195
30
0
41
1
10
114.281120925721
20
-0.56794880143687
30
0
41
1
10
114.273244165914
20
-0.562514188693342
30
0
41
1
10
114.257399592851
20
-0.552056702515699
30
0
41
1
10
114.249517912119
20
-0.547093019994378
30
0
41
1
10
114.234054532114
20
-0.537869494191739
30
0
41
1
10
114.226442560356
20
-0.533589375685636
30
0
41
1
10
114.211506790873
20
-0.525780753056154
30
0
41
1
10
114.204144301798
20
-0.522238205899868
30
0
41
1
10
114.190231692975
20
-0.516252381309215
30
0
41
1
10
114.183630483267
20
-0.513777942752455
30
0
41
1
10
114.171256227808
20
-0.5100372749271
30
0
41
1
10
114.165494959209
20
-0.508784436894075
30
0
41
1
10
114.160413846159
20
-0.508292395135499
30
0
0
SPLINE
5
14C
100
AcDbEntity
8
1
62
256
6
ByLayer
370
18
48
1
60
0
100
AcDbSpline
70
4
71
3
72
8
73
4
40
0
40
0
40
0
40
0
40
1
40
1
40
1
40
1
41
1
10
114.160413846153
20
-0.508292395148658
30
0
41
1
10
114.097087547792
20
-0.502160041299305
30
0
41
1
10
114.034130358131
20
-0.490950710342645
30
0
41
1
10
113.971452229255
20
-0.474711887615001
30
0
0
SPLINE
5
14D
100
AcDbEntity
8
1
62
256
6
ByLayer
370
18
48
1
60
0
100
AcDbSpline
70
4
71
3
72
12
73
8
40
0
40
0
40
0
40
0
40
0.499999999999955
40
0.499999999999955
40
0.749999999999978
40
0.749999999999978
40
1
40
1
40
1
40
1
41
1
10
113.971452229254
20
-0.474711887615484
30
0
41
1
10
113.885070270446
20
-0.404990735966294
30
0
41
1
10
113.798859193892
20
-0.333667409538549
30
0
41
1
10
113.669471774383
20
-0.224662340020842
30
0
41
1
10
113.626197493039
20
-0.188066014780105
30
0
41
1
10
113.54003139641
20
-0.114359167842565
30
0
41
1
10
113.49712339808
20
-0.0772730961176649
30
0
41
1
10
113.454381539027
20
-0.0399632244646284
30
0
0
SPLINE
5
14E
100
AcDbEntity
8
1
62
256
6
ByLayer
370
18
48
1
60
0
100
AcDbSpline
70
4
71
3
72
10
73
6
40
0
40
0
40
0
40
0
40
0.5
40
0.5
40
1
40
1
40
1
40
1
41
1
10
113.454381539027
20
-0.0399632244646284
30
0
41
1
10
113.408262306314
20
0.0222011877717989
30
0
41
1
10
113.361917529909
20
0.0821588269076017
30
0
41
1
10
113.268833946331
20
0.197382701723456
30
0
41
1
10
113.222103237078
20
0.252627455879065
30
0
41
1
10
113.175154513721
20
0.305383230264624
30
0
0
SPLINE
5
14F
100
AcDbEntity
8
1
62
256
6
ByLayer
370
18
48
1
60
0
100
AcDbSpline
70
4
71
3
72
28
73
24
40
0
40
0
40
0
40
0
40
0.125
40
0.125
40
0.25
40
0.25
40
0.375000000000001
40
0.375000000000001
40
0.500000000000001
40
0.500000000000001
40
0.625000000000001
40
0.625000000000001
40
0.687500000000001
40
0.687500000000001
40
0.750000000000001
40
0.750000000000001
40
0.8125
40
0.8125
40
0.875
40
0.875
40
0.9375
40
0.9375
40
1
40
1
40
1
40
1
41
1
10
113.175154513721
20
0.305383230266869
30
0
41
1
10
113.16629231647
20
0.315341585793533
30
0
41
1
10
113.156004348434
20
0.326018451356163
30
0
41
1
10
113.133211880266
20
0.348456837074366
30
0
41
1
10
113.120580888749
20
0.360323398872055
30
0
41
1
10
113.094157061406
20
0.384256819244371
30
0
41
1
10
113.080291979993
20
0.396394962167079
30
0
41
1
10
113.051327235549
20
0.421035693859324
30
0
41
1
10
113.036090191425
20
0.433648154697636
30
0
41
1
10
113.005436041486
20
0.458453884618848
30
0
41
1
10
112.98993527541
20
0.470724672961126
30
0
41
1
10
112.966434117226
20
0.488964554844102
30
0
41
1
10
112.958558192788
20
0.49501636694103
30
0
41
1
10
112.942716297705
20
0.50706434434781
30
0
41
1
10
112.934842128123
20
0.512990049303397
30
0
41
1
10
112.919390007973
20
0.524496537743886
30
0
41
1
10
112.911784297786
20
0.530098558313171
30
0
41
1
10
112.896862141324
20
0.540968520224709
30
0
41
1
10
112.889507480798
20
0.546262584622667
30
0
41
1
10
112.875610303872
20
0.556128355948914
30
0
41
1
10
112.86901623774
20
0.560738614245594
30
0
41
1
10
112.856654787873
20
0.569207047802564
30
0
41
1
10
112.850899343376
20
0.573055308210996
30
0
41
1
10
112.84582255886
20
0.57632483037159
30
0
0
SPLINE
5
150
100
AcDbEntity
8
1
62
256
6
ByLayer
370
18
48
1
60
0
100
AcDbSpline
70
4
71
3
72
10
73
6
40
0
40
0
40
0
40
0
40
0.5
40
0.5
40
1
40
1
40
1
40
1
41
1
10
112.845822558854
20
0.57632483036241
30
0
41
1
10
112.775148185772
20
0.62184014192303
30
0
41
1
10
112.704931172998
20
0.673193008586878
30
0
41
1
10
112.565153560358
20
0.787372198664599
30
0
41
1
10
112.495856621065
20
0.849965575451051
30
0
41
1
10
112.426997169718
20
0.917835207223106
30
0
0
SPLINE
5
151
100
AcDbEntity
8
1
62
256
6
ByLayer
370
18
48
1
60
0
100
AcDbSpline
70
4
71
3
72
14
73
10
40
0
40
0
40
0
40
0
40
0.25
40
0.25
40
0.5
40
0.5
40
0.75
40
0.75
40
1
40
1
40
1
40
1
41
1
10
112.3009688583
20
1.04114419363805
30
0
41
1
10
112.264847664174
20
1.07433539572557
30
0
41
1
10
112.228617706493
20
1.10592963654028
30
0
41
1
10
112.15584525885
20
1.16573522878667
30
0
41
1
10
112.119282791855
20
1.19395132707842
30
0
41
1
10
112.045857147758
20
1.24672645286307
30
0
41
1
10
112.008975500724
20
1.27128215410465
30
0
41
1
10
111.934925482333
20
1.31675850582079
30
0
41
1
10
111.897779059224
20
1.3376898465886
30
0
41
1
10
111.86047728476
20
1.35678806526892
30
0
0
SPLINE
5
152
100
AcDbEntity
8
1
62
256
6
ByLayer
370
18
48
1
60
0
100
AcDbSpline
70
4
71
3
72
30
73
26
40
0
40
0
40
0
40
0
40
0.125000000000068
40
0.125000000000068
40
0.250000000000135
40
0.250000000000135
40
0.375000000000203
40
0.375000000000203
40
0.437500000000237
40
0.437500000000237
40
0.500000000000271
40
0.500000000000271
40
0.625000000000203
40
0.625000000000203
40
0.687500000000169
40
0.687500000000169
40
0.750000000000135
40
0.750000000000135
40
0.812500000000101
40
0.812500000000101
40
0.875000000000068
40
0.875000000000068
40
0.937500000000034
40
0.937500000000034
40
1
40
1
40
1
40
1
41
1
10
111.86047728476
20
1.3567880652694
30
0
41
1
10
111.851637595989
20
1.36131391723322
30
0
41
1
10
111.841373661785
20
1.36709215890087
30
0
41
1
10
111.818623942494
20
1.38056340876923
30
0
41
1
10
111.806019764385
20
1.38833798018794
30
0
41
1
10
111.779550105139
20
1.4051770018267
30
0
41
1
10
111.765624114323
20
1.41427224385521
30
0
41
1
10
111.743737572407
20
1.42893386872856
30
0
41
1
10
111.736271203081
20
1.43399631038571
30
0
41
1
10
111.72126431382
20
1.44430491574357
30
0
41
1
10
111.713692225666
20
1.44957207687591
30
0
41
1
10
111.690778756741
20
1.4657333064134
30
0
41
1
10
111.675243817698
20
1.47697958764192
30
0
41
1
10
111.651531845432
20
1.49474887968012
30
0
41
1
10
111.643554162829
20
1.50082887207958
30
0
41
1
10
111.627834230217
20
1.51304566016716
30
0
41
1
10
111.620046480599
20
1.51921578109193
30
0
41
1
10
111.604641036805
20
1.53170496134692
30
0
41
1
10
111.597002448507
20
1.53804175031496
30
0
41
1
10
111.582025691491
20
1.55083064520244
30
0
41
1
10
111.574812367612
20
1.55717516385198
30
0
41
1
10
111.561005784668
20
1.56975838919396
30
0
41
1
10
111.554386768554
20
1.57602184715057
30
0
41
1
10
111.542002919537
20
1.58831549809528
30
0
41
1
10
111.536344981946
20
1.59423781749109
30
0
41
1
10
111.531289289843
20
1.59990014930733
30
0
0
SPLINE
5
153
100
AcDbEntity
8
1
62
256
6
ByLayer
370
18
48
1
60
0
100
AcDbSpline
70
4
71
3
72
10
73
6
40
0
40
0
40
0
40
0
40
0.5
40
0.5
40
1
40
1
40
1
40
1
41
1
10
111.531289289843
20
1.59990014930688
30
0
41
1
10
111.460252353522
20
1.6794609090276
30
0
41
1
10
111.389694692912
20
1.76395752963782
30
0
41
1
10
111.249261534426
20
1.94248986141272
30
0
41
1
10
111.179638597188
20
2.0361821468932
30
0
41
1
10
111.110481883101
20
2.13394788647136
30
0
0
SPLINE
5
154
100
AcDbEntity
8
1
62
256
6
ByLayer
370
18
48
1
60
0
100
AcDbSpline
70
4
71
3
72
12
73
8
40
0
40
0
40
0
40
0
40
0.25
40
0.25
40
0.5
40
0.5
40
1
40
1
40
1
40
1
41
1
10
110.986387768464
20
2.23930671759598
30
0
41
1
10
110.95017415088
20
2.24863204186667
30
0
41
1
10
110.913855222038
20
2.25624505218792
30
0
41
1
10
110.84095358415
20
2.26798987567619
30
0
41
1
10
110.804355201101
20
2.2721196558947
30
0
41
1
10
110.694212247715
20
2.27912827802422
30
0
41
1
10
110.620297234016
20
2.27666911986296
30
0
41
1
10
110.545761632256
20
2.26647175057383
30
0
0
SPLINE
5
155
100
AcDbEntity
8
1
62
256
6
ByLayer
370
18
48
1
60
0
100
AcDbSpline
70
4
71
3
72
30
73
26
40
0
40
0
40
0
40
0
40
0.124999999999923
40
0.124999999999923
40
0.249999999999845
40
0.249999999999845
40
0.374999999999768
40
0.374999999999768
40
0.437499999999792
40
0.437499999999792
40
0.499999999999816
40
0.499999999999816
40
0.624999999999862
40
0.624999999999862
40
0.687499999999885
40
0.687499999999885
40
0.749999999999908
40
0.749999999999908
40
0.812499999999931
40
0.812499999999931
40
0.874999999999954
40
0.874999999999954
40
0.937499999999977
40
0.937499999999977
40
1
40
1
40
1
40
1
41
1
10
110.545761632256
20
2.26647175057374
30
0
41
1
10
110.536938889602
20
2.26526469296817
30
0
41
1
10
110.526702790217
20
2.2657218219174
30
0
41
1
10
110.504023695295
20
2.26917541145372
30
0
41
1
10
110.491464394435
20
2.2722287759259
30
0
41
1
10
110.465079412318
20
2.28047116513605
30
0
41
1
10
110.45119453982
20
2.28565842111809
30
0
41
1
10
110.429357320476
20
2.29502457877774
30
0
41
1
10
110.421901678428
20
2.29841949158467
30
0
41
1
10
110.406909266071
20
2.30564312715435
30
0
41
1
10
110.399341218103
20
2.3094847348292
30
0
41
1
10
110.37643011537
20
2.32172649284712
30
0
41
1
10
110.36088352398
20
2.330828653715
30
0
41
1
10
110.337137467525
20
2.34621961119336
30
0
41
1
10
110.329133857612
20
2.3516582320174
30
0
41
1
10
110.313362067349
20
2.36293985015908
30
0
41
1
10
110.305548814336
20
2.36881017918577
30
0
41
1
10
110.290095454715
20
2.3810749682884
30
0
41
1
10
110.282439977539
20
2.38748259228782
30
0
41
1
10
110.267409394078
20
2.4008741695587
30
0
41
1
10
110.260173097741
20
2.40773352660614
30
0
41
1
10
110.246328802107
20
2.42182372325769
30
0
41
1
10
110.239697997311
20
2.42907983637988
30
0
41
1
10
110.227285232548
20
2.44392949003796
30
0
41
1
10
110.22161769178
20
2.45138268654796
30
0
41
1
10
110.216556388699
20
2.45886357183252
30
0
0
SPLINE
5
156
100
AcDbEntity
8
1
62
256
6
ByLayer
370
18
48
1
60
0
100
AcDbSpline
70
4
71
3
72
10
73
6
40
0
40
0
40
0
40
0
40
0.5
40
0.5
40
1
40
1
40
1
40
1
41
1
10
110.216556388699
20
2.45886357183255
30
0
41
1
10
110.145547298967
20
2.56381892542939
30
0
41
1
10
110.075013555806
20
2.67211748724279
30
0
41
1
10
109.934622129425
20
2.89512037442819
30
0
41
1
10
109.865021287415
20
3.00939729850956
30
0
41
1
10
109.795887067785
20
3.12614527587468
30
0
0
SPLINE
5
157
100
AcDbEntity
8
1
62
256
6
ByLayer
370
18
48
1
60
0
100
AcDbSpline
70
4
71
3
72
12
73
8
40
0
40
0
40
0
40
0
40
0.250000000000009
40
0.250000000000009
40
0.500000000000018
40
0.500000000000018
40
1
40
1
40
1
40
1
41
1
10
109.671777415558
20
3.2041213020438
30
0
41
1
10
109.63556967834
20
3.18842072552897
30
0
41
1
10
109.599253636012
20
3.17106029139825
30
0
41
1
10
109.526355933619
20
3.13301719829258
30
0
41
1
10
109.489759180323
20
3.11232533015519
30
0
41
1
10
109.379634562526
20
3.04530141156215
30
0
41
1
10
109.305749468281
20
2.99402932495226
30
0
41
1
10
109.231346015361
20
2.93601610229601
30
0
0
SPLINE
5
158
100
AcDbEntity
8
1
62
256
6
ByLayer
370
18
48
1
60
0
100
AcDbSpline
70
4
71
3
72
28
73
24
40
0
40
0
40
0
40
0
40
0.125
40
0.125
40
0.249999999999999
40
0.249999999999999
40
0.374999999999999
40
0.374999999999999
40
0.499999999999998
40
0.499999999999998
40
0.624999999999998
40
0.624999999999998
40
0.687499999999998
40
0.687499999999998
40
0.749999999999999
40
0.749999999999999
40
0.812499999999999
40
0.812499999999999
40
0.874999999999999
40
0.874999999999999
40
0.9375
40
0.9375
40
1
40
1
40
1
40
1
41
1
10
109.231346015361
20
2.93601610229533
30
0
41
1
10
109.22246712536
20
2.92909313027926
30
0
41
1
10
109.212161622084
20
2.92410912651815
30
0
41
1
10
109.189339575904
20
2.91710612129788
30
0
41
1
10
109.176697864175
20
2.91511775663798
30
0
41
1
10
109.150263198628
20
2.91396059249627
30
0
41
1
10
109.136398862737
20
2.91475172591706
30
0
41
1
10
109.10744727383
20
2.91899119421001
30
0
41
1
10
109.092221338597
20
2.92249745505799
30
0
41
1
10
109.061582175708
20
2.93216840568249
30
0
41
1
10
109.046087990152
20
2.9383193513064
30
0
41
1
10
109.022596264446
20
2.94983208573717
30
0
41
1
10
109.014723465475
20
2.9540544336858
30
0
41
1
10
108.998889019188
20
2.96339267445199
30
0
41
1
10
108.991005724622
20
2.96846666329148
30
0
41
1
10
108.97554643939
20
2.97937362170342
30
0
41
1
10
108.967937900229
20
2.98522447947394
30
0
41
1
10
108.953008991032
20
2.99785162995556
30
0
41
1
10
108.945646482855
20
3.00467785622055
30
0
41
1
10
108.931726832831
20
3.01899776625257
30
0
41
1
10
108.925121314989
20
3.02652349395893
30
0
41
1
10
108.912737224007
20
3.042428635455
30
0
41
1
10
108.906966194129
20
3.05081887547954
30
0
41
1
10
108.90187603769
20
3.05943071971626
30
0
0
SPLINE
5
159
100
AcDbEntity
8
1
62
256
6
ByLayer
370
18
48
1
60
0
100
AcDbSpline
70
4
71
3
72
28
73
24
40
0
40
0
40
0
40
0
40
0.0792076601984379
40
0.0792076601984379
40
0.118811490297657
40
0.118811490297657
40
0.158415320396876
40
0.158415320396876
40
0.31683064079375
40
0.31683064079375
40
0.475245961190624
40
0.475245961190624
40
0.554453621389062
40
0.554453621389062
40
0.59405745148828
40
0.59405745148828
40
0.633661281587499
40
0.633661281587499
40
0.792076601984375
40
0.792076601984375
40
0.950491922381252
40
0.950491922381252
40
1
40
1
40
1
40
1
41
1
10
109.795887067785
20
3.12614527587462
30
0
41
1
10
109.792257824702
20
3.17359590088569
30
0
41
1
10
109.788615467159
20
3.21958112312254
30
0
41
1
10
109.783123852942
20
3.28632274033669
30
0
41
1
10
109.781289139074
20
3.30819704137542
30
0
41
1
10
109.777611502657
20
3.35119079625753
30
0
41
1
10
109.775767999756
20
3.37231516797161
30
0
41
1
10
109.766586849085
20
3.4753903126792
30
0
41
1
10
109.759316651265
20
3.55026763077566
30
0
41
1
10
109.744835689667
20
3.68532966028303
30
0
41
1
10
109.737621574027
20
3.74551300029168
30
0
41
1
10
109.726709370938
20
3.82471657821156
30
0
41
1
10
109.72306023283
20
3.84926855385592
30
0
41
1
10
109.717570297278
20
3.88327881929806
30
0
41
1
10
109.715737555768
20
3.89414568458829
30
0
41
1
10
109.712066049882
20
3.91492890545186
30
0
41
1
10
109.710224396484
20
3.92485955641473
30
0
41
1
10
109.701041541799
20
3.97188856696474
30
0
41
1
10
109.693781733543
20
4.00116654882984
30
0
41
1
10
109.679299025109
20
4.0435988887732
30
0
41
1
10
109.672055920598
20
4.05675154962603
30
0
41
1
10
109.662506127466
20
4.06341440477053
30
0
41
1
10
109.660230348154
20
4.06421198705121
30
0
41
1
10
109.657951798475
20
4.06421140074471
30
0
0
SPLINE
5
15A
100
AcDbEntity
8
1
62
256
6
ByLayer
370
18
48
1
60
0
100
AcDbSpline
70
4
71
3
72
68
73
64
40
0
40
0
40
0
40
0
40
0.0677063077612049
40
0.0677063077612049
40
0.178066864682012
40
0.178066864682012
40
0.288427421602818
40
0.288427421602818
40
0.316017560833022
40
0.316017560833022
40
0.343607700063226
40
0.343607700063226
40
0.398787978523625
40
0.398787978523625
40
0.453968256984024
40
0.453968256984024
40
0.481558396214219
40
0.481558396214219
40
0.509148535444415
40
0.509148535444415
40
0.564328813904814
40
0.564328813904814
40
0.591918953135014
40
0.591918953135014
40
0.619509092365213
40
0.619509092365213
40
0.674689370825621
40
0.674689370825621
40
0.702279510055825
40
0.702279510055825
40
0.716074579670923
40
0.716074579670923
40
0.72986964928602
40
0.72986964928602
40
0.757459788516208
40
0.757459788516208
40
0.785049927746395
40
0.785049927746395
40
0.812640066976582
40
0.812640066976582
40
0.826435136591676
40
0.826435136591676
40
0.840230206206769
40
0.840230206206769
40
0.867820345436956
40
0.867820345436956
40
0.881615415052053
40
0.881615415052053
40
0.888512949859599
40
0.888512949859599
40
0.895410484667144
40
0.895410484667144
40
0.923000623897315
40
0.923000623897315
40
0.936795693512401
40
0.936795693512401
40
0.950590763127486
40
0.950590763127486
40
0.978180902357655
40
0.978180902357655
40
0.991975971972739
40
0.991975971972739
40
1
40
1
40
1
40
1
41
1
10
86.1096098211985
20
-2.99998428437419
30
0
41
1
10
86.0224664722199
20
-2.99981934183705
30
0
41
1
10
85.9343218592116
20
-2.99762594242048
30
0
41
1
10
85.6991736372146
20
-2.98756131049913
30
0
41
1
10
85.5500477261219
20
-2.97699830183228
30
0
41
1
10
85.2429739537021
20
-2.95134110176116
30
0
41
1
10
85.085039150762
20
-2.9362442212749
30
0
41
1
10
84.8805468690136
20
-2.91751306406758
30
0
41
1
10
84.8392971792773
20
-2.91377371167755
30
0
41
1
10
84.7560352142523
20
-2.90639477991218
30
0
41
1
10
84.7139381150263
20
-2.90274842949884
30
0
41
1
10
84.587332986948
20
-2.89216716103206
30
0
41
1
10
84.5023881381204
20
-2.88555396145335
30
0
41
1
10
84.3311758749845
20
-2.87406193094569
30
0
41
1
10
84.2449465848857
20
-2.86913001381447
30
0
41
1
10
84.1148576644547
20
-2.86287679434642
30
0
41
1
10
84.071370841141
20
-2.86098085648803
30
0
41
1
10
83.9841769309102
20
-2.85754312303712
30
0
41
1
10
83.9404651570154
20
-2.85600927545303
30
0
41
1
10
83.8089588561399
20
-2.85203910814906
30
0
41
1
10
83.7207950964465
20
-2.85023390551819
30
0
41
1
10
83.5876786569244
20
-2.84909834671458
30
0
41
1
10
83.5432873813737
20
-2.84898382833936
30
0
41
1
10
83.4547950796031
20
-2.84931966480121
30
0
41
1
10
83.4106449949821
20
-2.84976956766448
30
0
41
1
10
83.2785021602638
20
-2.85200984360344
30
0
41
1
10
83.1908163057862
20
-2.85469814059078
30
0
41
1
10
83.0600449799307
20
-2.86077170492874
30
0
41
1
10
83.0165804169571
20
-2.86313346605769
30
0
41
1
10
82.9515943840787
20
-2.86720133624689
30
0
41
1
10
82.9299675627309
20
-2.86864478952683
30
0
41
1
10
82.8867887540608
20
-2.87170934685474
30
0
41
1
10
82.8652035354267
20
-2.87333318742461
30
0
41
1
10
82.8008621516952
20
-2.87845052677713
30
0
41
1
10
82.7585270417391
20
-2.88218833726677
30
0
41
1
10
82.6750813882364
20
-2.89027794664145
30
0
41
1
10
82.633963991789
20
-2.89462597517559
30
0
41
1
10
82.5531305403137
20
-2.90390000910381
30
0
41
1
10
82.5134125225923
20
-2.90882584102104
30
0
41
1
10
82.4550728255558
20
-2.9166008452097
30
0
41
1
10
82.4358191221506
20
-2.91925950453998
30
0
41
1
10
82.3981593021397
20
-2.9246408122379
30
0
41
1
10
82.3797061329809
20
-2.92736958142353
30
0
41
1
10
82.3255753371664
20
-2.93564396607937
30
0
41
1
10
82.2910947222376
20
-2.94127372615614
30
0
41
1
10
82.242236732359
20
-2.94973251899958
30
0
41
1
10
82.2264294450331
20
-2.95255385188722
30
0
41
1
10
82.2035114887288
20
-2.95676152056453
30
0
41
1
10
82.1959915122511
20
-2.95816246517214
30
0
41
1
10
82.1813448230168
20
-2.96092901282498
30
0
41
1
10
82.1742072283346
20
-2.96229654043958
30
0
41
1
10
82.1394634476544
20
-2.96904172894668
30
0
41
1
10
82.1147044552466
20
-2.97414735784406
30
0
41
1
10
82.0824769972558
20
-2.98106762741307
30
0
41
1
10
82.0725543915576
20
-2.98325077829614
30
0
41
1
10
82.054443035099
20
-2.98731117084037
30
0
41
1
10
82.0463523671233
20
-2.98916639664125
30
0
41
1
10
82.0251390891709
20
-2.99410576146201
30
0
41
1
10
82.0149469189358
20
-2.99658662608795
30
0
41
1
10
82.0052043953069
20
-2.99890935567359
30
0
41
1
10
82.0028820552258
20
-2.99945089232659
30
0
41
1
10
82.0006422283706
20
-2.99991377104945
30
0
41
1
10
82.0001297035619
20
-2.99999883716882
30
0
41
1
10
81.9999097851334
20
-3.00000000653983
30
0
0
SPLINE
5
15B
100
AcDbEntity
8
1
62
256
6
ByLayer
370
18
48
1
60
0
100
AcDbSpline
70
4
71
3
72
30
73
26
40
0
40
0
40
0
40
0
40
0.0383976401438128
40
0.0383976401438128
40
0.0727405815672484
40
0.0727405815672484
40
0.107083522990684
40
0.175769405837555
40
0.175769405837555
40
0.313141171531297
40
0.313141171531297
40
0.450512937225039
40
0.450512937225039
40
0.484855878648474
40
0.484855878648474
40
0.51919882007191
40
0.58788470291878
40
0.58788470291878
40
0.72525646861252
40
0.72525646861252
40
0.86262823430626
40
0.86262823430626
40
0.93131411715313
40
0.93131411715313
40
1
40
1
40
1
40
1
41
1
10
111.532966203021
20
-4.06421151409617
30
0
41
1
10
111.530919573451
20
-4.06420893435919
30
0
41
1
10
111.528868409745
20
-4.0635634258266
30
0
41
1
10
111.524973691447
20
-4.06111115301982
30
0
41
1
10
111.52313015893
20
-4.05942958731475
30
0
41
1
10
111.519458126378
20
-4.05504421559669
30
0
41
1
10
111.513964256925
20
-4.04692943551402
30
0
41
1
10
111.508508588861
20
-4.03426137457097
30
0
41
1
10
111.497627207507
20
-4.00295138955101
30
0
41
1
10
111.490413706418
20
-3.97413032545347
30
0
41
1
10
111.475892595875
20
-3.90067409487372
30
0
41
1
10
111.468600364478
20
-3.85604013259174
30
0
41
1
10
111.459434582148
20
-3.79005297805546
30
0
41
1
10
111.457595770042
20
-3.77632198227084
30
0
41
1
10
111.453926747839
20
-3.74794668998393
30
0
41
1
10
111.448438393881
20
-3.70403738307559
30
0
41
1
10
111.442987399336
20
-3.65614184098075
30
0
41
1
10
111.432104911471
20
-3.55512873750644
30
0
41
1
10
111.424859066228
20
-3.48083965697495
30
0
41
1
10
111.410321654803
20
-3.31847642146246
30
0
41
1
10
111.403046613177
20
-3.23040268491229
30
0
41
1
10
111.392079118704
20
-3.0876576603965
30
0
41
1
10
111.388404291051
20
-3.03816921629044
30
0
41
1
10
111.381100545494
20
-2.93676272648267
30
0
41
1
10
111.377463139168
20
-2.88474225137128
30
0
41
1
10
111.373827119904
20
-2.83142962784237
30
0
0
SPLINE
5
15C
100
AcDbEntity
8
1
62
256
6
ByLayer
370
13
48
1
60
0
100
AcDbSpline
70
4
71
3
72
11
73
7
40
0
40
0
40
0
40
0
40
0.162696812988446
40
0.53063175377107
40
0.898566694553693
40
1
40
1
40
1
40
1
41
1
10
110.825235475475
20
-2.06598581735517
30
0
41
1
10
110.833567179479
20
-2.17672847345671
30
0
41
1
10
110.860740831829
20
-2.52024135355634
30
0
41
1
10
110.906756433722
20
-2.98841051315242
30
0
41
1
10
110.949634733728
20
-3.24282425333493
30
0
41
1
10
110.973671083438
20
-3.31316000080494
30
0
41
1
10
110.978865483402
20
-3.32496495694346
30
0
0
SPLINE
5
15D
100
AcDbEntity
8
1
62
256
6
ByLayer
370
18
48
1
60
0
100
AcDbSpline
70
4
71
3
72
8
73
4
40
0
40
0
40
0
40
0
40
1
40
1
40
1
40
1
41
1
10
110.978865426672
20
-3.32496482801705
30
0
41
1
10
110.980624190411
20
-3.32896185797355
30
0
41
1
10
110.982382954149
20
-3.33256967533035
30
0
41
1
10
110.984141717887
20
-3.33578752885143
30
0
0
SPLINE
5
15E
100
AcDbEntity
8
1
62
256
6
ByLayer
370
18
48
1
60
0
100
AcDbSpline
70
4
71
3
72
33
73
29
40
0
40
0
40
0
40
0
40
0.0661570855363716
40
0.0661570855363716
40
0.099235628304557
40
0.099235628304557
40
0.132314171072742
40
0.132314171072742
40
0.264628342145483
40
0.396942513218224
40
0.396942513218224
40
0.463099598754594
40
0.463099598754594
40
0.496178141522779
40
0.496178141522779
40
0.529256684290965
40
0.529256684290965
40
0.661570855363705
40
0.661570855363705
40
0.793885026436445
40
0.793885026436445
40
0.860042111972815
40
0.860042111972815
40
0.893120654741001
40
0.893120654741001
40
0.926199197509186
40
0.926199197509186
40
1
40
1
40
1
40
1
41
1
10
111.249732107874
20
-2.7411292100787
30
0
41
1
10
111.25336964609
20
-2.79612821419224
30
0
41
1
10
111.257020571559
20
-2.8499139615333
30
0
41
1
10
111.262536039504
20
-2.9287298590632
30
0
41
1
10
111.2643756474
20
-2.95462103810604
30
0
41
1
10
111.268045500832
20
-3.00549490828487
30
0
41
1
10
111.269877463476
20
-3.03050218154621
30
0
41
1
10
111.279022228363
20
-3.15341344153282
30
0
41
1
10
111.293549134643
20
-3.3365100114022
30
0
41
1
10
111.307992420342
20
-3.49302702411194
30
0
41
1
10
111.318923743504
20
-3.60028803839791
30
0
41
1
10
111.322584601721
20
-3.6343502095994
30
0
41
1
10
111.328099297277
20
-3.68285115171164
30
0
41
1
10
111.329942837953
20
-3.69859551922929
30
0
41
1
10
111.33361546903
20
-3.72902469572358
30
0
41
1
10
111.335447245655
20
-3.74373391330508
30
0
41
1
10
111.344585479484
20
-3.81478214929487
30
0
41
1
10
111.351825792485
20
-3.86365051247196
30
0
41
1
10
111.366286193473
20
-3.94581002513141
30
0
41
1
10
111.373521582738
20
-3.97910048293292
30
0
41
1
10
111.384467501594
20
-4.01720115919574
30
0
41
1
10
111.388127176672
20
-4.02792459220899
30
0
41
1
10
111.393634660537
20
-4.04098436312435
30
0
41
1
10
111.395476344417
20
-4.04483779695667
30
0
41
1
10
111.399151666385
20
-4.05149583190328
30
0
41
1
10
111.400984201966
20
-4.05430036909746
30
0
41
1
10
111.406891075797
20
-4.06168807585851
30
0
41
1
10
111.410946720858
20
-4.06421786314135
30
0
41
1
10
111.41499295336
20
-4.06421291600171
30
0
0
SPLINE
5
15F
100
AcDbEntity
8
1
62
256
6
ByLayer
370
18
48
1
60
0
100
AcDbSpline
70
4
71
3
72
24
73
20
40
0
40
0
40
0
40
0
40
0.125
40
0.25
40
0.25
40
0.375
40
0.375
40
0.5
40
0.5
40
0.625
40
0.75
40
0.75
40
0.781249999999999
40
0.781249999999999
40
0.812499999999999
40
0.812499999999999
40
0.875
40
0.875
40
1
40
1
40
1
40
1
41
1
10
104.046803405823
20
0.838761666551335
30
0
41
1
10
104.040647589007
20
0.949059151946017
30
0
41
1
10
104.028421491167
20
1.16533383506686
30
0
41
1
10
104.016272742787
20
1.37316262613641
30
0
41
1
10
104.004055815784
20
1.57673310854952
30
0
41
1
10
103.997902836852
20
1.67639564700386
30
0
41
1
10
103.985498487738
20
1.87127676484892
30
0
41
1
10
103.979354570781
20
1.96483874369213
30
0
41
1
10
103.967122787058
20
2.1444710320059
30
0
41
1
10
103.954947464496
20
2.31660966760234
30
0
41
1
10
103.942652329725
20
2.47381654208158
30
0
41
1
10
103.934927291141
20
2.56728963668402
30
0
41
1
10
103.933380094488
20
2.58574459771543
30
0
41
1
10
103.930280585261
20
2.62216985575839
30
0
41
1
10
103.928726484154
20
2.64015999462384
30
0
41
1
10
103.924079389087
20
2.69311877049409
30
0
41
1
10
103.920995662325
20
2.72715002102606
30
0
41
1
10
103.911771040948
20
2.82549132060481
30
0
41
1
10
103.90565652958
20
2.88605809512961
30
0
41
1
10
103.899519173095
20
2.941701633409
30
0
0
SPLINE
5
160
100
AcDbEntity
8
1
62
256
6
ByLayer
370
13
48
1
60
0
100
AcDbSpline
70
4
71
3
72
11
73
7
40
0
40
0
40
0
40
0
40
0.0098920715374737
40
0.366459310912016
40
0.723026550286558
40
1
40
1
40
1
40
1
41
1
10
103.923031898825
20
2.89585718331864
30
0
41
1
10
103.923554622109
20
2.89140331882535
30
0
41
1
10
103.942919301693
20
2.72528917643814
30
0
41
1
10
103.981125790708
20
2.3161623107832
30
0
41
1
10
104.033445958268
20
1.5840826333324
30
0
41
1
10
104.066923776283
20
1.05121092234973
30
0
41
1
10
104.081559750099
20
0.811682140970504
30
0
0
SPLINE
5
161
100
AcDbEntity
8
1
62
256
6
ByLayer
370
18
48
1
60
0
100
AcDbSpline
70
4
71
3
72
28
73
24
40
0
40
0
40
0
40
0
40
0.125000000000002
40
0.125000000000002
40
0.250000000000005
40
0.250000000000005
40
0.281250000000005
40
0.281250000000005
40
0.312500000000005
40
0.375000000000005
40
0.375000000000005
40
0.500000000000003
40
0.500000000000003
40
0.625000000000002
40
0.625000000000002
40
0.656250000000002
40
0.656250000000002
40
0.687500000000002
40
0.750000000000002
40
0.750000000000002
40
0.875000000000001
40
0.875000000000001
40
1
40
1
40
1
40
1
41
1
10
110.811615228708
20
4.04022554638541
30
0
41
1
10
110.818889638929
20
4.02411999885643
30
0
41
1
10
110.826146508121
20
4.0000083806363
30
0
41
1
10
110.840656601252
20
3.93582870908659
30
0
41
1
10
110.84790946009
20
3.89576197041478
30
0
41
1
10
110.857064341208
20
3.83537663071161
30
0
41
1
10
110.858902506963
20
3.8227645491931
30
0
41
1
10
110.862570840099
20
3.79664608584915
30
0
41
1
10
110.868068412438
20
3.7560943438788
30
0
41
1
10
110.873549959846
20
3.71147267915902
30
0
41
1
10
110.884487295141
20
3.61689275910914
30
0
41
1
10
110.891740872491
20
3.54673957316805
30
0
41
1
10
110.906238605179
20
3.39232143762226
30
0
41
1
10
110.913482954496
20
3.30805742265733
30
0
41
1
10
110.922647875279
20
3.19364334842081
30
0
41
1
10
110.924488335362
20
3.17027666560159
30
0
41
1
10
110.928169217329
20
3.12275239822546
30
0
41
1
10
110.933679850806
20
3.05042096875175
30
0
41
1
10
110.939157726222
20
2.97499630969227
30
0
41
1
10
110.950077564818
20
2.82009685197647
30
0
41
1
10
110.957306270595
20
2.71144207278817
30
0
41
1
10
110.971783073764
20
2.48345412726766
30
0
41
1
10
110.979048527373
20
2.3641222319672
30
0
41
1
10
110.986387768464
20
2.23930671759595
30
0
0
SPLINE
5
162
100
AcDbEntity
8
1
62
256
6
ByLayer
370
18
48
1
60
0
100
AcDbSpline
70
4
71
3
72
30
73
26
40
0
40
0
40
0
40
0
40
0.125
40
0.125
40
0.250000000000001
40
0.250000000000001
40
0.312500000000001
40
0.312500000000001
40
0.34375
40
0.34375
40
0.374999999999999
40
0.374999999999999
40
0.499999999999999
40
0.499999999999999
40
0.624999999999998
40
0.624999999999998
40
0.687499999999997
40
0.687499999999997
40
0.718749999999997
40
0.718749999999997
40
0.749999999999998
40
0.749999999999998
40
0.874999999999999
40
0.874999999999999
40
1
40
1
40
1
40
1
41
1
10
111.110481883101
20
2.1339478864713
30
0
41
1
10
111.103188953605
20
2.26089945130994
30
0
41
1
10
111.095955837629
20
2.38275595021534
30
0
41
1
10
111.081431978062
20
2.61646872915907
30
0
41
1
10
111.074152495837
20
2.72832545071489
30
0
41
1
10
111.063202433236
20
2.88848588014704
30
0
41
1
10
111.05954634642
20
2.94059906529836
30
0
41
1
10
111.054043676944
20
3.01681545819497
30
0
41
1
10
111.052206709121
20
3.0418879148427
30
0
41
1
10
111.048547157358
20
3.09106840829742
30
0
41
1
10
111.046721696156
20
3.11521662572798
30
0
41
1
10
111.037609007505
20
3.23377219175921
30
0
41
1
10
111.030350844779
20
3.32164249616119
30
0
41
1
10
111.015809427344
20
3.48373844377716
30
0
41
1
10
111.008545008051
20
3.55796427894688
30
0
41
1
10
110.997618410312
20
3.6589255590562
30
0
41
1
10
110.993970330877
20
3.69084589986929
30
0
41
1
10
110.988475999901
20
3.7360716620139
30
0
41
1
10
110.986638007651
20
3.75072492912105
30
0
41
1
10
110.982970838957
20
3.77898735760479
30
0
41
1
10
110.981140657938
20
3.79260641478285
30
0
41
1
10
110.971998440346
20
3.8581713318151
30
0
41
1
10
110.964707030005
20
3.90254935622752
30
0
41
1
10
110.950175438968
20
3.97555388154518
30
0
41
1
10
110.942936241945
20
4.00417964929449
30
0
41
1
10
110.935671034068
20
4.02483910068815
30
0
0
SPLINE
5
163
100
AcDbEntity
8
1
62
256
6
ByLayer
370
18
48
1
60
0
100
AcDbSpline
70
4
71
3
72
99
73
95
40
0
40
0
40
0
40
0
40
0.0624999999999905
40
0.0624999999999905
40
0.124999999999981
40
0.124999999999981
40
0.187499999999971
40
0.187499999999971
40
0.20312499999997
40
0.20312499999997
40
0.218749999999969
40
0.218749999999969
40
0.249999999999966
40
0.249999999999966
40
0.281249999999964
40
0.281249999999964
40
0.296874999999965
40
0.296874999999965
40
0.312499999999966
40
0.312499999999966
40
0.343749999999964
40
0.343749999999964
40
0.359374999999962
40
0.359374999999962
40
0.374999999999961
40
0.374999999999961
40
0.406249999999959
40
0.406249999999959
40
0.421874999999957
40
0.421874999999957
40
0.429687499999959
40
0.429687499999959
40
0.437499999999961
40
0.437499999999961
40
0.453124999999969
40
0.453124999999969
40
0.468749999999977
40
0.468749999999977
40
0.484374999999986
40
0.484374999999986
40
0.49218749999999
40
0.49218749999999
40
0.499999999999994
40
0.499999999999994
40
0.515624999999998
40
0.515624999999998
40
0.523437499999998
40
0.523437499999998
40
0.52734375
40
0.52734375
40
0.531250000000002
40
0.531250000000002
40
0.546875000000003
40
0.546875000000003
40
0.554687500000004
40
0.554687500000004
40
0.562500000000005
40
0.562500000000005
40
0.578125000000005
40
0.578125000000005
40
0.585937500000005
40
0.585937500000005
40
0.593750000000004
40
0.593750000000004
40
0.601562500000004
40
0.601562500000004
40
0.609375000000003
40
0.617187500000003
40
0.617187500000003
40
0.625000000000003
40
0.625000000000003
40
0.640625000000002
40
0.640625000000002
40
0.656250000000001
40
0.656250000000001
40
0.671875
40
0.671875
40
0.687499999999999
40
0.687499999999999
40
0.71875
40
0.71875
40
0.750000000000001
40
0.750000000000001
40
0.765625000000002
40
0.765625000000002
40
0.781250000000003
40
0.781250000000003
40
0.812500000000004
40
0.812500000000004
40
0.875000000000003
40
0.875000000000003
40
0.937500000000001
40
0.937500000000001
40
1
40
1
40
1
40
1
41
1
10
86.2731819112055
20
1.39900587685415
30
0
41
1
10
86.1330244499207
20
1.49455431092412
30
0
41
1
10
85.9906494127314
20
1.58308901594066
30
0
41
1
10
85.6991736372147
20
1.74462827009259
30
0
41
1
10
85.5500477261219
20
1.81760269044813
30
0
41
1
10
85.2429739537021
20
1.94725042996592
30
0
41
1
10
85.085039150762
20
2.00394229938493
30
0
41
1
10
84.8805468690137
20
2.06397659128123
30
0
41
1
10
84.8392971792774
20
2.07544564072981
30
0
41
1
10
84.7560352142524
20
2.09726643903991
30
0
41
1
10
84.7139381150263
20
2.10763628999339
30
0
41
1
10
84.587332986948
20
2.1368019131055
30
0
41
1
10
84.5023881381204
20
2.15376158373437
30
0
41
1
10
84.3311758749846
20
2.18210905995349
30
0
41
1
10
84.2449465848856
20
2.19365514639281
30
0
41
1
10
84.1148576644546
20
2.20796230185511
30
0
41
1
10
84.071370841141
20
2.21222925190898
30
0
41
1
10
83.9841769309102
20
2.2198844860153
30
0
41
1
10
83.9404651570154
20
2.22325438414609
30
0
41
1
10
83.8089588561399
20
2.2319105363633
30
0
41
1
10
83.7207950964465
20
2.2357521398024
30
0
41
1
10
83.5876786569243
20
2.23817074169241
30
0
41
1
10
83.5432873813737
20
2.23841363958513
30
0
41
1
10
83.4547950796031
20
2.23769937728173
30
0
41
1
10
83.4106449949821
20
2.23674336908584
30
0
41
1
10
83.2785021602637
20
2.23194977422824
30
0
41
1
10
83.1908163057861
20
2.22619675148832
30
0
41
1
10
83.0600449799306
20
2.21270443846419
30
0
41
1
10
83.016580416957
20
2.20739735284795
30
0
41
1
10
82.9515943840786
20
2.19805023746486
30
0
41
1
10
82.9299675627308
20
2.19470295704113
30
0
41
1
10
82.8867887540607
20
2.18750942545097
30
0
41
1
10
82.8652035354266
20
2.18365658563397
30
0
41
1
10
82.8008621516951
20
2.17134474384542
30
0
41
1
10
82.758527041739
20
2.16214042296565
30
0
41
1
10
82.6750813882362
20
2.14147578325006
30
0
41
1
10
82.6339639917888
20
2.1300278440626
30
0
41
1
10
82.5531305403135
20
2.10445883990775
30
0
41
1
10
82.5134125225922
20
2.09034198555591
30
0
41
1
10
82.4550728255558
20
2.06671539919941
30
0
41
1
10
82.4358191221506
20
2.05841910176861
30
0
41
1
10
82.3981593021397
20
2.04108012806975
30
0
41
1
10
82.3797061329807
20
2.03201957467655
30
0
41
1
10
82.3255753371662
20
2.00353793735354
30
0
41
1
10
82.2910947222375
20
1.98284929027128
30
0
41
1
10
82.242236732359
20
1.94865791169818
30
0
41
1
10
82.226429445033
20
1.93673224237506
30
0
41
1
10
82.2035114887287
20
1.9179497867662
30
0
41
1
10
82.195991512251
20
1.91152740822739
30
0
41
1
10
82.1813448230167
20
1.89846942067814
30
0
41
1
10
82.1742072283345
20
1.89182583924116
30
0
41
1
10
82.1394634476543
20
1.85801782831507
30
0
41
1
10
82.1147044552465
20
1.8290781068898
30
0
41
1
10
82.0824769972558
20
1.78244082404771
30
0
41
1
10
82.0725543915574
20
1.76635598141618
30
0
41
1
10
82.054443035099
20
1.73301886458097
30
0
41
1
10
82.0463523671233
20
1.71593280424938
30
0
41
1
10
82.0251390891709
20
1.66386969491123
30
0
41
1
10
82.0149469189357
20
1.62790188307258
30
0
41
1
10
82.005204395307
20
1.57204077588676
30
0
41
1
10
82.0028820552258
20
1.55307789581781
30
0
41
1
10
82.0000498054326
20
1.51460658402468
30
0
41
1
10
81.999553432275
20
1.49533161590711
30
0
41
1
10
82.000211453641
20
1.45669295704647
30
0
41
1
10
82.001373221092
20
1.43732991780794
30
0
41
1
10
82.0050492697658
20
1.3984942920498
30
0
41
1
10
82.0101417881504
20
1.35955456184052
30
0
41
1
10
82.0180449147742
20
1.32041307992611
30
0
41
1
10
82.0273345953184
20
1.28117288264733
30
0
41
1
10
82.0326950925858
20
1.26143709922425
30
0
41
1
10
82.0505953523103
20
1.20277506752223
30
0
41
1
10
82.0649529615172
20
1.16429019769336
30
0
41
1
10
82.0977856797271
20
1.08836728718057
30
0
41
1
10
82.1162272612569
20
1.05091586992899
30
0
41
1
10
82.1562293500483
20
0.976723553492462
30
0
41
1
10
82.1778110782864
20
0.939959230833921
30
0
41
1
10
82.223410954023
20
0.867039067466948
30
0
41
1
10
82.2472270931237
20
0.831201875535129
30
0
41
1
10
82.3210334328317
20
0.725088255912908
30
0
41
1
10
82.3733666393756
20
0.656201266775128
30
0
41
1
10
82.4821930578169
20
0.520713781127569
30
0
41
1
10
82.5386990362408
20
0.454120955128417
30
0
41
1
10
82.625725572525
20
0.355362925572052
30
0
41
1
10
82.6551176629059
20
0.322635721287526
30
0
41
1
10
82.7145705133372
20
0.257498303916378
30
0
41
1
10
82.7446638924611
20
0.225054628290309
30
0
41
1
10
82.8353753485058
20
0.128597024248109
30
0
41
1
10
82.8965312036649
20
0.0653106400600905
30
0
41
1
10
83.0814123427072
20
-0.122235963439266
30
0
41
1
10
83.2065141424341
20
-0.244228524588436
30
0
41
1
10
83.4585832673074
20
-0.484254046918977
30
0
41
1
10
83.5855705849871
20
-0.602262182598565
30
0
41
1
10
83.8407517845144
20
-0.835036085807388
30
0
41
1
10
83.9689490068896
20
-0.949796302894157
30
0
41
1
10
84.0978077866848
20
-1.06284849860239
30
0
0
SPLINE
5
164
100
AcDbEntity
8
1
62
256
6
ByLayer
370
13
48
1
60
0
100
AcDbSpline
70
4
71
3
72
11
73
7
40
0
40
0
40
0
40
0
40
0.257879469705495
40
0.614215361333068
40
0.970551252960642
40
1
40
1
40
1
40
1
41
1
10
104.252324553835
20
2.74868862892501
30
0
41
1
10
104.265960430177
20
2.6167251127527
30
0
41
1
10
104.298438257439
20
2.25633722548756
30
0
41
1
10
104.349758021424
20
1.54069307703057
30
0
41
1
10
104.388999088408
20
0.9077511324775
30
0
41
1
10
104.409398197668
20
0.568867269631397
30
0
41
1
10
104.410955357131
20
0.542948511581756
30
0
0
SPLINE
5
165
100
AcDbEntity
8
1
62
256
6
ByLayer
370
13
48
1
60
0
100
AcDbSpline
70
4
71
3
72
11
73
7
40
0
40
0
40
0
40
0
40
0.265900853623558
40
0.621885405565083
40
0.977869957506609
40
1
40
1
40
1
40
1
41
1
10
110.495902492193
20
-1.8438925782466
30
0
41
1
10
110.509976384248
20
-2.04219385790387
30
0
41
1
10
110.54289221219
20
-2.47363195537005
30
0
41
1
10
110.59465006075
20
-2.99660443041142
30
0
41
1
10
110.633505236961
20
-3.22394681842553
30
0
41
1
10
110.653518525354
20
-3.2908926095098
30
0
41
1
10
110.65468985006
20
-3.29463876372992
30
0
0
SPLINE
5
166
100
AcDbEntity
8
1
62
256
6
ByLayer
370
13
48
1
60
0
100
AcDbSpline
70
4
71
3
72
11
73
7
40
0
40
0
40
0
40
0
40
0.248548566648293
40
0.603978458179487
40
0.959408349710681
40
1
40
1
40
1
40
1
41
1
10
109.510608116932
20
-1.11397987531558
30
0
41
1
10
109.523784103103
20
-1.32361302964358
30
0
41
1
10
109.555802036307
20
-1.81527032810482
30
0
41
1
10
109.606661928036
20
-2.48955782275996
30
0
41
1
10
109.646497651764
20
-2.87699085520546
30
0
41
1
10
109.667491435027
20
-3.03075259302779
30
0
41
1
10
109.669643268286
20
-3.04597714324802
30
0
0
SPLINE
5
167
100
AcDbEntity
8
1
62
256
6
ByLayer
370
18
48
1
60
0
100
AcDbSpline
70
4
71
3
72
27
73
23
40
0
40
0
40
0
40
0
40
0.125000000000001
40
0.250000000000003
40
0.250000000000003
40
0.281250000000003
40
0.281250000000003
40
0.312500000000002
40
0.312500000000002
40
0.375000000000002
40
0.375000000000002
40
0.500000000000001
40
0.500000000000001
40
0.625
40
0.625
40
0.6875
40
0.6875
40
0.75
40
0.75
40
0.875
40
0.875
40
1
40
1
40
1
40
1
41
1
10
110.233974015232
20
-3.94160910478629
30
0
41
1
10
110.226666056972
20
-3.9052954830745
30
0
41
1
10
110.212128963051
20
-3.81722504100554
30
0
41
1
10
110.197662680457
20
-3.69871876967383
30
0
41
1
10
110.188541797426
20
-3.61493724543473
30
0
41
1
10
110.186713245861
20
-3.59769380775006
30
0
41
1
10
110.18304425764
20
-3.56222186137739
30
0
41
1
10
110.181201527518
20
-3.54396656604146
30
0
41
1
10
110.175677052872
20
-3.48790541385142
30
0
41
1
10
110.172007638495
20
-3.44889636440462
30
0
41
1
10
110.161038798321
20
-3.32707322445197
30
0
41
1
10
110.153782108681
20
-3.23947713265133
30
0
41
1
10
110.139291742764
20
-3.05174417112107
30
0
41
1
10
110.132052686292
20
-2.95160747652378
30
0
41
1
10
110.121082106628
20
-2.79182295168565
30
0
41
1
10
110.117410559502
20
-2.73696120503661
30
0
41
1
10
110.110038186797
20
-2.62396195725455
30
0
41
1
10
110.10636805144
20
-2.56629344308348
30
0
41
1
10
110.095412338739
20
-2.3901388935825
30
0
41
1
10
110.088176805601
20
-2.26839106132169
30
0
41
1
10
110.073697977162
20
-2.01644779572774
30
0
41
1
10
110.066432852828
20
-1.88625322710035
30
0
41
1
10
110.059120385702
20
-1.75176793789865
30
0
0
SPLINE
5
168
100
AcDbEntity
8
1
62
256
6
ByLayer
370
18
48
1
60
0
100
AcDbSpline
70
4
71
3
72
30
73
26
40
0
40
0
40
0
40
0
40
0.124999999999999
40
0.124999999999999
40
0.249999999999997
40
0.249999999999997
40
0.281249999999998
40
0.281249999999998
40
0.312499999999998
40
0.312499999999998
40
0.374999999999998
40
0.374999999999998
40
0.499999999999998
40
0.499999999999998
40
0.624999999999998
40
0.624999999999998
40
0.656249999999997
40
0.656249999999997
40
0.687499999999997
40
0.687499999999997
40
0.749999999999997
40
0.749999999999997
40
0.874999999999998
40
0.874999999999998
40
1
40
1
40
1
40
1
41
1
10
109.935044100629
20
-1.63863656017938
30
0
41
1
10
109.942317103883
20
-1.77474486688735
30
0
41
1
10
109.949537002269
20
-1.90697392108427
30
0
41
1
10
109.964041901338
20
-2.16373086422948
30
0
41
1
10
109.97133628354
20
-2.28825887870192
30
0
41
1
10
109.980506786693
20
-2.43897046832177
30
0
41
1
10
109.982343743536
20
-2.46886463433424
30
0
41
1
10
109.98602445392
20
-2.52815024152787
30
0
41
1
10
109.98786203611
20
-2.557441827236
30
0
41
1
10
109.993357750725
20
-2.64409935720081
30
0
41
1
10
109.997003390761
20
-2.70032516886988
30
0
41
1
10
110.007911654196
20
-2.86445211326304
30
0
41
1
10
110.015153832315
20
-2.96781578022103
30
0
41
1
10
110.029708275986
20
-3.16256272084499
30
0
41
1
10
110.036998017513
20
-3.25394729985695
30
0
41
1
10
110.046146588475
20
-3.36050067506946
30
0
41
1
10
110.047978433252
20
-3.38142636349576
30
0
41
1
10
110.051648187105
20
-3.4224983541101
30
0
41
1
10
110.05348661274
20
-3.44264853934152
30
0
41
1
10
110.058979917881
20
-3.50155179651603
30
0
41
1
10
110.062624109067
20
-3.53888928519618
30
0
41
1
10
110.073538332926
20
-3.64522457636227
30
0
41
1
10
110.080806873701
20
-3.70856154400465
30
0
41
1
10
110.095346056451
20
-3.82033282566837
30
0
41
1
10
110.102610014122
20
-3.86876760933265
30
0
41
1
10
110.109911259936
20
-3.90958114846549
30
0
0
SPLINE
5
169
100
AcDbEntity
8
1
62
256
6
ByLayer
370
18
48
1
60
0
100
AcDbSpline
70
4
71
3
72
27
73
23
40
0
40
0
40
0
40
0
40
0.124999999999999
40
0.249999999999997
40
0.249999999999997
40
0.312499999999997
40
0.343749999999997
40
0.343749999999997
40
0.374999999999998
40
0.374999999999998
40
0.499999999999998
40
0.499999999999998
40
0.624999999999999
40
0.624999999999999
40
0.75
40
0.75
40
0.78125
40
0.78125
40
0.8125
40
0.875
40
0.875
40
1
40
1
40
1
40
1
41
1
10
104.309423856108
20
2.80799139047821
30
0
41
1
10
104.316848432655
20
2.74013480670001
30
0
41
1
10
104.331574275672
20
2.59536854592116
30
0
41
1
10
104.346214096851
20
2.43291559163478
30
0
41
1
10
104.357273126255
20
2.30440072845659
30
0
41
1
10
104.362820370396
20
2.23847104351452
30
0
41
1
10
104.368393299489
20
2.16999166374157
30
0
41
1
10
104.372114822174
20
2.12376541475808
30
0
41
1
10
104.373980386133
20
2.10034338401667
30
0
41
1
10
104.383273308064
20
1.9824506302088
30
0
41
1
10
104.39063002808
20
1.8851888748288
30
0
41
1
10
104.405285347271
20
1.68496564430669
30
0
41
1
10
104.412590880067
20
1.58200448731233
30
0
41
1
10
104.427278150543
20
1.37040103394563
30
0
41
1
10
104.434643702947
20
1.26175721601339
30
0
41
1
10
104.44389836584
20
1.12229171576033
30
0
41
1
10
104.445754644811
20
1.09417311205445
30
0
41
1
10
104.449457567766
20
1.03781133928169
30
0
41
1
10
104.454997065035
20
0.953091036846502
30
0
41
1
10
104.460499165851
20
0.867845108376969
30
0
41
1
10
104.471478448693
20
0.696666858481308
30
0
41
1
10
104.478776495236
20
0.581635522600607
30
0
41
1
10
104.486087064322
20
0.465705737060944
30
0
0
SPLINE
5
16A
100
AcDbEntity
8
1
62
256
6
ByLayer
370
18
48
1
60
0
100
AcDbSpline
70
4
71
3
72
28
73
24
40
0
40
0
40
0
40
0
40
0.124999999999994
40
0.249999999999989
40
0.249999999999989
40
0.312499999999986
40
0.312499999999986
40
0.343749999999985
40
0.343749999999985
40
0.374999999999984
40
0.374999999999984
40
0.499999999999986
40
0.499999999999986
40
0.624999999999987
40
0.624999999999987
40
0.749999999999989
40
0.749999999999989
40
0.78124999999999
40
0.78124999999999
40
0.812499999999992
40
0.874999999999995
40
0.874999999999995
40
1
40
1
40
1
40
1
41
1
10
105.260322321854
20
-0.229679230110094
30
0
41
1
10
105.254015196161
20
-0.107068164005028
30
0
41
1
10
105.241438555121
20
0.137396972233773
30
0
41
1
10
105.228922124065
20
0.380377410000591
30
0
41
1
10
105.219498097326
20
0.562046092876386
30
0
41
1
10
105.216350074367
20
0.622507664859398
30
0
41
1
10
105.211605226472
20
0.713054770860055
30
0
41
1
10
105.210019690716
20
0.74321291149559
30
0
41
1
10
105.206838685777
20
0.80348003892712
30
0
41
1
10
105.205246791451
20
0.833525222734409
30
0
41
1
10
105.197307353257
20
0.982818166528489
30
0
41
1
10
105.190996875569
20
1.0997621588549
30
0
41
1
10
105.178428303947
20
1.32881167772769
30
0
41
1
10
105.172170237831
20
1.4409168384156
30
0
41
1
10
105.159607240424
20
1.66026748727555
30
0
41
1
10
105.153288828029
20
1.76751211136334
30
0
41
1
10
105.145308917887
20
1.89842098470621
30
0
41
1
10
105.143709672016
20
1.92443899962282
30
0
41
1
10
105.140522375032
20
1.97585743464063
30
0
41
1
10
105.135751175777
20
2.05217344798231
30
0
41
1
10
105.131007051692
20
2.12608163577869
30
0
41
1
10
105.12154310273
20
2.2707335908226
30
0
41
1
10
105.115268334639
20
2.36295745480521
30
0
41
1
10
105.108971006214
20
2.45098746929446
30
0
0
SPLINE
5
16B
100
AcDbEntity
8
1
62
256
6
ByLayer
370
13
48
1
60
0
100
AcDbSpline
70
4
71
3
72
11
73
7
40
0
40
0
40
0
40
0
40
0.275637236490537
40
0.632215898096549
40
0.98879455970256
40
1
40
1
40
1
40
1
41
1
10
105.237525505991
20
2.20498018219052
30
0
41
1
10
105.252090433847
20
2.01976391416645
30
0
41
1
10
105.285497309127
20
1.55427433082718
30
0
41
1
10
105.337746105777
20
0.719700542384231
30
0
41
1
10
105.376022166755
20
0.069159630749283
30
0
41
1
10
105.395456220082
20
-0.257695008323481
30
0
41
1
10
105.396048325922
20
-0.267649843140077
30
0
0
SPLINE
5
16C
100
AcDbEntity
8
1
62
256
6
ByLayer
370
13
48
1
60
0
100
AcDbSpline
70
4
71
3
72
11
73
7
40
0
40
0
40
0
40
0
40
0.166667631228464
40
0.523233839894947
40
0.87980004856143
40
1
40
1
40
1
40
1
41
1
10
105.566905148545
20
1.99118851957704
30
0
41
1
10
105.575712329444
20
1.87161156708118
30
0
41
1
10
105.603361460059
20
1.47790333396523
30
0
41
1
10
105.649852537516
20
0.736711631193288
30
0
41
1
10
105.693888139361
20
-0.0114725908028106
30
0
41
1
10
105.71908178899
20
-0.434133476426865
30
0
41
1
10
105.72543348857
20
-0.539869475493163
30
0
0
SPLINE
5
16D
100
AcDbEntity
8
1
62
256
6
ByLayer
370
13
48
1
60
0
100
AcDbSpline
70
4
71
3
72
11
73
7
40
0
40
0
40
0
40
0
40
0.184254327249825
40
0.540428738433412
40
0.896603149616999
40
1
40
1
40
1
40
1
41
1
10
106.55207326455
20
1.28361521530795
30
0
41
1
10
106.561820516597
20
1.13171757192975
30
0
41
1
10
106.590409782082
20
0.672680326343169
30
0
41
1
10
106.637840676986
20
-0.131210990893749
30
0
41
1
10
106.680994480868
20
-0.854465486395355
30
0
41
1
10
106.705306197714
20
-1.23796186374094
30
0
41
1
10
106.710775978212
20
-1.32274728652152
30
0
0
SPLINE
5
16E
100
AcDbEntity
8
1
62
256
6
ByLayer
370
18
48
1
60
0
100
AcDbSpline
70
4
71
3
72
28
73
24
40
0
40
0
40
0
40
0
40
0.125
40
0.125
40
0.249999999999999
40
0.249999999999999
40
0.312499999999999
40
0.312499999999999
40
0.343749999999999
40
0.343749999999999
40
0.374999999999999
40
0.374999999999999
40
0.499999999999999
40
0.499999999999999
40
0.624999999999999
40
0.624999999999999
40
0.687499999999999
40
0.687499999999999
40
0.75
40
0.75
40
0.875
40
0.875
40
1
40
1
40
1
40
1
41
1
10
105.744747079602
20
2.07634763717286
30
0
41
1
10
105.752355059407
20
1.97120687852532
30
0
41
1
10
105.759905072257
20
1.86273423554459
30
0
41
1
10
105.775055509844
20
1.6392467849488
30
0
41
1
10
105.78264992198
20
1.52423135378359
30
0
41
1
10
105.794076930896
20
1.34671382155707
30
0
41
1
10
105.797892583156
20
1.2867073023618
30
0
41
1
10
105.803634048991
20
1.19542024665071
30
0
41
1
10
105.805549758386
20
1.1647961989739
30
0
41
1
10
105.80936643559
20
1.10348600334188
30
0
41
1
10
105.811270187763
20
1.07275569853164
30
0
41
1
10
105.820771826565
20
0.918732636984998
30
0
41
1
10
105.828325501761
20
0.794328950997766
30
0
41
1
10
105.843462113975
20
0.543213097756336
30
0
41
1
10
105.851025793087
20
0.416499277809464
30
0
41
1
10
105.862390104423
20
0.22467791583
30
0
41
1
10
105.866182082029
20
0.160445160905567
30
0
41
1
10
105.873787434585
20
0.031385614724428
30
0
41
1
10
105.877610969591
20
-0.0336138854210049
30
0
41
1
10
105.889017983102
20
-0.227379497741481
30
0
41
1
10
105.896581704319
20
-0.355388735059904
30
0
41
1
10
105.911671053349
20
-0.609142621933785
30
0
41
1
10
105.919186577765
20
-0.734887427234838
30
0
41
1
10
105.926705263724
20
-0.859497382925468
30
0
0
SPLINE
5
16F
100
AcDbEntity
8
1
62
256
6
ByLayer
370
18
48
1
60
0
100
AcDbSpline
70
4
71
3
72
30
73
26
40
0
40
0
40
0
40
0
40
0.125000000000003
40
0.125000000000003
40
0.250000000000006
40
0.250000000000006
40
0.312500000000007
40
0.312500000000007
40
0.343750000000007
40
0.343750000000007
40
0.375000000000007
40
0.375000000000007
40
0.500000000000005
40
0.500000000000005
40
0.625000000000003
40
0.625000000000003
40
0.687500000000002
40
0.687500000000002
40
0.718750000000001
40
0.718750000000001
40
0.75
40
0.75
40
0.875
40
0.875
40
1
40
1
40
1
40
1
41
1
10
106.473808353394
20
-1.37995455710688
30
0
41
1
10
106.467372548437
20
-1.2572075720152
30
0
41
1
10
106.460954808048
20
-1.13262712545696
30
0
41
1
10
106.44809075655
20
-0.879856914882879
30
0
41
1
10
106.441657573126
20
-0.751667041583545
30
0
41
1
10
106.431972095646
20
-0.556628033143966
30
0
41
1
10
106.428737002579
20
-0.491155071762137
30
0
41
1
10
106.423863953141
20
-0.39224092869577
30
0
41
1
10
106.42223633732
20
-0.359155619109657
30
0
41
1
10
106.418991545955
20
-0.293147105708158
30
0
41
1
10
106.417371918727
20
-0.260174185435545
30
0
41
1
10
106.409281308575
20
-0.095464919958772
30
0
41
1
10
106.402822852241
20
0.0358061361045827
30
0
41
1
10
106.389930887369
20
0.297377771865825
30
0
41
1
10
106.383500310937
20
0.427678488639543
30
0
41
1
10
106.37382523046
20
0.622391203634862
30
0
41
1
10
106.370594666529
20
0.687172093396299
30
0
41
1
10
106.365727609053
20
0.784154337025541
30
0
41
1
10
106.364101675111
20
0.816450216690811
30
0
41
1
10
106.360839914967
20
0.880977980734031
30
0
41
1
10
106.35920686716
20
0.91314999186352
30
0
41
1
10
106.351058735041
20
1.07295017103294
30
0
41
1
10
106.344572045942
20
1.19799298496437
30
0
41
1
10
106.331648178742
20
1.44264172665405
30
0
41
1
10
106.325211047914
20
1.56224726905748
30
0
41
1
10
106.31875148974
20
1.6791166238136
30
0
0
SPLINE
5
170
100
AcDbEntity
8
1
62
256
6
ByLayer
370
18
48
1
60
0
100
AcDbSpline
70
4
71
3
72
27
73
23
40
0
40
0
40
0
40
0
40
0.124999999999999
40
0.124999999999999
40
0.249999999999998
40
0.249999999999998
40
0.312499999999998
40
0.312499999999998
40
0.343749999999998
40
0.343749999999998
40
0.374999999999998
40
0.499999999999999
40
0.499999999999999
40
0.625
40
0.625
40
0.6875
40
0.6875
40
0.75
40
0.75
40
0.875
40
0.875
40
1
40
1
40
1
40
1
41
1
10
112.426997169718
20
0.917835207223078
30
0
41
1
10
112.419849514985
20
1.05912897889328
30
0
41
1
10
112.412664948983
20
1.19793371766056
30
0
41
1
10
112.398080697714
20
1.47062531270936
30
0
41
1
10
112.390692765838
20
1.60451207657295
30
0
41
1
10
112.37965124173
20
1.80151530766793
30
0
41
1
10
112.375977272872
20
1.86654350204418
30
0
41
1
10
112.370486450773
20
1.96309803852327
30
0
41
1
10
112.368660142103
20
1.99510479805906
30
0
41
1
10
112.365036901632
20
2.05838728072021
30
0
41
1
10
112.3560353994
20
2.21501640634906
30
0
41
1
10
112.347327946996
20
2.36386217939753
30
0
41
1
10
112.33352466091
20
2.59236038413417
30
0
41
1
10
112.326680410965
20
2.70178149875125
30
0
41
1
10
112.316155224623
20
2.85878231363421
30
0
41
1
10
112.312602516024
20
2.9099318357892
30
0
41
1
10
112.305420818179
20
3.00980905069019
30
0
41
1
10
112.301788895755
20
3.05862267676619
30
0
41
1
10
112.290937310542
20
3.19985428330966
30
0
41
1
10
112.283741803146
20
3.28749526832658
30
0
41
1
10
112.269334198498
20
3.44997437276982
30
0
41
1
10
112.262093023915
20
3.5248648571721
30
0
41
1
10
112.254749906686
20
3.59330944155551
30
0
0
SPLINE
5
171
100
AcDbEntity
8
1
62
256
6
ByLayer
370
18
48
1
60
0
100
AcDbSpline
70
4
71
3
72
34
73
30
40
0
40
0
40
0
40
0
40
0.0312500000000007
40
0.0312500000000007
40
0.0625000000000014
40
0.0625000000000014
40
0.125000000000001
40
0.125000000000001
40
0.250000000000002
40
0.250000000000002
40
0.375000000000002
40
0.375000000000002
40
0.406250000000002
40
0.406250000000002
40
0.437500000000002
40
0.437500000000002
40
0.500000000000001
40
0.500000000000001
40
0.625000000000001
40
0.625000000000001
40
0.75
40
0.75
40
0.8125
40
0.8125
40
0.84375
40
0.84375
40
0.875
40
0.875
40
1
40
1
40
1
40
1
41
1
10
112.126194884442
20
3.68864808130311
30
0
41
1
10
112.128023335606
20
3.67299225672019
30
0
41
1
10
112.129854213496
20
3.65684380627417
30
0
41
1
10
112.133521771274
20
3.62355026554187
30
0
41
1
10
112.135361219175
20
3.6063779171385
30
0
41
1
10
112.140861361908
20
3.55362823191774
30
0
41
1
10
112.144507852963
20
3.51678767953757
30
0
41
1
10
112.155411831445
20
3.40135162392411
30
0
41
1
10
112.162640548689
20
3.31785624896648
30
0
41
1
10
112.177156839623
20
3.13799800426904
30
0
41
1
10
112.184422759209
20
3.04163473439445
30
0
41
1
10
112.193537012913
20
2.91297450553429
30
0
41
1
10
112.195361749914
20
2.88683099279336
30
0
41
1
10
112.199016759016
20
2.8337121700755
30
0
41
1
10
112.200848391268
20
2.80671650633781
30
0
41
1
10
112.206346202335
20
2.72459724222318
30
0
41
1
10
112.209992340236
20
2.66868488487265
30
0
41
1
10
112.220908681438
20
2.4975303066002
30
0
41
1
10
112.228174841309
20
2.37888133656418
30
0
41
1
10
112.242699304134
20
2.13265938593344
30
0
41
1
10
112.249949421928
20
2.00508600917988
30
0
41
1
10
112.260863884913
20
1.80691713764219
30
0
41
1
10
112.264509500047
20
1.7397235814513
30
0
41
1
10
112.270005073256
20
1.63718928220285
30
0
41
1
10
112.271839181133
20
1.60276346863915
30
0
41
1
10
112.275497610388
20
1.53374882477948
30
0
41
1
10
112.277324774491
20
1.49911284227062
30
0
41
1
10
112.286452897473
20
1.32529683185407
30
0
41
1
10
112.293722535513
20
1.18421393027211
30
0
41
1
10
112.3009688583
20
1.04114419363802
30
0
0
SPLINE
5
172
100
AcDbEntity
8
1
62
256
6
ByLayer
370
18
48
1
60
0
100
AcDbSpline
70
4
71
3
72
34
73
30
40
0
40
0
40
0
40
0
40
0.0625
40
0.0625
40
0.0937500000000002
40
0.0937500000000002
40
0.125000000000001
40
0.125000000000001
40
0.250000000000001
40
0.250000000000001
40
0.375000000000001
40
0.375000000000001
40
0.437500000000001
40
0.437500000000001
40
0.46875
40
0.46875
40
0.5
40
0.5
40
0.625
40
0.625
40
0.75
40
0.75
40
0.8125
40
0.8125
40
0.84375
40
0.84375
40
0.875
40
0.875
40
1
40
1
40
1
40
1
41
1
10
108.919304868876
20
-3.41907119153447
30
0
41
1
10
108.915666507443
20
-3.37891221653371
30
0
41
1
10
108.912023001026
20
-3.33694110107299
30
0
41
1
10
108.906540902211
20
-3.27121260990256
30
0
41
1
10
108.904708458773
20
-3.24881323569483
30
0
41
1
10
108.901045941496
20
-3.20320743691784
30
0
41
1
10
108.899219301136
20
-3.18004495637879
30
0
41
1
10
108.89010238418
20
-3.06245720975164
30
0
41
1
10
108.882846823266
20
-2.96272271477349
30
0
41
1
10
108.868320353883
20
-2.75222899286888
30
0
41
1
10
108.861069269254
20
-2.64146850660262
30
0
41
1
10
108.850175399695
20
-2.46698283162931
30
0
41
1
10
108.846540323219
20
-2.40742709066848
30
0
41
1
10
108.841068938581
20
-2.31596489670696
30
0
41
1
10
108.839241952791
20
-2.28512252980454
30
0
41
1
10
108.835578634448
20
-2.22271897944773
30
0
41
1
10
108.833746595043
20
-2.19123041041641
30
0
41
1
10
108.824607206921
20
-2.03289900120507
30
0
41
1
10
108.817323391557
20
-1.90288044058138
30
0
41
1
10
108.802811943039
20
-1.63633304394526
30
0
41
1
10
108.795585905309
20
-1.49980363886616
30
0
41
1
10
108.784716356697
20
-1.29009841420577
30
0
41
1
10
108.781087229682
20
-1.21937639441754
30
0
41
1
10
108.77561709841
20
-1.11204304256012
30
0
41
1
10
108.773789185661
20
-1.07605675698875
30
0
41
1
10
108.770121089142
20
-1.00366236570827
30
0
41
1
10
108.768279492948
20
-0.967220076527724
30
0
41
1
10
108.759099765654
20
-0.785052763001346
30
0
41
1
10
108.751810724817
20
-0.638671736967893
30
0
41
1
10
108.744560913296
20
-0.491664970680461
30
0
0
SPLINE
5
173
100
AcDbEntity
8
1
62
256
6
ByLayer
370
13
48
1
60
0
100
AcDbSpline
70
4
71
3
72
11
73
7
40
0
40
0
40
0
40
0
40
0.000910086611228
40
0.356583026268434
40
0.71225596592564
40
1
40
1
40
1
40
1
41
1
10
109.181359281011
20
-0.853992983591723
30
0
41
1
10
109.181407493358
20
-0.854779359227507
30
0
41
1
10
109.20029767884
20
-1.16286119607969
30
0
41
1
10
109.238029994544
20
-1.75491199847175
30
0
41
1
10
109.290956974041
20
-2.45378569794389
30
0
41
1
10
109.325042408925
20
-2.79436766959805
30
0
41
1
10
109.340285808913
20
-2.9209486160245
30
0
0
SPLINE
5
174
100
AcDbEntity
8
1
62
256
6
ByLayer
370
13
48
1
60
0
100
AcDbSpline
70
4
71
3
72
11
73
7
40
0
40
0
40
0
40
0
40
0.075879517664495
40
0.432215015109494
40
0.788550512554492
40
1
40
1
40
1
40
1
41
1
10
106.881384359207
20
1.02735144108107
30
0
41
1
10
106.885396639647
20
0.962927189867429
30
0
41
1
10
106.908250868974
20
0.592397627109165
30
0
41
1
10
106.949947057188
20
-0.113841938556334
30
0
41
1
10
106.998811761901
20
-0.933643199328515
30
0
41
1
10
107.02883452632
20
-1.40128932563832
30
0
41
1
10
107.040015339776
20
-1.56803538636214
30
0
0
SPLINE
5
175
100
AcDbEntity
8
1
62
256
6
ByLayer
370
18
48
1
60
0
100
AcDbSpline
70
4
71
3
72
10
73
6
40
0
40
0
40
0
40
0
40
0.5
40
0.5
40
1
40
1
40
1
40
1
41
1
10
103
20
-3.26714751004278
30
0
41
1
10
102.962028755061
20
-3.24449137399458
30
0
41
1
10
102.923994439458
20
-3.22115588458749
30
0
41
1
10
102.847182353537
20
-3.17283621651797
30
0
41
1
10
102.808429076772
20
-3.14787017378112
30
0
41
1
10
102.769284277978
20
-3.12212378083291
30
0
0
SPLINE
5
176
100
AcDbEntity
8
1
62
256
6
ByLayer
370
18
48
1
60
0
100
AcDbSpline
70
4
71
3
72
10
73
6
40
0
40
0
40
0
40
0
40
0.5
40
0.5
40
1
40
1
40
1
40
1
41
1
10
102.769284277978
20
-3.12212378083291
30
0
41
1
10
102.699369124239
20
-3.07613905037917
30
0
41
1
10
102.624786794615
20
-3.03845611474935
30
0
41
1
10
102.469389407853
20
-2.98011134289757
30
0
41
1
10
102.3885931503
20
-2.95940698975491
30
0
41
1
10
102.305750010561
20
-2.94796101430035
30
0
0
SPLINE
5
177
100
AcDbEntity
8
1
62
256
6
ByLayer
370
18
48
1
60
0
100
AcDbSpline
70
4
71
3
72
121
73
117
40
0
40
0
40
0
40
0
40
0.0169911986085281
40
0.0169911986085281
40
0.0254867979127939
40
0.0254867979127939
40
0.0339823972170598
40
0.0339823972170598
40
0.0509735958255915
40
0.0509735958255915
40
0.0679647944341232
40
0.0679647944341232
40
0.101947191651187
40
0.101947191651187
40
0.118938390259717
40
0.118938390259717
40
0.127433989563983
40
0.127433989563983
40
0.135929588868248
40
0.135929588868248
40
0.152920787476779
40
0.152920787476779
40
0.161416386781045
40
0.161416386781045
40
0.169911986085312
40
0.203894383302381
40
0.203894383302381
40
0.237876780519449
40
0.237876780519449
40
0.271859177736519
40
0.271859177736519
40
0.305841574953587
40
0.305841574953587
40
0.314337174257854
40
0.314337174257854
40
0.32283277356212
40
0.339823972170655
40
0.339823972170655
40
0.348319571474923
40
0.348319571474923
40
0.356815170779191
40
0.356815170779191
40
0.373806369387727
40
0.373806369387727
40
0.4077887666048
40
0.4077887666048
40
0.441771163821872
40
0.441771163821872
40
0.45876236243041
40
0.45876236243041
40
0.475753561038947
40
0.475753561038947
40
0.484249160343216
40
0.484249160343216
40
0.492744759647486
40
0.492744759647486
40
0.509735958256027
40
0.509735958256027
40
0.543718355473109
40
0.543718355473109
40
0.57770075269019
40
0.57770075269019
40
0.594691951298731
40
0.594691951298731
40
0.603187550603003
40
0.603187550603003
40
0.611683149907274
40
0.611683149907274
40
0.620178749211545
40
0.620178749211545
40
0.628674348515816
40
0.628674348515816
40
0.645665547124359
40
0.645665547124359
40
0.679647944341446
40
0.679647944341446
40
0.69663914294999
40
0.69663914294999
40
0.705134742254261
40
0.705134742254261
40
0.713630341558532
40
0.713630341558532
40
0.722125940862803
40
0.722125940862803
40
0.730621540167074
40
0.747612738775616
40
0.764603937384157
40
0.764603937384157
40
0.773099536688428
40
0.773099536688428
40
0.781595135992699
40
0.781595135992699
40
0.815577533209784
40
0.815577533209784
40
0.824073132514054
40
0.824073132514054
40
0.832568731818324
40
0.832568731818324
40
0.849559930426864
40
0.849559930426864
40
0.866551129035404
40
0.866551129035404
40
0.883542327643944
40
0.900533526252484
40
0.900533526252484
40
0.917524724861024
40
0.917524724861024
40
0.934515923469564
40
0.934515923469564
40
0.943011522773833
40
0.943011522773833
40
0.951507122078102
40
0.951507122078102
40
0.985489519295173
40
0.985489519295173
40
1
40
1
40
1
40
1
41
1
10
102.305750010559
20
-2.94796101430344
30
0
41
1
10
102.221577307945
20
-2.93633134054787
30
0
41
1
10
102.137705007469
20
-2.92279481774131
30
0
41
1
10
102.012157603031
20
-2.89973128631237
30
0
41
1
10
101.970373367706
20
-2.89157539414043
30
0
41
1
10
101.886727830756
20
-2.87441702530384
30
0
41
1
10
101.844811540332
20
-2.86543890498035
30
0
41
1
10
101.719206458584
20
-2.83716527297648
30
0
41
1
10
101.635592738975
20
-2.81655233229367
30
0
41
1
10
101.468521422804
20
-2.77187490854627
30
0
41
1
10
101.385082526132
20
-2.74780388311226
30
0
41
1
10
101.135263157551
20
-2.67025583898948
30
0
41
1
10
100.969380758953
20
-2.61142016552506
30
0
41
1
10
100.72046999395
20
-2.51286112052532
30
0
41
1
10
100.637504479197
20
-2.47827654141139
30
0
41
1
10
100.512819095085
20
-2.42395727752327
30
0
41
1
10
100.47120180752
20
-2.40545656909825
30
0
41
1
10
100.387740041507
20
-2.36776820659802
30
0
41
1
10
100.345905523811
20
-2.34857332190754
30
0
41
1
10
100.220181897844
20
-2.28986522126306
30
0
41
1
10
100.136086871326
20
-2.24920967283276
30
0
41
1
10
100.009184135605
20
-2.18628486829616
30
0
41
1
10
99.9667962100949
20
-2.16496756020712
30
0
41
1
10
99.882297049254
20
-2.12168080968627
30
0
41
1
10
99.6715093141435
20
-2.01174638807535
30
0
41
1
10
99.4627940353207
20
-1.89344150217414
30
0
41
1
10
99.1302987122431
20
-1.69466630977379
30
0
41
1
10
98.9648127896976
20
-1.59047513234537
30
0
41
1
10
98.6328251324983
20
-1.37545876905327
30
0
41
1
10
98.466507573237
20
-1.26443620142132
30
0
41
1
10
98.1322124355313
20
-1.03668014752856
30
0
41
1
10
97.9641818633759
20
-0.920043864284622
30
0
41
1
10
97.7536110016032
20
-0.769885702472891
30
0
41
1
10
97.7114234441233
20
-0.73961327827206
30
0
41
1
10
97.6272698298414
20
-0.678888088360139
30
0
41
1
10
97.5013066597704
20
-0.587484618440016
30
0
41
1
10
97.3760558808108
20
-0.495256756115339
30
0
41
1
10
97.2511598981678
20
-0.402643960379635
30
0
41
1
10
97.2095878605336
20
-0.371707741498426
30
0
41
1
10
97.1265385177233
20
-0.309739209976954
30
0
41
1
10
97.0850552840519
20
-0.278715053464197
30
0
41
1
10
96.9604891791731
20
-0.18585194417642
30
0
41
1
10
96.8771911393032
20
-0.124357114467301
30
0
41
1
10
96.6271618938009
20
0.0597496446200978
30
0
41
1
10
96.4608448536406
20
0.182732994851875
30
0
41
1
10
96.1279531749475
20
0.427828155750291
30
0
41
1
10
95.961539771784
20
0.550158937976448
30
0
41
1
10
95.7109466720615
20
0.73193239771885
30
0
41
1
10
95.6272449787037
20
0.79222501374764
30
0
41
1
10
95.4593911287617
20
0.912063406134706
30
0
41
1
10
95.3751118461815
20
0.97172958795673
30
0
41
1
10
95.2491619037941
20
1.05975672837337
30
0
41
1
10
95.2072293026057
20
1.0888795051535
30
0
41
1
10
95.1233947046175
20
1.14660066463483
30
0
41
1
10
95.0813899797244
20
1.17506682001755
30
0
41
1
10
94.9555032483508
20
1.25980543849687
30
0
41
1
10
94.8718063385549
20
1.3154876434717
30
0
41
1
10
94.6213370864642
20
1.48002948871976
30
0
41
1
10
94.455201032046
20
1.58639159350184
30
0
41
1
10
94.1230895800737
20
1.79060630919389
30
0
41
1
10
93.9571071970473
20
1.88846429804622
30
0
41
1
10
93.7077066551063
20
2.02820834433592
30
0
41
1
10
93.6245618589492
20
2.07366933728488
30
0
41
1
10
93.4990856840794
20
2.13944302741072
30
0
41
1
10
93.4571253704787
20
2.16095886045804
30
0
41
1
10
93.3731001657851
20
2.20333756250778
30
0
41
1
10
93.3310654843713
20
2.22422865550823
30
0
41
1
10
93.2469333524774
20
2.26538887940606
30
0
41
1
10
93.2048339977189
20
2.28565615194179
30
0
41
1
10
93.1205313756837
20
2.32552334912779
30
0
41
1
10
93.0783145175705
20
2.34512805711546
30
0
41
1
10
92.951981018284
20
2.40265510653629
30
0
41
1
10
92.868017016125
20
2.43937902484873
30
0
41
1
10
92.6168177616603
20
2.54466195856108
30
0
41
1
10
92.4503279445623
20
2.60836405271203
30
0
41
1
10
92.2011231640252
20
2.69361301823449
30
0
41
1
10
92.118134317284
20
2.72030651292812
30
0
41
1
10
91.9936047559363
20
2.75767984051691
30
0
41
1
10
91.9520908511235
20
2.76969464437971
30
0
41
1
10
91.8689147312964
20
2.79277288144741
30
0
41
1
10
91.8272309444415
20
2.80382631891342
30
0
41
1
10
91.7436983193382
20
2.82499329666808
30
0
41
1
10
91.7018685162474
20
2.83511666295016
30
0
41
1
10
91.6182315870923
20
2.85451265108253
30
0
41
1
10
91.4927789265395
20
2.88231347162895
30
0
41
1
10
91.283628167218
20
2.92210303100592
30
0
41
1
10
91.1160944155246
20
2.94675802864771
30
0
41
1
10
90.9903156869242
20
2.96246929058208
30
0
41
1
10
90.9483697468312
20
2.96724313248683
30
0
41
1
10
90.8644137613448
20
2.97584388451602
30
0
41
1
10
90.8223635908007
20
2.97967359933293
30
0
41
1
10
90.6123640159547
20
2.99636615292826
30
0
41
1
10
90.4457419930459
20
3.00180814543302
30
0
41
1
10
90.2378827298757
20
2.99888966467779
30
0
41
1
10
90.1963211731046
20
2.99782103286273
30
0
41
1
10
90.1130703986801
20
2.99474012594612
30
0
41
1
10
90.071365658207
20
2.99273068570088
30
0
41
1
10
89.9461696258696
20
2.98531554162307
30
0
41
1
10
89.8626736473119
20
2.97851616779116
30
0
41
1
10
89.6958567271667
20
2.96119720938145
30
0
41
1
10
89.6125239136719
20
2.95067720491028
30
0
41
1
10
89.4460520422233
20
2.92586339690411
30
0
41
1
10
89.2797354206368
20
2.8972812395308
30
0
41
1
10
89.1134332352946
20
2.86112987344654
30
0
41
1
10
88.9469877475198
20
2.82118317217206
30
0
41
1
10
88.8637106973871
20
2.79930225025748
30
0
41
1
10
88.6967399234989
20
2.75180590186082
30
0
41
1
10
88.6130321134252
20
2.72619645479943
30
0
41
1
10
88.4868390172393
20
2.68514829717444
30
0
41
1
10
88.444717641139
20
2.67103969256743
30
0
41
1
10
88.36056494351
20
2.64209359084111
30
0
41
1
10
88.3184780896515
20
2.62725765583159
30
0
41
1
10
88.108145842611
20
2.5511989590685
30
0
41
1
10
87.9409785877238
20
2.48380047405402
30
0
41
1
10
87.7033324168688
20
2.3788050708074
30
0
41
1
10
87.6323204510452
20
2.34627339767775
30
0
41
1
10
87.5613618998515
20
2.31266707753178
30
0
0
SPLINE
5
178
100
AcDbEntity
8
1
62
256
6
ByLayer
370
18
48
1
60
0
100
AcDbSpline
70
4
71
3
72
124
73
120
40
0
40
0
40
0
40
0
40
0.0127836111986635
40
0.0127836111986635
40
0.021954052906658
40
0.021954052906658
40
0.0311244946146525
40
0.0311244946146525
40
0.0678062614466323
40
0.0678062614466323
40
0.0861471448626213
40
0.0861471448626213
40
0.0953175865706167
40
0.0953175865706167
40
0.104488028278612
40
0.104488028278612
40
0.122828911694601
40
0.122828911694601
40
0.131999353402596
40
0.131999353402596
40
0.141169795110592
40
0.141169795110592
40
0.177851561942575
40
0.177851561942575
40
0.196192445358566
40
0.196192445358566
40
0.214533328774556
40
0.214533328774556
40
0.223703770482553
40
0.223703770482553
40
0.232874212190549
40
0.232874212190549
40
0.242044653898545
40
0.242044653898545
40
0.251215095606541
40
0.251215095606541
40
0.287896862438526
40
0.287896862438526
40
0.324578629270511
40
0.324578629270511
40
0.342919512686504
40
0.342919512686504
40
0.3520899543945
40
0.3520899543945
40
0.361260396102496
40
0.361260396102496
40
0.379601279518489
40
0.379601279518489
40
0.388771721226486
40
0.388771721226486
40
0.397942162934483
40
0.397942162934483
40
0.434623929766473
40
0.434623929766473
40
0.452964813182467
40
0.452964813182467
40
0.462135254890465
40
0.462135254890465
40
0.471305696598463
40
0.471305696598463
40
0.507987463430452
40
0.507987463430452
40
0.526328346846445
40
0.526328346846445
40
0.535498788554443
40
0.535498788554443
40
0.54466923026244
40
0.54466923026244
40
0.553839671970438
40
0.553839671970438
40
0.563010113678435
40
0.563010113678435
40
0.572180555386433
40
0.572180555386433
40
0.58135099709443
40
0.58135099709443
40
0.61803276392642
40
0.61803276392642
40
0.654714530758411
40
0.654714530758411
40
0.663884972466409
40
0.663884972466409
40
0.673055414174407
40
0.673055414174407
40
0.682225855882405
40
0.682225855882405
40
0.691396297590403
40
0.691396297590403
40
0.728078064422395
40
0.728078064422395
40
0.74641894783839
40
0.74641894783839
40
0.764759831254385
40
0.764759831254385
40
0.773930272962382
40
0.773930272962382
40
0.78310071467038
40
0.78310071467038
40
0.801441598086375
40
0.801441598086375
40
0.81978248150237
40
0.81978248150237
40
0.828952923210367
40
0.828952923210367
40
0.838123364918365
40
0.838123364918365
40
0.87480513175036
40
0.87480513175036
40
0.893146015166358
40
0.893146015166358
40
0.911486898582356
40
0.911486898582356
40
0.948168665414353
40
0.948168665414353
40
0.98485043224635
40
0.98485043224635
40
0.994020873954349
40
0.994020873954349
40
1
40
1
40
1
40
1
41
1
10
84.7536177408729
20
3.00000006861518
30
0
41
1
10
84.8194426573808
20
3.00000771346208
30
0
41
1
10
84.8851715210531
20
2.99882502269406
30
0
41
1
10
84.9979265611394
20
2.99473601197548
30
0
41
1
10
85.0449579609041
20
2.99240759713342
30
0
41
1
10
85.1391011553345
20
2.98652589542308
30
0
41
1
10
85.18624863106
20
2.98297933284292
30
0
41
1
10
85.4220826191218
20
2.96220239954522
30
0
41
1
10
85.6113293962143
20
2.93588395641828
30
0
41
1
10
85.8967787123298
20
2.88200685182017
30
0
41
1
10
85.992184778101
20
2.8616437421843
30
0
41
1
10
86.135700836619
20
2.82743859325228
30
0
41
1
10
86.1836632057659
20
2.81541069242522
30
0
41
1
10
86.2793791190562
20
2.79020684841492
30
0
41
1
10
86.3271352381669
20
2.77703246358533
30
0
41
1
10
86.4701222432743
20
2.73581127762802
30
0
41
1
10
86.5651111103285
20
2.70609228614077
30
0
41
1
10
86.7069828272433
20
2.65809139117303
30
0
41
1
10
86.7541951433327
20
2.6415334561147
30
0
41
1
10
86.8486415806019
20
2.6074261987919
30
0
41
1
10
86.8958515199816
20
2.58986172701043
30
0
41
1
10
87.1318937035858
20
2.49955178733111
30
0
41
1
10
87.3206759919013
20
2.41934385740993
30
0
41
1
10
87.604330856715
20
2.28776095667555
30
0
41
1
10
87.6989798404761
20
2.24203392443181
30
0
41
1
10
87.8884633487908
20
2.14682023310715
30
0
41
1
10
87.9832691205634
20
2.09730537998269
30
0
41
1
10
88.1256459501793
20
2.02017995144544
30
0
41
1
10
88.173138490065
20
1.99400122892402
30
0
41
1
10
88.2682230379132
20
1.9407251400676
30
0
41
1
10
88.3158400068636
20
1.9136557574746
30
0
41
1
10
88.4110254686763
20
1.85842097742631
30
0
41
1
10
88.4586304862525
20
1.83025985077785
30
0
41
1
10
88.5541279058847
20
1.77333526184816
30
0
41
1
10
88.6018410662523
20
1.74459919586369
30
0
41
1
10
88.8401374917689
20
1.59946566496947
30
0
41
1
10
89.0300102071635
20
1.47882901840006
30
0
41
1
10
89.408965835063
20
1.22966856373071
30
0
41
1
10
89.5980666123984
20
1.10117235911872
30
0
41
1
10
89.8812358991501
20
0.902633324657813
30
0
41
1
10
89.9755199138885
20
0.835450933558207
30
0
41
1
10
90.1169424506562
20
0.733349971185561
30
0
41
1
10
90.1641071109192
20
0.69912725871211
30
0
41
1
10
90.2586128273799
20
0.630476315123957
30
0
41
1
10
90.3059422931549
20
0.596032856768801
30
0
41
1
10
90.4481487120503
20
0.492333212860046
30
0
41
1
10
90.5432511649895
20
0.422717963425924
30
0
41
1
10
90.6864495780633
20
0.317699524347915
30
0
41
1
10
90.7342725241238
20
0.282593166742259
30
0
41
1
10
90.8301074070455
20
0.212189534921862
30
0
41
1
10
90.878044843942
20
0.17694693873139
30
0
41
1
10
91.1171660429641
20
0.0010328447898473
30
0
41
1
10
91.3072848292252
20
-0.139257245193846
30
0
41
1
10
91.5910147774512
20
-0.348632217096224
30
0
41
1
10
91.6853183149912
20
-0.418288953689029
30
0
41
1
10
91.8264943236901
20
-0.522386135183325
30
0
41
1
10
91.8735321236897
20
-0.556985560710558
30
0
41
1
10
91.9677191212449
20
-0.625780403985402
30
0
41
1
10
92.0148549906792
20
-0.65999402606883
30
0
41
1
10
92.2506776536847
20
-0.83023960994268
30
0
41
1
10
92.4398378187554
20
-0.963749968743741
30
0
41
1
10
92.7248572915269
20
-1.15929432653274
30
0
41
1
10
92.8200682973089
20
-1.22369936632072
30
0
41
1
10
92.9632225135336
20
-1.31908927118025
30
0
41
1
10
93.0109970303533
20
-1.35068266306001
30
0
41
1
10
93.1066624096865
20
-1.41345496981424
30
0
41
1
10
93.1545681593111
20
-1.44464623005368
30
0
41
1
10
93.2500713053925
20
-1.50628850672817
30
0
41
1
10
93.2977318846235
20
-1.53676658090433
30
0
41
1
10
93.3928275682169
20
-1.59709158130792
30
0
41
1
10
93.4402195828176
20
-1.62698862928426
30
0
41
1
10
93.5348950510702
20
-1.68601032565545
30
0
41
1
10
93.582293015776
20
-1.71500466866604
30
0
41
1
10
93.6769500382093
20
-1.77227285153492
30
0
41
1
10
93.7242276455272
20
-1.80052375385924
30
0
41
1
10
93.9605854500531
20
-1.93963140996271
30
0
41
1
10
94.1495592168857
20
-2.04409550607926
30
0
41
1
10
94.5277086410385
20
-2.23924418066531
30
0
41
1
10
94.7169469754865
20
-2.32987603440441
30
0
41
1
10
94.9537716528012
20
-2.43420795606278
30
0
41
1
10
95.0011505773416
20
-2.454624431307
30
0
41
1
10
95.0959396685068
20
-2.4945416213354
30
0
41
1
10
95.1433372047459
20
-2.51405121385562
30
0
41
1
10
95.2383227160369
20
-2.55202060152149
30
0
41
1
10
95.2859107484609
20
-2.57048132094991
30
0
41
1
10
95.3812973024564
20
-2.6063377872859
30
0
41
1
10
95.4291519206824
20
-2.6237536102681
30
0
41
1
10
95.6681153777441
20
-2.70784753155661
30
0
41
1
10
95.8583396514725
20
-2.76561314844344
30
0
41
1
10
96.1428806292334
20
-2.83826648576263
30
0
41
1
10
96.2375865116808
20
-2.86015247392129
30
0
41
1
10
96.4267177716818
20
-2.89927816463307
30
0
41
1
10
96.5211190603016
20
-2.91652523552884
30
0
41
1
10
96.6625661205693
20
-2.93885541991511
30
0
41
1
10
96.7097188402528
20
-2.94570065402948
30
0
41
1
10
96.8039583948216
20
-2.95820715554297
30
0
41
1
10
96.8509989439176
20
-2.96387661306403
30
0
41
1
10
96.9923710283064
20
-2.97901519900603
30
0
41
1
10
97.0868334908979
20
-2.9866493730029
30
0
41
1
10
97.276262153097
20
-2.99700732207415
30
0
41
1
10
97.3712411296495
20
-2.99972937247705
30
0
41
1
10
97.5141850589445
20
-3.000106544115
30
0
41
1
10
97.5619117783232
20
-2.99961441651209
30
0
41
1
10
97.6575297735604
20
-2.99738709737551
30
0
41
1
10
97.7054536043302
20
-2.99565028267261
30
0
41
1
10
97.9451321932036
20
-2.98384829170556
30
0
41
1
10
98.1354705585994
20
-2.96454268560797
30
0
41
1
10
98.4193378816037
20
-2.92110307973087
30
0
41
1
10
98.5135676099867
20
-2.90415875144487
30
0
41
1
10
98.7020685703326
20
-2.86561693227762
30
0
41
1
10
98.7963477895216
20
-2.84403330547337
30
0
41
1
10
99.0794439509101
20
-2.77251490674829
30
0
41
1
10
99.268543589413
20
-2.71584765924925
30
0
41
1
10
99.6480282279829
20
-2.58485236426893
30
0
41
1
10
99.8384328845925
20
-2.51055678299897
30
0
41
1
10
100.077323102208
20
-2.40614689872587
30
0
41
1
10
100.125061501606
20
-2.38471859362767
30
0
41
1
10
100.203702966289
20
-2.34854885292592
30
0
41
1
10
100.234704596065
20
-2.33407264649176
30
0
41
1
10
100.265687999343
20
-2.31941257286056
30
0
0
SPLINE
5
179
100
AcDbEntity
8
1
62
256
6
ByLayer
370
18
48
1
60
0
100
AcDbSpline
70
4
71
3
72
8
73
4
40
0
40
0
40
0
40
0
40
1
40
1
40
1
40
1
41
1
10
110.935671034068
20
4.02483910068815
30
0
41
1
10
110.894324396506
20
4.03059210429134
30
0
41
1
10
110.852974326405
20
4.03572236074083
30
0
41
1
10
110.811615228708
20
4.04022554638541
30
0
0
SPLINE
5
17A
100
AcDbEntity
8
1
62
256
6
ByLayer
370
18
48
1
60
0
100
AcDbSpline
70
4
71
3
72
10
73
6
40
0
40
0
40
0
40
0
40
0.5
40
0.5
40
1
40
1
40
1
40
1
41
1
10
107.367035818509
20
-2.20780542611337
30
0
41
1
10
107.313115617164
20
-2.09852189504903
30
0
41
1
10
107.258887149599
20
-1.99031700416398
30
0
41
1
10
107.149894603394
20
-1.77683125710814
30
0
41
1
10
107.095130734604
20
-1.67153149362713
30
0
41
1
10
107.040015339776
20
-1.5680353863622
30
0
0
SPLINE
5
17B
100
AcDbEntity
8
1
62
256
6
ByLayer
370
18
48
1
60
0
100
AcDbSpline
70
4
71
3
72
30
73
26
40
0
40
0
40
0
40
0
40
0.125
40
0.125
40
0.249999999999999
40
0.249999999999999
40
0.374999999999999
40
0.374999999999999
40
0.437499999999999
40
0.437499999999999
40
0.499999999999999
40
0.499999999999999
40
0.624999999999999
40
0.624999999999999
40
0.687499999999999
40
0.687499999999999
40
0.749999999999999
40
0.749999999999999
40
0.8125
40
0.8125
40
0.875
40
0.875
40
0.9375
40
0.9375
40
1
40
1
40
1
40
1
41
1
10
107.040015339776
20
-1.56803538636208
30
0
41
1
10
107.031185577502
20
-1.55145479166177
30
0
41
1
10
107.020939632284
20
-1.53527587763904
30
0
41
1
10
106.998235699093
20
-1.50356211296463
30
0
41
1
10
106.985661216785
20
-1.48792866410798
30
0
41
1
10
106.959243927837
20
-1.45819127555296
30
0
41
1
10
106.945341354846
20
-1.44398507856457
30
0
41
1
10
106.923483933392
20
-1.42363400963706
30
0
41
1
10
106.916023396696
20
-1.41701019257857
30
0
41
1
10
106.901023146348
20
-1.40431445437906
30
0
41
1
10
106.893451959644
20
-1.39821226307166
30
0
41
1
10
106.870533037216
20
-1.3806450630758
30
0
41
1
10
106.854983336681
20
-1.36990563565863
30
0
41
1
10
106.831241826905
20
-1.35545906664933
30
0
41
1
10
106.823244322977
20
-1.35092140199069
30
0
41
1
10
106.80748801637
20
-1.34267863708814
30
0
41
1
10
106.799684238274
20
-1.33894357345369
30
0
41
1
10
106.784252021944
20
-1.33232456208467
30
0
41
1
10
106.776608661072
20
-1.3294347795337
30
0
41
1
10
106.761598017934
20
-1.32467663253209
30
0
41
1
10
106.754370301067
20
-1.3228513363465
30
0
41
1
10
106.740539632176
20
-1.32043379124019
30
0
41
1
10
106.733914617655
20
-1.31983945558096
30
0
41
1
10
106.721506147245
20
-1.32013699297647
30
0
41
1
10
106.715838628466
20
-1.32102230892247
30
0
41
1
10
106.710775978212
20
-1.32274728652149
30
0
0
SPLINE
5
17C
100
AcDbEntity
8
1
62
256
6
ByLayer
370
18
48
1
60
0
100
AcDbSpline
70
4
71
3
72
10
73
6
40
0
40
0
40
0
40
0
40
0.5
40
0.5
40
1
40
1
40
1
40
1
41
1
10
106.710775978212
20
-1.32274728652152
30
0
41
1
10
106.671012147129
20
-1.33629586570768
30
0
41
1
10
106.631398232332
20
-1.34781763380403
30
0
41
1
10
106.55242333883
20
-1.36687026254515
30
0
41
1
10
106.513040780414
20
-1.37439834297075
30
0
41
1
10
106.473808353394
20
-1.37995455710691
30
0
0
SPLINE
5
17D
100
AcDbEntity
8
1
62
256
6
ByLayer
370
18
48
1
60
0
100
AcDbSpline
70
4
71
3
72
8
73
4
40
0
40
0
40
0
40
0
40
1
40
1
40
1
40
1
41
1
10
106.473808353394
20
-1.37995455710691
30
0
41
1
10
106.291406988078
20
-1.20745253595729
30
0
41
1
10
106.109411382747
20
-1.03357092525337
30
0
41
1
10
105.926705263712
20
-0.859497382925866
30
0
0
SPLINE
5
17E
100
AcDbEntity
8
1
62
256
6
ByLayer
370
18
48
1
60
0
100
AcDbSpline
70
4
71
3
72
8
73
4
40
0
40
0
40
0
40
0
40
1
40
1
40
1
40
1
41
1
10
105.926705263719
20
-0.859497382928282
30
0
41
1
10
105.860036946368
20
-0.749094616991073
30
0
41
1
10
105.792955266919
20
-0.64237667460219
30
0
41
1
10
105.72543348857
20
-0.53986947550149
30
0
0
SPLINE
5
17F
100
AcDbEntity
8
1
62
256
6
ByLayer
370
18
48
1
60
0
100
AcDbSpline
70
4
71
3
72
28
73
24
40
0
40
0
40
0
40
0
40
0.125
40
0.125
40
0.25
40
0.25
40
0.375
40
0.375
40
0.5
40
0.5
40
0.625
40
0.625
40
0.6875
40
0.6875
40
0.75
40
0.75
40
0.8125
40
0.8125
40
0.875
40
0.875
40
0.9375
40
0.9375
40
1
40
1
40
1
40
1
41
1
10
105.725433488567
20
-0.539869475492992
30
0
41
1
10
105.716566579528
20
-0.526408307371639
30
0
41
1
10
105.706273408505
20
-0.512711806242436
30
0
41
1
10
105.683470648392
20
-0.484977308768975
30
0
41
1
10
105.670835056558
20
-0.470828775804108
30
0
41
1
10
105.644404369968
20
-0.443155250773287
30
0
41
1
10
105.630538882577
20
-0.429532589061694
30
0
41
1
10
105.601583863351
20
-0.40266617170667
30
0
41
1
10
105.586354786531
20
-0.389316522337907
30
0
41
1
10
105.555707180459
20
-0.363907211548764
30
0
41
1
10
105.540206249257
20
-0.351756494014012
30
0
41
1
10
105.516702672136
20
-0.334416778055811
30
0
41
1
10
105.508825696046
20
-0.328786062703387
30
0
41
1
10
105.492983856049
20
-0.317856364932595
30
0
41
1
10
105.485104839049
20
-0.312618237357413
30
0
41
1
10
105.469650161859
20
-0.302764613506554
30
0
41
1
10
105.462044420508
20
-0.298127756692821
30
0
41
1
10
105.44712199975
20
-0.289514626198866
30
0
41
1
10
105.439765092886
20
-0.285520969284391
30
0
41
1
10
105.42586011786
20
-0.278556158220937
30
0
41
1
10
105.419262084888
20
-0.275552490346883
30
0
41
1
10
105.406892351822
20
-0.270664268159862
30
0
41
1
10
105.401130468525
20
-0.268792099823628
30
0
41
1
10
105.396048325927
20
-0.267649843129021
30
0
0
SPLINE
5
180
100
AcDbEntity
8
1
62
256
6
ByLayer
370
18
48
1
60
0
100
AcDbSpline
70
4
71
3
72
8
73
4
40
0
40
0
40
0
40
0
40
1
40
1
40
1
40
1
41
1
10
105.396048325922
20
-0.267649843140106
30
0
41
1
10
105.350636886656
20
-0.257443218769879
30
0
41
1
10
105.305401418257
20
-0.24483761188344
30
0
41
1
10
105.260322321863
20
-0.229679230110577
30
0
0
SPLINE
5
181
100
AcDbEntity
8
1
62
256
6
ByLayer
370
18
48
1
60
0
100
AcDbSpline
70
4
71
3
72
14
73
10
40
0
40
0
40
0
40
0
40
0.25
40
0.25
40
0.374999999999971
40
0.374999999999971
40
0.499999999999942
40
0.499999999999942
40
1
40
1
40
1
40
1
41
1
10
105.260322321861
20
-0.229679230114101
30
0
41
1
10
105.196489270631
20
-0.170484885237812
30
0
41
1
10
105.132417061842
20
-0.111432588953335
30
0
41
1
10
105.03580162391
20
-0.0232234695208717
30
0
41
1
10
105.00351410489
20
0.0061202533419191
30
0
41
1
10
104.938780564249
20
0.0646956098348994
30
0
41
1
10
104.906321233874
20
0.0939389440432308
30
0
41
1
10
104.744275439905
20
0.239337940741052
30
0
41
1
10
104.615051213135
20
0.353599464736192
30
0
41
1
10
104.486087064322
20
0.465705737060915
30
0
0
SPLINE
5
182
100
AcDbEntity
8
1
62
256
6
ByLayer
370
18
48
1
60
0
100
AcDbSpline
70
4
71
3
72
8
73
4
40
0
40
0
40
0
40
0
40
1
40
1
40
1
40
1
41
1
10
104.486087064322
20
0.465705737060915
30
0
41
1
10
104.461099628521
20
0.492175076218132
30
0
41
1
10
104.436059036491
20
0.517927511787434
30
0
41
1
10
104.410955357131
20
0.542948511582068
30
0
0
SPLINE
5
183
100
AcDbEntity
8
1
62
256
6
ByLayer
370
18
48
1
60
0
100
AcDbSpline
70
4
71
3
72
28
73
24
40
0
40
0
40
0
40
0
40
0.124999999999949
40
0.124999999999949
40
0.249999999999897
40
0.249999999999897
40
0.374999999999845
40
0.374999999999845
40
0.499999999999794
40
0.499999999999794
40
0.624999999999742
40
0.624999999999742
40
0.687499999999785
40
0.687499999999785
40
0.749999999999828
40
0.749999999999828
40
0.812499999999871
40
0.812499999999871
40
0.874999999999914
40
0.874999999999914
40
0.937499999999957
40
0.937499999999957
40
1
40
1
40
1
40
1
41
1
10
104.41095535713
20
0.542948511581642
30
0
41
1
10
104.402077906404
20
0.551796724212437
30
0
41
1
10
104.391770379791
20
0.561498557409379
30
0
41
1
10
104.368935947841
20
0.582195724894831
30
0
41
1
10
104.356282470173
20
0.5932939647615
30
0
41
1
10
104.329821126739
20
0.615932906905385
30
0
41
1
10
104.315942433548
20
0.627541424629641
30
0
41
1
10
104.286967988033
20
0.651353002300453
30
0
41
1
10
104.271734366568
20
0.663662871271924
30
0
41
1
10
104.241087570483
20
0.688115895207176
30
0
41
1
10
104.225590381706
20
0.700331419693839
30
0
41
1
10
104.202098008897
20
0.718699731417559
30
0
41
1
10
104.194225746569
20
0.724830117459959
30
0
41
1
10
104.178395380254
20
0.737120620393426
30
0
41
1
10
104.17052814985
20
0.743210127972844
30
0
41
1
10
104.155091789024
20
0.755135584837092
30
0
41
1
10
104.14749502347
20
0.760993023714406
30
0
41
1
10
104.132589766466
20
0.772474096169532
30
0
41
1
10
104.12524164297
20
0.778128283811668
30
0
41
1
10
104.111351706404
20
0.788811574059935
30
0
41
1
10
104.104759859967
20
0.793879427646687
30
0
41
1
10
104.092399887098
20
0.803374634644257
30
0
41
1
10
104.086640841591
20
0.807794758304652
30
0
41
1
10
104.081559750105
20
0.811682140978206
30
0
0
SPLINE
5
184
100
AcDbEntity
8
1
62
256
6
ByLayer
370
18
48
1
60
0
100
AcDbSpline
70
4
71
3
72
8
73
4
40
0
40
0
40
0
40
0
40
1
40
1
40
1
40
1
41
1
10
104.081559750099
20
0.811682140970504
30
0
41
1
10
104.069961710049
20
0.820555435234695
30
0
41
1
10
104.058376443838
20
0.829582190329234
30
0
41
1
10
104.046803405823
20
0.838761666551392
30
0
0
SPLINE
5
185
100
AcDbEntity
8
1
62
256
6
ByLayer
370
18
48
1
60
0
100
AcDbSpline
70
4
71
3
72
14
73
10
40
0
40
0
40
0
40
0
40
0.250000000000023
40
0.250000000000023
40
0.375000000000034
40
0.375000000000034
40
0.500000000000045
40
0.500000000000045
40
1
40
1
40
1
40
1
41
1
10
104.046803405823
20
0.838761666551335
30
0
41
1
10
103.96094406745
20
0.909769640225136
30
0
41
1
10
103.875005061299
20
0.979610631029971
30
0
41
1
10
103.745569306687
20
1.08217555782719
30
0
41
1
10
103.702341204403
20
1.11600369326808
30
0
41
1
10
103.615599064894
20
1.18281034198742
30
0
41
1
10
103.572042696162
20
1.21574203909614
30
0
41
1
10
103.353902553462
20
1.37869571845707
30
0
41
1
10
103.177805749202
20
1.50312351021151
30
0
41
1
10
103
20
1.62146650303049
30
0
0
SPLINE
5
186
100
AcDbEntity
8
1
62
256
6
ByLayer
370
18
48
1
60
0
100
AcDbSpline
70
4
71
3
72
10
73
6
40
0
40
0
40
0
40
0
40
0.5
40
0.5
40
1
40
1
40
1
40
1
41
1
10
103
20
1.62146650303043
30
0
41
1
10
102.962028755061
20
1.64241900623421
30
0
41
1
10
102.923994439458
20
1.66257507590683
30
0
41
1
10
102.847182353537
20
1.70040416447051
30
0
41
1
10
102.808429076772
20
1.71811970284588
30
0
41
1
10
102.769284277978
20
1.73462303776029
30
0
0
SPLINE
5
187
100
AcDbEntity
8
1
62
256
6
ByLayer
370
18
48
1
60
0
100
AcDbSpline
70
4
71
3
72
10
73
6
40
0
40
0
40
0
40
0
40
0.5
40
0.5
40
1
40
1
40
1
40
1
41
1
10
102.769284277978
20
1.73462303776023
30
0
41
1
10
102.699369124239
20
1.76409906607819
30
0
41
1
10
102.624786794615
20
1.79598018505621
30
0
41
1
10
102.469389407853
20
1.86843632641018
30
0
41
1
10
102.388593150299
20
1.90899327615495
30
0
41
1
10
102.305750010561
20
1.95579415744282
30
0
0
SPLINE
5
188
100
AcDbEntity
8
1
62
256
6
ByLayer
370
18
48
1
60
0
100
AcDbSpline
70
4
71
3
72
52
73
48
40
0
40
0
40
0
40
0
40
0.039781995949917
40
0.039781995949917
40
0.0596729939248713
40
0.0596729939248713
40
0.0795639918998255
40
0.0795639918998255
40
0.119345987849725
40
0.119345987849725
40
0.159127983799625
40
0.159127983799625
40
0.238691975699416
40
0.238691975699416
40
0.27847397164931
40
0.27847397164931
40
0.298364969624254
40
0.298364969624254
40
0.318255967599199
40
0.318255967599199
40
0.358037963549088
40
0.358037963549088
40
0.37792896152403
40
0.37792896152403
40
0.397819959498973
40
0.477383951398734
40
0.477383951398734
40
0.556947943298496
40
0.556947943298496
40
0.636511935198257
40
0.636511935198257
40
0.716075927098019
40
0.716075927098019
40
0.735966925072957
40
0.735966925072957
40
0.755857923047895
40
0.795639918997776
40
0.795639918997776
40
0.815530916972715
40
0.815530916972715
40
0.835421914947653
40
0.835421914947653
40
0.875203910897529
40
0.875203910897529
40
0.954767902797282
40
0.954767902797282
40
1
40
1
40
1
40
1
41
1
10
102.305750010559
20
1.95579415744587
30
0
41
1
10
102.221577307945
20
2.00334615360555
30
0
41
1
10
102.137705007469
20
2.04950507643625
30
0
41
1
10
102.012157603031
20
2.11649769874484
30
0
41
1
10
101.970373367705
20
2.13847490817582
30
0
41
1
10
101.886727830756
20
2.1815315882788
30
0
41
1
10
101.844811540332
20
2.20256097274131
30
0
41
1
10
101.719206458584
20
2.2645815313447
30
0
41
1
10
101.635592738975
20
2.30443444314477
30
0
41
1
10
101.468521422804
20
2.38110430278266
30
0
41
1
10
101.385082526132
20
2.41793991863739
30
0
41
1
10
101.135263157551
20
2.5240938762243
30
0
41
1
10
100.969380758953
20
2.58903806895887
30
0
41
1
10
100.720469993949
20
2.67665537941056
30
0
41
1
10
100.637504479197
20
2.70424042466308
30
0
41
1
10
100.512819095085
20
2.74300840933591
30
0
41
1
10
100.47120180752
20
2.75548694925379
30
0
41
1
10
100.387740041507
20
2.77949707016992
30
0
41
1
10
100.345905523811
20
2.79103507536996
30
0
41
1
10
100.220181897844
20
2.82430143210391
30
0
41
1
10
100.136086871326
20
2.8446831628244
30
0
41
1
10
100.009184135605
20
2.87242269504225
30
0
41
1
10
99.9667962100949
20
2.88120672026864
30
0
41
1
10
99.882297049254
20
2.89784081975731
30
0
41
1
10
99.6715093141435
20
2.93712683065877
30
0
41
1
10
99.4627940353207
20
2.9648120093884
30
0
41
1
10
99.1302987122431
20
2.99386814000528
30
0
41
1
10
98.9648127896976
20
3.00074505855949
30
0
41
1
10
98.6328251324982
20
2.99912648150217
30
0
41
1
10
98.466507573237
20
2.99067188965617
30
0
41
1
10
98.1322124355313
20
2.95870360385157
30
0
41
1
10
97.9641818633758
20
2.93525739721835
30
0
41
1
10
97.7536110016032
20
2.89615474994281
30
0
41
1
10
97.7114234441233
20
2.8878339418969
30
0
41
1
10
97.6272698298414
20
2.87026714568449
30
0
41
1
10
97.5013066597704
20
2.84252022483449
30
0
41
1
10
97.3760558808108
20
2.81062673493446
30
0
41
1
10
97.2511598981679
20
2.77603330098498
30
0
41
1
10
97.2095878605336
20
2.76405177698783
30
0
41
1
10
97.1265385177233
20
2.73920233199996
30
0
41
1
10
97.085055284052
20
2.72633684712275
30
0
41
1
10
96.9604891791731
20
2.68656984716637
30
0
41
1
10
96.8771911393032
20
2.65856591951706
30
0
41
1
10
96.6271618938009
20
2.56986091441954
30
0
41
1
10
96.4608448536406
20
2.50407908596267
30
0
41
1
10
96.199774621971
20
2.39094339146791
30
0
41
1
10
96.1051607127559
20
2.34784174326413
30
0
41
1
10
96.0104321452395
20
2.30271999115249
30
0
0
SPLINE
5
189
100
AcDbEntity
8
1
62
256
6
ByLayer
370
18
48
1
60
0
100
AcDbSpline
70
4
71
3
72
70
73
66
40
0
40
0
40
0
40
0
40
0.0116406540366133
40
0.0116406540366133
40
0.0273288976233363
40
0.0273288976233363
40
0.043017141210059
40
0.043017141210059
40
0.0587053847967819
40
0.0587053847967819
40
0.12145835914367
40
0.12145835914367
40
0.184211333490558
40
0.184211333490558
40
0.199899577077282
40
0.199899577077282
40
0.215587820664004
40
0.215587820664004
40
0.231276064250727
40
0.231276064250727
40
0.24696430783745
40
0.24696430783745
40
0.309717282184335
40
0.309717282184335
40
0.341093769357778
40
0.341093769357778
40
0.372470256531221
40
0.372470256531221
40
0.388158500117941
40
0.388158500117941
40
0.403846743704661
40
0.403846743704661
40
0.435223230878097
40
0.435223230878097
40
0.466599718051534
40
0.466599718051534
40
0.482287961638252
40
0.482287961638252
40
0.497976205224971
40
0.497976205224971
40
0.560729179571844
40
0.560729179571844
40
0.592105666745281
40
0.592105666745281
40
0.623482153918718
40
0.623482153918718
40
0.686235128265594
40
0.686235128265594
40
0.748988102612471
40
0.748988102612471
40
0.764676346199191
40
0.764676346199191
40
0.780364589785912
40
0.780364589785912
40
0.811741076959356
40
0.811741076959356
40
0.874494051306241
40
0.874494051306241
40
0.937247025653124
40
0.937247025653124
40
0.952935269239844
40
0.952935269239844
40
0.968623512826565
40
0.968623512826565
40
1
40
1
40
1
40
1
41
1
10
93.2392611128496
20
2.99999993846379
30
0
41
1
10
93.2746567978901
20
3.00000754308934
30
0
41
1
10
93.3099992966205
20
2.99967049714559
30
0
41
1
10
93.3928275682169
20
2.998071232884
30
0
41
1
10
93.4402195828175
20
2.99652446972743
30
0
41
1
10
93.5348950510702
20
2.99218327182993
30
0
41
1
10
93.5822930157761
20
2.98940239614643
30
0
41
1
10
93.6769500382093
20
2.98261331295319
30
0
41
1
10
93.7242276455272
20
2.97860478046877
30
0
41
1
10
93.9605854500531
20
2.9555522304828
30
0
41
1
10
94.1495592168857
20
2.92751804081308
30
0
41
1
10
94.5277086410386
20
2.8527986452701
30
0
41
1
10
94.7169469754866
20
2.80614649261167
30
0
41
1
10
94.9537716528012
20
2.73595194876376
30
0
41
1
10
95.0011505773416
20
2.72131655101759
30
0
41
1
10
95.0959396685068
20
2.69083631064771
30
0
41
1
10
95.1433372047459
20
2.67498239937837
30
0
41
1
10
95.2383227160369
20
2.64214892173987
30
0
41
1
10
95.2859107484609
20
2.62517072602992
30
0
41
1
10
95.3812973024564
20
2.59010158439122
30
0
41
1
10
95.4291519206824
20
2.57198773031382
30
0
41
1
10
95.6681153777441
20
2.47897491938966
30
0
41
1
10
95.8583396514725
20
2.39680121516147
30
0
41
1
10
96.1428806292334
20
2.2628419106654
30
0
41
1
10
96.2375865116808
20
2.21639580413878
30
0
41
1
10
96.4267177716818
20
2.11993169405199
30
0
41
1
10
96.5211190603016
20
2.06988951803078
30
0
41
1
10
96.6625661205692
20
1.99217609941999
30
0
41
1
10
96.7097188402529
20
1.9658601994885
30
0
41
1
10
96.8039583948216
20
1.91232501120899
30
0
41
1
10
96.8509989439177
20
1.88505512690608
30
0
41
1
10
96.9923710283065
20
1.80224990388098
30
0
41
1
10
97.0868334908979
20
1.74559787238516
30
0
41
1
10
97.276262153097
20
1.62949202630423
30
0
41
1
10
97.3712411296496
20
1.57005255128223
30
0
41
1
10
97.5141850589446
20
1.47889470790233
30
0
41
1
10
97.5619117783233
20
1.44817490587323
30
0
41
1
10
97.6575297735604
20
1.3860710739113
30
0
41
1
10
97.7054536043302
20
1.35466549925877
30
0
41
1
10
97.9451321932037
20
1.19620577998862
30
0
41
1
10
98.1354705585994
20
1.06583324001281
30
0
41
1
10
98.4193378816037
20
0.865514547883436
30
0
41
1
10
98.5135676099868
20
0.797788262370688
30
0
41
1
10
98.7020685703326
20
0.661523759114687
30
0
41
1
10
98.7963477895217
20
0.592998196838977
30
0
41
1
10
99.0794439509102
20
0.386490706728836
30
0
41
1
10
99.268543589413
20
0.247615016748569
30
0
41
1
10
99.648028227983
20
-0.0317946198232164
30
0
41
1
10
99.8384328845925
20
-0.172297728428418
30
0
41
1
10
100.077323102208
20
-0.348954061662852
30
0
41
1
10
100.125061501606
20
-0.384277903115162
30
0
41
1
10
100.22026909821
20
-0.454645541446382
30
0
41
1
10
100.267788125189
20
-0.489700662463747
30
0
41
1
10
100.410283664813
20
-0.594221859258653
30
0
41
1
10
100.505151327029
20
-0.663111156247766
30
0
41
1
10
100.789452385915
20
-0.867357342271305
30
0
41
1
10
100.978700340867
20
-1.00014499451973
30
0
41
1
10
101.357161473836
20
-1.25842722188352
30
0
41
1
10
101.54626782156
20
-1.3840569125428
30
0
41
1
10
101.782844507288
20
-1.53614805026908
30
0
41
1
10
101.830148530316
20
-1.56634326435042
30
0
41
1
10
101.92476743974
20
-1.62623980333612
30
0
41
1
10
101.972170918002
20
-1.65583711935952
30
0
41
1
10
102.114688031549
20
-1.74354952848247
30
0
41
1
10
102.210011336791
20
-1.80069702657397
30
0
41
1
10
102.305750010559
20
-1.85639041841406
30
0
0
SPLINE
5
18A
100
AcDbEntity
8
1
62
256
6
ByLayer
370
18
48
1
60
0
100
AcDbSpline
70
4
71
3
72
16
73
12
40
0
40
0
40
0
40
0
40
0.25
40
0.25
40
0.5
40
0.5
40
0.75
40
0.75
40
0.875
40
0.875
40
1
40
1
40
1
40
1
41
1
10
102.305750010559
20
-1.85639041841404
30
0
41
1
10
102.345688379298
20
-1.87962348747686
30
0
41
1
10
102.385421570013
20
-1.90403113695191
30
0
41
1
10
102.46429874417
20
-1.95537095322351
30
0
41
1
10
102.5034429606
20
-1.98230176782229
30
0
41
1
10
102.581013702307
20
-2.03890205375865
30
0
41
1
10
102.619440517535
20
-2.06856892771984
30
0
41
1
10
102.676476223169
20
-2.11535773001489
30
0
41
1
10
102.695344152844
20
-2.13130224809993
30
0
41
1
10
102.732623991785
20
-2.16378290171986
30
0
41
1
10
102.751059598318
20
-2.18033821360854
30
0
41
1
10
102.769284277978
20
-2.19722351754635
30
0
0
SPLINE
5
18B
100
AcDbEntity
8
1
62
256
6
ByLayer
370
18
48
1
60
0
100
AcDbSpline
70
4
71
3
72
10
73
6
40
0
40
0
40
0
40
0
40
0.5
40
0.5
40
1
40
1
40
1
40
1
41
1
10
102.769284277978
20
-2.19722351754632
30
0
41
1
10
102.807650930493
20
-2.23277051211062
30
0
41
1
10
102.846061561079
20
-2.26823307147092
30
0
41
1
10
102.922985339669
20
-2.338977896552
30
0
41
1
10
102.961532621144
20
-2.37422943209026
30
0
41
1
10
103
20
-2.4095101356636
30
0
0
SPLINE
5
18C
100
AcDbEntity
8
1
62
256
6
ByLayer
370
18
48
1
60
0
100
AcDbSpline
70
4
71
3
72
28
73
24
40
0
40
0
40
0
40
0
40
0.125
40
0.125
40
0.25
40
0.25
40
0.375
40
0.375
40
0.5
40
0.5
40
0.625
40
0.625
40
0.6875
40
0.6875
40
0.75
40
0.75
40
0.8125
40
0.8125
40
0.875
40
0.875
40
0.9375
40
0.9375
40
1
40
1
40
1
40
1
41
1
10
110.984141717887
20
-3.33578752885143
30
0
41
1
10
110.975266584001
20
-3.32044402831005
30
0
41
1
10
110.964965598356
20
-3.30693495671943
30
0
41
1
10
110.942153210645
20
-3.28273457188044
30
0
41
1
10
110.92951667546
20
-3.27200739784524
30
0
41
1
10
110.903091890655
20
-3.25381701886178
30
0
41
1
10
110.889231883162
20
-3.24625170552554
30
0
41
1
10
110.86028615158
20
-3.23407211329652
30
0
41
1
10
110.845062077103
20
-3.22945125007175
30
0
41
1
10
110.814425835206
20
-3.22371455501951
30
0
41
1
10
110.798933120924
20
-3.22252927119641
30
0
41
1
10
110.775441879576
20
-3.22363245062053
30
0
41
1
10
110.767568927371
20
-3.22448512264808
30
0
41
1
10
110.751732757689
20
-3.2273095894457
30
0
41
1
10
110.74384715934
20
-3.22927332134128
30
0
41
1
10
110.728382622062
20
-3.23436432805798
30
0
41
1
10
110.720770869631
20
-3.23749540593596
30
0
41
1
10
110.705835300836
20
-3.24511182105223
30
0
41
1
10
110.698469675907
20
-3.24963678521533
30
0
41
1
10
110.684545386873
20
-3.25999799365545
30
0
41
1
10
110.677937786551
20
-3.26584780729189
30
0
41
1
10
110.665550303738
20
-3.27910879451838
30
0
41
1
10
110.659779350771
20
-3.28653637634642
30
0
41
1
10
110.654689850066
20
-3.29463876371727
30
0
0
SPLINE
5
18D
100
AcDbEntity
8
1
62
256
6
ByLayer
370
18
48
1
60
0
100
AcDbSpline
70
4
71
3
72
10
73
6
40
0
40
0
40
0
40
0
40
0.5
40
0.5
40
1
40
1
40
1
40
1
41
1
10
110.65468985006
20
-3.29463876372989
30
0
41
1
10
110.583724261906
20
-3.40761461708917
30
0
41
1
10
110.513210668313
20
-3.51810789329647
30
0
41
1
10
110.372815450726
20
-3.73417373015931
30
0
41
1
10
110.303157809022
20
-3.83942072268059
30
0
41
1
10
110.233974015232
20
-3.94160910478635
30
0
0
SPLINE
5
18E
100
AcDbEntity
8
1
62
256
6
ByLayer
370
18
48
1
60
0
100
AcDbSpline
70
4
71
3
72
8
73
4
40
0
40
0
40
0
40
0
40
1
40
1
40
1
40
1
41
1
10
110.109911259936
20
-3.90958114846543
30
0
41
1
10
110.151257538131
20
-3.9208637430319
30
0
41
1
10
110.192609837715
20
-3.93154036583334
30
0
41
1
10
110.233974015232
20
-3.94160910478632
30
0
0
SPLINE
5
18F
100
AcDbEntity
8
1
62
256
6
ByLayer
370
18
48
1
60
0
100
AcDbSpline
70
4
71
3
72
12
73
8
40
0
40
0
40
0
40
0
40
0.25
40
0.25
40
0.5
40
0.5
40
1
40
1
40
1
40
1
41
1
10
110.109911259936
20
-3.90958114846612
30
0
41
1
10
110.073755672845
20
-3.83986753726089
30
0
41
1
10
110.03748018576
20
-3.76954029699945
30
0
41
1
10
109.964640019785
20
-3.62767730002099
30
0
41
1
10
109.928059469739
20
-3.55611026213242
30
0
41
1
10
109.817959435748
20
-3.33991127666869
30
0
41
1
10
109.744057263879
20
-3.19372515986222
30
0
41
1
10
109.669643268286
20
-3.04597714324808
30
0
0
SPLINE
5
190
100
AcDbEntity
8
1
62
256
6
ByLayer
370
18
48
1
60
0
100
AcDbSpline
70
4
71
3
72
28
73
24
40
0
40
0
40
0
40
0
40
0.125000000000052
40
0.125000000000052
40
0.250000000000104
40
0.250000000000104
40
0.375000000000156
40
0.375000000000156
40
0.500000000000209
40
0.500000000000209
40
0.625000000000261
40
0.625000000000261
40
0.687500000000217
40
0.687500000000217
40
0.750000000000174
40
0.750000000000174
40
0.81250000000013
40
0.81250000000013
40
0.875000000000087
40
0.875000000000087
40
0.937500000000043
40
0.937500000000043
40
1
40
1
40
1
40
1
41
1
10
109.669643268286
20
-3.04597714324785
30
0
41
1
10
109.660767995657
20
-3.02835540532897
30
0
41
1
10
109.650462381951
20
-3.01223077161711
30
0
41
1
10
109.627631094093
20
-2.98229169582186
30
0
41
1
10
109.614978068645
20
-2.96840829363822
30
0
41
1
10
109.588515744748
20
-2.94366080694914
30
0
41
1
10
109.574636259335
20
-2.93267715558804
30
0
41
1
10
109.54565365062
20
-2.91338066096998
30
0
41
1
10
109.530413908363
20
-2.90502837774196
30
0
41
1
10
109.49976200719
20
-2.89176470493436
30
0
41
1
10
109.484265019638
20
-2.88676213896488
30
0
41
1
10
109.460774801356
20
-2.88202464266706
30
0
41
1
10
109.452903439471
20
-2.88091113473939
30
0
41
1
10
109.43707349245
20
-2.87975466780125
30
0
41
1
10
109.429210536325
20
-2.8797231920291
30
0
41
1
10
109.413778107054
20
-2.88086039627635
30
0
41
1
10
109.406183222618
20
-2.88202514199497
30
0
41
1
10
109.391282028828
20
-2.88572995080867
30
0
41
1
10
109.383937345903
20
-2.88829709774026
30
0
41
1
10
109.370056038881
20
-2.89488431871584
30
0
41
1
10
109.363468482477
20
-2.89890661030773
30
0
41
1
10
109.351116895845
20
-2.90865203408202
30
0
41
1
10
109.345362888406
20
-2.91439184645719
30
0
41
1
10
109.340285808918
20
-2.92094861600964
30
0
0
SPLINE
5
191
100
AcDbEntity
8
1
62
256
6
ByLayer
370
18
48
1
60
0
100
AcDbSpline
70
4
71
3
72
10
73
6
40
0
40
0
40
0
40
0
40
0.5
40
0.5
40
1
40
1
40
1
40
1
41
1
10
109.340285808913
20
-2.9209486160245
30
0
41
1
10
109.269219910043
20
-3.01272632467183
30
0
41
1
10
109.198634622621
20
-3.10016539615475
30
0
41
1
10
109.058149983364
20
-3.26643884413898
30
0
41
1
10
108.98849564647
20
-3.34499713647622
30
0
41
1
10
108.919304868876
20
-3.41907119153447
30
0
0
SPLINE
5
192
100
AcDbEntity
8
1
62
256
6
ByLayer
370
18
48
1
60
0
100
AcDbSpline
70
4
71
3
72
8
73
4
40
0
40
0
40
0
40
0
40
1
40
1
40
1
40
1
41
1
10
108.795234669522
20
-3.34963712019808
30
0
41
1
10
108.836599160233
20
-3.37330712886086
30
0
41
1
10
108.877942230775
20
-3.39645973404382
30
0
41
1
10
108.919304868876
20
-3.41907119153447
30
0
0
SPLINE
5
193
100
AcDbEntity
8
1
62
256
6
ByLayer
370
18
48
1
60
0
100
AcDbSpline
70
4
71
3
72
30
73
26
40
0
40
0
40
0
40
0
40
0.124999999999935
40
0.124999999999935
40
0.249999999999869
40
0.249999999999869
40
0.374999999999804
40
0.374999999999804
40
0.43749999999977
40
0.43749999999977
40
0.499999999999737
40
0.499999999999737
40
0.624999999999804
40
0.624999999999804
40
0.687499999999837
40
0.687499999999837
40
0.74999999999987
40
0.74999999999987
40
0.812499999999902
40
0.812499999999902
40
0.874999999999935
40
0.874999999999935
40
0.937499999999967
40
0.937499999999967
40
1
40
1
40
1
40
1
41
1
10
108.35480475608
20
-2.43481633636915
30
0
41
1
10
108.345957595294
20
-2.41682679122536
30
0
41
1
10
108.335684342306
20
-2.39983397258825
30
0
41
1
10
108.312915332694
20
-2.36740004450633
30
0
41
1
10
108.300301295048
20
-2.35187259057577
30
0
41
1
10
108.273815214853
20
-2.32317158390507
30
0
41
1
10
108.259883320386
20
-2.30988841193144
30
0
41
1
10
108.237994435289
20
-2.29151843300528
30
0
41
1
10
108.2305292233
20
-2.28565988756864
30
0
41
1
10
108.21552478554
20
-2.27467131717177
30
0
41
1
10
108.207954055865
20
-2.26951366881457
30
0
41
1
10
108.185044426804
20
-2.25506017893403
30
0
41
1
10
108.16951159815
20
-2.2467638167671
30
0
41
1
10
108.145802628719
20
-2.2366595094893
30
0
41
1
10
108.137827528366
20
-2.23369206488857
30
0
41
1
10
108.122112508813
20
-2.22877270735486
30
0
41
1
10
108.114327233549
20
-2.22679926219013
30
0
41
1
10
108.098927890064
20
-2.22393042837541
30
0
41
1
10
108.091292888801
20
-2.22303266209164
30
0
41
1
10
108.076321358374
20
-2.22251562332326
30
0
41
1
10
108.069109691822
20
-2.22289807626961
30
0
41
1
10
108.055304545187
20
-2.22509507229793
30
0
41
1
10
108.048685447655
20
-2.2269172403349
30
0
41
1
10
108.036298934614
20
-2.23224755264343
30
0
41
1
10
108.030638750468
20
-2.23570301267159
30
0
41
1
10
108.025580387428
20
-2.24005978785186
30
0
0
SPLINE
5
194
100
AcDbEntity
8
1
62
256
6
ByLayer
370
18
48
1
60
0
100
AcDbSpline
70
4
71
3
72
77
73
73
40
0
40
0
40
0
40
0
40
0.0361445477050227
40
0.0361445477050227
40
0.0963855134734543
40
0.0963855134734543
40
0.126505996357672
40
0.126505996357672
40
0.14156623779978
40
0.14156623779978
40
0.156626479241889
40
0.156626479241889
40
0.171686720683998
40
0.171686720683998
40
0.186746962126106
40
0.186746962126106
40
0.216867445010324
40
0.216867445010324
40
0.277108410778755
40
0.277108410778755
40
0.307228893662971
40
0.307228893662971
40
0.322289135105079
40
0.322289135105079
40
0.337349376547187
40
0.337349376547187
40
0.352409617989295
40
0.352409617989295
40
0.367469859431403
40
0.397590342315618
40
0.427710825199834
40
0.427710825199834
40
0.442771066641942
40
0.442771066641942
40
0.45783130808405
40
0.45783130808405
40
0.518072273852484
40
0.518072273852484
40
0.533132515294595
40
0.533132515294595
40
0.548192756736705
40
0.548192756736705
40
0.578313239620922
40
0.578313239620922
40
0.608433722505139
40
0.608433722505139
40
0.638554205389357
40
0.668674688273574
40
0.668674688273574
40
0.698795171157791
40
0.698795171157791
40
0.728915654042008
40
0.728915654042008
40
0.743975895484117
40
0.743975895484117
40
0.759036136926226
40
0.759036136926226
40
0.819277102694667
40
0.819277102694667
40
0.879518068463108
40
0.879518068463108
40
0.90963855134733
40
0.90963855134733
40
0.924698792789441
40
0.924698792789441
40
0.939759034231552
40
0.939759034231552
40
0.954819275673664
40
0.954819275673664
40
0.969879517115775
40
0.969879517115775
40
1
40
1
40
1
40
1
41
1
10
94.5882969379512
20
-2.99999753536295
30
0
41
1
10
94.4884409203555
20
-2.99998785256704
30
0
41
1
10
94.3887786541153
20
-2.9972383428366
30
0
41
1
10
94.1230895800737
20
-2.98258410675211
30
0
41
1
10
93.9571071970473
20
-2.96582187659948
30
0
41
1
10
93.7077066551064
20
-2.92921910450792
30
0
41
1
10
93.6245618589493
20
-2.91507731450307
30
0
41
1
10
93.4990856840795
20
-2.89120610219453
30
0
41
1
10
93.4571253704788
20
-2.88281338446171
30
0
41
1
10
93.3731001657852
20
-2.86510088067135
30
0
41
1
10
93.3310654843714
20
-2.85576766456475
30
0
41
1
10
93.2469333524774
20
-2.83614144849324
30
0
41
1
10
93.2048339977189
20
-2.82584915614135
30
0
41
1
10
93.1205313756837
20
-2.8043108984607
30
0
41
1
10
93.0783145175705
20
-2.79306044871248
30
0
41
1
10
92.951981018284
20
-2.75803810215794
30
0
41
1
10
92.868017016125
20
-2.73295158349754
30
0
41
1
10
92.6168177616602
20
-2.65257737072668
30
0
41
1
10
92.4503279445623
20
-2.5921348011849
30
0
41
1
10
92.2011231640251
20
-2.49188743942224
30
0
41
1
10
92.1181343172839
20
-2.45688114381289
30
0
41
1
10
91.9936047559364
20
-2.40212731802563
30
0
41
1
10
91.9520908511235
20
-2.38349857278945
30
0
41
1
10
91.8689147312963
20
-2.34560999823918
30
0
41
1
10
91.8272309444415
20
-2.32636928580666
30
0
41
1
10
91.7436983193383
20
-2.2872882262856
30
0
41
1
10
91.7018685162474
20
-2.26743187911359
30
0
41
1
10
91.6182315870924
20
-2.22695505630571
30
0
41
1
10
91.4927789265395
20
-2.1651191490262
30
0
41
1
10
91.283628167218
20
-2.05648602253686
30
0
41
1
10
91.1160944155246
20
-1.96365385406688
30
0
41
1
10
90.9903156869242
20
-1.89179331500523
30
0
41
1
10
90.9483697468312
20
-1.86746494672252
30
0
41
1
10
90.8644137613449
20
-1.81807263125745
30
0
41
1
10
90.8223635908007
20
-1.79298549692464
30
0
41
1
10
90.6123640159547
20
-1.66606885106424
30
0
41
1
10
90.4457419930459
20
-1.56012182136041
30
0
41
1
10
90.2378827298756
20
-1.42379134707644
30
0
41
1
10
90.1963211731047
20
-1.39634352186354
30
0
41
1
10
90.1130703986801
20
-1.34127111769627
30
0
41
1
10
90.0713656582069
20
-1.31366611890107
30
0
41
1
10
89.9461696258696
20
-1.23046464570024
30
0
41
1
10
89.8626736473119
20
-1.17438694007726
30
0
41
1
10
89.6958567271667
20
-1.06072234444468
30
0
41
1
10
89.6125239136719
20
-1.00314952535402
30
0
41
1
10
89.4460520422233
20
-0.886453565988234
30
0
41
1
10
89.27973533308
20
-0.76825542567974
30
0
41
1
10
89.1134332352947
20
-0.647395636591796
30
0
41
1
10
88.9469877475198
20
-0.525381781008917
30
0
41
1
10
88.8637106973871
20
-0.463773526934062
30
0
41
1
10
88.6967399234989
20
-0.339751463990353
30
0
41
1
10
88.613032113425
20
-0.277356613424274
30
0
41
1
10
88.4868390172393
20
-0.183600351268609
30
0
41
1
10
88.444717641139
20
-0.152351198870349
30
0
41
1
10
88.3605649435099
20
-0.090098412829974
30
0
41
1
10
88.3184780896514
20
-0.0590949283709961
30
0
41
1
10
88.1081458426109
20
0.0955373723683408
30
0
41
1
10
87.9409785877238
20
0.219093848837247
30
0
41
1
10
87.6079075504422
20
0.464625683640406
30
0
41
1
10
87.4419132865112
20
0.586475964525789
30
0
41
1
10
87.1928615341268
20
0.766698081338177
30
0
41
1
10
87.1098520124102
20
0.826370383875258
30
0
41
1
10
86.9852385185349
20
0.915126294957986
30
0
41
1
10
86.9436836091781
20
0.944585467886384
30
0
41
1
10
86.8605182312211
20
1.00322290915523
30
0
41
1
10
86.8189274221663
20
1.03242642313896
30
0
41
1
10
86.7354686258042
20
1.09026581097399
30
0
41
1
10
86.6936196007883
20
1.11892688992609
30
0
41
1
10
86.609854450607
20
1.17595492991478
30
0
41
1
10
86.5679230597657
20
1.2043019471096
30
0
41
1
10
86.4419166933286
20
1.28875732861124
30
0
41
1
10
86.3576210750643
20
1.34427052909066
30
0
41
1
10
86.2731396092382
20
1.39912168839459
30
0
0
SPLINE
5
195
100
AcDbEntity
8
1
62
256
6
ByLayer
370
18
48
1
60
0
100
AcDbSpline
70
4
71
3
72
36
73
32
40
0
40
0
40
0
40
0
40
0.0416985459505825
40
0.0416985459505825
40
0.100675747663664
40
0.100675747663664
40
0.159652949376747
40
0.159652949376747
40
0.218630151089829
40
0.218630151089829
40
0.277607352802911
40
0.277607352802911
40
0.336584554515993
40
0.336584554515993
40
0.395561756229075
40
0.395561756229075
40
0.454538957942157
40
0.454538957942157
40
0.572493361368319
40
0.572493361368319
40
0.69044776479448
40
0.69044776479448
40
0.749424966507563
40
0.749424966507563
40
0.808402168220645
40
0.808402168220645
40
0.867379369933727
40
0.867379369933727
40
0.926356571646809
40
0.926356571646809
40
1
40
1
40
1
40
1
41
1
10
84.0978078008752
20
-1.06284821069045
30
0
41
1
10
84.0987067335278
20
-1.04460983759955
30
0
41
1
10
84.1015405900085
20
-1.02435648224247
30
0
41
1
10
84.1136030321173
20
-0.970020913181486
30
0
41
1
10
84.1251358933241
20
-0.933388925967762
30
0
41
1
10
84.1573801432316
20
-0.852561486054668
30
0
41
1
10
84.1780322867288
20
-0.808197950934073
30
0
41
1
10
84.2299938260227
20
-0.710178605984396
30
0
41
1
10
84.2613436553295
20
-0.656346825082863
30
0
41
1
10
84.3285028576849
20
-0.546027519245484
30
0
41
1
10
84.3650977688822
20
-0.488757040421746
30
0
41
1
10
84.4448706157267
20
-0.369607727928553
30
0
41
1
10
84.4884047814903
20
-0.307243064481327
30
0
41
1
10
84.580896366956
20
-0.180033845971423
30
0
41
1
10
84.6297070924485
20
-0.115352604348374
30
0
41
1
10
84.7326153479919
20
0.0162290189081773
30
0
41
1
10
84.7872137333808
20
0.0837244544470934
30
0
41
1
10
84.955684895912
20
0.285184443671
30
0
41
1
10
85.0727881067511
20
0.416653236548655
30
0
41
1
10
85.3170897481718
20
0.673608722930055
30
0
41
1
10
85.4378191292109
20
0.792547854999242
30
0
41
1
10
85.6154457637832
20
0.957591318752634
30
0
41
1
10
85.6743371523227
20
1.01048988140883
30
0
41
1
10
85.7852076014314
20
1.10437509046636
30
0
41
1
10
85.8380399641096
20
1.14652996666291
30
0
41
1
10
85.9389717694638
20
1.22213394200477
30
0
41
1
10
85.9866901925115
20
1.25523470016347
30
0
41
1
10
86.0740224248906
20
1.31081843227202
30
0
41
1
10
86.1141941584943
20
1.33374365393047
30
0
41
1
10
86.1971173222204
20
1.37497502930546
30
0
41
1
10
86.2380855281199
20
1.39062981048056
30
0
41
1
10
86.2731720345456
20
1.39900351985594
30
0
0
SPLINE
5
196
100
AcDbEntity
8
1
62
256
6
ByLayer
370
18
48
1
60
0
100
AcDbSpline
70
4
71
3
72
64
73
60
40
0
40
0
40
0
40
0
40
0.0739781730375773
40
0.0739781730375773
40
0.110967259556366
40
0.110967259556366
40
0.129461802815762
40
0.129461802815762
40
0.147956346075158
40
0.147956346075158
40
0.221934519112746
40
0.221934519112746
40
0.258923605631541
40
0.258923605631541
40
0.277418148890941
40
0.277418148890941
40
0.295912692150341
40
0.295912692150341
40
0.332901778669144
40
0.332901778669144
40
0.351396321928546
40
0.351396321928546
40
0.36989086518795
40
0.36989086518795
40
0.443869038225565
40
0.443869038225565
40
0.480858124744373
40
0.480858124744373
40
0.517847211263181
40
0.517847211263181
40
0.536341754522587
40
0.536341754522587
40
0.554836297781993
40
0.554836297781993
40
0.573330841041398
40
0.573330841041398
40
0.591825384300804
40
0.591825384300804
40
0.665803557338434
40
0.665803557338434
40
0.739781730376064
40
0.739781730376064
40
0.776770816894879
40
0.776770816894879
40
0.795265360154286
40
0.795265360154286
40
0.813759903413694
40
0.813759903413694
40
0.850748989932509
40
0.850748989932509
40
0.869243533191918
40
0.869243533191918
40
0.887738076451327
40
0.887738076451327
40
0.961716249488967
40
0.961716249488967
40
0.998705336007787
40
0.998705336007787
40
1
40
1
40
1
40
1
41
1
10
84.0978373057212
20
-1.06285669065045
30
0
41
1
10
84.288651411655
20
-1.1944544665939
30
0
41
1
10
84.4785827597946
20
-1.32156364192065
30
0
41
1
10
84.7622817933934
20
-1.50548436687214
30
0
41
1
10
84.8566296179112
20
-1.56568446375121
30
0
41
1
10
84.9979265611394
20
-1.65418213426108
30
0
41
1
10
85.044957960904
20
-1.68341468135424
30
0
41
1
10
85.1391011553345
20
-1.74109886549965
30
0
41
1
10
85.18624863106
20
-1.76951181308758
30
0
41
1
10
85.4220826191218
20
-1.90975856258905
30
0
41
1
10
85.6113293962143
20
-2.01584142605998
30
0
41
1
10
85.8967787123298
20
-2.16503109756817
30
0
41
1
10
85.992184778101
20
-2.21311109246466
30
0
41
1
10
86.135700836619
20
-2.28269903034058
30
0
41
1
10
86.183663205766
20
-2.30549918929756
30
0
41
1
10
86.2793791190563
20
-2.35008830222481
30
0
41
1
10
86.3271352381669
20
-2.3718789201298
30
0
41
1
10
86.4701222432743
20
-2.43572543099691
30
0
41
1
10
86.5651111103285
20
-2.47622747666648
30
0
41
1
10
86.7069828272434
20
-2.53397187304378
30
0
41
1
10
86.7541951433327
20
-2.55269821600174
30
0
41
1
10
86.848641580602
20
-2.58898579583393
30
0
41
1
10
86.8958515199816
20
-2.60656539970333
30
0
41
1
10
87.1318937035857
20
-2.6916317574748
30
0
41
1
10
87.3206759919013
20
-2.75066429846026
30
0
41
1
10
87.604330856715
20
-2.82562253824668
30
0
41
1
10
87.6989798404761
20
-2.84833246895096
30
0
41
1
10
87.8884633487908
20
-2.88918215994886
30
0
41
1
10
87.9832691205634
20
-2.90733212460742
30
0
41
1
10
88.1256459501793
20
-2.9310484295078
30
0
41
1
10
88.173138490065
20
-2.93836690745485
30
0
41
1
10
88.2682230379132
20
-2.95180729732593
30
0
41
1
10
88.3158400068637
20
-2.95792435923065
30
0
41
1
10
88.4110254686763
20
-2.96897750869999
30
0
41
1
10
88.4586304862526
20
-2.97390676268446
30
0
41
1
10
88.5541279058846
20
-2.98247581480592
30
0
41
1
10
88.6018410662525
20
-2.98611586525706
30
0
41
1
10
88.8401374917689
20
-3.00116550976193
30
0
41
1
10
89.0300102071635
20
-3.00313220002693
30
0
41
1
10
89.408965835063
20
-2.98771347190822
30
0
41
1
10
89.5980666123985
20
-2.97034518504111
30
0
41
1
10
89.8812358991501
20
-2.92974501067914
30
0
41
1
10
89.9755199138885
20
-2.91376922717174
30
0
41
1
10
90.1169424506562
20
-2.88611498338327
30
0
41
1
10
90.1641071109194
20
-2.87628979601354
30
0
41
1
10
90.2586128273799
20
-2.85547515954193
30
0
41
1
10
90.3059422931549
20
-2.84448207479412
30
0
41
1
10
90.4481487120504
20
-2.80974236268634
30
0
41
1
10
90.5432511649895
20
-2.78423868365405
30
0
41
1
10
90.6864495780633
20
-2.74249683824672
30
0
41
1
10
90.7342725241237
20
-2.72800135310206
30
0
41
1
10
90.8301074070455
20
-2.69784464739109
30
0
41
1
10
90.878044843942
20
-2.68220587391537
30
0
41
1
10
91.1171660429642
20
-2.6014559472649
30
0
41
1
10
91.3072848292252
20
-2.52848521850683
30
0
41
1
10
91.5910147774512
20
-2.40687095839385
30
0
41
1
10
91.6853183149912
20
-2.36427462687214
30
0
41
1
10
91.7827298779472
20
-2.31811268516057
30
0
41
1
10
91.7860239995026
20
-2.31654924953284
30
0
41
1
10
91.7893180450555
20
-2.31498348807895
30
0
0
SPLINE
5
197
100
AcDbEntity
8
1
62
256
6
ByLayer
370
18
48
1
60
0
100
AcDbSpline
70
4
71
3
72
14
73
10
40
0
40
0
40
0
40
0
40
0.0157474773661394
40
0.0157474773661394
40
0.261810608024604
40
0.261810608024604
40
0.507873738683068
40
0.507873738683068
40
1
40
1
40
1
40
1
41
1
10
101.726445068076
20
3.00000002056618
30
0
41
1
10
101.729473063183
20
3.00000010335029
30
0
41
1
10
101.732501096825
20
2.99999766187378
30
0
41
1
10
101.78284450729
20
2.99991508379557
30
0
41
1
10
101.830148530316
20
2.99921877271979
30
0
41
1
10
101.92476743974
20
2.99656818866313
30
0
41
1
10
101.972170918002
20
2.99461863134346
30
0
41
1
10
102.114688031549
20
2.98690425933876
30
0
41
1
10
102.210011336791
20
2.97926348898753
30
0
41
1
10
102.305750010559
20
2.9691168051572
30
0
0
SPLINE
5
198
100
AcDbEntity
8
1
62
256
6
ByLayer
370
18
48
1
60
0
100
AcDbSpline
70
4
71
3
72
16
73
12
40
0
40
0
40
0
40
0
40
0.25
40
0.25
40
0.5
40
0.5
40
0.75
40
0.75
40
0.875
40
0.875
40
1
40
1
40
1
40
1
41
1
10
102.305750010559
20
2.9691168051572
30
0
41
1
10
102.345688379298
20
2.96488401203038
30
0
41
1
10
102.385421570013
20
2.96287765786008
30
0
41
1
10
102.46429874417
20
2.9632528743214
30
0
41
1
10
102.5034429606
20
2.96563187321547
30
0
41
1
10
102.581013702307
20
2.97493954180163
30
0
41
1
10
102.619440517535
20
2.98186284910324
30
0
41
1
10
102.676476223169
20
2.99603677335006
30
0
41
1
10
102.695344152844
20
3.00138741197969
30
0
41
1
10
102.732623991785
20
3.01337139257566
30
0
41
1
10
102.751059598319
20
3.02001014330244
30
0
41
1
10
102.769284277978
20
3.02734781107679
30
0
0
SPLINE
5
199
100
AcDbEntity
8
1
62
256
6
ByLayer
370
18
48
1
60
0
100
AcDbSpline
70
4
71
3
72
10
73
6
40
0
40
0
40
0
40
0
40
0.5
40
0.5
40
1
40
1
40
1
40
1
41
1
10
102.769284277978
20
3.02734781107677
30
0
41
1
10
102.807650930493
20
3.0427950921829
30
0
41
1
10
102.846061561079
20
3.05787312521241
30
0
41
1
10
102.922985339669
20
3.0873242755932
30
0
41
1
10
102.961532621143
20
3.10173885313279
30
0
41
1
10
103
20
3.11565326094353
30
0
0
SPLINE
5
19A
100
AcDbEntity
8
1
62
256
6
ByLayer
370
18
48
1
60
0
100
AcDbSpline
70
4
71
3
72
14
73
10
40
0
40
0
40
0
40
0
40
0.500000000000028
40
0.500000000000028
40
0.625000000000021
40
0.625000000000021
40
0.750000000000014
40
0.750000000000014
40
1
40
1
40
1
40
1
41
1
10
103
20
3.11565326094342
30
0
41
1
10
103.152726227702
20
3.10026738715672
30
0
41
1
10
103.303894005217
20
3.07808307285401
30
0
41
1
10
103.490993104996
20
3.04172505670022
30
0
41
1
10
103.528325473433
20
3.03402463005969
30
0
41
1
10
103.60280921916
20
3.01775452866917
30
0
41
1
10
103.6399693881
20
3.00918983467668
30
0
41
1
10
103.751410243881
20
2.9823405832675
30
0
41
1
10
103.825537970429
20
2.96282703496806
30
0
41
1
10
103.899519173095
20
2.941701633409
30
0
0
SPLINE
5
19B
100
AcDbEntity
8
1
62
256
6
ByLayer
370
18
48
1
60
0
100
AcDbSpline
70
4
71
3
72
8
73
4
40
0
40
0
40
0
40
0
40
1
40
1
40
1
40
1
41
1
10
103.899519173095
20
2.94170163340897
30
0
41
1
10
103.907348239303
20
2.92642516623798
30
0
41
1
10
103.915185710465
20
2.91114363980651
30
0
41
1
10
103.923031898825
20
2.89585718331864
30
0
0
SPLINE
5
19C
100
AcDbEntity
8
1
62
256
6
ByLayer
370
18
48
1
60
0
100
AcDbSpline
70
4
71
3
72
32
73
28
40
0
40
0
40
0
40
0
40
0.124999999999939
40
0.124999999999939
40
0.18749999999996
40
0.18749999999996
40
0.249999999999982
40
0.249999999999982
40
0.375000000000025
40
0.375000000000025
40
0.437499999999982
40
0.437499999999982
40
0.499999999999938
40
0.499999999999938
40
0.624999999999851
40
0.624999999999851
40
0.687499999999876
40
0.687499999999876
40
0.749999999999901
40
0.749999999999901
40
0.812499999999926
40
0.812499999999926
40
0.87499999999995
40
0.87499999999995
40
0.937499999999975
40
0.937499999999975
40
1
40
1
40
1
40
1
41
1
10
103.923031898825
20
2.89585718331864
30
0
41
1
10
103.932205658182
20
2.87798426632915
30
0
41
1
10
103.942894564798
20
2.86158314937705
30
0
41
1
10
103.960635303061
20
2.83863053463099
30
0
41
1
10
103.966840541748
20
2.8312616992886
30
0
41
1
10
103.979800757847
20
2.81705603740284
30
0
41
1
10
103.986486743458
20
2.8102975879307
30
0
41
1
10
104.006941089265
20
2.79112222697373
30
0
41
1
10
104.021171795559
20
2.7797143421983
30
0
41
1
10
104.043328268153
20
2.76452120867623
30
0
41
1
10
104.050874000518
20
2.75976667499347
30
0
41
1
10
104.066131728974
20
2.75098303755084
30
0
41
1
10
104.073788353817
20
2.74698303652446
30
0
41
1
10
104.096829274166
20
2.73613987272739
30
0
41
1
10
104.112283711244
20
2.73043454189212
30
0
41
1
10
104.135575368394
20
2.72439715438313
30
0
41
1
10
104.143401601328
20
2.72280443780684
30
0
41
1
10
104.158828827347
20
2.72060959725363
30
0
41
1
10
104.166428107678
20
2.72000109031885
30
0
41
1
10
104.181371483271
20
2.71983791424714
30
0
41
1
10
104.188715701458
20
2.72028190967526
30
0
41
1
10
104.203104751936
20
2.72237026115974
30
0
41
1
10
104.210165303165
20
2.72403025615449
30
0
41
1
10
104.223514309538
20
2.72863586399106
30
0
41
1
10
104.229854845111
20
2.73158290764525
30
0
41
1
10
104.241763139566
20
2.73897061313957
30
0
41
1
10
104.247350058699
20
2.74344198271808
30
0
41
1
10
104.252324553835
20
2.74868862892433
30
0
0
SPLINE
5
19D
100
AcDbEntity
8
1
62
256
6
ByLayer
370
18
48
1
60
0
100
AcDbSpline
70
4
71
3
72
8
73
4
40
0
40
0
40
0
40
0
40
1
40
1
40
1
40
1
41
1
10
104.252324553835
20
2.74868862892501
30
0
41
1
10
104.271400806026
20
2.76880852922795
30
0
41
1
10
104.290432682589
20
2.78857520046077
30
0
41
1
10
104.309423856108
20
2.80799139047824
30
0
0
SPLINE
5
19E
100
AcDbEntity
8
1
62
256
6
ByLayer
370
18
48
1
60
0
100
AcDbSpline
70
4
71
3
72
10
73
6
40
0
40
0
40
0
40
0
40
0.5
40
0.5
40
1
40
1
40
1
40
1
41
1
10
104.309423856108
20
2.80799139047821
30
0
41
1
10
104.442932055925
20
2.75904157506545
30
0
41
1
10
104.576256011846
20
2.70491785429169
30
0
41
1
10
104.842717728998
20
2.58605636152524
30
0
41
1
10
104.975835030928
20
2.52129924755309
30
0
41
1
10
105.108971006213
20
2.45098746929426
30
0
0
SPLINE
5
19F
100
AcDbEntity
8
1
62
256
6
ByLayer
370
18
48
1
60
0
100
AcDbSpline
70
4
71
3
72
8
73
4
40
0
40
0
40
0
40
0
40
1
40
1
40
1
40
1
41
1
10
105.108971006214
20
2.45098746929435
30
0
41
1
10
105.15161554898
20
2.36840976522089
30
0
41
1
10
105.194448740941
20
2.2863947395015
30
0
41
1
10
105.237525505991
20
2.2049801821905
30
0
0
SPLINE
5
1A0
100
AcDbEntity
8
1
62
256
6
ByLayer
370
18
48
1
60
0
100
AcDbSpline
70
4
71
3
72
30
73
26
40
0
40
0
40
0
40
0
40
0.124999999999949
40
0.124999999999949
40
0.249999999999898
40
0.249999999999898
40
0.374999999999847
40
0.374999999999847
40
0.437499999999822
40
0.437499999999822
40
0.499999999999796
40
0.499999999999796
40
0.624999999999745
40
0.624999999999745
40
0.687499999999788
40
0.687499999999788
40
0.74999999999983
40
0.74999999999983
40
0.812499999999873
40
0.812499999999873
40
0.874999999999915
40
0.874999999999915
40
0.937499999999957
40
0.937499999999957
40
1
40
1
40
1
40
1
41
1
10
105.237525505991
20
2.2049801821905
30
0
41
1
10
105.246710365317
20
2.18762091077963
30
0
41
1
10
105.257410516722
20
2.171091010358
30
0
41
1
10
105.281083964654
20
2.13928152711355
30
0
41
1
10
105.294211111328
20
2.12388877197134
30
0
41
1
10
105.321493220766
20
2.0953508207065
30
0
41
1
10
105.335728170828
20
2.08207480169787
30
0
41
1
10
105.357887554052
20
2.0635321607557
30
0
41
1
10
105.365433607545
20
2.05756464331296
30
0
41
1
10
105.380690689596
20
2.04617992383143
30
0
41
1
10
105.388346660429
20
2.04080153183747
30
0
41
1
10
105.411384818035
20
2.025588364132
30
0
41
1
10
105.426836387155
20
2.01666059640775
30
0
41
1
10
105.450122644876
20
2.00525760987875
30
0
41
1
10
105.457946674241
20
2.00177542288708
30
0
41
1
10
105.4733733443
20
1.9956611455091
30
0
41
1
10
105.480972618206
20
1.99302520164162
30
0
41
1
10
105.49591631049
20
1.98865775757838
30
0
41
1
10
105.503260822406
20
1.98692497928587
30
0
41
1
10
105.517650863056
20
1.98448655136426
30
0
41
1
10
105.52471426533
20
1.98378839991417
30
0
41
1
10
105.538070709208
20
1.98361874759985
30
0
41
1
10
105.54441527108
20
1.98413358112305
30
0
41
1
10
105.556331917989
20
1.9865541873699
30
0
41
1
10
105.561924493036
20
1.98847871241492
30
0
41
1
10
105.566905148545
20
1.99118851957638
30
0
0
SPLINE
5
1A1
100
AcDbEntity
8
1
62
256
6
ByLayer
370
18
48
1
60
0
100
AcDbSpline
70
4
71
3
72
8
73
4
40
0
40
0
40
0
40
0
40
1
40
1
40
1
40
1
41
1
10
105.566905148545
20
1.99118851957707
30
0
41
1
10
105.626586878729
20
2.02365934185775
30
0
41
1
10
105.685829488338
20
2.05200643094571
30
0
41
1
10
105.744747079598
20
2.07634763716246
30
0
0
SPLINE
5
1A2
100
AcDbEntity
8
1
62
256
6
ByLayer
370
18
48
1
60
0
100
AcDbSpline
70
4
71
3
72
8
73
4
40
0
40
0
40
0
40
0
40
1
40
1
40
1
40
1
41
1
10
105.744747079592
20
2.07634763717178
30
0
41
1
10
105.937136067506
20
1.95230384456303
30
0
41
1
10
106.128314607486
20
1.81979461994087
30
0
41
1
10
106.31875148974
20
1.67911662381351
30
0
0
SPLINE
5
1A3
100
AcDbEntity
8
1
62
256
6
ByLayer
370
18
48
1
60
0
100
AcDbSpline
70
4
71
3
72
8
73
4
40
0
40
0
40
0
40
0
40
1
40
1
40
1
40
1
41
1
10
106.31875148974
20
1.67911662381351
30
0
41
1
10
106.395885738434
20
1.54313781883093
30
0
41
1
10
106.473573942006
20
1.41122075419111
30
0
41
1
10
106.55207326455
20
1.28361521530792
30
0
0
SPLINE
5
1A4
100
AcDbEntity
8
1
62
256
6
ByLayer
370
18
48
1
60
0
100
AcDbSpline
70
4
71
3
72
32
73
28
40
0
40
0
40
0
40
0
40
0.124999999999946
40
0.124999999999946
40
0.187499999999971
40
0.187499999999971
40
0.249999999999996
40
0.249999999999996
40
0.375000000000047
40
0.375000000000047
40
0.437500000000136
40
0.437500000000136
40
0.500000000000226
40
0.500000000000226
40
0.625000000000271
40
0.625000000000271
40
0.687500000000226
40
0.687500000000226
40
0.750000000000181
40
0.750000000000181
40
0.812500000000136
40
0.812500000000136
40
0.87500000000009
40
0.87500000000009
40
0.937500000000045
40
0.937500000000045
40
1
40
1
40
1
40
1
41
1
10
106.55207326455
20
1.28361521530795
30
0
41
1
10
106.561260199374
20
1.26868128045416
30
0
41
1
10
106.571967931551
20
1.25384555659352
30
0
41
1
10
106.589740286849
20
1.23171677318996
30
0
41
1
10
106.595956664599
20
1.22436123692975
30
0
41
1
10
106.608939962024
20
1.20968818756057
30
0
41
1
10
106.615637186017
20
1.20245079797209
30
0
41
1
10
106.636124008196
20
1.18118110327956
30
0
41
1
10
106.650375906512
20
1.16750809762948
30
0
41
1
10
106.672558308265
20
1.14767866456808
30
0
41
1
10
106.680113125505
20
1.14116229634871
30
0
41
1
10
106.69537853096
20
1.12845308602917
30
0
41
1
10
106.703037726059
20
1.12230132308608
30
0
41
1
10
106.726082286393
20
1.10443465508172
30
0
41
1
10
106.741533681205
20
1.0932988088129
30
0
41
1
10
106.76481261353
20
1.07783769002003
30
0
41
1
10
106.772632777123
20
1.07286803453053
30
0
41
1
10
106.788036130824
20
1.06355478415435
30
0
41
1
10
106.79562328649
20
1.05920537539268
30
0
41
1
10
106.810542530801
20
1.05116345066887
30
0
41
1
10
106.81787485537
20
1.04747020832414
30
0
41
1
10
106.832239942148
20
1.04082509812346
30
0
41
1
10
106.839287443904
20
1.03787284543742
30
0
41
1
10
106.852612965907
20
1.03299673863896
30
0
41
1
10
106.858942860599
20
1.03104586729057
30
0
41
1
10
106.870832882069
20
1.02827596064691
30
0
41
1
10
106.876413140778
20
1.02746113363156
30
0
41
1
10
106.881384359207
20
1.02735144107984
30
0
0
SPLINE
5
1A5
100
AcDbEntity
8
1
62
256
6
ByLayer
370
18
48
1
60
0
100
AcDbSpline
70
4
71
3
72
10
73
6
40
0
40
0
40
0
40
0
40
0.5
40
0.5
40
1
40
1
40
1
40
1
41
1
10
106.881384359207
20
1.02735144108107
30
0
41
1
10
106.931769032266
20
1.02623967674538
30
0
41
1
10
106.981801613298
20
1.02173021364652
30
0
41
1
10
107.081392087447
20
1.00681665224326
30
0
41
1
10
107.130970460261
20
0.996349088060526
30
0
41
1
10
107.180210716237
20
0.982966155570693
30
0
0
SPLINE
5
1A6
100
AcDbEntity
8
1
62
256
6
ByLayer
370
18
48
1
60
0
100
AcDbSpline
70
4
71
3
72
32
73
28
40
0
40
0
40
0
40
0
40
0.124999999999908
40
0.124999999999908
40
0.187499999999915
40
0.187499999999915
40
0.249999999999921
40
0.249999999999921
40
0.374999999999934
40
0.374999999999934
40
0.437499999999941
40
0.437499999999941
40
0.499999999999947
40
0.499999999999947
40
0.62499999999996
40
0.62499999999996
40
0.687499999999967
40
0.687499999999967
40
0.749999999999974
40
0.749999999999974
40
0.81249999999998
40
0.81249999999998
40
0.874999999999987
40
0.874999999999987
40
0.937499999999993
40
0.937499999999993
40
1
40
1
40
1
40
1
41
1
10
107.866724707625
20
0.226515013240231
30
0
41
1
10
107.875904443235
20
0.215569322296886
30
0
41
1
10
107.886604323999
20
0.203978525093504
30
0
41
1
10
107.904366178786
20
0.185891230817589
30
0
41
1
10
107.910579255887
20
0.179741368602691
30
0
41
1
10
107.923556675863
20
0.16721262940186
30
0
41
1
10
107.930253335207
20
0.160899563488641
30
0
41
1
10
107.950736646795
20
0.141986960169703
30
0
41
1
10
107.964987471017
20
0.129344814725812
30
0
41
1
10
107.987170878788
20
0.110300151021988
30
0
41
1
10
107.994726678044
20
0.103916669378407
30
0
41
1
10
108.009993874366
20
0.091208396809634
30
0
41
1
10
108.017654064176
20
0.0849254460959799
30
0
41
1
10
108.040701828061
20
0.0662732036443572
30
0
41
1
10
108.056155614835
20
0.0540974270489585
30
0
41
1
10
108.079438499979
20
0.036209266941853
30
0
41
1
10
108.087260032199
20
0.0302778215806256
30
0
41
1
10
108.102661426096
20
0.0187535907132315
30
0
41
1
10
108.110247350671
20
0.013155152185675
30
0
41
1
10
108.12516387206
20
0.002303969536996
30
0
41
1
10
108.132494794699
20
-0.0029490124170195
30
0
41
1
10
108.146856738521
20
-0.0130702386210544
30
0
41
1
10
108.153900063087
20
-0.0179455728452069
30
0
41
1
10
108.167215934186
20
-0.0269648966857972
30
0
41
1
10
108.173540781702
20
-0.0311466755697438
30
0
41
1
10
108.185420458135
20
-0.0387482665642267
30
0
41
1
10
108.190994336713
20
-0.0421776355547934
30
0
41
1
10
108.195959052935
20
-0.0450540430979629
30
0
0
SPLINE
5
1A7
100
AcDbEntity
8
1
62
256
6
ByLayer
370
18
48
1
60
0
100
AcDbSpline
70
4
71
3
72
8
73
4
40
0
40
0
40
0
40
0
40
1
40
1
40
1
40
1
41
1
10
108.744560913296
20
-0.491664970680489
30
0
41
1
10
108.720083253354
20
-0.467105897154823
30
0
41
1
10
108.695622858059
20
-0.442513204809842
30
0
41
1
10
108.671169607183
20
-0.417896883850773
30
0
0
SPLINE
5
1A8
100
AcDbEntity
8
1
62
256
6
ByLayer
370
18
48
1
60
0
100
AcDbSpline
70
4
71
3
72
10
73
6
40
0
40
0
40
0
40
0
40
0.5
40
0.5
40
1
40
1
40
1
40
1
41
1
10
108.744560913296
20
-0.491664970680461
30
0
41
1
10
108.816064604804
20
-0.564665695972678
30
0
41
1
10
108.888156613566
20
-0.631538973195546
30
0
41
1
10
109.033851232322
20
-0.752631622110414
30
0
41
1
10
109.107221253462
20
-0.806655697522388
30
0
41
1
10
109.181359281011
20
-0.853992983591723
30
0
0
SPLINE
5
1A9
100
AcDbEntity
8
1
62
256
6
ByLayer
370
18
48
1
60
0
100
AcDbSpline
70
4
71
3
72
32
73
28
40
0
40
0
40
0
40
0
40
0.124999999999932
40
0.124999999999932
40
0.187499999999899
40
0.187499999999899
40
0.249999999999866
40
0.249999999999866
40
0.374999999999799
40
0.374999999999799
40
0.437499999999765
40
0.437499999999765
40
0.499999999999731
40
0.499999999999731
40
0.624999999999798
40
0.624999999999798
40
0.687499999999832
40
0.687499999999832
40
0.749999999999865
40
0.749999999999865
40
0.812499999999899
40
0.812499999999899
40
0.874999999999933
40
0.874999999999933
40
0.937499999999966
40
0.937499999999966
40
1
40
1
40
1
40
1
41
1
10
109.181359281011
20
-0.853992983591723
30
0
41
1
10
109.190541545889
20
-0.859855878972667
30
0
41
1
10
109.201243317062
20
-0.867044116943163
30
0
41
1
10
109.219006446129
20
-0.879282859612204
30
0
41
1
10
109.225219701814
20
-0.883612577715553
30
0
41
1
10
109.238196959786
20
-0.892744962709543
30
0
41
1
10
109.244892928355
20
-0.897500212097611
30
0
41
1
10
109.265373988174
20
-0.912163290137471
30
0
41
1
10
109.27962244907
20
-0.922511651480761
30
0
41
1
10
109.301802266791
20
-0.938870645099399
30
0
41
1
10
109.30935663887
20
-0.944484031966226
30
0
41
1
10
109.324622311856
20
-0.955925015052657
30
0
41
1
10
109.332281881111
20
-0.961713604638248
30
0
41
1
10
109.355328268465
20
-0.979295713762212
30
0
41
1
10
109.370781807238
20
-0.991301792672004
30
0
41
1
10
109.394065066552
20
-1.00984292481831
30
0
41
1
10
109.401886957566
20
-1.01614860757618
30
0
41
1
10
109.417291329311
20
-1.02874839154492
30
0
41
1
10
109.424878726279
20
-1.03504516383924
30
0
41
1
10
109.43979803702
20
-1.04764070037288
30
0
41
1
10
109.447130273435
20
-1.05393937020437
30
0
41
1
10
109.461494590911
20
-1.06654931594949
30
0
41
1
10
109.468539807918
20
-1.07287523520924
30
0
41
1
10
109.481859063671
20
-1.08516757872943
30
0
41
1
10
109.488185308833
20
-1.09117863309231
30
0
41
1
10
109.500067120568
20
-1.10288606003507
30
0
41
1
10
109.505642189111
20
-1.10860584022177
30
0
41
1
10
109.51060811693
20
-1.11397987531433
30
0
0
SPLINE
5
1AA
100
AcDbEntity
8
1
62
256
6
ByLayer
370
18
48
1
60
0
100
AcDbSpline
70
4
71
3
72
10
73
6
40
0
40
0
40
0
40
0
40
0.5
40
0.5
40
1
40
1
40
1
40
1
41
1
10
109.510608116932
20
-1.11397987531561
30
0
41
1
10
109.582498754066
20
-1.19177859107444
30
0
41
1
10
109.653747890954
20
-1.27459961161034
30
0
41
1
10
109.795346116145
20
-1.44990442805715
30
0
41
1
10
109.865464903075
20
-1.54210449451216
30
0
41
1
10
109.935044100629
20
-1.63863656017949
30
0
0
SPLINE
5
1AB
100
AcDbEntity
8
1
62
256
6
ByLayer
370
18
48
1
60
0
100
AcDbSpline
70
4
71
3
72
8
73
4
40
0
40
0
40
0
40
0
40
1
40
1
40
1
40
1
41
1
10
110.059120385712
20
-1.75176793789544
30
0
41
1
10
110.017775393602
20
-1.71429164208664
30
0
41
1
10
109.976416849052
20
-1.67658057720146
30
0
41
1
10
109.935044100629
20
-1.63863656017938
30
0
0
SPLINE
5
1AC
100
AcDbEntity
8
1
62
256
6
ByLayer
370
18
48
1
60
0
100
AcDbSpline
70
4
71
3
72
10
73
6
40
0
40
0
40
0
40
0
40
0.5
40
0.5
40
1
40
1
40
1
40
1
41
1
10
110.059120385711
20
-1.75176793788992
30
0
41
1
10
110.130746103785
20
-1.78034276727669
30
0
41
1
10
110.202887029635
20
-1.80249204793333
30
0
41
1
10
110.348517214158
20
-1.83355126886684
30
0
41
1
10
110.421800109051
20
-1.84234493676831
30
0
41
1
10
110.495902492193
20
-1.84389257824665
30
0
0
SPLINE
5
1AD
100
AcDbEntity
8
1
62
256
6
ByLayer
370
18
48
1
60
0
100
AcDbSpline
70
4
71
3
72
32
73
28
40
0
40
0
40
0
40
0
40
0.125000000000068
40
0.125000000000068
40
0.187500000000102
40
0.187500000000102
40
0.250000000000137
40
0.250000000000137
40
0.375000000000206
40
0.375000000000206
40
0.43750000000024
40
0.43750000000024
40
0.500000000000274
40
0.500000000000274
40
0.625000000000206
40
0.625000000000206
40
0.687500000000172
40
0.687500000000172
40
0.750000000000137
40
0.750000000000137
40
0.812500000000103
40
0.812500000000103
40
0.875000000000069
40
0.875000000000069
40
0.937500000000034
40
0.937500000000034
40
1
40
1
40
1
40
1
41
1
10
110.495902492193
20
-1.8438925782466
30
0
41
1
10
110.505095431036
20
-1.84408457441268
30
0
41
1
10
110.51580837228
20
-1.84614909993249
30
0
41
1
10
110.533586543056
20
-1.851308908959
30
0
41
1
10
110.539804564551
20
-1.85338287087998
30
0
41
1
10
110.552790600504
20
-1.85819933143105
30
0
41
1
10
110.559488547325
20
-1.86091707399561
30
0
41
1
10
110.579976709667
20
-1.86985088380985
30
0
41
1
10
110.59422785437
20
-1.87686011651277
30
0
41
1
10
110.616408216834
20
-1.88887945366446
30
0
41
1
10
110.623962138146
20
-1.89315506521825
30
0
41
1
10
110.63922606892
20
-1.90217003857808
30
0
41
1
10
110.646884622798
20
-1.90687778466474
30
0
41
1
10
110.669927701896
20
-1.92160752376731
30
0
41
1
10
110.685378755196
20
-1.93222575395447
30
0
41
1
10
110.708657599671
20
-1.94953603657845
30
0
41
1
10
110.716477812333
20
-1.95557466562138
30
0
41
1
10
110.731882359332
20
-1.96796938733891
30
0
41
1
10
110.739470068036
20
-1.97432457064264
30
0
41
1
10
110.754390120113
20
-1.98738466355104
30
0
41
1
10
110.761722685735
20
-1.99408925559365
30
0
41
1
10
110.776087865952
20
-2.00790700675341
30
0
41
1
10
110.783135964451
20
-2.01504235825439
30
0
41
1
10
110.796462578046
20
-2.02936321854125
30
0
41
1
10
110.802792821776
20
-2.03659515776258
30
0
41
1
10
110.814682957329
20
-2.05122331307575
30
0
41
1
10
110.820263561158
20
-2.05865573194183
30
0
41
1
10
110.825235475475
20
-2.06598581735608
30
0
0
SPLINE
5
1AE
100
AcDbEntity
8
1
62
256
6
ByLayer
370
18
48
1
60
0
100
AcDbSpline
70
4
71
3
72
10
73
6
40
0
40
0
40
0
40
0
40
0.5
40
0.5
40
1
40
1
40
1
40
1
41
1
10
110.825235475475
20
-2.06598581735517
30
0
41
1
10
110.897124362445
20
-2.17197148971024
30
0
41
1
10
110.968371761138
20
-2.28145368776404
30
0
41
1
10
111.109978585653
20
-2.50700634486969
30
0
41
1
10
111.180115105384
20
-2.62272107402205
30
0
41
1
10
111.249732107873
20
-2.74112921007875
30
0
0
SPLINE
5
1AF
100
AcDbEntity
8
1
62
256
6
ByLayer
370
18
48
1
60
0
100
AcDbSpline
70
4
71
3
72
8
73
4
40
0
40
0
40
0
40
0
40
1
40
1
40
1
40
1
41
1
10
111.373827119914
20
-2.83142962784203
30
0
41
1
10
111.332451424961
20
-2.8017551933153
30
0
41
1
10
111.291087379325
20
-2.77165414819231
30
0
41
1
10
111.249732107873
20
-2.74112921007873
30
0
0
SPLINE
5
1B0
100
AcDbEntity
8
1
62
256
6
ByLayer
370
18
48
1
60
0
100
AcDbSpline
70
4
71
3
72
10
73
6
40
0
40
0
40
0
40
0
40
0.5
40
0.5
40
1
40
1
40
1
40
1
41
1
10
111.373827119914
20
-2.83142962783194
30
0
41
1
10
111.445397741454
20
-2.8125261729403
30
0
41
1
10
111.517497268699
20
-2.78720491304873
30
0
41
1
10
111.663099014477
20
-2.72359159300706
30
0
41
1
10
111.736383167516
20
-2.68539681577548
30
0
41
1
10
111.810387980895
20
-2.64074031172461
30
0
0
SPLINE
5
1B1
100
AcDbEntity
8
1
62
256
6
ByLayer
370
18
48
1
60
0
100
AcDbSpline
70
4
71
3
72
8
73
4
40
0
40
0
40
0
40
0
40
1
40
1
40
1
40
1
41
1
10
112.426997169719
20
0.91783520722305
30
0
41
1
10
112.422775786986
20
0.921977418099061
30
0
41
1
10
112.418555211358
20
0.926121012303184
30
0
41
1
10
112.414335437025
20
0.930265984417787
30
0
0
SPLINE
5
1B2
100
AcDbEntity
8
1
62
256
6
ByLayer
370
18
48
1
60
0
100
AcDbSpline
70
4
71
3
72
8
73
4
40
0
40
0
40
0
40
0
40
1
40
1
40
1
40
1
41
1
10
112.3009688583
20
1.04114419363802
30
0
41
1
10
112.338752954442
20
1.00429260655628
30
0
41
1
10
112.376540382481
20
0.967331682105396
30
0
41
1
10
112.414335437025
20
0.930265984417787
30
0
0
SPLINE
5
1B3
100
AcDbEntity
8
1
62
256
6
ByLayer
370
18
48
1
60
0
100
AcDbSpline
70
4
71
3
72
8
73
4
40
0
40
0
40
0
40
0
40
1
40
1
40
1
40
1
41
1
10
110.986387768464
20
2.23930671759598
30
0
41
1
10
111.027746754834
20
2.20450980779341
30
0
41
1
10
111.069108428127
20
2.16938721189197
30
0
41
1
10
111.110481883101
20
2.1339478864713
30
0
0
SPLINE
5
1B4
100
AcDbEntity
8
1
62
256
6
ByLayer
370
18
48
1
60
0
100
AcDbSpline
70
4
71
3
72
8
73
4
40
0
40
0
40
0
40
0
40
1
40
1
40
1
40
1
41
1
10
109.671777415558
20
3.20412130204377
30
0
41
1
10
109.713141790954
20
3.17860707704594
30
0
41
1
10
109.75450991148
20
3.15261333783209
30
0
41
1
10
109.795887067785
20
3.12614527587462
30
0
0
SPLINE
5
1B5
100
AcDbEntity
8
1
62
256
6
ByLayer
370
18
48
1
60
0
100
AcDbSpline
70
4
71
3
72
12
73
8
40
0
40
0
40
0
40
0
40
0.5
40
0.5
40
0.75
40
0.75
40
1
40
1
40
1
40
1
41
1
10
108.025580387427
20
-2.24005978785127
30
0
41
1
10
107.96859963446
20
-2.28913739029261
30
0
41
1
10
107.911927240183
20
-2.33455698180867
30
0
41
1
10
107.827277386507
20
-2.39726405276264
30
0
41
1
10
107.799106148953
20
-2.41727074403175
30
0
41
1
10
107.742969713138
20
-2.45542803534738
30
0
41
1
10
107.714996836391
20
-2.47358523181231
30
0
41
1
10
107.687107491465
20
-2.49083811635603
30
0
0
SPLINE
5
1B6
100
AcDbEntity
8
1
62
256
6
ByLayer
370
13
48
1
60
0
100
AcDbSpline
70
4
71
3
72
11
73
7
40
0
40
0
40
0
40
0
40
0.0924400067933288
40
0.448271548573315
40
0.804103090353302
40
1
40
1
40
1
40
1
41
1
10
107.866724707625
20
0.226515013240231
30
0
41
1
10
107.871619580578
20
0.144145771227841
30
0
41
1
10
107.895356409424
20
-0.25628475443952
30
0
41
1
10
107.937935222994
20
-0.973838460199147
30
0
41
1
10
107.9859921566
20
-1.71720929891666
30
0
41
1
10
108.015207264181
20
-2.109779417808
30
0
41
1
10
108.025580387428
20
-2.24005978785132
30
0
0
SPLINE
5
1B7
100
AcDbEntity
8
1
62
256
6
ByLayer
370
18
48
1
60
0
100
AcDbSpline
70
4
71
3
72
12
73
8
40
0
40
0
40
0
40
0
40
0.25
40
0.25
40
0.5
40
0.5
40
1
40
1
40
1
40
1
41
1
10
107.528727013921
20
0.673652825996612
30
0
41
1
10
107.556505931568
20
0.633329091154565
30
0
41
1
10
107.58438157692
20
0.593732387526387
30
0
41
1
10
107.640354011736
20
0.51601437845099
30
0
41
1
10
107.668448120323
20
0.477897883677741
30
0
41
1
10
107.752943440774
20
0.366007948778901
30
0
41
1
10
107.809609661141
20
0.29461758978195
30
0
41
1
10
107.866724707625
20
0.226515013240231
30
0
0
SPLINE
5
1B8
100
AcDbEntity
8
1
62
256
6
ByLayer
370
18
48
1
60
0
100
AcDbSpline
70
4
71
3
72
27
73
23
40
0
40
0
40
0
40
0
40
0.125000000000001
40
0.250000000000003
40
0.250000000000003
40
0.281250000000003
40
0.281250000000003
40
0.312500000000002
40
0.312500000000002
40
0.375000000000003
40
0.375000000000003
40
0.500000000000003
40
0.625000000000003
40
0.625000000000003
40
0.656250000000003
40
0.656250000000003
40
0.687500000000003
40
0.687500000000003
40
0.750000000000002
40
0.750000000000002
40
0.875000000000001
40
1
40
1
40
1
40
1
41
1
10
107.180210716241
20
0.982966155577628
30
0
41
1
10
107.188012765479
20
0.848853448833523
30
0
41
1
10
107.203598265448
20
0.577817311726278
30
0
41
1
10
107.219152948195
20
0.301203888352035
30
0
41
1
10
107.228936258592
20
0.126535160067846
30
0
41
1
10
107.230896288173
20
0.0915119197981369
30
0
41
1
10
107.234826049131
20
0.0212844453816672
30
0
41
1
10
107.236790630115
20
-0.0138276329006146
30
0
41
1
10
107.242671343536
20
-0.118854303691648
30
0
41
1
10
107.24658414199
20
-0.188586720090456
30
0
41
1
10
107.258303700111
20
-0.396943977558379
30
0
41
1
10
107.273861932379
20
-0.672519024993477
30
0
41
1
10
107.289347813724
20
-0.943675144643379
30
0
41
1
10
107.299095676552
20
-1.11173150327176
30
0
41
1
10
107.301049001307
20
-1.14527175933202
30
0
41
1
10
107.304966658851
20
-1.21220851278119
30
0
41
1
10
107.306934245013
20
-1.24565501552448
30
0
41
1
10
107.312822804935
20
-1.34524623038592
30
0
41
1
10
107.316733713752
20
-1.41072411530149
30
0
41
1
10
107.328422944129
20
-1.60447065364011
30
0
41
1
10
107.343885863778
20
-1.85564893688658
30
0
41
1
10
107.359271064222
20
-2.09279444515548
30
0
41
1
10
107.367035818514
20
-2.20780542611448
30
0
0
SPLINE
5
1B9
100
AcDbEntity
8
1
62
256
6
ByLayer
370
18
48
1
60
0
100
AcDbSpline
70
4
71
3
72
8
73
4
40
0
40
0
40
0
40
0
40
1
40
1
40
1
40
1
41
1
10
107.68710749146
20
-2.49083811637192
30
0
41
1
10
107.580686797566
20
-2.39863934670359
30
0
41
1
10
107.474074118163
20
-2.30423539057833
30
0
41
1
10
107.367035818502
20
-2.20780542611425
30
0
0
SPLINE
5
1BA
100
AcDbEntity
8
1
62
256
6
ByLayer
370
18
48
1
60
0
100
AcDbSpline
70
4
71
3
72
27
73
23
40
0
40
0
40
0
40
0
40
0.125000000000001
40
0.250000000000002
40
0.250000000000002
40
0.281250000000002
40
0.281250000000002
40
0.312500000000002
40
0.312500000000002
40
0.375000000000002
40
0.375000000000002
40
0.500000000000003
40
0.500000000000003
40
0.625000000000004
40
0.625000000000004
40
0.687500000000004
40
0.687500000000004
40
0.750000000000003
40
0.750000000000003
40
0.875000000000002
40
0.875000000000002
40
1
40
1
40
1
40
1
41
1
10
107.687107491452
20
-2.49083811636908
30
0
41
1
10
107.680536584887
20
-2.38177655041091
30
0
41
1
10
107.667479305923
20
-2.15521293203315
30
0
41
1
10
107.654294016927
20
-1.91193401153026
30
0
41
1
10
107.64601365777
20
-1.75453435290081
30
0
41
1
10
107.644355365496
20
-1.72278615642088
30
0
41
1
10
107.641033348866
20
-1.6587469674204
30
0
41
1
10
107.639367657493
20
-1.62641707199154
30
0
41
1
10
107.634388983067
20
-1.52916498681733
30
0
41
1
10
107.631087043783
20
-1.4638378564396
30
0
41
1
10
107.621209198297
20
-1.26641002011314
30
0
41
1
10
107.614653923396
20
-1.13286700127213
30
0
41
1
10
107.601486330314
20
-0.861992483736572
30
0
41
1
10
107.594892719722
20
-0.724660861442487
30
0
41
1
10
107.584964333942
20
-0.515767411652746
30
0
41
1
10
107.581647803786
20
-0.445652571472124
30
0
41
1
10
107.574987193245
20
-0.304433302877783
30
0
41
1
10
107.571668623078
20
-0.233870850539915
30
0
41
1
10
107.56174139508
20
-0.0227899912684109
30
0
41
1
10
107.555136761429
20
0.117328283107298
30
0
41
1
10
107.541933729482
20
0.396382358407522
30
0
41
1
10
107.5353425723
20
0.535318564797194
30
0
41
1
10
107.528727013921
20
0.673652825996697
30
0
0
SPLINE
5
1BB
100
AcDbEntity
8
1
62
256
6
ByLayer
370
18
48
1
60
0
100
AcDbSpline
70
4
71
3
72
8
73
4
40
0
40
0
40
0
40
0
40
1
40
1
40
1
40
1
41
1
10
107.180210716233
20
0.982966155576975
30
0
41
1
10
107.297082299608
20
0.881365251695144
30
0
41
1
10
107.413197378015
20
0.778198792896745
30
0
41
1
10
107.528727013921
20
0.673652825996669
30
0
0
SPLINE
5
1BC
100
AcDbEntity
8
1
62
256
6
ByLayer
370
18
48
1
60
0
100
AcDbSpline
70
4
71
3
72
10
73
6
40
0
40
0
40
0
40
0
40
0.5
40
0.5
40
1
40
1
40
1
40
1
41
1
10
108.195959052935
20
-0.0450540430965987
30
0
41
1
10
108.267096153229
20
-0.0862687435372891
30
0
41
1
10
108.337592546852
20
-0.133444540423341
30
0
41
1
10
108.477668371497
20
-0.239495788755477
30
0
41
1
10
108.54701356641
20
-0.298246508641711
30
0
41
1
10
108.615799544458
20
-0.362459420951808
30
0
0
SPLINE
5
1BD
100
AcDbEntity
8
1
62
256
6
ByLayer
370
13
48
1
60
0
100
AcDbSpline
70
4
71
3
72
10
73
6
40
0
40
0
40
0
40
0
40
0.340471966430832
40
0.696325775664376
40
1
40
1
40
1
40
1
41
1
10
108.195959052935
20
-0.0450540430965987
30
0
41
1
10
108.213986556227
20
-0.349097234348761
30
0
41
1
10
108.2508560127
20
-0.969833970769372
30
0
41
1
10
108.303804578655
20
-1.79080000227478
30
0
41
1
10
108.338725641139
20
-2.24814751769551
30
0
41
1
10
108.354804756081
20
-2.43481633636733
30
0
0
SPLINE
5
1BE
100
AcDbEntity
8
1
62
256
6
ByLayer
370
18
48
1
60
0
100
AcDbSpline
70
4
71
3
72
12
73
8
40
0
40
0
40
0
40
0
40
0.25
40
0.25
40
0.500000000000001
40
0.500000000000001
40
1
40
1
40
1
40
1
41
1
10
108.795234669522
20
-3.34963712019808
30
0
41
1
10
108.759133995646
20
-3.27339883374376
30
0
41
1
10
108.722910807769
20
-3.19709636596238
30
0
41
1
10
108.65012125746
20
-3.04439701756701
30
0
41
1
10
108.613538184178
20
-2.96796386058094
30
0
41
1
10
108.503374337858
20
-2.73890273335599
30
0
41
1
10
108.42936747785
20
-2.5864298858148
30
0
41
1
10
108.354804756082
20
-2.43481633637245
30
0
0
SPLINE
5
1BF
100
AcDbEntity
8
1
62
256
6
ByLayer
370
18
48
1
60
0
100
AcDbSpline
70
4
71
3
72
24
73
20
40
0
40
0
40
0
40
0
40
0.249999999999998
40
0.249999999999998
40
0.281249999999998
40
0.281249999999998
40
0.312499999999998
40
0.312499999999998
40
0.374999999999999
40
0.374999999999999
40
0.499999999999999
40
0.499999999999999
40
0.75
40
0.75
40
0.8125
40
0.8125
40
0.875
40
0.875
40
1
40
1
40
1
40
1
41
1
10
108.671169607182
20
-1.37538705521533
30
0
41
1
10
108.68147819816
20
-1.57312285473247
30
0
41
1
10
108.691748703098
20
-1.76514216821536
30
0
41
1
10
108.703406351992
20
-1.97453632662709
30
0
41
1
10
108.70470340284
20
-1.99770972287902
30
0
41
1
10
108.707302093057
20
-2.04386957965301
30
0
41
1
10
108.708604690561
20
-2.06687258665354
30
0
41
1
10
108.712504506587
20
-2.13530721525652
30
0
41
1
10
108.715099060711
20
-2.18025069100699
30
0
41
1
10
108.722876683773
20
-2.31307505870546
30
0
41
1
10
108.728048763214
20
-2.39895315704899
30
0
41
1
10
108.743521782046
20
-2.64872242485473
30
0
41
1
10
108.753764777774
20
-2.80479612785865
30
0
41
1
10
108.766680906215
20
-2.98660988317027
30
0
41
1
10
108.769270932547
20
-3.02230492160982
30
0
41
1
10
108.774474382405
20
-3.09233812571088
30
0
41
1
10
108.777089784512
20
-3.12670172413212
30
0
41
1
10
108.784899314779
20
-3.22685132755052
30
0
41
1
10
108.790078031431
20
-3.29000573716789
30
0
41
1
10
108.795234669522
20
-3.34963712019811
30
0
0
SPLINE
5
1C0
100
AcDbEntity
8
1
62
256
6
ByLayer
370
18
48
1
60
0
100
AcDbSpline
70
4
71
3
72
14
73
10
40
0
40
0
40
0
40
0
40
0.500000000000002
40
0.500000000000002
40
0.750000000000002
40
0.750000000000002
40
0.875000000000001
40
0.875000000000001
40
1
40
1
40
1
40
1
41
1
10
108.615799544458
20
-0.362459420951836
30
0
41
1
10
108.625023646209
20
-0.534392251185466
30
0
41
1
10
108.634188459498
20
-0.704841313686188
30
0
41
1
10
108.647976853494
20
-0.958276342177868
30
0
41
1
10
108.652581560838
20
-1.04238042195266
30
0
41
1
10
108.65953397373
20
-1.16796258175933
30
0
41
1
10
108.661859875977
20
-1.20974053192472
30
0
41
1
10
108.66652311816
20
-1.29304903246617
30
0
41
1
10
108.668849175629
20
-1.33437821023651
30
0
41
1
10
108.671169607182
20
-1.37538705521533
30
0
0
SPLINE
5
1C1
100
AcDbEntity
8
1
62
256
6
ByLayer
370
18
48
1
60
0
100
AcDbSpline
70
4
71
3
72
8
73
4
40
0
40
0
40
0
40
0
40
1
40
1
40
1
40
1
41
1
10
108.615799544458
20
-0.36245942095178
30
0
41
1
10
108.634259451233
20
-0.380913415077003
30
0
41
1
10
108.652714204866
20
-0.399394635190021
30
0
41
1
10
108.671169607183
20
-0.417896883850773
30
0
0
SPLINE
5
1C2
100
AcDbEntity
8
SK1
62
256
6
ByLayer
370
18
48
1
60
0
100
AcDbSpline
70
4
71
3
72
25
73
21
40
0
40
0
40
0
40
0
40
0.062508201800704
40
0.062508201800704
40
0.125016403601408
40
0.125016403601408
40
0.250032807202817
40
0.250032807202817
40
0.500065614405634
40
0.500065614405634
40
0.625082018007042
40
0.625082018007042
40
0.687590219807746
40
0.718844320708099
40
0.718844320708099
40
0.750098421608451
40
0.750098421608451
40
0.87511482520986
40
0.87511482520986
40
1
40
1
40
1
40
1
41
1
10
-22.8
20
3.09999999999997
30
0
41
1
10
-22.8255580387326
20
3.09999999999997
30
0
41
1
10
-22.8507859698115
20
3.09999999999997
30
0
41
1
10
-22.900515272324
20
3.09999999999997
30
0
41
1
10
-22.9250377452358
20
3.09999999999997
30
0
41
1
10
-22.9972279312134
20
3.09999999999997
30
0
41
1
10
-23.0434983576829
20
3.09999999999997
30
0
41
1
10
-23.1757222997548
20
3.09999999999997
30
0
41
1
10
-23.2551635800205
20
3.09999999999997
30
0
41
1
10
-23.3559652856179
20
3.09999999999997
30
0
41
1
10
-23.386487399267
20
3.09999999999997
30
0
41
1
10
-23.4268208094404
20
3.09999999999997
30
0
41
1
10
-23.4456232733698
20
3.09999999999997
30
0
41
1
10
-23.4622079504984
20
3.09999999999997
30
0
41
1
10
-23.4727515433793
20
3.09999999999997
30
0
41
1
10
-23.4777720281785
20
3.09999999999997
30
0
41
1
10
-23.5014388703221
20
3.09999999999997
30
0
41
1
10
-23.5158360601473
20
3.09999999999997
30
0
41
1
10
-23.5351008117065
20
3.09999999999994
30
0
41
1
10
-23.5399770627535
20
3.09999999999997
30
0
41
1
10
-23.540000000001
20
3.09999999999997
30
0
0
SPLINE
5
1C3
100
AcDbEntity
8
SK1
62
256
6
ByLayer
370
18
48
1
60
0
100
AcDbSpline
70
4
71
3
72
25
73
21
40
0
40
0
40
0
40
0
40
0.124885193843347
40
0.124885193843347
40
0.249901594722869
40
0.249901594722869
40
0.28115569494275
40
0.28115569494275
40
0.31240979516263
40
0.374917995602391
40
0.374917995602391
40
0.499934396481913
40
0.499934396481913
40
0.749967198240956
40
0.749967198240956
40
0.874983599120478
40
0.874983599120478
40
0.937491799560239
40
0.937491799560239
40
1
40
1
40
1
40
1
41
1
10
-23.540000000013
20
-3.10000000000002
30
0
41
1
10
-23.5399770644537
20
-3.10000000000002
30
0
41
1
10
-23.5351008133849
20
-3.10000000000002
30
0
41
1
10
-23.5158360601473
20
-3.10000000000002
30
0
41
1
10
-23.501438870322
20
-3.10000000000002
30
0
41
1
10
-23.4777720281785
20
-3.10000000000002
30
0
41
1
10
-23.4727515433793
20
-3.10000000000002
30
0
41
1
10
-23.4622079504984
20
-3.10000000000002
30
0
41
1
10
-23.4456232733698
20
-3.10000000000002
30
0
41
1
10
-23.4268208094403
20
-3.10000000000002
30
0
41
1
10
-23.3864873992669
20
-3.10000000000002
30
0
41
1
10
-23.3559652856179
20
-3.10000000000002
30
0
41
1
10
-23.2551635800205
20
-3.10000000000002
30
0
41
1
10
-23.1757222997547
20
-3.10000000000002
30
0
41
1
10
-23.0434983576829
20
-3.10000000000002
30
0
41
1
10
-22.9972279312133
20
-3.10000000000002
30
0
41
1
10
-22.9250377452358
20
-3.10000000000002
30
0
41
1
10
-22.9005152723239
20
-3.10000000000002
30
0
41
1
10
-22.8507859698115
20
-3.10000000000002
30
0
41
1
10
-22.8255580387326
20
-3.10000000000002
30
0
41
1
10
-22.8
20
-3.10000000000002
30
0
0
SPLINE
5
1C4
100
AcDbEntity
8
SK1
62
256
6
ByLayer
370
18
48
1
60
0
100
AcDbSpline
70
4
71
3
72
42
73
38
40
0
40
0
40
0
40
0
40
0.0625
40
0.0625
40
0.09375
40
0.09375
40
0.125
40
0.125
40
0.25
40
0.25
40
0.375
40
0.375
40
0.390625
40
0.390625
40
0.40625
40
0.40625
40
0.4375
40
0.4375
40
0.5
40
0.5625
40
0.5625
40
0.625
40
0.625
40
0.640625
40
0.640625
40
0.65625
40
0.6875
40
0.6875
40
0.75
40
0.75
40
0.875
40
0.875
40
0.9375
40
0.9375
40
0.96875
40
0.96875
40
1
40
1
40
1
40
1
41
1
10
-22.8
20
-2.26618622359246
30
0
41
1
10
-22.8508894316494
20
-2.17995526185629
30
0
41
1
10
-22.9004658050821
20
-2.09275503916427
30
0
41
1
10
-22.9724426999165
20
-1.96019220081689
30
0
41
1
10
-22.996036028223
20
-1.91571008013594
30
0
41
1
10
-23.0423408985636
20
-1.82609493008272
30
0
41
1
10
-23.0650757832331
20
-1.78091234802616
30
0
41
1
10
-23.1758387500034
20
-1.55417609606832
30
0
41
1
10
-23.2554566958293
20
-1.36974721051177
30
0
41
1
10
-23.3897816515624
20
-0.992468314566707
30
0
41
1
10
-23.444474755522
20
-0.799613603282126
30
0
41
1
10
-23.486994699949
20
-0.57622580404788
30
0
41
1
10
-23.4914541484178
20
-0.551315357845539
30
0
41
1
10
-23.4998243597224
20
-0.501308982638278
30
0
41
1
10
-23.5037398055586
20
-0.476178764178911
30
0
41
1
10
-23.5145929273497
20
-0.40080194939722
30
0
41
1
10
-23.5206393479445
20
-0.350580412204323
30
0
41
1
10
-23.5351619313951
20
-0.200006058842433
30
0
41
1
10
-23.5448636827396
20
0.0005186273750724
30
0
41
1
10
-23.535110928051
20
0.200557804829629
30
0
41
1
10
-23.5158360601473
20
0.400359347393845
30
0
41
1
10
-23.5014388703221
20
0.500141333692056
30
0
41
1
10
-23.4777720281785
20
0.62472730657376
30
0
41
1
10
-23.4727515433793
20
0.649653694457953
30
0
41
1
10
-23.4622079504984
20
0.69924920209607
30
0
41
1
10
-23.4456232733698
20
0.773343264923909
30
0
41
1
10
-23.4268208094403
20
0.846574765308077
30
0
41
1
10
-23.386487399267
20
0.991976579143682
30
0
41
1
10
-23.3559652856179
20
1.08749807377382
30
0
41
1
10
-23.2551635800205
20
1.37047065302403
30
0
41
1
10
-23.1757222997547
20
1.55435848789429
30
0
41
1
10
-23.0434983576829
20
1.82511003621912
30
0
41
1
10
-22.9972279312134
20
1.91450654932038
30
0
41
1
10
-22.9250377452358
20
2.04751832711881
30
0
41
1
10
-22.9005152723239
20
2.09166174892783
30
0
41
1
10
-22.8507859698115
20
2.17932232815221
30
0
41
1
10
-22.8255580387326
20
2.22287871968496
30
0
41
1
10
-22.8
20
2.26618622359243
30
0
0
SPLINE
5
1C5
100
AcDbEntity
8
1
62
256
6
ByLayer
370
18
48
1
60
0
100
AcDbSpline
70
4
71
1
72
4
73
2
40
0
40
0
40
1
40
1
41
1
10
113.716349453722
20
-3.70914306423637
30
0
41
1
10
114.338627861238
20
-3.54580861689615
30
0
0
SPLINE
5
1C6
100
AcDbEntity
8
1
62
256
6
ByLayer
370
18
48
1
60
0
100
AcDbSpline
70
4
71
2
72
6
73
3
40
0
40
0
40
0
40
1
40
1
40
1
41
1
10
104.734384198046
20
-3.33626122702421
30
0
41
1
10
104.781574088709
20
-3.41749002219561
30
0
41
1
10
104.828748277789
20
-3.49875906093069
30
0
0
SPLINE
5
1C7
100
AcDbEntity
8
1
62
256
6
ByLayer
370
18
48
1
60
0
100
AcDbSpline
70
4
71
2
72
6
73
3
40
0
40
0
40
0
40
1
40
1
40
1
41
1
10
111.604525963601
20
-3.95537169271768
30
0
41
1
10
111.783539896693
20
-3.64664706550107
30
0
41
1
10
111.962943154764
20
-3.33816267562395
30
0
0
SPLINE
5
1C8
100
AcDbEntity
8
1
62
256
6
ByLayer
370
18
48
1
60
0
100
AcDbSpline
70
4
71
2
72
6
73
3
40
0
40
0
40
0
40
1
40
1
40
1
41
1
10
106.878859490458
20
3.80072989073702
30
0
41
1
10
106.807110668055
20
3.67692248886505
30
0
41
1
10
106.735261734819
20
3.55316433453953
30
0
0
SPLINE
5
1C9
100
AcDbEntity
8
1
62
256
6
ByLayer
370
18
48
1
60
0
100
AcDbSpline
70
4
71
2
72
6
73
3
40
0
40
0
40
0
40
1
40
1
40
1
41
1
10
114.559323730904
20
-3.27092420887882
30
0
41
1
10
114.575414111739
20
-3.27107050559275
30
0
41
1
10
114.59400705925
20
-3.27447992983412
30
0
0
SPLINE
5
1CA
100
AcDbEntity
8
1
62
256
6
ByLayer
370
18
48
1
60
0
100
AcDbSpline
70
4
71
1
72
4
73
2
40
0
40
0
40
1
40
1
41
1
10
116
20
2.94052560695684
30
0
41
1
10
115.798351707774
20
3.14214851077884
30
0
0
SPLINE
5
1CB
100
AcDbEntity
8
1
62
256
6
ByLayer
370
18
48
1
60
0
100
AcDbSpline
70
4
71
2
72
6
73
3
40
0
40
0
40
0
40
1
40
1
40
1
41
1
10
114.354778243416
20
-3.52323991557276
30
0
41
1
10
114.410789587316
20
-3.42698085474205
30
0
41
1
10
114.466813403014
20
-3.3307923066792
30
0
0
SPLINE
5
1CC
100
AcDbEntity
8
1
62
256
6
ByLayer
370
18
48
1
60
0
100
AcDbSpline
70
4
71
2
72
6
73
3
40
0
40
0
40
0
40
1
40
1
40
1
41
1
10
105.715290558912
20
-3.33387083983158
30
0
41
1
10
105.776491015702
20
-3.23540138258943
30
0
41
1
10
105.875831226657
20
-3.28192249262116
30
0
0
SPLINE
5
1CD
100
AcDbEntity
8
1
62
256
6
ByLayer
370
18
48
1
60
0
100
AcDbSpline
70
4
71
2
72
6
73
3
40
0
40
0
40
0
40
1
40
1
40
1
41
1
10
105.543680877749
20
-3.62929580589224
30
0
41
1
10
105.627441391789
20
-3.48505681735898
30
0
41
1
10
105.71125183115
20
-3.34090553869513
30
0
0
SPLINE
5
1CE
100
AcDbEntity
8
1
62
256
6
ByLayer
370
18
48
1
60
0
100
AcDbSpline
70
4
71
3
72
11
73
7
40
0
40
0
40
0
40
0
40
0.242478283924354
40
0.499363465195193
40
0.756622145965578
40
1
40
1
40
1
40
1
41
1
10
107.863076384084
20
3.34238484361853
30
0
41
1
10
107.850152601257
20
3.31894293873211
30
0
41
1
10
107.814733193514
20
3.28278229220442
30
0
41
1
10
107.719357617883
20
3.25363528519961
30
0
41
1
10
107.624079576482
20
3.28779921598337
30
0
41
1
10
107.588691560983
20
3.32748502770534
30
0
41
1
10
107.575804549109
20
3.35271847048983
30
0
0
SPLINE
5
1CF
100
AcDbEntity
8
1
62
256
6
ByLayer
370
18
48
1
60
0
100
AcDbSpline
70
4
71
2
72
6
73
3
40
0
40
0
40
0
40
1
40
1
40
1
41
1
10
113.490293734329
20
-3.34556271927619
30
0
41
1
10
113.592736772572
20
-3.52215459166393
30
0
41
1
10
113.69514643921
20
-3.6988409495552
30
0
0
SPLINE
5
1D0
100
AcDbEntity
8
1
62
256
6
ByLayer
370
18
48
1
60
0
100
AcDbSpline
70
4
71
3
72
11
73
7
40
0
40
0
40
0
40
0
40
0.26677934368148
40
0.526758363696768
40
0.771994245839656
40
1
40
1
40
1
40
1
41
1
10
113.212972649386
20
-3.33822524036961
30
0
41
1
10
113.227323735383
20
-3.31339795436375
30
0
41
1
10
113.264787313892
20
-3.27837317778534
30
0
41
1
10
113.367566761121
20
-3.25625096362475
30
0
41
1
10
113.449630451224
20
-3.29298322427158
30
0
41
1
10
113.476081409497
20
-3.31962802364626
30
0
41
1
10
113.484026241552
20
-3.33568039800926
30
0
0
SPLINE
5
1D1
100
AcDbEntity
8
1
62
256
6
ByLayer
370
18
48
1
60
0
100
AcDbSpline
70
4
71
2
72
6
73
3
40
0
40
0
40
0
40
1
40
1
40
1
41
1
10
108.247437547777
20
4.00535462426996
30
0
41
1
10
108.054148945568
20
3.67171475008274
30
0
41
1
10
107.860516817221
20
3.33827700389432
30
0
0
SPLINE
5
1D2
100
AcDbEntity
8
1
62
256
6
ByLayer
370
18
48
1
60
0
100
AcDbSpline
70
4
71
3
72
10
73
6
40
0
40
0
40
0
40
0
40
0.274903493445347
40
0.537983518015139
40
1
40
1
40
1
40
1
41
1
10
104.463004586401
20
-3.33802022883128
30
0
41
1
10
104.47860009275
20
-3.31175764531224
30
0
41
1
10
104.517136466394
20
-3.27441915350897
30
0
41
1
10
104.657523370911
20
-3.25743318440132
30
0
41
1
10
104.708682336683
20
-3.29252455283779
30
0
41
1
10
104.733457960775
20
-3.33454442414498
30
0
0
SPLINE
5
1D3
100
AcDbEntity
8
1
62
256
6
ByLayer
370
18
48
1
60
0
100
AcDbSpline
70
4
71
2
72
6
73
3
40
0
40
0
40
0
40
1
40
1
40
1
41
1
10
104.39678094807
20
-3.45178210281418
30
0
41
1
10
104.430886492994
20
-3.39308584093664
30
0
41
1
10
104.465017860546
20
-3.33438454385043
30
0
0
SPLINE
5
1D4
100
AcDbEntity
8
1
62
256
6
ByLayer
370
18
48
1
60
0
100
AcDbSpline
70
4
71
2
72
6
73
3
40
0
40
0
40
0
40
1
40
1
40
1
41
1
10
108.840409059171
20
3.33368194123599
30
0
41
1
10
108.638427807588
20
3.68112381909518
30
0
41
1
10
108.437281619711
20
4.02812313141987
30
0
0
SPLINE
5
1D5
100
AcDbEntity
8
1
62
256
6
ByLayer
370
18
48
1
60
0
100
AcDbSpline
70
4
71
3
72
10
73
6
40
0
40
0
40
0
40
0
40
0.46564627847089
40
0.727689832099194
40
1
40
1
40
1
40
1
41
1
10
109.107857530694
20
3.3334062417012
30
0
41
1
10
109.083776858922
20
3.29180614791798
30
0
41
1
10
109.033220601148
20
3.25758516760308
30
0
41
1
10
108.892402659022
20
3.27425035305345
30
0
41
1
10
108.85376035383
20
3.31174908425777
30
0
41
1
10
108.838054141969
20
3.33797663490989
30
0
0
SPLINE
5
1D6
100
AcDbEntity
8
1
62
256
6
ByLayer
370
18
48
1
60
0
100
AcDbSpline
70
4
71
2
72
6
73
3
40
0
40
0
40
0
40
1
40
1
40
1
41
1
10
112.873060911653
20
-3.9235086052349
30
0
41
1
10
113.042853294908
20
-3.6307785573315
30
0
41
1
10
113.212952800686
20
-3.33825935201489
30
0
0
SPLINE
5
1D7
100
AcDbEntity
8
1
62
256
6
ByLayer
370
18
48
1
60
0
100
AcDbSpline
70
4
71
2
72
6
73
3
40
0
40
0
40
0
40
1
40
1
40
1
41
1
10
112.235453849801
20
-3.33812153153738
30
0
41
1
10
112.423218387419
20
-3.661422535811
30
0
41
1
10
112.610652124613
20
-3.98491760396351
30
0
0
SPLINE
5
1D8
100
AcDbEntity
8
1
62
256
6
ByLayer
370
18
48
1
60
0
100
AcDbSpline
70
4
71
1
72
4
73
2
40
0
40
0
40
1
40
1
41
1
10
112.63030713905
20
-3.99425843367041
30
0
41
1
10
112.863736000689
20
-3.93298560705014
30
0
0
SPLINE
5
1D9
100
AcDbEntity
8
1
62
256
6
ByLayer
370
18
48
1
60
0
100
AcDbSpline
70
4
71
3
72
11
73
7
40
0
40
0
40
0
40
0
40
0.244965304151882
40
0.500618492911149
40
0.755896729850171
40
1
40
1
40
1
40
1
41
1
10
111.95443391078
20
-3.34973152320379
30
0
41
1
10
111.966718128835
20
-3.3255756006819
30
0
41
1
10
112.001034525211
20
-3.28793972119652
30
0
41
1
10
112.095683457783
20
-3.25421829507806
30
0
41
1
10
112.190440673489
20
-3.28356373474912
30
0
41
1
10
112.224782035069
20
-3.3182060267379
30
0
41
1
10
112.237100275956
20
-3.34084129350984
30
0
0
SPLINE
5
1DA
100
AcDbEntity
8
1
62
256
6
ByLayer
370
18
48
1
60
0
100
AcDbSpline
70
4
71
3
72
11
73
7
40
0
40
0
40
0
40
0
40
0.25108012099741
40
0.509524246721252
40
0.762437437735387
40
1
40
1
40
1
40
1
41
1
10
103.237074249273
20
-3.30376112590062
30
0
41
1
10
103.256125721039
20
-3.28802859288015
30
0
41
1
10
103.297104301798
20
-3.2657209624642
30
0
41
1
10
103.372844848439
20
-3.25957737797248
30
0
41
1
10
103.439823531807
20
-3.2861696300032
30
0
41
1
10
103.469384355726
20
-3.31434183867211
30
0
41
1
10
103.481116167832
20
-3.33128781800147
30
0
0
SPLINE
5
1DB
100
AcDbEntity
8
1
62
256
6
ByLayer
370
18
48
1
60
0
100
AcDbSpline
70
4
71
2
72
6
73
3
40
0
40
0
40
0
40
1
40
1
40
1
41
1
10
110.242283764666
20
3.27993060741807
30
0
41
1
10
110.144188313404
20
3.2393916668934
30
0
41
1
10
110.093218680268
20
3.32796283384363
30
0
0
SPLINE
5
1DC
100
AcDbEntity
8
1
62
256
6
ByLayer
370
18
48
1
60
0
100
AcDbSpline
70
4
71
2
72
6
73
3
40
0
40
0
40
0
40
1
40
1
40
1
41
1
10
109.527385594788
20
4.0567996385376
30
0
41
1
10
109.320716489812
20
3.69999180745049
30
0
41
1
10
109.113908546204
20
3.34358217346255
30
0
0
SPLINE
5
1DD
100
AcDbEntity
8
1
62
256
6
ByLayer
370
18
48
1
60
0
100
AcDbSpline
70
4
71
2
72
6
73
3
40
0
40
0
40
0
40
1
40
1
40
1
41
1
10
110.085286945236
20
3.34246279974278
30
0
41
1
10
109.87759929535
20
3.69976116897823
30
0
41
1
10
109.670240285146
20
4.05735445181992
30
0
0
SPLINE
5
1DE
100
AcDbEntity
8
1
62
256
6
ByLayer
370
18
48
1
60
0
100
AcDbSpline
70
4
71
2
72
6
73
3
40
0
40
0
40
0
40
1
40
1
40
1
41
1
10
110.978742363795
20
-3.32468451569815
30
0
41
1
10
111.185346437269
20
-3.67933494151095
30
0
41
1
10
111.391849003622
20
-4.0348106037118
30
0
0
LINE
5
7F
100
AcDbEntity
8
80
62
256
6
ByLayer
370
18
48
1
60
0
100
AcDbLine
10
0
20
0
30
0
11
-5
21
0
31
0
39
0
210
0
220
0
230
1
0
LINE
5
80
100
AcDbEntity
8
4
62
256
6
ByLayer
370
18
48
0.05
60
0
100
AcDbLine
10
0
20
0
30
0
11
117.55
21
0
31
0
39
0
210
0
220
0
230
1
0
LINE
5
82
100
AcDbEntity
8
81
62
256
6
ByLayer
370
18
48
1
60
0
100
AcDbLine
10
117.55
20
0
30
0
11
122.55
21
0
31
0
39
0
210
0
220
0
230
1
0
LINE
5
83
100
AcDbEntity
8
SK4
62
256
6
ByLayer
370
18
48
0.05
60
0
100
AcDbLine
10
-24
20
0
30
0
11
117.55
21
0
31
0
39
0
210
0
220
0
230
1
0
LINE
5
85
100
AcDbEntity
8
1
62
256
6
ByLayer
370
18
48
1
60
0
100
AcDbLine
10
0
20
4
30
0
11
0
21
-4
31
0
39
0
210
0
220
0
230
1
0
LINE
5
86
100
AcDbEntity
8
1
62
256
6
ByLayer
370
18
48
1
60
0
100
AcDbLine
10
116
20
2.940525
30
0
11
116
21
2.938167
31
0
39
0
210
0
220
0
230
1
0
LINE
5
87
100
AcDbEntity
8
1
62
256
6
ByLayer
370
18
48
1
60
0
100
AcDbLine
10
105.711148
20
-3.341069
30
0
11
105.714663
21
-3.335054
31
0
39
0
210
0
220
0
230
1
0
LINE
5
88
100
AcDbEntity
8
1
62
256
6
ByLayer
370
18
48
1
60
0
100
AcDbLine
10
113.490426
20
-3.345735
30
0
11
113.485345
21
-3.338035
31
0
39
0
210
0
220
0
230
1
0
LINE
5
89
100
AcDbEntity
8
1
62
256
6
ByLayer
370
18
48
1
60
0
100
AcDbLine
10
107.860554
20
3.338341
30
0
11
107.863485
21
3.34299
31
0
39
0
210
0
220
0
230
1
0
LINE
5
8A
100
AcDbEntity
8
1
62
256
6
ByLayer
370
18
48
1
60
0
100
AcDbLine
10
104.462095
20
-3.339551
30
0
11
104.464896
21
-3.334614
31
0
39
0
210
0
220
0
230
1
0
LINE
5
8B
100
AcDbEntity
8
1
62
256
6
ByLayer
370
18
48
1
60
0
100
AcDbLine
10
108.836998
20
3.33975
30
0
11
108.840292
21
3.333906
31
0
39
0
210
0
220
0
230
1
0
LINE
5
8C
100
AcDbEntity
8
1
62
256
6
ByLayer
370
18
48
1
60
0
100
AcDbLine
10
112.23547
20
-3.338149
30
0
11
112.237845
21
-3.341997
31
0
39
0
210
0
220
0
230
1
0
LINE
5
8D
100
AcDbEntity
8
1
62
256
6
ByLayer
370
18
48
1
60
0
100
AcDbLine
10
103
20
-3.267148
30
0
11
103
21
-2.40951
31
0
39
0
210
0
220
0
230
1
0
LINE
5
8E
100
AcDbEntity
8
1
62
256
6
ByLayer
370
18
48
1
60
0
100
AcDbLine
10
103
20
3.115653
30
0
11
103
21
1.621467
31
0
39
0
210
0
220
0
230
1
0
LINE
5
8F
100
AcDbEntity
8
1
62
256
6
ByLayer
370
13
48
1
60
0
100
AcDbLine
10
102.769284
20
-2.197224
30
0
11
102.769284
21
-3.122124
31
0
39
0
210
0
220
0
230
1
0
LINE
5
90
100
AcDbEntity
8
1
62
256
6
ByLayer
370
13
48
1
60
0
100
AcDbLine
10
102.769284
20
3.027348
30
0
11
102.769284
21
1.734623
31
0
39
0
210
0
220
0
230
1
0
LINE
5
91
100
AcDbEntity
8
1
62
256
6
ByLayer
370
13
48
1
60
0
100
AcDbLine
10
102.30575
20
-2.947961
30
0
11
102.30575
21
-1.85639
31
0
39
0
210
0
220
0
230
1
0
LINE
5
92
100
AcDbEntity
8
1
62
256
6
ByLayer
370
13
48
1
60
0
100
AcDbLine
10
102.30575
20
1.955794
30
0
11
102.30575
21
2.969117
31
0
39
0
210
0
220
0
230
1
0
LINE
5
93
100
AcDbEntity
8
1
62
256
6
ByLayer
370
13
48
1
60
0
100
AcDbLine
10
76.096238
20
-3
30
0
11
76.096238
21
3
31
0
39
0
210
0
220
0
230
1
0
LINE
5
94
100
AcDbEntity
8
1
62
256
6
ByLayer
370
13
48
1
60
0
100
AcDbLine
10
75.905225
20
3.016711
30
0
11
75.905225
21
-3.016711
31
0
39
0
210
0
220
0
230
1
0
LINE
5
95
100
AcDbEntity
8
1
62
256
6
ByLayer
370
18
48
1
60
0
100
AcDbLine
10
70.328718
20
4
30
0
11
70.328718
21
-4
31
0
39
0
210
0
220
0
230
1
0
LINE
5
96
100
AcDbEntity
8
1
62
256
6
ByLayer
370
18
48
1
60
0
100
AcDbLine
10
108.67117
20
-0.417897
30
0
11
108.67117
21
-1.375387
31
0
39
0
210
0
220
0
230
1
0
LINE
5
97
100
AcDbEntity
8
SK1
62
256
6
ByLayer
370
18
48
1
60
0
100
AcDbLine
10
-24
20
2.64
30
0
11
-24
21
-2.64
31
0
39
0
210
0
220
0
230
1
0
LINE
5
99
100
AcDbEntity
8
SK1
62
256
6
ByLayer
370
18
48
1
60
0
100
AcDbLine
10
-15
20
2.266186
30
0
11
-15
21
-2.266186
31
0
39
0
210
0
220
0
230
1
0
LINE
5
9A
100
AcDbEntity
8
SK1
62
256
6
ByLayer
370
18
48
1
60
0
100
AcDbLine
10
-15
20
3.1
30
0
11
-14.26
21
3.84
31
0
39
0
210
0
220
0
230
1
0
LINE
5
9B
100
AcDbEntity
8
SK1
62
256
6
ByLayer
370
18
48
1
60
0
100
AcDbLine
10
-22.8
20
3.1
30
0
11
-15
21
3.1
31
0
39
0
210
0
220
0
230
1
0
LINE
5
9C
100
AcDbEntity
8
SK1
62
256
6
ByLayer
370
18
48
1
60
0
100
AcDbLine
10
-22.8
20
2.266186
30
0
11
-22.8
21
3.1
31
0
39
0
210
0
220
0
230
1
0
LINE
5
9D
100
AcDbEntity
8
SK1
62
256
6
ByLayer
370
18
48
1
60
0
100
AcDbLine
10
-15
20
2.266186
30
0
11
-22.8
21
2.266186
31
0
39
0
210
0
220
0
230
1
0
LINE
5
9E
100
AcDbEntity
8
SK1
62
256
6
ByLayer
370
18
48
1
60
0
100
AcDbLine
10
-22.8
20
-2.266186
30
0
11
-15
21
-2.266186
31
0
39
0
210
0
220
0
230
1
0
LINE
5
9F
100
AcDbEntity
8
SK1
62
256
6
ByLayer
370
18
48
1
60
0
100
AcDbLine
10
-22.8
20
-3.1
30
0
11
-22.8
21
-2.266186
31
0
39
0
210
0
220
0
230
1
0
LINE
5
A0
100
AcDbEntity
8
SK1
62
256
6
ByLayer
370
18
48
1
60
0
100
AcDbLine
10
-15
20
-3.1
30
0
11
-22.8
21
-3.1
31
0
39
0
210
0
220
0
230
1
0
LINE
5
A1
100
AcDbEntity
8
SK1
62
256
6
ByLayer
370
18
48
1
60
0
100
AcDbLine
10
-15
20
-3.1
30
0
11
-14.26
21
-3.84
31
0
39
0
210
0
220
0
230
1
0
LINE
5
A2
100
AcDbEntity
8
SK1
62
256
6
ByLayer
370
18
48
1
60
0
100
AcDbLine
10
0
20
4
30
0
11
0
21
-4
31
0
39
0
210
0
220
0
230
1
0
LINE
5
A3
100
AcDbEntity
8
SK1
62
256
6
ByLayer
370
18
48
1
60
0
100
AcDbLine
10
-14.1
20
3.84
30
0
11
-14.1
21
-3.84
31
0
39
0
210
0
220
0
230
1
0
LINE
5
A4
100
AcDbEntity
8
SK1
62
256
6
ByLayer
370
18
48
1
60
0
100
AcDbLine
10
-13.94
20
-4
30
0
11
-13.94
21
4
31
0
39
0
210
0
220
0
230
1
0
LINE
5
A5
100
AcDbEntity
8
1
62
256
6
ByLayer
370
18
48
1
60
0
100
AcDbLine
10
107.270509
20
3.867358
30
0
11
107.047656
21
3.836038
31
0
39
0
210
0
220
0
230
1
0
LINE
5
A6
100
AcDbEntity
8
1
62
256
6
ByLayer
370
18
48
1
60
0
100
AcDbLine
10
104.854382
20
-3.527794
30
0
11
105.535025
21
-3.623452
31
0
39
0
210
0
220
0
230
1
0
LINE
5
A7
100
AcDbEntity
8
1
62
256
6
ByLayer
370
18
48
1
60
0
100
AcDbLine
10
70.328718
20
4
30
0
11
0
21
4
31
0
39
0
210
0
220
0
230
1
0
LINE
5
A8
100
AcDbEntity
8
1
62
256
6
ByLayer
370
18
48
1
60
0
100
AcDbLine
10
0
20
-4
30
0
11
70.328718
21
-4
31
0
39
0
210
0
220
0
230
1
0
LINE
5
A9
100
AcDbEntity
8
1
62
256
6
ByLayer
370
18
48
1
60
0
100
AcDbLine
10
113.695505
20
-3.69946
30
0
11
113.697388
21
-3.702709
31
0
39
0
210
0
220
0
230
1
0
LINE
5
AA
100
AcDbEntity
8
1
62
256
6
ByLayer
370
18
48
1
60
0
100
AcDbLine
10
108.426274
20
4.02979
30
0
11
108.255548
21
4.005796
31
0
39
0
210
0
220
0
230
1
0
LINE
5
AB
100
AcDbEntity
8
1
62
256
6
ByLayer
370
18
48
1
60
0
100
AcDbLine
10
103.492529
20
-3.336398
30
0
11
104.379811
21
-3.461097
31
0
39
0
210
0
220
0
230
1
0
LINE
5
AC
100
AcDbEntity
8
1
62
256
6
ByLayer
370
18
48
1
60
0
100
AcDbLine
10
103
20
-3.267177
30
0
11
103.239756
21
-3.300873
31
0
39
0
210
0
220
0
230
1
0
LINE
5
AD
100
AcDbEntity
8
1
62
256
6
ByLayer
370
18
48
1
60
0
100
AcDbLine
10
117.55
20
0
30
0
11
116
21
1.55
31
0
39
0
210
0
220
0
230
1
0
LINE
5
AE
100
AcDbEntity
8
1
62
256
6
ByLayer
370
18
48
1
60
0
100
AcDbLine
10
116
20
-1.55
30
0
11
117.55
21
0
31
0
39
0
210
0
220
0
230
1
0
LINE
5
AF
100
AcDbEntity
8
1
62
256
6
ByLayer
370
18
48
1
60
0
100
AcDbLine
10
109.657967
20
4.064208
30
0
11
109.53999
21
4.064208
31
0
39
0
210
0
220
0
230
1
0
LINE
5
B0
100
AcDbEntity
8
1
62
256
6
ByLayer
370
18
48
1
60
0
100
AcDbLine
10
76.096238
20
-3
30
0
11
82.005818
21
-3
31
0
39
0
210
0
220
0
230
1
0
LINE
5
B1
100
AcDbEntity
8
1
62
256
6
ByLayer
370
18
48
1
60
0
100
AcDbLine
10
86.103938
20
-3
30
0
11
88.996042
21
-3
31
0
39
0
210
0
220
0
230
1
0
LINE
5
B2
100
AcDbEntity
8
1
62
256
6
ByLayer
370
18
48
1
60
0
100
AcDbLine
10
94.589124
20
-3
30
0
11
97.481625
21
-3
31
0
39
0
210
0
220
0
230
1
0
LINE
5
B3
100
AcDbEntity
8
1
62
256
6
ByLayer
370
18
48
1
60
0
100
AcDbLine
10
101.726598
20
3
30
0
11
98.824924
21
3
31
0
39
0
210
0
220
0
230
1
0
LINE
5
B4
100
AcDbEntity
8
1
62
256
6
ByLayer
370
18
48
1
60
0
100
AcDbLine
10
93.239704
20
3
30
0
11
90.350906
21
3
31
0
39
0
210
0
220
0
230
1
0
LINE
5
B5
100
AcDbEntity
8
1
62
256
6
ByLayer
370
18
48
1
60
0
100
AcDbLine
10
84.752444
20
3
30
0
11
76.096238
21
3
31
0
39
0
210
0
220
0
230
1
0
LINE
5
B6
100
AcDbEntity
8
1
62
256
6
ByLayer
370
18
48
1
60
0
100
AcDbLine
10
111.41498
20
-4.064208
30
0
11
111.532961
21
-4.064208
31
0
39
0
210
0
220
0
230
1
0
LINE
5
B7
100
AcDbEntity
8
1
62
256
6
ByLayer
370
18
48
1
60
0
100
AcDbLine
10
75.905225
20
3.016711
30
0
11
70.328718
21
4
31
0
39
0
210
0
220
0
230
1
0
LINE
5
B8
100
AcDbEntity
8
1
62
256
6
ByLayer
370
18
48
1
60
0
100
AcDbLine
10
70.328718
20
-4
30
0
11
75.905225
21
-3.016711
31
0
39
0
210
0
220
0
230
1
0
LINE
5
B9
100
AcDbEntity
8
SK1
62
256
6
ByLayer
370
18
48
1
60
0
100
AcDbLine
10
-24
20
-2.64
30
0
11
-23.54
21
-3.1
31
0
39
0
210
0
220
0
230
1
0
LINE
5
BA
100
AcDbEntity
8
SK1
62
256
6
ByLayer
370
18
48
1
60
0
100
AcDbLine
10
-23.54
20
3.1
30
0
11
-24
21
2.64
31
0
39
0
210
0
220
0
230
1
0
LINE
5
BB
100
AcDbEntity
8
SK1
62
256
6
ByLayer
370
18
48
1
60
0
100
AcDbLine
10
-14.1
20
3.84
30
0
11
-14.26
21
3.84
31
0
39
0
210
0
220
0
230
1
0
LINE
5
BC
100
AcDbEntity
8
SK1
62
256
6
ByLayer
370
18
48
1
60
0
100
AcDbLine
10
-14.26
20
-3.84
30
0
11
-14.1
21
-3.84
31
0
39
0
210
0
220
0
230
1
0
LINE
5
BD
100
AcDbEntity
8
SK1
62
256
6
ByLayer
370
18
48
1
60
0
100
AcDbLine
10
0
20
4
30
0
11
-13.94
21
4
31
0
39
0
210
0
220
0
230
1
0
LINE
5
BE
100
AcDbEntity
8
SK1
62
256
6
ByLayer
370
18
48
1
60
0
100
AcDbLine
10
-13.94
20
-4
30
0
11
0
21
-4
31
0
39
0
210
0
220
0
230
1
0
LINE
5
BF
100
AcDbEntity
8
SK1
62
256
6
ByLayer
370
18
48
1
60
0
100
AcDbLine
10
-14.1
20
-3.84
30
0
11
-13.94
21
-4
31
0
39
0
210
0
220
0
230
1
0
LINE
5
C0
100
AcDbEntity
8
SK1
62
256
6
ByLayer
370
18
48
1
60
0
100
AcDbLine
10
-13.94
20
4
30
0
11
-14.1
21
3.84
31
0
39
0
210
0
220
0
230
1
0
LINE
5
C1
100
AcDbEntity
8
SK2
62
256
6
ByLayer
370
18
48
1
60
0
100
AcDbLine
10
36.194359
20
-4
30
0
11
36.194359
21
16.841828
31
0
39
0
210
0
220
0
230
1
0
LINE
5
C3
100
AcDbEntity
8
1
62
256
6
ByLayer
370
18
48
1
60
1
100
AcDbLine
10
36.194359
20
4
30
0
11
36.655143
21
0.500002
31
0
39
0
210
0
220
0
230
1
0
LINE
5
C4
100
AcDbEntity
8
1
62
256
6
ByLayer
370
18
48
1
60
1
100
AcDbLine
10
36.655143
20
0.500002
30
0
11
35.733575
21
0.499998
31
0
39
0
210
0
220
0
230
1
0
LINE
5
C5
100
AcDbEntity
8
1
62
256
6
ByLayer
370
18
48
1
60
1
100
AcDbLine
10
35.733575
20
0.499998
30
0
11
36.194359
21
4
31
0
39
0
210
0
220
0
230
1
0
LINE
5
C6
100
AcDbEntity
8
1
62
256
6
ByLayer
370
18
48
1
60
1
100
AcDbLine
10
36.194359
20
-4
30
0
11
35.733575
21
-0.500002
31
0
39
0
210
0
220
0
230
1
0
LINE
5
C7
100
AcDbEntity
8
1
62
256
6
ByLayer
370
18
48
1
60
1
100
AcDbLine
10
35.733575
20
-0.500002
30
0
11
36.655143
21
-0.499998
31
0
39
0
210
0
220
0
230
1
0
LINE
5
C8
100
AcDbEntity
8
1
62
256
6
ByLayer
370
18
48
1
60
1
100
AcDbLine
10
36.655143
20
-0.499998
30
0
11
36.194359
21
-4
31
0
39
0
210
0
220
0
230
1
0
LINE
5
C9
100
AcDbEntity
8
2
62
256
6
ByLayer
370
18
48
1
60
0
100
AcDbLine
10
116
20
-41.564208
30
0
11
-24
21
-41.564208
31
0
39
0
210
0
220
0
230
1
0
LINE
5
CB
100
AcDbEntity
8
2
62
256
6
ByLayer
370
18
48
1
60
0
100
AcDbLine
10
-24
20
-4.2275
30
0
11
-24
21
-43.564208
31
0
39
0
210
0
220
0
230
1
0
LINE
5
CC
100
AcDbEntity
8
2
62
256
6
ByLayer
370
18
48
1
60
0
100
AcDbLine
10
116
20
-5.651708
30
0
11
116
21
-43.564208
31
0
39
0
210
0
220
0
230
1
0
LINE
5
CD
100
AcDbEntity
8
1
62
256
6
ByLayer
370
18
48
1
60
1
100
AcDbLine
10
-24
20
-41.564208
30
0
11
-20.500002
21
-41.103425
31
0
39
0
210
0
220
0
230
1
0
LINE
5
CE
100
AcDbEntity
8
1
62
256
6
ByLayer
370
18
48
1
60
1
100
AcDbLine
10
-20.500002
20
-41.103425
30
0
11
-20.499998
21
-42.024992
31
0
39
0
210
0
220
0
230
1
0
LINE
5
CF
100
AcDbEntity
8
1
62
256
6
ByLayer
370
18
48
1
60
1
100
AcDbLine
10
-20.499998
20
-42.024992
30
0
11
-24
21
-41.564208
31
0
39
0
210
0
220
0
230
1
0
LINE
5
D0
100
AcDbEntity
8
1
62
256
6
ByLayer
370
18
48
1
60
1
100
AcDbLine
10
116
20
-41.564208
30
0
11
112.500002
21
-42.024992
31
0
39
0
210
0
220
0
230
1
0
LINE
5
D1
100
AcDbEntity
8
1
62
256
6
ByLayer
370
18
48
1
60
1
100
AcDbLine
10
112.500002
20
-42.024992
30
0
11
112.499998
21
-41.103425
31
0
39
0
210
0
220
0
230
1
0
LINE
5
D2
100
AcDbEntity
8
1
62
256
6
ByLayer
370
18
48
1
60
1
100
AcDbLine
10
112.499998
20
-41.103425
30
0
11
116
21
-41.564208
31
0
39
0
210
0
220
0
230
1
0
LINE
5
1E3
100
AcDbEntity
8
1
62
256
6
ByLayer
370
18
48
1
60
1
100
AcDbLine
10
36.194359
20
4
30
0
11
36.655143
21
0.500002
31
0
39
0
210
0
220
0
230
1
0
LINE
5
1E4
100
AcDbEntity
8
1
62
256
6
ByLayer
370
18
48
1
60
1
100
AcDbLine
10
36.655143
20
0.500002
30
0
11
35.733575
21
0.499998
31
0
39
0
210
0
220
0
230
1
0
LINE
5
1E5
100
AcDbEntity
8
1
62
256
6
ByLayer
370
18
48
1
60
1
100
AcDbLine
10
35.733575
20
0.499998
30
0
11
36.194359
21
4
31
0
39
0
210
0
220
0
230
1
0
LINE
5
1E7
100
AcDbEntity
8
1
62
256
6
ByLayer
370
18
48
1
60
1
100
AcDbLine
10
36.194359
20
-4
30
0
11
35.733575
21
-0.500002
31
0
39
0
210
0
220
0
230
1
0
LINE
5
1E8
100
AcDbEntity
8
1
62
256
6
ByLayer
370
18
48
1
60
1
100
AcDbLine
10
35.733575
20
-0.500002
30
0
11
36.655143
21
-0.499998
31
0
39
0
210
0
220
0
230
1
0
LINE
5
1E9
100
AcDbEntity
8
1
62
256
6
ByLayer
370
18
48
1
60
1
100
AcDbLine
10
36.655143
20
-0.499998
30
0
11
36.194359
21
-4
31
0
39
0
210
0
220
0
230
1
0
LINE
5
1EC
100
AcDbEntity
8
1
62
256
6
ByLayer
370
18
48
1
60
1
100
AcDbLine
10
-24
20
-41.564208
30
0
11
-20.500002
21
-41.103425
31
0
39
0
210
0
220
0
230
1
0
LINE
5
1ED
100
AcDbEntity
8
1
62
256
6
ByLayer
370
18
48
1
60
1
100
AcDbLine
10
-20.500002
20
-41.103425
30
0
11
-20.499998
21
-42.024992
31
0
39
0
210
0
220
0
230
1
0
LINE
5
1EE
100
AcDbEntity
8
1
62
256
6
ByLayer
370
18
48
1
60
1
100
AcDbLine
10
-20.499998
20
-42.024992
30
0
11
-24
21
-41.564208
31
0
39
0
210
0
220
0
230
1
0
LINE
5
1F0
100
AcDbEntity
8
1
62
256
6
ByLayer
370
18
48
1
60
1
100
AcDbLine
10
116
20
-41.564208
30
0
11
112.500002
21
-42.024992
31
0
39
0
210
0
220
0
230
1
0
LINE
5
1F1
100
AcDbEntity
8
1
62
256
6
ByLayer
370
18
48
1
60
1
100
AcDbLine
10
112.500002
20
-42.024992
30
0
11
112.499998
21
-41.103425
31
0
39
0
210
0
220
0
230
1
0
LINE
5
1F2
100
AcDbEntity
8
1
62
256
6
ByLayer
370
18
48
1
60
1
100
AcDbLine
10
112.499998
20
-41.103425
30
0
11
116
21
-41.564208
31
0
39
0
210
0
220
0
230
1
0
MTEXT
5
1DF
100
AcDbEntity
8
SK2
62
256
6
ByLayer
370
18
48
1
60
0
100
AcDbMText
10
34.853245
20
9.658438
30
0
210
0
220
0
230
1
1
%%c
40
3
41
0
44
1.084337
50
90
71
7
72
5
7
iso_b_vert
0
MTEXT
5
1E2
100
AcDbEntity
8
SK2
62
256
6
ByLayer
370
18
48
1
60
0
100
AcDbMText
10
34.853245
20
15.635
30
0
210
0
220
0
230
1
1
\W0.5404;8
40
3
41
0
44
1.084337
50
90
71
7
72
5
7
iso_b_vert
0
MTEXT
5
1EB
100
AcDbEntity
8
2
62
256
6
ByLayer
370
18
48
1
60
0
100
AcDbMText
10
43.463258
20
-40.679094
30
0
210
0
220
0
230
1
1
\W0.6620;140
40
3
41
0
44
1.084337
50
0
71
7
72
5
7
iso_b_vert
0
MTEXT
5
1F4
100
AcDbEntity
8
SK6
62
256
6
ByLayer
370
18
48
1
60
0
100
AcDbMText
10
27.904284
20
-82.114886
30
0
210
0
220
0
230
1
1
\W0.7320;T300-XM170DA-M8     B110
40
3
41
0
44
1.084337
50
0
71
7
72
5
7
iso_b_vert
0
HATCH
5
1E6
100
AcDbEntity
8
SK2
62
256
6
ByLayer
370
13
48
1
60
0
100
AcDbHatch
10
0
20
0
30
0
210
0
220
0
230
1
2
ANSI31
70
0
71
0
91
1
92
5
93
3
72
1
10
36.1943590901911
20
4.00000000000009
11
36.6551428317439
21
0.500001692553269
72
1
10
36.6551428317439
20
0.500001692553269
11
35.7335753486384
21
0.499998307446901
72
1
10
35.7335753486384
20
0.499998307446901
11
36.1943590901911
21
4.00000000000009
97
0
75
0
76
1
52
0
41
0.0062
77
0
78
1
53
45
43
0
44
0
45
-0.0139193969876572
46
0.0139193969876572
79
0
47
0
98
1
10
0
20
0
0
HATCH
5
1EA
100
AcDbEntity
8
SK2
62
256
6
ByLayer
370
13
48
1
60
0
100
AcDbHatch
10
0
20
0
30
0
210
0
220
0
230
1
2
ANSI31
70
0
71
0
91
1
92
5
93
3
72
1
10
36.1943590901911
20
-3.99999999999992
11
35.7335753486384
21
-0.500001692553099
72
1
10
35.7335753486384
20
-0.500001692553099
11
36.6551428317439
21
-0.499998307446731
72
1
10
36.6551428317439
20
-0.499998307446731
11
36.1943590901911
21
-3.99999999999992
97
0
75
0
76
1
52
0
41
0.0062
77
0
78
1
53
45
43
0
44
0
45
-0.0139193969876572
46
0.0139193969876572
79
0
47
0
98
1
10
0
20
0
0
HATCH
5
1EF
100
AcDbEntity
8
2
62
256
6
ByLayer
370
13
48
1
60
0
100
AcDbHatch
10
0
20
0
30
0
210
0
220
0
230
1
2
ANSI31
70
0
71
0
91
1
92
5
93
3
72
1
10
-24
20
-41.5642083312539
11
-20.5000016925532
21
-41.1034245897011
72
1
10
-20.5000016925532
20
-41.1034245897011
11
-20.4999983074468
21
-42.0249920728066
72
1
10
-20.4999983074468
20
-42.0249920728066
11
-24
21
-41.5642083312539
97
0
75
0
76
1
52
0
41
0.0062
77
0
78
1
53
45
43
0
44
0
45
-0.0139193969876572
46
0.0139193969876572
79
0
47
0
98
1
10
0
20
0
0
HATCH
5
1F3
100
AcDbEntity
8
2
62
256
6
ByLayer
370
13
48
1
60
0
100
AcDbHatch
10
0
20
0
30
0
210
0
220
0
230
1
2
ANSI31
70
0
71
0
91
1
92
5
93
3
72
1
10
116
20
-41.5642083312539
11
112.500001692553
21
-42.0249920728066
72
1
10
112.500001692553
20
-42.0249920728066
11
112.499998307447
21
-41.1034245897011
72
1
10
112.499998307447
20
-41.1034245897011
11
116
21
-41.5642083312539
97
0
75
0
76
1
52
0
41
0.0062
77
0
78
1
53
45
43
0
44
0
45
-0.0139193969876572
46
0.0139193969876572
79
0
47
0
98
1
10
0
20
0
0
DIMENSION
5
1F7
100
AcDbEntity
8
2
62
256
6
ByLayer
370
18
48
1
60
0
100
AcDbDimension
2
_U0
10
135.5
20
-4.064208
30
0
11
135.5
21
21.564208
31
0
70
32
71
1
72
1
41
1
210
0
220
0
230
1
3
Standard
100
AcDbAlignedDimension
13
116
23
4.064208
33
0
14
116
24
-4.064208
34
0
50
90
100
AcDbRotatedDimension
1001
ACAD
1000
DSTYLE
1002
{
1070
   371
1070
    13
1070
   372
1070
    13
1070
     3
1000

1070
   170
1070
     0
1070
   144
1040
1.0
1070
   277
1070
     2
1070
   284
1070
     8
1070
   278
1070
    46
1070
   146
1040
1.166667
1070
   345
1005
16
1070
   347
1005
16
1070
   346
1005
16
1070
   344
1005
0
1070
   343
1005
0
1070
   172
1070
     1
1070
    76
1070
     0
1070
    75
1070
     0
1070
   282
1070
     0
1070
   281
1070
     0
1070
    71
1070
     0
1070
    74
1070
     0
1070
   279
1070
     0
1070
   173
1070
     1
1070
   340
1005
1E0
1070
   271
1070
     3
1070
   272
1070
     3
1070
    77
1070
     1
1070
    73
1070
     0
1070
   171
1070
     3
1070
   274
1070
     4
1070
   177
1070
     2
1070
   176
1070
     2
1070
   178
1070
     2
1070
    78
1070
     8
1070
    48
1040
-0.1
1070
    41
1040
3.5
1070
   147
1040
1.5
1070
    42
1040
1.5875
1070
    44
1040
2.0
1070
   140
1040
3.0
1002
}
1001
ACAD_DSTYLE_DIM_LINETYPE
1070
   380
1005
16
1001
ACAD_DSTYLE_DIM_EXT1_LINETYPE
1070
   381
1005
16
1001
ACAD_DSTYLE_DIM_EXT2_LINETYPE
1070
   382
1005
16
0
DIMENSION
5
212
100
AcDbEntity
8
SK2
62
256
6
ByLayer
370
18
48
1
60
0
100
AcDbDimension
2
_U1
10
112.56
20
13.038592
30
0
11
114.28
21
13.038592
31
0
70
32
71
1
72
1
41
1
210
0
220
0
230
1
3
Standard
100
AcDbAlignedDimension
13
116
23
4.064208
33
0
14
112.56
24
0
34
0
50
0
100
AcDbRotatedDimension
1001
ACAD
1000
DSTYLE
1002
{
1070
   371
1070
    13
1070
   372
1070
    13
1070
   170
1070
     0
1070
   144
1040
1.0
1070
   277
1070
     2
1070
   284
1070
     8
1070
   278
1070
    46
1070
   146
1040
1.166667
1070
   345
1005
16
1070
   347
1005
16
1070
   346
1005
16
1070
   344
1005
0
1070
   343
1005
0
1070
   172
1070
     1
1070
    76
1070
     0
1070
    75
1070
     0
1070
   282
1070
     0
1070
   281
1070
     0
1070
    71
1070
     0
1070
    74
1070
     0
1070
   279
1070
     0
1070
   173
1070
     1
1070
   340
1005
1E0
1070
   271
1070
     3
1070
   272
1070
     3
1070
    77
1070
     1
1070
    73
1070
     1
1070
   171
1070
     3
1070
   274
1070
     4
1070
   177
1070
     2
1070
   176
1070
     2
1070
   178
1070
     2
1070
    78
1070
     8
1070
    48
1040
-0.1
1070
    41
1040
3.5
1070
   147
1040
1.5
1070
    42
1040
1.5875
1070
    44
1040
2.0
1070
   140
1040
3.0
1002
}
1001
ACAD_DSTYLE_DIM_LINETYPE
1070
   380
1005
16
1001
ACAD_DSTYLE_DIM_EXT1_LINETYPE
1070
   381
1005
16
1001
ACAD_DSTYLE_DIM_EXT2_LINETYPE
1070
   382
1005
16
0
DIMENSION
5
22C
100
AcDbEntity
8
SK2
62
256
6
ByLayer
370
18
48
1
60
0
100
AcDbDimension
2
_U2
10
103
20
-11.064208
30
0
11
129.714286
21
-11.064208
31
0
70
32
71
1
72
1
41
1
210
0
220
0
230
1
3
Standard
100
AcDbAlignedDimension
13
116
23
-4.064208
33
0
14
103
24
-4.064208
34
0
50
0
100
AcDbRotatedDimension
1001
ACAD
1000
DSTYLE
1002
{
1070
   371
1070
    13
1070
   372
1070
    13
1070
   170
1070
     0
1070
   144
1040
1.0
1070
   277
1070
     2
1070
   284
1070
     8
1070
   278
1070
    46
1070
   146
1040
0.833333
1070
   345
1005
16
1070
   347
1005
16
1070
   346
1005
16
1070
   344
1005
0
1070
   343
1005
0
1070
   172
1070
     1
1070
    76
1070
     0
1070
    75
1070
     0
1070
   282
1070
     0
1070
   281
1070
     0
1070
    47
1040
0.5
1070
    72
1070
     0
1070
    71
1070
     1
1070
    74
1070
     0
1070
   279
1070
     0
1070
   173
1070
     1
1070
   340
1005
1E0
1070
   271
1070
     1
1070
   272
1070
     3
1070
    77
1070
     1
1070
    73
1070
     1
1070
   171
1070
     3
1070
   274
1070
     4
1070
   177
1070
     2
1070
   176
1070
     2
1070
   178
1070
     2
1070
    78
1070
     8
1070
    48
1040
0.5
1070
    41
1040
3.5
1070
   147
1040
1.5
1070
    42
1040
1.5875
1070
    44
1040
2.0
1070
   140
1040
3.0
1002
}
1001
ACAD_DSTYLE_DIM_LINETYPE
1070
   380
1005
16
1001
ACAD_DSTYLE_DIM_EXT1_LINETYPE
1070
   381
1005
16
1001
ACAD_DSTYLE_DIM_EXT2_LINETYPE
1070
   382
1005
16
0
DIMENSION
5
247
100
AcDbEntity
8
SK2
62
256
6
ByLayer
370
18
48
1
60
0
100
AcDbDimension
2
_U3
10
76
20
-33.564208
30
0
11
96
21
-33.564208
31
0
70
32
71
1
72
1
41
1
210
0
220
0
230
1
3
Standard
100
AcDbAlignedDimension
13
116
23
-4.064208
33
0
14
76
24
-3
34
0
50
0
100
AcDbRotatedDimension
1001
ACAD
1000
DSTYLE
1002
{
1070
   371
1070
    13
1070
   372
1070
    13
1070
   170
1070
     0
1070
   144
1040
1.0
1070
   277
1070
     2
1070
   284
1070
     8
1070
   278
1070
    46
1070
   146
1040
1.166667
1070
   345
1005
16
1070
   347
1005
16
1070
   346
1005
16
1070
   344
1005
0
1070
   343
1005
0
1070
   172
1070
     1
1070
    76
1070
     0
1070
    75
1070
     0
1070
   282
1070
     0
1070
   281
1070
     0
1070
    71
1070
     0
1070
    74
1070
     0
1070
   279
1070
     0
1070
   173
1070
     1
1070
   340
1005
1E0
1070
   271
1070
     1
1070
   272
1070
     3
1070
    77
1070
     1
1070
    73
1070
     1
1070
   171
1070
     3
1070
   274
1070
     4
1070
   177
1070
     2
1070
   176
1070
     2
1070
   178
1070
     2
1070
    78
1070
     8
1070
    48
1040
-0.1
1070
    41
1040
3.5
1070
   147
1040
1.5
1070
    42
1040
1.5875
1070
    44
1040
2.0
1070
   140
1040
3.0
1002
}
1001
ACAD_DSTYLE_DIM_LINETYPE
1070
   380
1005
16
1001
ACAD_DSTYLE_DIM_EXT1_LINETYPE
1070
   381
1005
16
1001
ACAD_DSTYLE_DIM_EXT2_LINETYPE
1070
   382
1005
16
0
DIMENSION
5
25F
100
AcDbEntity
8
2
62
256
6
ByLayer
370
18
48
1
60
0
100
AcDbDimension
2
_U4
10
82
20
-22.564208
30
0
11
99
21
-22.564208
31
0
70
32
71
1
72
1
41
1
210
0
220
0
230
1
3
Standard
100
AcDbAlignedDimension
13
116
23
-4.064208
33
0
14
82
24
0
34
0
50
0
100
AcDbRotatedDimension
1001
ACAD
1000
DSTYLE
1002
{
1070
   371
1070
    13
1070
   372
1070
    13
1070
   170
1070
     0
1070
   144
1040
1.0
1070
   277
1070
     2
1070
   284
1070
     8
1070
   278
1070
    46
1070
   146
1040
1.166667
1070
   345
1005
16
1070
   347
1005
16
1070
   346
1005
16
1070
   344
1005
0
1070
   343
1005
0
1070
   172
1070
     1
1070
    76
1070
     0
1070
    75
1070
     0
1070
   282
1070
     0
1070
   281
1070
     0
1070
    71
1070
     0
1070
    74
1070
     0
1070
   279
1070
     0
1070
   173
1070
     1
1070
   340
1005
1E0
1070
   271
1070
     1
1070
   272
1070
     3
1070
    77
1070
     1
1070
    73
1070
     1
1070
   171
1070
     3
1070
   274
1070
     4
1070
   177
1070
     2
1070
   176
1070
     2
1070
   178
1070
     2
1070
    78
1070
     8
1070
    48
1040
-0.1
1070
    41
1040
3.5
1070
   147
1040
1.5
1070
    42
1040
1.5875
1070
    44
1040
2.0
1070
   140
1040
3.0
1002
}
1001
ACAD_DSTYLE_DIM_LINETYPE
1070
   380
1005
16
1001
ACAD_DSTYLE_DIM_EXT1_LINETYPE
1070
   381
1005
16
1001
ACAD_DSTYLE_DIM_EXT2_LINETYPE
1070
   382
1005
16
0
ENDSEC
0
SECTION
2
OBJECTS
0
DICTIONARY
5
2e7
330
0
100
AcDbDictionary
280
0
281
1
3
ACAD_GROUP
350
2e8
3
ACAD_MLINESTYLE
350
2e9
0
DICTIONARY
5
2e8
330
0
100
AcDbDictionary
280
0
281
1
0
DICTIONARY
5
2e9
330
0
100
AcDbDictionary
280
0
281
1
3
Standard
350
18
0
MLINESTYLE
5
18
330
2e9
100
AcDbMlineStyle
2
Standard
70
0
3

62
256
51
90
52
90
71
2
49
-0.5
62
256
6
ByLayer
49
0.5
62
256
6
ByLayer
0
RASTERVARIABLES
5
2d5
330

100
AcDbRasterVariables
90
0
70
1
71
1
72
1
0
ENDSEC
0
EOF
