0
SECTION
2
HEADER
9
$ACADVER
1
AC1015
9
$DWGCODEPAGE
3
ANSI_1252
9
$HANDSEED
5
32b
9
$ANGBASE
50
0
9
$ANGDIR
70
0
9
$ATTMODE
70
1
9
$AUNITS
70
0
9
$AUPREC
70
0
9
$CECOLOR
62
256
9
$CELTSCALE
40
1
9
$CELTYPE
6
ByLayer
9
$CELWEIGHT
370
18
9
$CLAYER
8
0
9
$CMLJUST
70
0
9
$CMLSCALE
40
1
9
$CMLSTYLE
2
Standard
9
$DIMSTYLE
2
Standard
9
$TEXTSIZE
40
0.2
9
$TEXTSTYLE
7
Standard
9
$LUNITS
70
2
9
$LUPREC
70
4
9
$EXTNAMES
290
1
9
$INSUNITS
70
4
9
$LTSCALE
40
1
9
$LWDISPLAY
290
1
9
$PDMODE
70
0
9
$PDSIZE
40
0
9
$PLINEGEN
70
0
0
ENDSEC
0
SECTION
2
CLASSES
0
CLASS
1
RASTERVARIABLES
2
AcDbRasterVariables
3
ISM
90
0
280
0
281
0
0
ENDSEC
0
SECTION
2
TABLES
0
TABLE
2
VPORT
5
321
100
AcDbSymbolTable
0
VPORT
5
1
100
AcDbSymbolTableRecord
100
AcDbViewportTableRecord
2
*Active
70
0
10
0
20
0
11
1
21
1
12
-1
22
1
13
0
23
0
14
0.5
24
0.5
15
10
25
10
16
0
26
0
36
1
17
0
27
0
37
0
0
ENDTAB
0
TABLE
2
LTYPE
5
322
100
AcDbSymbolTable
0
LTYPE
5
14
100
AcDbSymbolTableRecord
100
AcDbLinetypeTableRecord
70
0
2
ByBlock
3

72
65
73
0
40
0
0
LTYPE
5
15
100
AcDbSymbolTableRecord
100
AcDbLinetypeTableRecord
70
0
2
ByLayer
3

72
65
73
0
40
0
0
LTYPE
5
16
100
AcDbSymbolTableRecord
100
AcDbLinetypeTableRecord
70
0
2
Continuous
3
Solid line
72
65
73
0
40
0
0
LTYPE
5
6E
100
AcDbSymbolTableRecord
100
AcDbLinetypeTableRecord
70
0
2
CENTER
3
____ _ ____ _ ____ _ ____
72
65
73
4
40
47.5
49
22
74
0
49
-8.5
74
0
49
8.5
74
0
49
-8.5
74
0
0
LTYPE
5
6F
100
AcDbSymbolTableRecord
100
AcDbLinetypeTableRecord
70
0
2
DASHED
3
__ __ __ __ __ __ __ __ __
72
65
73
2
40
25.72
49
12.86
74
0
49
-12.86
74
0
0
ENDTAB
0
TABLE
2
LAYER
5
323
100
AcDbSymbolTable
0
LAYER
5
10
100
AcDbSymbolTableRecord
100
AcDbLayerTableRecord
2
0
70
0
62
7
6
Continuous
290
1
370
-3
390
0
0
LAYER
5
71
100
AcDbSymbolTableRecord
100
AcDbLayerTableRecord
2
80
70
0
62
-6
6
Continuous
290
1
370
-3
390
0
0
LAYER
5
73
100
AcDbSymbolTableRecord
100
AcDbLayerTableRecord
2
81
70
0
62
-3
6
Continuous
290
1
370
-3
390
0
0
LAYER
5
75
100
AcDbSymbolTableRecord
100
AcDbLayerTableRecord
2
1
70
0
62
4
6
Continuous
290
1
370
-3
390
0
0
LAYER
5
81
100
AcDbSymbolTableRecord
100
AcDbLayerTableRecord
2
4
70
0
62
-2
6
CENTER
290
1
370
-3
390
0
0
LAYER
5
CC
100
AcDbSymbolTableRecord
100
AcDbLayerTableRecord
2
2
70
0
62
7
6
Continuous
290
1
370
-3
390
0
0
LAYER
5
231
100
AcDbSymbolTableRecord
100
AcDbLayerTableRecord
2
Defpoints
70
0
62
7
6
Continuous
290
0
370
-3
390
0
0
LAYER
5
30d
100
AcDbSymbolTableRecord
100
AcDbLayerTableRecord
2
SK4
70
0
62
2
6
CENTER
290
1
370
-3
390
0
0
LAYER
5
30e
100
AcDbSymbolTableRecord
100
AcDbLayerTableRecord
2
SK1
70
0
62
4
6
Continuous
290
1
370
-3
390
0
0
LAYER
5
30f
100
AcDbSymbolTableRecord
100
AcDbLayerTableRecord
2
SK2
70
0
62
7
6
Continuous
290
1
370
-3
390
0
0
LAYER
5
310
100
AcDbSymbolTableRecord
100
AcDbLayerTableRecord
2
SK6
70
0
62
5
6
Continuous
290
1
370
-3
390
0
0
ENDTAB
0
TABLE
2
STYLE
5
324
100
AcDbSymbolTable
0
STYLE
5
11
100
AcDbSymbolTableRecord
100
AcDbTextStyleTableRecord
2
Standard
3
txt
70
0
71
0
40
0
41
1
42
0
50
0
0
STYLE
5
217
100
AcDbSymbolTableRecord
100
AcDbTextStyleTableRecord
2
iso_b_vert
3
simplex.shx
70
0
71
0
40
0
41
1
42
0
50
0
0
STYLE
5
218
100
AcDbSymbolTableRecord
100
AcDbTextStyleTableRecord
2
DWGDirectTextStyle
3
simplex
70
0
71
0
40
0
41
1
42
0
50
0
0
ENDTAB
0
TABLE
2
DIMSTYLE
5
325
100
AcDbSymbolTable
100
AcDbDimStyleTable
0
DIMSTYLE
105
27
100
AcDbSymbolTableRecord
100
AcDbDimStyleTableRecord
2
Standard
70
0
3
<>
41
0.18
42
0.0625
44
0.18
140
0.18
147
0.09
73
0
74
0
77
1
271
2
275
0
278
52
280
0
340
11
0
ENDTAB
0
TABLE
2
VIEW
5
326
100
AcDbSymbolTable
0
ENDTAB
0
TABLE
2
UCS
5
327
100
AcDbSymbolTable
0
ENDTAB
0
TABLE
2
APPID
5
328
100
AcDbSymbolTable
0
APPID
5
12
100
AcDbSymbolTableRecord
100
AcDbRegAppTableRecord
2
ACAD
70
0
0
APPID
5
22D
100
AcDbSymbolTableRecord
100
AcDbRegAppTableRecord
2
ACAD_DSTYLE_DIMBREAK
70
0
0
APPID
5
2CC
100
AcDbSymbolTableRecord
100
AcDbRegAppTableRecord
2
ACAD_DSTYLE_DIM_LINETYPE
70
0
0
APPID
5
2CD
100
AcDbSymbolTableRecord
100
AcDbRegAppTableRecord
2
ACAD_DSTYLE_DIM_EXT1_LINETYPE
70
0
0
APPID
5
2CE
100
AcDbSymbolTableRecord
100
AcDbRegAppTableRecord
2
ACAD_DSTYLE_DIM_EXT2_LINETYPE
70
0
0
APPID
5
309
100
AcDbSymbolTableRecord
100
AcDbRegAppTableRecord
2
ACAD_MLEADERVER
70
0
0
ENDTAB
0
TABLE
2
BLOCK_RECORD
5
329
100
AcDbSymbolTable
0
BLOCK_RECORD
5
1F
100
AcDbSymbolTableRecord
100
AcDbBlockTableRecord
2
*Model_Space
340
0
70
0
0
BLOCK_RECORD
5
1B
100
AcDbSymbolTableRecord
100
AcDbBlockTableRecord
2
*Paper_Space
340
0
70
0
0
BLOCK_RECORD
5
23
100
AcDbSymbolTableRecord
100
AcDbBlockTableRecord
2
*Paper_Space0
340
0
70
0
0
BLOCK_RECORD
5
232
100
AcDbSymbolTableRecord
100
AcDbBlockTableRecord
2
*D1
340
0
70
0
0
BLOCK_RECORD
5
240
100
AcDbSymbolTableRecord
100
AcDbBlockTableRecord
2
_U0
340
0
70
0
0
BLOCK_RECORD
5
24C
100
AcDbSymbolTableRecord
100
AcDbBlockTableRecord
2
*D3
340
0
70
0
0
BLOCK_RECORD
5
259
100
AcDbSymbolTableRecord
100
AcDbBlockTableRecord
2
_U1
340
0
70
0
0
BLOCK_RECORD
5
266
100
AcDbSymbolTableRecord
100
AcDbBlockTableRecord
2
*D5
340
0
70
0
0
BLOCK_RECORD
5
274
100
AcDbSymbolTableRecord
100
AcDbBlockTableRecord
2
_U2
340
0
70
0
0
BLOCK_RECORD
5
281
100
AcDbSymbolTableRecord
100
AcDbBlockTableRecord
2
*D7
340
0
70
0
0
BLOCK_RECORD
5
28D
100
AcDbSymbolTableRecord
100
AcDbBlockTableRecord
2
_U3
340
0
70
0
0
BLOCK_RECORD
5
299
100
AcDbSymbolTableRecord
100
AcDbBlockTableRecord
2
*D9
340
0
70
0
0
BLOCK_RECORD
5
2A5
100
AcDbSymbolTableRecord
100
AcDbBlockTableRecord
2
_U4
340
0
70
0
0
ENDTAB
0
ENDSEC
0
SECTION
2
BLOCKS
0
BLOCK
5
20
100
AcDbEntity
8
0
100
AcDbBlockBegin
2
*Model_Space
70
0
10
0
20
0
30
0
3
*Model_Space
0
ENDBLK
5
21
100
AcDbEntity
8
0
100
AcDbBlockEnd
0
BLOCK
5
1C
100
AcDbEntity
8
0
100
AcDbBlockBegin
2
*Paper_Space
70
0
10
0
20
0
30
0
3
*Paper_Space
0
ENDBLK
5
1D
100
AcDbEntity
8
0
100
AcDbBlockEnd
0
BLOCK
5
24
100
AcDbEntity
8
0
100
AcDbBlockBegin
2
*Paper_Space0
70
0
10
0
20
0
30
0
3
*Paper_Space0
0
ENDBLK
5
25
100
AcDbEntity
8
0
100
AcDbBlockEnd
0
BLOCK
5
233
100
AcDbEntity
8
0
100
AcDbBlockBegin
2
*D1
70
1
10
0
20
0
30
0
3
*D1
0
LINE
5
235
100
AcDbEntity
8
0
62
256
6
ByLayer
370
-2
48
1
60
0
100
AcDbLine
10
44.5875
20
3.220971
30
0
11
64.5
21
3.220971
31
0
39
0
210
0
220
0
230
1
0
LINE
5
236
100
AcDbEntity
8
0
62
256
6
ByLayer
370
-2
48
1
60
0
100
AcDbLine
10
44.5875
20
-3.220971
30
0
11
64.5
21
-3.220971
31
0
39
0
210
0
220
0
230
1
0
LINE
5
237
100
AcDbEntity
8
0
62
256
6
ByLayer
370
-2
48
1
60
0
100
AcDbLine
10
62.5
20
3.220971
30
0
11
62.5
21
34.626141
31
0
39
0
210
0
220
0
230
1
0
LINE
5
238
100
AcDbEntity
8
0
62
256
6
ByLayer
370
-2
48
1
60
0
100
AcDbLine
10
62.5
20
6.720971
30
0
11
62.5
21
10.220971
31
0
39
0
210
0
220
0
230
1
0
LINE
5
239
100
AcDbEntity
8
0
62
256
6
ByLayer
370
-2
48
1
60
0
100
AcDbLine
10
62.5
20
-6.720971
30
0
11
62.5
21
-10.220971
31
0
39
0
210
0
220
0
230
1
0
SOLID
5
23A
100
AcDbEntity
8
0
62
256
6
ByLayer
370
-1
48
1
60
0
100
AcDbTrace
10
61.916667
20
6.720971
30
0
11
63.083333
21
6.720971
31
0
12
62.5
22
3.220971
32
0
13
62.5
23
3.220971
33
0
39
0
210
0
220
0
230
1
0
SOLID
5
23B
100
AcDbEntity
8
0
62
256
6
ByLayer
370
-1
48
1
60
0
100
AcDbTrace
10
63.083333
20
-6.720971
30
0
11
61.916667
21
-6.720971
31
0
12
62.5
22
-3.220971
32
0
13
62.5
23
-3.220971
33
0
39
0
210
0
220
0
230
1
0
MTEXT
5
23C
100
AcDbEntity
8
0
62
256
6
ByLayer
370
18
48
1
60
0
100
AcDbMText
10
56.5
20
24.197569
30
0
210
0
220
0
230
1
1
\A1;6.442
40
3
41
0
44
1
50
90
71
5
72
5
7
iso_b_vert
0
POINT
5
23D
100
AcDbEntity
8
Defpoints
62
0
6
ByLayer
370
-1
48
1
60
0
100
AcDbPoint
10
43
20
3.220971
30
0
39
0
210
0
220
0
230
1
50
360
0
POINT
5
23E
100
AcDbEntity
8
Defpoints
62
0
6
ByLayer
370
-1
48
1
60
0
100
AcDbPoint
10
43
20
-3.220971
30
0
39
0
210
0
220
0
230
1
50
360
0
POINT
5
23F
100
AcDbEntity
8
Defpoints
62
0
6
ByLayer
370
-1
48
1
60
0
100
AcDbPoint
10
62.5
20
-3.220971
30
0
39
0
210
0
220
0
230
1
50
360
0
ENDBLK
5
234
100
AcDbEntity
8
0
100
AcDbBlockEnd
0
BLOCK
5
247
100
AcDbEntity
8
0
100
AcDbBlockBegin
2
_U0
70
0
10
0
20
0
30
0
3
_U0
0
MTEXT
5
241
100
AcDbEntity
8
2
62
256
6
ByLayer
370
18
48
1
60
0
100
AcDbMText
10
61.908886
20
13.355971
30
0
210
0
220
0
230
1
1
\W0.7383;UNF 1/4-28
40
3
41
0
44
1.084337
50
90
71
7
72
5
7
iso_b_vert
0
LINE
5
242
100
AcDbEntity
8
2
62
256
6
ByLayer
370
13
48
1
60
0
100
AcDbLine
10
44.5875
20
3.220971
30
0
11
64.5
21
3.220971
31
0
39
0
210
0
220
0
230
1
0
LINE
5
243
100
AcDbEntity
8
2
62
256
6
ByLayer
370
13
48
1
60
0
100
AcDbLine
10
44.5875
20
-3.220971
30
0
11
64.5
21
-3.220971
31
0
39
0
210
0
220
0
230
1
0
LINE
5
244
100
AcDbEntity
8
2
62
256
6
ByLayer
370
13
48
1
60
0
100
AcDbLine
10
62.5
20
-10.720971
30
0
11
62.5
21
35.174168
31
0
39
0
210
0
220
0
230
1
0
SOLID
5
245
100
AcDbEntity
8
2
62
256
6
ByLayer
370
18
48
1
60
0
100
AcDbTrace
10
62.5
20
3.220971
30
0
11
62.039216
21
6.720969
31
0
12
62.960784
22
6.720973
32
0
13
62.960784
23
6.720973
33
0
39
0
210
0
220
0
230
1
0
SOLID
5
246
100
AcDbEntity
8
2
62
256
6
ByLayer
370
18
48
1
60
0
100
AcDbTrace
10
62.5
20
-3.220971
30
0
11
62.960784
21
-6.720969
31
0
12
62.039216
22
-6.720973
32
0
13
62.039216
23
-6.720973
33
0
39
0
210
0
220
0
230
1
0
ENDBLK
5
248
100
AcDbEntity
8
0
100
AcDbBlockEnd
0
BLOCK
5
24D
100
AcDbEntity
8
0
100
AcDbBlockBegin
2
*D3
70
1
10
0
20
0
30
0
3
*D3
0
LINE
5
24F
100
AcDbEntity
8
0
62
256
6
ByLayer
370
-2
48
1
60
0
100
AcDbLine
10
43
20
4.808471
30
0
11
43
21
14.156496
31
0
39
0
210
0
220
0
230
1
0
LINE
5
250
100
AcDbEntity
8
0
62
256
6
ByLayer
370
-2
48
1
60
0
100
AcDbLine
10
40.51
20
1.5875
30
0
11
40.51
21
14.156496
31
0
39
0
210
0
220
0
230
1
0
LINE
5
251
100
AcDbEntity
8
0
62
256
6
ByLayer
370
-2
48
1
60
0
100
AcDbLine
10
46.5
20
12.156496
30
0
11
50
21
12.156496
31
0
39
0
210
0
220
0
230
1
0
LINE
5
252
100
AcDbEntity
8
0
62
256
6
ByLayer
370
-2
48
1
60
0
100
AcDbLine
10
37.01
20
12.156496
30
0
11
33.51
21
12.156496
31
0
39
0
210
0
220
0
230
1
0
SOLID
5
253
100
AcDbEntity
8
0
62
256
6
ByLayer
370
-1
48
1
60
0
100
AcDbTrace
10
46.5
20
12.739829
30
0
11
46.5
21
11.573163
31
0
12
43
22
12.156496
32
0
13
43
23
12.156496
33
0
39
0
210
0
220
0
230
1
0
SOLID
5
254
100
AcDbEntity
8
0
62
256
6
ByLayer
370
-1
48
1
60
0
100
AcDbTrace
10
37.01
20
11.573163
30
0
11
37.01
21
12.739829
31
0
12
40.51
22
12.156496
32
0
13
40.51
23
12.156496
33
0
39
0
210
0
220
0
230
1
0
MTEXT
5
255
100
AcDbEntity
8
0
62
256
6
ByLayer
370
18
48
1
60
0
100
AcDbMText
10
41.755
20
18.156496
30
0
210
0
220
0
230
1
1
\A1;2.49
40
3
41
0
44
1
50
0
71
5
72
5
7
iso_b_vert
0
POINT
5
256
100
AcDbEntity
8
Defpoints
62
0
6
ByLayer
370
-1
48
1
60
0
100
AcDbPoint
10
43
20
3.220971
30
0
39
0
210
0
220
0
230
1
50
360
0
POINT
5
257
100
AcDbEntity
8
Defpoints
62
0
6
ByLayer
370
-1
48
1
60
0
100
AcDbPoint
10
40.51
20
0
30
0
39
0
210
0
220
0
230
1
50
360
0
POINT
5
258
100
AcDbEntity
8
Defpoints
62
0
6
ByLayer
370
-1
48
1
60
0
100
AcDbPoint
10
40.51
20
12.156496
30
0
39
0
210
0
220
0
230
1
50
360
0
ENDBLK
5
24E
100
AcDbEntity
8
0
100
AcDbBlockEnd
0
BLOCK
5
261
100
AcDbEntity
8
0
100
AcDbBlockBegin
2
_U1
70
0
10
0
20
0
30
0
3
_U1
0
MTEXT
5
25A
100
AcDbEntity
8
SK2
62
256
6
ByLayer
370
18
48
1
60
0
100
AcDbMText
10
38.262101
20
12.939129
30
0
210
0
220
0
230
1
1
\W0.6474;'C'
40
3.5
41
0
44
1.084337
50
0
71
7
72
5
7
iso_b_vert
0
MTEXT
5
25B
100
AcDbEntity
8
SK2
62
256
6
ByLayer
370
18
48
1
60
0
100
AcDbMText
10
38.235601
20
20.04161
30
0
210
0
220
0
230
1
1
\W0.7756;2.49
40
3
41
0
44
1.084337
50
0
71
7
72
5
7
iso_b_vert
0
LINE
5
25C
100
AcDbEntity
8
SK2
62
256
6
ByLayer
370
13
48
1
60
0
100
AcDbLine
10
43
20
4.808471
30
0
11
43
21
14.156496
31
0
39
0
210
0
220
0
230
1
0
LINE
5
25D
100
AcDbEntity
8
SK2
62
256
6
ByLayer
370
13
48
1
60
0
100
AcDbLine
10
40.51
20
1.5875
30
0
11
40.51
21
14.156496
31
0
39
0
210
0
220
0
230
1
0
LINE
5
25E
100
AcDbEntity
8
SK2
62
256
6
ByLayer
370
13
48
1
60
0
100
AcDbLine
10
50.5
20
12.156496
30
0
11
33.01
21
12.156496
31
0
39
0
210
0
220
0
230
1
0
SOLID
5
25F
100
AcDbEntity
8
SK2
62
256
6
ByLayer
370
18
48
1
60
0
100
AcDbTrace
10
43
20
12.156496
30
0
11
46.499998
21
12.61728
31
0
12
46.500002
22
11.695712
32
0
13
46.500002
23
11.695712
33
0
39
0
210
0
220
0
230
1
0
SOLID
5
260
100
AcDbEntity
8
SK2
62
256
6
ByLayer
370
18
48
1
60
0
100
AcDbTrace
10
40.51
20
12.156496
30
0
11
37.010002
21
11.695712
31
0
12
37.009998
22
12.61728
32
0
13
37.009998
23
12.61728
33
0
39
0
210
0
220
0
230
1
0
ENDBLK
5
262
100
AcDbEntity
8
0
100
AcDbBlockEnd
0
BLOCK
5
267
100
AcDbEntity
8
0
100
AcDbBlockBegin
2
*D5
70
1
10
0
20
0
30
0
3
*D5
0
LINE
5
269
100
AcDbEntity
8
0
62
256
6
ByLayer
370
-2
48
1
60
0
100
AcDbLine
10
43
20
-4.808471
30
0
11
43
21
-12.220971
31
0
39
0
210
0
220
0
230
1
0
LINE
5
26A
100
AcDbEntity
8
0
62
256
6
ByLayer
370
-2
48
1
60
0
100
AcDbLine
10
33
20
-4.808471
30
0
11
33
21
-12.220971
31
0
39
0
210
0
220
0
230
1
0
LINE
5
26B
100
AcDbEntity
8
0
62
256
6
ByLayer
370
-2
48
1
60
0
100
AcDbLine
10
43
20
-10.220971
30
0
11
63.428571
21
-10.220971
31
0
39
0
210
0
220
0
230
1
0
LINE
5
26C
100
AcDbEntity
8
0
62
256
6
ByLayer
370
-2
48
1
60
0
100
AcDbLine
10
46.5
20
-10.220971
30
0
11
50
21
-10.220971
31
0
39
0
210
0
220
0
230
1
0
LINE
5
26D
100
AcDbEntity
8
0
62
256
6
ByLayer
370
-2
48
1
60
0
100
AcDbLine
10
29.5
20
-10.220971
30
0
11
26
21
-10.220971
31
0
39
0
210
0
220
0
230
1
0
SOLID
5
26E
100
AcDbEntity
8
0
62
256
6
ByLayer
370
-1
48
1
60
0
100
AcDbTrace
10
46.5
20
-9.637638
30
0
11
46.5
21
-10.804304
31
0
12
43
22
-10.220971
32
0
13
43
23
-10.220971
33
0
39
0
210
0
220
0
230
1
0
SOLID
5
26F
100
AcDbEntity
8
0
62
256
6
ByLayer
370
-1
48
1
60
0
100
AcDbTrace
10
29.5
20
-10.804304
30
0
11
29.5
21
-9.637638
31
0
12
33
22
-10.220971
32
0
13
33
23
-10.220971
33
0
39
0
210
0
220
0
230
1
0
MTEXT
5
270
100
AcDbEntity
8
0
62
256
6
ByLayer
370
18
48
1
60
0
100
AcDbMText
10
56.714286
20
-4.220971
30
0
210
0
220
0
230
1
1
\A1;10
40
3
41
0
44
1
50
0
71
5
72
5
7
iso_b_vert
0
POINT
5
271
100
AcDbEntity
8
Defpoints
62
0
6
ByLayer
370
-1
48
1
60
0
100
AcDbPoint
10
43
20
-3.220971
30
0
39
0
210
0
220
0
230
1
50
360
0
POINT
5
272
100
AcDbEntity
8
Defpoints
62
0
6
ByLayer
370
-1
48
1
60
0
100
AcDbPoint
10
33
20
-3.220971
30
0
39
0
210
0
220
0
230
1
50
360
0
POINT
5
273
100
AcDbEntity
8
Defpoints
62
0
6
ByLayer
370
-1
48
1
60
0
100
AcDbPoint
10
33
20
-10.220971
30
0
39
0
210
0
220
0
230
1
50
360
0
ENDBLK
5
268
100
AcDbEntity
8
0
100
AcDbBlockEnd
0
BLOCK
5
27C
100
AcDbEntity
8
0
100
AcDbBlockBegin
2
_U2
70
0
10
0
20
0
30
0
3
_U2
0
MTEXT
5
275
100
AcDbEntity
8
SK2
62
256
6
ByLayer
370
18
48
1
60
0
100
AcDbMText
10
49.159
20
-9.335857
30
0
210
0
220
0
230
1
1
\W0.5321;10
40
3
41
0
44
1.084337
50
0
71
7
72
5
7
iso_b_vert
0
MTEXT
5
276
100
AcDbEntity
8
SK2
62
256
6
ByLayer
370
18
48
1
60
0
100
AcDbMText
10
54.466271
20
-8.983376
30
0
210
0
220
0
230
1
1
\W0.8315;\W0.4158;%%p\W0.8315;0.5
40
2.5
41
0
44
1.084337
50
0
71
7
72
5
7
iso_b_vert
0
LINE
5
277
100
AcDbEntity
8
SK2
62
256
6
ByLayer
370
13
48
1
60
0
100
AcDbLine
10
43
20
-4.808471
30
0
11
43
21
-12.220971
31
0
39
0
210
0
220
0
230
1
0
LINE
5
278
100
AcDbEntity
8
SK2
62
256
6
ByLayer
370
13
48
1
60
0
100
AcDbLine
10
33
20
-4.808471
30
0
11
33
21
-12.220971
31
0
39
0
210
0
220
0
230
1
0
LINE
5
279
100
AcDbEntity
8
SK2
62
256
6
ByLayer
370
13
48
1
60
0
100
AcDbLine
10
33
20
-10.220971
30
0
11
61.583008
21
-10.220971
31
0
39
0
210
0
220
0
230
1
0
SOLID
5
27A
100
AcDbEntity
8
SK2
62
256
6
ByLayer
370
18
48
1
60
0
100
AcDbTrace
10
43
20
-10.220971
30
0
11
39.500002
21
-10.681755
31
0
12
39.499998
22
-9.760187
32
0
13
39.499998
23
-9.760187
33
0
39
0
210
0
220
0
230
1
0
SOLID
5
27B
100
AcDbEntity
8
SK2
62
256
6
ByLayer
370
18
48
1
60
0
100
AcDbTrace
10
33
20
-10.220971
30
0
11
36.499998
21
-9.760187
31
0
12
36.500002
22
-10.681755
32
0
13
36.500002
23
-10.681755
33
0
39
0
210
0
220
0
230
1
0
ENDBLK
5
27D
100
AcDbEntity
8
0
100
AcDbBlockEnd
0
BLOCK
5
282
100
AcDbEntity
8
0
100
AcDbBlockBegin
2
*D7
70
1
10
0
20
0
30
0
3
*D7
0
LINE
5
284
100
AcDbEntity
8
0
62
256
6
ByLayer
370
-2
48
1
60
0
100
AcDbLine
10
43
20
-4.808471
30
0
11
43
21
-34.720971
31
0
39
0
210
0
220
0
230
1
0
LINE
5
285
100
AcDbEntity
8
0
62
256
6
ByLayer
370
-2
48
1
60
0
100
AcDbLine
10
16
20
-3.8625
30
0
11
16
21
-34.720971
31
0
39
0
210
0
220
0
230
1
0
LINE
5
286
100
AcDbEntity
8
0
62
256
6
ByLayer
370
-2
48
1
60
0
100
AcDbLine
10
39.5
20
-32.720971
30
0
11
19.5
21
-32.720971
31
0
39
0
210
0
220
0
230
1
0
SOLID
5
287
100
AcDbEntity
8
0
62
256
6
ByLayer
370
-1
48
1
60
0
100
AcDbTrace
10
39.5
20
-33.304304
30
0
11
39.5
21
-32.137638
31
0
12
43
22
-32.720971
32
0
13
43
23
-32.720971
33
0
39
0
210
0
220
0
230
1
0
SOLID
5
288
100
AcDbEntity
8
0
62
256
6
ByLayer
370
-1
48
1
60
0
100
AcDbTrace
10
19.5
20
-32.137638
30
0
11
19.5
21
-33.304304
31
0
12
16
22
-32.720971
32
0
13
16
23
-32.720971
33
0
39
0
210
0
220
0
230
1
0
MTEXT
5
289
100
AcDbEntity
8
0
62
256
6
ByLayer
370
18
48
1
60
0
100
AcDbMText
10
29.5
20
-26.720971
30
0
210
0
220
0
230
1
1
\A1;27
40
3
41
0
44
1
50
0
71
5
72
5
7
iso_b_vert
0
POINT
5
28A
100
AcDbEntity
8
Defpoints
62
0
6
ByLayer
370
-1
48
1
60
0
100
AcDbPoint
10
43
20
-3.220971
30
0
39
0
210
0
220
0
230
1
50
360
0
POINT
5
28B
100
AcDbEntity
8
Defpoints
62
0
6
ByLayer
370
-1
48
1
60
0
100
AcDbPoint
10
16
20
-2.275
30
0
39
0
210
0
220
0
230
1
50
360
0
POINT
5
28C
100
AcDbEntity
8
Defpoints
62
0
6
ByLayer
370
-1
48
1
60
0
100
AcDbPoint
10
16
20
-32.720971
30
0
39
0
210
0
220
0
230
1
50
360
0
ENDBLK
5
283
100
AcDbEntity
8
0
100
AcDbBlockEnd
0
BLOCK
5
294
100
AcDbEntity
8
0
100
AcDbBlockBegin
2
_U3
70
0
10
0
20
0
30
0
3
_U3
0
MTEXT
5
28E
100
AcDbEntity
8
SK2
62
256
6
ByLayer
370
18
48
1
60
0
100
AcDbMText
10
27.867172
20
-31.835857
30
0
210
0
220
0
230
1
1
\W0.6740;27
40
3
41
0
44
1.084337
50
0
71
7
72
5
7
iso_b_vert
0
LINE
5
28F
100
AcDbEntity
8
SK2
62
256
6
ByLayer
370
13
48
1
60
0
100
AcDbLine
10
43
20
-4.808471
30
0
11
43
21
-34.720971
31
0
39
0
210
0
220
0
230
1
0
LINE
5
290
100
AcDbEntity
8
SK2
62
256
6
ByLayer
370
13
48
1
60
0
100
AcDbLine
10
16
20
-3.8625
30
0
11
16
21
-34.720971
31
0
39
0
210
0
220
0
230
1
0
LINE
5
291
100
AcDbEntity
8
SK2
62
256
6
ByLayer
370
13
48
1
60
0
100
AcDbLine
10
43
20
-32.720971
30
0
11
16
21
-32.720971
31
0
39
0
210
0
220
0
230
1
0
SOLID
5
292
100
AcDbEntity
8
SK2
62
256
6
ByLayer
370
18
48
1
60
0
100
AcDbTrace
10
43
20
-32.720971
30
0
11
39.500002
21
-33.181755
31
0
12
39.499998
22
-32.260187
32
0
13
39.499998
23
-32.260187
33
0
39
0
210
0
220
0
230
1
0
SOLID
5
293
100
AcDbEntity
8
SK2
62
256
6
ByLayer
370
18
48
1
60
0
100
AcDbTrace
10
16
20
-32.720971
30
0
11
19.499998
21
-32.260187
31
0
12
19.500002
22
-33.181755
32
0
13
19.500002
23
-33.181755
33
0
39
0
210
0
220
0
230
1
0
ENDBLK
5
295
100
AcDbEntity
8
0
100
AcDbBlockEnd
0
BLOCK
5
29A
100
AcDbEntity
8
0
100
AcDbBlockBegin
2
*D9
70
1
10
0
20
0
30
0
3
*D9
0
LINE
5
29C
100
AcDbEntity
8
0
62
256
6
ByLayer
370
-2
48
1
60
0
100
AcDbLine
10
43
20
-4.808471
30
0
11
43
21
-23.720971
31
0
39
0
210
0
220
0
230
1
0
LINE
5
29D
100
AcDbEntity
8
0
62
256
6
ByLayer
370
-2
48
1
60
0
100
AcDbLine
10
17.5
20
-1.5875
30
0
11
17.5
21
-23.720971
31
0
39
0
210
0
220
0
230
1
0
LINE
5
29E
100
AcDbEntity
8
0
62
256
6
ByLayer
370
-2
48
1
60
0
100
AcDbLine
10
39.5
20
-21.720971
30
0
11
21
21
-21.720971
31
0
39
0
210
0
220
0
230
1
0
SOLID
5
29F
100
AcDbEntity
8
0
62
256
6
ByLayer
370
-1
48
1
60
0
100
AcDbTrace
10
39.5
20
-22.304304
30
0
11
39.5
21
-21.137638
31
0
12
43
22
-21.720971
32
0
13
43
23
-21.720971
33
0
39
0
210
0
220
0
230
1
0
SOLID
5
2A0
100
AcDbEntity
8
0
62
256
6
ByLayer
370
-1
48
1
60
0
100
AcDbTrace
10
21
20
-21.137638
30
0
11
21
21
-22.304304
31
0
12
17.5
22
-21.720971
32
0
13
17.5
23
-21.720971
33
0
39
0
210
0
220
0
230
1
0
MTEXT
5
2A1
100
AcDbEntity
8
0
62
256
6
ByLayer
370
18
48
1
60
0
100
AcDbMText
10
30.25
20
-15.720971
30
0
210
0
220
0
230
1
1
\A1;25.5
40
3
41
0
44
1
50
0
71
5
72
5
7
iso_b_vert
0
POINT
5
2A2
100
AcDbEntity
8
Defpoints
62
0
6
ByLayer
370
-1
48
1
60
0
100
AcDbPoint
10
43
20
-3.220971
30
0
39
0
210
0
220
0
230
1
50
360
0
POINT
5
2A3
100
AcDbEntity
8
Defpoints
62
0
6
ByLayer
370
-1
48
1
60
0
100
AcDbPoint
10
17.5
20
0
30
0
39
0
210
0
220
0
230
1
50
360
0
POINT
5
2A4
100
AcDbEntity
8
Defpoints
62
0
6
ByLayer
370
-1
48
1
60
0
100
AcDbPoint
10
17.5
20
-21.720971
30
0
39
0
210
0
220
0
230
1
50
360
0
ENDBLK
5
29B
100
AcDbEntity
8
0
100
AcDbBlockEnd
0
BLOCK
5
2AC
100
AcDbEntity
8
0
100
AcDbBlockBegin
2
_U4
70
0
10
0
20
0
30
0
3
_U4
0
MTEXT
5
2A6
100
AcDbEntity
8
2
62
256
6
ByLayer
370
18
48
1
60
0
100
AcDbMText
10
26.888544
20
-20.835857
30
0
210
0
220
0
230
1
1
\W0.7346;25.5
40
3
41
0
44
1.084337
50
0
71
7
72
5
7
iso_b_vert
0
LINE
5
2A7
100
AcDbEntity
8
2
62
256
6
ByLayer
370
13
48
1
60
0
100
AcDbLine
10
43
20
-4.808471
30
0
11
43
21
-23.720971
31
0
39
0
210
0
220
0
230
1
0
LINE
5
2A8
100
AcDbEntity
8
2
62
256
6
ByLayer
370
13
48
1
60
0
100
AcDbLine
10
17.5
20
-1.5875
30
0
11
17.5
21
-23.720971
31
0
39
0
210
0
220
0
230
1
0
LINE
5
2A9
100
AcDbEntity
8
2
62
256
6
ByLayer
370
13
48
1
60
0
100
AcDbLine
10
43
20
-21.720971
30
0
11
17.5
21
-21.720971
31
0
39
0
210
0
220
0
230
1
0
SOLID
5
2AA
100
AcDbEntity
8
2
62
256
6
ByLayer
370
18
48
1
60
0
100
AcDbTrace
10
43
20
-21.720971
30
0
11
39.500002
21
-22.181755
31
0
12
39.499998
22
-21.260187
32
0
13
39.499998
23
-21.260187
33
0
39
0
210
0
220
0
230
1
0
SOLID
5
2AB
100
AcDbEntity
8
2
62
256
6
ByLayer
370
18
48
1
60
0
100
AcDbTrace
10
17.5
20
-21.720971
30
0
11
20.999998
21
-21.260187
31
0
12
21.000002
22
-22.181755
32
0
13
21.000002
23
-22.181755
33
0
39
0
210
0
220
0
230
1
0
ENDBLK
5
2AD
100
AcDbEntity
8
0
100
AcDbBlockEnd
0
ENDSEC
0
SECTION
2
ENTITIES
0
ARC
5
D5
100
AcDbEntity
8
SK1
62
256
6
ByLayer
370
18
48
1
60
0
100
AcDbCircle
39
0
10
-17.5
20
0
30
0
40
3.02400000000011
210
0
220
0
230
1
100
AcDbArc
50
325.763219
51
34.236781
0
ARC
5
D6
100
AcDbEntity
8
1
62
256
6
ByLayer
370
18
48
1
60
0
100
AcDbCircle
39
0
10
31.00962
20
3.175
30
0
40
0.9
210
0
220
0
230
1
100
AcDbArc
50
270
51
301
0
ARC
5
D7
100
AcDbEntity
8
1
62
256
6
ByLayer
370
18
48
1
60
0
100
AcDbCircle
39
0
10
16.096238
20
-3.375
30
0
40
1.1
210
0
220
0
230
1
100
AcDbArc
50
90
51
100
0
ARC
5
D8
100
AcDbEntity
8
1
62
256
6
ByLayer
370
18
48
1
60
0
100
AcDbCircle
39
0
10
16.096238
20
3.375
30
0
40
1.1
210
0
220
0
230
1
100
AcDbArc
50
260
51
270
0
POINT
5
70
100
AcDbEntity
8
80
62
256
6
ByLayer
370
18
48
1
60
0
100
AcDbPoint
10
0
20
0
30
0
39
0
210
0
220
0
230
1
50
360
0
POINT
5
72
100
AcDbEntity
8
81
62
256
6
ByLayer
370
18
48
1
60
0
100
AcDbPoint
10
44.55
20
0
30
0
39
0
210
0
220
0
230
1
50
360
0
POINT
5
74
100
AcDbEntity
8
1
62
256
6
ByLayer
370
18
48
1
60
1
100
AcDbPoint
10
43
20
3.220971
30
0
39
0
210
0
220
0
230
1
50
360
0
POINT
5
76
100
AcDbEntity
8
1
62
256
6
ByLayer
370
18
48
1
60
1
100
AcDbPoint
10
43
20
-3.220971
30
0
39
0
210
0
220
0
230
1
50
360
0
POINT
5
77
100
AcDbEntity
8
1
62
256
6
ByLayer
370
18
48
1
60
1
100
AcDbPoint
10
43
20
3.220971
30
0
39
0
210
0
220
0
230
1
50
360
0
POINT
5
78
100
AcDbEntity
8
1
62
256
6
ByLayer
370
18
48
1
60
1
100
AcDbPoint
10
40.51
20
0
30
0
39
0
210
0
220
0
230
1
50
360
0
POINT
5
79
100
AcDbEntity
8
1
62
256
6
ByLayer
370
18
48
1
60
1
100
AcDbPoint
10
43
20
-3.220971
30
0
39
0
210
0
220
0
230
1
50
360
0
POINT
5
7A
100
AcDbEntity
8
1
62
256
6
ByLayer
370
18
48
1
60
1
100
AcDbPoint
10
33
20
-3.220971
30
0
39
0
210
0
220
0
230
1
50
360
0
POINT
5
7B
100
AcDbEntity
8
1
62
256
6
ByLayer
370
18
48
1
60
1
100
AcDbPoint
10
43
20
-3.220971
30
0
39
0
210
0
220
0
230
1
50
360
0
POINT
5
7C
100
AcDbEntity
8
1
62
256
6
ByLayer
370
18
48
1
60
1
100
AcDbPoint
10
16
20
-2.275
30
0
39
0
210
0
220
0
230
1
50
360
0
POINT
5
7D
100
AcDbEntity
8
1
62
256
6
ByLayer
370
18
48
1
60
1
100
AcDbPoint
10
43
20
-3.220971
30
0
39
0
210
0
220
0
230
1
50
360
0
POINT
5
7E
100
AcDbEntity
8
1
62
256
6
ByLayer
370
18
48
1
60
1
100
AcDbPoint
10
17.5
20
0
30
0
39
0
210
0
220
0
230
1
50
360
0
SPLINE
5
D9
100
AcDbEntity
8
1
62
256
6
ByLayer
370
18
48
1
60
0
100
AcDbSpline
70
4
71
3
72
8
73
4
40
0
40
0
40
0
40
0
40
1
40
1
40
1
40
1
41
1
10
35.2380171922231
20
-3.21133407489572
30
0
41
1
10
35.2347722135662
20
-3.21695139785029
30
0
41
1
10
35.2315188534172
20
-3.22012923183905
30
0
41
1
10
35.2282389547472
20
-3.22082518447567
30
0
0
SPLINE
5
DA
100
AcDbEntity
8
1
62
256
6
ByLayer
370
13
48
1
60
0
100
AcDbSpline
70
4
71
3
72
9
73
5
40
0
40
0
40
0
40
0
40
0.177664439724864
40
1
40
1
40
1
40
1
41
1
10
41.8915977123621
20
-2.68664871318469
30
0
41
1
10
41.8905490397842
20
-2.68894647430773
30
0
41
1
10
41.8846464931498
20
-2.70067263733361
30
0
41
1
10
41.8787439443962
20
-2.70556298311334
30
0
41
1
10
41.8738900690021
20
-2.70500645550396
30
0
0
SPLINE
5
DB
100
AcDbEntity
8
1
62
256
6
ByLayer
370
18
48
1
60
0
100
AcDbSpline
70
4
71
3
72
8
73
4
40
0
40
0
40
0
40
0
40
1
40
1
40
1
40
1
41
1
10
34.8328490116291
20
-2.69550008241771
30
0
41
1
10
34.8356161447208
20
-2.69987204500211
30
0
41
1
10
34.8383832778768
20
-2.70275821976384
30
0
41
1
10
34.8411504110648
20
-2.70415918342894
30
0
0
SPLINE
5
DC
100
AcDbEntity
8
1
62
256
6
ByLayer
370
13
48
1
60
0
100
AcDbSpline
70
4
71
3
72
9
73
5
40
0
40
0
40
0
40
0
40
0.229178151791146
40
1
40
1
40
1
40
1
41
1
10
36.1934162965367
20
2.6953884752607
30
0
41
1
10
36.1943869565269
20
2.69693911694179
30
0
41
1
10
36.1986223514627
20
2.7029036259751
30
0
41
1
10
36.2028577462545
20
2.70535503181273
30
0
41
1
10
36.2061224810455
20
2.70516982811273
30
0
0
SPLINE
5
DD
100
AcDbEntity
8
1
62
256
6
ByLayer
370
18
48
1
60
0
100
AcDbSpline
70
4
71
3
72
8
73
4
40
0
40
0
40
0
40
0
40
1
40
1
40
1
40
1
41
1
10
41.8014893102282
20
-2.83943868348115
30
0
41
1
10
41.7991955459659
20
-2.83987815000822
30
0
41
1
10
41.7969502578318
20
-2.83741361884333
30
0
41
1
10
41.7947497751601
20
-2.83206970231373
30
0
0
SPLINE
5
DE
100
AcDbEntity
8
1
62
256
6
ByLayer
370
18
48
1
60
0
100
AcDbSpline
70
4
71
3
72
12
73
8
40
0
40
0
40
0
40
0
40
0.42641232177235
40
0.42641232177235
40
0.8528246435447
40
0.8528246435447
40
1
40
1
40
1
40
1
41
1
10
41.2991173785517
20
-2.87890141465769
30
0
41
1
10
41.3055808853448
20
-2.90074588831007
30
0
41
1
10
41.3119566613691
20
-2.9175536599252
30
0
41
1
10
41.3246337435609
20
-2.94137167976365
30
0
41
1
10
41.330921302322
20
-2.94838517349874
30
0
41
1
10
41.3393040607177
20
-2.95118977696501
30
0
41
1
10
41.3414483831617
20
-2.95132091719898
30
0
41
1
10
41.3435861346601
20
-2.95085627974416
30
0
0
SPLINE
5
DF
100
AcDbEntity
8
1
62
256
6
ByLayer
370
13
48
1
60
0
100
AcDbSpline
70
4
71
3
72
9
73
5
40
0
40
0
40
0
40
0
40
0.0642683647726649
40
1
40
1
40
1
40
1
41
1
10
36.8981191623099
20
2.6951020496881
30
0
41
1
10
36.8985389561323
20
2.69442507464092
30
0
41
1
10
36.9050708451938
20
2.68335612521543
30
0
41
1
10
36.9116027358686
20
2.66395239905276
30
0
41
1
10
36.9177148323307
20
2.63872570639208
30
0
0
SPLINE
5
E0
100
AcDbEntity
8
1
62
256
6
ByLayer
370
13
48
1
60
0
100
AcDbSpline
70
4
71
3
72
9
73
5
40
0
40
0
40
0
40
0
40
0.316002217767577
40
1
40
1
40
1
40
1
41
1
10
41.1817320951663
20
-2.69414984548075
30
0
41
1
10
41.1796846187145
20
-2.69070391785465
30
0
41
1
10
41.1732053083358
20
-2.67721434322462
30
0
41
1
10
41.166725997983
20
-2.65552463042482
30
0
41
1
10
41.1622941640831
20
-2.63696532070051
30
0
0
SPLINE
5
E1
100
AcDbEntity
8
1
62
256
6
ByLayer
370
13
48
1
60
0
100
AcDbSpline
70
4
71
3
72
9
73
5
40
0
40
0
40
0
40
0
40
0.0691230149626592
40
1
40
1
40
1
40
1
41
1
10
34.5951601390404
20
-2.67163479847292
30
0
41
1
10
34.5959441813758
20
-2.67394249566246
30
0
41
1
10
34.6072868900458
20
-2.7056083210432
30
0
41
1
10
34.6186295715988
20
-2.71227863325069
30
0
41
1
10
34.6291882202368
20
-2.69688922034661
30
0
0
SPLINE
5
E2
100
AcDbEntity
8
1
62
256
6
ByLayer
370
13
48
1
60
0
100
AcDbSpline
70
4
71
3
72
9
73
5
40
0
40
0
40
0
40
0
40
0.556105902277617
40
1
40
1
40
1
40
1
41
1
10
40.9798207889485
20
-2.69536988402586
30
0
41
1
10
40.9695605260173
20
-2.71157227551387
30
0
41
1
10
40.9511103348625
20
-2.70421489932306
30
0
41
1
10
40.9326600589365
20
-2.63033193490111
30
0
41
1
10
40.9244700871138
20
-2.58512980866325
30
0
0
SPLINE
5
E3
100
AcDbEntity
8
1
62
256
6
ByLayer
370
13
48
1
60
0
100
AcDbSpline
70
4
71
3
72
9
73
5
40
0
40
0
40
0
40
0
40
0.279368576666937
40
1
40
1
40
1
40
1
41
1
10
33.883444346683
20
-2.51453148131137
30
0
41
1
10
33.8871168607557
20
-2.53992230147566
30
0
41
1
10
33.9002626275815
20
-2.62207921332987
30
0
41
1
10
33.9134083967108
20
-2.67185762533151
30
0
41
1
10
33.922881650866
20
-2.69040326119495
30
0
0
SPLINE
5
E4
100
AcDbEntity
8
1
62
256
6
ByLayer
370
13
48
1
60
0
100
AcDbSpline
70
4
71
3
72
9
73
5
40
0
40
0
40
0
40
0
40
0.454513544917393
40
1
40
1
40
1
40
1
41
1
10
37.1012677880559
20
2.69648444009286
30
0
41
1
10
37.1094879129987
20
2.70878726427929
30
0
41
1
10
37.1275734575046
20
2.70711721928635
30
0
41
1
10
37.1456589991764
20
2.64152335394513
30
0
41
1
10
37.1555244173982
20
2.58766578152554
30
0
0
SPLINE
5
E5
100
AcDbEntity
8
1
62
256
6
ByLayer
370
18
48
1
60
0
100
AcDbSpline
70
4
71
3
72
19
73
15
40
0
40
0
40
0
40
0
40
0.0559966941175548
40
0.0559966941175548
40
0.291997520588166
40
0.291997520588166
40
0.527998347058776
40
0.527998347058776
40
0.586998553676429
40
0.586998553676429
40
0.645998760294082
40
0.763999173529388
40
0.763999173529388
40
1
40
1
40
1
40
1
41
1
10
40.7455881244194
20
-3.09636873377812
30
0
41
1
10
40.7449059606704
20
-3.09653022625633
30
0
41
1
10
40.7442302593818
20
-3.09640122226011
30
0
41
1
10
40.7407358759641
20
-3.09422911592631
30
0
41
1
10
40.7380110429387
20
-3.08736453959716
30
0
41
1
10
40.7326214505016
20
-3.06346413034066
30
0
41
1
10
40.7299386801194
20
-3.04643354878323
30
0
41
1
10
40.7266034718914
20
-3.01856045590478
30
0
41
1
10
40.7259374678366
20
-3.01264728919173
30
0
41
1
10
40.7246147330486
20
-3.00020103056323
30
0
41
1
10
40.722643240418
20
-2.98060151654789
30
0
41
1
10
40.7206993770652
20
-2.95825132344132
30
0
41
1
10
40.7168250913614
20
-2.90994776703738
30
0
41
1
10
40.7142592926595
20
-2.87295450564398
30
0
41
1
10
40.7116610893596
20
-2.83117542285461
30
0
0
SPLINE
5
E6
100
AcDbEntity
8
1
62
256
6
ByLayer
370
18
48
1
60
0
100
AcDbSpline
70
4
71
3
72
18
73
14
40
0
40
0
40
0
40
0
40
0.267388297041185
40
0.267388297041185
40
0.53477659408237
40
0.53477659408237
40
0.601623668342666
40
0.601623668342666
40
0.668470742602962
40
0.668470742602962
40
0.802164891123554
40
0.802164891123554
40
1
40
1
40
1
40
1
41
1
10
40.4512149785059
20
-2.77435874422986
30
0
41
1
10
40.4578725999604
20
-2.82504536271625
30
0
41
1
10
40.4645296002711
20
-2.87066588764307
30
0
41
1
10
40.4778848853312
20
-2.95193071842982
30
0
41
1
10
40.4845791583054
20
-2.98757688424149
30
0
41
1
10
40.4929634062488
20
-3.02571108650975
30
0
41
1
10
40.4946410197388
20
-3.03301554946231
30
0
41
1
10
40.4979974322839
20
-3.04696993387157
30
0
41
1
10
40.4996786967028
20
-3.05362888799462
30
0
41
1
10
40.5047032442447
20
-3.07253079393794
30
0
41
1
10
40.5080229222893
20
-3.08369096440714
30
0
41
1
10
40.516204899223
20
-3.10787316793966
30
0
41
1
10
40.5210500318741
20
-3.11922656364857
30
0
41
1
10
40.5258607718364
20
-3.12755063480765
30
0
0
SPLINE
5
E7
100
AcDbEntity
8
1
62
256
6
ByLayer
370
18
48
1
60
0
100
AcDbSpline
70
4
71
3
72
8
73
4
40
0
40
0
40
0
40
0
40
1
40
1
40
1
40
1
41
1
10
40.5317173034335
20
-3.13621153538654
30
0
41
1
10
40.5372308213825
20
-3.1429735170853
30
0
41
1
10
40.5426976417757
20
-3.14573007402697
30
0
41
1
10
40.548119685765
20
-3.14441628898436
30
0
0
SPLINE
5
E8
100
AcDbEntity
8
1
62
256
6
ByLayer
370
13
48
1
60
0
100
AcDbSpline
70
4
71
3
72
9
73
5
40
0
40
0
40
0
40
0
40
0.389644214994048
40
1
40
1
40
1
40
1
41
1
10
37.8045352240783
20
2.69611200142342
30
0
41
1
10
37.8126829660476
20
2.68367406014272
30
0
41
1
10
37.8335936900087
20
2.61882465217039
30
0
41
1
10
37.854504448471
20
2.47085832585526
30
0
41
1
10
37.8672674350844
20
2.35289710755993
30
0
0
SPLINE
5
E9
100
AcDbEntity
8
1
62
256
6
ByLayer
370
13
48
1
60
0
100
AcDbSpline
70
4
71
3
72
10
73
6
40
0
40
0
40
0
40
0
40
0.188320481741242
40
0.900367489466777
40
1
40
1
40
1
40
1
41
1
10
40.2128869049218
20
-2.3503000968995
30
0
41
1
10
40.2167894180021
20
-2.38652073192773
30
0
41
1
10
40.2354474841423
20
-2.54739054714531
30
0
41
1
10
40.2561702127397
20
-2.65732820532304
30
0
41
1
10
40.2729904238002
20
-2.69151072933869
30
0
41
1
10
40.2750550808321
20
-2.69487797794471
30
0
0
SPLINE
5
EA
100
AcDbEntity
8
1
62
256
6
ByLayer
370
13
48
1
60
0
100
AcDbSpline
70
4
71
3
72
10
73
6
40
0
40
0
40
0
40
0
40
0.243451345173926
40
0.714533325675185
40
1
40
1
40
1
40
1
41
1
10
39.9751682708386
20
-2.24599790161051
30
0
41
1
10
39.9827938386993
20
-2.32563250597312
30
0
41
1
10
40.0051749973613
20
-2.53187809806985
30
0
41
1
10
40.0364975604814
20
-2.69566516754856
30
0
41
1
10
40.0601947336431
20
-2.71027348585562
30
0
41
1
10
40.0691363283658
20
-2.70030014142139
30
0
0
SPLINE
5
EB
100
AcDbEntity
8
1
62
256
6
ByLayer
370
13
48
1
60
0
100
AcDbSpline
70
4
71
3
72
11
73
7
40
0
40
0
40
0
40
0
40
0.0044474033771356
40
0.474780807261444
40
0.945114211145752
40
1
40
1
40
1
40
1
41
1
10
38.0108428050882
20
2.69985759402178
30
0
41
1
10
38.0109823314347
20
2.70002187585936
30
0
41
1
10
38.0258774119794
20
2.71715297925189
30
0
41
1
10
38.0555280501191
20
2.66476616284612
30
0
41
1
10
38.0867610602605
20
2.43418888231008
30
0
41
1
10
38.1032385207051
20
2.26721393822049
30
0
41
1
10
38.1049604273615
20
2.24928338652128
30
0
0
SPLINE
5
EC
100
AcDbEntity
8
1
62
256
6
ByLayer
370
13
48
1
60
0
100
AcDbSpline
70
4
71
3
72
10
73
6
40
0
40
0
40
0
40
0
40
0.32246583505766
40
0.773996465552723
40
1
40
1
40
1
40
1
41
1
10
39.2633810119727
20
-1.86183124090826
30
0
41
1
10
39.2739188607216
20
-2.00505239267889
30
0
41
1
10
39.2992122604887
20
-2.31317993501079
30
0
41
1
10
39.3318912327863
20
-2.57677392252202
30
0
41
1
10
39.3540323470506
20
-2.66307610337086
30
0
41
1
10
39.3614179082225
20
-2.6813794718193
30
0
0
SPLINE
5
ED
100
AcDbEntity
8
1
62
256
6
ByLayer
370
13
48
1
60
0
100
AcDbSpline
70
4
71
3
72
10
73
6
40
0
40
0
40
0
40
0
40
0.392180258026681
40
0.806038904563851
40
1
40
1
40
1
40
1
41
1
10
32.6963645341044
20
-1.9910995964986
30
0
41
1
10
32.7103471743378
20
-2.16844020592765
30
0
41
1
10
32.7390854725075
20
-2.47500907413496
30
0
41
1
10
32.7747389546853
20
-2.67459338861965
30
0
41
1
10
32.7964099402257
20
-2.70475032913234
30
0
41
1
10
32.8033253602578
20
-2.70509956550669
30
0
0
SPLINE
5
EE
100
AcDbEntity
8
1
62
256
6
ByLayer
370
18
48
1
60
0
100
AcDbSpline
70
4
71
3
72
8
73
4
40
0
40
0
40
0
40
0
40
1
40
1
40
1
40
1
41
1
10
38.7164491516499
20
2.68732737348242
30
0
41
1
10
38.7182328485748
20
2.6834931605726
30
0
41
1
10
38.720016545431
20
2.67904016837903
30
0
41
1
10
38.7218002422506
20
2.67397417585411
30
0
0
SPLINE
5
EF
100
AcDbEntity
8
1
62
256
6
ByLayer
370
13
48
1
60
0
100
AcDbSpline
70
4
71
3
72
10
73
6
40
0
40
0
40
0
40
0
40
0.387276499476124
40
0.853408510137744
40
1
40
1
40
1
40
1
41
1
10
38.7218002422506
20
2.6739741758542
30
0
41
1
10
38.7340595985738
20
2.63915558627596
30
0
41
1
10
38.7610745027865
20
2.49861864710155
30
0
41
1
10
38.7927298540962
20
2.17985091014774
30
0
41
1
10
38.8121257969595
20
1.92868922702226
30
0
41
1
10
38.8167661931538
20
1.86571381814997
30
0
0
SPLINE
5
F0
100
AcDbEntity
8
1
62
256
6
ByLayer
370
13
48
1
60
0
100
AcDbSpline
70
4
71
3
72
11
73
7
40
0
40
0
40
0
40
0
40
0.0409026047528554
40
0.454858981635364
40
0.868815358517873
40
1
40
1
40
1
40
1
41
1
10
32.3798051997397
20
2.64835320278093
30
0
41
1
10
32.3812631811775
20
2.64278840140264
30
0
41
1
10
32.3974767175423
20
2.57638314475898
30
0
41
1
10
32.4284457572459
20
2.35374675576867
30
0
41
1
10
32.4626330518435
20
1.93845715450527
30
0
41
1
10
32.4820646861599
20
1.65340720585257
30
0
41
1
10
32.4867407814813
20
1.58232578193935
30
0
0
SPLINE
5
F1
100
AcDbEntity
8
1
62
256
6
ByLayer
370
13
48
1
60
0
100
AcDbSpline
70
4
71
3
72
10
73
6
40
0
40
0
40
0
40
0
40
0.397479887974991
40
0.808908473421419
40
1
40
1
40
1
40
1
41
1
10
39.0256791087656
20
-1.71355904683705
30
0
41
1
10
39.0399344137381
20
-1.92022358367993
30
0
41
1
10
39.068945371315
20
-2.28944461918997
30
0
41
1
10
39.1048094352189
20
-2.57619346605182
30
0
41
1
10
39.1264183874522
20
-2.66093563929897
30
0
41
1
10
39.133271747997
20
-2.67879134784363
30
0
0
SPLINE
5
F2
100
AcDbEntity
8
1
62
256
6
ByLayer
370
13
48
1
60
0
100
AcDbSpline
70
4
71
3
72
10
73
6
40
0
40
0
40
0
40
0
40
0.354674575006166
40
0.766189290435868
40
1
40
1
40
1
40
1
41
1
10
38.9469755672036
20
2.67938504087653
30
0
41
1
10
38.9596930226721
20
2.64649947594768
30
0
41
1
10
38.9871660348258
20
2.50793626361491
30
0
41
1
10
39.023022715522
20
2.14924487494011
30
0
41
1
10
39.0461619477843
20
1.83802609931519
30
0
41
1
10
39.0545456252467
20
1.71661848853068
30
0
0
SPLINE
5
F3
100
AcDbEntity
8
1
62
256
6
ByLayer
370
18
48
1
60
0
100
AcDbSpline
70
4
71
3
72
9
73
5
40
0
40
0
40
0
40
0
40
0.386297427349048
40
1
40
1
40
1
40
1
41
1
10
43
20
-1.30795227191695
30
0
41
1
10
43
20
-1.09402518667372
30
0
41
1
10
43
20
-0.511874774764721
30
0
41
1
10
43
20
0.0941486936302738
30
0
41
1
10
43.0000000000001
20
0.447513482744739
30
0
0
SPLINE
5
F4
100
AcDbEntity
8
1
62
256
6
ByLayer
370
18
48
1
60
0
100
AcDbSpline
70
4
71
3
72
30
73
26
40
0
40
0
40
0
40
0
40
0.0624999999999986
40
0.0624999999999986
40
0.124999999999997
40
0.124999999999997
40
0.249999999999996
40
0.249999999999996
40
0.374999999999994
40
0.374999999999994
40
0.406249999999994
40
0.406249999999994
40
0.437499999999994
40
0.437499999999994
40
0.499999999999995
40
0.499999999999995
40
0.624999999999996
40
0.624999999999996
40
0.749999999999997
40
0.749999999999997
40
0.812499999999998
40
0.812499999999998
40
0.874999999999999
40
0.874999999999999
40
1
40
1
40
1
40
1
41
1
10
42.6801641714839
20
0.723909899435625
30
0
41
1
10
42.6838997593464
20
0.684213907785022
30
0
41
1
10
42.6875346069323
20
0.64415141336292
30
0
41
1
10
42.6946007089299
20
0.563742927848068
30
0
41
1
10
42.6980306106716
20
0.523416895069744
30
0
41
1
10
42.7080651520574
20
0.402081450994075
30
0
41
1
10
42.7144156723624
20
0.320715564385409
30
0
41
1
10
42.7266817712973
20
0.157052777432767
30
0
41
1
10
42.7326073698117
20
0.074756380413703
30
0
41
1
10
42.7398452198666
20
-0.0287023677789193
30
0
41
1
10
42.7412828966311
20
-0.0494236664293908
30
0
41
1
10
42.7441373734241
20
-0.0909259740292896
30
0
41
1
10
42.7455548338867
20
-0.111717208640726
30
0
41
1
10
42.7497555443086
20
-0.17389642709523
30
0
41
1
10
42.7524933321346
20
-0.215180915523519
30
0
41
1
10
42.7605189052385
20
-0.338536390678627
30
0
41
1
10
42.7656173834918
20
-0.420110635834789
30
0
41
1
10
42.7753499712869
20
-0.581938743379737
30
0
41
1
10
42.7799863614034
20
-0.662192779470558
30
0
41
1
10
42.7866525958089
20
-0.781556495173191
30
0
41
1
10
42.7888299439727
20
-0.821250115736461
30
0
41
1
10
42.7930748800067
20
-0.899862337551212
30
0
41
1
10
42.7951438210261
20
-0.938765329712709
30
0
41
1
10
42.8011961245248
20
-1.05427265440397
30
0
41
1
10
42.8050118999323
20
-1.12967919022117
30
0
41
1
10
42.8085709879802
20
-1.20348956698933
30
0
0
SPLINE
5
F5
100
AcDbEntity
8
1
62
256
6
ByLayer
370
13
48
1
60
0
100
AcDbSpline
70
4
71
3
72
11
73
7
40
0
40
0
40
0
40
0
40
0.0656630446782827
40
0.477792189426036
40
0.889921334173789
40
1
40
1
40
1
40
1
41
1
10
38.3140751682581
20
-1.21725437535511
30
0
41
1
10
38.3164261172719
20
-1.25659870089439
30
0
41
1
10
38.333532620009
20
-1.53935245161372
30
0
41
1
10
38.3653946697266
20
-2.01325763378179
30
0
41
1
10
38.3988469562575
20
-2.36891158241184
30
0
41
1
10
38.4175436813702
20
-2.50568289610121
30
0
41
1
10
38.4214848527963
20
-2.53168773839141
30
0
0
SPLINE
5
F6
100
AcDbEntity
8
1
62
256
6
ByLayer
370
13
48
1
60
0
100
AcDbSpline
70
4
71
3
72
10
73
6
40
0
40
0
40
0
40
0
40
0.274532637554306
40
0.686136181394152
40
1
40
1
40
1
40
1
41
1
10
39.6586531174732
20
2.53359526739007
30
0
41
1
10
39.6684948182807
20
2.46894175202039
30
0
41
1
10
39.6930920614206
20
2.26332871281744
30
0
41
1
10
39.7289410832703
20
1.81734288559164
30
0
41
1
10
39.7549482718868
20
1.40805759326537
30
0
41
1
10
39.7661999519127
20
1.21990025268644
30
0
0
SPLINE
5
F7
100
AcDbEntity
8
1
62
256
6
ByLayer
370
13
48
1
60
0
100
AcDbSpline
70
4
71
3
72
9
73
5
40
0
40
0
40
0
40
0
40
0.145433369472301
40
1
40
1
40
1
40
1
41
1
10
42.614724753555
20
-1.08672732833722
30
0
41
1
10
42.6120917240398
20
-1.04155967764172
30
0
41
1
10
42.5939870053673
20
-0.727256337613937
30
0
41
1
10
42.5758822307508
20
-0.390301955897428
30
0
41
1
10
42.5604105126244
20
-0.100648634612725
30
0
0
SPLINE
5
F8
100
AcDbEntity
8
1
62
256
6
ByLayer
370
13
48
1
60
0
100
AcDbSpline
70
4
71
3
72
10
73
6
40
0
40
0
40
0
40
0
40
0.349491790924965
40
0.763469323061752
40
1
40
1
40
1
40
1
41
1
10
32.6176241814066
20
2.60044748846471
30
0
41
1
10
32.6300812469488
20
2.53607539827098
30
0
41
1
10
32.6572938695321
20
2.3319026306101
30
0
41
1
10
32.6929372327085
20
1.90104668336482
30
0
41
1
10
32.7161235382136
20
1.55071767504197
30
0
41
1
10
32.7245542887501
20
1.41612023933615
30
0
0
SPLINE
5
F9
100
AcDbEntity
8
1
62
256
6
ByLayer
370
13
48
1
60
0
100
AcDbSpline
70
4
71
3
72
10
73
6
40
0
40
0
40
0
40
0
40
0.268906366323629
40
0.682149935482183
40
1
40
1
40
1
40
1
41
1
10
33.3292403972315
20
2.37584431102476
30
0
41
1
10
33.3388421463325
20
2.28978883003359
30
0
41
1
10
33.3631994430562
20
2.03160774372344
30
0
41
1
10
33.3989061862914
20
1.52244684692514
30
0
41
1
10
33.4250110693565
20
1.07841816701975
30
0
41
1
10
33.4363604324067
20
0.877264777421402
30
0
0
SPLINE
5
FA
100
AcDbEntity
8
1
62
256
6
ByLayer
370
18
48
1
60
0
100
AcDbSpline
70
4
71
3
72
30
73
26
40
0
40
0
40
0
40
0
40
0.0624999999999999
40
0.0624999999999999
40
0.125
40
0.125
40
0.25
40
0.25
40
0.374999999999999
40
0.374999999999999
40
0.437499999999999
40
0.437499999999999
40
0.468749999999999
40
0.468749999999999
40
0.499999999999999
40
0.624999999999999
40
0.624999999999999
40
0.749999999999999
40
0.749999999999999
40
0.812499999999999
40
0.843749999999999
40
0.843749999999999
40
0.874999999999999
40
0.874999999999999
40
1
40
1
40
1
40
1
41
1
10
33.1307329740669
20
1.2001784785526
30
0
41
1
10
33.128261914798
20
1.25125471672075
30
0
41
1
10
33.1257794530091
20
1.30210243928815
30
0
41
1
10
33.1208499336704
20
1.40201847583225
30
0
41
1
10
33.1183974655269
20
1.45120051685723
30
0
41
1
10
33.1110604997469
20
1.59645980591381
30
0
41
1
10
33.106193860853
20
1.69025589095673
30
0
41
1
10
33.0964075497514
20
1.87183368299074
30
0
41
1
10
33.0915019033107
20
1.95961604860378
30
0
41
1
10
33.0841242320012
20
2.08669606215526
30
0
41
1
10
33.0816612749777
20
2.12828898957636
30
0
41
1
10
33.0779560814555
20
2.18950302905481
30
0
41
1
10
33.0767201611054
20
2.20969482173501
30
0
41
1
10
33.0742575498954
20
2.24945612032323
30
0
41
1
10
33.0681161321256
20
2.34744198284204
30
0
41
1
10
33.0620247638419
20
2.43844477441877
30
0
41
1
10
33.0522358698312
20
2.57530647973354
30
0
41
1
10
33.0473343797041
20
2.63936611088064
30
0
41
1
10
33.0399735381601
20
2.72884156392027
30
0
41
1
10
33.0362901836245
20
2.77192261910238
30
0
41
1
10
33.0325953897891
20
2.81247804593158
30
0
41
1
10
33.0301283235474
20
2.83894702671168
30
0
41
1
10
33.028891521848
20
2.85191082863085
30
0
41
1
10
33.0227279219651
20
2.91495282718353
30
0
41
1
10
33.0178387561094
20
2.9599563520926
30
0
41
1
10
33.0129382957955
20
2.99970123678923
30
0
0
SPLINE
5
FB
100
AcDbEntity
8
1
62
256
6
ByLayer
370
13
48
1
60
0
100
AcDbSpline
70
4
71
3
72
10
73
6
40
0
40
0
40
0
40
0
40
0.0847056019673107
40
0.59679985440116
40
1
40
1
40
1
40
1
41
1
10
41.9031040094116
20
-0.52155957265893
30
0
41
1
10
41.9000571799229
20
-0.465545723874328
30
0
41
1
10
41.8785905076084
20
-0.0684460640333953
30
0
41
1
10
41.8426208728366
20
0.616771062949937
30
0
41
1
10
41.8096980675063
20
1.1906378071225
30
0
41
1
10
41.7951951055819
20
1.42187829053472
30
0
0
SPLINE
5
FC
100
AcDbEntity
8
1
62
256
6
ByLayer
370
18
48
1
60
0
100
AcDbSpline
70
4
71
3
72
26
73
22
40
0
40
0
40
0
40
0
40
0.125000000000002
40
0.125000000000002
40
0.250000000000004
40
0.250000000000004
40
0.375000000000006
40
0.375000000000006
40
0.406250000000006
40
0.406250000000006
40
0.437500000000006
40
0.500000000000006
40
0.500000000000006
40
0.625000000000004
40
0.750000000000003
40
0.750000000000003
40
0.812500000000002
40
0.812500000000002
40
0.875000000000002
40
0.875000000000002
40
1
40
1
40
1
40
1
41
1
10
41.8636485311794
20
1.44699171381143
30
0
41
1
10
41.8698300225705
20
1.36912489296989
30
0
41
1
10
41.8758997889358
20
1.28936256413556
30
0
41
1
10
41.8878199668982
20
1.12613618138096
30
0
41
1
10
41.8936644366985
20
1.04266737991975
30
0
41
1
10
41.9051824059298
20
0.872007411799331
30
0
41
1
10
41.910862332504
20
0.784821293919549
30
0
41
1
10
41.9179496372344
20
0.673459525037373
30
0
41
1
10
41.9193682852594
20
0.651035832159977
30
0
41
1
10
41.9221919766854
20
0.606134771663562
30
0
41
1
10
41.9264066957284
20
0.538710993788101
30
0
41
1
10
41.9305592642485
20
0.471073442471663
30
0
41
1
10
41.9387841042606
20
0.335518436318779
30
0
41
1
10
41.949535175068
20
0.154033438155494
30
0
41
1
10
41.9599152367735
20
-0.0289230076547256
30
0
41
1
10
41.9676053751813
20
-0.166701819767638
30
0
41
1
10
41.9701531841876
20
-0.212721840502326
30
0
41
1
10
41.9752286055894
20
-0.304953120418844
30
0
41
1
10
41.9777452905766
20
-0.350959525940311
30
0
41
1
10
41.9852234246875
20
-0.488159994025807
30
0
41
1
10
41.9901173211736
20
-0.578746692580296
30
0
41
1
10
41.9949101398918
20
-0.668455312376693
30
0
0
SPLINE
5
FD
100
AcDbEntity
8
1
62
256
6
ByLayer
370
18
48
1
60
0
100
AcDbSpline
70
4
71
3
72
16
73
12
40
0
40
0
40
0
40
0
40
0.25
40
0.25
40
0.5
40
0.5
40
0.75
40
0.75
40
0.875
40
0.875
40
1
40
1
40
1
40
1
41
1
10
42.6128941479006
20
-1.08733880355157
30
0
41
1
10
42.6079385775211
20
-1.00938028623156
30
0
41
1
10
42.6031643072013
20
-0.930299936451291
30
0
41
1
10
42.5938899151213
20
-0.769979494684208
30
0
41
1
10
42.5894021339534
20
-0.688738389658454
30
0
41
1
10
42.580695530701
20
-0.524116027642606
30
0
41
1
10
42.5764797599989
20
-0.440733412632881
30
0
41
1
10
42.5703260412642
20
-0.314016661552444
30
0
41
1
10
42.56829933769
20
-0.271431118348232
30
0
41
1
10
42.564310519162
20
-0.186132632762963
30
0
41
1
10
42.5623482933005
20
-0.143421402151006
30
0
41
1
10
42.5604105126244
20
-0.100648634613037
30
0
0
SPLINE
5
FE
100
AcDbEntity
8
1
62
256
6
ByLayer
370
18
48
1
60
0
100
AcDbSpline
70
4
71
3
72
16
73
12
40
0
40
0
40
0
40
0
40
0.249999999999999
40
0.249999999999999
40
0.374999999999999
40
0.374999999999999
40
0.499999999999999
40
0.499999999999999
40
0.75
40
0.75
40
1
40
1
40
1
40
1
41
1
10
42.5604105126244
20
-0.100648634612412
30
0
41
1
10
42.5566832516129
20
-0.0183765432591656
30
0
41
1
10
42.5530827061417
20
0.0637943909502496
30
0
41
1
10
42.5478420093602
20
0.186898273724182
30
0
41
1
10
42.5461296294885
20
0.227801057797478
30
0
41
1
10
42.542795690526
20
0.309099235089235
30
0
41
1
10
42.5411724412807
20
0.349533553521894
30
0
41
1
10
42.5364534532472
20
0.470198549373038
30
0
41
1
10
42.5335061397162
20
0.549792920781698
30
0
41
1
10
42.5281547244445
20
0.707278019038682
30
0
41
1
10
42.5257474169409
20
0.785169010599873
30
0
41
1
10
42.5237377940999
20
0.862177414216006
30
0
0
SPLINE
5
FF
100
AcDbEntity
8
1
62
256
6
ByLayer
370
13
48
1
60
0
100
AcDbSpline
70
4
71
3
72
11
73
7
40
0
40
0
40
0
40
0
40
0.170633012207513
40
0.582676602839622
40
0.99472019347173
40
1
40
1
40
1
40
1
41
1
10
38.0762470231227
20
-1.03537612726996
30
0
41
1
10
38.0823574925114
20
-1.14116836185133
30
0
41
1
10
38.1032234965741
20
-1.49295445641056
30
0
41
1
10
38.1388452762816
20
-2.02096749027635
30
0
41
1
10
38.16854532143
20
-2.33480299755368
30
0
41
1
10
38.1834899403102
20
-2.45302373693278
30
0
41
1
10
38.1836790135824
20
-2.45451305627398
30
0
0
SPLINE
5
100
100
AcDbEntity
8
1
62
256
6
ByLayer
370
13
48
1
60
0
100
AcDbSpline
70
4
71
3
72
9
73
5
40
0
40
0
40
0
40
0
40
0.493136516095811
40
1
40
1
40
1
40
1
41
1
10
41.6653311351027
20
-0.324909994205115
30
0
41
1
10
41.6476056590621
20
0.0048364251592545
30
0
41
1
10
41.6116612247694
20
0.688566637703445
30
0
41
1
10
41.5757164375773
20
1.30959574114135
30
0
41
1
10
41.5574974319577
20
1.58608799683478
30
0
0
SPLINE
5
101
100
AcDbEntity
8
1
62
256
6
ByLayer
370
13
48
1
60
0
100
AcDbSpline
70
4
71
3
72
11
73
7
40
0
40
0
40
0
40
0
40
0.169901355789574
40
0.581177920939281
40
0.992454486088988
40
1
40
1
40
1
40
1
41
1
10
39.8964409372815
20
2.45697980039645
30
0
41
1
10
39.9025365649471
20
2.4091998247865
30
0
41
1
10
39.9233877473704
20
2.22336921271543
30
0
41
1
10
39.958994476959
20
1.78248680567211
30
0
41
1
10
39.9887763018935
20
1.30183608631296
30
0
41
1
10
40.0038025688953
20
1.0421149776767
30
0
41
1
10
40.004073282671
20
1.0374303243448
30
0
0
SPLINE
5
102
100
AcDbEntity
8
1
62
256
6
ByLayer
370
18
48
1
60
0
100
AcDbSpline
70
4
71
3
72
8
73
4
40
0
40
0
40
0
40
0
40
1
40
1
40
1
40
1
41
1
10
40.3097369102378
20
1.07371227969133
30
0
41
1
10
40.3140205590813
20
0.983974009809288
30
0
41
1
10
40.3182873614564
20
0.893144379714641
30
0
41
1
10
40.3225429437609
20
0.801233526578642
30
0
0
SPLINE
5
103
100
AcDbEntity
8
1
62
256
6
ByLayer
370
13
48
1
60
0
100
AcDbSpline
70
4
71
3
72
10
73
6
40
0
40
0
40
0
40
0
40
0.399068973784826
40
0.911903363261192
40
1
40
1
40
1
40
1
41
1
10
40.7157430586774
20
0.467773597935036
30
0
41
1
10
40.7014094530568
20
0.732291857857149
30
0
41
1
10
40.6686560946207
20
1.32103999819526
30
0
41
1
10
40.6327382659996
20
1.86123240051469
30
0
41
1
10
40.6111542808114
20
2.11662306964507
30
0
41
1
10
40.6079900655086
20
2.15251087987488
30
0
0
SPLINE
5
104
100
AcDbEntity
8
1
62
256
6
ByLayer
370
18
48
1
60
0
100
AcDbSpline
70
4
71
3
72
24
73
20
40
0
40
0
40
0
40
0
40
0.125000000000001
40
0.125000000000001
40
0.250000000000001
40
0.250000000000001
40
0.312500000000001
40
0.312500000000001
40
0.343750000000002
40
0.343750000000002
40
0.375000000000002
40
0.500000000000001
40
0.625000000000001
40
0.625000000000001
40
0.750000000000001
40
0.750000000000001
40
0.875
40
0.875
40
1
40
1
40
1
40
1
41
1
10
40.4192926285623
20
0.707753816818212
30
0
41
1
10
40.4157491179894
20
0.810103119667076
30
0
41
1
10
40.4123509270428
20
0.910599221170571
30
0
41
1
10
40.4058327099874
20
1.10792340135649
30
0
41
1
10
40.4027169758521
20
1.20474915869701
30
0
41
1
10
40.3981953110008
20
1.34718136429589
30
0
41
1
10
40.3967099732655
20
1.39419179651117
30
0
41
1
10
40.3944914438392
20
1.46399851216771
30
0
41
1
10
40.3937527325259
20
1.48717846042103
30
0
41
1
10
40.3922836177087
20
1.5331542186315
30
0
41
1
10
40.388635903127
20
1.64699348351516
30
0
41
1
10
40.3822971670761
20
1.84218318815672
30
0
41
1
10
40.3769734980953
20
2.00222986656746
30
0
41
1
10
40.3717812874072
20
2.15547893381279
30
0
41
1
10
40.3692538966479
20
2.22872890281084
30
0
41
1
10
40.3640829536147
20
2.36821480668433
30
0
41
1
10
40.3614525980716
20
2.43351739167133
30
0
41
1
10
40.3560950690849
20
2.55543569358929
30
0
41
1
10
40.3533777923406
20
2.6120493328983
30
0
41
1
10
40.3506628536443
20
2.6642095070687
30
0
0
SPLINE
5
105
100
AcDbEntity
8
1
62
256
6
ByLayer
370
18
48
1
60
0
100
AcDbSpline
70
4
71
3
72
8
73
4
40
0
40
0
40
0
40
0
40
1
40
1
40
1
40
1
41
1
10
40.3484237608995
20
0.776274838210924
30
0
41
1
10
40.336117662668
20
0.877430830624917
30
0
41
1
10
40.3232644346564
20
0.976560412651594
30
0
41
1
10
40.3097369102381
20
1.07371227969116
30
0
0
SPLINE
5
106
100
AcDbEntity
8
1
62
256
6
ByLayer
370
13
48
1
60
0
100
AcDbSpline
70
4
71
3
72
10
73
6
40
0
40
0
40
0
40
0
40
0.250127549436052
40
0.662353451938312
40
1
40
1
40
1
40
1
41
1
10
37.364668313175
20
-0.467474054201631
30
0
41
1
10
37.3736215854496
20
-0.632718050190903
30
0
41
1
10
37.3973304128354
20
-1.06318899775565
30
0
41
1
10
37.4331252295847
20
-1.65445795580678
30
0
41
1
10
37.4599667871963
20
-2.01046400842031
30
0
41
1
10
37.4720527871617
20
-2.14815245049374
30
0
0
SPLINE
5
107
100
AcDbEntity
8
1
62
256
6
ByLayer
370
18
48
1
60
0
100
AcDbSpline
70
4
71
3
72
26
73
22
40
0
40
0
40
0
40
0
40
0.125
40
0.250000000000001
40
0.250000000000001
40
0.375000000000001
40
0.375000000000001
40
0.406250000000001
40
0.406250000000001
40
0.437500000000001
40
0.500000000000002
40
0.500000000000002
40
0.750000000000002
40
0.750000000000002
40
0.781250000000002
40
0.781250000000002
40
0.812500000000002
40
0.812500000000002
40
0.875000000000001
40
0.875000000000001
40
1
40
1
40
1
40
1
41
1
10
41.512396149754
20
-0.285993227231643
30
0
41
1
10
41.508263461226
20
-0.191330633965151
30
0
41
1
10
41.5002671383795
20
-0.0024593348641986
30
0
41
1
10
41.4927866087046
20
0.185528030965173
30
0
41
1
10
41.4855112194819
20
0.373069984331096
30
0
41
1
10
41.4819760996893
20
0.466618315033855
30
0
41
1
10
41.4776284075656
20
0.583263224123328
30
0
41
1
10
41.476763592586
20
0.606543959288416
30
0
41
1
10
41.4750484085374
20
0.652822642633311
30
0
41
1
10
41.472494854505
20
0.721899380656509
30
0
41
1
10
41.4699849483762
20
0.789963087994977
30
0
41
1
10
41.4617385101148
20
1.0146158296975
30
0
41
1
10
41.4556106265644
20
1.18724805698275
30
0
41
1
10
41.4491702035704
20
1.37334899734864
30
0
41
1
10
41.4484594974356
20
1.39391368781236
30
0
41
1
10
41.4470460379645
20
1.43481470859544
30
0
41
1
10
41.4463424474751
20
1.45517522549704
30
0
41
1
10
41.444247611791
20
1.51571117800043
30
0
41
1
10
41.4428733258249
20
1.5553119600801
30
0
41
1
10
41.4387914432264
20
1.67187933899737
30
0
41
1
10
41.4361114247262
20
1.74661924270296
30
0
41
1
10
41.4334555888185
20
1.81839126183226
30
0
0
SPLINE
5
108
100
AcDbEntity
8
1
62
256
6
ByLayer
370
18
48
1
60
0
100
AcDbSpline
70
4
71
3
72
28
73
24
40
0
40
0
40
0
40
0
40
0.124999999999996
40
0.124999999999996
40
0.249999999999993
40
0.249999999999993
40
0.312499999999991
40
0.343749999999991
40
0.343749999999991
40
0.374999999999991
40
0.374999999999991
40
0.499999999999992
40
0.499999999999992
40
0.624999999999993
40
0.624999999999993
40
0.749999999999994
40
0.749999999999994
40
0.781249999999994
40
0.781249999999994
40
0.812499999999995
40
0.874999999999997
40
0.874999999999997
40
1
40
1
40
1
40
1
41
1
10
41.016357539837
20
2.16464469650228
30
0
41
1
10
41.0229836050437
20
2.09688729630892
30
0
41
1
10
41.0295670126187
20
2.02573647533751
30
0
41
1
10
41.0425570440977
20
1.87668969495954
30
0
41
1
10
41.0489708436383
20
1.798801837414
30
0
41
1
10
41.0585289914855
20
1.67689650385154
30
0
41
1
10
41.0632926593245
20
1.61467253179541
30
0
41
1
10
41.0680464656361
20
1.55050872720668
30
0
41
1
10
41.0712151046237
20
1.50729604594034
30
0
41
1
10
41.0728006810858
20
1.48544935147331
30
0
41
1
10
41.0806866172547
20
1.37573522133806
30
0
41
1
10
41.0869064316231
20
1.28601441852373
30
0
41
1
10
41.0991247002902
20
1.10276720743758
30
0
41
1
10
41.105110474635
20
1.00923581903822
30
0
41
1
10
41.1168887363447
20
0.818387773520641
30
0
41
1
10
41.1226820571183
20
0.721072055849589
30
0
41
1
10
41.1298618484831
20
0.597000888084608
30
0
41
1
10
41.1312965507133
20
0.57203428316194
30
0
41
1
10
41.1341523820758
20
0.522019565983271
30
0
41
1
10
41.1384136124292
20
0.446914895760529
30
0
41
1
10
41.1426167121285
20
0.371565089208588
30
0
41
1
10
41.150972048702
20
0.220543016441752
30
0
41
1
10
41.1564814004077
20
0.119432834754633
30
0
41
1
10
41.1619158099628
20
0.017891465958968
30
0
0
SPLINE
5
109
100
AcDbEntity
8
1
62
256
6
ByLayer
370
13
48
1
60
0
100
AcDbSpline
70
4
71
3
72
9
73
5
40
0
40
0
40
0
40
0
40
0.502689713701705
40
1
40
1
40
1
40
1
41
1
10
40.9534351236653
20
0.272276046884798
30
0
41
1
10
40.935387427407
20
0.608691992071272
30
0
41
1
10
40.8994851684988
20
1.26511745487687
30
0
41
1
10
40.863582909266
20
1.80518373131093
30
0
41
1
10
40.8457283463522
20
2.02678541099508
30
0
0
SPLINE
5
10A
100
AcDbEntity
8
1
62
256
6
ByLayer
370
13
48
1
60
0
100
AcDbSpline
70
4
71
3
72
11
73
7
40
0
40
0
40
0
40
0
40
0.164813014960788
40
0.578065800415609
40
0.991318585870429
40
1
40
1
40
1
40
1
41
1
10
33.5669408826159
20
2.27512125973013
30
0
41
1
10
33.5728256766821
20
2.21547742299148
30
0
41
1
10
33.5934660256205
20
1.9864670000303
30
0
41
1
10
33.6288619210718
20
1.48354353230059
30
0
41
1
10
33.6586830102119
20
0.966580212374595
30
0
41
1
10
33.6737485409569
20
0.693811631231796
30
0
41
1
10
33.6740585184632
20
0.68819455070971
30
0
0
SPLINE
5
10B
100
AcDbEntity
8
1
62
256
6
ByLayer
370
13
48
1
60
0
100
AcDbSpline
70
4
71
3
72
10
73
6
40
0
40
0
40
0
40
0
40
0.391782014110224
40
0.804599146591744
40
1
40
1
40
1
40
1
41
1
10
34.5164507600568
20
1.75395895252558
30
0
41
1
10
34.5304544437836
20
1.55417703327149
30
0
41
1
10
34.5592136768794
20
1.09276061496976
30
0
41
1
10
34.5949572415223
20
0.438035433290224
30
0
41
1
10
34.6166971148478
20
0.0298551186493228
30
0
41
1
10
34.6236814361307
20
-0.100927529488928
30
0
0
SPLINE
5
10C
100
AcDbEntity
8
1
62
256
6
ByLayer
370
13
48
1
60
0
100
AcDbSpline
70
4
71
3
72
11
73
7
40
0
40
0
40
0
40
0
40
0.0232876944580546
40
0.435551161585399
40
0.847814628712742
40
1
40
1
40
1
40
1
41
1
10
36.4151610716539
20
0.324005330620793
30
0
41
1
10
36.41599457461
20
0.308500458771505
30
0
41
1
10
36.4315836310642
20
0.0182075030073179
30
0
41
1
10
36.461928246124
20
-0.55639166891433
30
0
41
1
10
36.4968862985491
20
-1.1773340189047
30
0
41
1
10
36.5170888063847
20
-1.49705851143344
30
0
41
1
10
36.5225357592746
20
-1.57990058352161
30
0
0
SPLINE
5
10D
100
AcDbEntity
8
1
62
256
6
ByLayer
370
13
48
1
60
0
100
AcDbSpline
70
4
71
3
72
11
73
7
40
0
40
0
40
0
40
0
40
0.127142643158545
40
0.53939628423528
40
0.951649925312016
40
1
40
1
40
1
40
1
41
1
10
36.1774598192901
20
0.519228482510727
30
0
41
1
10
36.1820105686388
20
0.435551198074734
30
0
41
1
10
36.2013168845986
20
0.0772787340759749
30
0
41
1
10
36.2353786023314
20
-0.567631774770661
30
0
41
1
10
36.2666204353945
20
-1.12161707426952
30
0
41
1
10
36.2831065510023
20
-1.38774188697903
30
0
41
1
10
36.2848371157918
20
-1.41537187428915
30
0
0
SPLINE
5
10E
100
AcDbEntity
8
1
62
256
6
ByLayer
370
18
48
1
60
0
100
AcDbSpline
70
4
71
3
72
30
73
26
40
0
40
0
40
0
40
0
40
0.124999999999999
40
0.124999999999999
40
0.249999999999999
40
0.249999999999999
40
0.374999999999998
40
0.374999999999998
40
0.499999999999998
40
0.499999999999998
40
0.531249999999997
40
0.531249999999997
40
0.562499999999997
40
0.562499999999997
40
0.624999999999997
40
0.624999999999997
40
0.749999999999998
40
0.749999999999998
40
0.874999999999999
40
0.874999999999999
40
0.9375
40
0.9375
40
0.96875
40
0.96875
40
1
40
1
40
1
40
1
41
1
10
36.7228846801956
20
0.167475501215648
30
0
41
1
10
36.7277935930694
20
0.0583019080304439
30
0
41
1
10
36.7327201624175
20
-0.0515471207884843
30
0
41
1
10
36.7426301335158
20
-0.272547216812825
30
0
41
1
10
36.747528747659
20
-0.381798429445894
30
0
41
1
10
36.7573059805316
20
-0.597887780493039
30
0
41
1
10
36.7621980140892
20
-0.704725069478826
30
0
41
1
10
36.7720253482811
20
-0.915994560507357
30
0
41
1
10
36.7769483456892
20
-1.02042744081632
30
0
41
1
10
36.7831224990538
20
-1.1494254154058
30
0
41
1
10
36.7843585337622
20
-1.17514765201031
30
0
41
1
10
36.7868339879339
20
-1.22643555251662
30
0
41
1
10
36.7880719193293
20
-1.25197000387337
30
0
41
1
10
36.7917717174757
20
-1.32790764198199
30
0
41
1
10
36.7942258274743
20
-1.37777738923128
30
0
41
1
10
36.8015711071125
20
-1.52516235817251
30
0
41
1
10
36.8064560296425
20
-1.62045852753994
30
0
41
1
10
36.8162500389661
20
-1.8052118776404
30
0
41
1
10
36.8211476524998
20
-1.89466954438518
30
0
41
1
10
36.828513446262
20
-2.0244024498212
30
0
41
1
10
36.8309724545002
20
-2.06690304436404
30
0
41
1
10
36.8346738107313
20
-2.12951521312766
30
0
41
1
10
36.8359108177717
20
-2.15021269405278
30
0
41
1
10
36.8383768290026
20
-2.19099365445513
30
0
41
1
10
36.8396074188887
20
-2.21110435710446
30
0
41
1
10
36.8408365206095
20
-2.23093830614403
30
0
0
SPLINE
5
10F
100
AcDbEntity
8
1
62
256
6
ByLayer
370
18
48
1
60
0
100
AcDbSpline
70
4
71
3
72
30
73
26
40
0
40
0
40
0
40
0
40
0.125
40
0.125
40
0.25
40
0.25
40
0.28125
40
0.28125
40
0.3125
40
0.3125
40
0.375000000000001
40
0.375000000000001
40
0.500000000000001
40
0.500000000000001
40
0.625000000000001
40
0.625000000000001
40
0.687500000000001
40
0.687500000000001
40
0.718750000000001
40
0.718750000000001
40
0.750000000000001
40
0.750000000000001
40
0.875
40
0.875
40
1
40
1
40
1
40
1
41
1
10
33.8744620754984
20
2.58648549897714
30
0
41
1
10
33.8793536074118
20
2.52127663863885
30
0
41
1
10
33.8842418210834
20
2.45185364034629
30
0
41
1
10
33.8940599940694
20
2.30464483399169
30
0
41
1
10
33.8989768141598
20
2.22685899479887
30
0
41
1
10
33.9051413267532
20
2.12427553739528
30
0
41
1
10
33.9063753336257
20
2.10349062576927
30
0
41
1
10
33.9088465178569
20
2.06137851975515
30
0
41
1
10
33.9100854177858
20
2.04002095728069
30
0
41
1
10
33.9137904320133
20
1.97544637428209
30
0
41
1
10
33.9162475552602
20
1.93168300494912
30
0
41
1
10
33.9236004265803
20
1.79829609850356
30
0
41
1
10
33.9284878883169
20
1.706581482443
30
0
41
1
10
33.9382897375808
20
1.51766953874446
30
0
41
1
10
33.9431913092515
20
1.42047167889569
30
0
41
1
10
33.9505584806528
20
1.2705049698929
30
0
41
1
10
33.9530171904652
20
1.21981977120885
30
0
41
1
10
33.9567163819866
20
1.14272796570285
30
0
41
1
10
33.9579527367406
20
1.11682374940855
30
0
41
1
10
33.9604241772463
20
1.0647952020966
30
0
41
1
10
33.9616571464657
20
1.03871581117275
30
0
41
1
10
33.9678127369347
20
0.907997259585471
30
0
41
1
10
33.9727177899756
20
0.802396329433975
30
0
41
1
10
33.9825395533232
20
0.589198916768964
30
0
41
1
10
33.9874428954736
20
0.481601733403267
30
0
41
1
10
33.9923451102399
20
0.373001995040767
30
0
0
SPLINE
5
110
100
AcDbEntity
8
1
62
256
6
ByLayer
370
13
48
1
60
0
100
AcDbSpline
70
4
71
3
72
10
73
6
40
0
40
0
40
0
40
0
40
0.35437169362562
40
0.766863049965798
40
1
40
1
40
1
40
1
41
1
10
37.1269490492468
20
-0.27133895722028
30
0
41
1
10
37.1396255513391
20
-0.507661903661273
30
0
41
1
10
37.1670575552564
20
-1.01232287491368
30
0
41
1
10
37.2028294653358
20
-1.60174284711377
30
0
41
1
10
37.2259247093135
20
-1.91731972357701
30
0
41
1
10
37.2342644262706
20
-2.021194373177
30
0
0
SPLINE
5
111
100
AcDbEntity
8
1
62
256
6
ByLayer
370
13
48
1
60
0
100
AcDbSpline
70
4
71
3
72
10
73
6
40
0
40
0
40
0
40
0
40
0.207268078038849
40
0.620296303994736
40
1
40
1
40
1
40
1
41
1
10
35.4658475585817
20
1.0843920110309
30
0
41
1
10
35.4732522704829
20
0.957276553090338
30
0
41
1
10
35.4954125347969
20
0.564098999908083
30
0
41
1
10
35.5311378315208
20
-0.1095038244394
30
0
41
1
10
35.5594584050092
20
-0.6359095007642
30
0
41
1
10
35.5730234299201
20
-0.876384678130592
30
0
0
SPLINE
5
112
100
AcDbEntity
8
1
62
256
6
ByLayer
370
18
48
1
60
0
100
AcDbSpline
70
4
71
3
72
29
73
25
40
0
40
0
40
0
40
0
40
0.125000000000001
40
0.125000000000001
40
0.250000000000002
40
0.250000000000002
40
0.312500000000002
40
0.312500000000002
40
0.343750000000002
40
0.343750000000002
40
0.375000000000003
40
0.375000000000003
40
0.500000000000002
40
0.500000000000002
40
0.625000000000001
40
0.625000000000001
40
0.687500000000001
40
0.718750000000001
40
0.718750000000001
40
0.750000000000001
40
0.750000000000001
40
0.875
40
0.875
40
1
40
1
40
1
40
1
41
1
10
35.7735122134597
20
1.08865306524061
30
0
41
1
10
35.7784117591628
20
0.985452293909162
30
0
41
1
10
35.7832823961743
20
0.880850346369641
30
0
41
1
10
35.7930795414661
20
0.668884412692734
30
0
41
1
10
35.7979935919821
20
0.561519945224205
30
0
41
1
10
35.8053872836748
20
0.398362405296524
30
0
41
1
10
35.8078561320432
20
0.343624096919001
30
0
41
1
10
35.8115706934401
20
0.260976832508078
30
0
41
1
10
35.8128097007278
20
0.23336204775228
30
0
41
1
10
35.8152785776241
20
0.178268339945817
30
0
41
1
10
35.8165101313425
20
0.150751975547053
30
0
41
1
10
35.8226572079073
20
0.013321162925763
30
0
41
1
10
35.8275414997064
20
-0.0961414180568738
30
0
41
1
10
35.837353775308
20
-0.314118785784018
30
0
41
1
10
35.8422685343547
20
-0.422634141744083
30
0
41
1
10
35.8496475181828
20
-0.584691114680197
30
0
41
1
10
35.8533395425565
20
-0.665540206485446
30
0
41
1
10
35.8570419907646
20
-0.746115489782227
30
0
41
1
10
35.8595139145218
20
-0.799770710781928
30
0
41
1
10
35.860752808558
20
-0.826592006459066
30
0
41
1
10
35.866925221282
20
-0.95979361158038
30
0
41
1
10
35.8718177629653
20
-1.06399956113717
30
0
41
1
10
35.8816282064005
20
-1.26784425715857
30
0
41
1
10
35.8865334162038
20
-1.36748318202001
30
0
41
1
10
35.8914379591812
20
-1.46484003683057
30
0
0
SPLINE
5
113
100
AcDbEntity
8
1
62
256
6
ByLayer
370
18
48
1
60
0
100
AcDbSpline
70
4
71
3
72
32
73
28
40
0
40
0
40
0
40
0
40
0.0625000000000008
40
0.093750000000001
40
0.093750000000001
40
0.125000000000001
40
0.125000000000001
40
0.250000000000001
40
0.250000000000001
40
0.375
40
0.375
40
0.5
40
0.5
40
0.53125
40
0.53125
40
0.5625
40
0.625
40
0.625
40
0.75
40
0.75
40
0.875000000000001
40
0.875000000000001
40
0.906250000000001
40
0.906250000000001
40
0.9375
40
0.9375
40
1
40
1
40
1
40
1
41
1
10
34.8239829560648
20
1.92059035578438
30
0
41
1
10
34.8264449656783
20
1.87665441401796
30
0
41
1
10
34.8301430747515
20
1.80936187244137
30
0
41
1
10
34.8338518890609
20
1.73995084862844
30
0
41
1
10
34.8363277186954
20
1.69320027166634
30
0
41
1
10
34.8375668382481
20
1.66959387206327
30
0
41
1
10
34.8437372672674
20
1.55105587592769
30
0
41
1
10
34.8486193530062
20
1.45407320386059
30
0
41
1
10
34.8583871068017
20
1.25593746498814
30
0
41
1
10
34.8632836349458
20
1.15478454900287
30
0
41
1
10
34.8730931332553
20
0.948305590209173
30
0
41
1
10
34.8780038083814
20
0.842979792676005
30
0
41
1
10
34.8841774554903
20
0.708631015771971
30
0
41
1
10
34.8854156338401
20
0.681593127220935
30
0
41
1
10
34.8878841071565
20
0.627533255394638
30
0
41
1
10
34.8915785559996
20
0.546391513189036
30
0
41
1
10
34.8952552976372
20
0.465096116524848
30
0
41
1
10
34.9026085608102
20
0.302304789726748
30
0
41
1
10
34.9075197950242
20
0.193510791284496
30
0
41
1
10
34.9173391078311
20
-0.0246063114564947
30
0
41
1
10
34.9222447944838
20
-0.133929507263986
30
0
41
1
10
34.9283947089991
20
-0.270920711350243
30
0
41
1
10
34.9296257658309
20
-0.29833584630785
30
0
41
1
10
34.9320913522637
20
-0.353200203451223
30
0
41
1
10
34.9333275277855
20
-0.380685961203198
30
0
41
1
10
34.9370311810946
20
-0.46291622841747
30
0
41
1
10
34.9394887710925
20
-0.5173252319548
30
0
41
1
10
34.9419429695718
20
-0.57133133477754
30
0
0
SPLINE
5
114
100
AcDbEntity
8
1
62
256
6
ByLayer
370
18
48
1
60
0
100
AcDbSpline
70
4
71
3
72
28
73
24
40
0
40
0
40
0
40
0
40
0.125
40
0.125
40
0.1875
40
0.21875
40
0.21875
40
0.25
40
0.25
40
0.374999999999999
40
0.374999999999999
40
0.499999999999999
40
0.499999999999999
40
0.624999999999998
40
0.624999999999998
40
0.656249999999998
40
0.656249999999998
40
0.687499999999998
40
0.749999999999999
40
0.749999999999999
40
0.874999999999999
40
0.874999999999999
40
1
40
1
40
1
40
1
41
1
10
34.0801900756454
20
0.285696470905663
30
0
41
1
10
34.0753044457673
20
0.394339734831959
30
0
41
1
10
34.0703962589705
20
0.502400112346834
30
0
41
1
10
34.0630152302549
20
0.663607902333808
30
0
41
1
10
34.0593195670406
20
0.743990660989539
30
0
41
1
10
34.0556123126267
20
0.824035842209895
30
0
41
1
10
34.0531372531713
20
0.877323306312604
30
0
41
1
10
34.0518986702381
20
0.903913654341579
30
0
41
1
10
34.0457298952748
20
1.03590933909282
30
0
41
1
10
34.0408463138366
20
1.13905767176098
30
0
41
1
10
34.0310682333008
20
1.34059999164643
30
0
41
1
10
34.0261660868264
20
1.43899333456795
30
0
41
1
10
34.0163529474233
20
1.63102120916904
30
0
41
1
10
34.0114430703972
20
1.72465617697077
30
0
41
1
10
34.0052722099003
20
1.83862776829662
30
0
41
1
10
34.0040347739582
20
1.86129318178919
30
0
41
1
10
34.001568130463
20
1.90606975406735
30
0
41
1
10
33.9978765487682
20
1.97247641564977
30
0
41
1
10
33.9942026873004
20
2.03663506799072
30
0
41
1
10
33.9868540312916
20
2.1620023277944
30
0
41
1
10
33.9819474426384
20
2.24165441428895
30
0
41
1
10
33.9721391833002
20
2.39317557226346
30
0
41
1
10
33.9672386310599
20
2.46504492174088
30
0
41
1
10
33.9623202852155
20
2.5329343128235
30
0
0
SPLINE
5
115
100
AcDbEntity
8
1
62
256
6
ByLayer
370
13
48
1
60
0
100
AcDbSpline
70
4
71
3
72
11
73
7
40
0
40
0
40
0
40
0
40
0.0832592549201321
40
0.49649960317791
40
0.909739951435689
40
1
40
1
40
1
40
1
41
1
10
34.2787267577292
20
1.8998905384077
30
0
41
1
10
34.2816996910567
20
1.86024575965578
30
0
41
1
10
34.2994281790632
20
1.61663098521737
30
0
41
1
10
34.3319123202059
20
1.09607024142954
30
0
41
1
10
34.3646462276946
20
0.495753290584219
30
0
41
1
10
34.3826247185633
20
0.159538355219325
30
0
41
1
10
34.3858476360225
20
0.0991927359287672
30
0
0
SPLINE
5
116
100
AcDbEntity
8
1
62
256
6
ByLayer
370
18
48
1
60
0
100
AcDbSpline
70
4
71
3
72
32
73
28
40
0
40
0
40
0
40
0
40
0.03125
40
0.03125
40
0.0625
40
0.125
40
0.125
40
0.249999999999999
40
0.249999999999999
40
0.374999999999998
40
0.374999999999998
40
0.406249999999998
40
0.406249999999998
40
0.437499999999998
40
0.437499999999998
40
0.499999999999998
40
0.499999999999998
40
0.624999999999998
40
0.624999999999998
40
0.749999999999998
40
0.749999999999998
40
0.812499999999998
40
0.812499999999998
40
0.843749999999998
40
0.843749999999998
40
0.874999999999999
40
1
40
1
40
1
40
1
41
1
10
35.0296932387446
20
-0.656630580878669
30
0
41
1
10
35.0284555945912
20
-0.62957808427592
30
0
41
1
10
35.0272161735053
20
-0.602396306067277
30
0
41
1
10
35.0247471677687
20
-0.548091577957734
30
0
41
1
10
35.0210529199257
20
-0.466604124013799
30
0
41
1
10
35.0173806669231
20
-0.385026872406854
30
0
41
1
10
35.010045007947
20
-0.221755377980287
30
0
41
1
10
35.0051545257624
20
-0.112752554887891
30
0
41
1
10
34.9953368800307
20
0.10555947794191
30
0
41
1
10
34.9904211898902
20
0.21486919096543
30
0
41
1
10
34.9842561310565
20
0.35170255694328
30
0
41
1
10
34.9830219211835
20
0.379079058067418
30
0
41
1
10
34.9805500842849
20
0.433851887757441
30
0
41
1
10
34.9793108230596
20
0.461284275080857
30
0
41
1
10
34.9756050371214
20
0.543189258974991
30
0
41
1
10
34.9731468111775
20
0.597354615003724
30
0
41
1
10
34.965788522903
20
0.758562403818615
30
0
41
1
10
34.9608932882996
20
0.86431933556878
30
0
41
1
10
34.9510847580804
20
1.07245936528179
30
0
41
1
10
34.9461827129848
20
1.17484292576987
30
0
41
1
10
34.9388167881125
20
1.32585177936483
30
0
41
1
10
34.9363587998415
20
1.37575947490453
30
0
41
1
10
34.932660667408
20
1.44996554432308
30
0
41
1
10
34.9314245090218
20
1.47462228981169
30
0
41
1
10
34.9289543695991
20
1.52356364711449
30
0
41
1
10
34.9227953954702
20
1.64482747916136
30
0
41
1
10
34.9166626764266
20
1.76072823806834
30
0
41
1
10
34.9117531362831
20
1.85010629037649
30
0
0
SPLINE
5
117
100
AcDbEntity
8
1
62
256
6
ByLayer
370
13
48
1
60
0
100
AcDbSpline
70
4
71
3
72
10
73
6
40
0
40
0
40
0
40
0
40
0.312430309278009
40
0.725408844417068
40
1
40
1
40
1
40
1
41
1
10
35.2280230794199
20
1.26446116423352
30
0
41
1
10
35.2391860994479
20
1.07953822101024
30
0
41
1
10
35.2651047050883
20
0.623862312728136
30
0
41
1
10
35.3008342141456
20
-0.05014788854362
30
0
41
1
10
35.3254008488829
20
-0.507313702034253
30
0
41
1
10
35.3352118926062
20
-0.685153565995648
30
0
0
SPLINE
5
118
100
AcDbEntity
8
1
62
256
6
ByLayer
370
18
48
1
60
0
100
AcDbSpline
70
4
71
3
72
10
73
6
40
0
40
0
40
0
40
0
40
0.5
40
0.5
40
1
40
1
40
1
40
1
41
1
10
39.8964409372815
20
2.45697980039648
30
0
41
1
10
39.9424205102577
20
2.51620159485898
30
0
41
1
10
39.988074843404
20
2.57322970584752
30
0
41
1
10
40.0789006588207
20
2.6829884492692
30
0
41
1
10
40.124023119176
20
2.73565625108188
30
0
41
1
10
40.1688370191924
20
2.78602772588891
30
0
0
SPLINE
5
119
100
AcDbEntity
8
1
62
256
6
ByLayer
370
18
48
1
60
0
100
AcDbSpline
70
4
71
3
72
8
73
4
40
0
40
0
40
0
40
0
40
1
40
1
40
1
40
1
41
1
10
40.1688370191924
20
2.78602772588891
30
0
41
1
10
40.2291709144044
20
2.74675862453651
30
0
41
1
10
40.2897691525372
20
2.70613889578888
30
0
41
1
10
40.3506628536443
20
2.66420950706873
30
0
0
SPLINE
5
11A
100
AcDbEntity
8
1
62
256
6
ByLayer
370
18
48
1
60
0
100
AcDbSpline
70
4
71
3
72
10
73
6
40
0
40
0
40
0
40
0
40
0.5
40
0.5
40
1
40
1
40
1
40
1
41
1
10
40.3506628536443
20
2.66420950706873
30
0
41
1
10
40.3930123869846
20
2.57886838634576
30
0
41
1
10
40.4356542879405
20
2.49339409721449
30
0
41
1
10
40.5214412234472
20
2.32268922210315
30
0
41
1
10
40.5645645068566
20
2.23749986505959
30
0
41
1
10
40.6079900655086
20
2.15251087987488
30
0
0
SPLINE
5
11B
100
AcDbEntity
8
1
62
256
6
ByLayer
370
18
48
1
60
0
100
AcDbSpline
70
4
71
3
72
27
73
23
40
0
40
0
40
0
40
0
40
0.124999999999965
40
0.124999999999965
40
0.249999999999931
40
0.249999999999931
40
0.374999999999896
40
0.374999999999896
40
0.499999999999861
40
0.499999999999861
40
0.624999999999826
40
0.624999999999826
40
0.687499999999855
40
0.687499999999855
40
0.749999999999884
40
0.812499999999913
40
0.812499999999913
40
0.874999999999942
40
0.874999999999942
40
0.937499999999971
40
0.937499999999971
40
1
40
1
40
1
40
1
41
1
10
40.6079900655086
20
2.15251087987488
30
0
41
1
10
40.6146171852112
20
2.13954081810238
30
0
41
1
10
40.6223459498255
20
2.12747515779276
30
0
41
1
10
40.6394572494992
20
2.10469817226317
30
0
41
1
10
40.6489543725699
20
2.09391292818984
30
0
41
1
10
40.6686931302795
20
2.07435723802786
30
0
41
1
10
40.6789904170421
20
2.06549025890513
30
0
41
1
10
40.7003572940236
20
2.04944049270364
30
0
41
1
10
40.7114790477186
20
2.04225083175987
30
0
41
1
10
40.7336609901218
20
2.03010918824484
30
0
41
1
10
40.7448169464583
20
2.0250731088893
30
0
41
1
10
40.7616277346063
20
2.01922431169987
30
0
41
1
10
40.7672740950113
20
2.01755637721317
30
0
41
1
10
40.7783797443352
20
2.01491244192326
30
0
41
1
10
40.7893212944483
20
2.01294578331294
30
0
41
1
10
40.7998998501861
20
2.01243580061066
30
0
41
1
10
40.8102666246349
20
2.01275914409967
30
0
41
1
10
40.8153474131608
20
2.0133461629151
30
0
41
1
10
40.8249577080951
20
2.01544340288604
30
0
41
1
10
40.8295253693847
20
2.01695123107913
30
0
41
1
10
40.8381101849157
20
2.02103288093389
30
0
41
1
10
40.8421386346537
20
2.02362469055905
30
0
41
1
10
40.8457283463523
20
2.02678541099417
30
0
0
SPLINE
5
11C
100
AcDbEntity
8
1
62
256
6
ByLayer
370
18
48
1
60
0
100
AcDbSpline
70
4
71
3
72
10
73
6
40
0
40
0
40
0
40
0
40
0.500000000000001
40
0.500000000000001
40
1
40
1
40
1
40
1
41
1
10
40.8457283463522
20
2.02678541099508
30
0
41
1
10
40.8744101263449
20
2.05203955276176
30
0
41
1
10
40.9029577804138
20
2.07615608100852
30
0
41
1
10
40.9598219958958
20
2.12210498346815
30
0
41
1
10
40.9881491837013
20
2.14393148225861
30
0
41
1
10
41.016357539837
20
2.16464469650231
30
0
0
SPLINE
5
11D
100
AcDbEntity
8
1
62
256
6
ByLayer
370
18
48
1
60
0
100
AcDbSpline
70
4
71
3
72
8
73
4
40
0
40
0
40
0
40
0
40
1
40
1
40
1
40
1
41
1
10
41.016357539837
20
2.16464469650231
30
0
41
1
10
41.1546638817548
20
2.05287356032585
30
0
41
1
10
41.2935043719628
20
1.93724387073962
30
0
41
1
10
41.4334555888185
20
1.81839126183223
30
0
0
SPLINE
5
11E
100
AcDbEntity
8
1
62
256
6
ByLayer
370
18
48
1
60
0
100
AcDbSpline
70
4
71
3
72
8
73
4
40
0
40
0
40
0
40
0
40
1
40
1
40
1
40
1
41
1
10
41.4334555888185
20
1.81839126183223
30
0
41
1
10
41.4745569431782
20
1.73998952862399
30
0
41
1
10
41.5158823026905
20
1.66254088372605
30
0
41
1
10
41.5574974319577
20
1.58608799683478
30
0
0
SPLINE
5
11F
100
AcDbEntity
8
1
62
256
6
ByLayer
370
18
48
1
60
0
100
AcDbSpline
70
4
71
3
72
27
73
23
40
0
40
0
40
0
40
0
40
0.125
40
0.125
40
0.25
40
0.25
40
0.375
40
0.375
40
0.5
40
0.5
40
0.625
40
0.625
40
0.6875
40
0.6875
40
0.75
40
0.8125
40
0.8125
40
0.875
40
0.875
40
0.9375
40
0.9375
40
1
40
1
40
1
40
1
41
1
10
41.5574974319577
20
1.58608799683478
30
0
41
1
10
41.5641198236247
20
1.57392172533733
30
0
41
1
10
41.571842472946
20
1.56220408310122
30
0
41
1
10
41.5889407480125
20
1.53945032098415
30
0
41
1
10
41.5984313878873
20
1.52832434660681
30
0
41
1
10
41.6181603272939
20
1.50751174452964
30
0
41
1
10
41.6284533647239
20
1.49773371453645
30
0
41
1
10
41.6498146964148
20
1.47932850633046
30
0
41
1
10
41.660935931116
20
1.47068163253084
30
0
41
1
10
41.6831192350464
20
1.45517705728517
30
0
41
1
10
41.694277082182
20
1.44822723186422
30
0
41
1
10
41.7110926999533
20
1.43911234820311
30
0
41
1
10
41.7167411543201
20
1.4362821805021
30
0
41
1
10
41.727850626468
20
1.43120936695593
30
0
41
1
10
41.7387959110396
20
1.42670569836554
30
0
41
1
10
41.7493769503086
20
1.4234249481288
30
0
41
1
10
41.7597457945687
20
1.42084050057008
30
0
41
1
10
41.7648264744361
20
1.41990269056765
30
0
41
1
10
41.7744351874175
20
1.41888303141587
30
0
41
1
10
41.7790014952267
20
1.41878891602997
30
0
41
1
10
41.787582591661
20
1.41956430284287
30
0
41
1
10
41.791608291871
20
1.4204443836129
30
0
41
1
10
41.795195105582
20
1.42187829053353
30
0
0
SPLINE
5
120
100
AcDbEntity
8
1
62
256
6
ByLayer
370
18
48
1
60
0
100
AcDbSpline
70
4
71
3
72
8
73
4
40
0
40
0
40
0
40
0
40
1
40
1
40
1
40
1
41
1
10
41.7951951055819
20
1.42187829053472
30
0
41
1
10
41.8180904451196
20
1.43103120129575
30
0
41
1
10
41.8409049481357
20
1.43939956378432
30
0
41
1
10
41.8636485311795
20
1.44699171381166
30
0
0
SPLINE
5
121
100
AcDbEntity
8
1
62
256
6
ByLayer
370
18
48
1
60
0
100
AcDbSpline
70
4
71
3
72
14
73
10
40
0
40
0
40
0
40
0
40
0.25
40
0.25
40
0.5
40
0.5
40
0.75
40
0.75
40
1
40
1
40
1
40
1
41
1
10
41.8636485311796
20
1.44699171381143
30
0
41
1
10
41.9179468451948
20
1.39948090602323
30
0
41
1
10
41.9724716152105
20
1.35157830202496
30
0
41
1
10
42.082010146354
20
1.25501953079751
30
0
41
1
10
42.1370479821537
20
1.20634208359675
30
0
41
1
10
42.2475371479049
20
1.10833277248176
30
0
41
1
10
42.3027517703678
20
1.05920228834845
30
0
41
1
10
42.4131432793776
20
0.960716078397525
30
0
41
1
10
42.4683460853969
20
0.911388405715854
30
0
41
1
10
42.5237377941006
20
0.862177414216006
30
0
0
SPLINE
5
122
100
AcDbEntity
8
1
62
256
6
ByLayer
370
18
48
1
60
0
100
AcDbSpline
70
4
71
3
72
19
73
15
40
0
40
0
40
0
40
0
40
0.125000000000049
40
0.125000000000049
40
0.250000000000099
40
0.250000000000099
40
0.500000000000066
40
0.500000000000066
40
0.62500000000005
40
0.62500000000005
40
0.750000000000033
40
0.875000000000017
40
0.875000000000017
40
1
40
1
40
1
40
1
41
1
10
42.5237377940999
20
0.862177414215978
30
0
41
1
10
42.5288224772431
20
0.855644752761037
30
0
41
1
10
42.534251796491
20
0.849100616488329
30
0
41
1
10
42.5457367585792
20
0.835992249112053
30
0
41
1
10
42.5517765329304
20
0.829451643858022
30
0
41
1
10
42.5702811758398
20
0.810308577505111
30
0
41
1
10
42.5832781764736
20
0.79799851764102
30
0
41
1
10
42.6036695843357
20
0.780130125496186
30
0
41
1
10
42.6105980875543
20
0.774295916061391
30
0
41
1
10
42.624432660411
20
0.763090430872865
30
0
41
1
10
42.6383207075288
20
0.752280704918093
30
0
41
1
10
42.6522994811763
20
0.742265062331427
30
0
41
1
10
42.6663180614588
20
0.732677582278484
30
0
41
1
10
42.6733311555423
20
0.728112635560478
30
0
41
1
10
42.6801641714836
20
0.723909899435142
30
0
0
SPLINE
5
123
100
AcDbEntity
8
1
62
256
6
ByLayer
370
18
48
1
60
0
100
AcDbSpline
70
4
71
3
72
8
73
4
40
0
40
0
40
0
40
0
40
1
40
1
40
1
40
1
41
1
10
42.6801641714837
20
0.723909899435625
30
0
41
1
10
42.7858227257436
20
0.631039419485035
30
0
41
1
10
42.8921864920449
20
0.538627171921974
30
0
41
1
10
43.0000000000001
20
0.447513482744881
30
0
0
SPLINE
5
124
100
AcDbEntity
8
1
62
256
6
ByLayer
370
18
48
1
60
0
100
AcDbSpline
70
4
71
3
72
10
73
6
40
0
40
0
40
0
40
0
40
0.149072488842634
40
0.149072488842634
40
1
40
1
40
1
40
1
41
1
10
43
20
0.444265655527005
30
0
41
1
10
43
20
0.448180350260287
30
0
41
1
10
43
20
0.452256039880354
30
0
41
1
10
43
20
0.480618777610573
30
0
41
1
10
43
20
0.509794692672386
30
0
41
1
10
43
20
0.543902655527603
30
0
0
SPLINE
5
125
100
AcDbEntity
8
1
62
256
6
ByLayer
370
18
48
1
60
0
100
AcDbSpline
70
4
71
3
72
29
73
25
40
0
40
0
40
0
40
0
40
0.249999999999995
40
0.249999999999995
40
0.374999999999993
40
0.437499999999992
40
0.437499999999992
40
0.499999999999991
40
0.499999999999991
40
0.62499999999999
40
0.62499999999999
40
0.65624999999999
40
0.65624999999999
40
0.68749999999999
40
0.68749999999999
40
0.749999999999991
40
0.749999999999991
40
0.812499999999993
40
0.812499999999993
40
0.843749999999994
40
0.843749999999994
40
0.874999999999995
40
0.874999999999995
40
1
40
1
40
1
40
1
41
1
10
43
20
1.52275792332259
30
0
41
1
10
43
20
1.60436292896185
30
0
41
1
10
43
20
1.68869477375375
30
0
41
1
10
43
20
1.81927992054096
30
0
41
1
10
43
20
1.88559967044401
30
0
41
1
10
43
20
1.95348811056041
30
0
41
1
10
43
20
1.99909937636781
30
0
41
1
10
43
20
2.02207543648845
30
0
41
1
10
43
20
2.09110932513414
30
0
41
1
10
43
20
2.13741137371201
30
0
41
1
10
43
20
2.1956377051587
30
0
41
1
10
43
20
2.20730080140729
30
0
41
1
10
43
20
2.23066104662595
30
0
41
1
10
43
20
2.24235053255856
30
0
41
1
10
43
20
2.27753226616758
30
0
41
1
10
43
20
2.30119983087744
30
0
41
1
10
43
20
2.34897517372366
30
0
41
1
10
43
20
2.37307757500383
30
0
41
1
10
43
20
2.40956407969966
30
0
41
1
10
43
20
2.42178186531811
30
0
41
1
10
43
20
2.44633229436098
30
0
41
1
10
43
20
2.45870451818075
30
0
41
1
10
43
20
2.52007035329353
30
0
41
1
10
43.0000000000001
20
2.5680031264931
30
0
41
1
10
43
20
2.61480939828232
30
0
0
SPLINE
5
126
100
AcDbEntity
8
1
62
256
6
ByLayer
370
18
48
1
60
0
100
AcDbSpline
70
4
71
3
72
10
73
6
40
0
40
0
40
0
40
0
40
0.5
40
0.5
40
1
40
1
40
1
40
1
41
1
10
43
20
2.61480939828232
30
0
41
1
10
42.9235102330933
20
2.6334430076117
30
0
41
1
10
42.8474398740071
20
2.65002905670096
30
0
41
1
10
42.6966828366894
20
2.67882344666637
30
0
41
1
10
42.6219534310071
20
2.69102958922903
30
0
41
1
10
42.5475719357747
20
2.70108388552595
30
0
0
SPLINE
5
127
100
AcDbEntity
8
1
62
256
6
ByLayer
370
18
48
1
60
0
100
AcDbSpline
70
4
71
3
72
8
73
4
40
0
40
0
40
0
40
0
40
1
40
1
40
1
40
1
41
1
10
42.5475719357748
20
2.70108388552583
30
0
41
1
10
42.5437046892754
20
2.69425544874619
30
0
41
1
10
42.5398352850506
20
2.68741385090587
30
0
41
1
10
42.5359640999535
20
2.680559776753
30
0
0
SPLINE
5
128
100
AcDbEntity
8
1
62
256
6
ByLayer
370
18
48
1
60
0
100
AcDbSpline
70
4
71
3
72
26
73
22
40
0
40
0
40
0
40
0
40
0.124999999999977
40
0.124999999999977
40
0.249999999999953
40
0.249999999999953
40
0.37499999999993
40
0.37499999999993
40
0.499999999999907
40
0.499999999999907
40
0.624999999999883
40
0.624999999999883
40
0.74999999999986
40
0.74999999999986
40
0.812499999999895
40
0.812499999999895
40
0.87499999999993
40
0.87499999999993
40
0.937499999999965
40
0.937499999999965
40
1
40
1
40
1
40
1
41
1
10
42.5359640999532
20
2.68055977675283
30
0
41
1
10
42.5295797550346
20
2.66925606163926
30
0
41
1
10
42.5221666573531
20
2.65927032162943
30
0
41
1
10
42.5057408182034
20
2.64132388328866
30
0
41
1
10
42.4966359500142
20
2.63333382645786
30
0
41
1
10
42.4775844539181
20
2.61972433619249
30
0
41
1
10
42.4675861190293
20
2.61402963738232
30
0
41
1
10
42.4466920937602
20
2.6047865523461
30
0
41
1
10
42.4356979940039
20
2.60123280591091
30
0
41
1
10
42.4135736870704
20
2.59669237445621
30
0
41
1
10
42.4023804291611
20
2.5956524034026
30
0
41
1
10
42.3797370775345
20
2.59638241243661
30
0
41
1
10
42.3681475140472
20
2.59820359946644
30
0
41
1
10
42.3513953933014
20
2.60352473864069
30
0
41
1
10
42.3458967252948
20
2.6057271719279
30
0
41
1
10
42.3351047766824
20
2.6111223708547
30
0
41
1
10
42.3297875770055
20
2.61434039330706
30
0
41
1
10
42.3197417006851
20
2.62172841360194
30
0
41
1
10
42.3149735026051
20
2.62591091697411
30
0
41
1
10
42.3060318746777
20
2.63541300177971
30
0
41
1
10
42.3018708572639
20
2.64073736287114
30
0
41
1
10
42.298198066231
20
2.64655250272213
30
0
0
SPLINE
5
129
100
AcDbEntity
8
1
62
256
6
ByLayer
370
18
48
1
60
0
100
AcDbSpline
70
4
71
3
72
8
73
4
40
0
40
0
40
0
40
0
40
1
40
1
40
1
40
1
41
1
10
42.2981980662257
20
2.64655250273381
30
0
41
1
10
42.2804103062219
20
2.67471591065836
30
0
41
1
10
42.2626581394641
20
2.7026777454474
30
0
41
1
10
42.244938669771
20
2.73043713934013
30
0
0
SPLINE
5
12A
100
AcDbEntity
8
1
62
256
6
ByLayer
370
18
48
1
60
0
100
AcDbSpline
70
4
71
3
72
10
73
6
40
0
40
0
40
0
40
0
40
0.5
40
0.5
40
1
40
1
40
1
40
1
41
1
10
42.244938669771
20
2.73043713934013
30
0
41
1
10
42.1561537467469
20
2.73565432252534
30
0
41
1
10
42.0678866421322
20
2.73769739403232
30
0
41
1
10
41.8922866482648
20
2.73517390060482
30
0
41
1
10
41.8049153126574
20
2.73062586043551
30
0
41
1
10
41.7178045980717
20
2.72270359843259
30
0
0
SPLINE
5
12B
100
AcDbEntity
8
1
62
256
6
ByLayer
370
18
48
1
60
0
100
AcDbSpline
70
4
71
3
72
8
73
4
40
0
40
0
40
0
40
0
40
1
40
1
40
1
40
1
41
1
10
41.7178045980708
20
2.72270359843316
30
0
41
1
10
41.6742689733374
20
2.63640048478331
30
0
41
1
10
41.6305324053755
20
2.54923905962323
30
0
41
1
10
41.5865694145908
20
2.4613678646075
30
0
0
SPLINE
5
12C
100
AcDbEntity
8
1
62
256
6
ByLayer
370
18
48
1
60
0
100
AcDbSpline
70
4
71
3
72
26
73
22
40
0
40
0
40
0
40
0
40
0.125
40
0.125
40
0.250000000000001
40
0.250000000000001
40
0.375000000000001
40
0.375000000000001
40
0.500000000000001
40
0.500000000000001
40
0.625000000000001
40
0.625000000000001
40
0.750000000000002
40
0.750000000000002
40
0.812500000000001
40
0.812500000000001
40
0.875000000000001
40
0.875000000000001
40
0.9375
40
0.9375
40
1
40
1
40
1
40
1
41
1
10
41.5865694145901
20
2.46136786460661
30
0
41
1
10
41.5801648568177
20
2.44856673040343
30
0
41
1
10
41.5727259964976
20
2.43686285621186
30
0
41
1
10
41.5562461471196
20
2.41514361584055
30
0
41
1
10
41.5471129428708
20
2.40507881152539
30
0
41
1
10
41.528015841583
20
2.38715396678984
30
0
41
1
10
41.5179998595181
20
2.37920605302389
30
0
41
1
10
41.4970834002078
20
2.36525888600269
30
0
41
1
10
41.4860865423313
20
2.35923282386307
30
0
41
1
10
41.4639684903163
20
2.34968870351534
30
0
41
1
10
41.4527828453268
20
2.34610319945878
30
0
41
1
10
41.4301646841921
20
2.3416222439856
30
0
41
1
10
41.4185966243963
20
2.34074549197822
30
0
41
1
10
41.4018765948006
20
2.34208117677508
30
0
41
1
10
41.3963884885242
20
2.34296062696328
30
0
41
1
10
41.3856157446374
20
2.34572202320831
30
0
41
1
10
41.3803065257556
20
2.34762304968476
30
0
41
1
10
41.3702700940372
20
2.3524794110686
30
0
41
1
10
41.3655041875394
20
2.35543753782687
30
0
41
1
10
41.356562350158
20
2.36259175066581
30
0
41
1
10
41.3523972810777
20
2.36679665594096
30
0
41
1
10
41.3487192976033
20
2.37159344361493
30
0
0
SPLINE
5
12D
100
AcDbEntity
8
1
62
256
6
ByLayer
370
18
48
1
60
0
100
AcDbSpline
70
4
71
3
72
10
73
6
40
0
40
0
40
0
40
0
40
0.5
40
0.5
40
1
40
1
40
1
40
1
41
1
10
41.3487192975981
20
2.37159344362809
30
0
41
1
10
41.3148977342775
20
2.41570317365213
30
0
41
1
10
41.2812075582902
20
2.45865266108174
30
0
41
1
10
41.2140565772082
20
2.54213181335479
30
0
41
1
10
41.1805757185816
20
2.58268644632642
30
0
41
1
10
41.1472697723781
20
2.62193673417696
30
0
0
SPLINE
5
12E
100
AcDbEntity
8
1
62
256
6
ByLayer
370
18
48
1
60
0
100
AcDbSpline
70
4
71
3
72
10
73
6
40
0
40
0
40
0
40
0
40
0.5
40
0.5
40
1
40
1
40
1
40
1
41
1
10
41.147269772378
20
2.62193673417701
30
0
41
1
10
41.1030525449376
20
2.61033863405538
30
0
41
1
10
41.0590621029304
20
2.59785545155876
30
0
41
1
10
40.971180595206
20
2.57139661251006
30
0
41
1
10
40.9272553211437
20
2.55745337976111
30
0
41
1
10
40.8834934732103
20
2.5426700880692
30
0
0
SPLINE
5
12F
100
AcDbEntity
8
1
62
256
6
ByLayer
370
18
48
1
60
0
100
AcDbSpline
70
4
71
3
72
10
73
6
40
0
40
0
40
0
40
0
40
0.557063912108018
40
0.557063912108018
40
1
40
1
40
1
40
1
41
1
10
40.8834934732102
20
2.54267008806855
30
0
41
1
10
40.8428717492156
20
2.45741141118845
30
0
41
1
10
40.8019995122224
20
2.37199157374585
30
0
41
1
10
40.7282584482817
20
2.21879895364941
30
0
41
1
10
40.6954658134465
20
2.15098512317539
30
0
41
1
10
40.6625359067327
20
2.08330056390287
30
0
0
SPLINE
5
130
100
AcDbEntity
8
1
62
256
6
ByLayer
370
18
48
1
60
0
100
AcDbSpline
70
4
71
3
72
18
73
14
40
0
40
0
40
0
40
0
40
0.0277904199320665
40
0.0277904199320665
40
0.351860279954711
40
0.351860279954711
40
0.513895209966033
40
0.513895209966033
40
0.675930139977356
40
0.675930139977356
40
0.837965069988678
40
0.837965069988678
40
1
40
1
40
1
40
1
41
1
10
32.8987621407924
20
-2.64085756718083
30
0
41
1
10
32.8977946375242
20
-2.64102689892678
30
0
41
1
10
32.8968262690287
20
-2.6412061531048
30
0
41
1
10
32.88455464378
20
-2.64360271141098
30
0
41
1
10
32.8730092571954
20
-2.64724203116697
30
0
41
1
10
32.8563387169165
20
-2.65506585965568
30
0
41
1
10
32.8508673517833
20
-2.65806976097798
30
0
41
1
10
32.8401270602242
20
-2.66499606623458
30
0
41
1
10
32.8348355530018
20
-2.66894556183709
30
0
41
1
10
32.824830404991
20
-2.67767208812143
30
0
41
1
10
32.8200776567865
20
-2.68246755950835
30
0
41
1
10
32.8111566345773
20
-2.69307054506871
30
0
41
1
10
32.8069990995101
20
-2.69888278213054
30
0
41
1
10
32.8033253602631
20
-2.70509956549677
30
0
0
SPLINE
5
131
100
AcDbEntity
8
1
62
256
6
ByLayer
370
18
48
1
60
0
100
AcDbSpline
70
4
71
3
72
10
73
6
40
0
40
0
40
0
40
0
40
0.5
40
0.5
40
1
40
1
40
1
40
1
41
1
10
32.8033253602578
20
-2.70509956550669
30
0
41
1
10
32.7667986342404
20
-2.7669109047194
30
0
41
1
10
32.7304406094207
20
-2.82822406662194
30
0
41
1
10
32.6579949751119
20
-2.9498539350239
30
0
41
1
10
32.6218874266643
20
-3.0102091171554
30
0
41
1
10
32.5859700621413
20
-3.06992966276508
30
0
0
SPLINE
5
132
100
AcDbEntity
8
1
62
256
6
ByLayer
370
18
48
1
60
0
100
AcDbSpline
70
4
71
3
72
10
73
6
40
0
40
0
40
0
40
0
40
0.468925955847549
40
0.468925955847549
40
1
40
1
40
1
40
1
41
1
10
20.6430930424538
20
1.58664833345213
30
0
41
1
10
20.675701822209
20
1.62895971019736
30
0
41
1
10
20.707068309636
20
1.67304098625794
30
0
41
1
10
20.7714760221817
20
1.7705823727245
30
0
41
1
10
20.8038451166226
20
1.8253999346374
30
0
41
1
10
20.8326235452669
20
1.88464971172388
30
0
0
SPLINE
5
133
100
AcDbEntity
8
1
62
256
6
ByLayer
370
18
48
1
60
0
100
AcDbSpline
70
4
71
3
72
26
73
22
40
0
40
0
40
0
40
0
40
0.133152707292899
40
0.133152707292899
40
0.277627256077416
40
0.277627256077416
40
0.422101804861932
40
0.422101804861932
40
0.566576353646449
40
0.566576353646449
40
0.638813628038708
40
0.638813628038708
40
0.711050902430966
40
0.711050902430966
40
0.783288176823225
40
0.783288176823225
40
0.855525451215483
40
0.855525451215483
40
0.927762725607742
40
0.927762725607742
40
1
40
1
40
1
40
1
41
1
10
38.7341469751494
20
2.66800024339597
30
0
41
1
10
38.7421427277936
20
2.66029724935498
30
0
41
1
10
38.7508989326766
20
2.65355319759803
30
0
41
1
10
38.7698229990146
20
2.64178774865002
30
0
41
1
10
38.7801018542005
20
2.63688244223368
30
0
41
1
10
38.8014409368446
20
2.62935153017406
30
0
41
1
10
38.812557113193
20
2.62674316037143
30
0
41
1
10
38.8347388644917
20
2.62407350319046
30
0
41
1
10
38.8458991970367
20
2.62396397241503
30
0
41
1
10
38.8627240259129
20
2.62584885923982
30
0
41
1
10
38.8683775050564
20
2.6268314041379
30
0
41
1
10
38.8795047593455
20
2.6295235635975
30
0
41
1
10
38.8849866017904
20
2.63122933276509
30
0
41
1
10
38.8957686041522
20
2.63541995373296
30
0
41
1
10
38.901068969255
20
2.63790395247344
30
0
41
1
10
38.9114577424694
20
2.64376455690012
30
0
41
1
10
38.9165494484367
20
2.64715347787518
30
0
41
1
10
38.9261784033563
20
2.65475427850663
30
0
41
1
10
38.9307541696809
20
2.6589835904945
30
0
41
1
10
38.9393523646714
20
2.66843671015181
30
0
41
1
10
38.9433847053391
20
2.67368681331118
30
0
41
1
10
38.9469755672037
20
2.6793850408763
30
0
0
SPLINE
5
134
100
AcDbEntity
8
1
62
256
6
ByLayer
370
18
48
1
60
0
100
AcDbSpline
70
4
71
3
72
10
73
6
40
0
40
0
40
0
40
0
40
0.5
40
0.5
40
1
40
1
40
1
40
1
41
1
10
38.9469755672036
20
2.67938504087653
30
0
41
1
10
38.9990231104715
20
2.76197767655253
30
0
41
1
10
39.0506567474516
20
2.84277005003045
30
0
41
1
10
39.1533193158026
20
3.00071683397809
30
0
41
1
10
39.2042095204843
20
3.07765622020779
30
0
41
1
10
39.2547404915964
20
3.15249496014818
30
0
0
SPLINE
5
135
100
AcDbEntity
8
1
62
256
6
ByLayer
370
18
48
1
60
0
100
AcDbSpline
70
4
71
3
72
12
73
8
40
0
40
0
40
0
40
0
40
0.499999999999986
40
0.499999999999986
40
0.749999999999993
40
0.749999999999993
40
1
40
1
40
1
40
1
41
1
10
39.3425531631712
20
3.13343241736314
30
0
41
1
10
39.3944774107051
20
3.03611479223611
30
0
41
1
10
39.4467542238147
20
2.93731814291866
30
0
41
1
10
39.5257751058673
20
2.78719540288768
30
0
41
1
10
39.5522118342989
20
2.73684417011674
30
0
41
1
10
39.6052769111165
20
2.6356034759861
30
0
41
1
10
39.6318992208015
20
2.58472945996775
30
0
41
1
10
39.6586531174732
20
2.53359526739007
30
0
0
SPLINE
5
136
100
AcDbEntity
8
1
62
256
6
ByLayer
370
18
48
1
60
0
100
AcDbSpline
70
4
71
3
72
28
73
24
40
0
40
0
40
0
40
0
40
0.124999999999965
40
0.124999999999965
40
0.24999999999993
40
0.24999999999993
40
0.374999999999894
40
0.374999999999894
40
0.499999999999859
40
0.499999999999859
40
0.624999999999823
40
0.624999999999823
40
0.687499999999852
40
0.687499999999852
40
0.749999999999882
40
0.749999999999882
40
0.812499999999912
40
0.812499999999912
40
0.874999999999941
40
0.874999999999941
40
0.93749999999997
40
0.93749999999997
40
1
40
1
40
1
40
1
41
1
10
39.6586531174732
20
2.53359526739007
30
0
41
1
10
39.6652749944592
20
2.52093900511972
30
0
41
1
10
39.6729942235524
20
2.50955877399466
30
0
41
1
10
39.690081552064
20
2.48869974891684
30
0
41
1
10
39.699562520289
20
2.47916986551277
30
0
41
1
10
39.7192696227852
20
2.4625162560728
30
0
41
1
10
39.7295520919817
20
2.45529984452494
30
0
41
1
10
39.7508936230074
20
2.44293545711906
30
0
41
1
10
39.7620080087658
20
2.43779162844564
30
0
41
1
10
39.7841849690936
20
2.43000298024833
30
0
41
1
10
39.7953419359502
20
2.42728925194868
30
0
41
1
10
39.8121598201363
20
2.42518029189387
30
0
41
1
10
39.8178106660167
20
2.42480914671089
30
0
41
1
10
39.8289360785206
20
2.42480871486507
30
0
41
1
10
39.8344172554049
20
2.42517392260976
30
0
41
1
10
39.8451983776467
20
2.42669418588747
30
0
41
1
10
39.8504985279494
20
2.42784838134878
30
0
41
1
10
39.8608872769094
20
2.43106021568667
30
0
41
1
10
39.8659819769459
20
2.43312982089083
30
0
41
1
10
39.8756182643885
20
2.43818568488635
30
0
41
1
10
39.8801980564569
20
2.44117942900957
30
0
41
1
10
39.888804726199
20
2.44824746260568
30
0
41
1
10
39.8928433350718
20
2.45234608057567
30
0
41
1
10
39.8964409372816
20
2.45697980039589
30
0
0
SPLINE
5
137
100
AcDbEntity
8
1
62
256
6
ByLayer
370
18
48
1
60
0
100
AcDbSpline
70
4
71
3
72
24
73
20
40
0
40
0
40
0
40
0
40
0.132478763666321
40
0.132478763666321
40
0.277065636388583
40
0.277065636388583
40
0.421652509110846
40
0.421652509110846
40
0.566239381833108
40
0.566239381833108
40
0.710826254555371
40
0.710826254555371
40
0.783119690916528
40
0.783119690916528
40
0.855413127277685
40
0.855413127277685
40
0.927706563638843
40
0.927706563638843
40
1
40
1
40
1
40
1
41
1
10
39.3468493689076
20
-2.66838382952409
30
0
41
1
10
39.3391703704158
20
-2.66081909263187
30
0
41
1
10
39.3307690365769
20
-2.6541234434761
30
0
41
1
10
39.3124588037712
20
-2.64222815794548
30
0
41
1
10
39.3024328912347
20
-2.63714997276583
30
0
41
1
10
39.281494120262
20
-2.62917333228651
30
0
41
1
10
39.2704850088392
20
-2.6262760531736
30
0
41
1
10
39.2483474635794
20
-2.6230330335359
30
0
41
1
10
39.2371513684037
20
-2.62263775521885
30
0
41
1
10
39.2145148204418
20
-2.62464607800638
30
0
41
1
10
39.2029477928919
20
-2.62710723973214
30
0
41
1
10
39.1862559968204
20
-2.63330767135477
30
0
41
1
10
39.1807785189904
20
-2.63579198929719
30
0
41
1
10
39.1700286503691
20
-2.64172697281219
30
0
41
1
10
39.1647360535839
20
-2.64520172398673
30
0
41
1
10
39.1547360567982
20
-2.65305750888058
30
0
41
1
10
39.1499882049801
20
-2.65745419757118
30
0
41
1
10
39.1410807559285
20
-2.66734191557697
30
0
41
1
10
39.1369345752173
20
-2.67283555975433
30
0
41
1
10
39.1332717480027
20
-2.67879134783215
30
0
0
SPLINE
5
138
100
AcDbEntity
8
1
62
256
6
ByLayer
370
18
48
1
60
0
100
AcDbSpline
70
4
71
3
72
10
73
6
40
0
40
0
40
0
40
0
40
0.5
40
0.5
40
1
40
1
40
1
40
1
41
1
10
39.1332717479962
20
-2.6787913478434
30
0
41
1
10
39.0817379653424
20
-2.76258571499002
30
0
41
1
10
39.0305259578797
20
-2.84487375718592
30
0
41
1
10
38.9285841238099
20
-3.00636552288154
30
0
41
1
10
38.8779979221066
20
-3.08535610965251
30
0
41
1
10
38.8277183053872
20
-3.1625828162307
30
0
0
SPLINE
5
139
100
AcDbEntity
8
1
62
256
6
ByLayer
370
18
48
1
60
0
100
AcDbSpline
70
4
71
3
72
8
73
4
40
0
40
0
40
0
40
0
40
1
40
1
40
1
40
1
41
1
10
38.7399453237542
20
-3.14483786921056
30
0
41
1
10
38.7691976360498
20
-3.1511401746225
30
0
41
1
10
38.798454056204
20
-3.15705544482793
30
0
41
1
10
38.8277183053872
20
-3.1625828162307
30
0
0
SPLINE
5
13A
100
AcDbEntity
8
1
62
256
6
ByLayer
370
18
48
1
60
0
100
AcDbSpline
70
4
71
3
72
10
73
6
40
0
40
0
40
0
40
0
40
0.5
40
0.5
40
1
40
1
40
1
40
1
41
1
10
38.7399453237556
20
-3.14483786919877
30
0
41
1
10
38.6875345946076
20
-3.04616467123179
30
0
41
1
10
38.6347865178457
20
-2.94554867402428
30
0
41
1
10
38.5286226873461
20
-2.74096526520842
30
0
41
1
10
38.4752307467582
20
-2.63702588771821
30
0
41
1
10
38.4214848527963
20
-2.53168773839141
30
0
0
SPLINE
5
13B
100
AcDbEntity
8
1
62
256
6
ByLayer
370
18
48
1
60
0
100
AcDbSpline
70
4
71
3
72
26
73
22
40
0
40
0
40
0
40
0
40
0.125000000000011
40
0.125000000000011
40
0.250000000000022
40
0.250000000000022
40
0.375000000000034
40
0.375000000000034
40
0.500000000000045
40
0.500000000000045
40
0.625000000000056
40
0.625000000000056
40
0.750000000000068
40
0.750000000000068
40
0.812500000000051
40
0.812500000000051
40
0.875000000000034
40
0.875000000000034
40
0.937500000000017
40
0.937500000000017
40
1
40
1
40
1
40
1
41
1
10
38.4214848527963
20
-2.53168773839138
30
0
41
1
10
38.4150859204455
20
-2.51914628374595
30
0
41
1
10
38.4076522342281
20
-2.5077614545369
30
0
41
1
10
38.3911798307513
20
-2.48677406407813
30
0
41
1
10
38.3820482567666
20
-2.47712572360368
30
0
41
1
10
38.3629510082294
20
-2.46009260905555
30
0
41
1
10
38.3529344353493
20
-2.45262283848945
30
0
41
1
10
38.3320203091668
20
-2.43969385191267
30
0
41
1
10
38.3210256939298
20
-2.43421269738474
30
0
41
1
10
38.2989112529471
20
-2.42578985272502
30
0
41
1
10
38.2877269344338
20
-2.42278355766561
30
0
41
1
10
38.2651081094658
20
-2.41950971577884
30
0
41
1
10
38.2535394155374
20
-2.41926845262668
30
0
41
1
10
38.2368205207024
20
-2.42156101143138
30
0
41
1
10
38.2313323750204
20
-2.42276152202217
30
0
41
1
10
38.220558666699
20
-2.42617119816958
30
0
41
1
10
38.2152499397342
20
-2.42840058237994
30
0
41
1
10
38.2052164908581
20
-2.43389684849169
30
0
41
1
10
38.2004522997189
20
-2.43716915757821
30
0
41
1
10
38.1915144724611
20
-2.4449370056166
30
0
41
1
10
38.1873533674432
20
-2.44943924433014
30
0
41
1
10
38.1836790135878
20
-2.45451305626031
30
0
0
SPLINE
5
13C
100
AcDbEntity
8
1
62
256
6
ByLayer
370
18
48
1
60
0
100
AcDbSpline
70
4
71
3
72
10
73
6
40
0
40
0
40
0
40
0
40
0.5
40
0.5
40
1
40
1
40
1
40
1
41
1
10
38.1836790135824
20
-2.45451305627398
30
0
41
1
10
38.1321767891052
20
-2.52563103002996
30
0
41
1
10
38.080975535193
20
-2.5942853677212
30
0
41
1
10
37.9790433519843
20
-2.72641485578959
30
0
41
1
10
37.9284698114577
20
-2.7896451383489
30
0
41
1
10
37.8782077159031
20
-2.85011627259277
30
0
0
SPLINE
5
13D
100
AcDbEntity
8
1
62
256
6
ByLayer
370
18
48
1
60
0
100
AcDbSpline
70
4
71
3
72
10
73
6
40
0
40
0
40
0
40
0
40
0.5
40
0.5
40
1
40
1
40
1
40
1
41
1
10
37.7903739717736
20
-2.80842435131712
30
0
41
1
10
37.737977606623
20
-2.69924449631773
30
0
41
1
10
37.6852397484604
20
-2.58941001797177
30
0
41
1
10
37.5791220004881
20
-2.36908844294115
30
0
41
1
10
37.5257620773086
20
-2.25860101925298
30
0
41
1
10
37.4720527871621
20
-2.14815245049809
30
0
0
SPLINE
5
13E
100
AcDbEntity
8
1
62
256
6
ByLayer
370
18
48
1
60
0
100
AcDbSpline
70
4
71
3
72
26
73
22
40
0
40
0
40
0
40
0
40
0.125
40
0.125
40
0.25
40
0.25
40
0.375
40
0.375
40
0.5
40
0.5
40
0.625
40
0.625
40
0.75
40
0.75
40
0.8125
40
0.8125
40
0.875
40
0.875
40
0.9375
40
0.9375
40
1
40
1
40
1
40
1
41
1
10
37.4720527871621
20
-2.14815245049809
30
0
41
1
10
37.4656528405502
20
-2.13499150680551
30
0
41
1
10
37.4582164635475
20
-2.12268282425103
30
0
41
1
10
37.4417351605219
20
-2.09938416796106
30
0
41
1
10
37.4325967689571
20
-2.08833002427912
30
0
41
1
10
37.413484252436
20
-2.06816088552043
30
0
41
1
10
37.4034594615301
20
-2.05895509471671
30
0
41
1
10
37.3825279469929
20
-2.04222429778164
30
0
41
1
10
37.3715249918095
20
-2.03465800030224
30
0
41
1
10
37.34939813345
20
-2.02185091888714
30
0
41
1
10
37.3382076913472
20
-2.01653500213146
30
0
41
1
10
37.3155830280938
20
-2.00835347300708
30
0
41
1
10
37.3040190056354
20
-2.00548263477589
30
0
41
1
10
37.2873206008647
20
-2.00371878553247
30
0
41
1
10
37.2818403822469
20
-2.00354393033976
30
0
41
1
10
37.2710838579302
20
-2.00414723387394
30
0
41
1
10
37.2657850847574
20
-2.00493817770814
30
0
41
1
10
37.2557700721648
20
-2.0075847896465
30
0
41
1
10
37.2510143225117
20
-2.00943638893455
30
0
41
1
10
37.2420908999816
20
-2.01437456138356
30
0
41
1
10
37.2379352124863
20
-2.01747035806881
30
0
41
1
10
37.234264426276
20
-2.02119437316301
30
0
0
SPLINE
5
13F
100
AcDbEntity
8
1
62
256
6
ByLayer
370
18
48
1
60
0
100
AcDbSpline
70
4
71
3
72
10
73
6
40
0
40
0
40
0
40
0
40
0.5
40
0.5
40
1
40
1
40
1
40
1
41
1
10
37.2342644262706
20
-2.02119437317697
30
0
41
1
10
37.1827186675497
20
-2.07348758029551
30
0
41
1
10
37.1314917733269
20
-2.12237165745583
30
0
41
1
10
37.0295240258705
20
-2.21319667859831
30
0
41
1
10
36.9789275104284
20
-2.25505694901472
30
0
41
1
10
36.9286455582761
20
-2.29343796773068
30
0
0
SPLINE
5
140
100
AcDbEntity
8
1
62
256
6
ByLayer
370
18
48
1
60
0
100
AcDbSpline
70
4
71
3
72
12
73
8
40
0
40
0
40
0
40
0
40
0.25
40
0.25
40
0.499999999999999
40
0.499999999999999
40
1
40
1
40
1
40
1
41
1
10
36.8408365206031
20
-2.23093830613561
30
0
41
1
10
36.8146950016486
20
-2.17571129574947
30
0
41
1
10
36.7884744286277
20
-2.1206809234078
30
0
41
1
10
36.7358221010926
20
-2.01104947521506
30
0
41
1
10
36.709378243259
20
-1.95643107584507
30
0
41
1
10
36.6297676239602
20
-1.79348425968595
30
0
41
1
10
36.5763342906332
20
-1.68594839336177
30
0
41
1
10
36.5225357592746
20
-1.57990058352186
30
0
0
SPLINE
5
141
100
AcDbEntity
8
1
62
256
6
ByLayer
370
18
48
1
60
0
100
AcDbSpline
70
4
71
3
72
26
73
22
40
0
40
0
40
0
40
0
40
0.125000000000012
40
0.125000000000012
40
0.250000000000024
40
0.250000000000024
40
0.375000000000036
40
0.375000000000036
40
0.500000000000048
40
0.500000000000048
40
0.625000000000061
40
0.625000000000061
40
0.750000000000073
40
0.750000000000073
40
0.812500000000054
40
0.812500000000054
40
0.875000000000036
40
0.875000000000036
40
0.937500000000018
40
0.937500000000018
40
1
40
1
40
1
40
1
41
1
10
36.5225357592745
20
-1.57990058352161
30
0
41
1
10
36.5161423380449
20
-1.56729785438267
30
0
41
1
10
36.508711327684
20
-1.55517065455192
30
0
41
1
10
36.4922346631905
20
-1.53166032170753
30
0
41
1
10
36.4830940636668
20
-1.52019892416936
30
0
41
1
10
36.4639710780981
20
-1.49872276062106
30
0
41
1
10
36.4539394893925
20
-1.48862078911967
30
0
41
1
10
36.4329916419714
20
-1.46962464356096
30
0
41
1
10
36.421980088743
20
-1.46067422296389
30
0
41
1
10
36.3998422425364
20
-1.44468613369406
30
0
41
1
10
36.3886470681694
20
-1.43756805458372
30
0
41
1
10
36.366014794707
20
-1.42528582013145
30
0
41
1
10
36.354454131882
20
-1.42008917223706
30
0
41
1
10
36.337775308998
20
-1.41451713683131
30
0
41
1
10
36.3323020763203
20
-1.41301538204789
30
0
41
1
10
36.321560423961
20
-1.41082996468776
30
0
41
1
10
36.3162729860772
20
-1.41015160398467
30
0
41
1
10
36.3062828657062
20
-1.40979259614892
30
0
41
1
10
36.3015394152414
20
-1.41009889430225
30
0
41
1
10
36.2926395650746
20
-1.41184641373749
30
0
41
1
10
36.2884971626705
20
-1.41329749476574
30
0
41
1
10
36.2848371157974
20
-1.41537187427315
30
0
0
SPLINE
5
142
100
AcDbEntity
8
1
62
256
6
ByLayer
370
18
48
1
60
0
100
AcDbSpline
70
4
71
3
72
10
73
6
40
0
40
0
40
0
40
0
40
0.5
40
0.5
40
1
40
1
40
1
40
1
41
1
10
36.2848371157918
20
-1.41537187428776
30
0
41
1
10
36.2333018695629
20
-1.44458015015073
30
0
41
1
10
36.1820868976269
20
-1.46978822055513
30
0
41
1
10
36.0801425834938
20
-1.5120851796988
30
0
41
1
10
36.0295614995758
20
-1.52915947847953
30
0
41
1
10
35.9792942541442
20
-1.54231323430969
30
0
0
SPLINE
5
143
100
AcDbEntity
8
1
62
256
6
ByLayer
370
18
48
1
60
0
100
AcDbSpline
70
4
71
3
72
8
73
4
40
0
40
0
40
0
40
0
40
1
40
1
40
1
40
1
41
1
10
35.8914379591725
20
-1.46484003683264
30
0
41
1
10
35.9207074853437
20
-1.4908574438646
30
0
41
1
10
35.9499910564029
20
-1.51668338051121
30
0
41
1
10
35.9792942541442
20
-1.54231323430966
30
0
0
SPLINE
5
144
100
AcDbEntity
8
1
62
256
6
ByLayer
370
18
48
1
60
0
100
AcDbSpline
70
4
71
3
72
10
73
6
40
0
40
0
40
0
40
0
40
0.5
40
0.5
40
1
40
1
40
1
40
1
41
1
10
35.8914379591739
20
-1.46484003682565
30
0
41
1
10
35.839003191084
20
-1.36243750185815
30
0
41
1
10
35.7862390164824
20
-1.26195898391737
30
0
41
1
10
35.6800906492773
20
-1.0655670090899
30
0
41
1
10
35.6267204175023
20
-0.969622316603932
30
0
41
1
10
35.5730234299201
20
-0.876384678130648
30
0
0
SPLINE
5
145
100
AcDbEntity
8
1
62
256
6
ByLayer
370
18
48
1
60
0
100
AcDbSpline
70
4
71
3
72
28
73
24
40
0
40
0
40
0
40
0
40
0.125
40
0.125
40
0.25
40
0.25
40
0.375
40
0.375
40
0.5
40
0.5
40
0.625
40
0.625
40
0.6875
40
0.6875
40
0.75
40
0.75
40
0.8125
40
0.8125
40
0.875
40
0.875
40
0.9375
40
0.9375
40
1
40
1
40
1
40
1
41
1
10
35.5730234299201
20
-0.876384678130592
30
0
41
1
10
35.5666275193516
20
-0.865279034701814
30
0
41
1
10
35.5592001442392
20
-0.854226777701655
30
0
41
1
10
35.5427480055253
20
-0.832217173644864
30
0
41
1
10
35.5336315719982
20
-0.821177500476495
30
0
41
1
10
35.5145717799909
20
-0.799918199168758
30
0
41
1
10
35.504577232654
20
-0.789619165165732
30
0
41
1
10
35.4837010846087
20
-0.769650060925784
30
0
41
1
10
35.4727197911238
20
-0.759906905376027
30
0
41
1
10
35.4506008861273
20
-0.741777289965654
30
0
41
1
10
35.4394015659487
20
-0.733318050723909
30
0
41
1
10
35.4224099446934
20
-0.721614843600406
30
0
41
1
10
35.4167137548902
20
-0.717879496581048
30
0
41
1
10
35.4052557914172
20
-0.710780437620457
30
0
41
1
10
35.3995655539505
20
-0.70746257555129
30
0
41
1
10
35.3883978628121
20
-0.701395337246396
30
0
41
1
10
35.3829021533058
20
-0.698634032808769
30
0
41
1
10
35.3721190132835
20
-0.693735223334699
30
0
41
1
10
35.3668041951613
20
-0.691591621174155
30
0
41
1
10
35.3567596067508
20
-0.688169493321652
30
0
41
1
10
35.3519925568777
20
-0.686870198182305
30
0
41
1
10
35.3430530600503
20
-0.685231524993867
30
0
41
1
10
35.3388881325422
20
-0.684902647833781
30
0
41
1
10
35.3352118926103
20
-0.685153565986184
30
0
0
SPLINE
5
146
100
AcDbEntity
8
1
62
256
6
ByLayer
370
18
48
1
60
0
100
AcDbSpline
70
4
71
3
72
10
73
6
40
0
40
0
40
0
40
0
40
0.5
40
0.5
40
1
40
1
40
1
40
1
41
1
10
35.3352118926062
20
-0.685153565995677
30
0
41
1
10
35.2836972748543
20
-0.688669645733086
30
0
41
1
10
35.232486114626
20
-0.688137479506793
30
0
41
1
10
35.1305474628612
20
-0.678552893127659
30
0
41
1
10
35.0799623233641
20
-0.66960854639828
30
0
41
1
10
35.0296932387446
20
-0.656630580878669
30
0
0
SPLINE
5
147
100
AcDbEntity
8
1
62
256
6
ByLayer
370
18
48
1
60
0
100
AcDbSpline
70
4
71
3
72
8
73
4
40
0
40
0
40
0
40
0
40
1
40
1
40
1
40
1
41
1
10
34.9419429695622
20
-0.571331334777881
30
0
41
1
10
34.9711784655
20
-0.599846310699036
30
0
41
1
10
35.0004290550171
20
-0.628278863415204
30
0
41
1
10
35.0296932387446
20
-0.656630580878669
30
0
0
SPLINE
5
148
100
AcDbEntity
8
1
62
256
6
ByLayer
370
18
48
1
60
0
100
AcDbSpline
70
4
71
3
72
10
73
6
40
0
40
0
40
0
40
0
40
0.5
40
0.5
40
1
40
1
40
1
40
1
41
1
10
34.9419429695638
20
-0.571331334773959
30
0
41
1
10
34.8895490988319
20
-0.486427219983312
30
0
41
1
10
34.8368175493938
20
-0.404582506253547
30
0
41
1
10
34.7307197033892
20
-0.247591267440043
30
0
41
1
10
34.6773648440478
20
-0.172403708472416
30
0
41
1
10
34.6236814361307
20
-0.100927529488956
30
0
0
SPLINE
5
149
100
AcDbEntity
8
1
62
256
6
ByLayer
370
18
48
1
60
0
100
AcDbSpline
70
4
71
3
72
26
73
22
40
0
40
0
40
0
40
0
40
0.125
40
0.125
40
0.25
40
0.25
40
0.375
40
0.375
40
0.5
40
0.5
40
0.625
40
0.625
40
0.75
40
0.75
40
0.8125
40
0.8125
40
0.875
40
0.875
40
0.9375
40
0.9375
40
1
40
1
40
1
40
1
41
1
10
34.6236814361307
20
-0.100927529488928
30
0
41
1
10
34.6172673926289
20
-0.0923876222973377
30
0
41
1
10
34.6098136848706
20
-0.0834767543895794
30
0
41
1
10
34.5932949749023
20
-0.065099592929613
30
0
41
1
10
34.584136572207
20
-0.0555511803989077
30
0
41
1
10
34.5649909928476
20
-0.0365887577146395
30
0
41
1
10
34.5549521543887
20
-0.0271108147414338
30
0
41
1
10
34.5340008847347
20
-0.0081357880133623
30
0
41
1
10
34.5229939426619
20
0.0014354067054114
30
0
41
1
10
34.500869460842
20
0.0199537934801413
30
0
41
1
10
34.489684089296
20
0.0289686277822057
30
0
41
1
10
34.4670779316664
20
0.0464972012094051
30
0
41
1
10
34.4555311433521
20
0.0550977831124726
30
0
41
1
10
34.4388589569773
20
0.0669388873274386
30
0
41
1
10
34.4333870986889
20
0.0707273590362831
30
0
41
1
10
34.4226460685128
20
0.0779427946770284
30
0
41
1
10
34.4173544144096
20
0.0813822923921634
30
0
41
1
10
34.4073495633958
20
0.0876203962021123
30
0
41
1
10
34.4025972224585
20
0.0904468387719817
30
0
41
1
10
34.3936772915219
20
0.0954131154715583
30
0
41
1
10
34.389520550074
20
0.0975431923270378
30
0
41
1
10
34.3858476360278
20
0.0991927359380895
30
0
0
SPLINE
5
14A
100
AcDbEntity
8
1
62
256
6
ByLayer
370
18
48
1
60
0
100
AcDbSpline
70
4
71
3
72
10
73
6
40
0
40
0
40
0
40
0
40
0.5
40
0.5
40
1
40
1
40
1
40
1
41
1
10
34.3858476360225
20
0.0991927359287672
30
0
41
1
10
34.3342940170686
20
0.122345998347953
30
0
41
1
10
34.2830681066882
20
0.149568343795295
30
0
41
1
10
34.1810980799764
20
0.21197987709445
30
0
41
1
10
34.1304923159039
20
0.247019762166417
30
0
41
1
10
34.0801900756454
20
0.285696470905663
30
0
0
SPLINE
5
14B
100
AcDbEntity
8
1
62
256
6
ByLayer
370
18
48
1
60
0
100
AcDbSpline
70
4
71
3
72
8
73
4
40
0
40
0
40
0
40
0
40
1
40
1
40
1
40
1
41
1
10
33.9923451102325
20
0.373001995038606
30
0
41
1
10
34.0216394547771
20
0.343960633098618
30
0
41
1
10
34.0509187269581
20
0.314856469609339
30
0
41
1
10
34.0801900756454
20
0.285696470905663
30
0
0
SPLINE
5
14C
100
AcDbEntity
8
1
62
256
6
ByLayer
370
18
48
1
60
0
100
AcDbSpline
70
4
71
3
72
12
73
8
40
0
40
0
40
0
40
0
40
0.250000000000003
40
0.250000000000003
40
0.500000000000006
40
0.500000000000006
40
1
40
1
40
1
40
1
41
1
10
33.9923451102337
20
0.373001995038521
30
0
41
1
10
33.9661953284912
20
0.403486070297532
30
0
41
1
10
33.9399614936902
20
0.432948335532444
30
0
41
1
10
33.8872896874
20
0.489795081419317
30
0
41
1
10
33.8608423203479
20
0.517187785703129
30
0
41
1
10
33.781248824531
20
0.596105801582922
30
0
41
1
10
33.7278342915252
20
0.644449388986772
30
0
41
1
10
33.6740585184633
20
0.688194550708715
30
0
0
SPLINE
5
14D
100
AcDbEntity
8
1
62
256
6
ByLayer
370
18
48
1
60
0
100
AcDbSpline
70
4
71
3
72
26
73
22
40
0
40
0
40
0
40
0
40
0.125
40
0.125
40
0.25
40
0.25
40
0.375
40
0.375
40
0.5
40
0.5
40
0.625
40
0.625
40
0.75
40
0.75
40
0.8125
40
0.8125
40
0.875
40
0.875
40
0.9375
40
0.9375
40
1
40
1
40
1
40
1
41
1
10
33.6740585184628
20
0.688194550709653
30
0
41
1
10
33.6676642821687
20
0.693396091940002
30
0
41
1
10
33.6602327170786
20
0.699352464909651
30
0
41
1
10
33.6437533247634
20
0.712409777057644
30
0
41
1
10
33.6346105608504
20
0.71958549353721
30
0
41
1
10
33.6154826440525
20
0.73450233651684
30
0
41
1
10
33.6054483843642
20
0.742283073249723
30
0
41
1
10
33.5844954224847
20
0.758491494510395
30
0
41
1
10
33.5734815117616
20
0.766992211170077
30
0
41
1
10
33.5513407853155
20
0.784113439586747
30
0
41
1
10
33.540144879384
20
0.792786827621001
30
0
41
1
10
33.5175133700776
20
0.810448311862046
30
0
41
1
10
33.5059550094148
20
0.819534653528279
30
0
41
1
10
33.4892812212996
20
0.832841005647168
30
0
41
1
10
33.4838097873408
20
0.83724130640627
30
0
41
1
10
33.4730717932405
20
0.845966704709497
30
0
41
1
10
33.4677863538846
20
0.850308342196854
30
0
41
1
10
33.4577998770902
20
0.858626203640142
30
0
41
1
10
33.4530580464509
20
0.862635030670333
30
0
41
1
10
33.4441609524127
20
0.870301315064495
30
0
41
1
10
33.4400196475045
20
0.873948477178317
30
0
41
1
10
33.4363604324123
20
0.877264777427769
30
0
0
SPLINE
5
14E
100
AcDbEntity
8
1
62
256
6
ByLayer
370
18
48
1
60
0
100
AcDbSpline
70
4
71
3
72
10
73
6
40
0
40
0
40
0
40
0
40
0.5
40
0.5
40
1
40
1
40
1
40
1
41
1
10
33.4363604324067
20
0.877264777421402
30
0
41
1
10
33.3848038705935
20
0.923989835801933
30
0
41
1
10
33.3335725082722
20
0.974342045703793
30
0
41
1
10
33.2316008375006
20
1.08227295853544
30
0
41
1
10
33.1810085754951
20
1.13963523325421
30
0
41
1
10
33.1307329740669
20
1.20017847855291
30
0
0
SPLINE
5
14F
100
AcDbEntity
8
1
62
256
6
ByLayer
370
18
48
1
60
0
100
AcDbSpline
70
4
71
3
72
12
73
8
40
0
40
0
40
0
40
0
40
0.5
40
0.5
40
0.75
40
0.75
40
1
40
1
40
1
40
1
41
1
10
33.0429292333485
20
1.28095162548877
30
0
41
1
10
32.9904859224804
20
1.31245134465288
30
0
41
1
10
32.9377251034055
20
1.33957093740986
30
0
41
1
10
32.8581293870745
20
1.37343983830496
30
0
41
1
10
32.8315115801911
20
1.38359952118344
30
0
41
1
10
32.7781453501129
20
1.40161017280988
30
0
41
1
10
32.7513985928324
20
1.40947486763622
30
0
41
1
10
32.7245542887502
20
1.41612023933436
30
0
0
SPLINE
5
150
100
AcDbEntity
8
1
62
256
6
ByLayer
370
18
48
1
60
0
100
AcDbSpline
70
4
71
3
72
26
73
22
40
0
40
0
40
0
40
0
40
0.124999999999989
40
0.124999999999989
40
0.249999999999978
40
0.249999999999978
40
0.374999999999967
40
0.374999999999967
40
0.499999999999955
40
0.499999999999955
40
0.624999999999944
40
0.624999999999944
40
0.749999999999933
40
0.749999999999933
40
0.81249999999995
40
0.81249999999995
40
0.874999999999966
40
0.874999999999966
40
0.937499999999983
40
0.937499999999983
40
1
40
1
40
1
40
1
41
1
10
32.7245542887499
20
1.41612023933351
30
0
41
1
10
32.7181556106774
20
1.41770424739863
30
0
41
1
10
32.7107251250801
20
1.42038028151868
30
0
41
1
10
32.6942622909906
20
1.42738655952013
30
0
41
1
10
32.6851376059558
20
1.43177633928372
30
0
41
1
10
32.6660547078102
20
1.4417636693947
30
0
41
1
10
32.6560455572482
20
1.44737775663336
30
0
41
1
10
32.6351420904981
20
1.45981783129042
30
0
41
1
10
32.6241495834339
20
1.4667121281488
30
0
41
1
10
32.6020283642314
20
1.4813435806264
30
0
41
1
10
32.5908360632918
20
1.48911192465761
30
0
41
1
10
32.5682000842654
20
1.50573804501704
30
0
41
1
10
32.5566201692475
20
1.51471103964815
30
0
41
1
10
32.5398901267924
20
1.52862014674867
30
0
41
1
10
32.5343997902584
20
1.53334526929058
30
0
41
1
10
32.5236245058216
20
1.54300757645089
30
0
41
1
10
32.5183144983898
20
1.54797214096755
30
0
41
1
10
32.5082788036551
20
1.55783703525114
30
0
41
1
10
32.5035145387036
20
1.56276917847399
30
0
41
1
10
32.4945781848216
20
1.57263398307239
30
0
41
1
10
32.4904157994426
20
1.57756283688579
30
0
41
1
10
32.4867407814859
20
1.58232578194125
30
0
0
SPLINE
5
151
100
AcDbEntity
8
1
62
256
6
ByLayer
370
18
48
1
60
0
100
AcDbSpline
70
4
71
3
72
10
73
6
40
0
40
0
40
0
40
0
40
0.5
40
0.5
40
1
40
1
40
1
40
1
41
1
10
32.4867407814812
20
1.58232578193949
30
0
41
1
10
32.4642816041068
20
1.61143362007715
30
0
41
1
10
32.4418762559947
20
1.64105943267848
30
0
41
1
10
32.3971694116372
20
1.70142427772927
30
0
41
1
10
32.3748593917492
20
1.73217345263066
30
0
41
1
10
32.3526173067738
20
1.76343183763865
30
0
0
SPLINE
5
152
100
AcDbEntity
8
1
62
256
6
ByLayer
370
18
48
1
60
0
100
AcDbSpline
70
4
71
3
72
10
73
6
40
0
40
0
40
0
40
0
40
0.5
40
0.5
40
1
40
1
40
1
40
1
41
1
10
33.883444346683
20
-2.51453148131137
30
0
41
1
10
33.9354515960532
20
-2.6062577382252
30
0
41
1
10
33.9870325308233
20
-2.69829251282064
30
0
41
1
10
34.0896149650619
20
-2.88281649007916
30
0
41
1
10
34.140484988577
20
-2.9750666637236
30
0
41
1
10
34.1910230549564
20
-3.06719500584202
30
0
0
SPLINE
5
153
100
AcDbEntity
8
1
62
256
6
ByLayer
370
18
48
1
60
0
100
AcDbSpline
70
4
71
3
72
10
73
6
40
0
40
0
40
0
40
0
40
0.5
40
0.5
40
1
40
1
40
1
40
1
41
1
10
34.2788805718048
20
-3.09279377269499
30
0
41
1
10
34.3307470388704
20
-3.02931127522936
30
0
41
1
10
34.3830223519957
20
-2.96237630824334
30
0
41
1
10
34.4884708698845
20
-2.82183973837633
30
0
41
1
10
34.5416077841616
20
-2.74828602156825
30
0
41
1
10
34.5951601390404
20
-2.67163479847292
30
0
0
SPLINE
5
154
100
AcDbEntity
8
1
62
256
6
ByLayer
370
18
48
1
60
0
100
AcDbSpline
70
4
71
3
72
27
73
23
40
0
40
0
40
0
40
0
40
0.125
40
0.125
40
0.25
40
0.25
40
0.375
40
0.375
40
0.5
40
0.5
40
0.625
40
0.625
40
0.6875
40
0.6875
40
0.75
40
0.8125
40
0.8125
40
0.875
40
0.875
40
0.9375
40
0.9375
40
1
40
1
40
1
40
1
41
1
10
34.5951601390404
20
-2.67163479847292
30
0
41
1
10
34.6017503622278
20
-2.66220199819884
30
0
41
1
10
34.6094319694068
20
-2.65439439197365
30
0
41
1
10
34.6264435010847
20
-2.64120422869289
30
0
41
1
10
34.6358857185965
20
-2.6358159210138
30
0
41
1
10
34.6555324275814
20
-2.62760949113564
30
0
41
1
10
34.6657905585401
20
-2.62472660978673
30
0
41
1
10
34.6870974967094
20
-2.62125935369698
30
0
41
1
10
34.6982063459588
20
-2.62070065725712
30
0
41
1
10
34.7203856193137
20
-2.62201641848708
30
0
41
1
10
34.7315493239575
20
-2.62386076959356
30
0
41
1
10
34.7483869449376
20
-2.6286238769016
30
0
41
1
10
34.7540469355584
20
-2.63056218778942
30
0
41
1
10
34.7651991852873
20
-2.63511864616777
30
0
41
1
10
34.7761885027353
20
-2.64034693654483
30
0
41
1
10
34.7868166819902
20
-2.64702955702163
30
0
41
1
10
34.7972336622289
20
-2.65454841458748
30
0
41
1
10
34.8023409295047
20
-2.65873948203841
30
0
41
1
10
34.8119986149473
20
-2.66783145469876
30
0
41
1
10
34.8165878748123
20
-2.67275608761329
30
0
41
1
10
34.8252106452292
20
-2.68348400523581
30
0
41
1
10
34.8292524026564
20
-2.68931280130198
30
0
41
1
10
34.8328490116274
20
-2.69550008241478
30
0
0
SPLINE
5
155
100
AcDbEntity
8
1
62
256
6
ByLayer
370
18
48
1
60
0
100
AcDbSpline
70
4
71
3
72
10
73
6
40
0
40
0
40
0
40
0
40
0.5
40
0.5
40
1
40
1
40
1
40
1
41
1
10
34.8328490116286
20
-2.69550008241691
30
0
41
1
10
34.8848652358041
20
-2.78498409472141
30
0
41
1
10
34.9364713483762
20
-2.87356655760843
30
0
41
1
10
35.0390800663641
20
-3.04884316010171
30
0
41
1
10
35.0899411274586
20
-3.13529492624252
30
0
41
1
10
35.1404388677048
20
-3.22046558097463
30
0
0
SPLINE
5
156
100
AcDbEntity
8
1
62
256
6
ByLayer
370
18
48
1
60
0
100
AcDbSpline
70
4
71
3
72
10
73
6
40
0
40
0
40
0
40
0
40
0.5
40
0.5
40
1
40
1
40
1
40
1
41
1
10
35.2282389547556
20
-3.22082518446112
30
0
41
1
10
35.2801545606054
20
-3.13535720482616
30
0
41
1
10
35.3323995849355
20
-3.04753531756054
30
0
41
1
10
35.437833067682
20
-2.86718630308204
30
0
41
1
10
35.4909966185446
20
-2.77471015640799
30
0
41
1
10
35.5445897453291
20
-2.68026934410582
30
0
0
SPLINE
5
157
100
AcDbEntity
8
1
62
256
6
ByLayer
370
18
48
1
60
0
100
AcDbSpline
70
4
71
3
72
28
73
24
40
0
40
0
40
0
40
0
40
0.125
40
0.125
40
0.25
40
0.25
40
0.375
40
0.375
40
0.5
40
0.5
40
0.625
40
0.625
40
0.6875
40
0.6875
40
0.75
40
0.75
40
0.8125
40
0.8125
40
0.875
40
0.875
40
0.9375
40
0.9375
40
1
40
1
40
1
40
1
41
1
10
35.5445897453291
20
-2.6802693441058
30
0
41
1
10
35.5511896681262
20
-2.66863908277406
30
0
41
1
10
35.5588809275053
20
-2.65848195036278
30
0
41
1
10
35.5759085069599
20
-2.64036443501368
30
0
41
1
10
35.5853563223667
20
-2.63237199495865
30
0
41
1
10
35.6050081472373
20
-2.6189411850269
30
0
41
1
10
35.6152673477494
20
-2.61342008219418
30
0
41
1
10
35.6365736590141
20
-2.60461690428235
30
0
41
1
10
35.6476805059516
20
-2.60134739236014
30
0
41
1
10
35.6698560897955
20
-2.5973649829233
30
0
41
1
10
35.6810177818687
20
-2.5965982436845
30
0
41
1
10
35.697851753652
20
-2.59749625898087
30
0
41
1
10
35.7035103412536
20
-2.59814763840558
30
0
41
1
10
35.7146630464132
20
-2.60019305663056
30
0
41
1
10
35.7201582307698
20
-2.60158175702335
30
0
41
1
10
35.730967968985
20
-2.60515185818545
30
0
41
1
10
35.7362827295205
20
-2.60733238545444
30
0
41
1
10
35.7467011393564
20
-2.61260181661098
30
0
41
1
10
35.751811257727
20
-2.61570468269014
30
0
41
1
10
35.7614752429027
20
-2.62277055073369
30
0
41
1
10
35.7660677143006
20
-2.62674848332725
30
0
41
1
10
35.7746967763166
20
-2.63573698176992
30
0
41
1
10
35.7787431103792
20
-2.6407733292329
30
0
41
1
10
35.7823444599207
20
-2.6462853939276
30
0
0
SPLINE
5
158
100
AcDbEntity
8
1
62
256
6
ByLayer
370
18
48
1
60
0
100
AcDbSpline
70
4
71
3
72
10
73
6
40
0
40
0
40
0
40
0
40
0.5
40
0.5
40
1
40
1
40
1
40
1
41
1
10
35.7823444599218
20
-2.64628539392996
30
0
41
1
10
35.8343278011012
20
-2.72584877324997
30
0
41
1
10
35.885907831949
20
-2.80339717412099
30
0
41
1
10
35.9884877743172
20
-2.95447987646767
30
0
41
1
10
36.0393553421552
20
-3.02781804494194
30
0
41
1
10
36.089884176039
20
-3.09891195716509
30
0
0
SPLINE
5
159
100
AcDbEntity
8
1
62
256
6
ByLayer
370
18
48
1
60
0
100
AcDbSpline
70
4
71
3
72
8
73
4
40
0
40
0
40
0
40
0
40
1
40
1
40
1
40
1
41
1
10
36.1777012311289
20
-3.07408732055689
30
0
41
1
10
36.1484139923379
20
-3.08274160450787
30
0
41
1
10
36.1191421217515
20
-3.09101619016968
30
0
41
1
10
36.089884176039
20
-3.09891195716517
30
0
0
SPLINE
5
15A
100
AcDbEntity
8
1
62
256
6
ByLayer
370
18
48
1
60
0
100
AcDbSpline
70
4
71
3
72
10
73
6
40
0
40
0
40
0
40
0
40
0.5
40
0.5
40
1
40
1
40
1
40
1
41
1
10
36.1777012311289
20
-3.07408732055743
30
0
41
1
10
36.2296051733359
20
-2.97405569222224
30
0
41
1
10
36.2818895002787
20
-2.87280918429943
30
0
41
1
10
36.3873008000971
20
-2.6683230449494
30
0
41
1
10
36.4403936326111
20
-2.56514920392283
30
0
41
1
10
36.4938809367042
20
-2.46134965569323
30
0
0
SPLINE
5
15B
100
AcDbEntity
8
1
62
256
6
ByLayer
370
18
48
1
60
0
100
AcDbSpline
70
4
71
3
72
28
73
24
40
0
40
0
40
0
40
0
40
0.125000000000018
40
0.125000000000018
40
0.250000000000035
40
0.250000000000035
40
0.375000000000053
40
0.375000000000053
40
0.50000000000007
40
0.50000000000007
40
0.625000000000087
40
0.625000000000087
40
0.687500000000073
40
0.687500000000073
40
0.750000000000058
40
0.750000000000058
40
0.812500000000044
40
0.812500000000044
40
0.875000000000029
40
0.875000000000029
40
0.937500000000015
40
0.937500000000015
40
1
40
1
40
1
40
1
41
1
10
36.4938809367043
20
-2.46134965569249
30
0
41
1
10
36.5004956087957
20
-2.44851296507196
30
0
41
1
10
36.5082070555194
20
-2.43686841747649
30
0
41
1
10
36.5252791556788
20
-2.41536152771377
30
0
41
1
10
36.5347519575163
20
-2.40544253011512
30
0
41
1
10
36.5544465773314
20
-2.38793137067472
30
0
41
1
10
36.5647245431657
20
-2.38024501785449
30
0
41
1
10
36.5860590606366
20
-2.36686285747697
30
0
41
1
10
36.5971722079225
20
-2.36116716146111
30
0
41
1
10
36.6193485705626
20
-2.35223206028135
30
0
41
1
10
36.6305056667206
20
-2.34891958456976
30
0
41
1
10
36.6473243395268
20
-2.34586708080875
30
0
41
1
10
36.6529757976564
20
-2.34517181371359
30
0
41
1
10
36.664106459975
20
-2.34451773014649
30
0
41
1
10
36.6695903766575
20
-2.34455329344758
30
0
41
1
10
36.6803775996856
20
-2.34540848054524
30
0
41
1
10
36.6856811140596
20
-2.3462272425576
30
0
41
1
10
36.6960776796822
20
-2.34876249366545
30
0
41
1
10
36.7011772087272
20
-2.35049045441249
30
0
41
1
10
36.7108237430238
20
-2.35487867617894
30
0
41
1
10
36.7154090075051
20
-2.35754396542345
30
0
41
1
10
36.7240270293285
20
-2.36397005158429
30
0
41
1
10
36.7280705291633
20
-2.36775340177968
30
0
41
1
10
36.7316713932742
20
-2.37208887993751
30
0
0
SPLINE
5
15C
100
AcDbEntity
8
1
62
256
6
ByLayer
370
18
48
1
60
0
100
AcDbSpline
70
4
71
3
72
10
73
6
40
0
40
0
40
0
40
0
40
0.5
40
0.5
40
1
40
1
40
1
40
1
41
1
10
36.7316713932741
20
-2.3720888799383
30
0
41
1
10
36.7837214156276
20
-2.43475765278777
30
0
41
1
10
36.8353413605505
20
-2.49431249996155
30
0
41
1
10
36.9380044032232
20
-2.6075972846551
30
0
41
1
10
36.9889086802219
20
-2.66114508407583
30
0
41
1
10
37.0394758736384
20
-2.71164220519506
30
0
0
SPLINE
5
15D
100
AcDbEntity
8
1
62
256
6
ByLayer
370
18
48
1
60
0
100
AcDbSpline
70
4
71
3
72
8
73
4
40
0
40
0
40
0
40
0
40
1
40
1
40
1
40
1
41
1
10
37.1272771957242
20
-2.6634386285867
30
0
41
1
10
37.0979776777784
20
-2.67983641745761
30
0
41
1
10
37.0687117898455
20
-2.6959049595863
30
0
41
1
10
37.0394758736384
20
-2.71164220519509
30
0
0
SPLINE
5
15E
100
AcDbEntity
8
1
62
256
6
ByLayer
370
18
48
1
60
0
100
AcDbSpline
70
4
71
3
72
10
73
6
40
0
40
0
40
0
40
0
40
0.540175892601935
40
0.540175892601935
40
1
40
1
40
1
40
1
41
1
10
37.1272771957242
20
-2.6634386285873
30
0
41
1
10
37.1791275829733
20
-2.55752745620089
30
0
41
1
10
37.2313788923341
20
-2.45167650699017
30
0
41
1
10
37.3289246237392
20
-2.2563140285454
30
0
41
1
10
37.3740730750088
20
-2.16676778632112
30
0
41
1
10
37.4195228308792
20
-2.07772414170003
30
0
0
SPLINE
5
15F
100
AcDbEntity
8
1
62
256
6
ByLayer
370
18
48
1
60
0
100
AcDbSpline
70
4
71
3
72
8
73
4
40
0
40
0
40
0
40
0
40
1
40
1
40
1
40
1
41
1
10
43
20
-1.30795227191669
30
0
41
1
10
42.9358425910574
20
-1.27428799879908
30
0
41
1
10
42.8719707880656
20
-1.23954740946471
30
0
41
1
10
42.8085709879801
20
-1.20348956698936
30
0
0
SPLINE
5
160
100
AcDbEntity
8
1
62
256
6
ByLayer
370
18
48
1
60
0
100
AcDbSpline
70
4
71
3
72
24
73
20
40
0
40
0
40
0
40
0
40
0.250000000000147
40
0.250000000000147
40
0.375000000000221
40
0.375000000000221
40
0.500000000000294
40
0.500000000000294
40
0.56250000000033
40
0.56250000000033
40
0.625000000000366
40
0.625000000000366
40
0.750000000000322
40
0.750000000000322
40
0.812500000000242
40
0.812500000000242
40
0.875000000000163
40
0.875000000000163
40
1
40
1
40
1
40
1
41
1
10
42.8085709879802
20
-1.20348956698933
30
0
41
1
10
42.7940883726987
20
-1.18644652435628
30
0
41
1
10
42.7784743930976
20
-1.17060992315828
30
0
41
1
10
42.7534772242273
20
-1.14854451646019
30
0
41
1
10
42.744931561726
20
-1.14153292715696
30
0
41
1
10
42.7277995272977
20
-1.12850599176613
30
0
41
1
10
42.7191599548717
20
-1.1224419346282
30
0
41
1
10
42.7060917687473
20
-1.11407972023636
30
0
41
1
10
42.7017174314381
20
-1.11141543821333
30
0
41
1
10
42.6929305739041
20
-1.10635605927777
30
0
41
1
10
42.688496390152
20
-1.10395055684143
30
0
41
1
10
42.6753526232647
20
-1.09729902341815
30
0
41
1
10
42.6667739549109
20
-1.09358870472519
30
0
41
1
10
42.6542582504399
20
-1.08931970628592
30
0
41
1
10
42.6501208562234
20
-1.08810905417428
30
0
41
1
10
42.6421294935844
20
-1.086226366977
30
0
41
1
10
42.6382796423714
20
-1.08555194777648
30
0
41
1
10
42.6272116708113
20
-1.084406166685
30
0
41
1
10
42.6204035186634
20
-1.0848248071425
30
0
41
1
10
42.6147247535606
20
-1.08672732832414
30
0
0
SPLINE
5
161
100
AcDbEntity
8
1
62
256
6
ByLayer
370
18
48
1
60
0
100
AcDbSpline
70
4
71
3
72
8
73
4
40
0
40
0
40
0
40
0
40
1
40
1
40
1
40
1
41
1
10
42.614724753555
20
-1.08672732833722
30
0
41
1
10
42.6141145042297
20
-1.08693177635493
30
0
41
1
10
42.61350430265
20
-1.08713559801046
30
0
41
1
10
42.6128941479006
20
-1.08733880355152
30
0
0
SPLINE
5
162
100
AcDbEntity
8
1
62
256
6
ByLayer
370
18
48
1
60
0
100
AcDbSpline
70
4
71
3
72
12
73
8
40
0
40
0
40
0
40
0
40
0.50000000000002
40
0.50000000000002
40
0.75000000000001
40
0.75000000000001
40
1
40
1
40
1
40
1
41
1
10
42.6128941479006
20
-1.08733880355157
30
0
41
1
10
42.5088411288242
20
-1.02311105218996
30
0
41
1
10
42.4056100754124
20
-0.955742993161181
30
0
41
1
10
42.2509510989562
20
-0.851267506960681
30
0
41
1
10
42.1994720693556
20
-0.815820189709768
30
0
41
1
10
42.0969356963463
20
-0.743291943754684
30
0
41
1
10
42.0458491136961
20
-0.706248790635527
30
0
41
1
10
41.9949101398918
20
-0.668455312376693
30
0
0
SPLINE
5
163
100
AcDbEntity
8
1
62
256
6
ByLayer
370
18
48
1
60
0
100
AcDbSpline
70
4
71
3
72
8
73
4
40
0
40
0
40
0
40
0
40
1
40
1
40
1
40
1
41
1
10
41.9949101398918
20
-0.668455312376693
30
0
41
1
10
41.9644070060642
20
-0.618473440244713
30
0
41
1
10
41.9338144549845
20
-0.569494184845496
30
0
41
1
10
41.9031040094116
20
-0.521559572660777
30
0
0
SPLINE
5
164
100
AcDbEntity
8
1
62
256
6
ByLayer
370
18
48
1
60
0
100
AcDbSpline
70
4
71
3
72
26
73
22
40
0
40
0
40
0
40
0
40
0.125
40
0.125
40
0.25
40
0.25
40
0.375
40
0.375
40
0.5
40
0.5
40
0.625
40
0.625
40
0.75
40
0.75
40
0.8125
40
0.8125
40
0.875
40
0.875
40
0.9375
40
0.9375
40
1
40
1
40
1
40
1
41
1
10
41.9031040094113
20
-0.521559572658873
30
0
41
1
10
41.8967026378278
20
-0.511567947380144
30
0
41
1
10
41.8892649104025
20
-0.50143401790109
30
0
41
1
10
41.8727817608412
20
-0.48096090227142
30
0
41
1
10
41.8636427100676
20
-0.470538914867348
30
0
41
1
10
41.8445298602284
20
-0.450208171534996
30
0
41
1
10
41.834504470385
20
-0.440228002502067
30
0
41
1
10
41.8135682878013
20
-0.420604409969826
30
0
41
1
10
41.8025621848545
20
-0.410887409216059
30
0
41
1
10
41.7804342285635
20
-0.392464013429986
30
0
41
1
10
41.7692458397665
20
-0.383684576474479
30
0
41
1
10
41.7466277441253
20
-0.367060353725094
30
0
41
1
10
41.7350680482205
20
-0.359139770876823
30
0
41
1
10
41.7183729566133
20
-0.348699592653333
30
0
41
1
10
41.71289335432
20
-0.345441905460689
30
0
41
1
10
41.7021383292582
20
-0.339432633532141
30
0
41
1
10
41.6968408337363
20
-0.336673588662819
30
0
41
1
10
41.6868288323975
20
-0.331922351791377
30
0
41
1
10
41.6820746113368
20
-0.329905384422744
30
0
41
1
10
41.6731543372076
20
-0.326709388940173
30
0
41
1
10
41.6690004519515
20
-0.325540947573017
30
0
41
1
10
41.6653311351081
20
-0.324909994195082
30
0
0
SPLINE
5
165
100
AcDbEntity
8
1
62
256
6
ByLayer
370
18
48
1
60
0
100
AcDbSpline
70
4
71
3
72
8
73
4
40
0
40
0
40
0
40
0
40
1
40
1
40
1
40
1
41
1
10
41.6653311351024
20
-0.324909994205115
30
0
41
1
10
41.6140642301036
20
-0.316094449448769
30
0
41
1
10
41.5631131755867
20
-0.303105153967806
30
0
41
1
10
41.5123961497536
20
-0.285993227231586
30
0
0
SPLINE
5
166
100
AcDbEntity
8
1
62
256
6
ByLayer
370
18
48
1
60
0
100
AcDbSpline
70
4
71
3
72
12
73
8
40
0
40
0
40
0
40
0
40
0.25
40
0.25
40
0.5
40
0.5
40
1
40
1
40
1
40
1
41
1
10
41.5123961497541
20
-0.285993227230961
30
0
41
1
10
41.4830434761529
20
-0.261337700956688
30
0
41
1
10
41.4536986604789
20
-0.236464264398563
30
0
41
1
10
41.3950019695791
20
-0.186307189749698
30
0
41
1
10
41.3656455330062
20
-0.161019975825269
30
0
41
1
10
41.2779151132305
20
-0.0849104077193772
30
0
41
1
10
41.2197580524801
20
-0.0337246717132871
30
0
41
1
10
41.1619158099627
20
0.0178914659589395
30
0
0
SPLINE
5
167
100
AcDbEntity
8
1
62
256
6
ByLayer
370
18
48
1
60
0
100
AcDbSpline
70
4
71
3
72
10
73
6
40
0
40
0
40
0
40
0
40
0.5
40
0.5
40
1
40
1
40
1
40
1
41
1
10
41.1619158099628
20
0.017891465958968
30
0
41
1
10
41.1274757827291
20
0.0636524595205969
30
0
41
1
10
41.0928826809491
20
0.107845414720316
30
0
41
1
10
41.0234166831324
20
0.192835750320739
30
0
41
1
10
40.988523496247
20
0.233527800795116
30
0
41
1
10
40.9534351236652
20
0.272276046884826
30
0
0
SPLINE
5
168
100
AcDbEntity
8
1
62
256
6
ByLayer
370
18
48
1
60
0
100
AcDbSpline
70
4
71
3
72
28
73
24
40
0
40
0
40
0
40
0
40
0.125000000000124
40
0.125000000000124
40
0.250000000000247
40
0.250000000000247
40
0.375000000000371
40
0.375000000000371
40
0.43750000000039
40
0.43750000000039
40
0.500000000000409
40
0.500000000000409
40
0.625000000000353
40
0.625000000000353
40
0.687500000000325
40
0.687500000000325
40
0.750000000000297
40
0.750000000000297
40
0.87500000000015
40
0.87500000000015
40
0.937500000000075
40
0.937500000000075
40
1
40
1
40
1
40
1
41
1
10
40.9534351236653
20
0.272276046884798
30
0
41
1
10
40.9470581302569
20
0.279318189102355
30
0
41
1
10
40.9396492468391
20
0.286905553320707
30
0
41
1
10
40.9232247097146
20
0.302907951482638
30
0
41
1
10
40.914122459128
20
0.31139467888454
30
0
41
1
10
40.8950087056711
20
0.328610253571441
30
0
41
1
10
40.8849541883254
20
0.33738525087702
30
0
41
1
10
40.8691536000616
20
0.350808392935335
30
0
41
1
10
40.8637666136299
20
0.355325503281335
30
0
41
1
10
40.8529381625937
20
0.36429798695292
30
0
41
1
10
40.8474738930582
20
0.368772901835086
30
0
41
1
10
40.8309355850568
20
0.382172265848396
30
0
41
1
10
40.8197185132418
20
0.39107128381022
30
0
41
1
10
40.8025864043796
20
0.404402166729341
30
0
41
1
10
40.7968301035102
20
0.40883744260492
30
0
41
1
10
40.7854837410016
20
0.417496905105139
30
0
41
1
10
40.7798612017317
20
0.421746436900975
30
0
41
1
10
40.7631736876116
20
0.434239783557501
30
0
41
1
10
40.7521831398623
20
0.44230573939339
30
0
41
1
10
40.7372234041706
20
0.453022150598258
30
0
41
1
10
40.7324362338722
20
0.456403623251589
30
0
41
1
10
40.7234904735815
20
0.462604358302997
30
0
41
1
10
40.7194005699483
20
0.465376656147384
30
0
41
1
10
40.7157430586774
20
0.467773597934695
30
0
0
SPLINE
5
169
100
AcDbEntity
8
1
62
256
6
ByLayer
370
18
48
1
60
0
100
AcDbSpline
70
4
71
3
72
10
73
6
40
0
40
0
40
0
40
0
40
0.5
40
0.5
40
1
40
1
40
1
40
1
41
1
10
40.7157430586772
20
0.467773597935036
30
0
41
1
10
40.6657728941981
20
0.500521432866037
30
0
41
1
10
40.6160923858641
20
0.536908157599015
30
0
41
1
10
40.5171827972597
20
0.617101522233099
30
0
41
1
10
40.4680906291568
20
0.660754246530388
30
0
41
1
10
40.4192926285624
20
0.707753816818183
30
0
0
SPLINE
5
16A
100
AcDbEntity
8
1
62
256
6
ByLayer
370
18
48
1
60
0
100
AcDbSpline
70
4
71
3
72
8
73
4
40
0
40
0
40
0
40
0
40
1
40
1
40
1
40
1
41
1
10
40.4192926285623
20
0.707753816818183
30
0
41
1
10
40.3956427453483
20
0.730547960707042
30
0
41
1
10
40.3720209022422
20
0.753389441483222
30
0
41
1
10
40.3484237608995
20
0.776274838210895
30
0
0
SPLINE
5
16B
100
AcDbEntity
8
1
62
256
6
ByLayer
370
18
48
1
60
0
100
AcDbSpline
70
4
71
3
72
8
73
4
40
0
40
0
40
0
40
0
40
1
40
1
40
1
40
1
41
1
10
40.3225429437609
20
0.80123352657867
30
0
41
1
10
40.3311694951778
20
0.792920654754766
30
0
41
1
10
40.3397963917843
20
0.784601047497119
30
0
41
1
10
40.3484237608995
20
0.776274838210924
30
0
0
SPLINE
5
16C
100
AcDbEntity
8
1
62
256
6
ByLayer
370
18
48
1
60
0
100
AcDbSpline
70
4
71
3
72
10
73
6
40
0
40
0
40
0
40
0
40
0.5
40
0.5
40
1
40
1
40
1
40
1
41
1
10
40.3225429437609
20
0.80123352657867
30
0
41
1
10
40.2701023156133
20
0.849200074718823
30
0
41
1
10
40.2173302797746
20
0.893003290543845
30
0
41
1
10
40.111158989765
20
0.971884942176359
30
0
41
1
10
40.0577780037508
20
1.00700993461919
30
0
41
1
10
40.0040732826711
20
1.03743032434477
30
0
0
SPLINE
5
16D
100
AcDbEntity
8
1
62
256
6
ByLayer
370
18
48
1
60
0
100
AcDbSpline
70
4
71
3
72
26
73
22
40
0
40
0
40
0
40
0
40
0.125
40
0.125
40
0.25
40
0.25
40
0.375
40
0.375
40
0.5
40
0.5
40
0.625
40
0.625
40
0.75
40
0.75
40
0.8125
40
0.8125
40
0.875
40
0.875
40
0.9375
40
0.9375
40
1
40
1
40
1
40
1
41
1
10
40.0040732826711
20
1.03743032434477
30
0
41
1
10
39.9976648318489
20
1.04106031380618
30
0
41
1
10
39.9902210900474
20
1.04561740241763
30
0
41
1
10
39.9737319052142
20
1.05614106390229
30
0
41
1
10
39.9645944646819
20
1.06217447393803
30
0
41
1
10
39.9454917479814
20
1.07511465177103
30
0
41
1
10
39.9354745386622
20
1.08205273759083
30
0
41
1
10
39.9145619454871
20
1.09684918350356
30
0
41
1
10
39.9035690681581
20
1.10478043867022
30
0
41
1
10
39.8814565924036
20
1.12110664475219
30
0
41
1
10
39.870273320014
20
1.12954324647811
30
0
41
1
10
39.8476599835157
20
1.14709158073308
30
0
41
1
10
39.8360934551862
20
1.15631621475558
30
0
41
1
10
39.8193742860834
20
1.17019056609965
30
0
41
1
10
39.8138866043141
20
1.17483634794948
30
0
41
1
10
39.8031142986677
20
1.18418323487344
30
0
41
1
10
39.7978039571407
20
1.18890955881514
30
0
41
1
10
39.7877635877338
20
1.19813109456706
30
0
41
1
10
39.7829955667777
20
1.20265774009965
30
0
41
1
10
39.7740493106197
20
1.21151485589749
30
0
41
1
10
39.7698808452335
20
1.2158397983425
30
0
41
1
10
39.7661999519177
20
1.21990025269042
30
0
0
SPLINE
5
16E
100
AcDbEntity
8
1
62
256
6
ByLayer
370
18
48
1
60
0
100
AcDbSpline
70
4
71
3
72
12
73
8
40
0
40
0
40
0
40
0
40
0.5
40
0.5
40
0.75
40
0.75
40
1
40
1
40
1
40
1
41
1
10
39.7661999519127
20
1.21990025268642
30
0
41
1
10
39.7146926057936
20
1.27671885881392
30
0
41
1
10
39.6634936210002
20
1.33668658668736
30
0
41
1
10
39.5870295363819
20
1.43115388780842
30
0
41
1
10
39.5616272297168
20
1.46336247846224
30
0
41
1
10
39.5110152944917
20
1.52926103202574
30
0
41
1
10
39.4857983330947
20
1.56294050582574
30
0
41
1
10
39.4606546255175
20
1.59731447968554
30
0
0
SPLINE
5
16F
100
AcDbEntity
8
1
62
256
6
ByLayer
370
18
48
1
60
0
100
AcDbSpline
70
4
71
3
72
10
73
6
40
0
40
0
40
0
40
0
40
0.5
40
0.5
40
1
40
1
40
1
40
1
41
1
10
39.3728302302767
20
1.6725113189861
30
0
41
1
10
39.320466178766
20
1.68920620296464
30
0
41
1
10
39.2677491868986
20
1.70124531647718
30
0
41
1
10
39.1616300579003
20
1.71596918169138
30
0
41
1
10
39.108259735799
20
1.71871841352018
30
0
41
1
10
39.0545456252467
20
1.71661848853066
30
0
0
SPLINE
5
170
100
AcDbEntity
8
1
62
256
6
ByLayer
370
18
48
1
60
0
100
AcDbSpline
70
4
71
3
72
26
73
22
40
0
40
0
40
0
40
0
40
0.125
40
0.125
40
0.25
40
0.25
40
0.375
40
0.375
40
0.5
40
0.5
40
0.625
40
0.625
40
0.75
40
0.75
40
0.8125
40
0.8125
40
0.875
40
0.875
40
0.9375
40
0.9375
40
1
40
1
40
1
40
1
41
1
10
39.0545456252467
20
1.71661848853066
30
0
41
1
10
39.0481453661928
20
1.71636827375863
30
0
41
1
10
39.0407084979408
20
1.71732545133449
30
0
41
1
10
39.0242262917675
20
1.72108740395808
30
0
41
1
10
39.0150872537779
20
1.72394232597625
30
0
41
1
10
38.9959738454845
20
1.73113971710501
30
0
41
1
10
38.9859489192732
20
1.73548577091242
30
0
41
1
10
38.9650174674093
20
1.74563688596177
30
0
41
1
10
38.9540147932432
20
1.75150386524939
30
0
41
1
10
38.9318888993726
20
1.76441531185708
30
0
41
1
10
38.9206990578732
20
1.77148184911087
30
0
41
1
10
38.8980746544779
20
1.78705467590902
30
0
41
1
10
38.8865108678187
20
1.79567112201676
30
0
41
1
10
38.8698136198425
20
1.8093926506032
30
0
41
1
10
38.8643337007421
20
1.81411331033274
30
0
41
1
10
38.8535776579949
20
1.82390016532676
30
0
41
1
10
38.8482795568675
20
1.82899283336116
30
0
41
1
10
38.8382663742492
20
1.83925934345632
30
0
41
1
10
38.8335115534268
20
1.84446600311304
30
0
41
1
10
38.8245900729441
20
1.85505073285972
30
0
41
1
10
38.8204357939164
20
1.86042302021372
30
0
41
1
10
38.8167661931592
20
1.86571381815014
30
0
0
SPLINE
5
171
100
AcDbEntity
8
1
62
256
6
ByLayer
370
18
48
1
60
0
100
AcDbSpline
70
4
71
3
72
10
73
6
40
0
40
0
40
0
40
0
40
0.5
40
0.5
40
1
40
1
40
1
40
1
41
1
10
38.8167661931538
20
1.86571381814997
30
0
41
1
10
38.765238125375
20
1.94000653083074
30
0
41
1
10
38.7140241438389
20
2.01658829111008
30
0
41
1
10
38.6120783434591
20
2.17434169378635
30
0
41
1
10
38.5614899744718
20
2.25524735997703
30
0
41
1
10
38.5112133632546
20
2.3380152394144
30
0
0
SPLINE
5
172
100
AcDbEntity
8
1
62
256
6
ByLayer
370
18
48
1
60
0
100
AcDbSpline
70
4
71
3
72
14
73
10
40
0
40
0
40
0
40
0
40
0.25
40
0.25
40
0.5
40
0.5
40
0.75
40
0.75
40
1
40
1
40
1
40
1
41
1
10
38.4233987985096
20
2.39749960600926
30
0
41
1
10
38.3972171338401
20
2.38974307259903
30
0
41
1
10
38.3709603998663
20
2.38086584230933
30
0
41
1
10
38.3182614232701
20
2.36083947444277
30
0
41
1
10
38.2918161850018
20
2.34969546475361
30
0
41
1
10
38.2387631900208
20
2.32508603521438
30
0
41
1
10
38.2121311838337
20
2.31158812700051
30
0
41
1
10
38.1586868671102
20
2.28222169727329
30
0
41
1
10
38.1318847999405
20
2.26637888500346
30
0
41
1
10
38.1049604273615
20
2.24928338652182
30
0
0
SPLINE
5
173
100
AcDbEntity
8
1
62
256
6
ByLayer
370
18
48
1
60
0
100
AcDbSpline
70
4
71
3
72
28
73
24
40
0
40
0
40
0
40
0
40
0.124999999999989
40
0.124999999999989
40
0.249999999999978
40
0.249999999999978
40
0.374999999999967
40
0.374999999999967
40
0.437499999999984
40
0.437499999999984
40
0.5
40
0.5
40
0.625000000000035
40
0.625000000000035
40
0.687500000000053
40
0.687500000000053
40
0.750000000000071
40
0.750000000000071
40
0.875000000000058
40
0.875000000000058
40
0.937500000000029
40
0.937500000000029
40
1
40
1
40
1
40
1
41
1
10
38.1049604273614
20
2.24928338652182
30
0
41
1
10
38.0985801884691
20
2.24523228509031
30
0
41
1
10
38.0911656940047
20
2.24255345304297
30
0
41
1
10
38.0747220267766
20
2.23930403327444
30
0
41
1
10
38.0656055792601
20
2.23876006589865
30
0
41
1
10
38.0464605657661
20
2.23964257982476
30
0
41
1
10
38.0363887678526
20
2.24104808861955
30
0
41
1
10
38.020567836616
20
2.24458970541366
30
0
41
1
10
38.0151754764906
20
2.24601389138124
30
0
41
1
10
38.0043383937509
20
2.24930493792365
30
0
41
1
10
37.9988708132028
20
2.25117636139473
30
0
41
1
10
37.9823253534865
20
2.25748589183053
30
0
41
1
10
37.9711068998081
20
2.26260498110653
30
0
41
1
10
37.9539810637563
20
2.27193284209147
30
0
41
1
10
37.9482320007778
20
2.2753189806555
30
0
41
1
10
37.9369008999255
20
2.28255296027174
30
0
41
1
10
37.9312870615211
20
2.28641700156507
30
0
41
1
10
37.9146274633662
20
2.29884453767818
30
0
41
1
10
37.9036583229007
20
2.30835210418368
30
0
41
1
10
37.888723873777
20
2.32398249629657
30
0
41
1
10
37.8839450894332
20
2.32947092686464
30
0
41
1
10
37.8750096797238
20
2.34094448942568
30
0
41
1
10
37.8709231458618
20
2.34683473236322
30
0
41
1
10
37.8672674350844
20
2.35289710755998
30
0
0
SPLINE
5
174
100
AcDbEntity
8
1
62
256
6
ByLayer
370
18
48
1
60
0
100
AcDbSpline
70
4
71
3
72
10
73
6
40
0
40
0
40
0
40
0
40
0.5
40
0.5
40
1
40
1
40
1
40
1
41
1
10
37.8672674350844
20
2.35289710755998
30
0
41
1
10
37.815728964374
20
2.43836490453055
30
0
41
1
10
37.7645130886522
20
2.52506630839741
30
0
41
1
10
37.6625658068766
20
2.70084481519714
30
0
41
1
10
37.6119803989043
20
2.78963879017545
30
0
41
1
10
37.5617034360442
20
2.87918181807194
30
0
0
SPLINE
5
175
100
AcDbEntity
8
1
62
256
6
ByLayer
370
18
48
1
60
0
100
AcDbSpline
70
4
71
3
72
10
73
6
40
0
40
0
40
0
40
0
40
0.5
40
0.5
40
1
40
1
40
1
40
1
41
1
10
37.473883149903
20
2.91733571709142
30
0
41
1
10
37.4214844636769
20
2.87042325766322
30
0
41
1
10
37.3687470965261
20
2.81943162280623
30
0
41
1
10
37.2626193980208
20
2.70946632095237
30
0
41
1
10
37.2092468167572
20
2.65054364855726
30
0
41
1
10
37.1555244173982
20
2.58766578152588
30
0
0
SPLINE
5
176
100
AcDbEntity
8
1
62
256
6
ByLayer
370
18
48
1
60
0
100
AcDbSpline
70
4
71
3
72
26
73
22
40
0
40
0
40
0
40
0
40
0.124999999999989
40
0.124999999999989
40
0.249999999999978
40
0.249999999999978
40
0.374999999999967
40
0.374999999999967
40
0.499999999999956
40
0.499999999999956
40
0.624999999999945
40
0.624999999999945
40
0.749999999999934
40
0.749999999999934
40
0.81249999999995
40
0.81249999999995
40
0.874999999999967
40
0.874999999999967
40
0.937499999999983
40
0.937499999999983
40
1
40
1
40
1
40
1
41
1
10
37.1555244173982
20
2.58766578152552
30
0
41
1
10
37.1491233308733
20
2.58017381035194
30
0
41
1
10
37.1416860267365
20
2.57413631244401
30
0
41
1
10
37.1252036067405
20
2.56429418883457
30
0
41
1
10
37.1160653969538
20
2.56049505632848
30
0
41
1
10
37.0969542888847
20
2.5551803254582
30
0
41
1
10
37.0869304217278
20
2.55361738583338
30
0
41
1
10
37.066001311578
20
2.55260918694341
30
0
41
1
10
37.0549997180832
20
2.55319148411491
30
0
41
1
10
37.032874568217
20
2.55660278645829
30
0
41
1
10
37.0216848699598
20
2.55940789192957
30
0
41
1
10
36.9990614061564
20
2.56754749238829
30
0
41
1
10
36.9874968118534
20
2.57296928562258
30
0
41
1
10
36.9707946285634
20
2.58316275359348
30
0
41
1
10
36.9653130460067
20
2.5869091977012
30
0
41
1
10
36.954553598176
20
2.59521191405139
30
0
41
1
10
36.9492526303916
20
2.59979768355277
30
0
41
1
10
36.9392326735093
20
2.60962721153606
30
0
41
1
10
36.9344744556206
20
2.61489493119555
30
0
41
1
10
36.9255462682155
20
2.62625532564911
30
0
41
1
10
36.9213878375035
20
2.63234939227948
30
0
41
1
10
36.917714832336
20
2.63872570638452
30
0
0
SPLINE
5
177
100
AcDbEntity
8
1
62
256
6
ByLayer
370
18
48
1
60
0
100
AcDbSpline
70
4
71
3
72
10
73
6
40
0
40
0
40
0
40
0
40
0.5
40
0.5
40
1
40
1
40
1
40
1
41
1
10
36.9177148323307
20
2.63872570639208
30
0
41
1
10
36.8661939960784
20
2.72816555740573
30
0
41
1
10
36.8149917467896
20
2.8175957707189
30
0
41
1
10
36.7130557908175
20
2.99634845396065
30
0
41
1
10
36.6624523714204
20
3.08542746624207
30
0
41
1
10
36.6121644627507
20
3.17409889804401
30
0
0
SPLINE
5
178
100
AcDbEntity
8
1
62
256
6
ByLayer
370
18
48
1
60
0
100
AcDbSpline
70
4
71
3
72
10
73
6
40
0
40
0
40
0
40
0
40
0.5
40
0.5
40
1
40
1
40
1
40
1
41
1
10
36.5243888188076
20
3.18774692889505
30
0
41
1
10
36.4720534818574
20
3.11366195712083
30
0
41
1
10
36.4193533763458
20
3.03626544178167
30
0
41
1
10
36.3132456114796
20
2.87525213273281
30
0
41
1
10
36.2598567749668
20
2.7916711595426
30
0
41
1
10
36.2061224810455
20
2.70516982811273
30
0
0
SPLINE
5
179
100
AcDbEntity
8
1
62
256
6
ByLayer
370
18
48
1
60
0
100
AcDbSpline
70
4
71
3
72
26
73
22
40
0
40
0
40
0
40
0
40
0.124999999999988
40
0.124999999999988
40
0.249999999999977
40
0.249999999999977
40
0.374999999999965
40
0.374999999999965
40
0.499999999999954
40
0.499999999999954
40
0.624999999999942
40
0.624999999999942
40
0.749999999999931
40
0.749999999999931
40
0.812499999999948
40
0.812499999999948
40
0.874999999999965
40
0.874999999999965
40
0.937499999999983
40
0.937499999999983
40
1
40
1
40
1
40
1
41
1
10
36.2061224810455
20
2.70516982811273
30
0
41
1
10
36.1997193153282
20
2.69486202801909
30
0
41
1
10
36.1922767347066
20
2.68594965490769
30
0
41
1
10
36.175777251913
20
2.67027352785561
30
0
41
1
10
36.1666257374276
20
2.66349041804978
30
0
41
1
10
36.1474863810904
20
2.65233624233068
30
0
41
1
10
36.1374483742738
20
2.64789732889713
30
0
41
1
10
36.1164932409864
20
2.64121374372286
30
0
41
1
10
36.1054814675498
20
2.63897587579271
30
0
41
1
10
36.0833475527192
20
2.63701612197301
30
0
41
1
10
36.0721566358173
20
2.63724937726042
30
0
41
1
10
36.0495377709939
20
2.64048479915408
30
0
41
1
10
36.0379864903875
20
2.64354968310207
30
0
41
1
10
36.0213173801961
20
2.65058381315313
30
0
41
1
10
36.0158470392194
20
2.65333559869478
30
0
41
1
10
36.0051101666456
20
2.65978250764127
30
0
41
1
10
35.9998235026164
20
2.66350242641983
30
0
41
1
10
35.9898319476411
20
2.67180834193982
30
0
41
1
10
35.9850868584235
20
2.67641188547901
30
0
41
1
10
35.9761821295852
20
2.68667261015389
30
0
41
1
10
35.9720353375217
20
2.69233243232284
30
0
41
1
10
35.9683710338925
20
2.6984256050392
30
0
0
SPLINE
5
17A
100
AcDbEntity
8
1
62
256
6
ByLayer
370
18
48
1
60
0
100
AcDbSpline
70
4
71
3
72
10
73
6
40
0
40
0
40
0
40
0
40
0.5
40
0.5
40
1
40
1
40
1
40
1
41
1
10
35.9683710338869
20
2.69842560505046
30
0
41
1
10
35.9168115757509
20
2.7841610449741
30
0
41
1
10
35.8655788762767
20
2.86864952745063
30
0
41
1
10
35.7636042519261
20
3.03504396873626
30
0
41
1
10
35.7130090347814
20
3.11671910864035
30
0
41
1
10
35.662730020152
20
3.19683255667866
30
0
0
SPLINE
5
17B
100
AcDbEntity
8
1
62
256
6
ByLayer
370
18
48
1
60
0
100
AcDbSpline
70
4
71
3
72
8
73
4
40
0
40
0
40
0
40
0
40
1
40
1
40
1
40
1
41
1
10
35.5748804300515
20
3.18486435094948
30
0
41
1
10
35.604158342931
20
3.18925480073472
30
0
41
1
10
35.6334396329228
20
3.1932439549538
30
0
41
1
10
35.6627300201522
20
3.19683255667888
30
0
0
SPLINE
5
17C
100
AcDbEntity
8
1
62
256
6
ByLayer
370
18
48
1
60
0
100
AcDbSpline
70
4
71
3
72
12
73
8
40
0
40
0
40
0
40
0
40
0.249999999999997
40
0.249999999999997
40
0.499999999999994
40
0.499999999999994
40
1
40
1
40
1
40
1
41
1
10
35.5748804300515
20
3.18486435094962
30
0
41
1
10
35.5487264250444
20
3.1374828611167
30
0
41
1
10
35.5225052878182
20
3.08957070794179
30
0
41
1
10
35.4698575488706
20
2.99262676860187
30
0
41
1
10
35.4434125362317
20
2.94356966238595
30
0
41
1
10
35.3637923484722
20
2.79489341890474
30
0
41
1
10
35.3103626788102
20
2.69377545578507
30
0
41
1
10
35.256507587346
20
2.59090602506413
30
0
0
SPLINE
5
17D
100
AcDbEntity
8
1
62
256
6
ByLayer
370
18
48
1
60
0
100
AcDbSpline
70
4
71
3
72
28
73
24
40
0
40
0
40
0
40
0
40
0.124999999999991
40
0.124999999999991
40
0.249999999999981
40
0.249999999999981
40
0.374999999999972
40
0.374999999999972
40
0.437499999999989
40
0.437499999999989
40
0.500000000000005
40
0.500000000000005
40
0.62500000000004
40
0.62500000000004
40
0.687500000000034
40
0.687500000000034
40
0.750000000000027
40
0.750000000000027
40
0.875000000000015
40
0.875000000000015
40
0.937500000000007
40
0.937500000000007
40
1
40
1
40
1
40
1
41
1
10
35.2565075873459
20
2.5909060250641
30
0
41
1
10
35.2501284404771
20
2.57872111943971
30
0
41
1
10
35.2427147155045
20
2.56773978603798
30
0
41
1
10
35.2262719829105
20
2.54763955395413
30
0
41
1
10
35.217155388226
20
2.53848162072151
30
0
41
1
10
35.1980101695493
20
2.52243331609313
30
0
41
1
10
35.1879388169329
20
2.51547055623175
30
0
41
1
10
35.172115807352
20
2.50658346046484
30
0
41
1
10
35.1667225570695
20
2.50388804248235
30
0
41
1
10
35.1558833780534
20
2.49912090582757
30
0
41
1
10
35.1504145359184
20
2.49703549357429
30
0
41
1
10
35.133864821448
20
2.49168805528484
30
0
41
1
10
35.122642897131
20
2.48931705651933
30
0
41
1
10
35.1055117420816
20
2.48787211428845
30
0
41
1
10
35.099763204814
20
2.48775307372611
30
0
41
1
10
35.0884334573903
20
2.48830788048528
30
0
41
1
10
35.0828206775114
20
2.48897755618037
30
0
41
1
10
35.0661655610324
20
2.49229880160399
30
0
41
1
10
35.0552032988613
20
2.49632326788819
30
0
41
1
10
35.0402827397722
20
2.50546615131412
30
0
41
1
10
35.0355085989382
20
2.50905666534121
30
0
41
1
10
35.026584098135
20
2.51742248861234
30
0
41
1
10
35.0225026525074
20
2.52212642199629
30
0
41
1
10
35.0188514239653
20
2.5274220018153
30
0
0
SPLINE
5
17E
100
AcDbEntity
8
1
62
256
6
ByLayer
370
18
48
1
60
0
100
AcDbSpline
70
4
71
3
72
10
73
6
40
0
40
0
40
0
40
0
40
0.5
40
0.5
40
1
40
1
40
1
40
1
41
1
10
35.0188514239654
20
2.52742200181544
30
0
41
1
10
34.9672961700482
20
2.60219545383802
30
0
41
1
10
34.9160712669182
20
2.67455774517654
30
0
41
1
10
34.8141138509182
20
2.81442671197513
30
0
41
1
10
34.7635313825605
20
2.88175543022879
30
0
41
1
10
34.7132649832404
20
2.94652307282095
30
0
0
SPLINE
5
17F
100
AcDbEntity
8
1
62
256
6
ByLayer
370
18
48
1
60
0
100
AcDbSpline
70
4
71
3
72
8
73
4
40
0
40
0
40
0
40
0
40
1
40
1
40
1
40
1
41
1
10
34.6254592067007
20
2.91009882995843
30
0
41
1
10
34.654722124438
20
2.92260805335909
30
0
41
1
10
34.6839888679329
20
2.93474977396499
30
0
41
1
10
34.7132649832406
20
2.94652307282118
30
0
0
SPLINE
5
180
100
AcDbEntity
8
1
62
256
6
ByLayer
370
18
48
1
60
0
100
AcDbSpline
70
4
71
3
72
10
73
6
40
0
40
0
40
0
40
0
40
0.5
40
0.5
40
1
40
1
40
1
40
1
41
1
10
34.6254592067018
20
2.91009882994692
30
0
41
1
10
34.5730326030395
20
2.80249450397545
30
0
41
1
10
34.5202787651319
20
2.69392585703085
30
0
41
1
10
34.4141497460272
20
2.47552243549538
30
0
41
1
10
34.3607884497859
20
2.36568286579416
30
0
41
1
10
34.3070846658364
20
2.25553444700518
30
0
0
SPLINE
5
181
100
AcDbEntity
8
1
62
256
6
ByLayer
370
18
48
1
60
0
100
AcDbSpline
70
4
71
3
72
16
73
12
40
0
40
0
40
0
40
0
40
0.201106078260962
40
0.201106078260962
40
0.402212156521925
40
0.402212156521925
40
0.603318234782887
40
0.603318234782887
40
0.804424313043849
40
0.804424313043849
40
1
40
1
40
1
40
1
41
1
10
34.3070846658364
20
2.25553444700546
30
0
41
1
10
34.300677092031
20
2.24239227952617
30
0
41
1
10
34.2932339503812
20
2.23018387155236
30
0
41
1
10
34.2767418756069
20
2.20720725163733
30
0
41
1
10
34.2676006235879
20
2.19637976026209
30
0
41
1
10
34.2484881897041
20
2.17675655275778
30
0
41
1
10
34.2384653141047
20
2.16786973291337
30
0
41
1
10
34.2175418019092
20
2.15186519907147
30
0
41
1
10
34.2065447455025
20
2.14471000094815
30
0
41
1
10
34.1847316985198
20
2.13295318549652
30
0
41
1
10
34.1738573085579
20
2.1282181326111
30
0
41
1
10
34.1628671960117
20
2.12467749073306
30
0
0
SPLINE
5
182
100
AcDbEntity
8
1
62
256
6
ByLayer
370
18
48
1
60
0
100
AcDbSpline
70
4
71
3
72
8
73
4
40
0
40
0
40
0
40
0
40
1
40
1
40
1
40
1
41
1
10
32.2706392611557
20
2.84571135071909
30
0
41
1
10
32.3068470182943
20
2.78075659334107
30
0
41
1
10
32.3432154156205
20
2.71497490114524
30
0
41
1
10
32.3798051997397
20
2.64835320278095
30
0
0
SPLINE
5
183
100
AcDbEntity
8
1
62
256
6
ByLayer
370
18
48
1
60
0
100
AcDbSpline
70
4
71
3
72
28
73
24
40
0
40
0
40
0
40
0
40
0.125
40
0.125
40
0.25
40
0.25
40
0.375
40
0.375
40
0.5
40
0.5
40
0.625
40
0.625
40
0.6875
40
0.6875
40
0.75
40
0.75
40
0.8125
40
0.8125
40
0.875
40
0.875
40
0.9375
40
0.9375
40
1
40
1
40
1
40
1
41
1
10
32.3798051997397
20
2.64835320278095
30
0
41
1
10
32.3864034264377
20
2.63633932843319
30
0
41
1
10
32.3940927586825
20
2.62573613254574
30
0
41
1
10
32.4111150179484
20
2.60663931617532
30
0
41
1
10
32.4205577735237
20
2.59810856589587
30
0
41
1
10
32.4401928933873
20
2.58355989391222
30
0
41
1
10
32.4504406247126
20
2.57745545457499
30
0
41
1
10
32.4717159891092
20
2.56743297426314
30
0
41
1
10
32.4828056476702
20
2.56352256170285
30
0
41
1
10
32.5049559418911
20
2.55824659559141
30
0
41
1
10
32.5161085130167
20
2.55682277520157
30
0
41
1
10
32.5329379640294
20
2.55672130930955
30
0
41
1
10
32.5385963096687
20
2.55703495832014
30
0
41
1
10
32.549763453416
20
2.55841409052104
30
0
41
1
10
32.5552671885166
20
2.55947372654356
30
0
41
1
10
32.5660964254904
20
2.56239509663595
30
0
41
1
10
32.5714221336491
20
2.56425593227937
30
0
41
1
10
32.5818646586546
20
2.56889758391193
30
0
41
1
10
32.5869899700458
20
2.57169296984745
30
0
41
1
10
32.5966846750735
20
2.57817826544175
30
0
41
1
10
32.601292655449
20
2.58188052678338
30
0
41
1
10
32.6099518993349
20
2.59035371159399
30
0
41
1
10
32.6140121265476
20
2.59514919922668
30
0
41
1
10
32.617624181405
20
2.60044748846354
30
0
0
SPLINE
5
184
100
AcDbEntity
8
1
62
256
6
ByLayer
370
18
48
1
60
0
100
AcDbSpline
70
4
71
3
72
10
73
6
40
0
40
0
40
0
40
0
40
0.5
40
0.5
40
1
40
1
40
1
40
1
41
1
10
32.6176241814063
20
2.60044748846636
30
0
41
1
10
32.6696007647045
20
2.67668857082546
30
0
41
1
10
32.7211703710355
20
2.75064368707487
30
0
41
1
10
32.8237386904437
20
2.89411032622749
30
0
41
1
10
32.8746062980633
20
2.96343799041404
30
0
41
1
10
32.925143488176
20
3.03035757460924
30
0
0
SPLINE
5
185
100
AcDbEntity
8
1
62
256
6
ByLayer
370
18
48
1
60
0
100
AcDbSpline
70
4
71
3
72
10
73
6
40
0
40
0
40
0
40
0
40
0.5
40
0.5
40
1
40
1
40
1
40
1
41
1
10
33.0129382957952
20
2.99970123678983
30
0
41
1
10
33.0648334325124
20
2.89728541458919
30
0
41
1
10
33.1171222966768
20
2.79390079728074
30
0
41
1
10
33.2225731863578
20
2.58568456375903
30
0
41
1
10
33.2757015017117
20
2.48092336119802
30
0
41
1
10
33.3292403972314
20
2.37584431102567
30
0
0
SPLINE
5
186
100
AcDbEntity
8
1
62
256
6
ByLayer
370
18
48
1
60
0
100
AcDbSpline
70
4
71
3
72
28
73
24
40
0
40
0
40
0
40
0
40
0.125
40
0.125
40
0.25
40
0.25
40
0.374999999999999
40
0.374999999999999
40
0.499999999999999
40
0.499999999999999
40
0.624999999999999
40
0.624999999999999
40
0.687499999999999
40
0.687499999999999
40
0.749999999999999
40
0.749999999999999
40
0.812499999999999
40
0.812499999999999
40
0.875
40
0.875
40
0.9375
40
0.9375
40
1
40
1
40
1
40
1
41
1
10
33.3292403972315
20
2.37584431102476
30
0
41
1
10
33.3358268902023
20
2.36291721533803
30
0
41
1
10
33.3435040716156
20
2.35108529259546
30
0
41
1
10
33.3605070278045
20
2.32906790313422
30
0
41
1
10
33.3699446135397
20
2.31881946091258
30
0
41
1
10
33.3895836192446
20
2.30055133711738
30
0
41
1
10
33.3998388410528
20
2.29243834999019
30
0
41
1
10
33.4211416800427
20
2.27811804407611
30
0
41
1
10
33.4322496143265
20
2.2719055529214
30
0
41
1
10
33.4544288426946
20
2.26189556046677
30
0
41
1
10
33.4655933024295
20
2.25802086994787
30
0
41
1
10
33.4824334858231
20
2.25408620779527
30
0
41
1
10
33.4880946373644
20
2.25308842216145
30
0
41
1
10
33.4992509277582
20
2.25182626780011
30
0
41
1
10
33.5047479076929
20
2.25155649941718
30
0
41
1
10
33.5155614470883
20
2.25179774091922
30
0
41
1
10
33.5208782130727
20
2.25230788450566
30
0
41
1
10
33.5313010895285
20
2.25422176388318
30
0
41
1
10
33.536411509503
20
2.25563598910381
30
0
41
1
10
33.5460756304617
20
2.25940807826933
30
0
41
1
10
33.5506682269941
20
2.2617689956349
30
0
41
1
10
33.5592977034891
20
2.26759391778384
30
0
41
1
10
33.5633422545442
20
2.27107742780825
30
0
41
1
10
33.5669408826146
20
2.27512125972686
30
0
0
SPLINE
5
187
100
AcDbEntity
8
1
62
256
6
ByLayer
370
18
48
1
60
0
100
AcDbSpline
70
4
71
3
72
10
73
6
40
0
40
0
40
0
40
0
40
0.5
40
0.5
40
1
40
1
40
1
40
1
41
1
10
33.5669408826159
20
2.27512125973013
30
0
41
1
10
33.6189598565621
20
2.33357575492124
30
0
41
1
10
33.6705622843571
20
2.38879382727211
30
0
41
1
10
33.7731528784472
20
2.49275195864664
30
0
41
1
10
33.8239914633733
20
2.54132131969598
30
0
41
1
10
33.8744620754984
20
2.58648549897714
30
0
0
SPLINE
5
188
100
AcDbEntity
8
1
62
256
6
ByLayer
370
18
48
1
60
0
100
AcDbSpline
70
4
71
3
72
8
73
4
40
0
40
0
40
0
40
0
40
1
40
1
40
1
40
1
41
1
10
33.9623202852151
20
2.53293431282341
30
0
41
1
10
33.9330266363731
20
2.55110787047747
30
0
41
1
10
33.9037492377276
20
2.56896333448657
30
0
41
1
10
33.8744620754984
20
2.58648549897714
30
0
0
SPLINE
5
189
100
AcDbEntity
8
1
62
256
6
ByLayer
370
18
48
1
60
0
100
AcDbSpline
70
4
71
3
72
10
73
6
40
0
40
0
40
0
40
0
40
0.5
40
0.5
40
1
40
1
40
1
40
1
41
1
10
33.9623202852152
20
2.53293431282398
30
0
41
1
10
34.0141766162561
20
2.4263157796436
30
0
41
1
10
34.0664470803899
20
2.32003410869842
30
0
41
1
10
34.1719380007365
20
2.10873105232835
30
0
41
1
10
34.2251146285471
20
2.00377775926833
30
0
41
1
10
34.2787267577292
20
1.8998905384077
30
0
0
SPLINE
5
18A
100
AcDbEntity
8
1
62
256
6
ByLayer
370
18
48
1
60
0
100
AcDbSpline
70
4
71
3
72
27
73
23
40
0
40
0
40
0
40
0
40
0.125000000000018
40
0.125000000000018
40
0.250000000000036
40
0.250000000000036
40
0.375000000000054
40
0.375000000000054
40
0.500000000000071
40
0.500000000000071
40
0.625000000000089
40
0.625000000000089
40
0.687500000000074
40
0.687500000000074
40
0.750000000000059
40
0.812500000000045
40
0.812500000000045
40
0.87500000000003
40
0.87500000000003
40
0.937500000000015
40
0.937500000000015
40
1
40
1
40
1
40
1
41
1
10
34.2787267577292
20
1.89989053840767
30
0
41
1
10
34.285318207064
20
1.88711791841891
30
0
41
1
10
34.2929998169024
20
1.87503686308216
30
0
41
1
10
34.310008886103
20
1.85192021753835
30
0
41
1
10
34.3194479223323
20
1.84080377555853
30
0
41
1
10
34.3390868008458
20
1.8203235700407
30
0
41
1
10
34.3493409636594
20
1.81086568992637
30
0
41
1
10
34.370640424834
20
1.79339919755725
30
0
41
1
10
34.3817465011106
20
1.78537107406566
30
0
41
1
10
34.4039232658188
20
1.77137861758547
30
0
41
1
10
34.4150866761477
20
1.76532593607908
30
0
41
1
10
34.4319251651268
20
1.75780137555859
30
0
41
1
10
34.4375857243753
20
1.7555448595914
30
0
41
1
10
34.4487438419218
20
1.7516854197396
30
0
41
1
10
34.4597396387431
20
1.7484707402493
30
0
41
1
10
34.4703745007888
20
1.74664488195683
30
0
41
1
10
34.4807985535303
20
1.74561168388541
30
0
41
1
10
34.4859108924526
20
1.7454992805755
30
0
41
1
10
34.4955784685966
20
1.74619505821812
30
0
41
1
10
34.5001724835699
20
1.74699591004986
30
0
41
1
10
34.5088040617043
20
1.7496489669208
30
0
41
1
10
34.5128503619321
20
1.75151568514528
30
0
41
1
10
34.5164507600556
20
1.75395895252265
30
0
0
SPLINE
5
18B
100
AcDbEntity
8
1
62
256
6
ByLayer
370
18
48
1
60
0
100
AcDbSpline
70
4
71
3
72
10
73
6
40
0
40
0
40
0
40
0
40
0.5
40
0.5
40
1
40
1
40
1
40
1
41
1
10
34.5164507600568
20
1.75395895252558
30
0
41
1
10
34.5684286066363
20
1.78923165641757
30
0
41
1
10
34.6200072123262
20
1.82072167857689
30
0
41
1
10
34.7225881337007
20
1.87629902328834
30
0
41
1
10
34.7734565063533
20
1.90031132147763
30
0
41
1
10
34.8239829560648
20
1.92059035578436
30
0
0
SPLINE
5
18C
100
AcDbEntity
8
1
62
256
6
ByLayer
370
18
48
1
60
0
100
AcDbSpline
70
4
71
3
72
8
73
4
40
0
40
0
40
0
40
0
40
1
40
1
40
1
40
1
41
1
10
34.9117531362927
20
1.85010629037757
30
0
41
1
10
34.8824974858378
20
1.87384059170256
30
0
41
1
10
34.8532408095921
20
1.89733510683109
30
0
41
1
10
34.8239829560648
20
1.92059035578438
30
0
0
SPLINE
5
18D
100
AcDbEntity
8
1
62
256
6
ByLayer
370
18
48
1
60
0
100
AcDbSpline
70
4
71
3
72
10
73
6
40
0
40
0
40
0
40
0
40
0.5
40
0.5
40
1
40
1
40
1
40
1
41
1
10
34.9117531362919
20
1.85010629036759
30
0
41
1
10
34.9636969916687
20
1.74894682139919
30
0
41
1
10
35.0160111755203
20
1.64936889325213
30
0
41
1
10
35.1214491489158
20
1.45389169211967
30
0
41
1
10
35.1745408851628
20
1.35805526633175
30
0
41
1
10
35.2280230794198
20
1.26446116423506
30
0
0
SPLINE
5
18E
100
AcDbEntity
8
1
62
256
6
ByLayer
370
18
48
1
60
0
100
AcDbSpline
70
4
71
3
72
27
73
23
40
0
40
0
40
0
40
0
40
0.124999999999983
40
0.124999999999983
40
0.249999999999966
40
0.249999999999966
40
0.374999999999948
40
0.374999999999948
40
0.499999999999931
40
0.499999999999931
40
0.624999999999914
40
0.624999999999914
40
0.687499999999929
40
0.687499999999929
40
0.749999999999943
40
0.812499999999957
40
0.812499999999957
40
0.874999999999971
40
0.874999999999971
40
0.937499999999986
40
0.937499999999986
40
1
40
1
40
1
40
1
41
1
10
35.2280230794199
20
1.26446116423352
30
0
41
1
10
35.2346332328142
20
1.25289336339333
30
0
41
1
10
35.2423366374825
20
1.24155105714846
30
0
41
1
10
35.259385618486
20
1.21921489497734
30
0
41
1
10
35.2688418080856
20
1.20812977475444
30
0
41
1
10
35.2884991798447
20
1.1870843961085
30
0
41
1
10
35.2987570424371
20
1.17703480057801
30
0
41
1
10
35.320052683637
20
1.15779788040288
30
0
41
1
10
35.3311501519245
20
1.14857903305975
30
0
41
1
10
35.3533091798871
20
1.13167366128189
30
0
41
1
10
35.3644631742559
20
1.12389548093904
30
0
41
1
10
35.3812874960188
20
1.11332575149365
30
0
41
1
10
35.3869430336636
20
1.10997033849188
30
0
41
1
10
35.3980963541003
20
1.10377582428097
30
0
41
1
10
35.4090889916018
20
1.09809319261495
30
0
41
1
10
35.4197238565735
20
1.09351004969031
30
0
41
1
10
35.430149267972
20
1.08955261594923
30
0
41
1
10
35.4352653837123
20
1.08788953534744
30
0
41
1
10
35.4449425319064
20
1.08538462867679
30
0
41
1
10
35.449541957476
20
1.08452563347422
30
0
41
1
10
35.4581850649153
20
1.08372112104541
30
0
41
1
10
35.4622391626032
20
1.08378293123718
30
0
41
1
10
35.4658475585806
20
1.08439201102854
30
0
0
SPLINE
5
18F
100
AcDbEntity
8
1
62
256
6
ByLayer
370
18
48
1
60
0
100
AcDbSpline
70
4
71
3
72
10
73
6
40
0
40
0
40
0
40
0
40
0.5
40
0.5
40
1
40
1
40
1
40
1
41
1
10
35.4658475585817
20
1.0843920110309
30
0
41
1
10
35.5178632206644
20
1.09317200325307
30
0
41
1
10
35.5694595596775
20
1.09776241050324
30
0
41
1
10
35.672075578422
20
1.0990782558311
30
0
41
1
10
35.7229611293312
20
1.09577898098615
30
0
41
1
10
35.7735122134597
20
1.08865306524061
30
0
0
SPLINE
5
190
100
AcDbEntity
8
1
62
256
6
ByLayer
370
18
48
1
60
0
100
AcDbSpline
70
4
71
3
72
8
73
4
40
0
40
0
40
0
40
0
40
1
40
1
40
1
40
1
41
1
10
35.861317833055
20
1.0062155828507
30
0
41
1
10
35.8320299833918
20
1.03381572401347
30
0
41
1
10
35.8027622833989
20
1.06129574977808
30
0
41
1
10
35.7735122134596
20
1.08865306524061
30
0
0
SPLINE
5
191
100
AcDbEntity
8
1
62
256
6
ByLayer
370
18
48
1
60
0
100
AcDbSpline
70
4
71
3
72
10
73
6
40
0
40
0
40
0
40
0
40
0.5
40
0.5
40
1
40
1
40
1
40
1
41
1
10
35.8613178330551
20
1.00621558285096
30
0
41
1
10
35.9131782377761
20
0.919163499632731
30
0
41
1
10
35.9654374954291
20
0.834878085265188
30
0
41
1
10
36.0708385981658
20
0.672317506073767
30
0
41
1
10
36.1239447512895
20
0.594097528319367
30
0
41
1
10
36.17745981929
20
0.519228482512546
30
0
0
SPLINE
5
192
100
AcDbEntity
8
1
62
256
6
ByLayer
370
18
48
1
60
0
100
AcDbSpline
70
4
71
3
72
27
73
23
40
0
40
0
40
0
40
0
40
0.125000000000018
40
0.125000000000018
40
0.250000000000035
40
0.250000000000035
40
0.375000000000053
40
0.375000000000053
40
0.500000000000071
40
0.500000000000071
40
0.625000000000088
40
0.625000000000088
40
0.687500000000074
40
0.687500000000074
40
0.750000000000059
40
0.812500000000044
40
0.812500000000044
40
0.875000000000029
40
0.875000000000029
40
0.937500000000015
40
0.937500000000015
40
1
40
1
40
1
40
1
41
1
10
36.1774598192901
20
0.519228482510727
30
0
41
1
10
36.1840603950533
20
0.509994096241115
30
0
41
1
10
36.1917554962395
20
0.500499309485917
30
0
41
1
10
36.2087962076517
20
0.481137684732033
30
0
41
1
10
36.2182548651142
20
0.471174012450774
30
0
41
1
10
36.2379297792737
20
0.451648073257587
30
0
41
1
10
36.2482001513999
20
0.442014668322827
30
0
41
1
10
36.2695262463523
20
0.422960558123151
30
0
41
1
10
36.280639530679
20
0.413501342038529
30
0
41
1
10
36.302820244983
20
0.395456826563588
30
0
41
1
10
36.3139818574592
20
0.386782728538691
30
0
41
1
10
36.3308116853257
20
0.374315906127862
30
0
41
1
10
36.336467793278
20
0.370230300579806
30
0
41
1
10
36.3476053070734
20
0.362401874105245
30
0
41
1
10
36.3585797814146
20
0.354904678438601
30
0
41
1
10
36.369192303061
20
0.348113884820833
30
0
41
1
10
36.3795937822036
20
0.341723346196545
30
0
41
1
10
36.3846926376512
20
0.338728813410512
30
0
41
1
10
36.3943353884513
20
0.3333804538035
30
0
41
1
10
36.3989179307157
20
0.331001700214443
30
0
41
1
10
36.4075290793032
20
0.326930457786659
30
0
41
1
10
36.4115667011029
20
0.325237717770847
30
0
41
1
10
36.4151610716528
20
0.324005330618689
30
0
0
SPLINE
5
193
100
AcDbEntity
8
1
62
256
6
ByLayer
370
18
48
1
60
0
100
AcDbSpline
70
4
71
3
72
10
73
6
40
0
40
0
40
0
40
0
40
0.5
40
0.5
40
1
40
1
40
1
40
1
41
1
10
36.4151610716539
20
0.324005330620793
30
0
41
1
10
36.4672250992868
20
0.306154350080192
30
0
41
1
10
36.5188657651367
20
0.284129781470767
30
0
41
1
10
36.6215238768844
20
0.231841783570019
30
0
41
1
10
36.6723910417442
20
0.201632040556632
30
0
41
1
10
36.7228846801956
20
0.16747550121562
30
0
0
SPLINE
5
194
100
AcDbEntity
8
1
62
256
6
ByLayer
370
18
48
1
60
0
100
AcDbSpline
70
4
71
3
72
10
73
6
40
0
40
0
40
0
40
0
40
0.5
40
0.5
40
1
40
1
40
1
40
1
41
1
10
36.8107101827349
20
0.0792806874651717
30
0
41
1
10
36.8625423608086
20
0.0130304487395847
30
0
41
1
10
36.9148007926446
20
-0.0494567171219273
30
0
41
1
10
37.020237703068
20
-0.166520073174098
30
0
41
1
10
37.0733777980909
20
-0.221048125276582
30
0
41
1
10
37.1269490492468
20
-0.271338957220252
30
0
0
SPLINE
5
195
100
AcDbEntity
8
1
62
256
6
ByLayer
370
18
48
1
60
0
100
AcDbSpline
70
4
71
3
72
28
73
24
40
0
40
0
40
0
40
0
40
0.125
40
0.125
40
0.25
40
0.25
40
0.375
40
0.375
40
0.5
40
0.5
40
0.625
40
0.625
40
0.6875
40
0.6875
40
0.75
40
0.75
40
0.8125
40
0.8125
40
0.875
40
0.875
40
0.9375
40
0.9375
40
1
40
1
40
1
40
1
41
1
10
37.1269490492468
20
-0.271338957220252
30
0
41
1
10
37.1335525198487
20
-0.277538066315515
30
0
41
1
10
37.141249840235
20
-0.284467986197569
30
0
41
1
10
37.1582927595202
20
-0.29939764460741
30
0
41
1
10
37.1677511492051
20
-0.307489482998307
30
0
41
1
10
37.1874236050502
20
-0.324032977989788
30
0
41
1
10
37.1976922534898
20
-0.332534931518666
30
0
41
1
10
37.2190149448035
20
-0.350000459222656
30
0
41
1
10
37.230126837599
20
-0.359009144201878
30
0
41
1
10
37.252306384557
20
-0.376884869517681
30
0
41
1
10
37.2634680003993
20
-0.385829163833648
30
0
41
1
10
37.2802985673242
20
-0.399296188091057
30
0
41
1
10
37.28595515007
20
-0.403818967163403
30
0
41
1
10
37.2970953815953
20
-0.412729601291318
30
0
41
1
10
37.3025839920577
20
-0.417121447111839
30
0
41
1
10
37.3133800032477
20
-0.425773509206834
30
0
41
1
10
37.3186876099464
20
-0.430033861411175
30
0
41
1
10
37.3290912391896
20
-0.438408683748349
30
0
41
1
10
37.3341918335881
20
-0.442527201975253
30
0
41
1
10
37.3438375237259
20
-0.450349639145799
30
0
41
1
10
37.3484212306921
20
-0.454084557484407
30
0
41
1
10
37.3570340341335
20
-0.461145408200082
30
0
41
1
10
37.3610727848356
20
-0.46447978772423
30
0
41
1
10
37.3646683131739
20
-0.467474054202967
30
0
0
SPLINE
5
196
100
AcDbEntity
8
1
62
256
6
ByLayer
370
18
48
1
60
0
100
AcDbSpline
70
4
71
3
72
10
73
6
40
0
40
0
40
0
40
0
40
0.5
40
0.5
40
1
40
1
40
1
40
1
41
1
10
37.364668313175
20
-0.467474054201631
30
0
41
1
10
37.4166835798387
20
-0.510791073203848
30
0
41
1
10
37.4682901848604
20
-0.557765088423935
30
0
41
1
10
37.5709106455132
20
-0.658795787973901
30
0
41
1
10
37.6217898143267
20
-0.71272018719543
30
0
41
1
10
37.6723213509897
20
-0.769921500459816
30
0
0
SPLINE
5
197
100
AcDbEntity
8
1
62
256
6
ByLayer
370
18
48
1
60
0
100
AcDbSpline
70
4
71
3
72
10
73
6
40
0
40
0
40
0
40
0
40
0.5
40
0.5
40
1
40
1
40
1
40
1
41
1
10
37.7601380543264
20
-0.854133470870579
30
0
41
1
10
37.8120437051543
20
-0.892813095008762
30
0
41
1
10
37.864316271797
20
-0.927376590540149
30
0
41
1
10
37.9696958218889
20
-0.987936966193359
30
0
41
1
10
38.0227715529176
20
-1.0139015778804
30
0
41
1
10
38.0762470231226
20
-1.03537612726834
30
0
0
SPLINE
5
198
100
AcDbEntity
8
1
62
256
6
ByLayer
370
18
48
1
60
0
100
AcDbSpline
70
4
71
3
72
28
73
24
40
0
40
0
40
0
40
0
40
0.125
40
0.125
40
0.250000000000001
40
0.250000000000001
40
0.375000000000001
40
0.375000000000001
40
0.500000000000002
40
0.500000000000002
40
0.625000000000002
40
0.625000000000002
40
0.687500000000002
40
0.687500000000002
40
0.750000000000001
40
0.750000000000001
40
0.812500000000001
40
0.812500000000001
40
0.875000000000001
40
0.875000000000001
40
0.9375
40
0.9375
40
1
40
1
40
1
40
1
41
1
10
38.0762470231227
20
-1.03537612726996
30
0
41
1
10
38.0828735582114
20
-1.03803719512945
30
0
41
1
10
38.0905984706525
20
-1.04184710561745
30
0
41
1
10
38.1076929557621
20
-1.0511637924028
30
0
41
1
10
38.1171742270022
20
-1.05675135491038
30
0
41
1
10
38.1368717285696
20
-1.06903030558047
30
0
41
1
10
38.14714558819
20
-1.07574768941794
30
0
41
1
10
38.1684639982247
20
-1.09028634174066
30
0
41
1
10
38.1795649000893
20
-1.0981543939094
30
0
41
1
10
38.2017210706616
20
-1.11449099517049
30
0
41
1
10
38.2128694256309
20
-1.12301939031482
30
0
41
1
10
38.2296798559661
20
-1.13644924748112
30
0
41
1
10
38.2353294394446
20
-1.1410597718812
30
0
41
1
10
38.2464609931198
20
-1.15036504818451
30
0
41
1
10
38.2519464821414
20
-1.15506112906064
30
0
41
1
10
38.2627386693906
20
-1.16455302203448
30
0
41
1
10
38.2680455246636
20
-1.16934877459161
30
0
41
1
10
38.2784495115495
20
-1.17906024334101
30
0
41
1
10
38.2835536421061
20
-1.18398592351718
30
0
41
1
10
38.2932089919545
20
-1.19368276658358
30
0
41
1
10
38.2977984584624
20
-1.19848821017567
30
0
41
1
10
38.3064238595099
20
-1.20799986710256
30
0
41
1
10
38.3104710199981
20
-1.21272348382885
30
0
41
1
10
38.3140751682582
20
-1.21725437535648
30
0
0
SPLINE
5
199
100
AcDbEntity
8
1
62
256
6
ByLayer
370
18
48
1
60
0
100
AcDbSpline
70
4
71
3
72
10
73
6
40
0
40
0
40
0
40
0
40
0.5
40
0.5
40
1
40
1
40
1
40
1
41
1
10
38.3140751682581
20
-1.21725437535511
30
0
41
1
10
38.3661161340661
20
-1.28267675924422
30
0
41
1
10
38.4177411666992
20
-1.35105474660952
30
0
41
1
10
38.5204045976896
20
-1.49341576833717
30
0
41
1
10
38.5713106699071
20
-1.56721633987235
30
0
41
1
10
38.6218809259412
20
-1.64346516862881
30
0
0
SPLINE
5
19A
100
AcDbEntity
8
1
62
256
6
ByLayer
370
18
48
1
60
0
100
AcDbSpline
70
4
71
3
72
10
73
6
40
0
40
0
40
0
40
0
40
0.5
40
0.5
40
1
40
1
40
1
40
1
41
1
10
38.7096644089943
20
-1.7177964521627
30
0
41
1
10
38.7615134214119
20
-1.72603353700811
30
0
41
1
10
38.8137577280914
20
-1.72984902177899
30
0
41
1
10
38.9191171103242
20
-1.7284851558349
30
0
41
1
10
38.9721964516687
20
-1.72330231184742
30
0
41
1
10
39.0256791087655
20
-1.71355904683563
30
0
0
SPLINE
5
19B
100
AcDbEntity
8
1
62
256
6
ByLayer
370
18
48
1
60
0
100
AcDbSpline
70
4
71
3
72
27
73
23
40
0
40
0
40
0
40
0
40
0.125
40
0.125
40
0.250000000000001
40
0.250000000000001
40
0.375000000000001
40
0.375000000000001
40
0.500000000000002
40
0.500000000000002
40
0.625000000000002
40
0.625000000000002
40
0.687500000000002
40
0.687500000000002
40
0.750000000000001
40
0.812500000000001
40
0.812500000000001
40
0.875000000000001
40
0.875000000000001
40
0.9375
40
0.9375
40
1
40
1
40
1
40
1
41
1
10
39.0256791087656
20
-1.71355904683705
30
0
41
1
10
39.0322917732313
20
-1.71235437702779
30
0
41
1
10
39.0400026527753
20
-1.71259797513031
30
0
41
1
10
39.0570773439874
20
-1.71522926460855
30
0
41
1
10
39.0665553931003
20
-1.71767769220727
30
0
41
1
10
39.0862640581135
20
-1.72431232261457
30
0
41
1
10
39.096549065204
20
-1.72849517751237
30
0
41
1
10
39.1178986768945
20
-1.73850724730843
30
0
41
1
10
39.1290180198724
20
-1.74438094620302
30
0
41
1
10
39.1512021857517
20
-1.75743099061103
30
0
41
1
10
39.1623622374405
20
-1.76464403785431
30
0
41
1
10
39.1791840582759
20
-1.77664551773401
30
0
41
1
10
39.1848357037712
20
-1.78087007540319
30
0
41
1
10
39.1959559017103
20
-1.78960805658511
30
0
41
1
10
39.206912043307
20
-1.79864389049303
30
0
41
1
10
39.2175051338557
20
-1.80833197525979
30
0
41
1
10
39.2278863046365
20
-1.81839802201699
30
0
41
1
10
39.2329737922728
20
-1.82362886228063
30
0
41
1
10
39.2425953917679
20
-1.83421226118375
30
0
41
1
10
39.2471679266555
20
-1.8395996383899
30
0
41
1
10
39.2557607783502
20
-1.85059584290221
30
0
41
1
10
39.2597911885151
20
-1.85622655839222
30
0
41
1
10
39.2633810119728
20
-1.8618312409094
30
0
0
SPLINE
5
19C
100
AcDbEntity
8
1
62
256
6
ByLayer
370
18
48
1
60
0
100
AcDbSpline
70
4
71
3
72
10
73
6
40
0
40
0
40
0
40
0
40
0.5
40
0.5
40
1
40
1
40
1
40
1
41
1
10
39.2633810119727
20
-1.86183124090826
30
0
41
1
10
39.3154892772196
20
-1.94318629545918
30
0
41
1
10
39.3671645470426
20
-2.02658947001885
30
0
41
1
10
39.4698762420355
20
-2.19733646242798
30
0
41
1
10
39.5207647161784
20
-2.28443375052703
30
0
41
1
10
39.571271220607
20
-2.37312137708457
30
0
0
SPLINE
5
19D
100
AcDbEntity
8
1
62
256
6
ByLayer
370
18
48
1
60
0
100
AcDbSpline
70
4
71
3
72
10
73
6
40
0
40
0
40
0
40
0
40
0.5
40
0.5
40
1
40
1
40
1
40
1
41
1
10
39.6591481969849
20
-2.43194421195412
30
0
41
1
10
39.7109483134046
20
-2.40967153986779
30
0
41
1
10
39.7631709787127
20
-2.38298831012611
30
0
41
1
10
39.8685269347412
20
-2.32096566143821
30
0
41
1
10
39.9216291508685
20
-2.28562210512402
30
0
41
1
10
39.9751682708386
20
-2.24599790161051
30
0
0
SPLINE
5
19E
100
AcDbEntity
8
1
62
256
6
ByLayer
370
18
48
1
60
0
100
AcDbSpline
70
4
71
3
72
27
73
23
40
0
40
0
40
0
40
0
40
0.125000000000036
40
0.125000000000036
40
0.250000000000072
40
0.250000000000072
40
0.375000000000107
40
0.375000000000107
40
0.500000000000143
40
0.500000000000143
40
0.625000000000179
40
0.625000000000179
40
0.687500000000149
40
0.687500000000149
40
0.750000000000119
40
0.812500000000089
40
0.812500000000089
40
0.87500000000006
40
0.87500000000006
40
0.93750000000003
40
0.93750000000003
40
1
40
1
40
1
40
1
41
1
10
39.9751682708386
20
-2.24599790161051
30
0
41
1
10
39.9817854430665
20
-2.24110054470239
30
0
41
1
10
39.9895003425159
20
-2.23784320293788
30
0
41
1
10
40.006580628908
20
-2.23375565225859
30
0
41
1
10
40.0160601002205
20
-2.23296190809117
30
0
41
1
10
40.0357687429863
20
-2.23360295154143
30
0
41
1
10
40.0460527903195
20
-2.23500707206242
30
0
41
1
10
40.0673995145592
20
-2.23986163173822
30
0
41
1
10
40.0785170112099
20
-2.24335177495595
30
0
41
1
10
40.1006985054042
20
-2.25221396530415
30
0
41
1
10
40.1118575474377
20
-2.25759645791143
30
0
41
1
10
40.1286782918646
20
-2.26728444243591
30
0
41
1
10
40.1343297424427
20
-2.27080771053241
30
0
41
1
10
40.1454508763125
20
-2.27832950405809
30
0
41
1
10
40.1564083185345
20
-2.28632979909958
30
0
41
1
10
40.1670023203125
20
-2.29537279016822
30
0
41
1
10
40.1773844156969
20
-2.30501564391514
30
0
41
1
10
40.1824731280409
20
-2.3101490303269
30
0
41
1
10
40.1920968780327
20
-2.32079959961385
30
0
41
1
10
40.1966702935261
20
-2.32634903432967
30
0
41
1
10
40.2052643949625
20
-2.33796747367117
30
0
41
1
10
40.2092958667943
20
-2.34406324562551
30
0
41
1
10
40.2128869049219
20
-2.35030009690021
30
0
0
SPLINE
5
19F
100
AcDbEntity
8
1
62
256
6
ByLayer
370
18
48
1
60
0
100
AcDbSpline
70
4
71
3
72
10
73
6
40
0
40
0
40
0
40
0
40
0.5
40
0.5
40
1
40
1
40
1
40
1
41
1
10
40.2128869049218
20
-2.3503000968995
30
0
41
1
10
40.2530513659908
20
-2.42005701991656
30
0
41
1
10
40.2929691066502
20
-2.49031574924248
30
0
41
1
10
40.3724174577269
20
-2.63176346124197
30
0
41
1
10
40.4119485757383
20
-2.70295516895362
30
0
41
1
10
40.4512149785058
20
-2.77435874422983
30
0
0
SPLINE
5
1A0
100
AcDbEntity
8
1
62
256
6
ByLayer
370
18
48
1
60
0
100
AcDbSpline
70
4
71
3
72
11
73
7
40
0
40
0
40
0
40
0
40
0.49999999999996
40
0.74999999999998
40
0.74999999999998
40
1
40
1
40
1
40
1
41
1
10
40.4512149785063
20
-2.7743587442296
30
0
41
1
10
40.4943131000062
20
-2.78558991933676
30
0
41
1
10
40.5591873694871
20
-2.80111810566098
30
0
41
1
10
40.6244164802141
20
-2.81466535586944
30
0
41
1
10
40.6679844688672
20
-2.82325415469691
30
0
41
1
10
40.689827733087
20
-2.82733048225617
30
0
41
1
10
40.7116610893596
20
-2.83117542285461
30
0
0
SPLINE
5
1A1
100
AcDbEntity
8
1
62
256
6
ByLayer
370
18
48
1
60
0
100
AcDbSpline
70
4
71
3
72
10
73
6
40
0
40
0
40
0
40
0
40
0.5
40
0.5
40
1
40
1
40
1
40
1
41
1
10
40.7116610893596
20
-2.83117542285461
30
0
41
1
10
40.7467751639669
20
-2.79333605001955
30
0
41
1
10
40.7820921647991
20
-2.75385871153307
30
0
41
1
10
40.8530165864882
20
-2.67182997325074
30
0
41
1
10
40.8886407498827
20
-2.62926189467586
30
0
41
1
10
40.9244700871138
20
-2.58512980866325
30
0
0
SPLINE
5
1A2
100
AcDbEntity
8
1
62
256
6
ByLayer
370
18
48
1
60
0
100
AcDbSpline
70
4
71
3
72
27
73
23
40
0
40
0
40
0
40
0
40
0.125
40
0.125
40
0.25
40
0.25
40
0.375000000000001
40
0.375000000000001
40
0.500000000000001
40
0.500000000000001
40
0.625000000000001
40
0.625000000000001
40
0.687500000000001
40
0.687500000000001
40
0.750000000000001
40
0.8125
40
0.8125
40
0.875
40
0.875
40
0.9375
40
0.9375
40
1
40
1
40
1
40
1
41
1
10
40.9244700871138
20
-2.58512980866325
30
0
41
1
10
40.9311070765147
20
-2.57695482665855
30
0
41
1
10
40.9388448635579
20
-2.57048032005304
30
0
41
1
10
40.9559666140543
20
-2.56004814814682
30
0
41
1
10
40.9654633402053
20
-2.55610103081651
30
0
41
1
10
40.9851909319072
20
-2.55074315157867
30
0
41
1
10
40.9954794853167
20
-2.54927622131547
30
0
41
1
10
41.016825396906
20
-2.54861376719072
30
0
41
1
10
41.0279365685224
20
-2.54944944064684
30
0
41
1
10
41.0501042616012
20
-2.55341465725687
30
0
41
1
10
41.0612551340783
20
-2.55652820402969
30
0
41
1
10
41.0780620970921
20
-2.56310170699496
30
0
41
1
10
41.0837086431396
20
-2.56563051908964
30
0
41
1
10
41.09482419333
20
-2.57130815280627
30
0
41
1
10
41.1057771290458
20
-2.5776037556052
30
0
41
1
10
41.1163693200774
20
-2.58523859277196
30
0
41
1
10
41.1267504553733
20
-2.59364366396784
30
0
41
1
10
41.1318420771024
20
-2.59824649249936
30
0
41
1
10
41.141473812123
20
-2.60806620641708
30
0
41
1
10
41.1460519302704
20
-2.61330963576069
30
0
41
1
10
41.1546563767498
20
-2.62457055626709
30
0
41
1
10
41.1586952373833
20
-2.63061878230766
30
0
41
1
10
41.1622941640832
20
-2.6369653207008
30
0
0
SPLINE
5
1A3
100
AcDbEntity
8
1
62
256
6
ByLayer
370
18
48
1
60
0
100
AcDbSpline
70
4
71
3
72
8
73
4
40
0
40
0
40
0
40
0
40
1
40
1
40
1
40
1
41
1
10
41.1622941640831
20
-2.63696532070051
30
0
41
1
10
41.208200110375
20
-2.71791830332646
30
0
41
1
10
41.2537798274959
20
-2.79857425870574
30
0
41
1
10
41.2991173785517
20
-2.87890141465769
30
0
0
SPLINE
5
1A4
100
AcDbEntity
8
1
62
256
6
ByLayer
370
18
48
1
60
0
100
AcDbSpline
70
4
71
3
72
8
73
4
40
0
40
0
40
0
40
0
40
1
40
1
40
1
40
1
41
1
10
41.2991173785517
20
-2.87890141465769
30
0
41
1
10
41.4627787886275
20
-2.87632052545953
30
0
41
1
10
41.6277240737592
20
-2.86056873124701
30
0
41
1
10
41.7947497751619
20
-2.83206970231328
30
0
0
SPLINE
5
1A5
100
AcDbEntity
8
1
62
256
6
ByLayer
370
18
48
1
60
0
100
AcDbSpline
70
4
71
3
72
8
73
4
40
0
40
0
40
0
40
0
40
1
40
1
40
1
40
1
41
1
10
41.7947497751611
20
-2.83206970231194
30
0
41
1
10
41.8210251986158
20
-2.79033357490266
30
0
41
1
10
41.8473995131248
20
-2.74797893388254
30
0
41
1
10
41.8738900690021
20
-2.70500645550396
30
0
0
SPLINE
5
1A6
100
AcDbEntity
8
1
62
256
6
ByLayer
370
18
48
1
60
0
100
AcDbSpline
70
4
71
3
72
27
73
23
40
0
40
0
40
0
40
0
40
0.125
40
0.125
40
0.25
40
0.25
40
0.375
40
0.375
40
0.5
40
0.5
40
0.625
40
0.625
40
0.6875
40
0.6875
40
0.75
40
0.8125
40
0.8125
40
0.875
40
0.875
40
0.9375
40
0.9375
40
1
40
1
40
1
40
1
41
1
10
41.8738900690021
20
-2.70500645550396
30
0
41
1
10
41.8805171490268
20
-2.69425613171342
30
0
41
1
10
41.8882466675331
20
-2.68509714364106
30
0
41
1
10
41.9053614161063
20
-2.66914463418615
30
0
41
1
10
41.9148622298852
20
-2.66233102216799
30
0
41
1
10
41.9346099035966
20
-2.65132822055267
30
0
41
1
10
41.9449116966772
20
-2.64706291843393
30
0
41
1
10
41.9662880217964
20
-2.64084431994556
30
0
41
1
10
41.9774135601049
20
-2.63891266334343
30
0
41
1
10
41.9996004634042
20
-2.637574555068
30
0
41
1
10
42.0107582418524
20
-2.63812603227419
30
0
41
1
10
42.0275706852567
20
-2.64099266893342
30
0
41
1
10
42.0332167308515
20
-2.64230241968917
30
0
41
1
10
42.0443167337143
20
-2.64562859872313
30
0
41
1
10
42.0552522422575
20
-2.64965789571974
30
0
41
1
10
42.0658231270912
20
-2.65520932992439
30
0
41
1
10
42.0761817923653
20
-2.66163221479871
30
0
41
1
10
42.0812564417657
20
-2.66529094279923
30
0
41
1
10
42.0908544488277
20
-2.67339211401097
30
0
41
1
10
42.0954159454493
20
-2.67785408872854
30
0
41
1
10
42.1039887675895
20
-2.68773177369326
30
0
41
1
10
42.1080111562093
20
-2.69317532380293
30
0
41
1
10
42.1115958765543
20
-2.69904047344977
30
0
0
SPLINE
5
1A7
100
AcDbEntity
8
1
62
256
6
ByLayer
370
18
48
1
60
0
100
AcDbSpline
70
4
71
3
72
8
73
4
40
0
40
0
40
0
40
0
40
1
40
1
40
1
40
1
41
1
10
42.1115958765542
20
-2.69904047344986
30
0
41
1
10
42.1228994345772
20
-2.71753481972118
30
0
41
1
10
42.1341824701267
20
-2.73595342230362
30
0
41
1
10
42.1454462095094
20
-2.75429598893064
30
0
0
SPLINE
5
1A8
100
AcDbEntity
8
1
62
256
6
ByLayer
370
18
48
1
60
0
100
AcDbSpline
70
4
71
3
72
16
73
12
40
0
40
0
40
0
40
0
40
0.125
40
0.125
40
0.25
40
0.25
40
0.5
40
0.5
40
0.75
40
0.75
40
1
40
1
40
1
40
1
41
1
10
42.1454462095095
20
-2.75429598893061
30
0
41
1
10
42.1807057797179
20
-2.74470510899707
30
0
41
1
10
42.2160776123402
20
-2.73455619562833
30
0
41
1
10
42.2867239067595
20
-2.71323831864635
30
0
41
1
10
42.3220343044246
20
-2.70205957959897
30
0
41
1
10
42.4279463559747
20
-2.66697290858033
30
0
41
1
10
42.498586404282
20
-2.64150463608064
30
0
41
1
10
42.6405455797596
20
-2.58654161274833
30
0
41
1
10
42.7118101615364
20
-2.55705376233985
30
0
41
1
10
42.8551265274781
20
-2.49422815915156
30
0
41
1
10
42.9272401162303
20
-2.46089193830864
30
0
41
1
10
43.0000000000001
20
-2.42573847626315
30
0
0
SPLINE
5
1A9
100
AcDbEntity
8
1
62
256
6
ByLayer
370
18
48
1
60
0
100
AcDbSpline
70
4
71
3
72
26
73
22
40
0
40
0
40
0
40
0
40
0.124999999999999
40
0.124999999999999
40
0.249999999999998
40
0.249999999999998
40
0.312499999999997
40
0.312499999999997
40
0.343749999999997
40
0.343749999999997
40
0.374999999999997
40
0.374999999999997
40
0.499999999999998
40
0.499999999999998
40
0.562499999999998
40
0.562499999999998
40
0.624999999999998
40
0.624999999999998
40
0.749999999999999
40
0.749999999999999
40
1
40
1
40
1
40
1
41
1
10
43
20
-2.42573847626312
30
0
41
1
10
43
20
-2.38066179352524
30
0
41
1
10
43
20
-2.33631276901298
30
0
41
1
10
43
20
-2.24901961443953
30
0
41
1
10
43
20
-2.20608077057901
30
0
41
1
10
43
20
-2.14277350481549
30
0
41
1
10
43
20
-2.12185587414814
30
0
41
1
10
43
20
-2.09076428906167
30
0
41
1
10
43
20
-2.08044780274756
30
0
41
1
10
43
20
-2.05991077922491
30
0
41
1
10
43
20
-2.04967442845663
30
0
41
1
10
43
20
-1.99911647198539
30
0
41
1
10
43
20
-1.96040413651599
30
0
41
1
10
43
20
-1.9048470086332
30
0
41
1
10
43
20
-1.88678875356538
30
0
41
1
10
43
20
-1.85123384395038
30
0
41
1
10
43
20
-1.8336714050829
30
0
41
1
10
43
20
-1.78163456732045
30
0
41
1
10
43
20
-1.74787334108433
30
0
41
1
10
43
20
-1.64931716936422
30
0
41
1
10
43
20
-1.58722713440949
30
0
41
1
10
43
20
-1.52893280177565
30
0
0
SPLINE
5
1AA
100
AcDbEntity
8
1
62
256
6
ByLayer
370
18
48
1
60
0
100
AcDbSpline
70
4
71
3
72
10
73
6
40
0
40
0
40
0
40
0
40
0.292146788289098
40
0.292146788289098
40
1
40
1
40
1
40
1
41
1
10
36.5035977445094
20
3.22097366982959
30
0
41
1
10
36.5056363266898
20
3.22098164784703
30
0
41
1
10
36.5076703366444
20
3.22003178145604
30
0
41
1
10
36.5146155082552
20
3.21354793069244
30
0
41
1
10
36.5195023709353
20
3.20341315494522
30
0
41
1
10
36.5243888188142
20
3.18774692890662
30
0
0
SPLINE
5
1AB
100
AcDbEntity
8
1
62
256
6
ByLayer
370
18
48
1
60
0
100
AcDbSpline
70
4
71
3
72
12
73
8
40
0
40
0
40
0
40
0
40
0.598749941592136
40
0.598749941592136
40
0.898124912388204
40
0.898124912388204
40
1
40
1
40
1
40
1
41
1
10
36.6121644627507
20
3.17409889804401
30
0
41
1
10
36.6072867262113
20
3.19266106001692
30
0
41
1
10
36.6024050242164
20
3.20577027697371
30
0
41
1
10
36.5950042282993
20
3.21711122458578
30
0
41
1
10
36.5925274843226
20
3.21950175490673
30
0
41
1
10
36.5891957331733
20
3.22080423146775
30
0
41
1
10
36.5883485393038
20
3.2209699468961
30
0
41
1
10
36.5875024538656
20
3.22097076400558
30
0
0
SPLINE
5
1AC
100
AcDbEntity
8
1
62
256
6
ByLayer
370
18
48
1
60
0
100
AcDbSpline
70
4
71
3
72
14
73
10
40
0
40
0
40
0
40
0
40
0.278895647164807
40
0.278895647164807
40
0.459171735373605
40
0.459171735373605
40
0.639447823582404
40
0.639447823582404
40
1
40
1
40
1
40
1
41
1
10
34.3197460887133
20
-3.22097230239066
30
0
41
1
10
34.3159711345118
20
-3.22098200346935
30
0
41
1
10
34.3122022968167
20
-3.21768048254077
30
0
41
1
10
34.305976205087
20
-3.20674161231898
30
0
41
1
10
34.3035258705407
20
-3.20104760549762
30
0
41
1
10
34.2985962965596
20
-3.18681061651026
30
0
41
1
10
34.2961098188203
20
-3.17823839240739
30
0
41
1
10
34.2886872543354
20
-3.14848988116267
30
0
41
1
10
34.283771417935
20
-3.12326298616955
30
0
41
1
10
34.2788805718052
20
-3.09279377269436
30
0
0
SPLINE
5
1AD
100
AcDbEntity
8
1
62
256
6
ByLayer
370
18
48
1
60
0
100
AcDbSpline
70
4
71
3
72
15
73
11
40
0
40
0
40
0
40
0
40
0.164352817857018
40
0.164352817857018
40
0.328705635714035
40
0.328705635714035
40
0.657411271428071
40
0.986116907142106
40
0.986116907142106
40
1
40
1
40
1
40
1
41
1
10
34.1910230549564
20
-3.06719500584202
30
0
41
1
10
34.1934717812955
20
-3.08389245407127
30
0
41
1
10
34.1959325891328
20
-3.0993028437463
30
0
41
1
10
34.2008752887998
20
-3.1275031444452
30
0
41
1
10
34.2033629669538
20
-3.14031484355178
30
0
41
1
10
34.210778061957
20
-3.17438183426296
30
0
41
1
10
34.2205722415471
20
-3.20845517483636
30
0
41
1
10
34.2302841402824
20
-3.22046534269745
30
0
41
1
10
34.2353825185117
20
-3.22096050518479
30
0
41
1
10
34.2355891983378
20
-3.2209707085882
30
0
41
1
10
34.2357959501179
20
-3.22097103506249
30
0
0
SPLINE
5
1AE
100
AcDbEntity
8
1
62
256
6
ByLayer
370
18
48
1
60
0
100
AcDbSpline
70
4
71
3
72
23
73
19
40
0
40
0
40
0
40
0
40
0.0657256566560161
40
0.0657256566560161
40
0.124117803115015
40
0.124117803115015
40
0.182509949574014
40
0.182509949574014
40
0.299294242492012
40
0.299294242492012
40
0.532862828328008
40
0.766431414164004
40
0.766431414164004
40
0.883215707082002
40
0.883215707082002
40
0.941607853541001
40
0.941607853541001
40
1
40
1
40
1
40
1
41
1
10
37.4107204315283
20
3.22097279337348
30
0
41
1
10
37.4121002719859
20
3.22096964478416
30
0
41
1
10
37.4134818808869
20
3.22052267873724
30
0
41
1
10
37.4160959945632
20
3.21883466304175
30
0
41
1
10
37.4173281091747
20
3.21768689901691
30
0
41
1
10
37.4197988982035
20
3.21467614019863
30
0
41
1
10
37.421038426576
20
3.212810591936
30
0
41
1
10
37.424748921681
20
3.2061711743097
30
0
41
1
10
37.4272196448068
20
3.20034933915778
30
0
41
1
10
37.4346170278797
20
3.17877933377315
30
0
41
1
10
37.4444349434496
20
3.13909493636618
30
0
41
1
10
37.4541836009449
20
3.07790466719507
30
0
41
1
10
37.461529821459
20
3.02382410637881
30
0
41
1
10
37.4639849024551
20
3.0044300120986
30
0
41
1
10
37.4676898962302
20
2.97324788644431
30
0
41
1
10
37.4689307108607
20
2.96248865912139
30
0
41
1
10
37.4714092952645
20
2.94036442072311
30
0
41
1
10
37.4726470777474
20
2.92899967065452
30
0
41
1
10
37.4738831499029
20
2.91733571709128
30
0
0
SPLINE
5
1AF
100
AcDbEntity
8
1
62
256
6
ByLayer
370
18
48
1
60
0
100
AcDbSpline
70
4
71
3
72
19
73
15
40
0
40
0
40
0
40
0
40
0.219756595887486
40
0.219756595887486
40
0.439513191774973
40
0.439513191774973
40
0.659269787662459
40
0.659269787662459
40
0.714208936634331
40
0.714208936634331
40
0.769148085606202
40
0.879026383549946
40
0.879026383549946
40
1
40
1
40
1
40
1
41
1
10
37.5617034360442
20
2.87918181807197
30
0
41
1
10
37.5567397479238
20
2.92871863394328
30
0
41
1
10
37.5518274276319
20
2.9727905860417
30
0
41
1
10
37.5420524047222
20
3.05034682218573
30
0
41
1
10
37.5371896806811
20
3.08383015585537
30
0
41
1
10
37.5273965196978
20
3.14021133188984
30
0
41
1
10
37.5224616196251
20
3.16311006393829
30
0
41
1
10
37.5162566219842
20
3.18491183886815
30
0
41
1
10
37.5150118340377
20
3.18893527221101
30
0
41
1
10
37.5125285755139
20
3.19625927774845
30
0
41
1
10
37.5088134777681
20
3.20616355677458
30
0
41
1
10
37.5051250970235
20
3.21286208059374
30
0
41
1
10
37.4999751045662
20
3.21930093762427
30
0
41
1
10
37.4972862339265
20
3.22098011055638
30
0
41
1
10
37.4945978285788
20
3.22097359526685
30
0
0
SPLINE
5
1B0
100
AcDbEntity
8
1
62
256
6
ByLayer
370
13
48
1
60
0
100
AcDbSpline
70
4
71
3
72
10
73
6
40
0
40
0
40
0
40
0
40
0.287246645144548
40
0.858707823796819
40
1
40
1
40
1
40
1
41
1
10
33.6456616211037
20
-2.43422870736359
30
0
41
1
10
33.6530785620898
20
-2.49483987433121
30
0
41
1
10
33.675251090141
20
-2.64733528261129
30
0
41
1
10
33.7010717097057
20
-2.71754922232003
30
0
41
1
10
33.7194755455019
20
-2.70113101443729
30
0
41
1
10
33.7231238194765
20
-2.69529656962885
30
0
0
SPLINE
5
1B1
100
AcDbEntity
8
1
62
256
6
ByLayer
370
18
48
1
60
0
100
AcDbSpline
70
4
71
3
72
19
73
15
40
0
40
0
40
0
40
0
40
0.116358631676386
40
0.116358631676386
40
0.293086905341109
40
0.469815179005832
40
0.469815179005832
40
0.513997247422012
40
0.513997247422012
40
0.558179315838193
40
0.646543452670554
40
0.646543452670554
40
0.823271726335277
40
1
40
1
40
1
40
1
41
1
10
33.4126801611015
20
-3.22097331099846
30
0
41
1
10
33.4094302797848
20
-3.22098135010981
30
0
41
1
10
33.4061866162882
20
-3.21854834865616
30
0
41
1
10
33.3980364959948
20
-3.20640169170073
30
0
41
1
10
33.3882509327122
20
-3.18072663065004
30
0
41
1
10
33.3784816415909
20
-3.13302322889663
30
0
41
1
10
33.3723133278533
20
-3.09611352516089
30
0
41
1
10
33.3710745813942
20
-3.08836443454044
30
0
41
1
10
33.3685973407241
20
-3.07220660637381
30
0
41
1
10
33.3648849141988
20
-3.04700013362293
30
0
41
1
10
33.3611857244005
20
-3.01892017980239
30
0
41
1
10
33.3538069149101
20
-2.95899388833584
30
0
41
1
10
33.3440245962298
20
-2.86906729285667
30
0
41
1
10
33.3342770826515
20
-2.75930222309938
30
0
41
1
10
33.3293593831199
20
-2.69935804350911
30
0
0
SPLINE
5
1B2
100
AcDbEntity
8
1
62
256
6
ByLayer
370
18
48
1
60
0
100
AcDbSpline
70
4
71
3
72
26
73
22
40
0
40
0
40
0
40
0
40
0.169110985299936
40
0.169110985299936
40
0.338221970599872
40
0.338221970599872
40
0.380499716924856
40
0.380499716924856
40
0.42277746324984
40
0.42277746324984
40
0.507332955899808
40
0.507332955899808
40
0.676443941199745
40
0.676443941199745
40
0.845554926499681
40
0.845554926499681
40
0.93011041914965
40
0.93011041914965
40
0.972388165474634
40
0.972388165474634
40
1
40
1
40
1
40
1
41
1
10
33.2416050176228
20
-2.65100254586679
30
0
41
1
10
33.2465102550907
20
-2.71312987704778
30
0
41
1
10
33.2513809229751
20
-2.77046376840218
30
0
41
1
10
33.2611418846189
20
-2.87559712860641
30
0
41
1
10
33.2660459639021
20
-2.9233968257137
30
0
41
1
10
33.2722266239937
20
-2.97703383777639
30
0
41
1
10
33.2734648519917
20
-2.98745485079257
30
0
41
1
10
33.2759455977328
20
-3.00767708153876
30
0
41
1
10
33.2771883174551
20
-3.0174786312013
30
0
41
1
10
33.2809017400597
20
-3.04578248552465
30
0
41
1
10
33.2833648270077
20
-3.06324519451036
30
0
41
1
10
33.2907258648016
20
-3.11149513758653
30
0
41
1
10
33.2955937162085
20
-3.13815470711444
30
0
41
1
10
33.3053461991886
20
-3.18062566170468
30
0
41
1
10
33.3102454258202
20
-3.19643698457668
30
0
41
1
10
33.3176487567276
20
-3.21188835640874
30
0
41
1
10
33.3201235604205
20
-3.21565858363709
30
0
41
1
10
33.3238465932279
20
-3.21920218153389
30
0
41
1
10
33.325091139911
20
-3.22003133519795
30
0
41
1
10
33.3271416066317
20
-3.2208101585118
30
0
41
1
10
33.3279502691718
20
-3.22096591942324
30
0
41
1
10
33.3287576104161
20
-3.22097085403527
30
0
0
SPLINE
5
1B3
100
AcDbEntity
8
1
62
256
6
ByLayer
370
13
48
1
60
0
100
AcDbSpline
70
4
71
3
72
10
73
6
40
0
40
0
40
0
40
0
40
0.375059395447514
40
0.915208790835552
40
1
40
1
40
1
40
1
41
1
10
32.9341249036047
20
-2.12017485016128
30
0
41
1
10
32.9443706033481
20
-2.23938158687102
30
0
41
1
10
32.9693718542808
20
-2.49127641159455
30
0
41
1
10
32.9966894017111
20
-2.64626555698612
30
0
41
1
10
33.0137612431506
20
-2.68657842352454
30
0
41
1
10
33.0160775305563
20
-2.69100727176192
30
0
0
SPLINE
5
1B4
100
AcDbEntity
8
1
62
256
6
ByLayer
370
18
48
1
60
0
100
AcDbSpline
70
4
71
3
72
30
73
26
40
0
40
0
40
0
40
0
40
0.034660439855689
40
0.034660439855689
40
0.0704137568980709
40
0.0704137568980709
40
0.141920390982834
40
0.141920390982834
40
0.284933659152361
40
0.284933659152361
40
0.427946927321887
40
0.427946927321887
40
0.499453561406651
40
0.499453561406651
40
0.535206878449033
40
0.535206878449033
40
0.570960195491414
40
0.713973463660943
40
0.713973463660943
40
0.856986731830472
40
0.856986731830472
40
0.928493365915237
40
0.964246682957618
40
0.964246682957618
40
1
40
1
40
1
40
1
41
1
10
39.762338597369
20
-3.22097095712584
30
0
41
1
10
39.7611427612362
20
-3.22096901313404
30
0
41
1
10
39.7599454921296
20
-3.22063461597085
30
0
41
1
10
39.7575090545883
20
-3.21927228653692
30
0
41
1
10
39.7562703981048
20
-3.21822192030859
30
0
41
1
10
39.7525670468684
20
-3.2140172398108
30
0
41
1
10
39.750108016288
20
-3.20980710028022
30
0
41
1
10
39.7427371166865
20
-3.19303616023919
30
0
41
1
10
39.7378211966703
20
-3.17634549607499
30
0
41
1
10
39.7279992211199
20
-3.1321049201467
30
0
41
1
10
39.7230961530818
20
-3.10455499291925
30
0
41
1
10
39.7157249457236
20
-3.05495053193968
30
0
41
1
10
39.7132645529206
20
-3.03703314039376
30
0
41
1
10
39.7095601113276
20
-3.0080410713349
30
0
41
1
10
39.7083216226891
20
-2.99801236226406
30
0
41
1
10
39.7058516417736
20
-2.97735703023662
30
0
41
1
10
39.6996897389085
20
-2.92416999668006
30
0
41
1
10
39.6935384627474
20
-2.86335927159385
30
0
41
1
10
39.6837185055096
20
-2.75653855571002
30
0
41
1
10
39.678822514984
20
-2.69836589272541
30
0
41
1
10
39.6714704761027
20
-2.60391393908165
30
0
41
1
10
39.6677916602523
20
-2.5548863036297
30
0
41
1
10
39.6640958026629
20
-2.50311480048521
30
0
41
1
10
39.6616261382586
20
-2.46798376036364
30
0
41
1
10
39.6603866654245
20
-2.45008366028972
30
0
41
1
10
39.6591481969854
20
-2.43194421195364
30
0
0
SPLINE
5
1B5
100
AcDbEntity
8
1
62
256
6
ByLayer
370
18
48
1
60
0
100
AcDbSpline
70
4
71
3
72
28
73
24
40
0
40
0
40
0
40
0
40
0.137752716851075
40
0.137752716851075
40
0.275505433702151
40
0.275505433702151
40
0.344381792127688
40
0.378819971340457
40
0.378819971340457
40
0.413258150553226
40
0.413258150553226
40
0.551010867404304
40
0.551010867404304
40
0.688763584255382
40
0.688763584255382
40
0.82651630110646
40
0.82651630110646
40
0.86095448031923
40
0.86095448031923
40
0.895392659532
40
0.964269017957538
40
0.964269017957538
40
1
40
1
40
1
40
1
41
1
10
39.571271220607
20
-2.37312137708457
30
0
41
1
10
39.5762098277251
20
-2.44763724415017
30
0
41
1
10
39.581098642475
20
-2.5175071796819
30
0
41
1
10
39.5908692820871
20
-2.64816933799506
30
0
41
1
10
39.5957648740919
20
-2.70896084449251
30
0
41
1
10
39.6031519697794
20
-2.79328606592631
30
0
41
1
10
39.6068532497298
20
-2.83372996078168
30
0
41
1
10
39.6105673696435
20
-2.87155502941334
30
0
41
1
10
39.6130469613323
20
-2.89618295717983
30
0
41
1
10
39.6142902743348
20
-2.90821904687155
30
0
41
1
10
39.6204880750809
20
-2.96663430450181
30
0
41
1
10
39.6253914183453
20
-3.00782271877892
30
0
41
1
10
39.6351823167711
20
-3.07947288666802
30
0
41
1
10
39.6400838432025
20
-3.10993348998684
30
0
41
1
10
39.6499283928364
20
-3.16014447748574
30
0
41
1
10
39.6548604924291
20
-3.17989576821702
30
0
41
1
10
39.6610507298886
20
-3.19769050681998
30
0
41
1
10
39.6622916118937
20
-3.20090697724001
30
0
41
1
10
39.6647707916295
20
-3.20662528033512
30
0
41
1
10
39.6684792379769
20
-3.21411805565469
30
0
41
1
10
39.6721626049382
20
-3.21839736626336
30
0
41
1
10
39.6758857616549
20
-3.22059865285536
30
0
41
1
10
39.6771571815905
20
-3.22097356425354
30
0
41
1
10
39.6784286037369
20
-3.2209725750109
30
0
0
SPLINE
5
1B6
100
AcDbEntity
8
1
62
256
6
ByLayer
370
18
48
1
60
0
100
AcDbSpline
70
4
71
3
72
27
73
23
40
0
40
0
40
0
40
0
40
0.0217481353241318
40
0.0217481353241318
40
0.161498401706399
40
0.161498401706399
40
0.231373534897533
40
0.231373534897533
40
0.301248668088667
40
0.301248668088667
40
0.440998934470934
40
0.440998934470934
40
0.580749200853201
40
0.580749200853201
40
0.720499467235468
40
0.720499467235468
40
0.755437033831035
40
0.755437033831035
40
0.790374600426602
40
0.860249733617735
40
0.860249733617735
40
1
40
1
40
1
40
1
41
1
10
38.3178125771793
20
3.22097172782929
30
0
41
1
10
38.3185768573491
20
3.22097052404277
30
0
41
1
10
38.3193410250996
20
3.22083471170757
30
0
41
1
10
38.3250147176095
20
3.21882972824764
30
0
41
1
10
38.3299154124002
20
3.21155362255198
30
0
41
1
10
38.337280004812
20
3.19223346136656
30
0
41
1
10
38.3397376476284
20
3.18438972849614
30
0
41
1
10
38.3446695567531
20
3.16584547921525
30
0
41
1
10
38.3471505894595
20
3.1551076499411
30
0
41
1
10
38.3545669690011
20
3.11889195877731
30
0
41
1
10
38.359500321842
20
3.08940576770809
30
0
41
1
10
38.3693353681469
20
3.02005957733419
30
0
41
1
10
38.3742331885517
20
2.98019873406619
30
0
41
1
10
38.3840248624025
20
2.89008291555447
30
0
41
1
10
38.3889184783564
20
2.83982884590725
30
0
41
1
10
38.3951011041396
20
2.77029764475381
30
0
41
1
10
38.3963415347952
20
2.75604903497347
30
0
41
1
10
38.3988172636145
20
2.72704359832105
30
0
41
1
10
38.4025281375502
20
2.68271367506071
30
0
41
1
10
38.406227879594
20
2.63594685655349
30
0
41
1
10
38.4136104155839
20
2.53921442003798
30
0
41
1
10
38.4185074980131
20
2.47046913552532
30
0
41
1
10
38.4233987985095
20
2.39749960600912
30
0
0
SPLINE
5
1B7
100
AcDbEntity
8
1
62
256
6
ByLayer
370
18
48
1
60
0
100
AcDbSpline
70
4
71
3
72
28
73
24
40
0
40
0
40
0
40
0
40
0.13463885221426
40
0.13463885221426
40
0.168298565267825
40
0.168298565267825
40
0.20195827832139
40
0.20195827832139
40
0.269277704428521
40
0.269277704428521
40
0.403916556642783
40
0.403916556642783
40
0.538555408857045
40
0.538555408857045
40
0.605874834964176
40
0.605874834964176
40
0.673194261071306
40
0.673194261071306
40
0.807833113285569
40
0.807833113285569
40
0.942471965499831
40
0.942471965499831
40
1
40
1
40
1
40
1
41
1
10
38.5112133632546
20
2.33801523941437
30
0
41
1
10
38.506330731893
20
2.41312161455167
30
0
41
1
10
38.5014233634894
20
2.48429318481087
30
0
41
1
10
38.4952416530498
20
2.56822689765841
30
0
41
1
10
38.4940033566064
20
2.58476148799642
30
0
41
1
10
38.491522829033
20
2.6173209806131
30
0
41
1
10
38.4902788397678
20
2.63336798087508
30
0
41
1
10
38.4865547133537
20
2.68055557880993
30
0
41
1
10
38.4840853719605
20
2.71071157197764
30
0
41
1
10
38.476708556505
20
2.79735346994801
30
0
41
1
10
38.471834224988
20
2.85002308113815
30
0
41
1
10
38.4620770404496
20
2.94536051363025
30
0
41
1
10
38.4571796777476
20
2.98802795898601
30
0
41
1
10
38.4497854686463
20
3.04442961671654
30
0
41
1
10
38.4473145965271
20
3.06196119264476
30
0
41
1
10
38.442359616746
20
3.09443947720047
30
0
41
1
10
38.4398706744448
20
3.10940613033765
30
0
41
1
10
38.4324587524362
20
3.14990977249846
30
0
41
1
10
38.4275685605214
20
3.17123987798294
30
0
41
1
10
38.4177971238133
20
3.202866148309
30
0
41
1
10
38.4129017887484
20
3.21316156651829
30
0
41
1
10
38.4058835403592
20
3.21995395890227
30
0
41
1
10
38.4037802852138
20
3.22097681099223
30
0
41
1
10
38.4016737585784
20
3.22097377011622
30
0
0
SPLINE
5
1B8
100
AcDbEntity
8
1
62
256
6
ByLayer
370
18
48
1
60
0
100
AcDbSpline
70
4
71
3
72
24
73
20
40
0
40
0
40
0
40
0
40
0.25
40
0.25
40
0.375
40
0.375
40
0.4375
40
0.4375
40
0.5
40
0.5
40
0.625
40
0.625
40
0.6875
40
0.6875
40
0.75
40
0.75
40
0.875
40
0.875
40
1
40
1
40
1
40
1
41
1
10
31.8992700989619
20
-2.55089909797994
30
0
41
1
10
31.8949578012835
20
-2.50416507469868
30
0
41
1
10
31.8908584177259
20
-2.44495198453109
30
0
41
1
10
31.8852611785244
20
-2.33785903435731
30
0
41
1
10
31.8834856164864
20
-2.29909742252144
30
0
41
1
10
31.8809488381482
20
-2.23623369742589
30
0
41
1
10
31.8801225068013
20
-2.21444798527014
30
0
41
1
10
31.8785135485275
20
-2.16952065299577
30
0
41
1
10
31.8777288463546
20
-2.14638017207386
30
0
41
1
10
31.8754442141859
20
-2.07494526418321
30
0
41
1
10
31.8740178793253
20
-2.02464314801674
30
0
41
1
10
31.8720935645182
20
-1.9451819990872
30
0
41
1
10
31.8714874469937
20
-1.91799754396837
30
0
41
1
10
31.8703632364803
20
-1.86263278140743
30
0
41
1
10
31.8698441680069
20
-1.83441638667614
30
0
41
1
10
31.8684249290287
20
-1.74818816726551
30
0
41
1
10
31.8676637643407
20
-1.68860064829917
30
0
41
1
10
31.8665357138695
20
-1.56526180296075
30
0
41
1
10
31.866149126663
20
-1.50150313061852
30
0
41
1
10
31.8660998781027
20
-1.43568249311832
30
0
0
SPLINE
5
1B9
100
AcDbEntity
8
1
62
256
6
ByLayer
370
13
48
1
60
0
100
AcDbSpline
70
4
71
3
72
11
73
7
40
0
40
0
40
0
40
0
40
0.059545391377154
40
0.473414071338023
40
0.887282751298892
40
1
40
1
40
1
40
1
41
1
10
31.9846265900814
20
-1.54307320039419
30
0
41
1
10
31.9867495466701
20
-1.57575104068263
30
0
41
1
10
32.003628056988
20
-1.83156531548656
30
0
41
1
10
32.035262114462
20
-2.24751595289038
30
0
41
1
10
32.068791908076
20
-2.52959549740487
30
0
41
1
10
32.0875661408461
20
-2.6215957245746
30
0
41
1
10
32.0915848198448
20
-2.63822716125799
30
0
0
SPLINE
5
1BA
100
AcDbEntity
8
1
62
256
6
ByLayer
370
18
48
1
60
0
100
AcDbSpline
70
4
71
3
72
12
73
8
40
0
40
0
40
0
40
0
40
0.365564034977509
40
0.365564034977509
40
0.731128069955018
40
0.731128069955018
40
1
40
1
40
1
40
1
41
1
10
20.8326251588842
20
1.88465303389353
30
0
41
1
10
20.7752503302591
20
1.86425367220116
30
0
41
1
10
20.7171847029047
20
1.84411149429141
30
0
41
1
10
20.5997898436865
20
1.80452048646694
30
0
41
1
10
20.5404511670975
20
1.78508636897698
30
0
41
1
10
20.4366070026738
20
1.75184894666984
30
0
41
1
10
20.3923794420905
20
1.73783900631176
30
0
41
1
10
20.3479152230983
20
1.72396782842995
30
0
0
SPLINE
5
1BB
100
AcDbEntity
8
1
62
256
6
ByLayer
370
18
48
1
60
0
100
AcDbSpline
70
4
71
3
72
12
73
8
40
0
40
0
40
0
40
0
40
0.220045073808139
40
0.220045073808139
40
0.610022536904069
40
0.610022536904069
40
1
40
1
40
1
40
1
41
1
10
18.3439304399317
20
2.27500795384319
30
0
41
1
10
18.3975357806732
20
2.27492302517572
30
0
41
1
10
18.451571948491
20
2.2729486029333
30
0
41
1
10
18.6022004199541
20
2.26259064658711
30
0
41
1
10
18.699449251555
20
2.25040927013657
30
0
41
1
10
18.8953465944127
20
2.21536137153478
30
0
41
1
10
18.9939988187194
20
2.1924813406973
30
0
41
1
10
19.0934358680169
20
2.16424668218716
30
0
0
SPLINE
5
1BC
100
AcDbEntity
8
1
62
256
6
ByLayer
370
18
48
1
60
0
100
AcDbSpline
70
4
71
3
72
25
73
21
40
0
40
0
40
0
40
0
40
0.125
40
0.125
40
0.25
40
0.25
40
0.312499999999999
40
0.312499999999999
40
0.374999999999999
40
0.374999999999999
40
0.5
40
0.5
40
0.625
40
0.75
40
0.75
40
0.8125
40
0.8125
40
0.875
40
0.875
40
1
40
1
40
1
40
1
41
1
10
31.9898755596574
20
-1.55040006650987
30
0
41
1
10
31.9971075136167
20
-1.6259089098815
30
0
41
1
10
32.0043089239825
20
-1.69872373347818
30
0
41
1
10
32.0187015934114
20
-1.83906379328872
30
0
41
1
10
32.0258801441404
20
-1.9065850885203
30
0
41
1
10
32.0366434642899
20
-2.00384843187217
30
0
41
1
10
32.0402310659947
20
-2.03559877796295
30
0
41
1
10
32.0474168175976
20
-2.09773789905557
30
0
41
1
10
32.0510233873241
20
-2.12819321527883
30
0
41
1
10
32.0617754558648
20
-2.21660661606938
30
0
41
1
10
32.0688878192476
20
-2.27185265559078
30
0
41
1
10
32.0830920576518
20
-2.37519469077321
30
0
41
1
10
32.0972436652665
20
-2.47137074175197
30
0
41
1
10
32.111328670461
20
-2.55322902001103
30
0
41
1
10
32.1219350183136
20
-2.60913310028374
30
0
41
1
10
32.125483120097
20
-2.62686995419645
30
0
41
1
10
32.1325386938368
20
-2.66014453689371
30
0
41
1
10
32.1360563505109
20
-2.6757316332255
30
0
41
1
10
32.1465935817639
20
-2.71940208027297
30
0
41
1
10
32.1535876438323
20
-2.74439596478328
30
0
41
1
10
32.1605516747005
20
-2.76532153041234
30
0
0
SPLINE
5
1BD
100
AcDbEntity
8
1
62
256
6
ByLayer
370
18
48
1
60
0
100
AcDbSpline
70
4
71
3
72
30
73
26
40
0
40
0
40
0
40
0
40
0.0624999999999994
40
0.0624999999999994
40
0.0937499999999993
40
0.0937499999999993
40
0.124999999999999
40
0.249999999999999
40
0.374999999999999
40
0.374999999999999
40
0.499999999999999
40
0.499999999999999
40
0.531249999999999
40
0.531249999999999
40
0.562499999999999
40
0.624999999999999
40
0.624999999999999
40
0.749999999999999
40
0.875
40
0.875
40
0.9375
40
0.9375
40
0.96875
40
0.96875
40
1
40
1
40
1
40
1
41
1
10
32.5859700621413
20
-3.06992966276502
30
0
41
1
10
32.584237490883
20
-3.06697772793078
30
0
41
1
10
32.5825011366276
20
-3.06281193600532
30
0
41
1
10
32.5798848422386
20
-3.05470460895077
30
0
41
1
10
32.5790096567123
20
-3.05168791012719
30
0
41
1
10
32.5772595891828
20
-3.04504794060378
30
0
41
1
10
32.5728902708425
20
-3.02695104087383
30
0
41
1
10
32.5650367486478
20
-2.98108594173229
30
0
41
1
10
32.5580958814471
20
-2.921926103435
30
0
41
1
10
32.5511476236275
20
-2.85353780969084
30
0
41
1
10
32.5476699605691
20
-2.81473032761565
30
0
41
1
10
32.5432740834226
20
-2.76024987726603
30
0
41
1
10
32.5423910886629
20
-2.74903808870667
30
0
41
1
10
32.5406255488624
20
-2.72609996390023
30
0
41
1
10
32.5379789430917
20
-2.69093316568751
30
0
41
1
10
32.5353392409282
20
-2.65351545328602
30
0
41
1
10
32.5300702954675
20
-2.57572945226187
30
0
41
1
10
32.5230752887782
20
-2.46416143277318
30
0
41
1
10
32.5160951285033
20
-2.33704760114563
30
0
41
1
10
32.5108178056137
20
-2.23575900923905
30
0
41
1
10
32.5090507354863
20
-2.20100174724342
30
0
41
1
10
32.5063822505029
20
-2.14734180597415
30
0
41
1
10
32.5054890217575
20
-2.12917956635602
30
0
41
1
10
32.5037067911231
20
-2.09253535400453
30
0
41
1
10
32.5028169204107
20
-2.07403637674145
30
0
41
1
10
32.5019283485765
20
-2.0553624687098
30
0
0
SPLINE
5
1BE
100
AcDbEntity
8
1
62
256
6
ByLayer
370
18
48
1
60
0
100
AcDbSpline
70
4
71
3
72
27
73
23
40
0
40
0
40
0
40
0
40
0.125000000000001
40
0.125000000000001
40
0.250000000000001
40
0.250000000000001
40
0.312500000000002
40
0.343750000000002
40
0.343750000000002
40
0.375000000000002
40
0.375000000000002
40
0.500000000000001
40
0.625000000000001
40
0.750000000000001
40
0.750000000000001
40
0.781250000000001
40
0.781250000000001
40
0.812500000000001
40
0.812500000000001
40
0.875000000000001
40
0.875000000000001
40
1
40
1
40
1
40
1
41
1
10
32.3526173067741
20
1.76343183763834
30
0
41
1
10
32.3492379348969
20
1.8362870286297
30
0
41
1
10
32.3458722293319
20
1.90608019293279
30
0
41
1
10
32.3391056931631
20
2.03960559868392
30
0
41
1
10
32.3357121337655
20
2.10334109322514
30
0
41
1
10
32.3306058971391
20
2.19434828362844
30
0
41
1
10
32.3280484033357
20
2.23870077678097
30
0
41
1
10
32.3254804110407
20
2.28129639808071
30
0
41
1
10
32.3237653583927
20
2.30929822819778
30
0
41
1
10
32.3229061147308
20
2.32310398938176
30
0
41
1
10
32.3186238603539
20
2.39076596477179
30
0
41
1
10
32.3118260864988
20
2.49091815990451
30
0
41
1
10
32.3015804903471
20
2.61744381836613
30
0
41
1
10
32.2947358324149
20
2.68605408965865
30
0
41
1
10
32.2904360936019
20
2.72388607911492
30
0
41
1
10
32.2895749588977
20
2.73119939290083
30
0
41
1
10
32.2878494844702
20
2.74531404662397
30
0
41
1
10
32.2869840531178
20
2.75212320245731
30
0
41
1
10
32.2843941089107
20
2.7716793250984
30
0
41
1
10
32.2826735355819
20
2.78357856481219
30
0
41
1
10
32.2775160119001
20
2.81592013675143
30
0
41
1
10
32.2740773029451
20
2.83301044318944
30
0
41
1
10
32.2706392611557
20
2.84571135071906
30
0
0
SPLINE
5
1BF
100
AcDbEntity
8
1
62
256
6
ByLayer
370
18
48
1
60
0
100
AcDbSpline
70
4
71
3
72
28
73
24
40
0
40
0
40
0
40
0
40
0.124999999999999
40
0.124999999999999
40
0.249999999999999
40
0.249999999999999
40
0.374999999999998
40
0.374999999999998
40
0.406249999999998
40
0.406249999999998
40
0.437499999999998
40
0.499999999999997
40
0.499999999999997
40
0.624999999999996
40
0.749999999999996
40
0.749999999999996
40
0.781249999999996
40
0.781249999999996
40
0.812499999999996
40
0.812499999999996
40
0.874999999999998
40
0.874999999999998
40
1
40
1
40
1
40
1
41
1
10
38.8277183053872
20
-3.1625828162307
30
0
41
1
10
38.8227850586578
20
-3.14166388957111
30
0
41
1
10
38.8178925009231
20
-3.11534516840735
30
0
41
1
10
38.8080729643549
20
-3.05221235565841
30
0
41
1
10
38.8031578541501
20
-3.01539749560669
30
0
41
1
10
38.7933267502698
20
-2.93124039869207
30
0
41
1
10
38.7884109909995
20
-2.88389914295936
30
0
41
1
10
38.7822265873861
20
-2.81791463076888
30
0
41
1
10
38.7809887417297
20
-2.80438839487289
30
0
41
1
10
38.7785211182283
20
-2.77680896234156
30
0
41
1
10
38.7748271804802
20
-2.73459649655416
30
0
41
1
10
38.7711442508297
20
-2.68988283268271
30
0
41
1
10
38.7637739919026
20
-2.59717107933565
30
0
41
1
10
38.7539542277649
20
-2.46481286119064
30
0
41
1
10
38.7441585691038
20
-2.31508538128179
30
0
41
1
10
38.7380036943653
20
-2.21594341510186
30
0
41
1
10
38.7367709138242
20
-2.19583621632236
30
0
41
1
10
38.7343000105829
20
-2.15505798935996
30
0
41
1
10
38.7330608326783
20
-2.13436855977051
30
0
41
1
10
38.7293533127304
20
-2.07180283050056
30
0
41
1
10
38.7268878642111
20
-2.0293264973414
30
0
41
1
10
38.7194915959589
20
-1.8996460039038
30
0
41
1
10
38.7145707756896
20
-1.81019576812079
30
0
41
1
10
38.7096644089946
20
-1.71779645216236
30
0
0
SPLINE
5
1C0
100
AcDbEntity
8
1
62
256
6
ByLayer
370
18
48
1
60
0
100
AcDbSpline
70
4
71
3
72
29
73
25
40
0
40
0
40
0
40
0
40
0.125000000000001
40
0.125000000000001
40
0.156250000000001
40
0.156250000000001
40
0.187500000000001
40
0.25
40
0.25
40
0.375
40
0.375
40
0.5
40
0.5
40
0.5625
40
0.5625
40
0.625
40
0.625
40
0.75
40
0.75
40
0.875
40
0.875
40
0.9375
40
0.9375
40
1
40
1
40
1
40
1
41
1
10
38.6218809259412
20
-1.64346516862881
30
0
41
1
10
38.6267947556454
20
-1.73744552346298
30
0
41
1
10
38.6317346953969
20
-1.8288344144579
30
0
41
1
10
38.6379375688851
20
-1.93972904444661
30
0
41
1
10
38.639181528594
20
-1.96177193011545
30
0
41
1
10
38.6416618401034
20
-2.00531900337373
30
0
41
1
10
38.6453717422326
20
-2.06984744512454
30
0
41
1
10
38.6490538165459
20
-2.13202795246781
30
0
41
1
10
38.656396852364
20
-2.25330971887891
30
0
41
1
10
38.6612660083436
20
-2.33006628874222
30
0
41
1
10
38.671058997553
20
-2.47545981241402
30
0
41
1
10
38.6759696026786
20
-2.54409746611086
30
0
41
1
10
38.6833608677377
20
-2.64083351814674
30
0
41
1
10
38.6858319425939
20
-2.67207139665965
30
0
41
1
10
38.6907800236598
20
-2.73228968474831
30
0
41
1
10
38.6932408119559
20
-2.76107477749258
30
0
41
1
10
38.7006008990497
20
-2.84354247515529
30
0
41
1
10
38.7054804400012
20
-2.89334735094383
30
0
41
1
10
38.7152913737522
20
-2.98280610342312
30
0
41
1
10
38.7202081235543
20
-3.02246013053585
30
0
41
1
10
38.727594210431
20
-3.07423791706606
30
0
41
1
10
38.7300586098992
20
-3.0902108363494
30
0
41
1
10
38.734998007757
20
-3.11953787497956
30
0
41
1
10
38.7374793024058
20
-3.13291758214464
30
0
41
1
10
38.7399453237624
20
-3.14483786921059
30
0
0
SPLINE
5
1C1
100
AcDbEntity
8
1
62
256
6
ByLayer
370
18
48
1
60
0
100
AcDbSpline
70
4
71
3
72
27
73
23
40
0
40
0
40
0
40
0
40
0.125
40
0.125
40
0.1875
40
0.1875
40
0.25
40
0.25
40
0.375000000000001
40
0.500000000000001
40
0.500000000000001
40
0.562500000000001
40
0.562500000000001
40
0.625000000000001
40
0.625000000000001
40
0.750000000000001
40
0.875
40
0.875
40
0.9375
40
0.96875
40
0.96875
40
1
40
1
40
1
40
1
41
1
10
39.2547404915964
20
3.15249496014818
30
0
41
1
10
39.2596490861154
20
3.13006657495791
30
0
41
1
10
39.2645561484428
20
3.10215318618381
30
0
41
1
10
39.2719606559167
20
3.05181346456843
30
0
41
1
10
39.2744409407448
20
3.03357871551268
30
0
41
1
10
39.2793757046425
20
2.994676343094
30
0
41
1
10
39.2818371402453
20
2.9739702996992
30
0
41
1
10
39.2892244361837
20
2.90815413220543
30
0
41
1
10
39.2990631663689
20
2.81055623772039
30
0
41
1
10
39.3088555646172
20
2.69350231113569
30
0
41
1
10
39.3162271391037
20
2.59827353983576
30
0
41
1
10
39.3186894422732
20
2.56528852151649
30
0
41
1
10
39.3236389544816
20
2.49678014313378
30
0
41
1
10
39.3261098558361
20
2.4614894961276
30
0
41
1
10
39.3335121830853
20
2.35286565318697
30
0
41
1
10
39.3433539016931
20
2.20045859405647
30
0
41
1
10
39.3531285953901
20
2.03321787611179
30
0
41
1
10
39.3604799546537
20
1.90217042956422
30
0
41
1
10
39.3641614952923
20
1.83523982293528
30
0
41
1
10
39.3678677287321
20
1.76616361872277
30
0
41
1
10
39.3703463500767
20
1.71963023802215
30
0
41
1
10
39.3715896761282
20
1.69612293052822
30
0
41
1
10
39.3728302302765
20
1.67251131898598
30
0
0
SPLINE
5
1C2
100
AcDbEntity
8
1
62
256
6
ByLayer
370
18
48
1
60
0
100
AcDbSpline
70
4
71
3
72
26
73
22
40
0
40
0
40
0
40
0
40
0.125
40
0.125
40
0.25
40
0.25
40
0.375
40
0.375
40
0.5
40
0.5
40
0.625
40
0.625
40
0.75
40
0.75
40
0.78125
40
0.78125
40
0.8125
40
0.8125
40
0.875
40
0.875
40
1
40
1
40
1
40
1
41
1
10
39.4606546255175
20
1.59731447968548
30
0
41
1
10
39.4556998908765
20
1.69315434718604
30
0
41
1
10
39.4507951299856
20
1.78551028294407
30
0
41
1
10
39.4410150518052
20
1.96343422760853
30
0
41
1
10
39.4361348576082
20
2.04900165493288
30
0
41
1
10
39.4262932150237
20
2.21331169529915
30
0
41
1
10
39.4213457679196
20
2.29206164554714
30
0
41
1
10
39.4113965471215
20
2.44246212509296
30
0
41
1
10
39.4064809145985
20
2.51280756939138
30
0
41
1
10
39.3966918754307
20
2.64413207645075
30
0
41
1
10
39.3918132871253
20
2.70510996724306
30
0
41
1
10
39.3819854659188
20
2.81773786223056
30
0
41
1
10
39.3770510217746
20
2.86938881643593
30
0
41
1
10
39.3708571665277
20
2.92796593784172
30
0
41
1
10
39.3696169321035
20
2.93938127226153
30
0
41
1
10
39.3671328170752
20
2.96160466329667
30
0
41
1
10
39.365890773576
20
2.97239539002484
30
0
41
1
10
39.362178496711
20
3.00367925091612
30
0
41
1
10
39.3597162178253
20
3.02313901890534
30
0
41
1
10
39.3523502739267
20
3.07740803943287
30
0
41
1
10
39.3474641556037
20
3.10811741584817
30
0
41
1
10
39.3425531631626
20
3.13343241737746
30
0
0
SPLINE
5
1C3
100
AcDbEntity
8
1
62
256
6
ByLayer
370
18
48
1
60
0
100
AcDbSpline
70
4
71
3
72
29
73
25
40
0
40
0
40
0
40
0
40
0.0624999999999994
40
0.0624999999999994
40
0.0937499999999992
40
0.0937499999999992
40
0.124999999999999
40
0.249999999999998
40
0.249999999999998
40
0.374999999999997
40
0.374999999999997
40
0.437499999999997
40
0.468749999999997
40
0.468749999999997
40
0.499999999999997
40
0.499999999999997
40
0.624999999999998
40
0.624999999999998
40
0.749999999999999
40
0.875
40
0.875
40
0.9375
40
0.9375
40
1
40
1
40
1
40
1
41
1
10
32.925143488176
20
3.03035757460933
30
0
41
1
10
32.9276009045854
20
3.0118040079239
30
0
41
1
10
32.9300622389501
20
2.99188964093273
30
0
41
1
10
32.9337645962279
20
2.95993626065959
30
0
41
1
10
32.9350021851044
20
2.94892183755007
30
0
41
1
10
32.9374697913713
20
2.92630414163816
30
0
41
1
10
32.9436235651087
20
2.86825823639623
30
0
41
1
10
32.949718984476
20
2.80282045125549
30
0
41
1
10
32.9595098914201
20
2.68889567977035
30
0
41
1
10
32.9644127693945
20
2.62732048357162
30
0
41
1
10
32.9717702296464
20
2.52799627448539
30
0
41
1
10
32.9754505618115
20
2.476590519132
30
0
41
1
10
32.9791394812738
20
2.42253049476892
30
0
41
1
10
32.981601919599
20
2.38589406784851
30
0
41
1
10
32.9828359885645
20
2.3672578505975
30
0
41
1
10
32.9890028017058
20
2.27279719686629
30
0
41
1
10
32.9938860322042
20
2.19374383591509
30
0
41
1
10
33.0036734333493
20
2.02891096633922
30
0
41
1
10
33.0134602684255
20
1.8573495792603
30
0
41
1
10
33.0232383211674
20
1.67238159840804
30
0
41
1
10
33.0306158148433
20
1.52848987777779
30
0
41
1
10
33.0330891577032
20
1.47953475120013
30
0
41
1
10
33.0380145246149
20
1.38090045861858
30
0
41
1
10
33.0404715033908
20
1.33114235219179
30
0
41
1
10
33.0429292333486
20
1.2809516254888
30
0
0
SPLINE
5
1C4
100
AcDbEntity
8
1
62
256
6
ByLayer
370
18
48
1
60
0
100
AcDbSpline
70
4
71
3
72
26
73
22
40
0
40
0
40
0
40
0
40
0.125
40
0.125
40
0.25
40
0.25
40
0.3125
40
0.3125
40
0.34375
40
0.34375
40
0.375
40
0.5
40
0.5
40
0.625
40
0.75
40
0.75
40
0.8125
40
0.8125
40
0.875
40
0.875
40
1
40
1
40
1
40
1
41
1
10
40.1688370191924
20
2.78602772588886
30
0
41
1
10
40.1748237588801
20
2.74200475740983
30
0
41
1
10
40.1807702013892
20
2.6940307961932
30
0
41
1
10
40.1927211115528
20
2.59034928731046
30
0
41
1
10
40.1987156681432
20
2.53464369172997
30
0
41
1
10
40.2077577450135
20
2.44521560858652
30
0
41
1
10
40.2107800712153
20
2.41442575979824
30
0
41
1
10
40.215328064797
20
2.36673997484715
30
0
41
1
10
40.216846606993
20
2.3505922110819
30
0
41
1
10
40.2198728812431
20
2.31796376755571
30
0
41
1
10
40.2274217738841
20
2.23545552407288
30
0
41
1
10
40.2348861402114
20
2.14831348269476
30
0
41
1
10
40.2467345979952
20
2.00300135490963
30
0
41
1
10
40.2585011494287
20
1.85182109652826
30
0
41
1
10
40.2701331904914
20
1.68892781216786
30
0
41
1
10
40.2788249194218
20
1.56222855978163
30
0
41
1
10
40.281719523422
20
1.5191941761077
30
0
41
1
10
40.2874451888959
20
1.43244874673334
30
0
41
1
10
40.2902832437549
20
1.3886377829719
30
0
41
1
10
40.2987305798363
20
1.25590142107131
30
0
41
1
10
40.304274487542
20
1.16567018866533
30
0
41
1
10
40.3097369102377
20
1.07371227969139
30
0
0
SPLINE
5
1C5
100
AcDbEntity
8
1
62
256
6
ByLayer
370
18
48
1
60
0
100
AcDbSpline
70
4
71
3
72
26
73
22
40
0
40
0
40
0
40
0
40
0.125000000000001
40
0.125000000000001
40
0.187500000000001
40
0.187500000000001
40
0.250000000000002
40
0.250000000000002
40
0.375000000000002
40
0.375000000000002
40
0.500000000000002
40
0.500000000000002
40
0.562500000000001
40
0.562500000000001
40
0.625000000000001
40
0.625000000000001
40
0.750000000000001
40
0.750000000000001
40
0.875
40
0.875
40
1
40
1
40
1
40
1
41
1
10
37.8782077159031
20
-2.85011627259277
30
0
41
1
10
37.8732947248227
20
-2.79922124395347
30
0
41
1
10
37.8683770357161
20
-2.7433770894101
30
0
41
1
10
37.8609809414059
20
-2.65203120179405
30
0
41
1
10
37.8585105289078
20
-2.62030043972044
30
0
41
1
10
37.8535579102375
20
-2.55431751194703
30
0
41
1
10
37.8510948660187
20
-2.52032243096363
30
0
41
1
10
37.843724832959
20
-2.41539223025623
30
0
41
1
10
37.838825998944
20
-2.34152002320005
30
0
41
1
10
37.829007307566
20
-2.18609414454826
30
0
41
1
10
37.8240999774176
20
-2.10453991596336
30
0
41
1
10
37.8167282659037
20
-1.97638154822081
30
0
41
1
10
37.8142687169504
20
-1.93268907918571
30
0
41
1
10
37.8093360675373
20
-1.8433240852419
30
0
41
1
10
37.8068562384707
20
-1.79752266869045
30
0
41
1
10
37.7994512149999
20
-1.65850195745432
30
0
41
1
10
37.7945357613347
20
-1.56344585099177
30
0
41
1
10
37.7847005452506
20
-1.36872242036614
30
0
41
1
10
37.7797934341974
20
-1.26905426247686
30
0
41
1
10
37.7699840014728
20
-1.06509709929566
30
0
41
1
10
37.765081909659
20
-0.960808490389326
30
0
41
1
10
37.7601380543177
20
-0.854133470877429
30
0
0
SPLINE
5
1C6
100
AcDbEntity
8
1
62
256
6
ByLayer
370
18
48
1
60
0
100
AcDbSpline
70
4
71
3
72
27
73
23
40
0
40
0
40
0
40
0
40
0.124999999999999
40
0.124999999999999
40
0.249999999999998
40
0.249999999999998
40
0.312499999999998
40
0.312499999999998
40
0.374999999999997
40
0.374999999999997
40
0.499999999999997
40
0.499999999999997
40
0.624999999999997
40
0.624999999999997
40
0.749999999999996
40
0.749999999999996
40
0.781249999999997
40
0.781249999999997
40
0.812499999999997
40
0.874999999999998
40
0.874999999999998
40
1
40
1
40
1
40
1
41
1
10
37.6723213509897
20
-0.769921500459816
30
0
41
1
10
37.6772397130007
20
-0.876691712880955
30
0
41
1
10
37.6821189995646
20
-0.98151522557086
30
0
41
1
10
37.6919099891349
20
-1.18733463723052
30
0
41
1
10
37.6968309058585
20
-1.28833012643517
30
0
41
1
10
37.7042345779887
20
-1.43691543507683
30
0
41
1
10
37.706706379241
20
-1.48595827752806
30
0
41
1
10
37.7116609145392
20
-1.58305466947172
30
0
41
1
10
37.7141484303846
20
-1.63119640668077
30
0
41
1
10
37.7215561455849
20
-1.77252697779332
30
0
41
1
10
37.7264437988532
20
-1.86311132102381
30
0
41
1
10
37.7362316253754
20
-2.03720333207158
30
0
41
1
10
37.7411409187189
20
-2.12071028293602
30
0
41
1
10
37.7509767082547
20
-2.28062184045859
30
0
41
1
10
37.7559016714138
20
-2.35702719404881
30
0
41
1
10
37.7620959502518
20
-2.44793646726379
30
0
41
1
10
37.7633343992938
20
-2.46585066809979
30
0
41
1
10
37.7658034775358
20
-2.50102671905034
30
0
41
1
10
37.7694992707741
20
-2.55286868169045
30
0
41
1
10
37.7731788003288
20
-2.60197478884854
30
0
41
1
10
37.7805400480844
20
-2.69659208590707
30
0
41
1
10
37.7854575135953
20
-2.75488608489314
30
0
41
1
10
37.7903739717736
20
-2.80842435131697
30
0
0
SPLINE
5
1C7
100
AcDbEntity
8
1
62
256
6
ByLayer
370
18
48
1
60
0
100
AcDbSpline
70
4
71
3
72
28
73
24
40
0
40
0
40
0
40
0
40
0.125000000000001
40
0.125000000000001
40
0.187500000000001
40
0.187500000000001
40
0.218750000000002
40
0.218750000000002
40
0.250000000000002
40
0.250000000000002
40
0.375000000000002
40
0.375000000000002
40
0.500000000000002
40
0.500000000000002
40
0.562500000000002
40
0.593750000000002
40
0.593750000000002
40
0.625000000000002
40
0.625000000000002
40
0.750000000000001
40
0.750000000000001
40
0.875000000000001
40
1
40
1
40
1
40
1
41
1
10
35.9792942541442
20
-1.54231323430966
30
0
41
1
10
35.9743947820091
20
-1.44648075672376
30
0
41
1
10
35.9694823163515
20
-1.34800097826619
30
0
41
1
10
35.9620958589966
20
-1.19624863402365
30
0
41
1
10
35.9596302233582
20
-1.14499113736073
30
0
41
1
10
35.9559217729874
20
-1.06707501416798
30
0
41
1
10
35.9546821310219
20
-1.04089311628979
30
0
41
1
10
35.9522097880672
20
-0.988428073503826
30
0
41
1
10
35.9509767163127
20
-0.962137619699888
30
0
41
1
10
35.9448230666393
20
-0.830399113897329
30
0
41
1
10
35.9399365614087
20
-0.724094677481844
30
0
41
1
10
35.9301256317285
20
-0.509709071673825
30
0
41
1
10
35.9252145593989
20
-0.401627235412604
30
0
41
1
10
35.9178437447177
20
-0.238162879409089
30
0
41
1
10
35.9141564851824
20
-0.15609469453409
30
0
41
1
10
35.9104596933261
20
-0.0735153127082526
30
0
41
1
10
35.9079917433654
20
-0.0183475777706406
30
0
41
1
10
35.906754846312
20
0.0093213188355321
30
0
41
1
10
35.9005722444359
20
0.147641132282217
30
0
41
1
10
35.8956728652919
20
0.257286269356143
30
0
41
1
10
35.8858536078642
20
0.474619886903383
30
0
41
1
10
35.8760401510543
20
0.689997543944969
30
0
41
1
10
35.8662446278442
20
0.901478240814129
30
0
41
1
10
35.8613178330554
20
1.00621558285087
30
0
0
SPLINE
5
1C8
100
AcDbEntity
8
1
62
256
6
ByLayer
370
18
48
1
60
0
100
AcDbSpline
70
4
71
3
72
26
73
22
40
0
40
0
40
0
40
0
40
0.125
40
0.125
40
0.250000000000001
40
0.250000000000001
40
0.375000000000001
40
0.375000000000001
40
0.437500000000001
40
0.437500000000001
40
0.500000000000001
40
0.500000000000001
40
0.625000000000001
40
0.625000000000001
40
0.750000000000001
40
0.750000000000001
40
0.812500000000001
40
0.812500000000001
40
0.875
40
0.875
40
1
40
1
40
1
40
1
41
1
10
36.9286455582761
20
-2.29343796773065
30
0
41
1
10
36.9236986871836
20
-2.21582208312833
30
0
41
1
10
36.918807227847
20
-2.13480781129229
30
0
41
1
10
36.9090228441438
20
-1.96621057177214
30
0
41
1
10
36.9041197983481
20
-1.87862739411898
30
0
41
1
10
36.8943056614976
20
-1.69690581117393
30
0
41
1
10
36.8893965241632
20
-1.60276777013314
30
0
41
1
10
36.8819966694105
20
-1.45650080450238
30
0
41
1
10
36.8795193724565
20
-1.40681374216203
30
0
41
1
10
36.874595213151
20
-1.30685938442377
30
0
41
1
10
36.8721419256909
20
-1.25646768531303
30
0
41
1
10
36.8647842981928
20
-1.10407180644253
30
0
41
1
10
36.8598736160726
20
-1.00085032289451
30
0
41
1
10
36.8500591413514
20
-0.791196002930491
30
0
41
1
10
36.8451573092362
20
-0.684763133496773
30
0
41
1
10
36.8377829586623
20
-0.522659314496309
30
0
41
1
10
36.8353206919087
20
-0.468214859495561
30
0
41
1
10
36.830375884439
20
-0.358488815308192
30
0
41
1
10
36.8279099646065
20
-0.303576919986199
30
0
41
1
10
36.8205294120047
20
-0.139183225829811
30
0
41
1
10
36.8156139204367
20
-0.029831813116374
30
0
41
1
10
36.8107101827353
20
0.0792806874651433
30
0
0
SPLINE
5
1C9
100
AcDbEntity
8
1
62
256
6
ByLayer
370
18
48
1
60
0
100
AcDbSpline
70
4
71
3
72
38
73
34
40
0
40
0
40
0
40
0
40
0.125000000000005
40
0.125000000000005
40
0.25000000000001
40
0.25000000000001
40
0.312500000000013
40
0.312500000000013
40
0.375000000000015
40
0.375000000000015
40
0.437500000000017
40
0.437500000000017
40
0.50000000000002
40
0.50000000000002
40
0.562500000000022
40
0.562500000000022
40
0.625000000000024
40
0.625000000000024
40
0.656250000000026
40
0.656250000000026
40
0.687500000000027
40
0.687500000000027
40
0.750000000000029
40
0.750000000000029
40
0.78125000000003
40
0.78125000000003
40
0.812500000000031
40
0.812500000000031
40
0.875000000000021
40
0.875000000000021
40
0.937500000000011
40
0.937500000000011
40
1
40
1
40
1
40
1
41
1
10
43
20
1.52275792331557
30
0
41
1
10
43.0360113017864
20
1.47799254973947
30
0
41
1
10
43.0707386119718
20
1.43212925326361
30
0
41
1
10
43.1364866124416
20
1.3380135131936
30
0
41
1
10
43.1675223223687
20
1.28976264879071
30
0
41
1
10
43.2098518857122
20
1.21540443064092
30
0
41
1
10
43.223250172808
20
1.1902874888595
30
0
41
1
10
43.2482391460434
20
1.13935760095353
30
0
41
1
10
43.2598500918309
20
1.11349786709755
30
0
41
1
10
43.2806477171689
20
1.0612597022629
30
0
41
1
10
43.2897872748099
20
1.03500693005898
30
0
41
1
10
43.3049282224667
20
0.982371958322233
30
0
41
1
10
43.3109312978903
20
0.955988470956669
30
0
41
1
10
43.318998435957
20
0.903311535514376
30
0
41
1
10
43.3210344430961
20
0.876905984445472
30
0
41
1
10
43.320257976892
20
0.825863800185346
30
0
41
1
10
43.3174826932819
20
0.801091490818663
30
0
41
1
10
43.3093861990201
20
0.765458893753845
30
0
41
1
10
43.3060322736526
20
0.753836305162451
30
0
41
1
10
43.2979611084
20
0.731176234960174
30
0
41
1
10
43.2932415167981
20
0.720160100091022
30
0
41
1
10
43.2773498640901
20
0.688720681178097
30
0
41
1
10
43.2643719374401
20
0.669678353520339
30
0
41
1
10
43.2417610501141
20
0.644021741674976
30
0
41
1
10
43.2336997132823
20
0.635953751354691
30
0
41
1
10
43.2165922116971
20
0.6207914381595
30
0
41
1
10
43.2075043169343
20
0.613670211892327
30
0
41
1
10
43.1792130159044
20
0.594019395843105
30
0
41
1
10
43.159017638939
20
0.583175962083573
30
0
41
1
10
43.1165882935651
20
0.565476695373036
30
0
41
1
10
43.0943519808495
20
0.55862084644022
30
0
41
1
10
43.0482368238346
20
0.548560112555407
30
0
41
1
10
43.0243144301043
20
0.545365086782084
30
0
41
1
10
43
20
0.543902655527603
30
0
0
SPLINE
5
1CA
100
AcDbEntity
8
1
62
256
6
ByLayer
370
18
48
1
60
0
100
AcDbSpline
70
4
71
3
72
10
73
6
40
0
40
0
40
0
40
0
40
0.5
40
0.5
40
1
40
1
40
1
40
1
41
1
10
32.5859700621413
20
-3.06992966276505
30
0
41
1
10
32.5162816141434
20
-3.02515777831348
30
0
41
1
10
32.4459612513936
20
-2.97727550785959
30
0
41
1
10
32.3042054363732
20
-2.8756828826078
30
0
41
1
10
32.2327901675013
20
-2.82197121889118
30
0
41
1
10
32.1605516747006
20
-2.76532153041234
30
0
0
SPLINE
5
1CB
100
AcDbEntity
8
1
62
256
6
ByLayer
370
18
48
1
60
0
100
AcDbSpline
70
4
71
3
72
8
73
4
40
0
40
0
40
0
40
0
40
1
40
1
40
1
40
1
41
1
10
32.1605516747005
20
-2.76532153041234
30
0
41
1
10
32.1376257098388
20
-2.72333173133865
30
0
41
1
10
32.114642277411
20
-2.68096925897314
30
0
41
1
10
32.0915848198449
20
-2.63822716125856
30
0
0
SPLINE
5
1CC
100
AcDbEntity
8
1
62
256
6
ByLayer
370
18
48
1
60
0
100
AcDbSpline
70
4
71
3
72
22
73
18
40
0
40
0
40
0
40
0
40
0.125000000000025
40
0.125000000000025
40
0.250000000000049
40
0.250000000000049
40
0.500000000000053
40
0.500000000000053
40
0.625000000000055
40
0.625000000000055
40
0.750000000000057
40
0.750000000000057
40
0.812500000000057
40
0.812500000000057
40
0.875000000000058
40
0.875000000000058
40
1
40
1
40
1
40
1
41
1
10
32.0915848198451
20
-2.63822716125904
30
0
41
1
10
32.0864643770355
20
-2.62873528791261
30
0
41
1
10
32.080674629477
20
-2.62006117532491
30
0
41
1
10
32.0680196122962
20
-2.60401509442906
30
0
41
1
10
32.0611260130102
20
-2.59662610091763
30
0
41
1
10
32.03910835337
20
-2.57641029739074
30
0
41
1
10
32.0231700244645
20
-2.56587575823434
30
0
41
1
10
31.9976050575554
20
-2.55409473685265
30
0
41
1
10
31.9887710075763
20
-2.55086287407153
30
0
41
1
10
31.971072109415
20
-2.54605259582121
30
0
41
1
10
31.9621434599344
20
-2.54443779917497
30
0
41
1
10
31.9486375914963
20
-2.54330788180221
30
0
41
1
10
31.9441167142167
20
-2.54314803279269
30
0
41
1
10
31.9350365445665
20
-2.54330220279292
30
0
41
1
10
31.9304561029253
20
-2.54361901573475
30
0
41
1
10
31.9168146838103
20
-2.54535179589132
30
0
41
1
10
31.9079183217333
20
-2.54751843927591
30
0
41
1
10
31.8992700989619
20
-2.55089909797994
30
0
0
SPLINE
5
1CD
100
AcDbEntity
8
1
62
256
6
ByLayer
370
18
48
1
60
0
100
AcDbSpline
70
4
71
3
72
12
73
8
40
0
40
0
40
0
40
0
40
0.25
40
0.25
40
0.499999999999999
40
0.499999999999999
40
1
40
1
40
1
40
1
41
1
10
31.8992700989619
20
-2.55089909797996
30
0
41
1
10
31.8649405598753
20
-2.52153935169375
30
0
41
1
10
31.8305554238159
20
-2.49167638933559
30
0
41
1
10
31.7616080727354
20
-2.43095871089639
30
0
41
1
10
31.7269951729131
20
-2.40009263951239
30
0
41
1
10
31.6212874808854
20
-2.3059772195017
30
0
41
1
10
31.5486535814168
20
-2.24125184004535
30
0
41
1
10
31.4731541607322
20
-2.17499670035488
30
0
0
SPLINE
5
1CE
100
AcDbEntity
8
1
62
256
6
ByLayer
370
18
48
1
60
0
100
AcDbSpline
70
4
71
3
72
16
73
12
40
0
40
0
40
0
40
0
40
0.250000000000007
40
0.250000000000007
40
0.500000000000014
40
0.500000000000014
40
0.750000000000021
40
0.750000000000021
40
0.875000000000011
40
0.875000000000011
40
1
40
1
40
1
40
1
41
1
10
31.4731541607322
20
-2.17499670035488
30
0
41
1
10
31.4380206953643
20
-2.14416503787777
30
0
41
1
10
31.4016019987203
20
-2.11547644912693
30
0
41
1
10
31.3268398180552
20
-2.06213339315417
30
0
41
1
10
31.2884974611768
20
-2.03747631634883
30
0
41
1
10
31.2104467067805
20
-1.99188816307941
30
0
41
1
10
31.1707395024197
20
-1.97095441833753
30
0
41
1
10
31.1104967665578
20
-1.94213065302287
30
0
41
1
10
31.090328202592
20
-1.93296399074711
30
0
41
1
10
31.0500055941899
20
-1.91555407598048
30
0
41
1
10
31.0298224248399
20
-1.90730322808102
30
0
41
1
10
31.0096198933143
20
-1.8995033556632
30
0
0
SPLINE
5
1CF
100
AcDbEntity
8
1
62
256
6
ByLayer
370
18
48
1
60
0
100
AcDbSpline
70
4
71
3
72
116
73
112
40
0
40
0
40
0
40
0
40
0.015625000000003
40
0.015625000000003
40
0.031250000000006
40
0.031250000000006
40
0.046875000000009
40
0.046875000000009
40
0.062500000000012
40
0.062500000000012
40
0.093750000000018
40
0.093750000000018
40
0.10937500000002
40
0.10937500000002
40
0.125000000000023
40
0.125000000000023
40
0.140625000000025
40
0.140625000000025
40
0.148437500000026
40
0.148437500000026
40
0.156250000000026
40
0.156250000000026
40
0.187500000000024
40
0.187500000000024
40
0.218750000000022
40
0.218750000000022
40
0.250000000000019
40
0.250000000000019
40
0.265625000000018
40
0.265625000000018
40
0.273437500000016
40
0.273437500000016
40
0.281250000000015
40
0.281250000000015
40
0.296875000000011
40
0.296875000000011
40
0.312500000000008
40
0.312500000000008
40
0.328125000000005
40
0.328125000000005
40
0.335937500000004
40
0.335937500000004
40
0.343750000000003
40
0.375000000000001
40
0.375000000000001
40
0.406249999999999
40
0.406249999999999
40
0.421874999999999
40
0.421874999999999
40
0.437499999999998
40
0.437499999999998
40
0.453124999999998
40
0.453124999999998
40
0.468749999999997
40
0.468749999999997
40
0.484374999999997
40
0.484374999999997
40
0.499999999999996
40
0.515624999999996
40
0.515624999999996
40
0.523437499999996
40
0.531249999999996
40
0.531249999999996
40
0.546874999999995
40
0.546874999999995
40
0.562499999999995
40
0.562499999999995
40
0.593749999999994
40
0.593749999999994
40
0.624999999999993
40
0.624999999999993
40
0.656249999999992
40
0.656249999999992
40
0.671874999999992
40
0.671874999999992
40
0.687499999999991
40
0.687499999999991
40
0.703124999999991
40
0.703124999999991
40
0.710937499999991
40
0.710937499999991
40
0.718749999999992
40
0.749999999999993
40
0.749999999999993
40
0.781249999999995
40
0.781249999999995
40
0.812499999999997
40
0.812499999999997
40
0.828124999999998
40
0.828124999999998
40
0.843749999999999
40
0.843749999999999
40
0.8515625
40
0.8515625
40
0.859375
40
0.859375
40
0.875000000000001
40
0.875000000000001
40
0.890625000000002
40
0.890625000000002
40
0.898437500000002
40
0.898437500000002
40
0.906250000000003
40
0.906250000000003
40
0.937500000000002
40
0.937500000000002
40
0.968750000000001
40
0.968750000000001
40
0.984375000000001
40
0.984375000000001
40
1
40
1
40
1
40
1
41
1
10
31.0096198933132
20
-1.89950335566277
30
0
41
1
10
30.9560532910682
20
-1.8788221522781
30
0
41
1
10
30.902468650632
20
-1.8574999187272
30
0
41
1
10
30.795463762349
20
-1.81343620561989
30
0
41
1
10
30.7420057766359
20
-1.79072597627544
30
0
41
1
10
30.63524339429
20
-1.74390292915612
30
0
41
1
10
30.5819408143477
20
-1.71978860938782
30
0
41
1
10
30.4755792076382
20
-1.67006425943984
30
0
41
1
10
30.4225158146132
20
-1.64445709335308
30
0
41
1
10
30.263562748584
20
-1.56548681535887
30
0
41
1
10
30.1579096712567
20
-1.50997275142848
30
0
41
1
10
29.9994424976445
20
-1.42279686811003
30
0
41
1
10
29.9466475284045
20
-1.39305833058964
30
0
41
1
10
29.8408184449228
20
-1.33254929939773
30
0
41
1
10
29.787712845373
20
-1.30186458799611
30
0
41
1
10
29.6812251338008
20
-1.23953204396202
30
0
41
1
10
29.627882358465
20
-1.20783221633849
30
0
41
1
10
29.5473859154294
20
-1.15991247994043
30
0
41
1
10
29.5204726877455
20
-1.1438477187892
30
0
41
1
10
29.4667126555289
20
-1.11155816664336
30
0
41
1
10
29.4398575740931
20
-1.09532582852464
30
0
41
1
10
29.3058447021228
20
-1.01354621068418
30
0
41
1
10
29.1993991274535
20
-0.94624200985632
30
0
41
1
10
28.9875479960197
20
-0.808501257491514
30
0
41
1
10
28.8821590148733
20
-0.738041865482217
30
0
41
1
10
28.6718613516693
20
-0.594734282162193
30
0
41
1
10
28.5668799047745
20
-0.521985869738756
30
0
41
1
10
28.4090960270302
20
-0.41201683782009
30
0
41
1
10
28.3564686860295
20
-0.375192619326271
30
0
41
1
10
28.2774193627122
20
-0.319789862623537
30
0
41
1
10
28.2510231332813
20
-0.301335130827908
30
0
41
1
10
28.198056423339
20
-0.264570756180945
30
0
41
1
10
28.1715240309436
20
-0.246206491374437
30
0
41
1
10
28.0919162007218
20
-0.190970895187007
30
0
41
1
10
28.0387690299998
20
-0.154044647685907
30
0
41
1
10
27.9322561857756
20
-0.0800854481686599
30
0
41
1
10
27.8789057661753
20
-0.0430305881987749
30
0
41
1
10
27.7721029826768
20
0.0313623278507862
30
0
41
1
10
27.7186628433948
20
0.0687187955022068
30
0
41
1
10
27.6384281608755
20
0.124978456930734
30
0
41
1
10
27.6116494932138
20
0.143780325112203
30
0
41
1
10
27.5582058918189
20
0.181335360516783
30
0
41
1
10
27.4248265378363
20
0.275140034860954
30
0
41
1
10
27.2924865220635
20
0.36836503357523
30
0
41
1
10
27.0815459305359
20
0.516020472559973
30
0
41
1
10
26.9764958517116
20
0.58911660323713
30
0
41
1
10
26.8186336388734
20
0.696415941153049
30
0
41
1
10
26.7658975465938
20
0.73170046100222
30
0
41
1
10
26.6601881204014
20
0.801317686601891
30
0
41
1
10
26.6073398315766
20
0.83581993800081
30
0
41
1
10
26.5017274067381
20
0.904302817428203
30
0
41
1
10
26.4489229768685
20
0.938228897543468
30
0
41
1
10
26.3431452087162
20
1.00522386552839
30
0
41
1
10
26.2901620598957
20
1.03828102351099
30
0
41
1
10
26.1840932265009
20
1.10362651248224
30
0
41
1
10
26.131010576272
20
1.13591877450551
30
0
41
1
10
26.0248413756259
20
1.19984842130091
30
0
41
1
10
25.9186495825683
20
1.26309838032631
30
0
41
1
10
25.812267697913
20
1.32477744299496
30
0
41
1
10
25.7323550150017
20
1.37036895914713
30
0
41
1
10
25.6789951505986
20
1.40056424833423
30
0
41
1
10
25.6257944740961
20
1.43014317339748
30
0
41
1
10
25.5460992211348
20
1.47403658236388
30
0
41
1
10
25.4931547910253
20
1.50271226604508
30
0
41
1
10
25.387117676861
20
1.55834415252051
30
0
41
1
10
25.3339283448005
20
1.58520393356568
30
0
41
1
10
25.1743703859887
20
1.66357592182999
30
0
41
1
10
25.068130864039
20
1.71300519817362
30
0
41
1
10
24.8564788968098
20
1.8067782443924
30
0
41
1
10
24.7510305162391
20
1.85106994691216
30
0
41
1
10
24.5404414089328
20
1.93392328098045
30
0
41
1
10
24.4353451402754
20
1.97251483175424
30
0
41
1
10
24.277431794381
20
2.02561191658023
30
0
41
1
10
24.2247276835255
20
2.04249803248806
30
0
41
1
10
24.1189775705038
20
2.07451374210802
30
0
41
1
10
24.065935836189
20
2.08964419120497
30
0
41
1
10
23.9591369990493
20
2.11797073613636
30
0
41
1
10
23.9054148302076
20
2.13119613527536
30
0
41
1
10
23.8247725963085
20
2.14985956214304
30
0
41
1
10
23.7978544708158
20
2.15588163028613
30
0
41
1
10
23.7441291974577
20
2.1674819430533
30
0
41
1
10
23.6100232117078
20
2.19538981042757
30
0
41
1
10
23.4769136765148
20
2.21783623407234
30
0
41
1
10
23.2650999374768
20
2.24664836022907
30
0
41
1
10
23.1598104500174
20
2.25749984298662
30
0
41
1
10
22.9497728746182
20
2.27181076506318
30
0
41
1
10
22.8450374485349
20
2.27526826918546
30
0
41
1
10
22.6877124638038
20
2.27484145179383
30
0
41
1
10
22.6351657212986
20
2.27376317827745
30
0
41
1
10
22.5295034355911
20
2.26981565791451
30
0
41
1
10
22.4764617819565
20
2.2669512452579
30
0
41
1
10
22.3969798273298
20
2.26127681616006
30
0
41
1
10
22.3704798145254
20
2.25915608463143
30
0
41
1
10
22.3173306206735
20
2.25448256467121
30
0
41
1
10
22.2906953336677
20
2.25192848310257
30
0
41
1
10
22.2107173316668
20
2.24359710129414
30
0
41
1
10
22.1573515554708
20
2.23713940449414
30
0
41
1
10
22.0505922612072
20
2.22235581925605
30
0
41
1
10
21.9971801483742
20
2.21403384920509
30
0
41
1
10
21.9169669228717
20
2.20013142518675
30
0
41
1
10
21.8901980909047
20
2.19525751914807
30
0
41
1
10
21.8367842022393
20
2.18506514397379
30
0
41
1
10
21.8101221508434
20
2.17974399738389
30
0
41
1
10
21.6770178933691
20
2.15202153430735
30
0
41
1
10
21.5712371911974
20
2.12624079357036
30
0
41
1
10
21.3602102159413
20
2.06795231132375
30
0
41
1
10
21.2548969825513
20
2.03548828748714
30
0
41
1
10
21.0967746950367
20
1.98222373634866
30
0
41
1
10
21.0440520818694
20
1.96370055023391
30
0
41
1
10
20.9384322129305
20
1.9252474475677
30
0
41
1
10
20.8855230342023
20
1.90533045508934
30
0
41
1
10
20.8326466313187
20
1.88462516608672
30
0
0
SPLINE
5
1D0
100
AcDbEntity
8
1
62
256
6
ByLayer
370
18
48
1
60
0
100
AcDbSpline
70
4
71
3
72
110
73
106
40
0
40
0
40
0
40
0
40
0.0323776520751676
40
0.0323776520751676
40
0.0485664781127515
40
0.0485664781127515
40
0.0647553041503353
40
0.0647553041503353
40
0.0971329562255029
40
0.0971329562255029
40
0.129510608300671
40
0.129510608300671
40
0.145699434338254
40
0.145699434338254
40
0.153793847357046
40
0.153793847357046
40
0.161888260375838
40
0.161888260375838
40
0.178077086413423
40
0.178077086413423
40
0.194265912451008
40
0.194265912451008
40
0.226643564526178
40
0.226643564526178
40
0.259021216601348
40
0.259021216601348
40
0.275210042638934
40
0.275210042638934
40
0.291398868676519
40
0.291398868676519
40
0.299493281695312
40
0.299493281695312
40
0.307587694714105
40
0.307587694714105
40
0.315682107732898
40
0.315682107732898
40
0.32377652075169
40
0.32377652075169
40
0.356154172826862
40
0.356154172826862
40
0.388531824902033
40
0.388531824902033
40
0.420909476977204
40
0.420909476977204
40
0.437098303014789
40
0.437098303014789
40
0.453287129052375
40
0.453287129052375
40
0.46947595508996
40
0.46947595508996
40
0.477570368108754
40
0.477570368108754
40
0.485664781127547
40
0.485664781127547
40
0.51804243320272
40
0.51804243320272
40
0.534231259240306
40
0.534231259240306
40
0.550420085277892
40
0.550420085277892
40
0.566608911315478
40
0.566608911315478
40
0.582797737353064
40
0.582797737353064
40
0.615175389428236
40
0.615175389428236
40
0.647553041503409
40
0.647553041503409
40
0.655647454522202
40
0.655647454522202
40
0.663741867540996
40
0.663741867540996
40
0.679930693578583
40
0.679930693578583
40
0.712308345653757
40
0.712308345653757
40
0.74468599772893
40
0.74468599772893
40
0.777063649804104
40
0.777063649804104
40
0.793252475841691
40
0.793252475841691
40
0.801346888860485
40
0.801346888860485
40
0.809441301879279
40
0.809441301879279
40
0.825630127916867
40
0.825630127916867
40
0.841818953954456
40
0.841818953954456
40
0.874196606029633
40
0.874196606029633
40
0.90657425810481
40
0.90657425810481
40
0.914668671123603
40
0.914668671123603
40
0.922763084142397
40
0.922763084142397
40
0.938951910179984
40
0.938951910179984
40
0.971329562255159
40
0.971329562255159
40
0.987518388292746
40
0.987518388292746
40
1
40
1
40
1
40
1
41
1
10
19.0934352527362
20
2.16424559707286
30
0
41
1
10
19.218405852078
20
2.13743340744838
30
0
41
1
10
19.3427671339162
20
2.10598775918186
30
0
41
1
10
19.5283461553586
20
2.05184388657705
30
0
41
1
10
19.5900307295454
20
2.03261989238874
30
0
41
1
10
19.7131817706541
20
1.99187970499963
30
0
41
1
10
19.7746786149856
20
1.97038121857813
30
0
41
1
10
19.9594995261968
20
1.90293653535491
30
0
41
1
10
20.0830202479817
20
1.85396592183284
30
0
41
1
10
20.3308090204623
20
1.74827417559604
30
0
41
1
10
20.455086935508
20
1.6915628526865
30
0
41
1
10
20.6421600365014
20
1.60068781146563
30
0
41
1
10
20.7046236943718
20
1.56942255937892
30
0
41
1
10
20.7984828988027
20
1.52103446114376
30
0
41
1
10
20.8298255389759
20
1.50464085861739
30
0
41
1
10
20.8923922992267
20
1.47143894528259
30
0
41
1
10
20.9236147785989
20
1.45463145467639
30
0
41
1
10
21.0171017531479
20
1.4035916733755
30
0
41
1
10
21.0791542663559
20
1.36870407836784
30
0
41
1
10
21.2030203432493
20
1.29756641184827
30
0
41
1
10
21.2649110910892
20
1.26140999997824
30
0
41
1
10
21.4505581869695
20
1.15134037275786
30
0
41
1
10
21.5742920038934
20
1.0758350258451
30
0
41
1
10
21.8218417690705
20
0.920875935089384
30
0
41
1
10
21.9456458242822
20
0.841407847100385
30
0
41
1
10
22.1314132651334
20
0.71922588131946
30
0
41
1
10
22.1933430914187
20
0.677996988547051
30
0
41
1
10
22.3171912306052
20
0.594479408596555
30
0
41
1
10
22.3791103223349
20
0.552190593809826
30
0
41
1
10
22.472120525298
20
0.488142358832022
30
0
41
1
10
22.5031312491008
20
0.466669612038316
30
0
41
1
10
22.5651778657358
20
0.423488606754091
30
0
41
1
10
22.5962151432509
20
0.401781957294844
30
0
41
1
10
22.6584589168242
20
0.358342774830561
30
0
41
1
10
22.6896526012828
20
0.336591846311222
30
0
41
1
10
22.7521673103681
20
0.293004091748912
30
0
41
1
10
22.7834675612411
20
0.271186721282021
30
0
41
1
10
22.9397200396496
20
0.162277634334288
30
0
41
1
10
23.0643555893972
20
0.075451106152741
30
0
41
1
10
23.31304744298
20
-0.0974417854357625
30
0
41
1
10
23.4370596936689
20
-0.183573223823316
30
0
41
1
10
23.68439376809
20
-0.35523994470114
30
0
41
1
10
23.8077448308942
20
-0.440732881939766
30
0
41
1
10
23.9923334090252
20
-0.568368011043788
30
0
41
1
10
24.0538203380288
20
-0.610767419368017
30
0
41
1
10
24.1773698241466
20
-0.694348701017702
30
0
41
1
10
24.2393460112598
20
-0.735653123116236
30
0
41
1
10
24.3636198398434
20
-0.817406734975123
30
0
41
1
10
24.4259320796525
20
-0.857835559664721
30
0
41
1
10
24.5196498988028
20
-0.917824683195306
30
0
41
1
10
24.5509307817627
20
-0.937711946269445
30
0
41
1
10
24.6135793150884
20
-0.977262857084014
30
0
41
1
10
24.6449712789919
20
-0.996941612720519
30
0
41
1
10
24.8018581972266
20
-1.09458302328349
30
0
41
1
10
24.9267073324474
20
-1.1700136106389
30
0
41
1
10
25.1129342683783
20
-1.27927174142604
30
0
41
1
10
25.1748347523488
20
-1.31504120050323
30
0
41
1
10
25.29830581037
20
-1.38524044800613
30
0
41
1
10
25.359826412986
20
-1.41972468138454
30
0
41
1
10
25.4828992461459
20
-1.48692627603086
30
0
41
1
10
25.5445413565099
20
-1.51954863031412
30
0
41
1
10
25.6679426805931
20
-1.58297644364816
30
0
41
1
10
25.7297007819506
20
-1.61378182034477
30
0
41
1
10
25.9152011035395
20
-1.70343980333544
30
0
41
1
10
26.0391788407196
20
-1.75953413727819
30
0
41
1
10
26.2877697711734
20
-1.86431164779731
30
0
41
1
10
26.4123480613617
20
-1.91301876776347
30
0
41
1
10
26.5687019990526
20
-1.96890007689532
30
0
41
1
10
26.6000276744466
20
-1.97982772745715
30
0
41
1
10
26.6625105886365
20
-2.00110517256425
30
0
41
1
10
26.6936916779838
20
-2.01146513168558
30
0
41
1
10
26.7870262710723
20
-2.04172546898161
30
0
41
1
10
26.8489569252337
20
-2.06080699780108
30
0
41
1
10
27.0348468725255
20
-2.11420026063149
30
0
41
1
10
27.1587233128541
20
-2.1448192900975
30
0
41
1
10
27.4063695912065
20
-2.19652080194229
30
0
41
1
10
27.5301498565692
20
-2.21759518758586
30
0
41
1
10
27.7776944944395
20
-2.25021641039629
30
0
41
1
10
27.9014141239308
20
-2.26177539962734
30
0
41
1
10
28.0869927834554
20
-2.27172409299536
30
0
41
1
10
28.1488592264367
20
-2.27380534536766
30
0
41
1
10
28.24168283525
20
-2.27501985005841
30
0
41
1
10
28.2726278054439
20
-2.27510490419709
30
0
41
1
10
28.334765540966
20
-2.274638073738
30
0
41
1
10
28.3659180148072
20
-2.27408797877624
30
0
41
1
10
28.4594806386902
20
-2.2714841896036
30
0
41
1
10
28.5221559406486
20
-2.26846673238865
30
0
41
1
10
28.6471860694024
20
-2.25994889697697
30
0
41
1
10
28.7096081109224
20
-2.25445375893239
30
0
41
1
10
28.8966217341691
20
-2.2343520800087
30
0
41
1
10
29.0209219862706
20
-2.21613227764104
30
0
41
1
10
29.2687884455151
20
-2.17020836130266
30
0
41
1
10
29.3923738019212
20
-2.14251541388904
30
0
41
1
10
29.5463276975575
20
-2.10180005173598
30
0
41
1
10
29.5770909269374
20
-2.09335022847543
30
0
41
1
10
29.6385686497813
20
-2.07583304289307
30
0
41
1
10
29.6693063306472
20
-2.06677819311258
30
0
41
1
10
29.7617453241612
20
-2.03887121427863
30
0
41
1
10
29.8234612881588
20
-2.01914831717963
30
0
41
1
10
30.0091101141817
20
-1.95680569978117
30
0
41
1
10
30.1335370031151
20
-1.91103031809786
30
0
41
1
10
30.32107322747
20
-1.835962073958
30
0
41
1
10
30.3837962150289
20
-1.80985465221977
30
0
41
1
10
30.4949506998984
20
-1.76178940721167
30
0
41
1
10
30.5432974917563
20
-1.74027792342781
30
0
41
1
10
30.591598351989
20
-1.71817596096434
30
0
0
SPLINE
5
1D1
100
AcDbEntity
8
1
62
256
6
ByLayer
370
18
48
1
60
0
100
AcDbSpline
70
4
71
3
72
8
73
4
40
0
40
0
40
0
40
0
40
1
40
1
40
1
40
1
41
1
10
39.3425531631717
20
3.13343241737792
30
0
41
1
10
39.3132895881689
20
3.14017823844
30
0
41
1
10
39.2840187107996
20
3.14653164444999
30
0
41
1
10
39.2547404915964
20
3.15249496014818
30
0
0
SPLINE
5
1D2
100
AcDbEntity
8
1
62
256
6
ByLayer
370
18
48
1
60
0
100
AcDbSpline
70
4
71
3
72
8
73
4
40
0
40
0
40
0
40
0
40
1
40
1
40
1
40
1
41
1
10
37.7903739717736
20
-2.80842435131694
30
0
41
1
10
37.8196423272656
20
-2.8226689785314
30
0
41
1
10
37.8489189801814
20
-2.83656682163874
30
0
41
1
10
37.8782077159031
20
-2.85011627259277
30
0
0
SPLINE
5
1D3
100
AcDbEntity
8
1
62
256
6
ByLayer
370
18
48
1
60
0
100
AcDbSpline
70
4
71
3
72
8
73
4
40
0
40
0
40
0
40
0
40
1
40
1
40
1
40
1
41
1
10
36.8408365206019
20
-2.23093830614408
30
0
41
1
10
36.8701072914782
20
-2.25204580304722
30
0
41
1
10
36.8993704412846
20
-2.27288379520275
30
0
41
1
10
36.9286455582761
20
-2.29343796773065
30
0
0
SPLINE
5
1D4
100
AcDbEntity
8
1
62
256
6
ByLayer
370
18
48
1
60
0
100
AcDbSpline
70
4
71
3
72
8
73
4
40
0
40
0
40
0
40
0
40
1
40
1
40
1
40
1
41
1
10
33.0429292333485
20
1.28095162548882
30
0
41
1
10
33.0721875713838
20
1.25416498100978
30
0
41
1
10
33.1014539767376
20
1.22723902755425
30
0
41
1
10
33.1307329740671
20
1.2001784785528
30
0
0
SPLINE
5
1D5
100
AcDbEntity
8
1
62
256
6
ByLayer
370
18
48
1
60
0
100
AcDbSpline
70
4
71
3
72
17
73
13
40
0
40
0
40
0
40
0
40
0.249999999999998
40
0.249999999999998
40
0.499999999999996
40
0.624999999999989
40
0.624999999999989
40
0.687499999999991
40
0.687499999999991
40
0.749999999999993
40
0.749999999999993
40
1
40
1
40
1
40
1
41
1
10
32.3526173067741
20
1.76343183763825
30
0
41
1
10
32.2821199924911
20
1.79721406897312
30
0
41
1
10
32.2113240421894
20
1.82731837098424
30
0
41
1
10
32.0686503707914
20
1.87983703320603
30
0
41
1
10
31.9608743460494
20
1.91352133966754
30
0
41
1
10
31.8516389470697
20
1.93854360693871
30
0
41
1
10
31.7967960225423
20
1.94964638181091
30
0
41
1
10
31.7784758985034
20
1.95310992595537
30
0
41
1
10
31.7416204066839
20
1.95940135419869
30
0
41
1
10
31.7230497462151
20
1.96221405321725
30
0
41
1
10
31.6295208657818
20
1.97411091181283
30
0
41
1
10
31.5526931508937
20
1.97702715006639
30
0
41
1
10
31.4731541607322
20
1.97340433257389
30
0
0
SPLINE
5
1D6
100
AcDbEntity
8
1
62
256
6
ByLayer
370
18
48
1
60
0
100
AcDbSpline
70
4
71
3
72
16
73
12
40
0
40
0
40
0
40
0
40
0.250000000000007
40
0.250000000000007
40
0.500000000000015
40
0.500000000000015
40
0.750000000000022
40
0.750000000000022
40
0.875000000000011
40
0.875000000000011
40
1
40
1
40
1
40
1
41
1
10
31.4731541607322
20
1.97340433257386
30
0
41
1
10
31.4380206953642
20
1.97180408428497
30
0
41
1
10
31.4016019987202
20
1.97145433293682
30
0
41
1
10
31.3268398180548
20
1.97401188437939
30
0
41
1
10
31.2884974611764
20
1.97691686483597
30
0
41
1
10
31.2104467067798
20
1.98648702283435
30
0
41
1
10
31.170739502419
20
1.99314990006721
30
0
41
1
10
31.1104967665569
20
2.00622465685862
30
0
41
1
10
31.0903282025911
20
2.0110928250977
30
0
41
1
10
31.0500055941889
20
2.02181519735387
30
0
41
1
10
31.0298224248388
20
2.02766986515348
30
0
41
1
10
31.0096198933132
20
2.03401825085177
30
0
0
SPLINE
5
1D7
100
AcDbEntity
8
1
62
256
6
ByLayer
370
18
48
1
60
0
100
AcDbSpline
70
4
71
3
72
49
73
45
40
0
40
0
40
0
40
0
40
0.0417885492246134
40
0.0417885492246134
40
0.0835770984492267
40
0.0835770984492267
40
0.12536564767384
40
0.12536564767384
40
0.167154196898454
40
0.167154196898454
40
0.250731295347677
40
0.250731295347677
40
0.292519844572288
40
0.292519844572288
40
0.3343083937969
40
0.3343083937969
40
0.376096943021511
40
0.376096943021511
40
0.396991217633817
40
0.396991217633817
40
0.417885492246123
40
0.417885492246123
40
0.501462590695335
40
0.501462590695335
40
0.585039689144547
40
0.585039689144547
40
0.668616787593759
40
0.668616787593759
40
0.710405336818365
40
0.710405336818365
40
0.731299611430667
40
0.731299611430667
40
0.752193886042968
40
0.752193886042968
40
0.793982435267566
40
0.793982435267566
40
0.835770984492165
40
0.835770984492165
40
0.877559533716764
40
0.877559533716764
40
0.898453808329065
40
0.898453808329065
40
0.919348082941366
40
1
40
1
40
1
40
1
41
1
10
31.0096198933137
20
2.0340182508516
30
0
41
1
10
30.9560532910687
20
2.05085086666352
30
0
41
1
10
30.9024686506326
20
2.06674477193641
30
0
41
1
10
30.7954637623496
20
2.0968225102493
30
0
41
1
10
30.7420057766365
20
2.11098250977014
30
0
41
1
10
30.6352433942905
20
2.13759651482519
30
0
41
1
10
30.5819408143483
20
2.15005167106773
30
0
41
1
10
30.4755792076387
20
2.17328647876943
30
0
41
1
10
30.4225158146137
20
2.18406231026506
30
0
41
1
10
30.2635627485845
20
2.21377947201896
30
0
41
1
10
30.1579096712573
20
2.23010646625607
30
0
41
1
10
29.999442497645
20
2.24909931770822
30
0
41
1
10
29.946647528405
20
2.25451852284081
30
0
41
1
10
29.8408184449233
20
2.26346710712266
30
0
41
1
10
29.7877128453735
20
2.26698892348767
30
0
41
1
10
29.6812251338013
20
2.27217269644694
30
0
41
1
10
29.6278823584655
20
2.27383204176152
30
0
41
1
10
29.5473859154299
20
2.27492884955862
30
0
41
1
10
29.520472687746
20
2.27506425855068
30
0
41
1
10
29.4667126555293
20
2.27487964864599
30
0
41
1
10
29.4398575740935
20
2.27456001941661
30
0
41
1
10
29.3058447021232
20
2.27182371236339
30
0
41
1
10
29.199399127454
20
2.26598663672681
30
0
41
1
10
28.9875479960202
20
2.24697739011694
30
0
41
1
10
28.8821590148737
20
2.23380014350477
30
0
41
1
10
28.6718613516697
20
2.20016749884738
30
0
41
1
10
28.5668799047741
20
2.17973236772096
30
0
41
1
10
28.4090960270299
20
2.14390647952831
30
0
41
1
10
28.3564686860301
20
2.13109519294039
30
0
41
1
10
28.2774193627129
20
2.11060791742673
30
0
41
1
10
28.2510231332817
20
2.10358180181038
30
0
41
1
10
28.1980564233393
20
2.08919056147406
30
0
41
1
10
28.1715240309444
20
2.08180494456246
30
0
41
1
10
28.0919162007226
20
2.05900107721837
30
0
41
1
10
28.0387690300002
20
2.0429698755012
30
0
41
1
10
27.932256185776
20
2.00929050730647
30
0
41
1
10
27.8789057661757
20
1.99163400005384
30
0
41
1
10
27.7721029826771
20
1.95460276040785
30
0
41
1
10
27.7186628433952
20
1.93521781587106
30
0
41
1
10
27.6384281608758
20
1.9048105396796
30
0
41
1
10
27.6116494932142
20
1.89444652455214
30
0
41
1
10
27.5582058918192
20
1.87333910912767
30
0
41
1
10
27.4285611379737
20
1.82110796714022
30
0
41
1
10
27.2998983345693
20
1.76439027704785
30
0
41
1
10
27.1980920303748
20
1.7167318953955
30
0
0
SPLINE
5
1D8
100
AcDbEntity
8
1
62
256
6
ByLayer
370
18
48
1
60
0
100
AcDbSpline
70
4
71
3
72
60
73
56
40
0
40
0
40
0
40
0
40
0.029126197137325
40
0.029126197137325
40
0.0594660034767877
40
0.0594660034767877
40
0.0898058098162504
40
0.0898058098162504
40
0.120145616155713
40
0.120145616155713
40
0.150485422495176
40
0.150485422495176
40
0.211165035174101
40
0.211165035174101
40
0.271844647853026
40
0.271844647853026
40
0.287014551022756
40
0.287014551022756
40
0.302184454192486
40
0.302184454192486
40
0.332524260531947
40
0.332524260531947
40
0.393203873210871
40
0.393203873210871
40
0.453883485889794
40
0.453883485889794
40
0.514563098568717
40
0.514563098568717
40
0.544902904908178
40
0.544902904908178
40
0.560072808077907
40
0.560072808077907
40
0.575242711247636
40
0.575242711247636
40
0.605582517587092
40
0.605582517587092
40
0.635922323926548
40
0.635922323926548
40
0.69660193660546
40
0.69660193660546
40
0.757281549284371
40
0.757281549284371
40
0.772451452454099
40
0.772451452454099
40
0.787621355623826
40
0.787621355623826
40
0.817961161963281
40
0.817961161963281
40
0.878640774642188
40
0.878640774642188
40
0.908980580981642
40
0.908980580981642
40
0.939320387321095
40
0.939320387321095
40
1
40
1
40
1
40
1
41
1
10
24.8716026601151
20
2.27500305641956
30
0
41
1
10
24.9315126702176
20
2.27503122753953
30
0
41
1
10
24.9912660382474
20
2.27390814306966
30
0
41
1
10
25.1129342683786
20
2.26927834292226
30
0
41
1
10
25.1748347523491
20
2.26567018551467
30
0
41
1
10
25.2983058103703
20
2.25594257839873
30
0
41
1
10
25.3598264129863
20
2.24980899346238
30
0
41
1
10
25.4828992461463
20
2.23508541219007
30
0
41
1
10
25.5445413565103
20
2.22652499379436
30
0
41
1
10
25.6679426805934
20
2.20703326432232
30
0
41
1
10
25.7297007819509
20
2.19609979671282
30
0
41
1
10
25.9152011035398
20
2.15978870341601
30
0
41
1
10
26.0391788407199
20
2.13091762470441
30
0
41
1
10
26.2877697711737
20
2.06379382213103
30
0
41
1
10
26.412348061362
20
2.0255111823549
30
0
41
1
10
26.568701999053
20
1.97169578248492
30
0
41
1
10
26.600027674447
20
1.96063131621727
30
0
41
1
10
26.6625105886369
20
1.93797688275873
30
0
41
1
10
26.6936916779842
20
1.92637769019726
30
0
41
1
10
26.7870262710727
20
1.89074047873765
30
0
41
1
10
26.8489569252341
20
1.86584511270541
30
0
41
1
10
27.0348468725259
20
1.78859784071736
30
0
41
1
10
27.1587233128544
20
1.73356329254168
30
0
41
1
10
27.4063695912068
20
1.61670399573342
30
0
41
1
10
27.5301498565696
20
1.5548869832989
30
0
41
1
10
27.7776944944399
20
1.42458547515398
30
0
41
1
10
27.9014141239312
20
1.35605202322966
30
0
41
1
10
28.0869927834558
20
1.2480952047236
30
0
41
1
10
28.1488592264371
20
1.21125683532586
30
0
41
1
10
28.2416828352504
20
1.1546993003044
30
0
41
1
10
28.2726278054443
20
1.13562852310335
30
0
41
1
10
28.3347655409664
20
1.09736067785442
30
0
41
1
10
28.3659180148077
20
1.0781131382428
30
0
41
1
10
28.4594806386907
20
1.01984033124023
30
0
41
1
10
28.522155940649
20
0.98028527224497
30
0
41
1
10
28.6471860694029
20
0.900563812541463
30
0
41
1
10
28.7096081109227
20
0.860371690408698
30
0
41
1
10
28.8966217341695
20
0.738852292241404
30
0
41
1
10
29.0209219862711
20
0.656530271809771
30
0
41
1
10
29.2687884455156
20
0.489316387390943
30
0
41
1
10
29.3923738019217
20
0.40445213758386
30
0
41
1
10
29.5463276975579
20
0.296644239858097
30
0
41
1
10
29.5770909269379
20
0.274994422438681
30
0
41
1
10
29.6385686497818
20
0.231526195416933
30
0
41
1
10
29.6693063306477
20
0.209741054843363
30
0
41
1
10
29.7617453241617
20
0.144565580371932
30
0
41
1
10
29.8234612881593
20
0.101049634426261
30
0
41
1
10
30.0091101141822
20
-0.0293542459967853
30
0
41
1
10
30.1335370031156
20
-0.116104463288309
30
0
41
1
10
30.3210732274706
20
-0.246093951097436
30
0
41
1
10
30.3837962150295
20
-0.289421750514066
30
0
41
1
10
30.509323466121
20
-0.375855160894957
30
0
41
1
10
30.5720129593704
20
-0.418890110241961
30
0
41
1
10
30.7598468400236
20
-0.54746202608996
30
0
41
1
10
30.8847964354397
20
-0.632411417829957
30
0
41
1
10
31.0096198933137
20
-0.716357004347628
30
0
0
SPLINE
5
1D9
100
AcDbEntity
8
1
62
256
6
ByLayer
370
18
48
1
60
0
100
AcDbSpline
70
4
71
3
72
16
73
12
40
0
40
0
40
0
40
0
40
0.25
40
0.25
40
0.5
40
0.5
40
0.75
40
0.75
40
0.875
40
0.875
40
1
40
1
40
1
40
1
41
1
10
31.0096198933132
20
-0.716357004347259
30
0
41
1
10
31.0500055557019
20
-0.743516948270155
30
0
41
1
10
31.090032147842
20
-0.771351743190564
30
0
41
1
10
31.1693053939981
20
-0.828436225125301
30
0
41
1
10
31.2085475050847
20
-0.857691862051183
30
0
41
1
10
31.2860989640774
20
-0.917823417535601
30
0
41
1
10
31.3244088192293
20
-0.948698197757579
30
0
41
1
10
31.3811022315953
20
-0.996347014936759
30
0
41
1
10
31.3998379951118
20
-1.0124252795465
30
0
41
1
10
31.4368270414438
20
-1.044847982661
30
0
41
1
10
31.4551026835121
20
-1.06121083114834
30
0
41
1
10
31.4731541607322
20
-1.07772267311194
30
0
0
SPLINE
5
1DA
100
AcDbEntity
8
1
62
256
6
ByLayer
370
18
48
1
60
0
100
AcDbSpline
70
4
71
3
72
12
73
8
40
0
40
0
40
0
40
0
40
0.5
40
0.5
40
0.75
40
0.75
40
1
40
1
40
1
40
1
41
1
10
31.4731541607322
20
-1.07772267311194
30
0
41
1
10
31.5384493420613
20
-1.1374487388486
30
0
41
1
10
31.6038410046016
20
-1.19714631417864
30
0
41
1
10
31.702083915797
20
-1.28663111573292
30
0
41
1
10
31.7348557198027
20
-1.31645107662115
30
0
41
1
10
31.8004746100552
20
-1.3760433588885
30
0
41
1
10
31.8333725326739
20
-1.40575885218467
30
0
41
1
10
31.8660998781029
20
-1.43568249311832
30
0
0
SPLINE
5
1DB
100
AcDbEntity
8
1
62
256
6
ByLayer
370
18
48
1
60
0
100
AcDbSpline
70
4
71
3
72
19
73
15
40
0
40
0
40
0
40
0
40
0.249999999999926
40
0.249999999999926
40
0.374999999999938
40
0.374999999999938
40
0.49999999999995
40
0.624999999999963
40
0.624999999999963
40
0.749999999999975
40
0.749999999999975
40
0.874999999999988
40
0.874999999999988
40
1
40
1
40
1
40
1
41
1
10
31.8660998781029
20
-1.43568249311832
30
0
41
1
10
31.8767911600932
20
-1.44294592814799
30
0
41
1
10
31.8875336638328
20
-1.45067777064415
30
0
41
1
10
31.903705397059
20
-1.46310013775732
30
0
41
1
10
31.9091359829786
20
-1.46740493472657
30
0
41
1
10
31.9198442975916
20
-1.47619437611181
30
0
41
1
10
31.9303861940847
20
-1.48514893879067
30
0
41
1
10
31.9405608375529
20
-1.49446909720712
30
0
41
1
10
31.9505222673858
20
-1.50400199643454
30
0
41
1
10
31.9554122330717
20
-1.50889460654244
30
0
41
1
10
31.9646570499958
20
-1.51863948590273
30
0
41
1
10
31.9690463577212
20
-1.52352257542452
30
0
41
1
10
31.9772909690622
20
-1.53331275279078
30
0
41
1
10
31.9811642842551
20
-1.53824732993942
30
0
41
1
10
31.9846265900816
20
-1.54307320039589
30
0
0
SPLINE
5
1DC
100
AcDbEntity
8
1
62
256
6
ByLayer
370
18
48
1
60
0
100
AcDbSpline
70
4
71
3
72
8
73
4
40
0
40
0
40
0
40
0
40
1
40
1
40
1
40
1
41
1
10
31.9846265900815
20
-1.5430732003957
30
0
41
1
10
31.9863766481267
20
-1.54551248618986
30
0
41
1
10
31.9881263032854
20
-1.54795477614297
30
0
41
1
10
31.9898755596574
20
-1.55040006650987
30
0
0
SPLINE
5
1DD
100
AcDbEntity
8
1
62
256
6
ByLayer
370
18
48
1
60
0
100
AcDbSpline
70
4
71
3
72
10
73
6
40
0
40
0
40
0
40
0
40
0.5
40
0.5
40
1
40
1
40
1
40
1
41
1
10
31.9898755596573
20
-1.55040006650987
30
0
41
1
10
32.0770147679247
20
-1.6322432672722
30
0
41
1
10
32.1631281707178
20
-1.71537169012314
30
0
41
1
10
32.3336506470224
20
-1.88385749840836
30
0
41
1
10
32.4181095238243
20
-1.9691586230002
30
0
41
1
10
32.501928348579
20
-2.05536246870682
30
0
0
SPLINE
5
1DE
100
AcDbEntity
8
1
62
256
6
ByLayer
370
18
48
1
60
0
100
AcDbSpline
70
4
71
3
72
10
73
6
40
0
40
0
40
0
40
0
40
0.5
40
0.5
40
1
40
1
40
1
40
1
41
1
10
32.5019283485841
20
-2.05536246870219
30
0
41
1
10
32.5340056000133
20
-2.04813012816504
30
0
41
1
10
32.5662564025428
20
-2.03915421506434
30
0
41
1
10
32.6310784035097
20
-2.01772130374073
30
0
41
1
10
32.6636330286338
20
-2.00527741280416
30
0
41
1
10
32.6963645341044
20
-1.9910995964986
30
0
0
SPLINE
5
1DF
100
AcDbEntity
8
1
62
256
6
ByLayer
370
18
48
1
60
0
100
AcDbSpline
70
4
71
3
72
27
73
23
40
0
40
0
40
0
40
0
40
0.124999999999999
40
0.124999999999999
40
0.249999999999999
40
0.249999999999999
40
0.374999999999998
40
0.374999999999998
40
0.499999999999997
40
0.499999999999997
40
0.624999999999997
40
0.624999999999997
40
0.687499999999997
40
0.687499999999997
40
0.749999999999998
40
0.812499999999998
40
0.812499999999998
40
0.874999999999999
40
0.874999999999999
40
0.937499999999999
40
0.937499999999999
40
1
40
1
40
1
40
1
41
1
10
32.6963645341044
20
-1.9910995964986
30
0
41
1
10
32.702951634818
20
-1.98824636067698
30
0
41
1
10
32.7106261817799
20
-1.98691603512063
30
0
41
1
10
32.7276171950784
20
-1.98651495392952
30
0
41
1
10
32.7370438048318
20
-1.9874926541882
30
0
41
1
10
32.756658270433
20
-1.99140018323359
30
0
41
1
10
32.7669010395454
20
-1.99431496054254
30
0
41
1
10
32.7881804852085
20
-2.00197180818245
30
0
41
1
10
32.7992802176041
20
-2.00675928769013
30
0
41
1
10
32.8214516460061
20
-2.01791256111369
30
0
41
1
10
32.8326147932174
20
-2.02430103036727
30
0
41
1
10
32.8494569398297
20
-2.03527457840926
30
0
41
1
10
32.8551193879481
20
-2.03919092603013
30
0
41
1
10
32.8662922377389
20
-2.04742313940858
30
0
41
1
10
32.8773033146601
20
-2.05604141908807
30
0
41
1
10
32.8879551499815
20
-2.06550306567172
30
0
41
1
10
32.8983964840363
20
-2.07545301225369
30
0
41
1
10
32.9035198546697
20
-2.08068712631189
30
0
41
1
10
32.9132085902566
20
-2.09140332924326
30
0
41
1
10
32.9178127023489
20
-2.09691915255735
30
0
41
1
10
32.9264629709013
20
-2.1083171073864
30
0
41
1
10
32.9305179114879
20
-2.11422165905031
30
0
41
1
10
32.9341249036035
20
-2.12017485016074
30
0
0
SPLINE
5
1E0
100
AcDbEntity
8
1
62
256
6
ByLayer
370
18
48
1
60
0
100
AcDbSpline
70
4
71
3
72
10
73
6
40
0
40
0
40
0
40
0
40
0.5
40
0.5
40
1
40
1
40
1
40
1
41
1
10
32.9341249036047
20
-2.12017485016128
30
0
41
1
10
32.9860860611943
20
-2.20593458889959
30
0
41
1
10
33.0376518585548
20
-2.29317318845722
30
0
41
1
10
33.1402133203332
20
-2.47041785563809
30
0
41
1
10
33.1910771474051
20
-2.56019714714662
30
0
41
1
10
33.2416050176228
20
-2.65100254586676
30
0
0
SPLINE
5
1E1
100
AcDbEntity
8
1
62
256
6
ByLayer
370
18
48
1
60
0
100
AcDbSpline
70
4
71
3
72
8
73
4
40
0
40
0
40
0
40
0
40
1
40
1
40
1
40
1
41
1
10
33.3293593831195
20
-2.69935804350919
30
0
41
1
10
33.3000994694126
20
-2.68355895259447
30
0
41
1
10
33.2708481791661
20
-2.66744016974363
30
0
41
1
10
33.2416050176228
20
-2.65100254586676
30
0
0
SPLINE
5
1E2
100
AcDbEntity
8
1
62
256
6
ByLayer
370
18
48
1
60
0
100
AcDbSpline
70
4
71
3
72
10
73
6
40
0
40
0
40
0
40
0
40
0.5
40
0.5
40
1
40
1
40
1
40
1
41
1
10
33.3293593831195
20
-2.69935804350962
30
0
41
1
10
33.3812883917036
20
-2.66320586547101
30
0
41
1
10
33.4335922864189
20
-2.62299906545664
30
0
41
1
10
33.5390407015707
20
-2.53455657153853
30
0
41
1
10
33.5921514832082
20
-2.48634756902237
30
0
41
1
10
33.6456616211036
20
-2.43422870736279
30
0
0
SPLINE
5
1E3
100
AcDbEntity
8
1
62
256
6
ByLayer
370
18
48
1
60
0
100
AcDbSpline
70
4
71
3
72
27
73
23
40
0
40
0
40
0
40
0
40
0.125
40
0.125
40
0.25
40
0.25
40
0.375
40
0.375
40
0.5
40
0.5
40
0.625
40
0.625
40
0.6875
40
0.6875
40
0.75
40
0.8125
40
0.8125
40
0.875
40
0.875
40
0.9375
40
0.9375
40
1
40
1
40
1
40
1
41
1
10
33.6456616211038
20
-2.43422870736359
30
0
41
1
10
33.6522618136935
20
-2.42780012134159
30
0
41
1
10
33.6599547692258
20
-2.42302273710655
30
0
41
1
10
33.6769879241218
20
-2.41592666946255
30
0
41
1
10
33.6864390879687
20
-2.41363125041454
30
0
41
1
10
33.7060970324704
20
-2.41141216586956
30
0
41
1
10
33.7163595465759
20
-2.41144639215588
30
0
41
1
10
33.7376705745779
20
-2.41367707068122
30
0
41
1
10
33.7487784349276
20
-2.4159100356701
30
0
41
1
10
33.7709535282107
20
-2.4224728725813
30
0
41
1
10
33.7821136920581
20
-2.42679955453318
30
0
41
1
10
33.7989431901146
20
-2.43505859680371
30
0
41
1
10
33.804599795707
20
-2.43812967465848
30
0
41
1
10
33.8157492140141
20
-2.44483173253127
30
0
41
1
10
33.8267364942289
20
-2.45208536061816
30
0
41
1
10
33.837363672113
20
-2.46053944576772
30
0
41
1
10
33.8477810942412
20
-2.46968400157186
30
0
41
1
10
33.8528917834544
20
-2.47461725129048
30
0
41
1
10
33.8625589158295
20
-2.48498524022793
30
0
41
1
10
33.8671538446808
20
-2.49044977024036
30
0
41
1
10
33.8757894311066
20
-2.50203080302464
30
0
41
1
10
33.879839560575
20
-2.50817364580544
30
0
41
1
10
33.8834443466818
20
-2.51453148131006
30
0
0
SPLINE
5
1E4
100
AcDbEntity
8
1
62
256
6
ByLayer
370
18
48
1
60
0
100
AcDbSpline
70
4
71
3
72
8
73
4
40
0
40
0
40
0
40
0
40
1
40
1
40
1
40
1
41
1
10
34.2788805718048
20
-3.09279377269439
30
0
41
1
10
34.2495621240071
20
-3.08464064162254
30
0
41
1
10
34.2202776605544
20
-3.0761073223874
30
0
41
1
10
34.1910230549563
20
-3.06719500584202
30
0
0
SPLINE
5
1E5
100
AcDbEntity
8
1
62
256
6
ByLayer
370
18
48
1
60
0
100
AcDbSpline
70
4
71
3
72
8
73
4
40
0
40
0
40
0
40
0
40
1
40
1
40
1
40
1
41
1
10
35.2282389547559
20
-3.2208251844757
30
0
41
1
10
35.1989834253996
20
-3.22110375141548
30
0
41
1
10
35.169716689599
20
-3.22098271840713
30
0
41
1
10
35.1404388677048
20
-3.22046558097466
30
0
0
SPLINE
5
1E6
100
AcDbEntity
8
1
62
256
6
ByLayer
370
18
48
1
60
0
100
AcDbSpline
70
4
71
3
72
8
73
4
40
0
40
0
40
0
40
0
40
1
40
1
40
1
40
1
41
1
10
39.3728302302767
20
1.67251131898598
30
0
41
1
10
39.4021200839539
20
1.64764834245435
30
0
41
1
10
39.4313954735422
20
1.62258328372121
30
0
41
1
10
39.4606546255176
20
1.59731447968551
30
0
0
SPLINE
5
1E7
100
AcDbEntity
8
1
62
256
6
ByLayer
370
18
48
1
60
0
100
AcDbSpline
70
4
71
3
72
8
73
4
40
0
40
0
40
0
40
0
40
1
40
1
40
1
40
1
41
1
10
38.4233987985096
20
2.39749960600915
30
0
41
1
10
38.4526701881633
20
2.37795617901415
30
0
41
1
10
38.4819399107991
20
2.35812657537892
30
0
41
1
10
38.5112133632548
20
2.33801523941437
30
0
0
SPLINE
5
1E8
100
AcDbEntity
8
1
62
256
6
ByLayer
370
18
48
1
60
0
100
AcDbSpline
70
4
71
3
72
8
73
4
40
0
40
0
40
0
40
0
40
1
40
1
40
1
40
1
41
1
10
37.473883149903
20
2.91733571709128
30
0
41
1
10
37.5031625854809
20
2.90497159627364
30
0
41
1
10
37.5324332488197
20
2.89225223616782
30
0
41
1
10
37.5617034360443
20
2.87918181807197
30
0
0
SPLINE
5
1E9
100
AcDbEntity
8
1
62
256
6
ByLayer
370
18
48
1
60
0
100
AcDbSpline
70
4
71
3
72
8
73
4
40
0
40
0
40
0
40
0
40
1
40
1
40
1
40
1
41
1
10
36.5243888188066
20
3.18774692890628
30
0
41
1
10
36.5536575242708
20
3.1835853569861
30
0
41
1
10
36.582914501501
20
3.17903569456999
30
0
41
1
10
36.6121644627508
20
3.17409889804401
30
0
0
SPLINE
5
1EA
100
AcDbEntity
8
1
62
256
6
ByLayer
370
18
48
1
60
0
100
AcDbSpline
70
4
71
3
72
63
73
59
40
0
40
0
40
0
40
0
40
0.0096632504127118
40
0.0096632504127118
40
0.039673454945657
40
0.0696836594786021
40
0.0696836594786021
40
0.0846887617450747
40
0.0996938640115472
40
0.0996938640115472
40
0.129704068544495
40
0.129704068544495
40
0.159714273077443
40
0.159714273077443
40
0.219734682143338
40
0.219734682143338
40
0.279755091209234
40
0.279755091209234
40
0.339775500275129
40
0.339775500275129
40
0.369785704808077
40
0.369785704808077
40
0.399795909341024
40
0.399795909341024
40
0.429806113873972
40
0.429806113873972
40
0.444811216140445
40
0.444811216140445
40
0.459816318406917
40
0.51983672747281
40
0.51983672747281
40
0.579857136538703
40
0.579857136538703
40
0.639877545604596
40
0.639877545604596
40
0.669887750137541
40
0.669887750137541
40
0.699897954670486
40
0.699897954670486
40
0.71490305693696
40
0.71490305693696
40
0.729908159203434
40
0.729908159203434
40
0.759918363736384
40
0.759918363736384
40
0.789928568269334
40
0.789928568269334
40
0.804933670535811
40
0.804933670535811
40
0.819938772802287
40
0.819938772802287
40
0.879959181868191
40
0.879959181868191
40
0.939979590934094
40
0.939979590934094
40
0.969989795467047
40
0.969989795467047
40
1
40
1
40
1
40
1
41
1
10
26.1292033599673
20
-2.27500013737122
30
0
41
1
10
26.1121121309622
20
-2.27500368385603
30
0
41
1
10
26.0950191545518
20
-2.27491281439336
30
0
41
1
10
26.0248413756262
20
-2.27415003195429
30
0
41
1
10
25.9186496151962
20
-2.27116162491967
30
0
41
1
10
25.8122676979134
20
-2.2644237474112
30
0
41
1
10
25.732355015002
20
-2.2579380900267
30
0
41
1
10
25.6789951505989
20
-2.25313197330158
30
0
41
1
10
25.6257944740964
20
-2.24739195105315
30
0
41
1
10
25.5460992211351
20
-2.23808696072942
30
0
41
1
10
25.4931547910256
20
-2.23094078354694
30
0
41
1
10
25.3871176768613
20
-2.2149476439198
30
0
41
1
10
25.3339283448008
20
-2.20614086296229
30
0
41
1
10
25.174370385989
20
-2.17722970668271
30
0
41
1
10
25.0681308640392
20
-2.1545913352156
30
0
41
1
10
24.85647889681
20
-2.10234231364473
30
0
41
1
10
24.7510305162394
20
-2.0727284182237
30
0
41
1
10
24.5404414089329
20
-2.00660259699887
30
0
41
1
10
24.4353451402756
20
-1.97005600001563
30
0
41
1
10
24.2774317943812
20
-1.91027685830522
30
0
41
1
10
24.2247276835257
20
-1.88954063321532
30
0
41
1
10
24.118977570504
20
-1.84662300698665
30
0
41
1
10
24.0659358361893
20
-1.82443601582216
30
0
41
1
10
23.9591369990495
20
-1.77899055529275
30
0
41
1
10
23.9054148302077
20
-1.75571133935503
30
0
41
1
10
23.8247725963088
20
-1.7195657039471
30
0
41
1
10
23.797854470816
20
-1.70731295554586
30
0
41
1
10
23.7441291974578
20
-1.68248550291923
30
0
41
1
10
23.6100232117079
20
-1.61957989054704
30
0
41
1
10
23.476913676515
20
-1.55254037253854
30
0
41
1
10
23.2650999374769
20
-1.4400689283901
30
0
41
1
10
23.1598104500175
20
-1.38118153847265
30
0
41
1
10
22.9497728746183
20
-1.25881902242401
30
0
41
1
10
22.845037448535
20
-1.19532707032013
30
0
41
1
10
22.687712463804
20
-1.09739540576143
30
0
41
1
10
22.6351657212988
20
-1.06438729895362
30
0
41
1
10
22.5295034355912
20
-0.99813310690763
30
0
41
1
10
22.4764617819566
20
-0.96479736694846
30
0
41
1
10
22.3969798273299
20
-0.913964086044814
30
0
41
1
10
22.3704798145255
20
-0.896905853555012
30
0
41
1
10
22.3173306206736
20
-0.862746891727255
30
0
41
1
10
22.2906953336678
20
-0.845628138455879
30
0
41
1
10
22.2107173316669
20
-0.794007783359746
30
0
41
1
10
22.1573515554709
20
-0.759174876571791
30
0
41
1
10
22.0505922612072
20
-0.688554984857632
30
0
41
1
10
21.9971801483743
20
-0.652793279650609
30
0
41
1
10
21.9169669228718
20
-0.598518127757103
30
0
41
1
10
21.8901980909048
20
-0.580310489678965
30
0
41
1
10
21.8367842022394
20
-0.543804395799043
30
0
41
1
10
21.8101221508435
20
-0.525494550674836
30
0
41
1
10
21.6770178933691
20
-0.433688085189743
30
0
41
1
10
21.5712371911974
20
-0.35935712824002
30
0
41
1
10
21.3602102159414
20
-0.210181520510957
30
0
41
1
10
21.2548969825507
20
-0.135433296456085
30
0
41
1
10
21.096774695036
20
-0.0237177803299176
30
0
41
1
10
21.0440520818694
20
0.0134676326117074
30
0
41
1
10
20.9384322129305
20
0.0875259440790614
30
0
41
1
10
20.8855230342022
20
0.124381879083273
30
0
41
1
10
20.8326466313186
20
0.161254242080815
30
0
0
SPLINE
5
1EB
100
AcDbEntity
8
1
62
256
6
ByLayer
370
18
48
1
60
0
100
AcDbSpline
70
4
71
3
72
48
73
44
40
0
40
0
40
0
40
0
40
0.0790607576970745
40
0.0790607576970745
40
0.11859113654561
40
0.11859113654561
40
0.158121515394146
40
0.158121515394146
40
0.237182273091221
40
0.237182273091221
40
0.316243030788295
40
0.316243030788295
40
0.355773409636833
40
0.355773409636833
40
0.3755385990611
40
0.3755385990611
40
0.395303788485367
40
0.395303788485367
40
0.434834167333899
40
0.434834167333899
40
0.47436454618243
40
0.47436454618243
40
0.553425303879493
40
0.553425303879493
40
0.632486061576556
40
0.632486061576556
40
0.672016440425087
40
0.672016440425087
40
0.711546819273619
40
0.711546819273619
40
0.731312008697886
40
0.731312008697886
40
0.751077198122153
40
0.751077198122153
40
0.770842387546421
40
0.770842387546421
40
0.790607576970688
40
0.790607576970688
40
0.869668334667757
40
0.869668334667757
40
0.948729092364826
40
0.948729092364826
40
1
40
1
40
1
40
1
41
1
10
19.0934352527362
20
-1.68937027416976
30
0
41
1
10
19.2184058520781
20
-1.74763367861993
30
0
41
1
10
19.3427671339162
20
-1.80199693754162
30
0
41
1
10
19.5283461553586
20
-1.87773767417411
30
0
41
1
10
19.5900307295454
20
-1.90202483967443
30
0
41
1
10
19.7131817706541
20
-1.9485468141273
30
0
41
1
10
19.7746786149856
20
-1.97075514646386
30
0
41
1
10
19.9594995261969
20
-2.03383808623812
30
0
41
1
10
20.0830202479817
20
-2.07129004025458
30
0
41
1
10
20.3308090204623
20
-2.13706383805695
30
0
41
1
10
20.4550869355081
20
-2.1653812892522
30
0
41
1
10
20.6421600365015
20
-2.20087365392692
30
0
41
1
10
20.7046236943719
20
-2.21153974897482
30
0
41
1
10
20.7984828988028
20
-2.2257538677928
30
0
41
1
10
20.8298255389759
20
-2.23019793010826
30
0
41
1
10
20.8923922992267
20
-2.23846048997078
30
0
41
1
10
20.923614778599
20
-2.24227963921788
30
0
41
1
10
21.017101753148
20
-2.25279944236269
30
0
41
1
10
21.079154266356
20
-2.25856634784577
30
0
41
1
10
21.2030203432493
20
-2.26754967621366
30
0
41
1
10
21.2649110910893
20
-2.27075803617359
30
0
41
1
10
21.4505581869696
20
-2.27661600258543
30
0
41
1
10
21.5742920038935
20
-2.27551043286317
30
0
41
1
10
21.8218417690707
20
-2.26357011513789
30
0
41
1
10
21.9456458242824
20
-2.25273681974923
30
0
41
1
10
22.1314132651335
20
-2.2291462080521
30
0
41
1
10
22.1933430914188
20
-2.22005607695942
30
0
41
1
10
22.3171912306054
20
-2.19936568364488
30
0
41
1
10
22.379110322335
20
-2.187762764231
30
0
41
1
10
22.4721205252981
20
-2.16848444760276
30
0
41
1
10
22.503131249101
20
-2.1617400749146
30
0
41
1
10
22.5651778657359
20
-2.14760982715853
30
0
41
1
10
22.5962151432511
20
-2.14022363641738
30
0
41
1
10
22.6584589168244
20
-2.12487834253309
30
0
41
1
10
22.689652601283
20
-2.11691373597719
30
0
41
1
10
22.7521673103682
20
-2.10039390198159
30
0
41
1
10
22.7834675612413
20
-2.09184544969548
30
0
41
1
10
22.9397200396498
20
-2.04779355441221
30
0
41
1
10
23.0643555893974
20
-2.00827217009711
30
0
41
1
10
23.3130474429802
20
-1.92110205510127
30
0
41
1
10
23.4370596936692
20
-1.87342292315464
30
0
41
1
10
23.6409248143161
20
-1.78806076838851
30
0
41
1
10
23.7209900139726
20
-1.75276516380728
30
0
41
1
10
23.8009288654237
20
-1.71572365436862
30
0
0
SPLINE
5
1EC
100
AcDbEntity
8
1
62
256
6
ByLayer
370
18
48
1
60
0
100
AcDbSpline
70
4
71
3
72
14
73
10
40
0
40
0
40
0
40
0
40
0.0019752194373368
40
0.0019752194373368
40
0.168312682864441
40
0.168312682864441
40
0.334650146291546
40
0.334650146291546
40
1
40
1
40
1
40
1
41
1
10
31.6725239876043
20
2.52334188730396
30
0
41
1
10
31.6729217531952
20
2.52358114089054
30
0
41
1
10
31.6733195238102
20
2.52382035082434
30
0
41
1
10
31.7072148388892
20
2.54420022385415
30
0
41
1
10
31.7407459074689
20
2.56402970501122
30
0
41
1
10
31.8079067198412
20
2.60310472845671
30
0
41
1
10
31.8415726808128
20
2.62237846768636
30
0
41
1
10
32.0090053638966
20
2.71651126033325
30
0
41
1
10
32.1406573934726
20
2.78501496833834
30
0
41
1
10
32.2706392611557
20
2.84571135071906
30
0
0
SPLINE
5
1ED
100
AcDbEntity
8
1
62
256
6
ByLayer
370
18
48
1
60
0
100
AcDbSpline
70
4
71
3
72
8
73
4
40
0
40
0
40
0
40
0
40
1
40
1
40
1
40
1
41
1
10
33.0129382957951
20
2.99970123678921
30
0
41
1
10
32.9836605110321
20
3.01028296785779
30
0
41
1
10
32.9543964788125
20
3.02050242556172
30
0
41
1
10
32.9251434881759
20
3.03035757460933
30
0
0
SPLINE
5
1EE
100
AcDbEntity
8
1
62
256
6
ByLayer
370
18
48
1
60
0
100
AcDbSpline
70
4
71
3
72
8
73
4
40
0
40
0
40
0
40
0
40
1
40
1
40
1
40
1
41
1
10
36.8107101827348
20
0.0792806874650864
30
0
41
1
10
36.7814193228096
20
0.108691057724684
30
0
41
1
10
36.7521630894566
20
0.138108266019287
30
0
41
1
10
36.7228846801956
20
0.16747550121562
30
0
0
SPLINE
5
1EF
100
AcDbEntity
8
1
62
256
6
ByLayer
370
18
48
1
60
0
100
AcDbSpline
70
4
71
3
72
8
73
4
40
0
40
0
40
0
40
0
40
1
40
1
40
1
40
1
41
1
10
37.7601380543271
20
-0.854133470873279
30
0
41
1
10
37.7308679648318
20
-0.826148022737556
30
0
41
1
10
37.7015958747744
20
-0.798077139449134
30
0
41
1
10
37.6723213509897
20
-0.769921500459816
30
0
0
SPLINE
5
1F0
100
AcDbEntity
8
1
62
256
6
ByLayer
370
18
48
1
60
0
100
AcDbSpline
70
4
71
3
72
8
73
4
40
0
40
0
40
0
40
0
40
1
40
1
40
1
40
1
41
1
10
38.7096644089943
20
-1.71779645216245
30
0
41
1
10
38.6803857366753
20
-1.69322905164762
30
0
41
1
10
38.6511255836864
20
-1.66845115859959
30
0
41
1
10
38.6218809259412
20
-1.64346516862881
30
0
0
SPLINE
5
1F1
100
AcDbEntity
8
1
62
256
6
ByLayer
370
18
48
1
60
0
100
AcDbSpline
70
4
71
3
72
8
73
4
40
0
40
0
40
0
40
0
40
1
40
1
40
1
40
1
41
1
10
39.6591481969849
20
-2.43194421195361
30
0
41
1
10
39.6298243599638
20
-2.41265033054452
30
0
41
1
10
39.6005593173793
20
-2.39302463337785
30
0
41
1
10
39.571271220607
20
-2.37312137708457
30
0
0
SPLINE
5
1F2
100
AcDbEntity
8
1
62
256
6
ByLayer
370
18
48
1
60
0
100
AcDbSpline
70
4
71
3
72
38
73
34
40
0
40
0
40
0
40
0
40
0.124999999999979
40
0.124999999999979
40
0.249999999999957
40
0.249999999999957
40
0.312499999999951
40
0.312499999999951
40
0.374999999999945
40
0.374999999999945
40
0.43749999999994
40
0.43749999999994
40
0.499999999999934
40
0.499999999999934
40
0.562499999999928
40
0.562499999999928
40
0.624999999999922
40
0.624999999999922
40
0.656249999999919
40
0.656249999999919
40
0.687499999999916
40
0.687499999999916
40
0.749999999999917
40
0.749999999999917
40
0.781249999999923
40
0.781249999999923
40
0.812499999999928
40
0.812499999999928
40
0.874999999999952
40
0.874999999999952
40
0.937499999999976
40
0.937499999999976
40
1
40
1
40
1
40
1
41
1
10
42.9999999999826
20
-1.01194079081611
30
0
41
1
10
43.0360113017703
20
-1.02652296089312
30
0
41
1
10
43.0707386119626
20
-1.04026834893969
30
0
41
1
10
43.1364866124349
20
-1.06649633256535
30
0
41
1
10
43.1675223223632
20
-1.07897207574908
30
0
41
1
10
43.2098518857083
20
-1.09734092544997
30
0
41
1
10
43.2232501728046
20
-1.10341023146441
30
0
41
1
10
43.248239146041
20
-1.11562605709727
30
0
41
1
10
43.259850091829
20
-1.12178231890897
30
0
41
1
10
43.2806477171679
20
-1.13440386443818
30
0
41
1
10
43.2897872748092
20
-1.14083714485437
30
0
41
1
10
43.3049282224665
20
-1.15431047791134
30
0
41
1
10
43.3109312978903
20
-1.16134819620658
30
0
41
1
10
43.3189984359572
20
-1.17655886958977
30
0
41
1
10
43.3210344430962
20
-1.18477918618038
30
0
41
1
10
43.3202579768917
20
-1.20262768463206
30
0
41
1
10
43.3174826932813
20
-1.21228823833957
30
0
41
1
10
43.3093861990188
20
-1.22837982222182
30
0
41
1
10
43.3060322736509
20
-1.23401136912668
30
0
41
1
10
43.2979611083976
20
-1.2459039185259
30
0
41
1
10
43.2932415167955
20
-1.25216029085331
30
0
41
1
10
43.2773498640863
20
-1.27159888699657
30
0
41
1
10
43.2643719374355
20
-1.28556925046632
30
0
41
1
10
43.2417610501079
20
-1.30826455248865
30
0
41
1
10
43.2336997132756
20
-1.31611916185875
30
0
41
1
10
43.2165922116895
20
-1.33244112433977
30
0
41
1
10
43.2075043169261
20
-1.3409467671006
30
0
41
1
10
43.1792130158948
20
-1.36709640257965
30
0
41
1
10
43.1590176389264
20
-1.38535568519561
30
0
41
1
10
43.1165882935505
20
-1.42355096003038
30
0
41
1
10
43.094351980836
20
-1.44348534492803
30
0
41
1
10
43.048236823819
20
-1.48504165515035
30
0
41
1
10
43.0243144300877
20
-1.5067025889573
30
0
41
1
10
42.9999999999825
20
-1.52893280178105
30
0
0
SPLINE
5
1F3
100
AcDbEntity
8
1
62
256
6
ByLayer
370
18
48
1
60
0
100
AcDbSpline
70
4
71
3
72
90
73
86
40
0
40
0
40
0
40
0
40
0.0312500000000177
40
0.0312500000000177
40
0.0625000000000354
40
0.0625000000000354
40
0.125000000000068
40
0.125000000000068
40
0.187500000000101
40
0.187500000000101
40
0.218750000000117
40
0.234375000000125
40
0.234375000000125
40
0.250000000000133
40
0.250000000000133
40
0.312500000000156
40
0.312500000000156
40
0.343750000000166
40
0.343750000000166
40
0.359375000000171
40
0.359375000000171
40
0.375000000000176
40
0.375000000000176
40
0.406250000000183
40
0.406250000000183
40
0.43750000000019
40
0.43750000000019
40
0.453125000000192
40
0.453125000000192
40
0.468750000000194
40
0.468750000000194
40
0.484375000000196
40
0.484375000000196
40
0.492187500000195
40
0.492187500000195
40
0.500000000000195
40
0.500000000000195
40
0.515625000000191
40
0.515625000000191
40
0.52343750000019
40
0.52343750000019
40
0.53125000000019
40
0.53125000000019
40
0.546875000000191
40
0.546875000000191
40
0.554687500000191
40
0.554687500000191
40
0.55859375000019
40
0.55859375000019
40
0.56250000000019
40
0.578125000000185
40
0.578125000000185
40
0.585937500000183
40
0.585937500000183
40
0.593750000000181
40
0.593750000000181
40
0.609375000000176
40
0.609375000000176
40
0.617187500000174
40
0.617187500000174
40
0.625000000000171
40
0.625000000000171
40
0.640625000000166
40
0.640625000000166
40
0.65625000000016
40
0.65625000000016
40
0.671875000000154
40
0.671875000000154
40
0.687500000000149
40
0.687500000000149
40
0.718750000000136
40
0.718750000000136
40
0.750000000000123
40
0.750000000000123
40
0.78125000000011
40
0.78125000000011
40
0.796875000000104
40
0.796875000000104
40
0.812500000000097
40
0.812500000000097
40
0.875000000000065
40
0.875000000000065
40
0.937500000000033
40
0.937500000000033
40
1
40
1
40
1
40
1
41
1
10
20.8326251588842
20
0.16120461373194
30
0
41
1
10
20.7752503302591
20
0.197533407183698
30
0
41
1
10
20.7171847029047
20
0.232059358423157
30
0
41
1
10
20.5997898436866
20
0.297873682574959
30
0
41
1
10
20.5404511670975
20
0.329140428831323
30
0
41
1
10
20.3609451467181
20
0.419131215263974
30
0
41
1
10
20.2396570687675
20
0.474893095700906
30
0
41
1
10
19.9931254026993
20
0.576681121898872
30
0
41
1
10
19.8678836336282
20
0.622711690147213
30
0
41
1
10
19.6764281241051
20
0.683326090520268
30
0
41
1
10
19.5798054671538
20
0.711533049143753
30
0
41
1
10
19.481689351179
20
0.736302800975125
30
0
41
1
10
19.4159297034913
20
0.752019695982227
30
0
41
1
10
19.3829147550713
20
0.759472749551293
30
0
41
1
10
19.2176874275032
20
0.794481836760554
30
0
41
1
10
19.0845300905216
20
0.81554333101198
30
0
41
1
10
18.8830279553332
20
0.834994745804892
30
0
41
1
10
18.8155643374078
20
0.83944057501219
30
0
41
1
10
18.7138611298427
20
0.842641410144893
30
0
41
1
10
18.6798234881764
20
0.843132525569075
30
0
41
1
10
18.6119762220339
20
0.84285286992764
30
0
41
1
10
18.5781366419054
20
0.842084026292582
30
0
41
1
10
18.476881177434
20
0.837804775229927
30
0
41
1
10
18.4097230643817
20
0.832365123679551
30
0
41
1
10
18.2762598899463
20
0.815044253901959
30
0
41
1
10
18.2099455708646
20
0.803234832448425
30
0
41
1
10
18.1112917378206
20
0.779246136539172
30
0
41
1
10
18.078444602943
20
0.770158169782661
30
0
41
1
10
18.0138832014025
20
0.749732234960277
30
0
41
1
10
17.982123457661
20
0.738353884567118
30
0
41
1
10
17.919763212057
20
0.712969989475511
30
0
41
1
10
17.8891603945518
20
0.698969936088105
30
0
41
1
10
17.844291945144
20
0.675591389487749
30
0
41
1
10
17.8294716282355
20
0.667376714717761
30
0
41
1
10
17.8004236012145
20
0.650160138360292
30
0
41
1
10
17.7862177604044
20
0.641169460502283
30
0
41
1
10
17.7445762174939
20
0.613014139464156
30
0
41
1
10
17.7181245207816
20
0.592657884113123
30
0
41
1
10
17.6807465208296
20
0.559296819967955
30
0
41
1
10
17.6686715600482
20
0.547703847317706
30
0
41
1
10
17.6453636068114
20
0.5234747142309
30
0
41
1
10
17.6340900932731
20
0.510782644401701
30
0
41
1
10
17.6021862161335
20
0.471640040642342
30
0
41
1
10
17.5833682584304
20
0.443988007654269
30
0
41
1
10
17.5590826248737
20
0.399965685212408
30
0
41
1
10
17.5516442081949
20
0.384867486347019
30
0
41
1
10
17.5415220689753
20
0.36154639543787
30
0
41
1
10
17.5383160711482
20
0.353645100096998
30
0
41
1
10
17.5323214614525
20
0.337783058190098
30
0
41
1
10
17.5183338951604
20
0.297890879232512
30
0
41
1
10
17.5092763687312
20
0.256823153729101
30
0
41
1
10
17.5027593762461
20
0.206479589468898
30
0
41
1
10
17.5013144339453
20
0.189492842744414
30
0
41
1
10
17.4998420741439
20
0.155287736523093
30
0
41
1
10
17.4998195495529
20
0.138264001338428
30
0
41
1
10
17.5016640738561
20
0.0874027752005873
30
0
41
1
10
17.5054318003242
20
0.0537739409041933
30
0
41
1
10
17.5142086970448
20
0.0036697990095718
30
0
41
1
10
17.5176593941283
20
-0.0129745768593352
30
0
41
1
10
17.5255210430713
20
-0.0461597289307747
30
0
41
1
10
17.5299445890142
20
-0.0627357914729032
30
0
41
1
10
17.5443705976975
20
-0.111772661622098
30
0
41
1
10
17.5555503172149
20
-0.14371084538945
30
0
41
1
10
17.5803811229952
20
-0.206382437829916
30
0
41
1
10
17.594036266414
20
-0.237113994034246
30
0
41
1
10
17.6233874808478
20
-0.297571272247495
30
0
41
1
10
17.6390570666903
20
-0.327308441215564
30
0
41
1
10
17.6720726044558
20
-0.38594365658355
30
0
41
1
10
17.6894687695325
20
-0.414859025802883
30
0
41
1
10
17.7433696405698
20
-0.499439377897602
30
0
41
1
10
17.7817657282089
20
-0.553315603422561
30
0
41
1
10
17.8622279169175
20
-0.6572239283621
30
0
41
1
10
17.9043174390321
20
-0.707237397225214
30
0
41
1
10
17.9911206888702
20
-0.804337327801136
30
0
41
1
10
18.0358312991823
20
-0.851424611242493
30
0
41
1
10
18.1043795846436
20
-0.920276538512468
30
0
41
1
10
18.127467649652
20
-0.942915648491521
30
0
41
1
10
18.1738369796411
20
-0.987410874729505
30
0
41
1
10
18.1971496435584
20
-1.00929861542673
30
0
41
1
10
18.3142533620471
20
-1.11708771172519
30
0
41
1
10
18.4096117675108
20
-1.1981237402471
30
0
41
1
10
18.6022004199541
20
-1.35198242170725
30
0
41
1
10
18.699449251555
20
-1.42477300868717
30
0
41
1
10
18.8953465944127
20
-1.56279398808201
30
0
41
1
10
18.9939988187194
20
-1.62801306111694
30
0
41
1
10
19.0934358680169
20
-1.68936791618785
30
0
0
SPLINE
5
1F4
100
AcDbEntity
8
1
62
256
6
ByLayer
370
18
48
1
60
0
100
AcDbSpline
70
4
71
3
72
36
73
32
40
0
40
0
40
0
40
0
40
0.0614905948367892
40
0.0614905948367892
40
0.129115246063619
40
0.129115246063619
40
0.196739897290448
40
0.196739897290448
40
0.264364548517277
40
0.264364548517277
40
0.331989199744106
40
0.331989199744106
40
0.399613850970935
40
0.399613850970935
40
0.467238502197764
40
0.467238502197764
40
0.534863153424593
40
0.534863153424593
40
0.602487804651423
40
0.602487804651423
40
0.670112455878252
40
0.670112455878252
40
0.737737107105081
40
0.737737107105081
40
0.80536175833191
40
0.80536175833191
40
0.872986409558739
40
0.872986409558739
40
0.940611060785568
40
0.940611060785568
40
1
40
1
40
1
40
1
41
1
10
19.0934358695008
20
-1.68936790143411
30
0
41
1
10
19.0985909563638
20
-1.63811469842526
30
0
41
1
10
19.1072573115477
20
-1.58392603234239
30
0
41
1
10
19.133028786291
20
-1.46740340873291
30
0
41
1
10
19.1513145038132
20
-1.40432607561161
30
0
41
1
10
19.1931294848608
20
-1.27592832991527
30
0
41
1
10
19.2173460919826
20
-1.20994483830847
30
0
41
1
10
19.2720671748244
20
-1.07726487767144
30
0
41
1
10
19.3024523318225
20
-1.01078432357818
30
0
41
1
10
19.3698536948462
20
-0.87751502693996
30
0
41
1
10
19.4072282267349
20
-0.81016471344148
30
0
41
1
10
19.4871536603109
20
-0.67892128745666
30
0
41
1
10
19.5296970665645
20
-0.614835030182604
30
0
41
1
10
19.6204170818261
20
-0.490014152279343
30
0
41
1
10
19.6688938087698
20
-0.42911870883367
30
0
41
1
10
19.7675145966346
20
-0.31621357249665
30
0
41
1
10
19.8181315310457
20
-0.263471956774225
30
0
41
1
10
19.921905470625
20
-0.165203260157711
30
0
41
1
10
19.9752714628992
20
-0.119631881818634
30
0
41
1
10
20.0800815306489
20
-0.0390739100817825
30
0
41
1
10
20.1320827672563
20
-0.0035284912513589
30
0
41
1
10
20.2353294417528
20
0.0587023956625217
30
0
41
1
10
20.286663990045
20
0.085348056957713
30
0
41
1
10
20.3854015344459
20
0.128692085655416
30
0
41
1
10
20.433250224693
20
0.145693417351737
30
0
41
1
10
20.5261651501683
20
0.171146565134364
30
0
41
1
10
20.5714613354035
20
0.179581181956309
30
0
41
1
10
20.6574376212998
20
0.188099808118039
30
0
41
1
10
20.6983221066902
20
0.188286773566176
30
0
41
1
10
20.7714760221817
20
0.181599385907845
30
0
41
1
10
20.8038451166226
20
0.174642163096792
30
0
41
1
10
20.8326235452669
20
0.161205367146692
30
0
0
SPLINE
5
1F5
100
AcDbEntity
8
SK1
62
256
6
ByLayer
370
18
48
1
60
0
100
AcDbSpline
70
4
71
3
72
22
73
18
40
0
40
0
40
0
40
0
40
0.124967739658156
40
0.124967739658156
40
0.249935479316313
40
0.249935479316313
40
0.499870958632626
40
0.499870958632626
40
0.624838698290783
40
0.624838698290783
40
0.687322568119861
40
0.687322568119861
40
0.749806437948939
40
0.749806437948939
40
0.999741917265252
40
0.999741917265252
40
1
40
1
40
1
40
1
41
1
10
-21.9999999999999
20
2.49999999999997
30
0
41
1
10
-22.0368519557634
20
2.49999999999997
30
0
41
1
10
-22.0727259749087
20
2.49999999999997
30
0
41
1
10
-22.1415573860337
20
2.49999999999997
30
0
41
1
10
-22.174565230966
20
2.49999999999997
30
0
41
1
10
-22.2686569400717
20
2.49999999999997
30
0
41
1
10
-22.3248528637307
20
2.49999999999997
30
0
41
1
10
-22.3957773883992
20
2.49999999999997
30
0
41
1
10
-22.4171797390849
20
2.49999999999997
30
0
41
1
10
-22.4453815419302
20
2.49999999999997
30
0
41
1
10
-22.4541311962383
20
2.49999999999997
30
0
41
1
10
-22.4702308375099
20
2.49999999999997
30
0
41
1
10
-22.4775955163041
20
2.49999999999997
30
0
41
1
10
-22.5104583225686
20
2.49999999999997
30
0
41
1
10
-22.5239734451929
20
2.49999999999997
30
0
41
1
10
-22.5239989950441
20
2.49999999999997
30
0
41
1
10
-22.5240010011693
20
2.49999999999997
30
0
41
1
10
-22.5239990068944
20
2.49999999999997
30
0
0
SPLINE
5
1F6
100
AcDbEntity
8
SK1
62
256
6
ByLayer
370
18
48
1
60
0
100
AcDbSpline
70
4
71
3
72
22
73
18
40
0
40
0
40
0
40
0
40
0.000258011978457
40
0.000258011978457
40
0.250193508983843
40
0.250193508983843
40
0.31267738323519
40
0.31267738323519
40
0.375161257486536
40
0.375161257486536
40
0.500129005989229
40
0.500129005989229
40
0.750064502994615
40
0.750064502994615
40
0.875032251497307
40
0.875032251497307
40
1
40
1
40
1
40
1
41
1
10
-22.5239990068915
20
-2.50000000000003
30
0
41
1
10
-22.5240010011621
20
-2.50000000000003
30
0
41
1
10
-22.5239989950327
20
-2.50000000000003
30
0
41
1
10
-22.5239734451929
20
-2.50000000000003
30
0
41
1
10
-22.5104583225686
20
-2.50000000000003
30
0
41
1
10
-22.4775955163041
20
-2.50000000000003
30
0
41
1
10
-22.4702308375099
20
-2.50000000000003
30
0
41
1
10
-22.4541311962383
20
-2.50000000000003
30
0
41
1
10
-22.4453815419301
20
-2.50000000000003
30
0
41
1
10
-22.4171797390848
20
-2.50000000000003
30
0
41
1
10
-22.3957773883991
20
-2.50000000000003
30
0
41
1
10
-22.3248528637307
20
-2.50000000000003
30
0
41
1
10
-22.2686569400717
20
-2.50000000000003
30
0
41
1
10
-22.1745652309659
20
-2.50000000000003
30
0
41
1
10
-22.1415573860337
20
-2.50000000000003
30
0
41
1
10
-22.0727259749087
20
-2.50000000000003
30
0
41
1
10
-22.0368519557634
20
-2.50000000000003
30
0
41
1
10
-22
20
-2.50000000000003
30
0
0
SPLINE
5
1F7
100
AcDbEntity
8
SK1
62
256
6
ByLayer
370
18
48
1
60
0
100
AcDbSpline
70
4
71
3
72
34
73
30
40
0
40
0
40
0
40
0
40
0.0624999999999999
40
0.0624999999999999
40
0.125
40
0.125
40
0.25
40
0.25
40
0.375
40
0.375
40
0.40625
40
0.40625
40
0.4375
40
0.4375
40
0.5
40
0.5
40
0.625
40
0.625
40
0.65625
40
0.65625
40
0.6875
40
0.6875
40
0.75
40
0.75
40
0.875
40
0.875
40
0.9375
40
0.9375
40
1
40
1
40
1
40
1
41
1
10
-22
20
-1.70134535000986
30
0
41
1
10
-22.036750628305
20
-1.63602416169635
30
0
41
1
10
-22.0724875832975
20
-1.56994339739748
30
0
41
1
10
-22.1415235904747
20
-1.43595507469874
30
0
41
1
10
-22.1746439552497
20
-1.36838667570899
30
0
41
1
10
-22.2689398440316
20
-1.16402979386791
30
0
41
1
10
-22.3251618862328
20
-1.02546531318006
30
0
41
1
10
-22.4196251549161
20
-0.742037922156896
30
0
41
1
10
-22.457856850503
20
-0.597171673281593
30
0
41
1
10
-22.4907286954401
20
-0.410863373258223
30
0
41
1
10
-22.4965471877507
20
-0.373352815842225
30
0
41
1
10
-22.5065114691807
20
-0.298534938922359
30
0
41
1
10
-22.5106743779613
20
-0.261136723815639
30
0
41
1
10
-22.5206728881255
20
-0.148974674231141
30
0
41
1
10
-22.5240132183229
20
-0.0742435016566958
30
0
41
1
10
-22.5239734451929
20
0.149818325493754
30
0
41
1
10
-22.5104583225686
20
0.299016317526935
30
0
41
1
10
-22.4775955163041
20
0.485304782285567
30
0
41
1
10
-22.4702308375099
20
0.522523877465744
30
0
41
1
10
-22.4541311962383
20
0.596254925165709
30
0
41
1
10
-22.4453815419301
20
0.632855784502624
30
0
41
1
10
-22.4171797390848
20
0.741919833563912
30
0
41
1
10
-22.3957773883991
20
0.813645491896949
30
0
41
1
10
-22.3248528637307
20
1.02628203952287
30
0
41
1
10
-22.2686569400717
20
1.16466903667055
30
0
41
1
10
-22.174565230966
20
1.36854417164778
30
0
41
1
10
-22.1415573860337
20
1.43588084070331
30
0
41
1
10
-22.0727259749087
20
1.56948932365535
30
0
41
1
10
-22.0368519557634
20
1.63584406055799
30
0
41
1
10
-22
20
1.70134535000977
30
0
0
SPLINE
5
1F8
100
AcDbEntity
8
1
62
256
6
ByLayer
370
18
48
1
60
0
100
AcDbSpline
70
4
71
2
72
6
73
3
40
0
40
0
40
0
40
1
40
1
40
1
41
1
10
41.1856700823847
20
-2.69977087682997
30
0
41
1
10
41.2548608149648
20
-2.81915893134325
30
0
41
1
10
41.3240349795763
20
-2.93858982579394
30
0
0
SPLINE
5
1F9
100
AcDbEntity
8
1
62
256
6
ByLayer
370
18
48
1
60
0
100
AcDbSpline
70
4
71
2
72
6
73
3
40
0
40
0
40
0
40
1
40
1
40
1
41
1
10
40.7532820821915
20
-3.08586223180018
30
0
41
1
10
40.8664903555895
20
-2.89058079652611
30
0
41
1
10
40.9797404336921
20
-2.69549636130842
30
0
0
SPLINE
5
1FA
100
AcDbEntity
8
1
62
256
6
ByLayer
370
18
48
1
60
0
100
AcDbSpline
70
4
71
2
72
6
73
3
40
0
40
0
40
0
40
1
40
1
40
1
41
1
10
35.2361508200009
20
-3.21455216364117
30
0
41
1
10
35.3290356849355
20
-3.05419322359902
30
0
41
1
10
35.4220749439734
20
-2.89392274591475
30
0
0
SPLINE
5
1FB
100
AcDbEntity
8
1
62
256
6
ByLayer
370
18
48
1
60
0
100
AcDbSpline
70
4
71
2
72
6
73
3
40
0
40
0
40
0
40
1
40
1
40
1
41
1
10
36.1264932476108
20
2.64612178126276
30
0
41
1
10
36.1188905564412
20
2.64551203694219
30
0
41
1
10
36.1103998288312
20
2.64561959285857
30
0
0
SPLINE
5
1FC
100
AcDbEntity
8
1
62
256
6
ByLayer
370
18
48
1
60
0
100
AcDbSpline
70
4
71
2
72
6
73
3
40
0
40
0
40
0
40
1
40
1
40
1
41
1
10
41.8946993678487
20
-2.67922860601453
30
0
41
1
10
41.9017544872941
20
-2.66464764776652
30
0
41
1
10
41.9154798262974
20
-2.65630060061136
30
0
0
SPLINE
5
1FD
100
AcDbEntity
8
1
62
256
6
ByLayer
370
18
48
1
60
0
100
AcDbSpline
70
4
71
2
72
6
73
3
40
0
40
0
40
0
40
1
40
1
40
1
41
1
10
41.9546289280466
20
-2.64542064121258
30
0
41
1
10
41.9644423375306
20
-2.64479134416865
30
0
41
1
10
41.9756847490618
20
-2.64549757613332
30
0
0
SPLINE
5
1FE
100
AcDbEntity
8
1
62
256
6
ByLayer
370
18
48
1
60
0
100
AcDbSpline
70
4
71
2
72
6
73
3
40
0
40
0
40
0
40
1
40
1
40
1
41
1
10
41.8096727104824
20
-2.82750206639187
30
0
41
1
10
41.8506386385895
20
-2.75703440545539
30
0
41
1
10
41.8916120255672
20
-2.68661733800516
30
0
0
SPLINE
5
1FF
100
AcDbEntity
8
1
62
256
6
ByLayer
370
18
48
1
60
0
100
AcDbSpline
70
4
71
3
72
11
73
7
40
0
40
0
40
0
40
0
40
0.242795483735497
40
0.500526377267338
40
0.757946299282891
40
1
40
1
40
1
40
1
41
1
10
34.6295728707629
20
-2.69631903087412
30
0
41
1
10
34.6391893563899
20
-2.67901426453327
30
0
41
1
10
34.6653715173106
20
-2.65228118843518
30
0
41
1
10
34.7350217291749
20
-2.63100761328957
30
0
41
1
10
34.8047314074595
20
-2.65583233747248
30
0
41
1
10
34.8309327733794
20
-2.68522731656552
30
0
41
1
10
34.8405712549685
20
-2.70384427707876
30
0
0
SPLINE
5
200
100
AcDbEntity
8
1
62
256
6
ByLayer
370
18
48
1
60
0
100
AcDbSpline
70
4
71
2
72
6
73
3
40
0
40
0
40
0
40
1
40
1
40
1
41
1
10
36.4943609915904
20
3.21467230942827
30
0
41
1
10
36.3438780123524
20
2.95480267852383
30
0
41
1
10
36.1932900728938
20
2.69518579595072
30
0
0
SPLINE
5
201
100
AcDbEntity
8
1
62
256
6
ByLayer
370
18
48
1
60
0
100
AcDbSpline
70
4
71
1
72
4
73
2
40
0
40
0
40
1
40
1
41
1
10
41.3453078976327
20
-2.95043676356005
30
0
41
1
10
41.8032084086391
20
-2.83901906723611
30
0
0
SPLINE
5
202
100
AcDbEntity
8
1
62
256
6
ByLayer
370
18
48
1
60
0
100
AcDbSpline
70
4
71
2
72
6
73
3
40
0
40
0
40
0
40
1
40
1
40
1
41
1
10
36.8937795596284
20
2.7008753298642
30
0
41
1
10
36.7433600680757
20
2.96036080651373
30
0
41
1
10
36.5930084196848
20
3.22000799551066
30
0
0
SPLINE
5
203
100
AcDbEntity
8
1
62
256
6
ByLayer
370
18
48
1
60
0
100
AcDbSpline
70
4
71
3
72
11
73
7
40
0
40
0
40
0
40
0
40
0.225208701507489
40
0.470219382010037
40
0.731166540053012
40
1
40
1
40
1
40
1
41
1
10
37.0995137872412
20
2.69366109114043
30
0
41
1
10
37.092774317838
20
2.68052614085198
30
0
41
1
10
37.0719434053554
20
2.65882783938417
30
0
41
1
10
37.0098596401353
20
2.6325743161855
30
0
41
1
10
36.93600351533
20
2.65025474692777
30
0
41
1
10
36.9091962329199
20
2.67547164618111
30
0
41
1
10
36.8991898306375
20
2.69330083246211
30
0
0
SPLINE
5
204
100
AcDbEntity
8
1
62
256
6
ByLayer
370
18
48
1
60
0
100
AcDbSpline
70
4
71
3
72
11
73
7
40
0
40
0
40
0
40
0
40
0.229784227639802
40
0.476582250897363
40
0.735778143627802
40
1
40
1
40
1
40
1
41
1
10
40.9809286442985
20
-2.69354157184773
30
0
41
1
10
40.9880401648652
20
-2.67987233374257
30
0
41
1
10
41.0095854299413
20
-2.65769824466298
30
0
41
1
10
41.0730546242088
20
-2.63233768055019
30
0
41
1
10
41.1455513927092
20
-2.65117327415052
30
0
41
1
10
41.1715700809085
20
-2.67587349887594
30
0
41
1
10
41.1811015483423
20
-2.69306280301296
30
0
0
SPLINE
5
205
100
AcDbEntity
8
1
62
256
6
ByLayer
370
18
48
1
60
0
100
AcDbSpline
70
4
71
2
72
6
73
3
40
0
40
0
40
0
40
1
40
1
40
1
41
1
10
34.3290888218101
20
-3.21448529111243
30
0
41
1
10
34.4800059993377
20
-2.95404212050445
30
0
41
1
10
34.6311683342928
20
-2.69374998170946
30
0
0
SPLINE
5
206
100
AcDbEntity
8
1
62
256
6
ByLayer
370
18
48
1
60
0
100
AcDbSpline
70
4
71
2
72
6
73
3
40
0
40
0
40
0
40
1
40
1
40
1
41
1
10
33.9227164855781
20
-2.69007816430491
30
0
41
1
10
34.0738404707641
20
-2.95052798699322
30
0
41
1
10
34.224721201926
20
-3.21119444260995
30
0
0
SPLINE
5
207
100
AcDbEntity
8
1
62
256
6
ByLayer
370
18
48
1
60
0
100
AcDbSpline
70
4
71
3
72
10
73
6
40
0
40
0
40
0
40
0
40
0.46610733612598
40
0.728214274383804
40
1
40
1
40
1
40
1
41
1
10
33.7258566344126
20
-2.69044414424599
30
0
41
1
10
33.7438079869997
20
-2.65941313362558
30
0
41
1
10
33.7812427967273
20
-2.63389816180091
30
0
41
1
10
33.8843644876688
20
-2.64624004252366
30
0
41
1
10
33.9129700398076
20
-2.67417267087961
30
0
41
1
10
33.924661991838
20
-2.69368449822471
30
0
0
SPLINE
5
208
100
AcDbEntity
8
1
62
256
6
ByLayer
370
18
48
1
60
0
100
AcDbSpline
70
4
71
2
72
6
73
3
40
0
40
0
40
0
40
1
40
1
40
1
41
1
10
37.4013414857879
20
3.21442162198781
30
0
41
1
10
37.2505354353066
20
2.95397330730077
30
0
41
1
10
37.0995143088005
20
2.69366198957337
30
0
0
SPLINE
5
209
100
AcDbEntity
8
1
62
256
6
ByLayer
370
18
48
1
60
0
100
AcDbSpline
70
4
71
1
72
4
73
2
40
0
40
0
40
1
40
1
41
1
10
40.5506099147885
20
-3.1438098249923
30
0
41
1
10
40.7481480145708
20
-3.09574414136475
30
0
0
SPLINE
5
20A
100
AcDbEntity
8
1
62
256
6
ByLayer
370
18
48
1
60
0
100
AcDbSpline
70
4
71
2
72
6
73
3
40
0
40
0
40
0
40
1
40
1
40
1
41
1
10
40.2743246887185
20
-2.69365221462488
30
0
41
1
10
40.3987363910096
20
-2.90807596004097
30
0
41
1
10
40.522986638849
20
-3.12259917052668
30
0
0
SPLINE
5
20B
100
AcDbEntity
8
1
62
256
6
ByLayer
370
18
48
1
60
0
100
AcDbSpline
70
4
71
2
72
6
73
3
40
0
40
0
40
0
40
1
40
1
40
1
41
1
10
37.8060547653871
20
2.69364364273395
30
0
41
1
10
37.6548648978158
20
2.95399706402012
30
0
41
1
10
37.5039247199905
20
3.21450074970247
30
0
0
SPLINE
5
20C
100
AcDbEntity
8
1
62
256
6
ByLayer
370
18
48
1
60
0
100
AcDbSpline
70
4
71
3
72
11
73
7
40
0
40
0
40
0
40
0
40
0.24502934218974
40
0.499933774251578
40
0.751684528877879
40
1
40
1
40
1
40
1
41
1
10
38.0102297089817
20
2.6991112046241
30
0
41
1
10
37.9966370183545
20
2.67752795841193
30
0
41
1
10
37.9646191423734
20
2.64579672333835
30
0
41
1
10
37.8852301188753
20
2.63372757931785
30
0
41
1
10
37.8282555115632
20
2.66423706289845
30
0
41
1
10
37.8104145758055
20
2.68256359105155
30
0
41
1
10
37.8060473250597
20
2.69365645317578
30
0
0
SPLINE
5
20D
100
AcDbEntity
8
1
62
256
6
ByLayer
370
18
48
1
60
0
100
AcDbSpline
70
4
71
3
72
11
73
7
40
0
40
0
40
0
40
0
40
0.24556048102896
40
0.500629142300915
40
0.75209429054098
40
1
40
1
40
1
40
1
41
1
10
40.0701373149322
20
-2.69911896846855
30
0
41
1
10
40.0837210345618
20
-2.6775160366727
30
0
41
1
10
40.1157330376858
20
-2.64579975154007
30
0
41
1
10
40.1951184810593
20
-2.63369163742539
30
0
41
1
10
40.2521853998702
20
-2.66426959822161
30
0
41
1
10
40.2700314140398
20
-2.68266591608588
30
0
41
1
10
40.2744091409281
20
-2.69379747938274
30
0
0
SPLINE
5
20E
100
AcDbEntity
8
1
62
256
6
ByLayer
370
18
48
1
60
0
100
AcDbSpline
70
4
71
2
72
6
73
3
40
0
40
0
40
0
40
1
40
1
40
1
41
1
10
33.4221075358548
20
-3.21430175428674
30
0
41
1
10
33.5726141197642
20
-2.95456275458668
30
0
41
1
10
33.7232266736336
20
-2.69513139827177
30
0
0
SPLINE
5
20F
100
AcDbEntity
8
1
62
256
6
ByLayer
370
18
48
1
60
0
100
AcDbSpline
70
4
71
2
72
6
73
3
40
0
40
0
40
0
40
1
40
1
40
1
41
1
10
33.0192212279938
20
-2.69637915029068
30
0
41
1
10
33.1704264071853
20
-2.95700709595971
30
0
41
1
10
33.3213696143798
20
-3.21754698370043
30
0
0
SPLINE
5
210
100
AcDbEntity
8
1
62
256
6
ByLayer
370
18
48
1
60
0
100
AcDbSpline
70
4
71
2
72
6
73
3
40
0
40
0
40
0
40
1
40
1
40
1
41
1
10
32.8996542886626
20
-2.65155374106069
30
0
41
1
10
32.9715105144925
20
-2.61785035565279
30
0
41
1
10
33.0154405683059
20
-2.68976313615121
30
0
0
SPLINE
5
211
100
AcDbEntity
8
1
62
256
6
ByLayer
370
18
48
1
60
0
100
AcDbSpline
70
4
71
2
72
6
73
3
40
0
40
0
40
0
40
1
40
1
40
1
41
1
10
39.7717087860135
20
-3.21446337720829
30
0
41
1
10
39.9226471832937
20
-2.95397441559879
30
0
41
1
10
40.0738346784803
20
-2.69363491165592
30
0
0
SPLINE
5
212
100
AcDbEntity
8
1
62
256
6
ByLayer
370
18
48
1
60
0
100
AcDbSpline
70
4
71
2
72
6
73
3
40
0
40
0
40
0
40
1
40
1
40
1
41
1
10
38.308472897751
20
3.21452939621395
30
0
41
1
10
38.1576667929133
20
2.95408148062779
30
0
41
1
10
38.0066449139419
20
2.6937675968793
30
0
0
SPLINE
5
213
100
AcDbEntity
8
1
62
256
6
ByLayer
370
18
48
1
60
0
100
AcDbSpline
70
4
71
2
72
6
73
3
40
0
40
0
40
0
40
1
40
1
40
1
41
1
10
39.3645541701166
20
-2.68852115214031
30
0
41
1
10
39.5149070302755
20
-2.94732867962489
30
0
41
1
10
39.6651936807413
20
-3.20654429372399
30
0
0
SPLINE
5
214
100
AcDbEntity
8
1
62
256
6
ByLayer
370
18
48
1
60
0
100
AcDbSpline
70
4
71
1
72
4
73
2
40
0
40
0
40
1
40
1
41
1
10
9.39762825520702
20
-9.32868706253609
30
0
41
1
10
17.9973839349559
20
-1.43700518125513
30
0
0
SPLINE
5
215
100
AcDbEntity
8
1
62
256
6
ByLayer
370
18
48
1
60
0
100
AcDbSpline
70
4
71
2
72
6
73
3
40
0
40
0
40
0
40
1
40
1
40
1
41
1
10
38.7165629399566
20
2.68708193619972
30
0
41
1
10
38.5661288747947
20
2.94562416333784
30
0
41
1
10
38.4157641437725
20
3.2046479528461
30
0
0
LINE
5
7F
100
AcDbEntity
8
80
62
256
6
ByLayer
370
18
48
1
60
0
100
AcDbLine
10
0
20
0
30
0
11
-5
21
0
31
0
39
0
210
0
220
0
230
1
0
LINE
5
80
100
AcDbEntity
8
4
62
256
6
ByLayer
370
18
48
0.05
60
0
100
AcDbLine
10
0
20
0
30
0
11
44.55
21
0
31
0
39
0
210
0
220
0
230
1
0
LINE
5
82
100
AcDbEntity
8
81
62
256
6
ByLayer
370
18
48
1
60
0
100
AcDbLine
10
44.55
20
0
30
0
11
49.55
21
0
31
0
39
0
210
0
220
0
230
1
0
LINE
5
83
100
AcDbEntity
8
SK4
62
256
6
ByLayer
370
18
48
0.05
60
0
100
AcDbLine
10
-23
20
0
30
0
11
44.55
21
0
31
0
39
0
210
0
220
0
230
1
0
LINE
5
85
100
AcDbEntity
8
1
62
256
6
ByLayer
370
18
48
1
60
0
100
AcDbLine
10
0
20
3.15
30
0
11
0
21
-3.15
31
0
39
0
210
0
220
0
230
1
0
LINE
5
86
100
AcDbEntity
8
1
62
256
6
ByLayer
370
18
48
1
60
0
100
AcDbLine
10
41.808368
20
-2.829742
30
0
11
41.807156
21
-2.832633
31
0
39
0
210
0
220
0
230
1
0
LINE
5
87
100
AcDbEntity
8
1
62
256
6
ByLayer
370
18
48
1
60
0
100
AcDbLine
10
36.893687
20
2.700972
30
0
11
36.898119
21
2.695102
31
0
39
0
210
0
220
0
230
1
0
LINE
5
88
100
AcDbEntity
8
1
62
256
6
ByLayer
370
18
48
1
60
0
100
AcDbLine
10
41.185652
20
-2.69975
30
0
11
41.181732
21
-2.69415
31
0
39
0
210
0
220
0
230
1
0
LINE
5
89
100
AcDbEntity
8
1
62
256
6
ByLayer
370
18
48
1
60
0
100
AcDbLine
10
34.629188
20
-2.69689
30
0
11
34.631112
21
-2.693846
31
0
39
0
210
0
220
0
230
1
0
LINE
5
8A
100
AcDbEntity
8
1
62
256
6
ByLayer
370
18
48
1
60
0
100
AcDbLine
10
33.922882
20
-2.690403
30
0
11
33.92474
21
-2.693819
31
0
39
0
210
0
220
0
230
1
0
LINE
5
8B
100
AcDbEntity
8
1
62
256
6
ByLayer
370
18
48
1
60
0
100
AcDbLine
10
37.099541
20
2.693708
30
0
11
37.101268
21
2.696484
31
0
39
0
210
0
220
0
230
1
0
LINE
5
8C
100
AcDbEntity
8
1
62
256
6
ByLayer
370
18
48
1
60
0
100
AcDbLine
10
40.069136
20
-2.7003
30
0
11
40.073897
21
-2.693527
31
0
39
0
210
0
220
0
230
1
0
LINE
5
8D
100
AcDbEntity
8
1
62
256
6
ByLayer
370
18
48
1
60
0
100
AcDbLine
10
38.006661
20
2.693795
30
0
11
38.010843
21
2.699857
31
0
39
0
210
0
220
0
230
1
0
LINE
5
8E
100
AcDbEntity
8
1
62
256
6
ByLayer
370
18
48
1
60
0
100
AcDbLine
10
39.361418
20
-2.68138
30
0
11
39.364685
21
-2.688791
31
0
39
0
210
0
220
0
230
1
0
LINE
5
8F
100
AcDbEntity
8
1
62
256
6
ByLayer
370
18
48
1
60
0
100
AcDbLine
10
35.140439
20
-3.220466
30
0
11
35.142961
21
-3.220972
31
0
39
0
210
0
220
0
230
1
0
LINE
5
90
100
AcDbEntity
8
1
62
256
6
ByLayer
370
18
48
1
60
0
100
AcDbLine
10
33.016078
20
-2.691007
30
0
11
33.019227
21
-2.696388
31
0
39
0
210
0
220
0
230
1
0
LINE
5
91
100
AcDbEntity
8
1
62
256
6
ByLayer
370
13
48
1
60
0
100
AcDbLine
10
31.473154
20
-1.077723
30
0
11
31.473154
21
-2.174997
31
0
39
0
210
0
220
0
230
1
0
LINE
5
92
100
AcDbEntity
8
1
62
256
6
ByLayer
370
13
48
1
60
0
100
AcDbLine
10
31.00962
20
-1.899503
30
0
11
31.00962
21
-0.716357
31
0
39
0
210
0
220
0
230
1
0
LINE
5
93
100
AcDbEntity
8
1
62
256
6
ByLayer
370
13
48
1
60
0
100
AcDbLine
10
31.00962
20
2.034018
30
0
11
31.00962
21
2.275
31
0
39
0
210
0
220
0
230
1
0
LINE
5
94
100
AcDbEntity
8
1
62
256
6
ByLayer
370
13
48
1
60
0
100
AcDbLine
10
16.096238
20
-2.275
30
0
11
16.096238
21
2.275
31
0
39
0
210
0
220
0
230
1
0
LINE
5
95
100
AcDbEntity
8
1
62
256
6
ByLayer
370
13
48
1
60
0
100
AcDbLine
10
31.473154
20
2.403549
30
0
11
31.473154
21
1.973404
31
0
39
0
210
0
220
0
230
1
0
LINE
5
96
100
AcDbEntity
8
1
62
256
6
ByLayer
370
13
48
1
60
0
100
AcDbLine
10
15.905225
20
2.291711
30
0
11
15.905225
21
-2.291711
31
0
39
0
210
0
220
0
230
1
0
LINE
5
97
100
AcDbEntity
8
1
62
256
6
ByLayer
370
18
48
1
60
0
100
AcDbLine
10
11.037628
20
3.15
30
0
11
11.037628
21
-3.15
31
0
39
0
210
0
220
0
230
1
0
LINE
5
98
100
AcDbEntity
8
SK1
62
256
6
ByLayer
370
18
48
1
60
0
100
AcDbLine
10
-23
20
2.024
30
0
11
-23
21
-2.024
31
0
39
0
210
0
220
0
230
1
0
LINE
5
9A
100
AcDbEntity
8
SK1
62
256
6
ByLayer
370
18
48
1
60
0
100
AcDbLine
10
-15
20
2.5
30
0
11
-14.476
21
3.024
31
0
39
0
210
0
220
0
230
1
0
LINE
5
9B
100
AcDbEntity
8
SK1
62
256
6
ByLayer
370
18
48
1
60
0
100
AcDbLine
10
-22
20
2.5
30
0
11
-15
21
2.5
31
0
39
0
210
0
220
0
230
1
0
LINE
5
9C
100
AcDbEntity
8
SK1
62
256
6
ByLayer
370
18
48
1
60
0
100
AcDbLine
10
-22
20
1.701345
30
0
11
-22
21
2.5
31
0
39
0
210
0
220
0
230
1
0
LINE
5
9D
100
AcDbEntity
8
SK1
62
256
6
ByLayer
370
18
48
1
60
0
100
AcDbLine
10
-15
20
1.701345
30
0
11
-22
21
1.701345
31
0
39
0
210
0
220
0
230
1
0
LINE
5
9E
100
AcDbEntity
8
SK1
62
256
6
ByLayer
370
18
48
1
60
0
100
AcDbLine
10
-22
20
-1.701345
30
0
11
-15
21
-1.701345
31
0
39
0
210
0
220
0
230
1
0
LINE
5
9F
100
AcDbEntity
8
SK1
62
256
6
ByLayer
370
18
48
1
60
0
100
AcDbLine
10
-22
20
-2.5
30
0
11
-22
21
-1.701345
31
0
39
0
210
0
220
0
230
1
0
LINE
5
A0
100
AcDbEntity
8
SK1
62
256
6
ByLayer
370
18
48
1
60
0
100
AcDbLine
10
-15
20
-2.5
30
0
11
-22
21
-2.5
31
0
39
0
210
0
220
0
230
1
0
LINE
5
A1
100
AcDbEntity
8
SK1
62
256
6
ByLayer
370
18
48
1
60
0
100
AcDbLine
10
-15
20
-2.5
30
0
11
-14.476
21
-3.024
31
0
39
0
210
0
220
0
230
1
0
LINE
5
A2
100
AcDbEntity
8
SK1
62
256
6
ByLayer
370
18
48
1
60
0
100
AcDbLine
10
-15
20
1.701345
30
0
11
-15
21
-1.701345
31
0
39
0
210
0
220
0
230
1
0
LINE
5
A3
100
AcDbEntity
8
SK1
62
256
6
ByLayer
370
18
48
1
60
0
100
AcDbLine
10
-14.2
20
3.024
30
0
11
-14.2
21
-3.024
31
0
39
0
210
0
220
0
230
1
0
LINE
5
A4
100
AcDbEntity
8
SK1
62
256
6
ByLayer
370
18
48
1
60
0
100
AcDbLine
10
0
20
3.15
30
0
11
0
21
-3.15
31
0
39
0
210
0
220
0
230
1
0
LINE
5
A5
100
AcDbEntity
8
SK1
62
256
6
ByLayer
370
18
48
1
60
0
100
AcDbLine
10
-14.074
20
-3.15
30
0
11
-14.074
21
3.15
31
0
39
0
210
0
220
0
230
1
0
LINE
5
A6
100
AcDbEntity
8
1
62
256
6
ByLayer
370
18
48
1
60
0
100
AcDbLine
10
31.671343
20
2.522633
30
0
11
31.473154
21
2.403549
31
0
39
0
210
0
220
0
230
1
0
LINE
5
A7
100
AcDbEntity
8
1
62
256
6
ByLayer
370
18
48
1
60
0
100
AcDbLine
10
11.037628
20
3.15
30
0
11
0
21
3.15
31
0
39
0
210
0
220
0
230
1
0
LINE
5
A8
100
AcDbEntity
8
1
62
256
6
ByLayer
370
18
48
1
60
0
100
AcDbLine
10
0
20
-3.15
30
0
11
11.037628
21
-3.15
31
0
39
0
210
0
220
0
230
1
0
LINE
5
A9
100
AcDbEntity
8
1
62
256
6
ByLayer
370
18
48
1
60
0
100
AcDbLine
10
39.34744
20
-2.668517
30
0
11
39.352318
21
-2.669075
31
0
39
0
210
0
220
0
230
1
0
LINE
5
AA
100
AcDbEntity
8
1
62
256
6
ByLayer
370
18
48
1
60
0
100
AcDbLine
10
38.733465
20
2.668219
30
0
11
38.727984
21
2.669056
31
0
39
0
210
0
220
0
230
1
0
LINE
5
AB
100
AcDbEntity
8
1
62
256
6
ByLayer
370
18
48
1
60
0
100
AcDbLine
10
35.142983
20
-3.220971
30
0
11
35.197561
21
-3.220971
31
0
39
0
210
0
220
0
230
1
0
LINE
5
AC
100
AcDbEntity
8
1
62
256
6
ByLayer
370
18
48
1
60
0
100
AcDbLine
10
36.587503
20
3.220971
30
0
11
36.503601
21
3.220971
31
0
39
0
210
0
220
0
230
1
0
LINE
5
AD
100
AcDbEntity
8
1
62
256
6
ByLayer
370
18
48
1
60
0
100
AcDbLine
10
34.235829
20
-3.220971
30
0
11
34.31974
21
-3.220971
31
0
39
0
210
0
220
0
230
1
0
LINE
5
AE
100
AcDbEntity
8
1
62
256
6
ByLayer
370
18
48
1
60
0
100
AcDbLine
10
37.494611
20
3.220971
30
0
11
37.410703
21
3.220971
31
0
39
0
210
0
220
0
230
1
0
LINE
5
AF
100
AcDbEntity
8
1
62
256
6
ByLayer
370
18
48
1
60
0
100
AcDbLine
10
44.55
20
0
30
0
11
43
21
1.55
31
0
39
0
210
0
220
0
230
1
0
LINE
5
B0
100
AcDbEntity
8
1
62
256
6
ByLayer
370
18
48
1
60
0
100
AcDbLine
10
43.239818
20
-1.310182
30
0
11
44.55
21
0
31
0
39
0
210
0
220
0
230
1
0
LINE
5
B1
100
AcDbEntity
8
1
62
256
6
ByLayer
370
18
48
1
60
0
100
AcDbLine
10
33.328776
20
-3.220971
30
0
11
33.412658
21
-3.220971
31
0
39
0
210
0
220
0
230
1
0
LINE
5
B2
100
AcDbEntity
8
1
62
256
6
ByLayer
370
18
48
1
60
0
100
AcDbLine
10
39.678444
20
-3.220971
30
0
11
39.762356
21
-3.220971
31
0
39
0
210
0
220
0
230
1
0
LINE
5
B3
100
AcDbEntity
8
1
62
256
6
ByLayer
370
18
48
1
60
0
100
AcDbLine
10
38.401689
20
3.220971
30
0
11
38.317815
21
3.220971
31
0
39
0
210
0
220
0
230
1
0
LINE
5
B4
100
AcDbEntity
8
1
62
256
6
ByLayer
370
18
48
1
60
0
100
AcDbLine
10
16.096238
20
-2.275
30
0
11
21.474838
21
-2.275
31
0
39
0
210
0
220
0
230
1
0
LINE
5
B5
100
AcDbEntity
8
1
62
256
6
ByLayer
370
18
48
1
60
0
100
AcDbLine
10
26.130085
20
-2.275
30
0
11
28.269715
21
-2.275
31
0
39
0
210
0
220
0
230
1
0
LINE
5
B6
100
AcDbEntity
8
1
62
256
6
ByLayer
370
18
48
1
60
0
100
AcDbLine
10
31.00962
20
2.275
30
0
11
29.510367
21
2.275
31
0
39
0
210
0
220
0
230
1
0
LINE
5
B7
100
AcDbEntity
8
1
62
256
6
ByLayer
370
18
48
1
60
0
100
AcDbLine
10
24.871209
20
2.275
30
0
11
22.750278
21
2.275
31
0
39
0
210
0
220
0
230
1
0
LINE
5
B8
100
AcDbEntity
8
1
62
256
6
ByLayer
370
18
48
1
60
0
100
AcDbLine
10
18.34766
20
2.275
30
0
11
16.096238
21
2.275
31
0
39
0
210
0
220
0
230
1
0
LINE
5
B9
100
AcDbEntity
8
1
62
256
6
ByLayer
370
18
48
1
60
0
100
AcDbLine
10
15.905225
20
2.291711
30
0
11
11.037628
21
3.15
31
0
39
0
210
0
220
0
230
1
0
LINE
5
BA
100
AcDbEntity
8
1
62
256
6
ByLayer
370
18
48
1
60
0
100
AcDbLine
10
11.037628
20
-3.15
30
0
11
15.905225
21
-2.291711
31
0
39
0
210
0
220
0
230
1
0
LINE
5
BB
100
AcDbEntity
8
SK1
62
256
6
ByLayer
370
18
48
1
60
0
100
AcDbLine
10
-23
20
-2.024
30
0
11
-22.524
21
-2.5
31
0
39
0
210
0
220
0
230
1
0
LINE
5
BC
100
AcDbEntity
8
SK1
62
256
6
ByLayer
370
18
48
1
60
0
100
AcDbLine
10
-22.524
20
2.5
30
0
11
-23
21
2.024
31
0
39
0
210
0
220
0
230
1
0
LINE
5
BD
100
AcDbEntity
8
SK1
62
256
6
ByLayer
370
18
48
1
60
0
100
AcDbLine
10
-14.2
20
3.024
30
0
11
-14.476
21
3.024
31
0
39
0
210
0
220
0
230
1
0
LINE
5
BE
100
AcDbEntity
8
SK1
62
256
6
ByLayer
370
18
48
1
60
0
100
AcDbLine
10
-14.476
20
-3.024
30
0
11
-14.2
21
-3.024
31
0
39
0
210
0
220
0
230
1
0
LINE
5
BF
100
AcDbEntity
8
SK1
62
256
6
ByLayer
370
18
48
1
60
0
100
AcDbLine
10
-14.2
20
-3.024
30
0
11
-14.074
21
-3.15
31
0
39
0
210
0
220
0
230
1
0
LINE
5
C0
100
AcDbEntity
8
SK1
62
256
6
ByLayer
370
18
48
1
60
0
100
AcDbLine
10
-14.074
20
3.15
30
0
11
-14.2
21
3.024
31
0
39
0
210
0
220
0
230
1
0
LINE
5
C1
100
AcDbEntity
8
SK1
62
256
6
ByLayer
370
18
48
1
60
0
100
AcDbLine
10
0
20
3.15
30
0
11
-14.074
21
3.15
31
0
39
0
210
0
220
0
230
1
0
LINE
5
C2
100
AcDbEntity
8
SK1
62
256
6
ByLayer
370
18
48
1
60
0
100
AcDbLine
10
-14.074
20
-3.15
30
0
11
0
21
-3.15
31
0
39
0
210
0
220
0
230
1
0
LINE
5
C3
100
AcDbEntity
8
SK2
62
256
6
ByLayer
370
18
48
1
60
0
100
AcDbLine
10
6.481814
20
19.449084
30
0
11
6.481814
21
-10.65
31
0
39
0
210
0
220
0
230
1
0
LINE
5
C5
100
AcDbEntity
8
1
62
256
6
ByLayer
370
18
48
1
60
1
100
AcDbLine
10
6.481814
20
3.15
30
0
11
6.02103
21
6.649998
31
0
39
0
210
0
220
0
230
1
0
LINE
5
C6
100
AcDbEntity
8
1
62
256
6
ByLayer
370
18
48
1
60
1
100
AcDbLine
10
6.02103
20
6.649998
30
0
11
6.942598
21
6.650002
31
0
39
0
210
0
220
0
230
1
0
LINE
5
C7
100
AcDbEntity
8
1
62
256
6
ByLayer
370
18
48
1
60
1
100
AcDbLine
10
6.942598
20
6.650002
30
0
11
6.481814
21
3.15
31
0
39
0
210
0
220
0
230
1
0
LINE
5
C8
100
AcDbEntity
8
1
62
256
6
ByLayer
370
18
48
1
60
1
100
AcDbLine
10
6.481814
20
-3.15
30
0
11
6.942598
21
-6.649998
31
0
39
0
210
0
220
0
230
1
0
LINE
5
C9
100
AcDbEntity
8
1
62
256
6
ByLayer
370
18
48
1
60
1
100
AcDbLine
10
6.942598
20
-6.649998
30
0
11
6.02103
21
-6.650002
31
0
39
0
210
0
220
0
230
1
0
LINE
5
CA
100
AcDbEntity
8
1
62
256
6
ByLayer
370
18
48
1
60
1
100
AcDbLine
10
6.02103
20
-6.650002
30
0
11
6.481814
21
-3.15
31
0
39
0
210
0
220
0
230
1
0
LINE
5
CB
100
AcDbEntity
8
2
62
256
6
ByLayer
370
18
48
1
60
0
100
AcDbLine
10
43
20
-40.720971
30
0
11
-23
21
-40.720971
31
0
39
0
210
0
220
0
230
1
0
LINE
5
CD
100
AcDbEntity
8
2
62
256
6
ByLayer
370
18
48
1
60
0
100
AcDbLine
10
-23
20
-3.6115
30
0
11
-23
21
-42.720971
31
0
39
0
210
0
220
0
230
1
0
LINE
5
CE
100
AcDbEntity
8
2
62
256
6
ByLayer
370
18
48
1
60
0
100
AcDbLine
10
43
20
-4.808471
30
0
11
43
21
-42.720971
31
0
39
0
210
0
220
0
230
1
0
LINE
5
CF
100
AcDbEntity
8
1
62
256
6
ByLayer
370
18
48
1
60
1
100
AcDbLine
10
-23
20
-40.720971
30
0
11
-19.500002
21
-40.260187
31
0
39
0
210
0
220
0
230
1
0
LINE
5
D0
100
AcDbEntity
8
1
62
256
6
ByLayer
370
18
48
1
60
1
100
AcDbLine
10
-19.500002
20
-40.260187
30
0
11
-19.499998
21
-41.181755
31
0
39
0
210
0
220
0
230
1
0
LINE
5
D1
100
AcDbEntity
8
1
62
256
6
ByLayer
370
18
48
1
60
1
100
AcDbLine
10
-19.499998
20
-41.181755
30
0
11
-23
21
-40.720971
31
0
39
0
210
0
220
0
230
1
0
LINE
5
D2
100
AcDbEntity
8
1
62
256
6
ByLayer
370
18
48
1
60
1
100
AcDbLine
10
43
20
-40.720971
30
0
11
39.500002
21
-41.181755
31
0
39
0
210
0
220
0
230
1
0
LINE
5
D3
100
AcDbEntity
8
1
62
256
6
ByLayer
370
18
48
1
60
1
100
AcDbLine
10
39.500002
20
-41.181755
30
0
11
39.499998
21
-40.260187
31
0
39
0
210
0
220
0
230
1
0
LINE
5
D4
100
AcDbEntity
8
1
62
256
6
ByLayer
370
18
48
1
60
1
100
AcDbLine
10
39.499998
20
-40.260187
30
0
11
43
21
-40.720971
31
0
39
0
210
0
220
0
230
1
0
LINE
5
21A
100
AcDbEntity
8
1
62
256
6
ByLayer
370
18
48
1
60
1
100
AcDbLine
10
6.481814
20
3.15
30
0
11
6.02103
21
6.649998
31
0
39
0
210
0
220
0
230
1
0
LINE
5
21B
100
AcDbEntity
8
1
62
256
6
ByLayer
370
18
48
1
60
1
100
AcDbLine
10
6.02103
20
6.649998
30
0
11
6.942598
21
6.650002
31
0
39
0
210
0
220
0
230
1
0
LINE
5
21C
100
AcDbEntity
8
1
62
256
6
ByLayer
370
18
48
1
60
1
100
AcDbLine
10
6.942598
20
6.650002
30
0
11
6.481814
21
3.15
31
0
39
0
210
0
220
0
230
1
0
LINE
5
21E
100
AcDbEntity
8
1
62
256
6
ByLayer
370
18
48
1
60
1
100
AcDbLine
10
6.481814
20
-3.15
30
0
11
6.942598
21
-6.649998
31
0
39
0
210
0
220
0
230
1
0
LINE
5
21F
100
AcDbEntity
8
1
62
256
6
ByLayer
370
18
48
1
60
1
100
AcDbLine
10
6.942598
20
-6.649998
30
0
11
6.02103
21
-6.650002
31
0
39
0
210
0
220
0
230
1
0
LINE
5
220
100
AcDbEntity
8
1
62
256
6
ByLayer
370
18
48
1
60
1
100
AcDbLine
10
6.02103
20
-6.650002
30
0
11
6.481814
21
-3.15
31
0
39
0
210
0
220
0
230
1
0
LINE
5
223
100
AcDbEntity
8
1
62
256
6
ByLayer
370
18
48
1
60
1
100
AcDbLine
10
-23
20
-40.720971
30
0
11
-19.500002
21
-40.260187
31
0
39
0
210
0
220
0
230
1
0
LINE
5
224
100
AcDbEntity
8
1
62
256
6
ByLayer
370
18
48
1
60
1
100
AcDbLine
10
-19.500002
20
-40.260187
30
0
11
-19.499998
21
-41.181755
31
0
39
0
210
0
220
0
230
1
0
LINE
5
225
100
AcDbEntity
8
1
62
256
6
ByLayer
370
18
48
1
60
1
100
AcDbLine
10
-19.499998
20
-41.181755
30
0
11
-23
21
-40.720971
31
0
39
0
210
0
220
0
230
1
0
LINE
5
227
100
AcDbEntity
8
1
62
256
6
ByLayer
370
18
48
1
60
1
100
AcDbLine
10
43
20
-40.720971
30
0
11
39.500002
21
-41.181755
31
0
39
0
210
0
220
0
230
1
0
LINE
5
228
100
AcDbEntity
8
1
62
256
6
ByLayer
370
18
48
1
60
1
100
AcDbLine
10
39.500002
20
-41.181755
30
0
11
39.499998
21
-40.260187
31
0
39
0
210
0
220
0
230
1
0
LINE
5
229
100
AcDbEntity
8
1
62
256
6
ByLayer
370
18
48
1
60
1
100
AcDbLine
10
39.499998
20
-40.260187
30
0
11
43
21
-40.720971
31
0
39
0
210
0
220
0
230
1
0
MTEXT
5
216
100
AcDbEntity
8
SK2
62
256
6
ByLayer
370
18
48
1
60
0
100
AcDbMText
10
5.1407
20
8.808438
30
0
210
0
220
0
230
1
1
%%c
40
3
41
0
44
1.084337
50
90
71
7
72
5
7
iso_b_vert
0
MTEXT
5
219
100
AcDbEntity
8
SK2
62
256
6
ByLayer
370
18
48
1
60
0
100
AcDbMText
10
5.1407
20
14.785
30
0
210
0
220
0
230
1
1
\W0.7121;6.3
40
3
41
0
44
1.084337
50
90
71
7
72
5
7
iso_b_vert
0
MTEXT
5
222
100
AcDbEntity
8
2
62
256
6
ByLayer
370
18
48
1
60
0
100
AcDbMText
10
8.367172
20
-39.835857
30
0
210
0
220
0
230
1
1
\W0.6740;66
40
3
41
0
44
1.084337
50
0
71
7
72
5
7
iso_b_vert
0
MTEXT
5
22B
100
AcDbEntity
8
SK6
62
256
6
ByLayer
370
18
48
1
60
0
100
AcDbMText
10
-7.792321
20
-82.114886
30
0
210
0
220
0
230
1
1
\W0.7339;T300-XM100IF-1/4    C145
40
3
41
0
44
1.084337
50
0
71
7
72
5
7
iso_b_vert
0
HATCH
5
21D
100
AcDbEntity
8
SK2
62
256
6
ByLayer
370
13
48
1
60
0
100
AcDbHatch
10
0
20
0
30
0
210
0
220
0
230
1
2
ANSI31
70
0
71
0
91
1
92
5
93
3
72
1
10
6.48181420391725
20
3.15000000000001
11
6.02103046236448
21
6.64999830744682
72
1
10
6.02103046236448
20
6.64999830744682
11
6.94259794547003
21
6.65000169255319
72
1
10
6.94259794547003
20
6.65000169255319
11
6.48181420391725
21
3.15000000000001
97
0
75
0
76
1
52
0
41
0.0062
77
0
78
1
53
45
43
0
44
0
45
-0.0139193969876572
46
0.0139193969876572
79
0
47
0
98
1
10
0
20
0
0
HATCH
5
221
100
AcDbEntity
8
SK2
62
256
6
ByLayer
370
13
48
1
60
0
100
AcDbHatch
10
0
20
0
30
0
210
0
220
0
230
1
2
ANSI31
70
0
71
0
91
1
92
5
93
3
72
1
10
6.48181420391725
20
-3.14999999999998
11
6.94259794547003
21
-6.64999830744679
72
1
10
6.94259794547003
20
-6.64999830744679
11
6.02103046236448
21
-6.65000169255316
72
1
10
6.02103046236448
20
-6.65000169255316
11
6.48181420391725
21
-3.14999999999998
97
0
75
0
76
1
52
0
41
0.0062
77
0
78
1
53
45
43
0
44
0
45
-0.0139193969876572
46
0.0139193969876572
79
0
47
0
98
1
10
0
20
0
0
HATCH
5
226
100
AcDbEntity
8
2
62
256
6
ByLayer
370
13
48
1
60
0
100
AcDbHatch
10
0
20
0
30
0
210
0
220
0
230
1
2
ANSI31
70
0
71
0
91
1
92
5
93
3
72
1
10
-23
20
-40.7209709655101
11
-19.5000016925532
21
-40.2601872239574
72
1
10
-19.5000016925532
20
-40.2601872239574
11
-19.4999983074468
21
-41.1817547070629
72
1
10
-19.4999983074468
20
-41.1817547070629
11
-23
21
-40.7209709655101
97
0
75
0
76
1
52
0
41
0.0062
77
0
78
1
53
45
43
0
44
0
45
-0.0139193969876572
46
0.0139193969876572
79
0
47
0
98
1
10
0
20
0
0
HATCH
5
22A
100
AcDbEntity
8
2
62
256
6
ByLayer
370
13
48
1
60
0
100
AcDbHatch
10
0
20
0
30
0
210
0
220
0
230
1
2
ANSI31
70
0
71
0
91
1
92
5
93
3
72
1
10
43
20
-40.7209709655101
11
39.5000016925532
21
-41.1817547070629
72
1
10
39.5000016925532
20
-41.1817547070629
11
39.4999983074468
21
-40.2601872239574
72
1
10
39.4999983074468
20
-40.2601872239574
11
43
21
-40.7209709655101
97
0
75
0
76
1
52
0
41
0.0062
77
0
78
1
53
45
43
0
44
0
45
-0.0139193969876572
46
0.0139193969876572
79
0
47
0
98
1
10
0
20
0
0
DIMENSION
5
22E
100
AcDbEntity
8
2
62
256
6
ByLayer
370
18
48
1
60
0
100
AcDbDimension
2
_U0
10
62.5
20
-3.220971
30
0
11
62.5
21
24.197569
31
0
70
32
71
1
72
1
41
1
210
0
220
0
230
1
3
Standard
100
AcDbAlignedDimension
13
43
23
3.220971
33
0
14
43
24
-3.220971
34
0
50
90
100
AcDbRotatedDimension
1001
ACAD
1000
DSTYLE
1002
{
1070
   371
1070
    13
1070
   372
1070
    13
1070
     3
1000

1070
   170
1070
     0
1070
   144
1040
1.0
1070
   277
1070
     2
1070
   284
1070
     8
1070
   278
1070
    46
1070
   146
1040
1.166667
1070
   345
1005
16
1070
   347
1005
16
1070
   346
1005
16
1070
   344
1005
0
1070
   343
1005
0
1070
   172
1070
     1
1070
    76
1070
     0
1070
    75
1070
     0
1070
   282
1070
     0
1070
   281
1070
     0
1070
    71
1070
     0
1070
    74
1070
     0
1070
   279
1070
     0
1070
   173
1070
     1
1070
   340
1005
217
1070
   271
1070
     3
1070
   272
1070
     3
1070
    77
1070
     1
1070
    73
1070
     0
1070
   171
1070
     3
1070
   274
1070
     4
1070
   177
1070
     2
1070
   176
1070
     2
1070
   178
1070
     2
1070
    78
1070
     8
1070
    48
1040
-0.1
1070
    41
1040
3.5
1070
   147
1040
1.5
1070
    42
1040
1.5875
1070
    44
1040
2.0
1070
   140
1040
3.0
1002
}
1001
ACAD_DSTYLE_DIM_LINETYPE
1070
   380
1005
16
1001
ACAD_DSTYLE_DIM_EXT1_LINETYPE
1070
   381
1005
16
1001
ACAD_DSTYLE_DIM_EXT2_LINETYPE
1070
   382
1005
16
0
DIMENSION
5
249
100
AcDbEntity
8
SK2
62
256
6
ByLayer
370
18
48
1
60
0
100
AcDbDimension
2
_U1
10
40.51
20
12.156496
30
0
11
41.755
21
12.156496
31
0
70
32
71
1
72
1
41
1
210
0
220
0
230
1
3
Standard
100
AcDbAlignedDimension
13
43
23
3.220971
33
0
14
40.51
24
0
34
0
50
0
100
AcDbRotatedDimension
1001
ACAD
1000
DSTYLE
1002
{
1070
   371
1070
    13
1070
   372
1070
    13
1070
   170
1070
     0
1070
   144
1040
1.0
1070
   277
1070
     2
1070
   284
1070
     8
1070
   278
1070
    46
1070
   146
1040
1.166667
1070
   345
1005
16
1070
   347
1005
16
1070
   346
1005
16
1070
   344
1005
0
1070
   343
1005
0
1070
   172
1070
     1
1070
    76
1070
     0
1070
    75
1070
     0
1070
   282
1070
     0
1070
   281
1070
     0
1070
    71
1070
     0
1070
    74
1070
     0
1070
   279
1070
     0
1070
   173
1070
     1
1070
   340
1005
217
1070
   271
1070
     3
1070
   272
1070
     3
1070
    77
1070
     1
1070
    73
1070
     1
1070
   171
1070
     3
1070
   274
1070
     4
1070
   177
1070
     2
1070
   176
1070
     2
1070
   178
1070
     2
1070
    78
1070
     8
1070
    48
1040
-0.1
1070
    41
1040
3.5
1070
   147
1040
1.5
1070
    42
1040
1.5875
1070
    44
1040
2.0
1070
   140
1040
3.0
1002
}
1001
ACAD_DSTYLE_DIM_LINETYPE
1070
   380
1005
16
1001
ACAD_DSTYLE_DIM_EXT1_LINETYPE
1070
   381
1005
16
1001
ACAD_DSTYLE_DIM_EXT2_LINETYPE
1070
   382
1005
16
0
DIMENSION
5
263
100
AcDbEntity
8
SK2
62
256
6
ByLayer
370
18
48
1
60
0
100
AcDbDimension
2
_U2
10
33
20
-10.220971
30
0
11
56.714286
21
-10.220971
31
0
70
32
71
1
72
1
41
1
210
0
220
0
230
1
3
Standard
100
AcDbAlignedDimension
13
43
23
-3.220971
33
0
14
33
24
-3.220971
34
0
50
0
100
AcDbRotatedDimension
1001
ACAD
1000
DSTYLE
1002
{
1070
   371
1070
    13
1070
   372
1070
    13
1070
   170
1070
     0
1070
   144
1040
1.0
1070
   277
1070
     2
1070
   284
1070
     8
1070
   278
1070
    46
1070
   146
1040
0.833333
1070
   345
1005
16
1070
   347
1005
16
1070
   346
1005
16
1070
   344
1005
0
1070
   343
1005
0
1070
   172
1070
     1
1070
    76
1070
     0
1070
    75
1070
     0
1070
   282
1070
     0
1070
   281
1070
     0
1070
    47
1040
0.5
1070
    72
1070
     0
1070
    71
1070
     1
1070
    74
1070
     0
1070
   279
1070
     0
1070
   173
1070
     1
1070
   340
1005
217
1070
   271
1070
     1
1070
   272
1070
     3
1070
    77
1070
     1
1070
    73
1070
     1
1070
   171
1070
     3
1070
   274
1070
     4
1070
   177
1070
     2
1070
   176
1070
     2
1070
   178
1070
     2
1070
    78
1070
     8
1070
    48
1040
0.5
1070
    41
1040
3.5
1070
   147
1040
1.5
1070
    42
1040
1.5875
1070
    44
1040
2.0
1070
   140
1040
3.0
1002
}
1001
ACAD_DSTYLE_DIM_LINETYPE
1070
   380
1005
16
1001
ACAD_DSTYLE_DIM_EXT1_LINETYPE
1070
   381
1005
16
1001
ACAD_DSTYLE_DIM_EXT2_LINETYPE
1070
   382
1005
16
0
DIMENSION
5
27E
100
AcDbEntity
8
SK2
62
256
6
ByLayer
370
18
48
1
60
0
100
AcDbDimension
2
_U3
10
16
20
-32.720971
30
0
11
29.5
21
-32.720971
31
0
70
32
71
1
72
1
41
1
210
0
220
0
230
1
3
Standard
100
AcDbAlignedDimension
13
43
23
-3.220971
33
0
14
16
24
-2.275
34
0
50
0
100
AcDbRotatedDimension
1001
ACAD
1000
DSTYLE
1002
{
1070
   371
1070
    13
1070
   372
1070
    13
1070
   170
1070
     0
1070
   144
1040
1.0
1070
   277
1070
     2
1070
   284
1070
     8
1070
   278
1070
    46
1070
   146
1040
1.166667
1070
   345
1005
16
1070
   347
1005
16
1070
   346
1005
16
1070
   344
1005
0
1070
   343
1005
0
1070
   172
1070
     1
1070
    76
1070
     0
1070
    75
1070
     0
1070
   282
1070
     0
1070
   281
1070
     0
1070
    71
1070
     0
1070
    74
1070
     0
1070
   279
1070
     0
1070
   173
1070
     1
1070
   340
1005
217
1070
   271
1070
     1
1070
   272
1070
     3
1070
    77
1070
     1
1070
    73
1070
     1
1070
   171
1070
     3
1070
   274
1070
     4
1070
   177
1070
     2
1070
   176
1070
     2
1070
   178
1070
     2
1070
    78
1070
     8
1070
    48
1040
-0.1
1070
    41
1040
3.5
1070
   147
1040
1.5
1070
    42
1040
1.5875
1070
    44
1040
2.0
1070
   140
1040
3.0
1002
}
1001
ACAD_DSTYLE_DIM_LINETYPE
1070
   380
1005
16
1001
ACAD_DSTYLE_DIM_EXT1_LINETYPE
1070
   381
1005
16
1001
ACAD_DSTYLE_DIM_EXT2_LINETYPE
1070
   382
1005
16
0
DIMENSION
5
296
100
AcDbEntity
8
2
62
256
6
ByLayer
370
18
48
1
60
0
100
AcDbDimension
2
_U4
10
17.5
20
-21.720971
30
0
11
30.25
21
-21.720971
31
0
70
32
71
1
72
1
41
1
210
0
220
0
230
1
3
Standard
100
AcDbAlignedDimension
13
43
23
-3.220971
33
0
14
17.5
24
0
34
0
50
0
100
AcDbRotatedDimension
1001
ACAD
1000
DSTYLE
1002
{
1070
   371
1070
    13
1070
   372
1070
    13
1070
   170
1070
     0
1070
   144
1040
1.0
1070
   277
1070
     2
1070
   284
1070
     8
1070
   278
1070
    46
1070
   146
1040
1.166667
1070
   345
1005
16
1070
   347
1005
16
1070
   346
1005
16
1070
   344
1005
0
1070
   343
1005
0
1070
   172
1070
     1
1070
    76
1070
     0
1070
    75
1070
     0
1070
   282
1070
     0
1070
   281
1070
     0
1070
    71
1070
     0
1070
    74
1070
     0
1070
   279
1070
     0
1070
   173
1070
     1
1070
   340
1005
217
1070
   271
1070
     1
1070
   272
1070
     3
1070
    77
1070
     1
1070
    73
1070
     1
1070
   171
1070
     3
1070
   274
1070
     4
1070
   177
1070
     2
1070
   176
1070
     2
1070
   178
1070
     2
1070
    78
1070
     8
1070
    48
1040
-0.1
1070
    41
1040
3.5
1070
   147
1040
1.5
1070
    42
1040
1.5875
1070
    44
1040
2.0
1070
   140
1040
3.0
1002
}
1001
ACAD_DSTYLE_DIM_LINETYPE
1070
   380
1005
16
1001
ACAD_DSTYLE_DIM_EXT1_LINETYPE
1070
   381
1005
16
1001
ACAD_DSTYLE_DIM_EXT2_LINETYPE
1070
   382
1005
16
0
ENDSEC
0
SECTION
2
OBJECTS
0
DICTIONARY
5
31e
330
0
100
AcDbDictionary
280
0
281
1
3
ACAD_GROUP
350
31f
3
ACAD_MLINESTYLE
350
320
0
DICTIONARY
5
31f
330
0
100
AcDbDictionary
280
0
281
1
0
DICTIONARY
5
320
330
0
100
AcDbDictionary
280
0
281
1
3
Standard
350
18
0
MLINESTYLE
5
18
330
320
100
AcDbMlineStyle
2
Standard
70
0
3

62
256
51
90
52
90
71
2
49
-0.5
62
256
6
ByLayer
49
0.5
62
256
6
ByLayer
0
RASTERVARIABLES
5
30c
330

100
AcDbRasterVariables
90
0
70
1
71
1
72
1
0
ENDSEC
0
EOF
