0
SECTION
2
HEADER
9
$ACADVER
1
AC1015
9
$DWGCODEPAGE
3
ANSI_1252
9
$HANDSEED
5
23c
9
$ANGBASE
50
0
9
$ANGDIR
70
0
9
$ATTMODE
70
1
9
$AUNITS
70
0
9
$AUPREC
70
0
9
$CECOLOR
62
256
9
$CELTSCALE
40
1
9
$CELTYPE
6
ByLayer
9
$CELWEIGHT
370
18
9
$CLAYER
8
0
9
$CMLJUST
70
0
9
$CMLSCALE
40
1
9
$CMLSTYLE
2
Standard
9
$DIMSTYLE
2
Standard
9
$TEXTSIZE
40
0.2
9
$TEXTSTYLE
7
Standard
9
$LUNITS
70
2
9
$LUPREC
70
4
9
$EXTNAMES
290
1
9
$INSUNITS
70
4
9
$LTSCALE
40
1
9
$LWDISPLAY
290
1
9
$PDMODE
70
0
9
$PDSIZE
40
0
9
$PLINEGEN
70
0
0
ENDSEC
0
SECTION
2
CLASSES
0
CLASS
1
RASTERVARIABLES
2
AcDbRasterVariables
3
ISM
90
0
280
0
281
0
0
ENDSEC
0
SECTION
2
TABLES
0
TABLE
2
VPORT
5
232
100
AcDbSymbolTable
0
VPORT
5
1
100
AcDbSymbolTableRecord
100
AcDbViewportTableRecord
2
*Active
70
0
10
0
20
0
11
1
21
1
12
-1
22
1
13
0
23
0
14
0.5
24
0.5
15
10
25
10
16
0
26
0
36
1
17
0
27
0
37
0
0
ENDTAB
0
TABLE
2
LTYPE
5
233
100
AcDbSymbolTable
0
LTYPE
5
14
100
AcDbSymbolTableRecord
100
AcDbLinetypeTableRecord
70
0
2
ByBlock
3

72
65
73
0
40
0
0
LTYPE
5
15
100
AcDbSymbolTableRecord
100
AcDbLinetypeTableRecord
70
0
2
ByLayer
3

72
65
73
0
40
0
0
LTYPE
5
16
100
AcDbSymbolTableRecord
100
AcDbLinetypeTableRecord
70
0
2
Continuous
3
Solid line
72
65
73
0
40
0
0
LTYPE
5
6E
100
AcDbSymbolTableRecord
100
AcDbLinetypeTableRecord
70
0
2
CENTER
3
____ _ ____ _ ____ _ ____
72
65
73
4
40
47.5
49
22
74
0
49
-8.5
74
0
49
8.5
74
0
49
-8.5
74
0
0
LTYPE
5
6F
100
AcDbSymbolTableRecord
100
AcDbLinetypeTableRecord
70
0
2
DASHED
3
__ __ __ __ __ __ __ __ __
72
65
73
2
40
25.72
49
12.86
74
0
49
-12.86
74
0
0
ENDTAB
0
TABLE
2
LAYER
5
234
100
AcDbSymbolTable
0
LAYER
5
10
100
AcDbSymbolTableRecord
100
AcDbLayerTableRecord
2
0
70
0
62
7
6
Continuous
290
1
370
-3
390
0
0
LAYER
5
71
100
AcDbSymbolTableRecord
100
AcDbLayerTableRecord
2
80
70
0
62
-6
6
Continuous
290
1
370
-3
390
0
0
LAYER
5
73
100
AcDbSymbolTableRecord
100
AcDbLayerTableRecord
2
81
70
0
62
-3
6
Continuous
290
1
370
-3
390
0
0
LAYER
5
75
100
AcDbSymbolTableRecord
100
AcDbLayerTableRecord
2
1
70
0
62
4
6
Continuous
290
1
370
-3
390
0
0
LAYER
5
113
100
AcDbSymbolTableRecord
100
AcDbLayerTableRecord
2
Defpoints
70
0
62
7
6
Continuous
290
0
370
-3
390
0
0
LAYER
5
120
100
AcDbSymbolTableRecord
100
AcDbLayerTableRecord
2
2
70
0
62
7
6
Continuous
290
1
370
-3
390
0
0
LAYER
5
21f
100
AcDbSymbolTableRecord
100
AcDbLayerTableRecord
2
SK1
70
0
62
4
6
Continuous
290
1
370
-3
390
0
0
LAYER
5
220
100
AcDbSymbolTableRecord
100
AcDbLayerTableRecord
2
SK6
70
0
62
5
6
Continuous
290
1
370
-3
390
0
0
LAYER
5
221
100
AcDbSymbolTableRecord
100
AcDbLayerTableRecord
2
SK2
70
0
62
7
6
Continuous
290
1
370
-3
390
0
0
ENDTAB
0
TABLE
2
STYLE
5
235
100
AcDbSymbolTable
0
STYLE
5
11
100
AcDbSymbolTableRecord
100
AcDbTextStyleTableRecord
2
Standard
3
txt
70
0
71
0
40
0
41
1
42
0
50
0
0
STYLE
5
105
100
AcDbSymbolTableRecord
100
AcDbTextStyleTableRecord
2
iso_b_vert
3
simplex.shx
70
0
71
0
40
0
41
1
42
0
50
0
0
STYLE
5
106
100
AcDbSymbolTableRecord
100
AcDbTextStyleTableRecord
2
DWGDirectTextStyle
3
simplex
70
0
71
0
40
0
41
1
42
0
50
0
0
ENDTAB
0
TABLE
2
DIMSTYLE
5
236
100
AcDbSymbolTable
100
AcDbDimStyleTable
0
DIMSTYLE
105
27
100
AcDbSymbolTableRecord
100
AcDbDimStyleTableRecord
2
Standard
70
0
3
<>
41
0.18
42
0.0625
44
0.18
140
0.18
147
0.09
73
0
74
0
77
1
271
2
275
0
278
52
280
0
340
11
0
ENDTAB
0
TABLE
2
VIEW
5
237
100
AcDbSymbolTable
0
ENDTAB
0
TABLE
2
UCS
5
238
100
AcDbSymbolTable
0
ENDTAB
0
TABLE
2
APPID
5
239
100
AcDbSymbolTable
0
APPID
5
12
100
AcDbSymbolTableRecord
100
AcDbRegAppTableRecord
2
ACAD
70
0
0
APPID
5
108
100
AcDbSymbolTableRecord
100
AcDbRegAppTableRecord
2
ACAD_DSTYLE_DIMBREAK
70
0
0
APPID
5
1A1
100
AcDbSymbolTableRecord
100
AcDbRegAppTableRecord
2
ACAD_DSTYLE_DIMANGULAR_EXTENSION
70
0
0
APPID
5
1DE
100
AcDbSymbolTableRecord
100
AcDbRegAppTableRecord
2
ACAD_DSTYLE_DIM_LINETYPE
70
0
0
APPID
5
1DF
100
AcDbSymbolTableRecord
100
AcDbRegAppTableRecord
2
ACAD_DSTYLE_DIM_EXT1_LINETYPE
70
0
0
APPID
5
1E0
100
AcDbSymbolTableRecord
100
AcDbRegAppTableRecord
2
ACAD_DSTYLE_DIM_EXT2_LINETYPE
70
0
0
APPID
5
21B
100
AcDbSymbolTableRecord
100
AcDbRegAppTableRecord
2
ACAD_MLEADERVER
70
0
0
ENDTAB
0
TABLE
2
BLOCK_RECORD
5
23a
100
AcDbSymbolTable
0
BLOCK_RECORD
5
1F
100
AcDbSymbolTableRecord
100
AcDbBlockTableRecord
2
*Model_Space
340
0
70
0
0
BLOCK_RECORD
5
1B
100
AcDbSymbolTableRecord
100
AcDbBlockTableRecord
2
*Paper_Space
340
0
70
0
0
BLOCK_RECORD
5
23
100
AcDbSymbolTableRecord
100
AcDbBlockTableRecord
2
*Paper_Space0
340
0
70
0
0
BLOCK_RECORD
5
10A
100
AcDbSymbolTableRecord
100
AcDbBlockTableRecord
2
_Closed
340
0
70
0
0
BLOCK_RECORD
5
114
100
AcDbSymbolTableRecord
100
AcDbBlockTableRecord
2
*D2
340
0
70
0
0
BLOCK_RECORD
5
121
100
AcDbSymbolTableRecord
100
AcDbBlockTableRecord
2
_U0
340
0
70
0
0
BLOCK_RECORD
5
131
100
AcDbSymbolTableRecord
100
AcDbBlockTableRecord
2
*D4
340
0
70
0
0
BLOCK_RECORD
5
13D
100
AcDbSymbolTableRecord
100
AcDbBlockTableRecord
2
_U1
340
0
70
0
0
BLOCK_RECORD
5
14D
100
AcDbSymbolTableRecord
100
AcDbBlockTableRecord
2
*D6
340
0
70
0
0
BLOCK_RECORD
5
159
100
AcDbSymbolTableRecord
100
AcDbBlockTableRecord
2
_U2
340
0
70
0
0
BLOCK_RECORD
5
169
100
AcDbSymbolTableRecord
100
AcDbBlockTableRecord
2
*D8
340
0
70
0
0
BLOCK_RECORD
5
176
100
AcDbSymbolTableRecord
100
AcDbBlockTableRecord
2
_U3
340
0
70
0
0
BLOCK_RECORD
5
186
100
AcDbSymbolTableRecord
100
AcDbBlockTableRecord
2
*D10
340
0
70
0
0
BLOCK_RECORD
5
193
100
AcDbSymbolTableRecord
100
AcDbBlockTableRecord
2
_U4
340
0
70
0
0
BLOCK_RECORD
5
1A4
100
AcDbSymbolTableRecord
100
AcDbBlockTableRecord
2
*D12
340
0
70
0
0
BLOCK_RECORD
5
1B3
100
AcDbSymbolTableRecord
100
AcDbBlockTableRecord
2
_U5
340
0
70
0
0
ENDTAB
0
ENDSEC
0
SECTION
2
BLOCKS
0
BLOCK
5
20
100
AcDbEntity
8
0
100
AcDbBlockBegin
2
*Model_Space
70
0
10
0
20
0
30
0
3
*Model_Space
0
ENDBLK
5
21
100
AcDbEntity
8
0
100
AcDbBlockEnd
0
BLOCK
5
1C
100
AcDbEntity
8
0
100
AcDbBlockBegin
2
*Paper_Space
70
0
10
0
20
0
30
0
3
*Paper_Space
0
ENDBLK
5
1D
100
AcDbEntity
8
0
100
AcDbBlockEnd
0
BLOCK
5
24
100
AcDbEntity
8
0
100
AcDbBlockBegin
2
*Paper_Space0
70
0
10
0
20
0
30
0
3
*Paper_Space0
0
ENDBLK
5
25
100
AcDbEntity
8
0
100
AcDbBlockEnd
0
BLOCK
5
10B
100
AcDbEntity
8
0
100
AcDbBlockBegin
2
_Closed
70
0
10
0
20
0
30
0
3
_Closed
0
LINE
5
10D
100
AcDbEntity
8
0
62
256
6
ByLayer
370
-2
48
1
60
0
100
AcDbLine
10
-1
20
0.166667
30
0
11
0
21
0
31
0
39
0
210
0
220
0
230
1
0
LINE
5
10E
100
AcDbEntity
8
0
62
256
6
ByLayer
370
-2
48
1
60
0
100
AcDbLine
10
0
20
0
30
0
11
-1
21
-0.166667
31
0
39
0
210
0
220
0
230
1
0
LINE
5
10F
100
AcDbEntity
8
0
62
256
6
ByLayer
370
-2
48
1
60
0
100
AcDbLine
10
-1
20
0.166667
30
0
11
-1
21
-0.166667
31
0
39
0
210
0
220
0
230
1
0
LINE
5
110
100
AcDbEntity
8
0
62
256
6
ByLayer
370
-2
48
1
60
0
100
AcDbLine
10
0
20
0
30
0
11
-1
21
0
31
0
39
0
210
0
220
0
230
1
0
ENDBLK
5
10C
100
AcDbEntity
8
0
100
AcDbBlockEnd
0
BLOCK
5
115
100
AcDbEntity
8
0
100
AcDbBlockBegin
2
*D2
70
1
10
0
20
0
30
0
3
*D2
0
LINE
5
117
100
AcDbEntity
8
0
62
256
6
ByLayer
370
-2
48
1
60
0
100
AcDbLine
10
0
20
-7.5875
30
0
11
0
21
-35.526417
31
0
39
0
210
0
220
0
230
1
0
LINE
5
118
100
AcDbEntity
8
0
62
256
6
ByLayer
370
-2
48
1
60
0
100
AcDbLine
10
20
20
-15.403083
30
0
11
20
21
-35.526417
31
0
39
0
210
0
220
0
230
1
0
LINE
5
119
100
AcDbEntity
8
0
62
256
6
ByLayer
370
-2
48
1
60
0
100
AcDbLine
10
3.175
20
-32.351417
30
0
11
16.825
21
-32.351417
31
0
39
0
210
0
220
0
230
1
0
SOLID
5
11A
100
AcDbEntity
8
0
62
256
6
ByLayer
370
-1
48
1
60
0
100
AcDbTrace
10
3.175
20
-31.82225
30
0
11
3.175
21
-32.880583
31
0
12
0
22
-32.351417
32
0
13
0
23
-32.351417
33
0
39
0
210
0
220
0
230
1
0
SOLID
5
11B
100
AcDbEntity
8
0
62
256
6
ByLayer
370
-1
48
1
60
0
100
AcDbTrace
10
16.825
20
-32.880583
30
0
11
16.825
21
-31.82225
31
0
12
20
22
-32.351417
32
0
13
20
23
-32.351417
33
0
39
0
210
0
220
0
230
1
0
MTEXT
5
11C
100
AcDbEntity
8
0
62
256
6
ByLayer
370
18
48
1
60
0
100
AcDbMText
10
10
20
-25.034312
30
0
210
0
220
0
230
1
1
\A1;20
40
3.5052
41
0
44
1
50
0
71
5
72
5
7
iso_b_vert
0
POINT
5
11D
100
AcDbEntity
8
Defpoints
62
0
6
ByLayer
370
-1
48
1
60
0
100
AcDbPoint
10
0
20
-6
30
0
39
0
210
0
220
0
230
1
50
360
0
POINT
5
11E
100
AcDbEntity
8
Defpoints
62
0
6
ByLayer
370
-1
48
1
60
0
100
AcDbPoint
10
20
20
-13.815583
30
0
39
0
210
0
220
0
230
1
50
360
0
POINT
5
11F
100
AcDbEntity
8
Defpoints
62
0
6
ByLayer
370
-1
48
1
60
0
100
AcDbPoint
10
20
20
-32.351417
30
0
39
0
210
0
220
0
230
1
50
360
0
ENDBLK
5
116
100
AcDbEntity
8
0
100
AcDbBlockEnd
0
BLOCK
5
12C
100
AcDbEntity
8
0
100
AcDbBlockBegin
2
_U0
70
0
10
0
20
0
30
0
3
_U0
0
MTEXT
5
122
100
AcDbEntity
8
2
62
256
6
ByLayer
370
18
48
1
60
0
100
AcDbMText
10
8.092204
20
-31.317249
30
0
210
0
220
0
230
1
1
\W0.6740;20
40
3.5052
41
0
44
1.084337
50
0
71
7
72
5
7
iso_b_vert
0
LINE
5
123
100
AcDbEntity
8
2
62
256
6
ByLayer
370
13
48
1
60
0
100
AcDbLine
10
0
20
-7.5875
30
0
11
0
21
-35.526417
31
0
39
0
210
0
220
0
230
1
0
LINE
5
124
100
AcDbEntity
8
2
62
256
6
ByLayer
370
13
48
1
60
0
100
AcDbLine
10
20
20
-15.403083
30
0
11
20
21
-35.526417
31
0
39
0
210
0
220
0
230
1
0
LINE
5
125
100
AcDbEntity
8
2
62
256
6
ByLayer
370
13
48
1
60
0
100
AcDbLine
10
0
20
-32.351417
30
0
11
20
21
-32.351417
31
0
39
0
210
0
220
0
230
1
0
LINE
5
126
100
AcDbEntity
8
2
62
256
6
ByLayer
370
13
48
1
60
0
100
AcDbLine
10
0
20
-32.351417
30
0
11
3.174997
21
-31.500678
31
0
39
0
210
0
220
0
230
1
0
LINE
5
127
100
AcDbEntity
8
2
62
256
6
ByLayer
370
13
48
1
60
0
100
AcDbLine
10
0
20
-32.351417
30
0
11
3.175003
21
-33.202156
31
0
39
0
210
0
220
0
230
1
0
LINE
5
128
100
AcDbEntity
8
2
62
256
6
ByLayer
370
13
48
1
60
0
100
AcDbLine
10
3.174997
20
-31.500678
30
0
11
3.175003
21
-33.202156
31
0
39
0
210
0
220
0
230
1
0
LINE
5
129
100
AcDbEntity
8
2
62
256
6
ByLayer
370
13
48
1
60
0
100
AcDbLine
10
20
20
-32.351417
30
0
11
16.825003
21
-33.202156
31
0
39
0
210
0
220
0
230
1
0
LINE
5
12A
100
AcDbEntity
8
2
62
256
6
ByLayer
370
13
48
1
60
0
100
AcDbLine
10
20
20
-32.351417
30
0
11
16.824997
21
-31.500678
31
0
39
0
210
0
220
0
230
1
0
LINE
5
12B
100
AcDbEntity
8
2
62
256
6
ByLayer
370
13
48
1
60
0
100
AcDbLine
10
16.825003
20
-33.202156
30
0
11
16.824997
21
-31.500678
31
0
39
0
210
0
220
0
230
1
0
ENDBLK
5
12D
100
AcDbEntity
8
0
100
AcDbBlockEnd
0
BLOCK
5
132
100
AcDbEntity
8
0
100
AcDbBlockBegin
2
*D4
70
1
10
0
20
0
30
0
3
*D4
0
LINE
5
134
100
AcDbEntity
8
0
62
256
6
ByLayer
370
-2
48
1
60
0
100
AcDbLine
10
0
20
-7.5875
30
0
11
0
21
-46.44583
31
0
39
0
210
0
220
0
230
1
0
LINE
5
135
100
AcDbEntity
8
0
62
256
6
ByLayer
370
-2
48
1
60
0
100
AcDbLine
10
54.952202
20
-21.725884
30
0
11
54.952202
21
-46.44583
31
0
39
0
210
0
220
0
230
1
0
LINE
5
136
100
AcDbEntity
8
0
62
256
6
ByLayer
370
-2
48
1
60
0
100
AcDbLine
10
3.175
20
-43.27083
30
0
11
51.777202
21
-43.27083
31
0
39
0
210
0
220
0
230
1
0
SOLID
5
137
100
AcDbEntity
8
0
62
256
6
ByLayer
370
-1
48
1
60
0
100
AcDbTrace
10
3.175
20
-42.741663
30
0
11
3.175
21
-43.799996
31
0
12
0
22
-43.27083
32
0
13
0
23
-43.27083
33
0
39
0
210
0
220
0
230
1
0
SOLID
5
138
100
AcDbEntity
8
0
62
256
6
ByLayer
370
-1
48
1
60
0
100
AcDbTrace
10
51.777202
20
-43.799996
30
0
11
51.777202
21
-42.741663
31
0
12
54.952202
22
-43.27083
32
0
13
54.952202
23
-43.27083
33
0
39
0
210
0
220
0
230
1
0
MTEXT
5
139
100
AcDbEntity
8
0
62
256
6
ByLayer
370
18
48
1
60
0
100
AcDbMText
10
27.476101
20
-35.953725
30
0
210
0
220
0
230
1
1
\A1;55
40
3.5052
41
0
44
1
50
0
71
5
72
5
7
iso_b_vert
0
POINT
5
13A
100
AcDbEntity
8
Defpoints
62
0
6
ByLayer
370
-1
48
1
60
0
100
AcDbPoint
10
0
20
-6
30
0
39
0
210
0
220
0
230
1
50
360
0
POINT
5
13B
100
AcDbEntity
8
Defpoints
62
0
6
ByLayer
370
-1
48
1
60
0
100
AcDbPoint
10
54.952202
20
-20.138384
30
0
39
0
210
0
220
0
230
1
50
360
0
POINT
5
13C
100
AcDbEntity
8
Defpoints
62
0
6
ByLayer
370
-1
48
1
60
0
100
AcDbPoint
10
54.952202
20
-43.27083
30
0
39
0
210
0
220
0
230
1
50
360
0
ENDBLK
5
133
100
AcDbEntity
8
0
100
AcDbBlockEnd
0
BLOCK
5
148
100
AcDbEntity
8
0
100
AcDbBlockBegin
2
_U1
70
0
10
0
20
0
30
0
3
_U1
0
MTEXT
5
13E
100
AcDbEntity
8
2
62
256
6
ByLayer
370
18
48
1
60
0
100
AcDbMText
10
25.568305
20
-42.236662
30
0
210
0
220
0
230
1
1
\W0.6740;55
40
3.5052
41
0
44
1.084337
50
0
71
7
72
5
7
iso_b_vert
0
LINE
5
13F
100
AcDbEntity
8
2
62
256
6
ByLayer
370
13
48
1
60
0
100
AcDbLine
10
0
20
-7.5875
30
0
11
0
21
-46.44583
31
0
39
0
210
0
220
0
230
1
0
LINE
5
140
100
AcDbEntity
8
2
62
256
6
ByLayer
370
13
48
1
60
0
100
AcDbLine
10
54.952202
20
-21.725884
30
0
11
54.952202
21
-46.44583
31
0
39
0
210
0
220
0
230
1
0
LINE
5
141
100
AcDbEntity
8
2
62
256
6
ByLayer
370
13
48
1
60
0
100
AcDbLine
10
0
20
-43.27083
30
0
11
54.952202
21
-43.27083
31
0
39
0
210
0
220
0
230
1
0
LINE
5
142
100
AcDbEntity
8
2
62
256
6
ByLayer
370
13
48
1
60
0
100
AcDbLine
10
0
20
-43.27083
30
0
11
3.174997
21
-42.420091
31
0
39
0
210
0
220
0
230
1
0
LINE
5
143
100
AcDbEntity
8
2
62
256
6
ByLayer
370
13
48
1
60
0
100
AcDbLine
10
0
20
-43.27083
30
0
11
3.175003
21
-44.121568
31
0
39
0
210
0
220
0
230
1
0
LINE
5
144
100
AcDbEntity
8
2
62
256
6
ByLayer
370
13
48
1
60
0
100
AcDbLine
10
3.174997
20
-42.420091
30
0
11
3.175003
21
-44.121568
31
0
39
0
210
0
220
0
230
1
0
LINE
5
145
100
AcDbEntity
8
2
62
256
6
ByLayer
370
13
48
1
60
0
100
AcDbLine
10
54.952202
20
-43.27083
30
0
11
51.777205
21
-44.121568
31
0
39
0
210
0
220
0
230
1
0
LINE
5
146
100
AcDbEntity
8
2
62
256
6
ByLayer
370
13
48
1
60
0
100
AcDbLine
10
54.952202
20
-43.27083
30
0
11
51.777199
21
-42.420091
31
0
39
0
210
0
220
0
230
1
0
LINE
5
147
100
AcDbEntity
8
2
62
256
6
ByLayer
370
13
48
1
60
0
100
AcDbLine
10
51.777205
20
-44.121568
30
0
11
51.777199
21
-42.420091
31
0
39
0
210
0
220
0
230
1
0
ENDBLK
5
149
100
AcDbEntity
8
0
100
AcDbBlockEnd
0
BLOCK
5
14E
100
AcDbEntity
8
0
100
AcDbBlockBegin
2
*D6
70
1
10
0
20
0
30
0
3
*D6
0
LINE
5
150
100
AcDbEntity
8
0
62
256
6
ByLayer
370
-2
48
1
60
0
100
AcDbLine
10
0
20
-7.5875
30
0
11
0
21
-56.521805
31
0
39
0
210
0
220
0
230
1
0
LINE
5
151
100
AcDbEntity
8
0
62
256
6
ByLayer
370
-2
48
1
60
0
100
AcDbLine
10
57.946521
20
-9.652404
30
0
11
57.946521
21
-56.521805
31
0
39
0
210
0
220
0
230
1
0
LINE
5
152
100
AcDbEntity
8
0
62
256
6
ByLayer
370
-2
48
1
60
0
100
AcDbLine
10
3.175
20
-53.346805
30
0
11
54.771521
21
-53.346805
31
0
39
0
210
0
220
0
230
1
0
SOLID
5
153
100
AcDbEntity
8
0
62
256
6
ByLayer
370
-1
48
1
60
0
100
AcDbTrace
10
3.175
20
-52.817639
30
0
11
3.175
21
-53.875972
31
0
12
0
22
-53.346805
32
0
13
0
23
-53.346805
33
0
39
0
210
0
220
0
230
1
0
SOLID
5
154
100
AcDbEntity
8
0
62
256
6
ByLayer
370
-1
48
1
60
0
100
AcDbTrace
10
54.771521
20
-53.875972
30
0
11
54.771521
21
-52.817639
31
0
12
57.946521
22
-53.346805
32
0
13
57.946521
23
-53.346805
33
0
39
0
210
0
220
0
230
1
0
MTEXT
5
155
100
AcDbEntity
8
0
62
256
6
ByLayer
370
18
48
1
60
0
100
AcDbMText
10
28.97326
20
-46.0297
30
0
210
0
220
0
230
1
1
\A1;58
40
3.5052
41
0
44
1
50
0
71
5
72
5
7
iso_b_vert
0
POINT
5
156
100
AcDbEntity
8
Defpoints
62
0
6
ByLayer
370
-1
48
1
60
0
100
AcDbPoint
10
0
20
-6
30
0
39
0
210
0
220
0
230
1
50
360
0
POINT
5
157
100
AcDbEntity
8
Defpoints
62
0
6
ByLayer
370
-1
48
1
60
0
100
AcDbPoint
10
57.946521
20
-8.064904
30
0
39
0
210
0
220
0
230
1
50
360
0
POINT
5
158
100
AcDbEntity
8
Defpoints
62
0
6
ByLayer
370
-1
48
1
60
0
100
AcDbPoint
10
57.946521
20
-53.346805
30
0
39
0
210
0
220
0
230
1
50
360
0
ENDBLK
5
14F
100
AcDbEntity
8
0
100
AcDbBlockEnd
0
BLOCK
5
164
100
AcDbEntity
8
0
100
AcDbBlockBegin
2
_U2
70
0
10
0
20
0
30
0
3
_U2
0
MTEXT
5
15A
100
AcDbEntity
8
2
62
256
6
ByLayer
370
18
48
1
60
0
100
AcDbMText
10
27.065464
20
-52.312637
30
0
210
0
220
0
230
1
1
\W0.6740;58
40
3.5052
41
0
44
1.084337
50
0
71
7
72
5
7
iso_b_vert
0
LINE
5
15B
100
AcDbEntity
8
2
62
256
6
ByLayer
370
13
48
1
60
0
100
AcDbLine
10
0
20
-7.5875
30
0
11
0
21
-56.521805
31
0
39
0
210
0
220
0
230
1
0
LINE
5
15C
100
AcDbEntity
8
2
62
256
6
ByLayer
370
13
48
1
60
0
100
AcDbLine
10
57.946521
20
-9.652404
30
0
11
57.946521
21
-56.521805
31
0
39
0
210
0
220
0
230
1
0
LINE
5
15D
100
AcDbEntity
8
2
62
256
6
ByLayer
370
13
48
1
60
0
100
AcDbLine
10
0
20
-53.346805
30
0
11
57.946521
21
-53.346805
31
0
39
0
210
0
220
0
230
1
0
LINE
5
15E
100
AcDbEntity
8
2
62
256
6
ByLayer
370
13
48
1
60
0
100
AcDbLine
10
0
20
-53.346805
30
0
11
3.174997
21
-52.496067
31
0
39
0
210
0
220
0
230
1
0
LINE
5
15F
100
AcDbEntity
8
2
62
256
6
ByLayer
370
13
48
1
60
0
100
AcDbLine
10
0
20
-53.346805
30
0
11
3.175003
21
-54.197544
31
0
39
0
210
0
220
0
230
1
0
LINE
5
160
100
AcDbEntity
8
2
62
256
6
ByLayer
370
13
48
1
60
0
100
AcDbLine
10
3.174997
20
-52.496067
30
0
11
3.175003
21
-54.197544
31
0
39
0
210
0
220
0
230
1
0
LINE
5
161
100
AcDbEntity
8
2
62
256
6
ByLayer
370
13
48
1
60
0
100
AcDbLine
10
57.946521
20
-53.346805
30
0
11
54.771524
21
-54.197544
31
0
39
0
210
0
220
0
230
1
0
LINE
5
162
100
AcDbEntity
8
2
62
256
6
ByLayer
370
13
48
1
60
0
100
AcDbLine
10
57.946521
20
-53.346805
30
0
11
54.771517
21
-52.496067
31
0
39
0
210
0
220
0
230
1
0
LINE
5
163
100
AcDbEntity
8
2
62
256
6
ByLayer
370
13
48
1
60
0
100
AcDbLine
10
54.771524
20
-54.197544
30
0
11
54.771517
21
-52.496067
31
0
39
0
210
0
220
0
230
1
0
ENDBLK
5
165
100
AcDbEntity
8
0
100
AcDbBlockEnd
0
BLOCK
5
16A
100
AcDbEntity
8
0
100
AcDbBlockBegin
2
*D8
70
1
10
0
20
0
30
0
3
*D8
0
LINE
5
16C
100
AcDbEntity
8
0
62
256
6
ByLayer
370
-2
48
1
60
0
100
AcDbLine
10
10.193086
20
-14.75
30
0
11
-13.990423
21
-14.75
31
0
39
0
210
0
220
0
230
1
0
LINE
5
16D
100
AcDbEntity
8
0
62
256
6
ByLayer
370
-2
48
1
60
0
100
AcDbLine
10
16.334999
20
0
30
0
11
-13.990423
21
0
31
0
39
0
210
0
220
0
230
1
0
LINE
5
16E
100
AcDbEntity
8
0
62
256
6
ByLayer
370
-2
48
1
60
0
100
AcDbLine
10
-10.815423
20
-17.925
30
0
11
-10.815423
21
-21.1
31
0
39
0
210
0
220
0
230
1
0
LINE
5
16F
100
AcDbEntity
8
0
62
256
6
ByLayer
370
-2
48
1
60
0
100
AcDbLine
10
-10.815423
20
3.175
30
0
11
-10.815423
21
6.35
31
0
39
0
210
0
220
0
230
1
0
SOLID
5
170
100
AcDbEntity
8
0
62
256
6
ByLayer
370
-1
48
1
60
0
100
AcDbTrace
10
-10.286256
20
-17.925
30
0
11
-11.344589
21
-17.925
31
0
12
-10.815423
22
-14.75
32
0
13
-10.815423
23
-14.75
33
0
39
0
210
0
220
0
230
1
0
SOLID
5
171
100
AcDbEntity
8
0
62
256
6
ByLayer
370
-1
48
1
60
0
100
AcDbTrace
10
-11.344589
20
3.175
30
0
11
-10.286256
21
3.175
31
0
12
-10.815423
22
0
32
0
13
-10.815423
23
0
33
0
39
0
210
0
220
0
230
1
0
MTEXT
5
172
100
AcDbEntity
8
0
62
256
6
ByLayer
370
18
48
1
60
0
100
AcDbMText
10
-18.132528
20
-7.375
30
0
210
0
220
0
230
1
1
\A1;15
40
3.5052
41
0
44
1
50
90
71
5
72
5
7
iso_b_vert
0
POINT
5
173
100
AcDbEntity
8
Defpoints
62
0
6
ByLayer
370
-1
48
1
60
0
100
AcDbPoint
10
11.780586
20
-14.75
30
0
39
0
210
0
220
0
230
1
50
360
0
POINT
5
174
100
AcDbEntity
8
Defpoints
62
0
6
ByLayer
370
-1
48
1
60
0
100
AcDbPoint
10
17.922499
20
0
30
0
39
0
210
0
220
0
230
1
50
360
0
POINT
5
175
100
AcDbEntity
8
Defpoints
62
0
6
ByLayer
370
-1
48
1
60
0
100
AcDbPoint
10
-10.815423
20
0
30
0
39
0
210
0
220
0
230
1
50
360
0
ENDBLK
5
16B
100
AcDbEntity
8
0
100
AcDbBlockEnd
0
BLOCK
5
181
100
AcDbEntity
8
0
100
AcDbBlockBegin
2
_U3
70
0
10
0
20
0
30
0
3
_U3
0
MTEXT
5
177
100
AcDbEntity
8
2
62
256
6
ByLayer
370
18
48
1
60
0
100
AcDbMText
10
-11.506081
20
-8.872755
30
0
210
0
220
0
230
1
1
\W0.5321;15
40
3.5052
41
0
44
1.084337
50
90
71
7
72
5
7
iso_b_vert
0
LINE
5
178
100
AcDbEntity
8
2
62
256
6
ByLayer
370
13
48
1
60
0
100
AcDbLine
10
6.4125
20
0
30
0
11
-13.990423
21
0
31
0
39
0
210
0
220
0
230
1
0
LINE
5
179
100
AcDbEntity
8
2
62
256
6
ByLayer
370
13
48
1
60
0
100
AcDbLine
10
6.4125
20
-14.75
30
0
11
-13.990423
21
-14.75
31
0
39
0
210
0
220
0
230
1
0
LINE
5
17A
100
AcDbEntity
8
2
62
256
6
ByLayer
370
13
48
1
60
0
100
AcDbLine
10
-10.815423
20
0
30
0
11
-10.815423
21
-14.75
31
0
39
0
210
0
220
0
230
1
0
LINE
5
17B
100
AcDbEntity
8
2
62
256
6
ByLayer
370
13
48
1
60
0
100
AcDbLine
10
-10.815423
20
0
30
0
11
-9.964684
21
-3.174997
31
0
39
0
210
0
220
0
230
1
0
LINE
5
17C
100
AcDbEntity
8
2
62
256
6
ByLayer
370
13
48
1
60
0
100
AcDbLine
10
-10.815423
20
0
30
0
11
-11.666161
21
-3.175003
31
0
39
0
210
0
220
0
230
1
0
LINE
5
17D
100
AcDbEntity
8
2
62
256
6
ByLayer
370
13
48
1
60
0
100
AcDbLine
10
-9.964684
20
-3.174997
30
0
11
-11.666161
21
-3.175003
31
0
39
0
210
0
220
0
230
1
0
LINE
5
17E
100
AcDbEntity
8
2
62
256
6
ByLayer
370
13
48
1
60
0
100
AcDbLine
10
-10.815423
20
-14.75
30
0
11
-11.666161
21
-11.575003
31
0
39
0
210
0
220
0
230
1
0
LINE
5
17F
100
AcDbEntity
8
2
62
256
6
ByLayer
370
13
48
1
60
0
100
AcDbLine
10
-10.815423
20
-14.75
30
0
11
-9.964684
21
-11.574997
31
0
39
0
210
0
220
0
230
1
0
LINE
5
180
100
AcDbEntity
8
2
62
256
6
ByLayer
370
13
48
1
60
0
100
AcDbLine
10
-11.666161
20
-11.575003
30
0
11
-9.964684
21
-11.574997
31
0
39
0
210
0
220
0
230
1
0
ENDBLK
5
182
100
AcDbEntity
8
0
100
AcDbBlockEnd
0
BLOCK
5
187
100
AcDbEntity
8
0
100
AcDbBlockBegin
2
*D10
70
1
10
0
20
0
30
0
3
*D10
0
LINE
5
189
100
AcDbEntity
8
0
62
256
6
ByLayer
370
-2
48
1
60
0
100
AcDbLine
10
59.098216
20
-20.138384
30
0
11
90.912629
21
-20.138384
31
0
39
0
210
0
220
0
230
1
0
LINE
5
18A
100
AcDbEntity
8
0
62
256
6
ByLayer
370
-2
48
1
60
0
100
AcDbLine
10
46.600442
20
0
30
0
11
90.912629
21
0
31
0
39
0
210
0
220
0
230
1
0
LINE
5
18B
100
AcDbEntity
8
0
62
256
6
ByLayer
370
-2
48
1
60
0
100
AcDbLine
10
87.737629
20
-16.963384
30
0
11
87.737629
21
-3.175
31
0
39
0
210
0
220
0
230
1
0
SOLID
5
18C
100
AcDbEntity
8
0
62
256
6
ByLayer
370
-1
48
1
60
0
100
AcDbTrace
10
87.208462
20
-16.963384
30
0
11
88.266795
21
-16.963384
31
0
12
87.737629
22
-20.138384
32
0
13
87.737629
23
-20.138384
33
0
39
0
210
0
220
0
230
1
0
SOLID
5
18D
100
AcDbEntity
8
0
62
256
6
ByLayer
370
-1
48
1
60
0
100
AcDbTrace
10
88.266795
20
-3.175
30
0
11
87.208462
21
-3.175
31
0
12
87.737629
22
0
32
0
13
87.737629
23
0
33
0
39
0
210
0
220
0
230
1
0
MTEXT
5
18E
100
AcDbEntity
8
0
62
256
6
ByLayer
370
18
48
1
60
0
100
AcDbMText
10
80.420524
20
-10.069192
30
0
210
0
220
0
230
1
1
\A1;20
40
3.5052
41
0
44
1
50
90
71
5
72
5
7
iso_b_vert
0
POINT
5
18F
100
AcDbEntity
8
Defpoints
62
0
6
ByLayer
370
-1
48
1
60
0
100
AcDbPoint
10
57.510716
20
-20.138384
30
0
39
0
210
0
220
0
230
1
50
360
0
POINT
5
190
100
AcDbEntity
8
Defpoints
62
0
6
ByLayer
370
-1
48
1
60
0
100
AcDbPoint
10
45.012942
20
0
30
0
39
0
210
0
220
0
230
1
50
360
0
POINT
5
191
100
AcDbEntity
8
Defpoints
62
0
6
ByLayer
370
-1
48
1
60
0
100
AcDbPoint
10
87.737629
20
0
30
0
39
0
210
0
220
0
230
1
50
360
0
ENDBLK
5
188
100
AcDbEntity
8
0
100
AcDbBlockEnd
0
BLOCK
5
19E
100
AcDbEntity
8
0
100
AcDbBlockBegin
2
_U4
70
0
10
0
20
0
30
0
3
_U4
0
MTEXT
5
194
100
AcDbEntity
8
SK2
62
256
6
ByLayer
370
18
48
1
60
0
100
AcDbMText
10
87.046971
20
-12.00503
30
0
210
0
220
0
230
1
1
\W0.6740;20
40
3.5052
41
0
44
1.084337
50
90
71
7
72
5
7
iso_b_vert
0
LINE
5
195
100
AcDbEntity
8
SK2
62
256
6
ByLayer
370
13
48
1
60
0
100
AcDbLine
10
58.5875
20
0
30
0
11
90.912629
21
0
31
0
39
0
210
0
220
0
230
1
0
LINE
5
196
100
AcDbEntity
8
SK2
62
256
6
ByLayer
370
13
48
1
60
0
100
AcDbLine
10
63.003642
20
-20.138384
30
0
11
90.912629
21
-20.138384
31
0
39
0
210
0
220
0
230
1
0
LINE
5
197
100
AcDbEntity
8
SK2
62
256
6
ByLayer
370
13
48
1
60
0
100
AcDbLine
10
87.737629
20
0
30
0
11
87.737629
21
-20.138384
31
0
39
0
210
0
220
0
230
1
0
LINE
5
198
100
AcDbEntity
8
SK2
62
256
6
ByLayer
370
13
48
1
60
0
100
AcDbLine
10
87.737629
20
0
30
0
11
88.588368
21
-3.174997
31
0
39
0
210
0
220
0
230
1
0
LINE
5
199
100
AcDbEntity
8
SK2
62
256
6
ByLayer
370
13
48
1
60
0
100
AcDbLine
10
87.737629
20
0
30
0
11
86.88689
21
-3.175003
31
0
39
0
210
0
220
0
230
1
0
LINE
5
19A
100
AcDbEntity
8
SK2
62
256
6
ByLayer
370
13
48
1
60
0
100
AcDbLine
10
88.588368
20
-3.174997
30
0
11
86.88689
21
-3.175003
31
0
39
0
210
0
220
0
230
1
0
LINE
5
19B
100
AcDbEntity
8
SK2
62
256
6
ByLayer
370
13
48
1
60
0
100
AcDbLine
10
87.737629
20
-20.138384
30
0
11
86.88689
21
-16.963387
31
0
39
0
210
0
220
0
230
1
0
LINE
5
19C
100
AcDbEntity
8
SK2
62
256
6
ByLayer
370
13
48
1
60
0
100
AcDbLine
10
87.737629
20
-20.138384
30
0
11
88.588368
21
-16.96338
31
0
39
0
210
0
220
0
230
1
0
LINE
5
19D
100
AcDbEntity
8
SK2
62
256
6
ByLayer
370
13
48
1
60
0
100
AcDbLine
10
86.88689
20
-16.963387
30
0
11
88.588368
21
-16.96338
31
0
39
0
210
0
220
0
230
1
0
ENDBLK
5
19F
100
AcDbEntity
8
0
100
AcDbBlockEnd
0
BLOCK
5
1A5
100
AcDbEntity
8
0
100
AcDbBlockBegin
2
*D12
70
1
10
0
20
0
30
0
3
*D12
0
LINE
5
1A7
100
AcDbEntity
8
0
62
256
6
ByLayer
370
-2
48
1
60
0
100
AcDbLine
10
63.003642
20
-20.138384
30
0
11
79.786267
21
-20.138384
31
0
39
0
210
0
220
0
230
1
0
LINE
5
1A8
100
AcDbEntity
8
0
62
256
6
ByLayer
370
-2
48
1
60
0
100
AcDbLine
10
58.437071
20
-7.132678
30
0
11
61.379731
21
3.849481
31
0
39
0
210
0
220
0
230
1
0
ARC
5
1A9
100
AcDbEntity
8
0
62
256
6
ByLayer
370
-2
48
1
60
0
100
AcDbCircle
39
0
10
54.952202
20
-20.138384
30
0
40
21.6590644640477
210
0
220
0
230
1
100
AcDbArc
50
343.186959
51
351.593479
0
ARC
5
1AA
100
AcDbEntity
8
0
62
256
6
ByLayer
370
-2
48
1
60
0
100
AcDbCircle
39
0
10
54.952202
20
-20.138384
30
0
40
21.6590644640477
210
0
220
0
230
1
100
AcDbArc
50
83.406521
51
91.813041
0
SOLID
5
1AB
100
AcDbEntity
8
0
62
256
6
ByLayer
370
-1
48
1
60
0
100
AcDbTrace
10
76.906299
20
-23.343629
30
0
11
75.850812
21
-23.266059
31
0
12
76.611267
22
-20.138384
32
0
13
76.611267
23
-20.138384
33
0
39
0
210
0
220
0
230
1
0
SOLID
5
1AC
100
AcDbEntity
8
0
62
256
6
ByLayer
370
-1
48
1
60
0
100
AcDbTrace
10
57.340058
20
0.857625
30
0
11
57.538311
21
1.897224
31
0
12
60.557981
22
0.782666
32
0
13
60.557981
23
0.782666
33
0
39
0
210
0
220
0
230
1
0
MTEXT
5
1AD
100
AcDbEntity
8
0
62
256
6
ByLayer
370
18
48
1
60
0
100
AcDbMText
10
78.006754
20
-2.448004
30
0
210
0
220
0
230
1
1
\A1;75%%d
40
3.5052
41
0
44
1
50
307.5
71
5
72
5
7
iso_b_vert
0
POINT
5
1AE
100
AcDbEntity
8
Defpoints
62
0
6
ByLayer
370
-1
48
1
60
0
100
AcDbPoint
10
74.581981
20
-10.984867
30
0
39
0
210
0
220
0
230
1
50
360
0
POINT
5
1AF
100
AcDbEntity
8
Defpoints
62
0
6
ByLayer
370
-1
48
1
60
0
100
AcDbPoint
10
54.952202
20
-20.138384
30
0
39
0
210
0
220
0
230
1
50
360
0
POINT
5
1B0
100
AcDbEntity
8
Defpoints
62
0
6
ByLayer
370
-1
48
1
60
0
100
AcDbPoint
10
58.026195
20
-8.666085
30
0
39
0
210
0
220
0
230
1
50
360
0
POINT
5
1B1
100
AcDbEntity
8
Defpoints
62
0
6
ByLayer
370
-1
48
1
60
0
100
AcDbPoint
10
55.157204
20
-19.373307
30
0
39
0
210
0
220
0
230
1
50
360
0
POINT
5
1B2
100
AcDbEntity
8
Defpoints
62
0
6
ByLayer
370
-1
48
1
60
0
100
AcDbPoint
10
61.416142
20
-20.138384
30
0
39
0
210
0
220
0
230
1
50
360
0
ENDBLK
5
1A6
100
AcDbEntity
8
0
100
AcDbBlockEnd
0
BLOCK
5
1BE
100
AcDbEntity
8
0
100
AcDbBlockBegin
2
_U5
70
0
10
0
20
0
30
0
3
_U5
0
MTEXT
5
1B4
100
AcDbEntity
8
SK2
62
256
6
ByLayer
370
18
48
1
60
0
100
AcDbMText
10
67.10986
20
-4.322028
30
0
210
0
220
0
230
1
1
\W0.8292;75%%d0'
40
3.5052
41
0
44
1.084337
50
307.5
71
7
72
5
7
iso_b_vert
0
LINE
5
1B5
100
AcDbEntity
8
SK2
62
256
6
ByLayer
370
13
48
1
60
0
100
AcDbLine
10
58.437071
20
-7.132678
30
0
11
60.472519
21
0.463717
31
0
39
0
210
0
220
0
230
1
0
LINE
5
1B6
100
AcDbEntity
8
SK2
62
256
6
ByLayer
370
13
48
1
60
0
100
AcDbLine
10
63.003642
20
-20.138384
30
0
11
76.281067
21
-20.138384
31
0
39
0
210
0
220
0
230
1
0
ARC
5
1B7
100
AcDbEntity
8
SK2
62
256
6
ByLayer
370
13
48
1
60
0
100
AcDbCircle
39
0
10
54.952202
20
-20.138384
30
0
40
18.1538644640477
210
0
220
0
230
1
100
AcDbArc
50
0
51
74.999943
0
LINE
5
1B8
100
AcDbEntity
8
SK2
62
256
6
ByLayer
370
13
48
1
60
0
100
AcDbLine
10
59.650768
20
-2.603097
30
0
11
62.934641
21
-2.746405
31
0
39
0
210
0
220
0
230
1
0
LINE
5
1B9
100
AcDbEntity
8
SK2
62
256
6
ByLayer
370
13
48
1
60
0
100
AcDbLine
10
59.650768
20
-2.603097
30
0
11
62.423037
21
-4.369145
31
0
39
0
210
0
220
0
230
1
0
LINE
5
1BA
100
AcDbEntity
8
SK2
62
256
6
ByLayer
370
13
48
1
60
0
100
AcDbLine
10
62.934641
20
-2.746405
30
0
11
62.423037
21
-4.369145
31
0
39
0
210
0
220
0
230
1
0
LINE
5
1BB
100
AcDbEntity
8
SK2
62
256
6
ByLayer
370
13
48
1
60
0
100
AcDbLine
10
73.106067
20
-20.138384
30
0
11
72.117711
21
-17.003497
31
0
39
0
210
0
220
0
230
1
0
LINE
5
1BC
100
AcDbEntity
8
SK2
62
256
6
ByLayer
370
13
48
1
60
0
100
AcDbLine
10
73.106067
20
-20.138384
30
0
11
73.81757
21
-16.929308
31
0
39
0
210
0
220
0
230
1
0
LINE
5
1BD
100
AcDbEntity
8
SK2
62
256
6
ByLayer
370
13
48
1
60
0
100
AcDbLine
10
72.117711
20
-17.003497
30
0
11
73.81757
21
-16.929308
31
0
39
0
210
0
220
0
230
1
0
ENDBLK
5
1BF
100
AcDbEntity
8
0
100
AcDbBlockEnd
0
ENDSEC
0
SECTION
2
ENTITIES
0
ARC
5
B5
100
AcDbEntity
8
1
62
256
6
ByLayer
370
18
48
1
60
0
100
AcDbCircle
39
0
10
-39.004093
20
-15.368015
30
0
40
0.800000000000526
210
0
220
0
230
-1
100
AcDbArc
50
50.580636
51
105
0
ARC
5
B6
100
AcDbEntity
8
SK1
62
256
6
ByLayer
370
70
48
1
60
0
100
AcDbCircle
39
0
10
-8
20
-6
30
0
40
8
210
0
220
0
230
-1
100
AcDbArc
50
0
51
34.228866
0
ARC
5
B7
100
AcDbEntity
8
SK1
62
256
6
ByLayer
370
70
48
1
60
0
100
AcDbCircle
39
0
10
-8
20
-6
30
0
40
8
210
0
220
0
230
-1
100
AcDbArc
50
325.771134
51
0
0
ELLIPSE
5
B8
100
AcDbEntity
8
1
62
256
6
ByLayer
370
18
48
1
60
0
100
AcDbEllipse
10
50.462105
20
-12.361138
30
0
11
1.61937464777363
21
-0.433910129114343
31
0
210
0
220
0
230
-1
40
0.997564
41
-2.35619449019233
42
-1.31178748667707
0
ELLIPSE
5
B9
100
AcDbEntity
8
1
62
256
6
ByLayer
370
18
48
1
60
0
100
AcDbEllipse
10
50.462105
20
-12.361138
30
0
11
1.61937464777363
21
-0.433910129114343
31
0
210
0
220
0
230
-1
40
0.997564
41
2.882583813472
42
-2.35619449019233
0
ELLIPSE
5
BA
100
AcDbEntity
8
1
62
256
6
ByLayer
370
18
48
1
60
0
100
AcDbEllipse
10
50.462105
20
-12.361138
30
0
11
1.61937464777363
21
-0.433910129114343
31
0
210
0
220
0
230
-1
40
0.997564
41
1.82980516691273
42
2.882583813472
0
ELLIPSE
5
BB
100
AcDbEntity
8
1
62
256
6
ByLayer
370
18
48
1
60
0
100
AcDbEllipse
10
50.462105
20
-12.361138
30
0
11
1.61937464777363
21
-0.433910129114343
31
0
210
0
220
0
230
-1
40
0.997564
41
0.785398163397468
42
1.82980516691273
0
ELLIPSE
5
BC
100
AcDbEntity
8
1
62
256
6
ByLayer
370
18
48
1
60
0
100
AcDbEllipse
10
50.462105
20
-12.361138
30
0
11
1.61937464777363
21
-0.433910129114343
31
0
210
0
220
0
230
-1
40
0.997564
41
-0.259008840117792
42
0.785398163397467
0
ELLIPSE
5
BD
100
AcDbEntity
8
1
62
256
6
ByLayer
370
18
48
1
60
0
100
AcDbEllipse
10
50.462105
20
-12.361138
30
0
11
1.61937464777363
21
-0.433910129114343
31
0
210
0
220
0
230
-1
40
0.997564
41
-1.31178748667707
42
-0.259008840117792
0
ELLIPSE
5
BE
100
AcDbEntity
8
1
62
256
6
ByLayer
370
18
48
1
60
0
100
AcDbEllipse
10
50.462105
20
-12.361138
30
0
11
2.31822198309378
21
-0.621165708246003
31
0
210
0
220
0
230
-1
40
0.997564
41
0
42
6.28318530717959
0
ELLIPSE
5
BF
100
AcDbEntity
8
1
62
256
6
ByLayer
370
18
48
1
60
0
100
AcDbEllipse
10
50.469359
20
-12.334068
30
0
11
3.30829595504008
21
-0.886455229476069
31
0
210
0
220
0
230
-1
40
0.997564
41
0
42
6.28318530717959
0
ELLIPSE
5
C0
100
AcDbEntity
8
1
62
256
6
ByLayer
370
18
48
1
60
0
100
AcDbEllipse
10
46.524002
20
-6.446789
30
0
11
-1.4488887394336
21
0.388228567653782
31
0
210
0
220
0
230
-1
40
0.997564
41
-0.827261075607809
42
-0.00436332312998959
0
ELLIPSE
5
C1
100
AcDbEntity
8
1
62
256
6
ByLayer
370
18
48
1
60
0
100
AcDbEllipse
10
46.475255
20
-6.628714
30
0
11
-1.4488887394336
21
0.388228567653782
31
0
210
0
220
0
230
-1
40
0.997564
41
-0.827261075607804
42
-0.00436332312998662
0
ELLIPSE
5
C2
100
AcDbEntity
8
1
62
256
6
ByLayer
370
18
48
1
60
0
100
AcDbEllipse
10
46.533076
20
-6.409086
30
0
11
-1.4488887394336
21
0.388228567653782
31
0
210
0
220
0
230
-1
40
0.997564
41
-0.00436332312998959
42
0.00929586241795593
0
ELLIPSE
5
C3
100
AcDbEntity
8
1
62
256
6
ByLayer
370
18
48
1
60
0
100
AcDbEllipse
10
46.101777
20
-4.318853
30
0
11
-1.69037019600587
21
0.452933328929413
31
0
210
0
220
0
230
-1
40
0.997564
41
-1.53830046507799
42
-0.0979783643275527
0
ELLIPSE
5
C4
100
AcDbEntity
8
1
62
256
6
ByLayer
370
18
48
1
60
0
100
AcDbEllipse
10
46.101777
20
-4.318853
30
0
11
-1.69037019600587
21
0.452933328929413
31
0
210
0
220
0
230
-1
40
0.997564
41
-3.0436142785924
42
-2.95682777209227
0
ELLIPSE
5
C5
100
AcDbEntity
8
1
62
256
6
ByLayer
370
18
48
1
60
0
100
AcDbEllipse
10
46.090041
20
-4.36265
30
0
11
1.69037019600588
21
-0.452933328929378
31
0
210
0
220
0
230
-1
40
0.997564
41
1.60322065318388
42
1.88589315708586
0
ELLIPSE
5
C6
100
AcDbEntity
8
1
62
256
6
ByLayer
370
18
48
1
60
0
100
AcDbEllipse
10
46.090041
20
-4.36265
30
0
11
1.69037019600588
21
-0.452933328929378
31
0
210
0
220
0
230
-1
40
0.997564
41
0.101766852009742
42
0.158440715896504
0
ELLIPSE
5
C7
100
AcDbEntity
8
1
62
256
6
ByLayer
370
18
48
1
60
0
100
AcDbEllipse
10
46.013311
20
-4.649013
30
0
11
1.69037019600588
21
-0.452933328929378
31
0
210
0
220
0
230
-1
40
0.997564
41
1.9901525125834
42
0.00328592166191298
0
ELLIPSE
5
C8
100
AcDbEntity
8
1
62
256
6
ByLayer
370
18
48
1
60
0
100
AcDbEllipse
10
46.505092
20
-6.513525
30
0
11
1.61506120574529
21
-0.43275434580625
31
0
210
0
220
0
230
-1
40
0.997564
41
3.13722933045982
42
-3.09407573914669
0
ELLIPSE
5
C9
100
AcDbEntity
8
1
62
256
6
ByLayer
370
18
48
1
60
0
100
AcDbEllipse
10
46.447271
20
-6.733152
30
0
11
1.61506120574529
21
-0.43275434580625
31
0
210
0
220
0
230
-1
40
0.997564
41
2.22339380534556
42
3.13722933045982
0
ELLIPSE
5
CA
100
AcDbEntity
8
1
62
256
6
ByLayer
370
18
48
1
60
0
100
AcDbEllipse
10
32.950308
20
-10.589943
30
0
11
3.99997618092182
21
-0.0303386457718989
31
0
210
0
220
0
230
-1
40
0.366472
41
1.55653959391549
42
2.39749399143676
0
ELLIPSE
5
CB
100
AcDbEntity
8
1
62
256
6
ByLayer
370
18
48
1
60
0
100
AcDbEllipse
10
32.950326
20
-10.533435
30
0
11
4.00000025125603
21
0.000249930741020797
31
0
210
0
220
0
230
-1
40
0.373995
41
2.40030139152053
42
2.86190504827225
0
ELLIPSE
5
CC
100
AcDbEntity
8
1
62
256
6
ByLayer
370
18
48
1
60
0
100
AcDbEllipse
10
19.05
20
-12.430401
30
0
11
-4.05
21
0
31
0
210
0
220
0
230
-1
40
0.34202
41
-1.5707963267949
42
1.5707963267949
0
ELLIPSE
5
CD
100
AcDbEntity
8
1
62
256
6
ByLayer
370
18
48
1
60
0
100
AcDbEllipse
10
20.95
20
-12.430401
30
0
11
-4.05
21
0
31
0
210
0
220
0
230
-1
40
0.34202
41
1.5707963267949
42
-1.5707963267949
0
ELLIPSE
5
CE
100
AcDbEntity
8
1
62
256
6
ByLayer
370
13
48
1
60
0
100
AcDbEllipse
10
50.477812
20
-12.302521
30
0
11
-3.80237746035778
21
1.01884396982117
31
0
210
0
220
0
230
-1
40
0.997564
41
0
42
6.28318530717959
0
ELLIPSE
5
CF
100
AcDbEntity
8
1
62
256
6
ByLayer
370
18
48
1
60
0
100
AcDbEllipse
10
50.474686
20
-12.314184
30
0
11
3.8704364626119
21
-1.03708032451275
31
0
210
0
220
0
230
-1
40
0.997564
41
0
42
6.28318530717959
0
ELLIPSE
5
D0
100
AcDbEntity
8
1
62
256
6
ByLayer
370
18
48
1
60
0
100
AcDbEllipse
10
54.390259
20
-19.167804
30
0
11
0.76694510607352
21
-0.205502321811385
31
0
210
0
220
0
230
-1
40
0.997564
41
0
42
1.57079632679489
0
ELLIPSE
5
D1
100
AcDbEntity
8
1
62
256
6
ByLayer
370
18
48
1
60
0
100
AcDbEllipse
10
43.656891
20
-16.291807
30
0
11
0.766945106073527
21
-0.205502321811387
31
0
210
0
220
0
230
-1
40
0.997564
41
1.57079632679488
42
3.14159265358979
0
ELLIPSE
5
D2
100
AcDbEntity
8
1
62
256
6
ByLayer
370
18
48
1
60
0
100
AcDbEllipse
10
46.525883
20
-5.584585
30
0
11
0.766945106073527
21
-0.205502321811387
31
0
210
0
220
0
230
-1
40
0.997564
41
3.14159265358979
42
-1.5707963267949
0
ELLIPSE
5
D3
100
AcDbEntity
8
1
62
256
6
ByLayer
370
18
48
1
60
0
100
AcDbEllipse
10
57.25925
20
-8.460583
30
0
11
0.766945106073528
21
-0.205502321811388
31
0
210
0
220
0
230
-1
40
0.997564
41
-1.5707963267949
42
-2.24268842754886E-15
0
ELLIPSE
5
D4
100
AcDbEntity
8
1
62
256
6
ByLayer
370
18
48
1
60
0
100
AcDbEllipse
10
50.458071
20
-12.376195
30
0
11
3.93259830103471
21
-1.05373653891817
31
0
210
0
220
0
230
-1
40
0.997564
41
0
42
6.28318530717959
0
ELLIPSE
5
D5
100
AcDbEntity
8
1
62
256
6
ByLayer
370
18
48
1
60
0
100
AcDbEllipse
10
50.499117
20
-12.22301
30
0
11
1.16538950941777
21
-0.312265177916168
31
0
210
0
220
0
230
-1
40
0.997564
41
2.42522712360426
42
-3.00428677079733
0
ELLIPSE
5
D6
100
AcDbEntity
8
1
62
256
6
ByLayer
370
18
48
1
60
0
100
AcDbEllipse
10
50.499117
20
-12.22301
30
0
11
-1.16538950941776
21
0.312265177916192
31
0
210
0
220
0
230
-1
40
0.997564
41
0.330183589377426
42
1.0328900634346
0
ELLIPSE
5
D7
100
AcDbEntity
8
1
62
256
6
ByLayer
370
18
48
1
60
0
100
AcDbEllipse
10
50.499117
20
-12.22301
30
0
11
-1.16538950941776
21
0.312265177916192
31
0
210
0
220
0
230
-1
40
0.997564
41
2.61334853762455
42
-2.87839799194995
0
ELLIPSE
5
D8
100
AcDbEntity
8
1
62
256
6
ByLayer
370
18
48
1
60
0
100
AcDbEllipse
10
50.499117
20
-12.22301
30
0
11
-1.16538950941776
21
0.312265177916192
31
0
210
0
220
0
230
-1
40
0.997564
41
-2.87839799194995
42
-1.83399098843469
0
ELLIPSE
5
D9
100
AcDbEntity
8
1
62
256
6
ByLayer
370
18
48
1
60
0
100
AcDbEllipse
10
50.499117
20
-12.22301
30
0
11
-1.16538950941776
21
0.312265177916192
31
0
210
0
220
0
230
-1
40
0.997564
41
-1.83399098843469
42
-0.854430796809325
0
ELLIPSE
5
DA
100
AcDbEntity
8
1
62
256
6
ByLayer
370
18
48
1
60
0
100
AcDbEllipse
10
50.499117
20
-12.22301
30
0
11
-1.16538950941776
21
0.312265177916192
31
0
210
0
220
0
230
-1
40
0.997564
41
1.53432398256947
42
2.17798692489697
0
ELLIPSE
5
DB
100
AcDbEntity
8
1
62
256
6
ByLayer
370
18
48
1
60
0
100
AcDbEllipse
10
50.499117
20
-12.22301
30
0
11
1.16538950941777
21
-0.312265177916168
31
0
210
0
220
0
230
-1
40
0.997564
41
2.28716185678046
42
2.42522712360426
0
ELLIPSE
5
DC
100
AcDbEntity
8
1
62
256
6
ByLayer
370
18
48
1
60
0
100
AcDbEllipse
10
48.86788
20
-13.162154
30
0
11
-0.662625116834301
21
0.17754986494033
31
0
210
0
220
0
230
-1
40
0.997564
41
2.47780853140926
42
-3.13572948206598
0
ELLIPSE
5
DD
100
AcDbEntity
8
1
62
256
6
ByLayer
370
18
48
1
60
0
100
AcDbEllipse
10
48.86788
20
-13.162154
30
0
11
-0.662625116834301
21
0.17754986494033
31
0
210
0
220
0
230
-1
40
0.997564
41
1.56493315527112
42
2.23458044897547
0
ELLIPSE
5
DE
100
AcDbEntity
8
1
62
256
6
ByLayer
370
18
48
1
60
0
100
AcDbEllipse
10
50.502909
20
-14.111208
30
0
11
-0.662625116834301
21
0.17754986494033
31
0
210
0
220
0
230
-1
40
0.997564
41
0.523611021534289
42
1.3076016651551
0
ELLIPSE
5
DF
100
AcDbEntity
8
1
62
256
6
ByLayer
370
18
48
1
60
0
100
AcDbEllipse
10
50.502909
20
-14.111208
30
0
11
-0.662625116834301
21
0.17754986494033
31
0
210
0
220
0
230
-1
40
0.997564
41
1.3076016651551
42
2.09159230877589
0
ELLIPSE
5
E0
100
AcDbEntity
8
1
62
256
6
ByLayer
370
18
48
1
60
0
100
AcDbEllipse
10
49.811059
20
-13.4208
30
0
11
-0.282050341276408
21
0.0755751611699363
31
0
210
0
220
0
230
-1
40
0.997564
41
-2.61798163205548
42
0.00586317152380189
0
ELLIPSE
5
E1
100
AcDbEntity
8
1
62
256
6
ByLayer
370
18
48
1
60
0
100
AcDbEllipse
10
50.490992
20
-12.253331
30
0
11
3.30829595504008
21
-0.886455229476069
31
0
210
0
220
0
230
-1
40
0.997564
41
3.14149445213165
42
-2.35619452207555
0
ELLIPSE
5
E2
100
AcDbEntity
8
1
62
256
6
ByLayer
370
18
48
1
60
0
100
AcDbEllipse
10
50.490992
20
-12.253331
30
0
11
3.30829595504008
21
-0.886455229476069
31
0
210
0
220
0
230
-1
40
0.997564
41
-2.35619446361023
42
0
0
ELLIPSE
5
E3
100
AcDbEntity
8
1
62
256
6
ByLayer
370
18
48
1
60
0
100
AcDbEllipse
10
52.137058
20
-13.170387
30
0
11
-0.662625116834301
21
0.17754986494033
31
0
210
0
220
0
230
-1
40
0.997564
41
-5.62464164678226E-06
42
0.263194661639841
0
ELLIPSE
5
E4
100
AcDbEntity
8
1
62
256
6
ByLayer
370
18
48
1
60
0
100
AcDbEllipse
10
52.137058
20
-13.170387
30
0
11
-0.662625116834301
21
0.17754986494033
31
0
210
0
220
0
230
-1
40
0.997564
41
0.263194661639841
42
1.04718530526064
0
ELLIPSE
5
E5
100
AcDbEntity
8
1
62
256
6
ByLayer
370
18
48
1
60
0
100
AcDbEllipse
10
51.191984
20
-13.419718
30
0
11
-0.282050341276408
21
0.0755751611699363
31
0
210
0
220
0
230
-1
40
0.997564
41
-2.89369353472496
42
-1.05000034481387
0
ELLIPSE
5
E6
100
AcDbEntity
8
1
62
256
6
ByLayer
370
18
48
1
60
0
100
AcDbEllipse
10
50.467004
20
-12.342854
30
0
11
1.16538950941777
21
-0.312265177916168
31
0
210
0
220
0
230
-1
40
0.997564
41
2.28716185678046
42
2.42522712360426
0
ELLIPSE
5
E7
100
AcDbEntity
8
1
62
256
6
ByLayer
370
18
48
1
60
0
100
AcDbEllipse
10
48.861175
20
-11.275632
30
0
11
-0.662625116834301
21
0.17754986494033
31
0
210
0
220
0
230
-1
40
0.997564
41
2.62079667160884
42
3.14158686550358
0
ELLIPSE
5
E8
100
AcDbEntity
8
1
62
256
6
ByLayer
370
18
48
1
60
0
100
AcDbEllipse
10
49.114845
20
-12.218312
30
0
11
-0.282050341276408
21
0.0755751611699363
31
0
210
0
220
0
230
-1
40
0.997564
41
-1.5766594983187
42
-0.234685577672838
0
ELLIPSE
5
E9
100
AcDbEntity
8
1
62
256
6
ByLayer
370
18
48
1
60
0
100
AcDbEllipse
10
51.883388
20
-12.227708
30
0
11
-0.282050341276408
21
0.0755751611699363
31
0
210
0
220
0
230
-1
40
0.997564
41
-2.86057033020335
42
-2.09440734832919
0
ELLIPSE
5
EA
100
AcDbEntity
8
1
62
256
6
ByLayer
370
18
48
1
60
0
100
AcDbEllipse
10
50.467004
20
-12.342854
30
0
11
1.16538950941777
21
-0.312265177916168
31
0
210
0
220
0
230
-1
40
0.997564
41
-0.854430796809328
42
-0.716365529985541
0
POINT
5
70
100
AcDbEntity
8
80
62
256
6
ByLayer
370
70
48
1
60
0
100
AcDbPoint
10
0
20
0
30
0
39
0
210
0
220
0
230
1
50
360
0
POINT
5
72
100
AcDbEntity
8
81
62
256
6
ByLayer
370
70
48
1
60
0
100
AcDbPoint
10
54.952202
20
-20.138384
30
0
39
0
210
0
220
0
230
1
50
360
0
SPLINE
5
EB
100
AcDbEntity
8
1
62
256
6
ByLayer
370
18
48
1
60
0
100
AcDbSpline
70
4
71
3
72
8
73
4
40
0
40
0
40
0
40
0
40
1
40
1
40
1
40
1
41
1
10
44.9123589096787
20
-6.0047318074021
30
0
41
1
10
44.96950834455
20
-6.00861758697079
30
0
41
1
10
45.0280962556922
20
-6.00949692690735
30
0
41
1
10
45.0878499366797
20
-6.00743886474363
30
0
0
SPLINE
5
EC
100
AcDbEntity
8
1
62
256
6
ByLayer
370
18
48
1
60
0
100
AcDbSpline
70
4
71
2
72
6
73
3
40
0
40
0
40
0
40
1
40
1
40
1
41
0.499979851146027
10
32.9962152448419
20
-12.0561056082199
30
0
41
0.500020148853973
10
32.99786150572
20
-13.4030485773012
30
0
41
0.499979851146027
10
32.9995077375106
20
-14.7500000000002
30
0
0
SPLINE
5
ED
100
AcDbEntity
8
SK1
62
256
6
ByLayer
370
70
48
1
60
0
100
AcDbSpline
70
4
71
3
72
71
73
67
40
0
40
0
40
0
40
0
40
0.0624865366146042
40
0.0624865366146042
40
0.0937298049219063
40
0.0937298049219063
40
0.109351439075557
40
0.109351439075557
40
0.124973073229208
40
0.124973073229208
40
0.187459609843813
40
0.187459609843813
40
0.203081243997464
40
0.203081243997464
40
0.218702878151115
40
0.218702878151115
40
0.249946146458418
40
0.249946146458418
40
0.312432683073023
40
0.312432683073023
40
0.343675951380325
40
0.343675951380325
40
0.374919219687628
40
0.40616248799493
40
0.40616248799493
40
0.421784122148582
40
0.421784122148582
40
0.437405756302233
40
0.437405756302233
40
0.499892292916838
40
0.499892292916838
40
0.515513927070489
40
0.515513927070489
40
0.53113556122414
40
0.53113556122414
40
0.562378829531442
40
0.562378829531442
40
0.624865366146047
40
0.624865366146047
40
0.640487000299698
40
0.640487000299698
40
0.656108634453349
40
0.656108634453349
40
0.687351902760651
40
0.718595171067952
40
0.718595171067952
40
0.734216805221603
40
0.734216805221603
40
0.749838439375253
40
0.749838439375253
40
0.812324975989854
40
0.812324975989854
40
0.827946610143504
40
0.827946610143504
40
0.843568244297154
40
0.843568244297154
40
0.874811512604455
40
0.874811512604455
40
0.937298049219055
40
0.937298049219055
40
0.952919683372706
40
0.952919683372706
40
0.968541317526356
40
0.968541317526356
40
0.999784585833656
40
1
40
1
40
1
40
1
41
1
10
1.79999970375286
20
-1.49999990043385
30
0
41
1
10
1.80000092429074
20
-1.50000031064732
30
0
41
1
10
1.80987263504439
20
-1.50331813075995
30
0
41
1
10
1.83878806743103
20
-1.51278957711781
30
0
41
1
10
1.85079570198149
20
-1.51669693574025
30
0
41
1
10
1.87243354113859
20
-1.52362877861794
30
0
41
1
10
1.88027682394646
20
-1.52612576612784
30
0
41
1
10
1.89703795221548
20
-1.53141641329097
30
0
41
1
10
1.90595725281289
20
-1.53421064834195
30
0
41
1
10
1.95318993478989
20
-1.54886452799805
30
0
41
1
10
1.99933070305372
20
-1.56276967329917
30
0
41
1
10
2.06737249800681
20
-1.58194612066798
30
0
41
1
10
2.08150420173908
20
-1.58587120849416
30
0
41
1
10
2.1108330954265
20
-1.59387711195498
30
0
41
1
10
2.12600484179586
20
-1.5979505099791
30
0
41
1
10
2.17264378510886
20
-1.61023550065826
30
0
41
1
10
2.20537197678174
20
-1.61855037406218
30
0
41
1
10
2.3083813213733
20
-1.64352563814902
30
0
41
1
10
2.38343397325444
20
-1.66022523490404
30
0
41
1
10
2.50619481396461
20
-1.68392370248491
30
0
41
1
10
2.54821163761304
20
-1.69147507172279
30
0
41
1
10
2.63420882690895
20
-1.70564596135952
30
0
41
1
10
2.72223345762107
20
-1.71889663491145
30
0
41
1
10
2.81435674748514
20
-1.72991196953773
30
0
41
1
10
2.88504889669454
20
-1.73717992135131
30
0
41
1
10
2.90888004645182
20
-1.73943689129835
30
0
41
1
10
2.9570933762209
20
-1.74359210862053
30
0
41
1
10
2.9813114972353
20
-1.74547564750736
30
0
41
1
10
3.10252546443276
20
-1.75386789433796
30
0
41
1
10
3.20032585606242
20
-1.75733488235663
30
0
41
1
10
3.3236118237633
20
-1.75736525952739
30
0
41
1
10
3.34832120689792
20
-1.7571563846848
30
0
41
1
10
3.39784602539082
20
-1.75630339801846
30
0
41
1
10
3.42271440263004
20
-1.75565735834526
30
0
41
1
10
3.49711848963801
20
-1.75307190553211
30
0
41
1
10
3.54602964391453
20
-1.75050429530319
30
0
41
1
10
3.69077732897655
20
-1.7404883431255
30
0
41
1
10
3.78464548370393
20
-1.73072550182051
30
0
41
1
10
3.89871207895953
20
-1.71538273331353
30
0
41
1
10
3.92135036234309
20
-1.71215750613258
30
0
41
1
10
3.96580866926756
20
-1.70548976441979
30
0
41
1
10
3.98769203554498
20
-1.70203900353711
30
0
41
1
10
4.05232993365792
20
-1.69138106665257
30
0
41
1
10
4.13581984777722
20
-1.67635827359638
30
0
41
1
10
4.21406060277446
20
-1.66016748330484
30
0
41
1
10
4.27076367661651
20
-1.6477543741543
30
0
41
1
10
4.28936327340932
20
-1.64356497695735
30
0
41
1
10
4.32576449576302
20
-1.63515415804986
30
0
41
1
10
4.34348692208932
20
-1.6309515083267
30
0
41
1
10
4.42976428266769
20
-1.61002464804953
30
0
41
1
10
4.49138798795936
20
-1.59356295577991
30
0
41
1
10
4.55930603568727
20
-1.57442864457653
30
0
41
1
10
4.57242952806242
20
-1.5706738441905
30
0
41
1
10
4.59774114401206
20
-1.56333623456603
30
0
41
1
10
4.60995756938062
20
-1.55974496914636
30
0
41
1
10
4.64496083475205
20
-1.54933451394169
30
0
41
1
10
4.66599519459355
20
-1.54291310713705
30
0
41
1
10
4.72238547563891
20
-1.52541585878407
30
0
41
1
10
4.75109629629495
20
-1.51610206345501
30
0
41
1
10
4.7754817751738
20
-1.50811562547136
30
0
41
1
10
4.77978773692502
20
-1.50669835791027
30
0
41
1
10
4.78715763395873
20
-1.50426582984555
30
0
41
1
10
4.79021589057272
20
-1.50325249910526
30
0
41
1
10
4.79754680444152
20
-1.50081948969375
30
0
41
1
10
4.79999694127533
20
-1.50000100745455
30
0
41
1
10
4.80000098572242
20
-1.49999967255223
30
0
41
1
10
4.79999951572508
20
-1.50000016241867
30
0
0
SPLINE
5
EE
100
AcDbEntity
8
SK1
62
256
6
ByLayer
370
70
48
1
60
0
100
AcDbSpline
70
2053
71
3
72
133
73
129
40
0
40
0
40
0
40
0
40
0.0312499999999991
40
0.0312499999999991
40
0.0468749999999986
40
0.0468749999999986
40
0.0546874999999984
40
0.0546874999999984
40
0.0624999999999981
40
0.0624999999999981
40
0.0937499999999971
40
0.0937499999999971
40
0.101562499999997
40
0.101562499999997
40
0.109374999999997
40
0.109374999999997
40
0.124999999999996
40
0.124999999999996
40
0.156249999999995
40
0.156249999999995
40
0.171874999999995
40
0.171874999999995
40
0.187499999999994
40
0.203124999999994
40
0.203124999999994
40
0.210937499999993
40
0.210937499999993
40
0.218749999999993
40
0.218749999999993
40
0.249999999999992
40
0.249999999999992
40
0.257812499999992
40
0.257812499999992
40
0.265624999999991
40
0.265624999999991
40
0.281249999999991
40
0.281249999999991
40
0.31249999999999
40
0.31249999999999
40
0.320312499999989
40
0.320312499999989
40
0.328124999999989
40
0.328124999999989
40
0.343749999999988
40
0.359374999999988
40
0.359374999999988
40
0.367187499999988
40
0.367187499999988
40
0.374999999999987
40
0.374999999999987
40
0.406249999999986
40
0.406249999999986
40
0.414062499999986
40
0.414062499999986
40
0.421874999999986
40
0.421874999999986
40
0.437499999999986
40
0.437499999999986
40
0.468749999999985
40
0.468749999999985
40
0.476562499999985
40
0.476562499999985
40
0.484374999999985
40
0.484374999999985
40
0.499999999999985
40
0.515624999999985
40
0.515624999999985
40
0.523437499999984
40
0.523437499999984
40
0.531249999999984
40
0.531249999999984
40
0.562499999999984
40
0.562499999999984
40
0.578124999999984
40
0.578124999999984
40
0.593749999999983
40
0.593749999999983
40
0.624999999999983
40
0.624999999999983
40
0.632812499999983
40
0.632812499999983
40
0.640624999999983
40
0.640624999999983
40
0.656249999999983
40
0.671874999999983
40
0.671874999999983
40
0.679687499999983
40
0.679687499999983
40
0.687499999999983
40
0.687499999999983
40
0.718749999999984
40
0.718749999999984
40
0.734374999999985
40
0.734374999999985
40
0.742187499999985
40
0.742187499999985
40
0.749999999999985
40
0.749999999999985
40
0.781249999999986
40
0.781249999999986
40
0.789062499999986
40
0.789062499999986
40
0.796874999999987
40
0.796874999999987
40
0.812499999999988
40
0.828124999999988
40
0.828124999999988
40
0.835937499999989
40
0.835937499999989
40
0.843749999999989
40
0.843749999999989
40
0.874999999999991
40
0.874999999999991
40
0.890624999999992
40
0.890624999999992
40
0.898437499999993
40
0.898437499999993
40
0.906249999999993
40
0.906249999999993
40
0.937499999999996
40
0.937499999999996
40
0.945312499999996
40
0.945312499999996
40
0.953124999999997
40
0.953124999999997
40
0.968749999999998
40
0.968749999999998
40
1
40
1
40
1
40
1
41
1
10
1.8
20
-6
30
0
41
1
10
1.8
20
-6.09986660608824
30
0
41
1
10
1.80987263504439
20
-6.19792751175888
30
0
41
1
10
1.83878806743103
20
-6.34245204634111
30
0
41
1
10
1.85079570198149
20
-6.39019604422965
30
0
41
1
10
1.87243354113859
20
-6.4611567175222
30
0
41
1
10
1.88027682394646
20
-6.48476627571881
30
0
41
1
10
1.89703795221548
20
-6.53132827063324
30
0
41
1
10
1.90595725281289
20
-6.55429952666007
30
0
41
1
10
1.95318993478989
20
-6.66764735309258
30
0
41
1
10
1.99933070305372
20
-6.7535421173585
30
0
41
1
10
2.06737249800681
20
-6.85511831798057
30
0
41
1
10
2.08150420173908
20
-6.87514125132641
30
0
41
1
10
2.1108330954265
20
-6.91459624601227
30
0
41
1
10
2.12600484179586
20
-6.93398836565525
30
0
41
1
10
2.17264378510886
20
-6.99068842700892
30
0
41
1
10
2.20537197678174
20
-7.02671604481569
30
0
41
1
10
2.3083813213733
20
-7.12965383183761
30
0
41
1
10
2.38343397325444
20
-7.19147354305501
30
0
41
1
10
2.50619481396461
20
-7.27369499799574
30
0
41
1
10
2.54821163761304
20
-7.29892056655392
30
0
41
1
10
2.63420898160908
20
-7.34502888439885
30
0
41
1
10
2.72223345762106
20
-7.38683560980095
30
0
41
1
10
2.81435674748514
20
-7.42006311486312
30
0
41
1
10
2.88504889669454
20
-7.44167358878235
30
0
41
1
10
2.90888004645182
20
-7.44832431405122
30
0
41
1
10
2.95709337622089
20
-7.46049073400137
30
0
41
1
10
2.9813114972353
20
-7.46596347325394
30
0
41
1
10
3.10252546443276
20
-7.49022953773883
30
0
41
1
10
3.20032585606243
20
-7.49993090002419
30
0
41
1
10
3.3236118237633
20
-7.50001681966141
30
0
41
1
10
3.34832120689792
20
-7.49942645599695
30
0
41
1
10
3.39784602539082
20
-7.4970106182973
30
0
41
1
10
3.42271440263004
20
-7.4951796848803
30
0
41
1
10
3.49711848963801
20
-7.4878268581422
30
0
41
1
10
3.54602964391453
20
-7.48050349233081
30
0
41
1
10
3.69077732897655
20
-7.45154324259101
30
0
41
1
10
3.78464548370393
20
-7.42298474599528
30
0
41
1
10
3.89871207895953
20
-7.37555598705436
30
0
41
1
10
3.92135036234309
20
-7.36547770004714
30
0
41
1
10
3.96580866926756
20
-7.34436023373129
30
0
41
1
10
3.98769203554498
20
-7.33329575169229
30
0
41
1
10
4.0523299615925
20
-7.29861126509095
30
0
41
1
10
4.13581984777721
20
-7.24839685510146
30
0
41
1
10
4.21406060277446
20
-7.19033003017408
30
0
41
1
10
4.27076367661651
20
-7.14377269408378
30
0
41
1
10
4.28936327340932
20
-7.12772510739711
30
0
41
1
10
4.32576449576301
20
-7.09471950921553
30
0
41
1
10
4.34348692208932
20
-7.07783609069705
30
0
41
1
10
4.42976428266769
20
-6.99154535211313
30
0
41
1
10
4.49138798795936
20
-6.9165744773976
30
0
41
1
10
4.55930603568727
20
-6.81531769291854
30
0
41
1
10
4.57242952806242
20
-6.79468558624646
30
0
41
1
10
4.59774114401206
20
-6.7526420184997
30
0
41
1
10
4.60995756938062
20
-6.73117696634273
30
0
41
1
10
4.64496083475205
20
-6.66596900208195
30
0
41
1
10
4.66599519459355
20
-6.62165028233246
30
0
41
1
10
4.72238547563891
20
-6.48619681138178
30
0
41
1
10
4.75109629629494
20
-6.39258854714151
30
0
41
1
10
4.7754817751738
20
-6.2712313042575
30
0
41
1
10
4.77978773692502
20
-6.246673604874
30
0
41
1
10
4.78715763395872
20
-6.19743805472471
30
0
41
1
10
4.79021589057273
20
-6.17282424311541
30
0
41
1
10
4.79754680444152
20
-6.09899448826718
30
0
41
1
10
4.80241352335465
20
-6.00058590896422
30
0
41
1
10
4.79762566689449
20
-5.90223857543158
30
0
41
1
10
4.7903684714721
20
-5.82850130376403
30
0
41
1
10
4.78733725904487
20
-5.80392609096565
30
0
41
1
10
4.78002905035461
20
-5.75478354448864
30
0
41
1
10
4.77573975856783
20
-5.73017077676856
30
0
41
1
10
4.75141061113851
20
-5.60851876990733
30
0
41
1
10
4.72270088123806
20
-5.5146826291579
30
0
41
1
10
4.66624872575904
20
-5.37889847340309
30
0
41
1
10
4.6451629435698
20
-5.33443414766785
30
0
41
1
10
4.59844804304821
20
-5.24735537732057
30
0
41
1
10
4.57316244159836
20
-5.2053712733098
30
0
41
1
10
4.49172249976042
20
-5.08386292102285
30
0
41
1
10
4.4300430506856
20
-5.00873917695102
30
0
41
1
10
4.34347192648275
20
-4.922147484173
30
0
41
1
10
4.32563161527507
20
-4.90515712083573
30
0
41
1
10
4.28930189718794
20
-4.87222214220672
30
0
41
1
10
4.27079752815546
20
-4.85625769229955
30
0
41
1
10
4.21427793962715
20
-4.80984325507181
30
0
41
1
10
4.13623955907759
20
-4.75189349954739
30
0
41
1
10
4.05284438802639
20
-4.7016870825112
30
0
41
1
10
3.98822687312038
20
-4.66698029002185
30
0
41
1
10
3.96634185627389
20
-4.65590365623
30
0
41
1
10
3.9218612907676
20
-4.6347546060128
30
0
41
1
10
3.89920426798063
20
-4.62465883157879
30
0
41
1
10
3.78528101785325
20
-4.57723941478658
30
0
41
1
10
3.69158379509047
20
-4.54868953012505
30
0
41
1
10
3.54719150379291
20
-4.51969383315845
30
0
41
1
10
3.49841542016401
20
-4.51235055468752
30
0
41
1
10
3.42424205494146
20
-4.50494772681409
30
0
41
1
10
3.39928746702113
20
-4.50308303068112
30
0
41
1
10
3.34961289841722
20
-4.50061446770587
30
0
41
1
10
3.32483767297412
20
-4.50000203808487
30
0
41
1
10
3.20126626202303
20
-4.49999187303599
30
0
41
1
10
3.10337645043821
20
-4.50966154053297
30
0
41
1
10
2.98221426052648
20
-4.53384079299422
30
0
41
1
10
2.95804231232389
20
-4.53928679257955
30
0
41
1
10
2.90982117544186
20
-4.55142186287389
30
0
41
1
10
2.88590701822299
20
-4.55807886879458
30
0
41
1
10
2.81506360577366
20
-4.57969197768596
30
0
41
1
10
2.72271819555362
20
-4.61294936534638
30
0
41
1
10
2.63443911328625
20
-4.65485177668126
30
0
41
1
10
2.5697403190452
20
-4.68953460269758
30
0
41
1
10
2.54842626370247
20
-4.70163925410445
30
0
41
1
10
2.50630578464064
20
-4.72695121849955
30
0
41
1
10
2.48545238460636
20
-4.74019231249998
30
0
41
1
10
2.38343251048911
20
-4.80854892135159
30
0
41
1
10
2.30840115668625
20
-4.87031652823051
30
0
41
1
10
2.20524831375641
20
-4.97341244962769
30
0
41
1
10
2.17244243279801
20
-5.00953215776568
30
0
41
1
10
2.12565601286386
20
-5.06644799108946
30
0
41
1
10
2.11047884137893
20
-5.08586669567112
30
0
41
1
10
2.08125879379953
20
-5.12520279081408
30
0
41
1
10
2.06717317557904
20
-5.14517086979565
30
0
41
1
10
1.99932607724487
20
-5.24649851998198
30
0
41
1
10
1.95322758210992
20
-5.33227570335947
30
0
41
1
10
1.90598567054202
20
-5.44562893348774
30
0
41
1
10
1.89706139208498
20
-5.46860896959213
30
0
41
1
10
1.88028609218807
20
-5.51520562633025
30
0
41
1
10
1.87244362463285
20
-5.53881233920232
30
0
41
1
10
1.85080841842599
20
-5.60975800688707
30
0
41
1
10
1.83880016244989
20
-5.65749643720594
30
0
41
1
10
1.80987993565069
20
-5.80201813983104
30
0
41
1
10
1.79999999999999
20
-5.90013339391174
30
0
41
1
10
1.8
20
-6
30
0
0
SPLINE
5
EF
100
AcDbEntity
8
SK1
62
256
6
ByLayer
370
70
48
1
60
0
100
AcDbSpline
70
4
71
3
72
70
73
66
40
0
40
0
40
0
40
0
40
0.0312173226543967
40
0.0312173226543967
40
0.0468428497083578
40
0.0468428497083578
40
0.0624683767623192
40
0.0624683767623192
40
0.124970484978164
40
0.124970484978164
40
0.156221539086086
40
0.156221539086086
40
0.187472593194009
40
0.187472593194009
40
0.249974701409854
40
0.249974701409854
40
0.265600228463815
40
0.265600228463815
40
0.281225755517776
40
0.281225755517776
40
0.312476809625698
40
0.34372786373362
40
0.34372786373362
40
0.359353390787581
40
0.359353390787581
40
0.374978917841543
40
0.374978917841543
40
0.437481026057387
40
0.437481026057387
40
0.46873208016531
40
0.46873208016531
40
0.484357607219271
40
0.484357607219271
40
0.499983134273233
40
0.499983134273233
40
0.562485242489078
40
0.562485242489078
40
0.57811076954304
40
0.57811076954304
40
0.593736296597001
40
0.593736296597001
40
0.624987350704924
40
0.656238404812847
40
0.656238404812847
40
0.671863931866808
40
0.671863931866808
40
0.68748945892077
40
0.68748945892077
40
0.749991567136616
40
0.749991567136616
40
0.781242621244539
40
0.781242621244539
40
0.7968681482985
40
0.7968681482985
40
0.812493675352461
40
0.812493675352461
40
0.874995783568307
40
0.874995783568307
40
0.890621310622269
40
0.890621310622269
40
0.90624683767623
40
0.90624683767623
40
0.937497891784154
40
0.937497891784154
40
1
40
1
40
1
40
1
41
1
10
4.79999993491665
20
-10.4999999782994
30
0
41
1
10
4.80001442440786
20
-10.5000048043508
30
0
41
1
10
4.7976204447613
20
-10.4992050645235
30
0
41
1
10
4.7903684714721
20
-10.4967980801388
30
0
41
1
10
4.78733725904487
20
-10.4957936145546
30
0
41
1
10
4.78002905035461
20
-10.4933811425719
30
0
41
1
10
4.77573975856783
20
-10.4919691338104
30
0
41
1
10
4.75141061113851
20
-10.4839998424985
30
0
41
1
10
4.72270088123805
20
-10.4746841047627
30
0
41
1
10
4.66624872575904
20
-10.4571645236207
30
0
41
1
10
4.6451629435698
20
-10.4507264625783
30
0
41
1
10
4.59844804304821
20
-10.4368310786457
30
0
41
1
10
4.57316244159836
20
-10.42947673867
30
0
41
1
10
4.49172249976042
20
-10.4065279778214
30
0
41
1
10
4.43004305068559
20
-10.3900436204555
30
0
41
1
10
4.34347192648275
20
-10.3690446915975
30
0
41
1
10
4.32563161527506
20
-10.3648147567782
30
0
41
1
10
4.28930189718794
20
-10.3564212255608
30
0
41
1
10
4.27079752815546
20
-10.3522534293673
30
0
41
1
10
4.21427793962714
20
-10.339879311911
30
0
41
1
10
4.13623955907759
20
-10.3237253661965
30
0
41
1
10
4.05284438802639
20
-10.3087085596292
30
0
41
1
10
3.98822687312037
20
-10.2980466404746
30
0
41
1
10
3.96634185627388
20
-10.2945928774126
30
0
41
1
10
3.9218612907676
20
-10.2879165078457
30
0
41
1
10
3.89920426798063
20
-10.2846862222979
30
0
41
1
10
3.78528101785325
20
-10.2693491268364
30
0
41
1
10
3.69158379509047
20
-10.2595910916699
30
0
41
1
10
3.54719150379291
20
-10.2495644764448
30
0
41
1
10
3.49841542016401
20
-10.2469902866682
30
0
41
1
10
3.42424205494146
20
-10.2443875344083
30
0
41
1
10
3.39928746702113
20
-10.2437296450553
30
0
41
1
10
3.34961289841722
20
-10.242858086114
30
0
41
1
10
3.32483767297412
20
-10.2426414076911
30
0
41
1
10
3.20126626202302
20
-10.2426378138036
30
0
41
1
10
3.10337645043821
20
-10.2460935233138
30
0
41
1
10
2.98221426052648
20
-10.2544568822581
30
0
41
1
10
2.95804231232389
20
-10.2563315233265
30
0
41
1
10
2.90982117544186
20
-10.2604767915616
30
0
41
1
10
2.88590701822299
20
-10.2627363544137
30
0
41
1
10
2.81506360577366
20
-10.2700065837393
30
0
41
1
10
2.72271819555362
20
-10.2810339334776
30
0
41
1
10
2.63443911328625
20
-10.294317335745
30
0
41
1
10
2.5697403190452
20
-10.3049769712703
30
0
41
1
10
2.54842626370246
20
-10.3086463982152
30
0
41
1
10
2.50630578464064
20
-10.3161929070948
30
0
41
1
10
2.48545238460636
20
-10.3200795153097
30
0
41
1
10
2.38343251048911
20
-10.3397791621817
30
0
41
1
10
2.30840115668625
20
-10.3564684309276
30
0
41
1
10
2.20524831375641
20
-10.3814801706085
30
0
41
1
10
2.17244243279801
20
-10.3898155685149
30
0
41
1
10
2.12565601286386
20
-10.40214237215
30
0
41
1
10
2.11047884137893
20
-10.4062186788962
30
0
41
1
10
2.08125879379953
20
-10.4141967091576
30
0
41
1
10
2.06717317557904
20
-10.4181096046514
30
0
41
1
10
1.99932607724487
20
-10.4372334453525
30
0
41
1
10
1.95322758210992
20
-10.4511240236799
30
0
41
1
10
1.90598567054202
20
-10.4657804772818
30
0
41
1
10
1.89706139208498
20
-10.4685762155675
30
0
41
1
10
1.88028609218807
20
-10.4738712807581
30
0
41
1
10
1.87244362463285
20
-10.4763680069103
30
0
41
1
10
1.85080841842599
20
-10.4832989587868
30
0
41
1
10
1.83880016244989
20
-10.4872064812048
30
0
41
1
10
1.80987993565069
20
-10.4966794376534
30
0
41
1
10
1.79999848321498
20
-10.5000005097796
30
0
41
1
10
1.79999970375286
20
-10.5000000995661
30
0
0
SPLINE
5
F0
100
AcDbEntity
8
1
62
256
6
ByLayer
370
18
48
1
60
0
100
AcDbSpline
70
4
71
3
72
26
73
22
40
0
40
0
40
0
40
0
40
0.250000000000002
40
0.250000000000002
40
0.312500000000003
40
0.312500000000003
40
0.375000000000003
40
0.375000000000003
40
0.500000000000002
40
0.500000000000002
40
0.562500000000002
40
0.562500000000002
40
0.625000000000001
40
0.625000000000001
40
0.750000000000002
40
0.750000000000002
40
0.812500000000001
40
0.812500000000001
40
0.875000000000001
40
0.875000000000001
40
1
40
1
40
1
40
1
41
1
10
49.9825791720827
20
-13.7577217994928
30
0
41
1
10
49.9611674077633
20
-13.7798534176602
30
0
41
1
10
49.9367685005978
20
-13.7985708505507
30
0
41
1
10
49.9022695564215
20
-13.8172632243479
30
0
41
1
10
49.8951353395242
20
-13.8207727313928
30
0
41
1
10
49.8806787938918
20
-13.827175020541
30
0
41
1
10
49.8733387360733
20
-13.8300803006537
30
0
41
1
10
49.850984605445
20
-13.837904412869
30
0
41
1
10
49.8356388792583
20
-13.8419377535706
30
0
41
1
10
49.8119228455119
20
-13.8460942286191
30
0
41
1
10
49.8039007225518
20
-13.8471626860808
30
0
41
1
10
49.7876095567595
20
-13.8486241754796
30
0
41
1
10
49.7794140709208
20
-13.8490079175494
30
0
41
1
10
49.7549450748821
20
-13.8491081443768
30
0
41
1
10
49.73867894148
20
-13.8477915821901
30
0
41
1
10
49.714356732793
20
-13.8436732032028
30
0
41
1
10
49.7062622088445
20
-13.8419413870339
30
0
41
1
10
49.6901008335034
20
-13.8377237331983
30
0
41
1
10
49.6820540186664
20
-13.8352377665902
30
0
41
1
10
49.6585080452744
20
-13.8268052223066
30
0
41
1
10
49.6434163369279
20
-13.8198471865324
30
0
41
1
10
49.6289317611436
20
-13.8115499273007
30
0
0
SPLINE
5
F1
100
AcDbEntity
8
1
62
256
6
ByLayer
370
18
48
1
60
0
100
AcDbSpline
70
4
71
3
72
32
73
28
40
0
40
0
40
0
40
0
40
0.125000000000001
40
0.125000000000001
40
0.187500000000001
40
0.187500000000001
40
0.250000000000002
40
0.250000000000002
40
0.375000000000001
40
0.375000000000001
40
0.406250000000001
40
0.406250000000001
40
0.437500000000001
40
0.500000000000001
40
0.500000000000001
40
0.5625
40
0.5625
40
0.625
40
0.6875
40
0.6875
40
0.75
40
0.75
40
0.875
40
0.875
40
0.9375
40
0.9375
40
1
40
1
40
1
40
1
41
1
10
49.9825791720827
20
-13.7577217994928
30
0
41
1
10
50.0128193149232
20
-13.726464996705
30
0
41
1
10
50.0457191003397
20
-13.6980605242181
30
0
41
1
10
50.0994150265885
20
-13.6598608154908
30
0
41
1
10
50.118043902681
20
-13.6478671085868
30
0
41
1
10
50.1569143496867
20
-13.6254578850737
30
0
41
1
10
50.1772119607485
20
-13.6150314750545
30
0
41
1
10
50.2393593139965
20
-13.5869784096715
30
0
41
1
10
50.28284588896
20
-13.5722699582693
30
0
41
1
10
50.3402830741837
20
-13.5595544773633
30
0
41
1
10
50.3519382210905
20
-13.5572997417202
30
0
41
1
10
50.3751950488309
20
-13.5534498222255
30
0
41
1
10
50.4101365048121
20
-13.5486320419883
30
0
41
1
10
50.4452456576065
20
-13.5466564522739
30
0
41
1
10
50.4922086414059
20
-13.5465692767374
30
0
41
1
10
50.5157668889541
20
-13.547799038793
30
0
41
1
10
50.5630340939666
20
-13.5529053545644
30
0
41
1
10
50.6092885368621
20
-13.5605297148298
30
0
41
1
10
50.6536944338321
20
-13.572830848209
30
0
41
1
10
50.6972337769377
20
-13.5873822695807
30
0
41
1
10
50.7186330652985
20
-13.5958268094902
30
0
41
1
10
50.7801244721756
20
-13.6237746386892
30
0
41
1
10
50.8180714671276
20
-13.6460009389328
30
0
41
1
10
50.8711468249685
20
-13.6842083766758
30
0
41
1
10
50.8882413669884
20
-13.6978119823836
30
0
41
1
10
50.9208727430241
20
-13.7263875415697
30
0
41
1
10
50.936408470218
20
-13.7413470677952
30
0
41
1
10
50.9512033593355
20
-13.7569631297869
30
0
0
SPLINE
5
F2
100
AcDbEntity
8
1
62
256
6
ByLayer
370
18
48
1
60
0
100
AcDbSpline
70
4
71
3
72
24
73
20
40
0
40
0
40
0
40
0
40
0.125
40
0.125
40
0.25
40
0.25
40
0.3125
40
0.3125
40
0.375000000000001
40
0.375000000000001
40
0.5
40
0.5
40
0.5625
40
0.5625
40
0.625000000000001
40
0.625000000000001
40
0.75
40
0.75
40
1
40
1
40
1
40
1
41
1
10
51.3011026030774
20
-13.8102402084463
30
0
41
1
10
51.286701386418
20
-13.8185313556226
30
0
41
1
10
51.2713518659202
20
-13.8256482935377
30
0
41
1
10
51.2402447628129
20
-13.836863908487
30
0
41
1
10
51.2243751256922
20
-13.8410535574828
30
0
41
1
10
51.2001070889614
20
-13.8452460525807
30
0
41
1
10
51.1919021948219
20
-13.8462942169186
30
0
41
1
10
51.1756190754036
20
-13.8476564230762
30
0
41
1
10
51.1675211421068
20
-13.847977421561
30
0
41
1
10
51.1433545059895
20
-13.8479060337241
30
0
41
1
10
51.1274120897709
20
-13.8464857754836
30
0
41
1
10
51.1037539237525
20
-13.8423471077818
30
0
41
1
10
51.0959495146761
20
-13.8406353151747
30
0
41
1
10
51.0806795712083
20
-13.8366174607784
30
0
41
1
10
51.073185820324
20
-13.8343066615123
30
0
41
1
10
51.0511143978272
20
-13.8265055505003
30
0
41
1
10
51.0369441980594
20
-13.8201514666443
30
0
41
1
10
50.9960494209084
20
-13.7977236477236
30
0
41
1
10
50.9720875459082
20
-13.7790064685083
30
0
41
1
10
50.9512033593356
20
-13.7569631297869
30
0
0
SPLINE
5
F3
100
AcDbEntity
8
1
62
256
6
ByLayer
370
18
48
1
60
0
100
AcDbSpline
70
4
71
3
72
16
73
12
40
0
40
0
40
0
40
0
40
0.25
40
0.25
40
0.5
40
0.5
40
0.75
40
0.75
40
0.875
40
0.875
40
1
40
1
40
1
40
1
41
1
10
49.0060963959615
20
-12.6307838652879
30
0
41
1
10
49.0416401329727
20
-12.6387178839636
30
0
41
1
10
49.0763881321323
20
-12.6494682356205
30
0
41
1
10
49.1443818848868
20
-12.6768828347637
30
0
41
1
10
49.1776601923005
20
-12.6935552611803
30
0
41
1
10
49.2425796641888
20
-12.7337212253116
30
0
41
1
10
49.2733384444987
20
-12.7566686666646
30
0
41
1
10
49.3168464212085
20
-12.7958058671973
30
0
41
1
10
49.3309079468795
20
-12.8096425773781
30
0
41
1
10
49.3580938283629
20
-12.8390412812121
30
0
41
1
10
49.3711615846791
20
-12.8545541685084
30
0
41
1
10
49.3835219444356
20
-12.8707311187838
30
0
0
SPLINE
5
F4
100
AcDbEntity
8
1
62
256
6
ByLayer
370
18
48
1
60
0
100
AcDbSpline
70
4
71
3
72
18
73
14
40
0
40
0
40
0
40
0
40
0.25
40
0.25
40
0.374999999999999
40
0.374999999999999
40
0.499999999999999
40
0.499999999999999
40
0.749999999999998
40
0.749999999999998
40
0.874999999999999
40
0.874999999999999
40
1
40
1
40
1
40
1
41
1
10
49.466817883075
20
-13.0145984686364
30
0
41
1
10
49.4827740509788
20
-13.0524987848465
30
0
41
1
10
49.4948526727704
20
-13.090877542903
30
0
41
1
10
49.5078771272823
20
-13.1491341573197
30
0
41
1
10
49.5113623206195
20
-13.1686689875936
30
0
41
1
10
49.5166644330486
20
-13.2079777946921
30
0
41
1
10
49.518472584351
20
-13.2277736590185
30
0
41
1
10
49.5213958061505
20
-13.2863583361257
30
0
41
1
10
49.5201009800682
20
-13.3247597527451
30
0
41
1
10
49.5137411237683
20
-13.3815976088424
30
0
41
1
10
49.5108703716745
20
-13.400456068926
30
0
41
1
10
49.5037034590492
20
-13.437717651076
30
0
41
1
10
49.4994155464524
20
-13.4560991714364
30
0
41
1
10
49.4944424042609
20
-13.4742469100989
30
0
0
SPLINE
5
F5
100
AcDbEntity
8
1
62
256
6
ByLayer
370
18
48
1
60
0
100
AcDbSpline
70
4
71
3
72
22
73
18
40
0
40
0
40
0
40
0
40
0.125000000000001
40
0.125000000000001
40
0.250000000000002
40
0.250000000000002
40
0.312500000000002
40
0.312500000000002
40
0.375000000000002
40
0.375000000000002
40
0.500000000000001
40
0.500000000000001
40
0.625
40
0.625
40
0.75
40
0.75
40
1
40
1
40
1
40
1
41
1
10
49.6289317611436
20
-13.8115499273007
30
0
41
1
10
49.6143593366672
20
-13.8032023453407
30
0
41
1
10
49.6003047424633
20
-13.7933871691708
30
0
41
1
10
49.574587970794
20
-13.7717941122539
30
0
41
1
10
49.5627862661194
20
-13.7599631098856
30
0
41
1
10
49.5466446855725
20
-13.7406904734252
30
0
41
1
10
49.541507488664
20
-13.733980161748
30
0
41
1
10
49.5319390310904
20
-13.7202944881696
30
0
41
1
10
49.5274872260894
20
-13.7132993435585
30
0
41
1
10
49.5150879986622
20
-13.6918773893981
30
0
41
1
10
49.5080906112195
20
-13.6770168014642
30
0
41
1
10
49.496580778129
20
-13.646170958725
30
0
41
1
10
49.4921962060885
20
-13.6305105220716
30
0
41
1
10
49.4860007322073
20
-13.5990109951657
30
0
41
1
10
49.4841753535114
20
-13.5831003495531
30
0
41
1
10
49.4824452130665
20
-13.5351944689709
30
0
41
1
10
49.4862221912218
20
-13.5042436952772
30
0
41
1
10
49.4944424042609
20
-13.4742469100989
30
0
0
SPLINE
5
F6
100
AcDbEntity
8
1
62
256
6
ByLayer
370
18
48
1
60
0
100
AcDbSpline
70
4
71
3
72
24
73
20
40
0
40
0
40
0
40
0
40
0.249999999999999
40
0.249999999999999
40
0.312499999999998
40
0.312499999999998
40
0.374999999999996
40
0.374999999999996
40
0.499999999999997
40
0.499999999999997
40
0.624999999999998
40
0.624999999999998
40
0.749999999999999
40
0.749999999999999
40
0.812499999999999
40
0.812499999999999
40
0.874999999999999
40
0.874999999999999
40
1
40
1
40
1
40
1
41
1
10
49.0060963959615
20
-12.6307838652879
30
0
41
1
10
48.9766394046994
20
-12.6242085206996
30
0
41
1
10
48.948592855049
20
-12.6132140897849
30
0
41
1
10
48.9155513028618
20
-12.5934900125968
30
0
41
1
10
48.9090235070467
20
-12.5892208592057
30
0
41
1
10
48.8964068802474
20
-12.5801943925
30
0
41
1
10
48.8902955004631
20
-12.5754263483289
30
0
41
1
10
48.8725573677584
20
-12.5603567750673
30
0
41
1
10
48.8615223309728
20
-12.5492952463519
30
0
41
1
10
48.8411542900212
20
-12.5250164826558
30
0
41
1
10
48.8317548481274
20
-12.5116503321903
30
0
41
1
10
48.8155615628049
20
-12.4836607743912
30
0
41
1
10
48.808675410754
20
-12.4689689316223
30
0
41
1
10
48.8002329548337
20
-12.4458527968214
30
0
41
1
10
48.7977348339461
20
-12.4379667667771
30
0
41
1
10
48.793404582576
20
-12.421815047503
30
0
41
1
10
48.7915894120547
20
-12.4135965227831
30
0
41
1
10
48.7872718941838
20
-12.3889171020189
30
0
41
1
10
48.7858456607341
20
-12.3722771575019
30
0
41
1
10
48.7858824479017
20
-12.3554492761476
30
0
0
SPLINE
5
F7
100
AcDbEntity
8
1
62
256
6
ByLayer
370
18
48
1
60
0
100
AcDbSpline
70
4
71
3
72
26
73
22
40
0
40
0
40
0
40
0
40
0.250000000000005
40
0.250000000000005
40
0.312500000000005
40
0.312500000000005
40
0.375000000000005
40
0.375000000000005
40
0.500000000000006
40
0.500000000000006
40
0.562500000000005
40
0.562500000000005
40
0.625000000000005
40
0.625000000000005
40
0.750000000000004
40
0.750000000000004
40
0.812500000000003
40
0.812500000000003
40
0.875000000000002
40
0.875000000000002
40
1
40
1
40
1
40
1
41
1
10
51.4391087848903
20
-13.4760635511562
30
0
41
1
10
51.4465047812116
20
-13.5059575531071
30
0
41
1
10
51.4495237401389
20
-13.5366890183266
30
0
41
1
10
51.4473090437069
20
-13.5761615295285
30
0
41
1
10
51.446554124364
20
-13.5841419723448
30
0
41
1
10
51.4444323292838
20
-13.5999502221941
30
0
41
1
10
51.4430667280961
20
-13.6077997955618
30
0
41
1
10
51.4380524196074
20
-13.6311817091013
30
0
41
1
10
51.4334926150759
20
-13.6465484350947
30
0
41
1
10
51.4247080514713
20
-13.6692348782177
30
0
41
1
10
51.4214542351649
20
-13.6767361451872
30
0
41
1
10
51.4142534136494
20
-13.6916074656858
30
0
41
1
10
51.4103366663276
20
-13.6989089964206
30
0
41
1
10
51.3977666375082
20
-13.7201746171321
30
0
41
1
10
51.3882516621656
20
-13.7336043555414
30
0
41
1
10
51.3722212423115
20
-13.7525872201728
30
0
41
1
10
51.3665833247082
20
-13.7587202726643
30
0
41
1
10
51.3546891793548
20
-13.7705772656828
30
0
41
1
10
51.3484432020159
20
-13.7762837690704
30
0
41
1
10
51.3291946347532
20
-13.7923901645153
30
0
41
1
10
51.3155538020508
20
-13.801920285179
30
0
41
1
10
51.3011026030774
20
-13.8102402084463
30
0
0
SPLINE
5
F8
100
AcDbEntity
8
1
62
256
6
ByLayer
370
18
48
1
60
0
100
AcDbSpline
70
4
71
3
72
32
73
28
40
0
40
0
40
0
40
0
40
0.124999999999998
40
0.124999999999998
40
0.187499999999998
40
0.187499999999998
40
0.249999999999997
40
0.249999999999997
40
0.374999999999996
40
0.374999999999996
40
0.406249999999996
40
0.406249999999996
40
0.437499999999996
40
0.499999999999996
40
0.499999999999996
40
0.562499999999996
40
0.562499999999996
40
0.624999999999997
40
0.687499999999997
40
0.687499999999997
40
0.749999999999997
40
0.749999999999997
40
0.874999999999998
40
0.874999999999998
40
0.937499999999999
40
0.937499999999999
40
1
40
1
40
1
40
1
41
1
10
51.4391087848903
20
-13.4760635511562
30
0
41
1
10
51.4286633125797
20
-13.433843820904
30
0
41
1
10
51.4219419475232
20
-13.3907868272853
30
0
41
1
10
51.4177003866669
20
-13.3247118291648
30
0
41
1
10
51.4172669412147
20
-13.3024361352096
30
0
41
1
10
51.4185121344368
20
-13.2573048302644
30
0
41
1
10
51.4202101200713
20
-13.2343952012923
30
0
41
1
10
51.4285759043359
20
-13.1662486385324
30
0
41
1
10
51.4384561140633
20
-13.1211049419766
30
0
41
1
10
51.4569531006153
20
-13.0649556941989
30
0
41
1
10
51.4609707005169
20
-13.0537304993523
30
0
41
1
10
51.4695136377507
20
-13.031668102572
30
0
41
1
10
51.4831319882891
20
-12.9990220760256
30
0
41
1
10
51.499135088099
20
-12.9677052867058
30
0
41
1
10
51.5226078372264
20
-12.9271408178524
30
0
41
1
10
51.5354124293127
20
-12.9074529686477
30
0
41
1
10
51.563239563444
20
-12.869319865684
30
0
41
1
10
51.5925977852546
20
-12.8333668801437
30
0
41
1
10
51.6248248142846
20
-12.8014302772359
30
0
41
1
10
51.6584521258931
20
-12.7714054357706
30
0
41
1
10
51.6760328023756
20
-12.7573169779386
30
0
41
1
10
51.7295636860637
20
-12.7187345804368
30
0
41
1
10
51.7666724441216
20
-12.6974956668512
30
0
41
1
10
51.8244460569746
20
-12.6714534299762
30
0
41
1
10
51.8441236029136
20
-12.6637335966268
30
0
41
1
10
51.8838417311385
20
-12.6503378845505
30
0
41
1
10
51.9038715023285
20
-12.644656568287
30
0
41
1
10
51.9240811984737
20
-12.6399496400548
30
0
0
SPLINE
5
F9
100
AcDbEntity
8
1
62
256
6
ByLayer
370
18
48
1
60
0
100
AcDbSpline
70
4
71
3
72
20
73
16
40
0
40
0
40
0
40
0
40
0.125000000000001
40
0.125000000000001
40
0.250000000000001
40
0.250000000000001
40
0.312500000000001
40
0.312500000000001
40
0.375000000000002
40
0.375000000000002
40
0.500000000000001
40
0.500000000000001
40
0.750000000000001
40
0.750000000000001
40
1
40
1
40
1
40
1
41
1
10
52.1383279581828
20
-12.3668266316656
30
0
41
1
10
52.1382916386609
20
-12.3834405936832
30
0
41
1
10
52.1368071668314
20
-12.4002547084133
30
0
41
1
10
52.1311145047206
20
-12.4326737444677
30
0
41
1
10
52.1269238539985
20
-12.4484445140547
30
0
41
1
10
52.1186473081459
20
-12.4714475958897
30
0
41
1
10
52.1155407898627
20
-12.4790296442154
30
0
41
1
10
52.1087836179891
20
-12.4936915672035
30
0
41
1
10
52.1051236129726
20
-12.5008043374249
30
0
41
1
10
52.09333472771
20
-12.5215127379155
30
0
41
1
10
52.0844020215061
20
-12.5344825066117
30
0
41
1
10
52.0544618368693
20
-12.5709190812726
30
0
41
1
10
52.0312815738099
20
-12.5908325706869
30
0
41
1
10
51.9798432191756
20
-12.6223231499807
30
0
41
1
10
51.9526102248118
20
-12.6333051027721
30
0
41
1
10
51.9240811984737
20
-12.6399496400548
30
0
0
SPLINE
5
FA
100
AcDbEntity
8
1
62
256
6
ByLayer
370
18
48
1
60
0
100
AcDbSpline
70
4
71
3
72
32
73
28
40
0
40
0
40
0
40
0
40
0.124999999999998
40
0.124999999999998
40
0.187499999999998
40
0.187499999999998
40
0.249999999999997
40
0.249999999999997
40
0.374999999999996
40
0.374999999999996
40
0.406249999999996
40
0.406249999999996
40
0.437499999999996
40
0.499999999999997
40
0.499999999999997
40
0.562499999999997
40
0.562499999999997
40
0.624999999999998
40
0.687499999999998
40
0.687499999999998
40
0.749999999999999
40
0.749999999999999
40
0.875
40
0.875
40
0.9375
40
0.9375
40
1
40
1
40
1
40
1
41
1
10
49.4890354310983
20
-11.2315311782273
30
0
41
1
10
49.5002718104043
20
-11.2707992033887
30
0
41
1
10
49.5077408119522
20
-11.3110659796357
30
0
41
1
10
49.5130196866289
20
-11.3732696698752
30
0
41
1
10
49.5137847182426
20
-11.3943078674286
30
0
41
1
10
49.5131684615896
20
-11.4370919491431
30
0
41
1
10
49.5117681957504
20
-11.4588904727129
30
0
41
1
10
49.5042138691939
20
-11.5240086340778
30
0
41
1
10
49.4947741309357
20
-11.5675084687314
30
0
41
1
10
49.4766617107711
20
-11.6222224952127
30
0
41
1
10
49.4727125940014
20
-11.6331921075312
30
0
41
1
10
49.46428683411
20
-11.6548171925162
30
0
41
1
10
49.4508155687089
20
-11.6869142898572
30
0
41
1
10
49.4348727660423
20
-11.7180060471749
30
0
41
1
10
49.4114015733598
20
-11.7585647072967
30
0
41
1
10
49.3985583378363
20
-11.7783967757722
30
0
41
1
10
49.3705730363494
20
-11.817120167343
30
0
41
1
10
49.3409802762897
20
-11.8539507182671
30
0
41
1
10
49.3083807575456
20
-11.8872752149917
30
0
41
1
10
49.2743195310184
20
-11.9189194489797
30
0
41
1
10
49.2564897333941
20
-11.9339376395703
30
0
41
1
10
49.2021475412597
20
-11.975547881414
30
0
41
1
10
49.1644094319724
20
-11.9991355657637
30
0
41
1
10
49.105595539624
20
-12.0290601785695
30
0
41
1
10
49.0855536602577
20
-12.0381397227808
30
0
41
1
10
49.0450845720231
20
-12.0543380557674
30
0
41
1
10
49.0246684480367
20
-12.0614612602968
30
0
41
1
10
49.0040630175149
20
-12.0676450893287
30
0
0
SPLINE
5
FB
100
AcDbEntity
8
1
62
256
6
ByLayer
370
18
48
1
60
0
100
AcDbSpline
70
4
71
3
72
20
73
16
40
0
40
0
40
0
40
0
40
0.125000000000002
40
0.125000000000002
40
0.250000000000005
40
0.250000000000005
40
0.312500000000005
40
0.312500000000005
40
0.375000000000006
40
0.375000000000006
40
0.500000000000006
40
0.500000000000006
40
0.750000000000003
40
0.750000000000003
40
1
40
1
40
1
40
1
41
1
10
48.7858824479017
20
-12.3554492761476
30
0
41
1
10
48.7859187674236
20
-12.3388353141299
30
0
41
1
10
48.7874283567354
20
-12.3219274596796
30
0
41
1
10
48.7932188633105
20
-12.2891432631133
30
0
41
1
10
48.7974819296509
20
-12.2731022347596
30
0
41
1
10
48.805902555251
20
-12.2495614399863
30
0
41
1
10
48.8090632938742
20
-12.2417770385969
30
0
41
1
10
48.8159388095713
20
-12.2266734504469
30
0
41
1
10
48.8196630997761
20
-12.2193207646367
30
0
41
1
10
48.8316598119629
20
-12.1978367435058
30
0
41
1
10
48.8407509259816
20
-12.1842757887963
30
0
41
1
10
48.8712270483439
20
-12.1458390673143
30
0
41
1
10
48.8948281790356
20
-12.124354878513
30
0
41
1
10
48.9472244276738
20
-12.0892893901282
30
0
41
1
10
48.9749753525723
20
-12.0763744942666
30
0
41
1
10
49.0040630175149
20
-12.0676450893287
30
0
0
SPLINE
5
FC
100
AcDbEntity
8
1
62
256
6
ByLayer
370
18
48
1
60
0
100
AcDbSpline
70
4
71
3
72
26
73
22
40
0
40
0
40
0
40
0
40
0.250000000000005
40
0.250000000000005
40
0.312500000000005
40
0.312500000000005
40
0.375000000000005
40
0.375000000000005
40
0.500000000000004
40
0.500000000000004
40
0.562500000000004
40
0.562500000000004
40
0.625000000000004
40
0.625000000000004
40
0.750000000000004
40
0.750000000000004
40
0.812500000000003
40
0.812500000000003
40
0.875000000000002
40
0.875000000000002
40
1
40
1
40
1
40
1
41
1
10
49.4890354310983
20
-11.2315311782273
30
0
41
1
10
49.4810794270479
20
-11.2037271535741
30
0
41
1
10
49.477542705968
20
-11.1749280030141
30
0
41
1
10
49.4791602338247
20
-11.1376841552764
30
0
41
1
10
49.4797978325014
20
-11.1301415591467
30
0
41
1
10
49.4816939458939
20
-11.1151755648223
30
0
41
1
10
49.4829508293365
20
-11.1077317316029
30
0
41
1
10
49.4876510794413
20
-11.085521899909
30
0
41
1
10
49.4920175571718
20
-11.0708766793592
30
0
41
1
10
49.5005365013135
20
-11.0491815415671
30
0
41
1
10
49.5037058587954
20
-11.0419954792221
30
0
41
1
10
49.5107462471699
20
-11.0277229033568
30
0
41
1
10
49.5145877852567
20
-11.0207020573084
30
0
41
1
10
49.5269493167712
20
-11.0002145591318
30
0
41
1
10
49.5363469174884
20
-10.9872228687882
30
0
41
1
10
49.5522338139637
20
-10.9687756406984
30
0
41
1
10
49.5578293436075
20
-10.9628007822252
30
0
41
1
10
49.569650042439
20
-10.9512178953582
30
0
41
1
10
49.5758651303792
20
-10.9456266727762
30
0
41
1
10
49.5950402172269
20
-10.9297945099732
30
0
41
1
10
49.6086566040337
20
-10.9203556226342
30
0
41
1
10
49.623107803007
20
-10.9120356993668
30
0
0
SPLINE
5
FD
100
AcDbEntity
8
1
62
256
6
ByLayer
370
18
48
1
60
0
100
AcDbSpline
70
4
71
3
72
16
73
12
40
0
40
0
40
0
40
0
40
0.25
40
0.25
40
0.5
40
0.5
40
0.75
40
0.75
40
0.875
40
0.875
40
1
40
1
40
1
40
1
41
1
10
51.9221106189862
20
-12.0765764951898
30
0
41
1
10
51.8872516663829
20
-12.0660868263115
30
0
41
1
10
51.8531567950942
20
-12.0528989682565
30
0
41
1
10
51.7863909711106
20
-12.0209016765523
30
0
41
1
10
51.7536882477754
20
-12.0020811411109
30
0
41
1
10
51.6898094154072
20
-11.9580314574178
30
0
41
1
10
51.6595013034451
20
-11.9334020988936
30
0
41
1
10
51.6165397304544
20
-11.8922256919199
30
0
41
1
10
51.6026386025886
20
-11.8777903689808
30
0
41
1
10
51.5757239099117
20
-11.8473795747421
30
0
41
1
10
51.562766180877
20
-11.8314560600414
30
0
41
1
10
51.5504866994456
20
-11.814977267747
30
0
0
SPLINE
5
FE
100
AcDbEntity
8
1
62
256
6
ByLayer
370
18
48
1
60
0
100
AcDbSpline
70
4
71
3
72
18
73
14
40
0
40
0
40
0
40
0
40
0.25
40
0.25
40
0.375
40
0.375
40
0.499999999999999
40
0.499999999999999
40
0.749999999999998
40
0.749999999999998
40
0.874999999999999
40
0.874999999999999
40
1
40
1
40
1
40
1
41
1
10
51.4671907608063
20
-11.6711099178944
30
0
41
1
10
51.4510728709977
20
-11.6338131560495
30
0
41
1
10
51.4387214103317
20
-11.5964526465346
30
0
41
1
10
51.4251541517706
20
-11.5402218044081
30
0
41
1
10
51.421465617208
20
-11.5214458539186
30
0
41
1
10
51.4157159059545
20
-11.4838075083742
30
0
41
1
10
51.413663004961
20
-11.4649250623303
30
0
41
1
10
51.4099653666987
20
-11.4092305468084
30
0
41
1
10
51.4106865595193
20
-11.3729699586666
30
0
41
1
10
51.4161209478961
20
-11.3195859958788
30
0
41
1
10
51.4186714837962
20
-11.3019225988997
30
0
41
1
10
51.4251818980251
20
-11.2671111021198
30
0
41
1
10
51.4291339760199
20
-11.2499829335573
30
0
41
1
10
51.4337646106868
20
-11.2331134503789
30
0
0
SPLINE
5
FF
100
AcDbEntity
8
1
62
256
6
ByLayer
370
18
48
1
60
0
100
AcDbSpline
70
4
71
3
72
22
73
18
40
0
40
0
40
0
40
0
40
0.125000000000002
40
0.125000000000002
40
0.250000000000004
40
0.250000000000004
40
0.312500000000004
40
0.312500000000004
40
0.375000000000004
40
0.375000000000004
40
0.500000000000004
40
0.500000000000004
40
0.625000000000003
40
0.625000000000003
40
0.750000000000003
40
0.750000000000003
40
1
40
1
40
1
40
1
41
1
10
51.2952786449408
20
-10.9107259805124
30
0
41
1
10
51.3098510694172
20
-10.9190735624724
30
0
41
1
10
51.3239312291269
20
-10.9287933268757
30
0
41
1
10
51.3497477402698
20
-10.95001415101
30
0
41
1
10
51.3616232298829
20
-10.9615697842388
30
0
41
1
10
51.3779114516173
20
-10.980295148337
30
0
41
1
10
51.3831038526397
20
-10.9867994354563
30
0
41
1
10
51.3927928619981
20
-11.0000352036491
30
0
41
1
10
51.3973101308942
20
-11.0067860336777
30
0
41
1
10
51.4099209214
20
-11.0274184236797
30
0
41
1
10
51.41707947128
20
-11.0416775452094
30
0
41
1
10
51.4289525929182
20
-11.0711675766307
30
0
41
1
10
51.4335355434096
20
-11.0860876548258
30
0
41
1
10
51.4401569276182
20
-11.1159976627507
30
0
41
1
10
51.4422107956946
20
-11.1310555743863
30
0
41
1
10
51.4446703640529
20
-11.1762391929353
30
0
41
1
10
51.4414186857165
20
-11.2052295210153
30
0
41
1
10
51.4337646106868
20
-11.2331134503789
30
0
0
SPLINE
5
100
100
AcDbEntity
8
1
62
256
6
ByLayer
370
18
48
1
60
0
100
AcDbSpline
70
4
71
3
72
24
73
20
40
0
40
0
40
0
40
0
40
0.250000000000005
40
0.250000000000005
40
0.312500000000006
40
0.312500000000006
40
0.375000000000007
40
0.375000000000007
40
0.500000000000006
40
0.500000000000006
40
0.625000000000005
40
0.625000000000005
40
0.750000000000004
40
0.750000000000004
40
0.812500000000003
40
0.812500000000003
40
0.875000000000002
40
0.875000000000002
40
1
40
1
40
1
40
1
41
1
10
51.9221106189862
20
-12.0765764951898
30
0
41
1
10
51.9510000928734
20
-12.0852698434552
30
0
41
1
10
51.97852143652
20
-12.0982243698604
30
0
41
1
10
52.0109565119574
20
-12.1202118490926
30
0
41
1
10
52.0173651559088
20
-12.1249256832928
30
0
41
1
10
52.029752623108
20
-12.134807385269
30
0
41
1
10
52.0357535767168
20
-12.1399875455374
30
0
41
1
10
52.0531726183153
20
-12.1562479830201
30
0
41
1
10
52.0640110944797
20
-12.1680430859601
30
0
41
1
10
52.084018798382
20
-12.1936666458322
30
0
41
1
10
52.0932533212968
20
-12.2076482823064
30
0
41
1
10
52.1091638248167
20
-12.2366931961602
30
0
41
1
10
52.1159304650669
20
-12.2518310630414
30
0
41
1
10
52.124226682116
20
-12.2754929687399
30
0
41
1
10
52.1266815924914
20
-12.2835402626112
30
0
41
1
10
52.1309369515458
20
-12.2999714838128
30
0
41
1
10
52.1327207328058
20
-12.3083071548501
30
0
41
1
10
52.1369634569113
20
-12.3332657097472
30
0
41
1
10
52.1383647453503
20
-12.3499987503113
30
0
41
1
10
52.1383279581828
20
-12.3668266316656
30
0
0
SPLINE
5
101
100
AcDbEntity
8
1
62
256
6
ByLayer
370
18
48
1
60
0
100
AcDbSpline
70
4
71
3
72
32
73
28
40
0
40
0
40
0
40
0
40
0.125000000000001
40
0.125000000000001
40
0.187500000000001
40
0.187500000000001
40
0.250000000000001
40
0.250000000000001
40
0.375000000000002
40
0.375000000000002
40
0.406250000000002
40
0.406250000000002
40
0.437500000000002
40
0.500000000000001
40
0.500000000000001
40
0.562500000000001
40
0.562500000000001
40
0.625000000000001
40
0.687500000000001
40
0.687500000000001
40
0.75
40
0.75
40
0.875000000000001
40
0.875000000000001
40
0.9375
40
0.9375
40
1
40
1
40
1
40
1
41
1
10
50.9455650439059
20
-10.9498729298907
30
0
41
1
10
50.9161158080837
20
-10.9781780275023
30
0
41
1
10
50.8839636591665
20
-11.0037922825881
30
0
41
1
10
50.8313050467324
20
-11.0381206834557
30
0
41
1
10
50.8130077567965
20
-11.0488768939759
30
0
41
1
10
50.7747662463457
20
-11.0689388943113
30
0
41
1
10
50.7547663550837
20
-11.0782541989112
30
0
41
1
10
50.6934304595547
20
-11.1032788628591
30
0
41
1
10
50.6503843560522
20
-11.116343452389
30
0
41
1
10
50.5933317372042
20
-11.1276237120425
30
0
41
1
10
50.5817450734312
20
-11.1296228651506
30
0
41
1
10
50.5586054230355
20
-11.1330354728415
30
0
41
1
10
50.5238110521924
20
-11.1373043238703
30
0
41
1
10
50.488762196537
20
-11.1390548815981
30
0
41
1
10
50.4418007691781
20
-11.1391362484199
30
0
41
1
10
50.4182038781951
20
-11.1380507056263
30
0
41
1
10
50.370778505822
20
-11.1335346784807
30
0
41
1
10
50.3242890535809
20
-11.1267873850336
30
0
41
1
10
50.2795111379845
20
-11.1158746440692
30
0
41
1
10
50.2355378799634
20
-11.1029426152081
30
0
41
1
10
50.2138894704594
20
-11.0954278080626
30
0
41
1
10
50.1515867551246
20
-11.0705078232484
30
0
41
1
10
50.1130104089412
20
-11.050630293776
30
0
41
1
10
50.0588947716167
20
-11.0163052319198
30
0
41
1
10
50.0414358961766
20
-11.0040613370475
30
0
41
1
10
50.0080535601304
20
-10.9782883987748
30
0
41
1
10
49.9921314801422
20
-10.9647707608072
30
0
41
1
10
49.9769408566531
20
-10.9506315995966
30
0
0
SPLINE
5
102
100
AcDbEntity
8
1
62
256
6
ByLayer
370
18
48
1
60
0
100
AcDbSpline
70
4
71
3
72
24
73
20
40
0
40
0
40
0
40
0
40
0.124999999999999
40
0.124999999999999
40
0.249999999999999
40
0.249999999999999
40
0.312499999999998
40
0.312499999999998
40
0.374999999999996
40
0.374999999999996
40
0.499999999999993
40
0.499999999999993
40
0.562499999999993
40
0.562499999999993
40
0.624999999999993
40
0.624999999999993
40
0.749999999999995
40
0.749999999999995
40
1
40
1
40
1
40
1
41
1
10
49.623107803007
20
-10.9120356993668
30
0
41
1
10
49.6375090196665
20
-10.9037445521905
30
0
41
1
10
49.6528836203325
20
-10.8965340138136
30
0
41
1
10
49.6840886140768
20
-10.884953066033
30
0
41
1
10
49.7000306753858
20
-10.880493126287
30
0
41
1
10
49.7244426058098
20
-10.8757636126152
30
0
41
1
10
49.7327016811512
20
-10.8745132412786
30
0
41
1
10
49.749103235325
20
-10.8727090305963
30
0
41
1
10
49.7572654856744
20
-10.8721479976035
30
0
41
1
10
49.7816399708415
20
-10.8714436822262
30
0
41
1
10
49.7977407128279
20
-10.8722730606568
30
0
41
1
10
49.8216664472687
20
-10.8754131494119
30
0
41
1
10
49.8295646899952
20
-10.8767747500697
30
0
41
1
10
49.8450291950326
20
-10.880066490803
30
0
41
1
10
49.8526239894638
20
-10.882000190418
30
0
41
1
10
49.875009687389
20
-10.888628409564
30
0
41
1
10
49.8894041979214
20
-10.8941453542497
30
0
41
1
10
49.9310176723916
20
-10.9138909582601
30
0
41
1
10
49.9554980589017
20
-10.9306730261761
30
0
41
1
10
49.976940856653
20
-10.9506315995966
30
0
0
SPLINE
5
103
100
AcDbEntity
8
1
62
256
6
ByLayer
370
18
48
1
60
0
100
AcDbSpline
70
4
71
3
72
26
73
22
40
0
40
0
40
0
40
0
40
0.250000000000006
40
0.250000000000006
40
0.312500000000006
40
0.312500000000006
40
0.375000000000007
40
0.375000000000007
40
0.500000000000007
40
0.500000000000007
40
0.562500000000006
40
0.562500000000006
40
0.625000000000006
40
0.625000000000006
40
0.750000000000005
40
0.750000000000005
40
0.812500000000004
40
0.812500000000004
40
0.875000000000002
40
0.875000000000002
40
1
40
1
40
1
40
1
41
1
10
50.9455650439059
20
-10.9498729298907
30
0
41
1
10
50.9664168004647
20
-10.9298312891386
30
0
41
1
10
50.9902979454793
20
-10.9130461709017
30
0
41
1
10
51.0241997211099
20
-10.8965824604578
30
0
41
1
10
51.0312166173427
20
-10.8935108000934
30
0
41
1
10
51.0454474812761
20
-10.8879507665119
30
0
41
1
10
51.0526788213459
20
-10.8854512265611
30
0
41
1
10
51.0747188935845
20
-10.8787991962127
30
0
41
1
10
51.0898712929732
20
-10.8754873609439
30
0
41
1
10
51.1133217072672
20
-10.8723221911868
30
0
41
1
10
51.1212593714074
20
-10.8715689383325
30
0
41
1
10
51.1373901040694
20
-10.8707061935275
30
0
41
1
10
51.1455103806623
20
-10.8706031361841
30
0
41
1
10
51.1697708793892
20
-10.8712810319172
30
0
41
1
10
51.1859196381672
20
-10.8730356421648
30
0
41
1
10
51.2100983234802
20
-10.877689657676
30
0
41
1
10
51.2181504594713
20
-10.8795796678556
30
0
41
1
10
51.2342383882945
20
-10.8840714278278
30
0
41
1
10
51.2422543137298
20
-10.8866726752523
30
0
41
1
10
51.2657268067043
20
-10.8953794521873
30
0
41
1
10
51.2807940691566
20
-10.9024287212807
30
0
41
1
10
51.2952786449408
20
-10.9107259805124
30
0
0
LINE
5
74
100
AcDbEntity
8
1
62
256
6
ByLayer
370
18
48
1
60
1
100
AcDbLine
10
0
20
0
30
0
11
0
21
420
31
0
39
0
210
0
220
0
230
1
0
LINE
5
76
100
AcDbEntity
8
1
62
256
6
ByLayer
370
18
48
1
60
1
100
AcDbLine
10
594
20
420
30
0
11
0
21
420
31
0
39
0
210
0
220
0
230
1
0
LINE
5
77
100
AcDbEntity
8
1
62
256
6
ByLayer
370
18
48
1
60
1
100
AcDbLine
10
594
20
420
30
0
11
594
21
0
31
0
39
0
210
0
220
0
230
1
0
LINE
5
78
100
AcDbEntity
8
1
62
256
6
ByLayer
370
18
48
1
60
1
100
AcDbLine
10
0
20
0
30
0
11
594
21
0
31
0
39
0
210
0
220
0
230
1
0
LINE
5
79
100
AcDbEntity
8
1
62
256
6
ByLayer
370
18
48
1
60
0
100
AcDbLine
10
45.073437
20
-6.064871
30
0
11
45.128316
21
-5.856417
31
0
39
0
210
0
220
0
230
1
0
LINE
5
7A
100
AcDbEntity
8
1
62
256
6
ByLayer
370
13
48
1
60
0
100
AcDbLine
10
45.073437
20
-6.064871
30
0
11
45.024691
21
-6.246796
31
0
39
0
210
0
220
0
230
1
0
LINE
5
7B
100
AcDbEntity
8
1
62
256
6
ByLayer
370
18
48
1
60
0
100
AcDbLine
10
30
20
-14.75
30
0
11
30
21
-12.056136
31
0
39
0
210
0
220
0
230
1
0
LINE
5
7C
100
AcDbEntity
8
1
62
256
6
ByLayer
370
18
48
1
60
0
100
AcDbLine
10
30
20
-14.75
30
0
11
32.999509
21
-14.75
31
0
39
0
210
0
220
0
230
1
0
LINE
5
7D
100
AcDbEntity
8
1
62
256
6
ByLayer
370
18
48
1
60
0
100
AcDbLine
10
45.024691
20
-6.246796
30
0
11
45.082511
21
-6.027168
31
0
39
0
210
0
220
0
230
1
0
LINE
5
7E
100
AcDbEntity
8
1
62
256
6
ByLayer
370
13
48
1
60
0
100
AcDbLine
10
44.830342
20
-6.307432
30
0
11
45.024691
21
-6.246796
31
0
39
0
210
0
220
0
230
1
0
LINE
5
7F
100
AcDbEntity
8
1
62
256
6
ByLayer
370
13
48
1
60
0
100
AcDbLine
10
44.888162
20
-6.087804
30
0
11
45.082511
21
-6.027168
31
0
39
0
210
0
220
0
230
1
0
LINE
5
80
100
AcDbEntity
8
1
62
256
6
ByLayer
370
18
48
1
60
0
100
AcDbLine
10
47.70038
20
-5.079283
30
0
11
47.725764
21
-4.984548
31
0
39
0
210
0
220
0
230
1
0
LINE
5
81
100
AcDbEntity
8
1
62
256
6
ByLayer
370
18
48
1
60
0
100
AcDbLine
10
45.136597
20
-5.825514
30
0
11
45.08785
21
-6.007439
31
0
39
0
210
0
220
0
230
1
0
LINE
5
82
100
AcDbEntity
8
1
62
256
6
ByLayer
370
18
48
1
60
0
100
AcDbLine
10
57
20
0
30
0
11
33.025885
21
0
31
0
39
0
210
0
220
0
230
1
0
LINE
5
83
100
AcDbEntity
8
1
62
256
6
ByLayer
370
18
48
1
60
0
100
AcDbLine
10
57
20
-7.571043
30
0
11
57
21
0
31
0
39
0
210
0
220
0
230
1
0
LINE
5
84
100
AcDbEntity
8
1
62
256
6
ByLayer
370
18
48
1
60
0
100
AcDbLine
10
33.021083
20
-14.75
30
0
11
38.4961
21
-14.75
31
0
39
0
210
0
220
0
230
1
0
LINE
5
85
100
AcDbEntity
8
1
62
256
6
ByLayer
370
18
48
1
60
0
100
AcDbLine
10
44.888162
20
-6.087804
30
0
11
44.830342
21
-6.307432
31
0
39
0
210
0
220
0
230
1
0
LINE
5
86
100
AcDbEntity
8
1
62
256
6
ByLayer
370
18
48
1
60
0
100
AcDbLine
10
43.01622
20
-15.61484
30
0
11
39.211148
21
-14.595275
31
0
39
0
210
0
220
0
230
1
0
LINE
5
87
100
AcDbEntity
8
1
62
256
6
ByLayer
370
18
48
1
60
0
100
AcDbLine
10
30
20
-12.056136
30
0
11
30
21
-11.560476
31
0
39
0
210
0
220
0
230
1
0
LINE
5
88
100
AcDbEntity
8
1
62
256
6
ByLayer
370
18
48
1
60
0
100
AcDbLine
10
30
20
-12.056136
30
0
11
32.996217
21
-12.056136
31
0
39
0
210
0
220
0
230
1
0
LINE
5
89
100
AcDbEntity
8
1
62
256
6
ByLayer
370
13
48
1
60
0
100
AcDbLine
10
19.05
20
-11.045127
30
0
11
19.05
21
-13.415579
31
0
39
0
210
0
220
0
230
1
0
LINE
5
8A
100
AcDbEntity
8
1
62
256
6
ByLayer
370
13
48
1
60
0
100
AcDbLine
10
20.95
20
-11.045127
30
0
11
20.95
21
-13.415579
31
0
39
0
210
0
220
0
230
1
0
LINE
5
8B
100
AcDbEntity
8
1
62
256
6
ByLayer
370
18
48
1
60
0
100
AcDbLine
10
33.025885
20
0
30
0
11
29.109349
21
0
31
0
39
0
210
0
220
0
230
1
0
LINE
5
8C
100
AcDbEntity
8
1
62
256
6
ByLayer
370
18
48
1
60
0
100
AcDbLine
10
30
20
-11.543766
30
0
11
30
21
-11.560476
31
0
39
0
210
0
220
0
230
1
0
LINE
5
8D
100
AcDbEntity
8
1
62
256
6
ByLayer
370
13
48
1
60
0
100
AcDbLine
10
33.021213
20
-14.349906
30
0
11
33.025755
21
-0.400094
31
0
39
0
210
0
220
0
230
1
0
LINE
5
8E
100
AcDbEntity
8
1
62
256
6
ByLayer
370
18
48
1
60
0
100
AcDbLine
10
32.999508
20
-14.75
30
0
11
33.021083
21
-14.75
31
0
39
0
210
0
220
0
230
1
0
LINE
5
8F
100
AcDbEntity
8
1
62
256
6
ByLayer
370
18
48
1
60
0
100
AcDbLine
10
30
20
-14.75
30
0
11
8
21
-14.75
31
0
39
0
210
0
220
0
230
1
0
LINE
5
90
100
AcDbEntity
8
1
62
256
6
ByLayer
370
18
48
1
60
0
100
AcDbLine
10
8
20
-9.07252
30
0
11
8
21
-14.75
31
0
39
0
210
0
220
0
230
1
0
LINE
5
91
100
AcDbEntity
8
1
62
256
6
ByLayer
370
18
48
1
60
0
100
AcDbLine
10
19.05
20
-11.04522
30
0
11
20.95
21
-11.04522
31
0
39
0
210
0
220
0
230
1
0
LINE
5
92
100
AcDbEntity
8
1
62
256
6
ByLayer
370
18
48
1
60
0
100
AcDbLine
10
20.95
20
-13.815583
30
0
11
19.05
21
-13.815583
31
0
39
0
210
0
220
0
230
1
0
LINE
5
93
100
AcDbEntity
8
1
62
256
6
ByLayer
370
18
48
1
60
0
100
AcDbLine
10
27.844998
20
0
30
0
11
29.109349
21
0
31
0
39
0
210
0
220
0
230
1
0
LINE
5
94
100
AcDbEntity
8
1
62
256
6
ByLayer
370
13
48
1
60
0
100
AcDbLine
10
29.109218
20
-0.400066
30
0
11
29.105915
21
-10.546583
31
0
39
0
210
0
220
0
230
1
0
LINE
5
95
100
AcDbEntity
8
1
62
256
6
ByLayer
370
18
48
1
60
0
100
AcDbLine
10
29.105785
20
-10.946648
30
0
11
27.666327
21
-9.07252
31
0
39
0
210
0
220
0
230
1
0
LINE
5
96
100
AcDbEntity
8
1
62
256
6
ByLayer
370
18
48
1
60
0
100
AcDbLine
10
27.844998
20
0
30
0
11
8
21
0
31
0
39
0
210
0
220
0
230
1
0
LINE
5
97
100
AcDbEntity
8
1
62
256
6
ByLayer
370
18
48
1
60
0
100
AcDbLine
10
27.666327
20
-9.07252
30
0
11
27.844998
21
0
31
0
39
0
210
0
220
0
230
1
0
LINE
5
98
100
AcDbEntity
8
1
62
256
6
ByLayer
370
18
48
1
60
0
100
AcDbLine
10
27.666327
20
-9.07252
30
0
11
8
21
-9.07252
31
0
39
0
210
0
220
0
230
1
0
LINE
5
99
100
AcDbEntity
8
1
62
256
6
ByLayer
370
18
48
1
60
0
100
AcDbLine
10
8
20
0
30
0
11
8
21
-9.07252
31
0
39
0
210
0
220
0
230
1
0
LINE
5
9A
100
AcDbEntity
8
1
62
256
6
ByLayer
370
18
48
1
60
0
100
AcDbLine
10
54.185257
20
-19.932881
30
0
11
43.451889
21
-17.056884
31
0
39
0
210
0
220
0
230
1
0
LINE
5
9B
100
AcDbEntity
8
1
62
256
6
ByLayer
370
18
48
1
60
0
100
AcDbLine
10
42.889946
20
-16.086305
30
0
11
45.758937
21
-5.379083
31
0
39
0
210
0
220
0
230
1
0
LINE
5
9C
100
AcDbEntity
8
1
62
256
6
ByLayer
370
18
48
1
60
0
100
AcDbLine
10
46.730884
20
-4.819509
30
0
11
57.464252
21
-7.695506
31
0
39
0
210
0
220
0
230
1
0
LINE
5
9D
100
AcDbEntity
8
1
62
256
6
ByLayer
370
18
48
1
60
0
100
AcDbLine
10
58.026195
20
-8.666085
30
0
11
55.157204
21
-19.373307
31
0
39
0
210
0
220
0
230
1
0
LINE
5
9E
100
AcDbEntity
8
SK1
62
256
6
ByLayer
370
70
48
1
60
0
100
AcDbLine
10
5.8
20
-3.5
30
0
11
8.000035
21
-3.5
31
0
39
0
210
0
220
0
230
1
0
LINE
5
A0
100
AcDbEntity
8
SK1
62
256
6
ByLayer
370
70
48
1
60
0
100
AcDbLine
10
8.000035
20
-8.5
30
0
11
5.8
21
-8.5
31
0
39
0
210
0
220
0
230
1
0
LINE
5
A1
100
AcDbEntity
8
SK1
62
256
6
ByLayer
370
70
48
1
60
0
100
AcDbLine
10
5.8
20
-10.5
30
0
11
5.8
21
-1.5
31
0
39
0
210
0
220
0
230
1
0
LINE
5
A2
100
AcDbEntity
8
SK1
62
256
6
ByLayer
370
70
48
1
60
0
100
AcDbLine
10
1.385622
20
-1.5
30
0
11
1.8
21
-1.5
31
0
39
0
210
0
220
0
230
1
0
LINE
5
A3
100
AcDbEntity
8
SK1
62
256
6
ByLayer
370
70
48
1
60
0
100
AcDbLine
10
4.799616
20
-1.5
30
0
11
5.8
21
-1.5
31
0
39
0
210
0
220
0
230
1
0
LINE
5
A4
100
AcDbEntity
8
SK1
62
256
6
ByLayer
370
70
48
1
60
0
100
AcDbLine
10
5.8
20
-10.5
30
0
11
4.799616
21
-10.5
31
0
39
0
210
0
220
0
230
1
0
LINE
5
A5
100
AcDbEntity
8
SK1
62
256
6
ByLayer
370
70
48
1
60
0
100
AcDbLine
10
1.8
20
-10.5
30
0
11
1.385622
21
-10.5
31
0
39
0
210
0
220
0
230
1
0
LINE
5
A6
100
AcDbEntity
8
SK1
62
256
6
ByLayer
370
70
48
1
60
0
100
AcDbLine
10
1.385622
20
-10.5
30
0
11
1.385622
21
-1.5
31
0
39
0
210
0
220
0
230
1
0
LINE
5
A7
100
AcDbEntity
8
1
62
256
6
ByLayer
370
18
48
1
60
0
100
AcDbLine
10
49.49893
20
-12.894754
30
0
11
49.466818
21
-13.014598
31
0
39
0
210
0
220
0
230
1
0
LINE
5
A8
100
AcDbEntity
8
1
62
256
6
ByLayer
370
18
48
1
60
0
100
AcDbLine
10
49.383522
20
-12.870731
30
0
11
49.415634
21
-12.750887
31
0
39
0
210
0
220
0
230
1
0
LINE
5
A9
100
AcDbEntity
8
1
62
256
6
ByLayer
370
18
48
1
60
0
100
AcDbLine
10
49.529455
20
-13.343577
30
0
11
49.494442
21
-13.474247
31
0
39
0
210
0
220
0
230
1
0
LINE
5
AA
100
AcDbEntity
8
1
62
256
6
ByLayer
370
13
48
1
60
0
100
AcDbLine
10
50.010402
20
-13.653887
30
0
11
49.989801
21
-13.730769
31
0
39
0
210
0
220
0
230
1
0
LINE
5
AB
100
AcDbEntity
8
1
62
256
6
ByLayer
370
18
48
1
60
0
100
AcDbLine
10
47.161063
20
-11.447612
30
0
11
47.182603
21
-11.367222
31
0
39
0
210
0
220
0
230
1
0
LINE
5
AC
100
AcDbEntity
8
1
62
256
6
ByLayer
370
18
48
1
60
0
100
AcDbLine
10
53.799195
20
-13.140133
30
0
11
53.777655
21
-13.220523
31
0
39
0
210
0
220
0
230
1
0
LINE
5
AD
100
AcDbEntity
8
1
62
256
6
ByLayer
370
18
48
1
60
0
100
AcDbLine
10
51.441915
20
-13.114195
30
0
11
51.474433
21
-12.992837
31
0
39
0
210
0
220
0
230
1
0
LINE
5
AE
100
AcDbEntity
8
1
62
256
6
ByLayer
370
13
48
1
60
0
100
AcDbLine
10
50.979026
20
-13.653128
30
0
11
50.958425
21
-13.730011
31
0
39
0
210
0
220
0
230
1
0
LINE
5
AF
100
AcDbEntity
8
1
62
256
6
ByLayer
370
18
48
1
60
0
100
AcDbLine
10
49.5238
20
-11.453182
30
0
11
49.491282
21
-11.57454
31
0
39
0
210
0
220
0
230
1
0
LINE
5
B0
100
AcDbEntity
8
1
62
256
6
ByLayer
370
13
48
1
60
0
100
AcDbLine
10
49.033887
20
-12.527066
30
0
11
49.013318
21
-12.603831
31
0
39
0
210
0
220
0
230
1
0
LINE
5
B1
100
AcDbEntity
8
1
62
256
6
ByLayer
370
13
48
1
60
0
100
AcDbLine
10
51.951904
20
-12.536115
30
0
11
51.931303
21
-12.612997
31
0
39
0
210
0
220
0
230
1
0
LINE
5
B2
100
AcDbEntity
8
1
62
256
6
ByLayer
370
13
48
1
60
0
100
AcDbLine
10
49.516858
20
-11.127696
30
0
11
49.496257
21
-11.204579
31
0
39
0
210
0
220
0
230
1
0
LINE
5
B3
100
AcDbEntity
8
80
62
256
6
ByLayer
370
70
48
1
60
0
100
AcDbLine
10
0
20
0
30
0
11
-5.97565
21
0
31
0
39
0
210
0
220
0
230
1
0
LINE
5
B4
100
AcDbEntity
8
81
62
256
6
ByLayer
370
70
48
1
60
0
100
AcDbLine
10
54.952202
20
-20.138384
30
0
11
61.416142
21
-20.138384
31
0
39
0
210
0
220
0
230
1
0
MTEXT
5
104
100
AcDbEntity
8
SK6
62
256
6
ByLayer
370
18
48
1
60
0
100
AcDbMText
10
14.284518
20
7.787783
30
0
210
0
220
0
230
1
1
\W0.7452;SSKCL 12CA-12
40
3.5
41
0
44
1.084337
50
0
71
7
72
5
7
iso_b_vert
0
DIMENSION
5
109
100
AcDbEntity
8
2
62
256
6
ByLayer
370
18
48
1
60
0
100
AcDbDimension
2
_U0
10
20
20
-32.351417
30
0
11
10
21
-32.351417
31
0
70
32
71
1
72
1
41
1
210
0
220
0
230
1
3
Standard
100
AcDbAlignedDimension
13
0
23
-6
33
0
14
20
24
-13.815583
34
0
50
0
100
AcDbRotatedDimension
1001
ACAD
1000
DSTYLE
1002
{
1070
   371
1070
    13
1070
   372
1070
    13
1070
   170
1070
     0
1070
   144
1040
1.0
1070
   277
1070
     2
1070
   284
1070
     8
1070
   278
1070
    44
1070
   146
1040
0.998516
1070
   345
1005
16
1070
   347
1005
16
1070
   346
1005
16
1070
   344
1005
10A
1070
   343
1005
10A
1070
   172
1070
     1
1070
    76
1070
     0
1070
    75
1070
     0
1070
   282
1070
     0
1070
   281
1070
     0
1070
    71
1070
     0
1070
    74
1070
     0
1070
   279
1070
     0
1070
   173
1070
     1
1070
   340
1005
105
1070
   271
1070
     2
1070
   272
1070
     2
1070
    77
1070
     1
1070
    73
1070
     1
1070
   171
1070
     3
1070
   274
1070
     3
1070
   177
1070
   254
1070
   176
1070
   254
1070
   178
1070
   254
1070
    78
1070
     8
1070
    48
1040
-0.1
1070
    41
1040
3.175
1070
   147
1040
1.7526
1070
    42
1040
1.5875
1070
    44
1040
3.175
1070
   140
1040
3.5052
1002
}
1001
ACAD_DSTYLE_DIM_LINETYPE
1070
   380
1005
16
1001
ACAD_DSTYLE_DIM_EXT1_LINETYPE
1070
   381
1005
16
1001
ACAD_DSTYLE_DIM_EXT2_LINETYPE
1070
   382
1005
16
0
DIMENSION
5
12E
100
AcDbEntity
8
2
62
256
6
ByLayer
370
18
48
1
60
0
100
AcDbDimension
2
_U1
10
54.952202
20
-43.27083
30
0
11
27.476101
21
-43.27083
31
0
70
32
71
1
72
1
41
1
210
0
220
0
230
1
3
Standard
100
AcDbAlignedDimension
13
0
23
-6
33
0
14
54.952202
24
-20.138384
34
0
50
0
100
AcDbRotatedDimension
1001
ACAD
1000
DSTYLE
1002
{
1070
   371
1070
    13
1070
   372
1070
    13
1070
   170
1070
     0
1070
   144
1040
1.0
1070
   277
1070
     2
1070
   284
1070
     8
1070
   278
1070
    44
1070
   146
1040
0.998516
1070
   345
1005
16
1070
   347
1005
16
1070
   346
1005
16
1070
   344
1005
10A
1070
   343
1005
10A
1070
   172
1070
     1
1070
    76
1070
     0
1070
    75
1070
     0
1070
   282
1070
     0
1070
   281
1070
     0
1070
    71
1070
     0
1070
    74
1070
     0
1070
   279
1070
     0
1070
   173
1070
     1
1070
   340
1005
105
1070
   271
1070
     0
1070
   272
1070
     2
1070
    77
1070
     1
1070
    73
1070
     1
1070
   171
1070
     3
1070
   274
1070
     3
1070
   177
1070
   254
1070
   176
1070
   254
1070
   178
1070
   254
1070
    78
1070
     8
1070
    48
1040
-0.1
1070
    41
1040
3.175
1070
   147
1040
1.7526
1070
    42
1040
1.5875
1070
    44
1040
3.175
1070
   140
1040
3.5052
1002
}
1001
ACAD_DSTYLE_DIM_LINETYPE
1070
   380
1005
16
1001
ACAD_DSTYLE_DIM_EXT1_LINETYPE
1070
   381
1005
16
1001
ACAD_DSTYLE_DIM_EXT2_LINETYPE
1070
   382
1005
16
0
DIMENSION
5
14A
100
AcDbEntity
8
2
62
256
6
ByLayer
370
18
48
1
60
0
100
AcDbDimension
2
_U2
10
57.946521
20
-53.346805
30
0
11
28.97326
21
-53.346805
31
0
70
32
71
1
72
1
41
1
210
0
220
0
230
1
3
Standard
100
AcDbAlignedDimension
13
0
23
-6
33
0
14
57.946521
24
-8.064904
34
0
50
0
100
AcDbRotatedDimension
1001
ACAD
1000
DSTYLE
1002
{
1070
   371
1070
    13
1070
   372
1070
    13
1070
   170
1070
     0
1070
   144
1040
1.0
1070
   277
1070
     2
1070
   284
1070
     8
1070
   278
1070
    44
1070
   146
1040
0.998516
1070
   345
1005
16
1070
   347
1005
16
1070
   346
1005
16
1070
   344
1005
10A
1070
   343
1005
10A
1070
   172
1070
     1
1070
    76
1070
     0
1070
    75
1070
     0
1070
   282
1070
     0
1070
   281
1070
     0
1070
    71
1070
     0
1070
    74
1070
     0
1070
   279
1070
     0
1070
   173
1070
     1
1070
   340
1005
105
1070
   271
1070
     0
1070
   272
1070
     2
1070
    77
1070
     1
1070
    73
1070
     1
1070
   171
1070
     3
1070
   274
1070
     3
1070
   177
1070
   254
1070
   176
1070
   254
1070
   178
1070
   254
1070
    78
1070
     8
1070
    48
1040
-0.1
1070
    41
1040
3.175
1070
   147
1040
1.7526
1070
    42
1040
1.5875
1070
    44
1040
3.175
1070
   140
1040
3.5052
1002
}
1001
ACAD_DSTYLE_DIM_LINETYPE
1070
   380
1005
16
1001
ACAD_DSTYLE_DIM_EXT1_LINETYPE
1070
   381
1005
16
1001
ACAD_DSTYLE_DIM_EXT2_LINETYPE
1070
   382
1005
16
0
DIMENSION
5
166
100
AcDbEntity
8
2
62
256
6
ByLayer
370
18
48
1
60
0
100
AcDbDimension
2
_U3
10
-10.815423
20
0
30
0
11
-10.815423
21
-7.375
31
0
70
32
71
1
72
1
41
1
210
0
220
0
230
1
3
Standard
100
AcDbAlignedDimension
13
11.780586
23
-14.75
33
0
14
17.922499
24
0
34
0
50
-90
100
AcDbRotatedDimension
1001
ACAD
1000
DSTYLE
1002
{
1070
   371
1070
    13
1070
   372
1070
    13
1070
   170
1070
     0
1070
   144
1040
1.0
1070
   277
1070
     2
1070
   284
1070
     8
1070
   278
1070
    44
1070
   146
1040
0.998516
1070
   345
1005
16
1070
   347
1005
16
1070
   346
1005
16
1070
   344
1005
10A
1070
   343
1005
10A
1070
   172
1070
     1
1070
    76
1070
     0
1070
    75
1070
     0
1070
   282
1070
     0
1070
   281
1070
     0
1070
    71
1070
     0
1070
    74
1070
     0
1070
   279
1070
     0
1070
   173
1070
     1
1070
   340
1005
105
1070
   271
1070
     0
1070
   272
1070
     2
1070
    77
1070
     1
1070
    73
1070
     0
1070
   171
1070
     3
1070
   274
1070
     3
1070
   177
1070
   254
1070
   176
1070
   254
1070
   178
1070
   254
1070
    78
1070
     8
1070
    48
1040
-0.1
1070
    41
1040
3.175
1070
   147
1040
1.7526
1070
    42
1040
1.5875
1070
    44
1040
3.175
1070
   140
1040
3.5052
1002
}
1001
ACAD_DSTYLE_DIM_LINETYPE
1070
   380
1005
16
1001
ACAD_DSTYLE_DIM_EXT1_LINETYPE
1070
   381
1005
16
1001
ACAD_DSTYLE_DIM_EXT2_LINETYPE
1070
   382
1005
16
0
DIMENSION
5
183
100
AcDbEntity
8
SK2
62
256
6
ByLayer
370
18
48
1
60
0
100
AcDbDimension
2
_U4
10
87.737629
20
0
30
0
11
87.737629
21
-10.069192
31
0
70
32
71
1
72
1
41
1
210
0
220
0
230
1
3
Standard
100
AcDbAlignedDimension
13
57.510716
23
-20.138384
33
0
14
45.012942
24
0
34
0
50
-90
100
AcDbRotatedDimension
1001
ACAD
1000
DSTYLE
1002
{
1070
   371
1070
    13
1070
   372
1070
    13
1070
   170
1070
     0
1070
   144
1040
1.0
1070
   277
1070
     2
1070
   284
1070
     8
1070
   278
1070
    44
1070
   146
1040
0.998516
1070
   345
1005
16
1070
   347
1005
16
1070
   346
1005
16
1070
   344
1005
10A
1070
   343
1005
10A
1070
   172
1070
     1
1070
    76
1070
     0
1070
    75
1070
     0
1070
   282
1070
     0
1070
   281
1070
     0
1070
    71
1070
     0
1070
    74
1070
     0
1070
   279
1070
     0
1070
   173
1070
     1
1070
   340
1005
105
1070
   271
1070
     0
1070
   272
1070
     2
1070
    77
1070
     1
1070
    73
1070
     0
1070
   171
1070
     3
1070
   274
1070
     3
1070
   177
1070
   254
1070
   176
1070
   254
1070
   178
1070
   254
1070
    78
1070
     8
1070
    48
1040
-0.1
1070
    41
1040
3.175
1070
   147
1040
1.7526
1070
    42
1040
1.5875
1070
    44
1040
3.175
1070
   140
1040
3.5052
1002
}
1001
ACAD_DSTYLE_DIM_LINETYPE
1070
   380
1005
16
1001
ACAD_DSTYLE_DIM_EXT1_LINETYPE
1070
   381
1005
16
1001
ACAD_DSTYLE_DIM_EXT2_LINETYPE
1070
   382
1005
16
0
DIMENSION
5
1A0
100
AcDbEntity
8
SK2
62
256
6
ByLayer
370
18
48
1
60
0
100
AcDbDimension
2
_U5
10
61.416142
20
-20.138384
30
0
11
72.135493
21
-6.953181
31
0
70
34
71
1
72
1
41
1
210
0
220
0
230
1
3
Standard
100
AcDb2LineAngularDimension
13
58.026195
23
-8.666085
33
0
14
55.157204
24
-19.373307
34
0
15
54.952202
25
-20.138384
35
0
16
74.581981
26
-10.984867
36
0
40
0
0
ENDSEC
0
SECTION
2
OBJECTS
0
DICTIONARY
5
22f
330
0
100
AcDbDictionary
280
0
281
1
3
ACAD_GROUP
350
230
3
ACAD_MLINESTYLE
350
231
0
DICTIONARY
5
230
330
0
100
AcDbDictionary
280
0
281
1
0
DICTIONARY
5
231
330
0
100
AcDbDictionary
280
0
281
1
3
Standard
350
18
0
MLINESTYLE
5
18
330
231
100
AcDbMlineStyle
2
Standard
70
0
3

62
256
51
90
52
90
71
2
49
-0.5
62
256
6
ByLayer
49
0.5
62
256
6
ByLayer
0
RASTERVARIABLES
5
21e
330

100
AcDbRasterVariables
90
0
70
1
71
1
72
1
0
ENDSEC
0
EOF
