0
SECTION
2
HEADER
9
$ACADVER
1
AC1015
9
$DWGCODEPAGE
3
ANSI_1252
9
$HANDSEED
5
22e
9
$ANGBASE
50
0
9
$ANGDIR
70
0
9
$ATTMODE
70
1
9
$AUNITS
70
0
9
$AUPREC
70
0
9
$CECOLOR
62
256
9
$CELTSCALE
40
1
9
$CELTYPE
6
ByLayer
9
$CELWEIGHT
370
18
9
$CLAYER
8
0
9
$CMLJUST
70
0
9
$CMLSCALE
40
1
9
$CMLSTYLE
2
Standard
9
$DIMSTYLE
2
Standard
9
$TEXTSIZE
40
0.2
9
$TEXTSTYLE
7
Standard
9
$LUNITS
70
2
9
$LUPREC
70
4
9
$EXTNAMES
290
1
9
$INSUNITS
70
4
9
$LTSCALE
40
1
9
$LWDISPLAY
290
1
9
$PDMODE
70
0
9
$PDSIZE
40
0
9
$PLINEGEN
70
0
0
ENDSEC
0
SECTION
2
CLASSES
0
CLASS
1
RASTERVARIABLES
2
AcDbRasterVariables
3
ISM
90
0
280
0
281
0
0
ENDSEC
0
SECTION
2
TABLES
0
TABLE
2
VPORT
5
224
100
AcDbSymbolTable
0
VPORT
5
1
100
AcDbSymbolTableRecord
100
AcDbViewportTableRecord
2
*Active
70
0
10
0
20
0
11
1
21
1
12
-1
22
1
13
0
23
0
14
0.5
24
0.5
15
10
25
10
16
0
26
0
36
1
17
0
27
0
37
0
0
ENDTAB
0
TABLE
2
LTYPE
5
225
100
AcDbSymbolTable
0
LTYPE
5
14
100
AcDbSymbolTableRecord
100
AcDbLinetypeTableRecord
70
0
2
ByBlock
3

72
65
73
0
40
0
0
LTYPE
5
15
100
AcDbSymbolTableRecord
100
AcDbLinetypeTableRecord
70
0
2
ByLayer
3

72
65
73
0
40
0
0
LTYPE
5
16
100
AcDbSymbolTableRecord
100
AcDbLinetypeTableRecord
70
0
2
Continuous
3
Solid line
72
65
73
0
40
0
0
LTYPE
5
6E
100
AcDbSymbolTableRecord
100
AcDbLinetypeTableRecord
70
0
2
CENTER
3
____ _ ____ _ ____ _ ____
72
65
73
4
40
47.5
49
22
74
0
49
-8.5
74
0
49
8.5
74
0
49
-8.5
74
0
0
LTYPE
5
6F
100
AcDbSymbolTableRecord
100
AcDbLinetypeTableRecord
70
0
2
DASHED
3
__ __ __ __ __ __ __ __ __
72
65
73
2
40
25.72
49
12.86
74
0
49
-12.86
74
0
0
ENDTAB
0
TABLE
2
LAYER
5
226
100
AcDbSymbolTable
0
LAYER
5
10
100
AcDbSymbolTableRecord
100
AcDbLayerTableRecord
2
0
70
0
62
7
6
Continuous
290
1
370
-3
390
0
0
LAYER
5
71
100
AcDbSymbolTableRecord
100
AcDbLayerTableRecord
2
80
70
0
62
-6
6
Continuous
290
1
370
-3
390
0
0
LAYER
5
73
100
AcDbSymbolTableRecord
100
AcDbLayerTableRecord
2
81
70
0
62
-3
6
Continuous
290
1
370
-3
390
0
0
LAYER
5
75
100
AcDbSymbolTableRecord
100
AcDbLayerTableRecord
2
1
70
0
62
4
6
Continuous
290
1
370
-3
390
0
0
LAYER
5
105
100
AcDbSymbolTableRecord
100
AcDbLayerTableRecord
2
Defpoints
70
0
62
7
6
Continuous
290
0
370
-3
390
0
0
LAYER
5
112
100
AcDbSymbolTableRecord
100
AcDbLayerTableRecord
2
2
70
0
62
7
6
Continuous
290
1
370
-3
390
0
0
LAYER
5
211
100
AcDbSymbolTableRecord
100
AcDbLayerTableRecord
2
SK1
70
0
62
4
6
Continuous
290
1
370
-3
390
0
0
LAYER
5
212
100
AcDbSymbolTableRecord
100
AcDbLayerTableRecord
2
SK6
70
0
62
5
6
Continuous
290
1
370
-3
390
0
0
LAYER
5
213
100
AcDbSymbolTableRecord
100
AcDbLayerTableRecord
2
SK2
70
0
62
7
6
Continuous
290
1
370
-3
390
0
0
ENDTAB
0
TABLE
2
STYLE
5
227
100
AcDbSymbolTable
0
STYLE
5
11
100
AcDbSymbolTableRecord
100
AcDbTextStyleTableRecord
2
Standard
3
txt
70
0
71
0
40
0
41
1
42
0
50
0
0
STYLE
5
F7
100
AcDbSymbolTableRecord
100
AcDbTextStyleTableRecord
2
iso_b_vert
3
simplex.shx
70
0
71
0
40
0
41
1
42
0
50
0
0
STYLE
5
F8
100
AcDbSymbolTableRecord
100
AcDbTextStyleTableRecord
2
DWGDirectTextStyle
3
simplex
70
0
71
0
40
0
41
1
42
0
50
0
0
ENDTAB
0
TABLE
2
DIMSTYLE
5
228
100
AcDbSymbolTable
100
AcDbDimStyleTable
0
DIMSTYLE
105
27
100
AcDbSymbolTableRecord
100
AcDbDimStyleTableRecord
2
Standard
70
0
3
<>
41
0.18
42
0.0625
44
0.18
140
0.18
147
0.09
73
0
74
0
77
1
271
2
275
0
278
52
280
0
340
11
0
ENDTAB
0
TABLE
2
VIEW
5
229
100
AcDbSymbolTable
0
ENDTAB
0
TABLE
2
UCS
5
22a
100
AcDbSymbolTable
0
ENDTAB
0
TABLE
2
APPID
5
22b
100
AcDbSymbolTable
0
APPID
5
12
100
AcDbSymbolTableRecord
100
AcDbRegAppTableRecord
2
ACAD
70
0
0
APPID
5
FA
100
AcDbSymbolTableRecord
100
AcDbRegAppTableRecord
2
ACAD_DSTYLE_DIMBREAK
70
0
0
APPID
5
13D
100
AcDbSymbolTableRecord
100
AcDbRegAppTableRecord
2
ACAD_DSTYLE_DIMANGULAR_EXTENSION
70
0
0
APPID
5
1D0
100
AcDbSymbolTableRecord
100
AcDbRegAppTableRecord
2
ACAD_DSTYLE_DIM_LINETYPE
70
0
0
APPID
5
1D1
100
AcDbSymbolTableRecord
100
AcDbRegAppTableRecord
2
ACAD_DSTYLE_DIM_EXT1_LINETYPE
70
0
0
APPID
5
1D2
100
AcDbSymbolTableRecord
100
AcDbRegAppTableRecord
2
ACAD_DSTYLE_DIM_EXT2_LINETYPE
70
0
0
APPID
5
20D
100
AcDbSymbolTableRecord
100
AcDbRegAppTableRecord
2
ACAD_MLEADERVER
70
0
0
ENDTAB
0
TABLE
2
BLOCK_RECORD
5
22c
100
AcDbSymbolTable
0
BLOCK_RECORD
5
1F
100
AcDbSymbolTableRecord
100
AcDbBlockTableRecord
2
*Model_Space
340
0
70
0
0
BLOCK_RECORD
5
1B
100
AcDbSymbolTableRecord
100
AcDbBlockTableRecord
2
*Paper_Space
340
0
70
0
0
BLOCK_RECORD
5
23
100
AcDbSymbolTableRecord
100
AcDbBlockTableRecord
2
*Paper_Space0
340
0
70
0
0
BLOCK_RECORD
5
FC
100
AcDbSymbolTableRecord
100
AcDbBlockTableRecord
2
_Closed
340
0
70
0
0
BLOCK_RECORD
5
106
100
AcDbSymbolTableRecord
100
AcDbBlockTableRecord
2
*D2
340
0
70
0
0
BLOCK_RECORD
5
113
100
AcDbSymbolTableRecord
100
AcDbBlockTableRecord
2
_U0
340
0
70
0
0
BLOCK_RECORD
5
123
100
AcDbSymbolTableRecord
100
AcDbBlockTableRecord
2
*D4
340
0
70
0
0
BLOCK_RECORD
5
12F
100
AcDbSymbolTableRecord
100
AcDbBlockTableRecord
2
_U1
340
0
70
0
0
BLOCK_RECORD
5
140
100
AcDbSymbolTableRecord
100
AcDbBlockTableRecord
2
*D6
340
0
70
0
0
BLOCK_RECORD
5
14F
100
AcDbSymbolTableRecord
100
AcDbBlockTableRecord
2
_U2
340
0
70
0
0
BLOCK_RECORD
5
15F
100
AcDbSymbolTableRecord
100
AcDbBlockTableRecord
2
*D8
340
0
70
0
0
BLOCK_RECORD
5
16C
100
AcDbSymbolTableRecord
100
AcDbBlockTableRecord
2
_U3
340
0
70
0
0
BLOCK_RECORD
5
17C
100
AcDbSymbolTableRecord
100
AcDbBlockTableRecord
2
*D10
340
0
70
0
0
BLOCK_RECORD
5
189
100
AcDbSymbolTableRecord
100
AcDbBlockTableRecord
2
_U4
340
0
70
0
0
BLOCK_RECORD
5
199
100
AcDbSymbolTableRecord
100
AcDbBlockTableRecord
2
*D12
340
0
70
0
0
BLOCK_RECORD
5
1A5
100
AcDbSymbolTableRecord
100
AcDbBlockTableRecord
2
_U5
340
0
70
0
0
ENDTAB
0
ENDSEC
0
SECTION
2
BLOCKS
0
BLOCK
5
20
100
AcDbEntity
8
0
100
AcDbBlockBegin
2
*Model_Space
70
0
10
0
20
0
30
0
3
*Model_Space
0
ENDBLK
5
21
100
AcDbEntity
8
0
100
AcDbBlockEnd
0
BLOCK
5
1C
100
AcDbEntity
8
0
100
AcDbBlockBegin
2
*Paper_Space
70
0
10
0
20
0
30
0
3
*Paper_Space
0
ENDBLK
5
1D
100
AcDbEntity
8
0
100
AcDbBlockEnd
0
BLOCK
5
24
100
AcDbEntity
8
0
100
AcDbBlockBegin
2
*Paper_Space0
70
0
10
0
20
0
30
0
3
*Paper_Space0
0
ENDBLK
5
25
100
AcDbEntity
8
0
100
AcDbBlockEnd
0
BLOCK
5
FD
100
AcDbEntity
8
0
100
AcDbBlockBegin
2
_Closed
70
0
10
0
20
0
30
0
3
_Closed
0
LINE
5
FF
100
AcDbEntity
8
0
62
256
6
ByLayer
370
-2
48
1
60
0
100
AcDbLine
10
-1
20
0.166667
30
0
11
0
21
0
31
0
39
0
210
0
220
0
230
1
0
LINE
5
100
100
AcDbEntity
8
0
62
256
6
ByLayer
370
-2
48
1
60
0
100
AcDbLine
10
0
20
0
30
0
11
-1
21
-0.166667
31
0
39
0
210
0
220
0
230
1
0
LINE
5
101
100
AcDbEntity
8
0
62
256
6
ByLayer
370
-2
48
1
60
0
100
AcDbLine
10
-1
20
0.166667
30
0
11
-1
21
-0.166667
31
0
39
0
210
0
220
0
230
1
0
LINE
5
102
100
AcDbEntity
8
0
62
256
6
ByLayer
370
-2
48
1
60
0
100
AcDbLine
10
0
20
0
30
0
11
-1
21
0
31
0
39
0
210
0
220
0
230
1
0
ENDBLK
5
FE
100
AcDbEntity
8
0
100
AcDbBlockEnd
0
BLOCK
5
107
100
AcDbEntity
8
0
100
AcDbBlockBegin
2
*D2
70
1
10
0
20
0
30
0
3
*D2
0
LINE
5
109
100
AcDbEntity
8
0
62
256
6
ByLayer
370
-2
48
1
60
0
100
AcDbLine
10
0
20
-7.2
30
0
11
0
21
-41.59032
31
0
39
0
210
0
220
0
230
1
0
LINE
5
10A
100
AcDbEntity
8
0
62
256
6
ByLayer
370
-2
48
1
60
0
100
AcDbLine
10
52.12641
20
-7.159477
30
0
11
52.12641
21
-41.59032
31
0
39
0
210
0
220
0
230
1
0
LINE
5
10B
100
AcDbEntity
8
0
62
256
6
ByLayer
370
-2
48
1
60
0
100
AcDbLine
10
3.175
20
-39.59032
30
0
11
48.95141
21
-39.59032
31
0
39
0
210
0
220
0
230
1
0
SOLID
5
10C
100
AcDbEntity
8
0
62
256
6
ByLayer
370
-1
48
1
60
0
100
AcDbTrace
10
3.175
20
-39.061154
30
0
11
3.175
21
-40.119487
31
0
12
0
22
-39.59032
32
0
13
0
23
-39.59032
33
0
39
0
210
0
220
0
230
1
0
SOLID
5
10D
100
AcDbEntity
8
0
62
256
6
ByLayer
370
-1
48
1
60
0
100
AcDbTrace
10
48.95141
20
-40.119487
30
0
11
48.95141
21
-39.061154
31
0
12
52.12641
22
-39.59032
32
0
13
52.12641
23
-39.59032
33
0
39
0
210
0
220
0
230
1
0
MTEXT
5
10E
100
AcDbEntity
8
0
62
256
6
ByLayer
370
18
48
1
60
0
100
AcDbMText
10
26.063205
20
-32.09032
30
0
210
0
220
0
230
1
1
\A1;52
40
3
41
0
44
1
50
0
71
5
72
5
7
iso_b_vert
0
POINT
5
10F
100
AcDbEntity
8
Defpoints
62
0
6
ByLayer
370
-1
48
1
60
0
100
AcDbPoint
10
0
20
-5.2
30
0
39
0
210
0
220
0
230
1
50
360
0
POINT
5
110
100
AcDbEntity
8
Defpoints
62
0
6
ByLayer
370
-1
48
1
60
0
100
AcDbPoint
10
52.12641
20
-5.159477
30
0
39
0
210
0
220
0
230
1
50
360
0
POINT
5
111
100
AcDbEntity
8
Defpoints
62
0
6
ByLayer
370
-1
48
1
60
0
100
AcDbPoint
10
52.12641
20
-39.59032
30
0
39
0
210
0
220
0
230
1
50
360
0
ENDBLK
5
108
100
AcDbEntity
8
0
100
AcDbBlockEnd
0
BLOCK
5
11E
100
AcDbEntity
8
0
100
AcDbBlockBegin
2
_U0
70
0
10
0
20
0
30
0
3
_U0
0
MTEXT
5
114
100
AcDbEntity
8
2
62
256
6
ByLayer
370
18
48
1
60
0
100
AcDbMText
10
24.430377
20
-38.705206
30
0
210
0
220
0
230
1
1
\W0.6740;52
40
3
41
0
44
1.084337
50
0
71
7
72
5
7
iso_b_vert
0
LINE
5
115
100
AcDbEntity
8
2
62
256
6
ByLayer
370
13
48
1
60
0
100
AcDbLine
10
0
20
-7.2
30
0
11
0
21
-41.59032
31
0
39
0
210
0
220
0
230
1
0
LINE
5
116
100
AcDbEntity
8
2
62
256
6
ByLayer
370
13
48
1
60
0
100
AcDbLine
10
52.12641
20
-7.159477
30
0
11
52.12641
21
-41.59032
31
0
39
0
210
0
220
0
230
1
0
LINE
5
117
100
AcDbEntity
8
2
62
256
6
ByLayer
370
13
48
1
60
0
100
AcDbLine
10
0
20
-39.59032
30
0
11
52.12641
21
-39.59032
31
0
39
0
210
0
220
0
230
1
0
LINE
5
118
100
AcDbEntity
8
2
62
256
6
ByLayer
370
13
48
1
60
0
100
AcDbLine
10
0
20
-39.59032
30
0
11
3.174998
21
-39.172324
31
0
39
0
210
0
220
0
230
1
0
LINE
5
119
100
AcDbEntity
8
2
62
256
6
ByLayer
370
13
48
1
60
0
100
AcDbLine
10
0
20
-39.59032
30
0
11
3.175002
21
-40.008317
31
0
39
0
210
0
220
0
230
1
0
LINE
5
11A
100
AcDbEntity
8
2
62
256
6
ByLayer
370
13
48
1
60
0
100
AcDbLine
10
3.174998
20
-39.172324
30
0
11
3.175002
21
-40.008317
31
0
39
0
210
0
220
0
230
1
0
LINE
5
11B
100
AcDbEntity
8
2
62
256
6
ByLayer
370
13
48
1
60
0
100
AcDbLine
10
52.12641
20
-39.59032
30
0
11
48.951412
21
-40.008317
31
0
39
0
210
0
220
0
230
1
0
LINE
5
11C
100
AcDbEntity
8
2
62
256
6
ByLayer
370
13
48
1
60
0
100
AcDbLine
10
52.12641
20
-39.59032
30
0
11
48.951409
21
-39.172324
31
0
39
0
210
0
220
0
230
1
0
LINE
5
11D
100
AcDbEntity
8
2
62
256
6
ByLayer
370
13
48
1
60
0
100
AcDbLine
10
48.951412
20
-40.008317
30
0
11
48.951409
21
-39.172324
31
0
39
0
210
0
220
0
230
1
0
ENDBLK
5
11F
100
AcDbEntity
8
0
100
AcDbBlockEnd
0
BLOCK
5
124
100
AcDbEntity
8
0
100
AcDbBlockBegin
2
*D4
70
1
10
0
20
0
30
0
3
*D4
0
LINE
5
126
100
AcDbEntity
8
0
62
256
6
ByLayer
370
-2
48
1
60
0
100
AcDbLine
10
20.004035
20
-11.949238
30
0
11
20.004035
21
-23.458092
31
0
39
0
210
0
220
0
230
1
0
LINE
5
127
100
AcDbEntity
8
0
62
256
6
ByLayer
370
-2
48
1
60
0
100
AcDbLine
10
0
20
-7.2
30
0
11
0
21
-23.458092
31
0
39
0
210
0
220
0
230
1
0
LINE
5
128
100
AcDbEntity
8
0
62
256
6
ByLayer
370
-2
48
1
60
0
100
AcDbLine
10
16.829035
20
-21.458092
30
0
11
3.175
21
-21.458092
31
0
39
0
210
0
220
0
230
1
0
SOLID
5
129
100
AcDbEntity
8
0
62
256
6
ByLayer
370
-1
48
1
60
0
100
AcDbTrace
10
16.829035
20
-21.987259
30
0
11
16.829035
21
-20.928925
31
0
12
20.004035
22
-21.458092
32
0
13
20.004035
23
-21.458092
33
0
39
0
210
0
220
0
230
1
0
SOLID
5
12A
100
AcDbEntity
8
0
62
256
6
ByLayer
370
-1
48
1
60
0
100
AcDbTrace
10
3.175
20
-20.928925
30
0
11
3.175
21
-21.987259
31
0
12
0
22
-21.458092
32
0
13
0
23
-21.458092
33
0
39
0
210
0
220
0
230
1
0
MTEXT
5
12B
100
AcDbEntity
8
0
62
256
6
ByLayer
370
18
48
1
60
0
100
AcDbMText
10
10.002018
20
-13.958092
30
0
210
0
220
0
230
1
1
\A1;20
40
3
41
0
44
1
50
0
71
5
72
5
7
iso_b_vert
0
POINT
5
12C
100
AcDbEntity
8
Defpoints
62
0
6
ByLayer
370
-1
48
1
60
0
100
AcDbPoint
10
20.004035
20
-9.949238
30
0
39
0
210
0
220
0
230
1
50
360
0
POINT
5
12D
100
AcDbEntity
8
Defpoints
62
0
6
ByLayer
370
-1
48
1
60
0
100
AcDbPoint
10
0
20
-5.2
30
0
39
0
210
0
220
0
230
1
50
360
0
POINT
5
12E
100
AcDbEntity
8
Defpoints
62
0
6
ByLayer
370
-1
48
1
60
0
100
AcDbPoint
10
0
20
-21.458092
30
0
39
0
210
0
220
0
230
1
50
360
0
ENDBLK
5
125
100
AcDbEntity
8
0
100
AcDbBlockEnd
0
BLOCK
5
13A
100
AcDbEntity
8
0
100
AcDbBlockBegin
2
_U1
70
0
10
0
20
0
30
0
3
_U1
0
MTEXT
5
130
100
AcDbEntity
8
2
62
256
6
ByLayer
370
18
48
1
60
0
100
AcDbMText
10
8.36919
20
-20.572978
30
0
210
0
220
0
230
1
1
\W0.6740;20
40
3
41
0
44
1.084337
50
0
71
7
72
5
7
iso_b_vert
0
LINE
5
131
100
AcDbEntity
8
2
62
256
6
ByLayer
370
13
48
1
60
0
100
AcDbLine
10
20.004035
20
-11.949238
30
0
11
20.004035
21
-23.458092
31
0
39
0
210
0
220
0
230
1
0
LINE
5
132
100
AcDbEntity
8
2
62
256
6
ByLayer
370
13
48
1
60
0
100
AcDbLine
10
0
20
-7.2
30
0
11
0
21
-23.458092
31
0
39
0
210
0
220
0
230
1
0
LINE
5
133
100
AcDbEntity
8
2
62
256
6
ByLayer
370
13
48
1
60
0
100
AcDbLine
10
20.004035
20
-21.458092
30
0
11
0
21
-21.458092
31
0
39
0
210
0
220
0
230
1
0
LINE
5
134
100
AcDbEntity
8
2
62
256
6
ByLayer
370
13
48
1
60
0
100
AcDbLine
10
20.004035
20
-21.458092
30
0
11
16.829037
21
-21.876089
31
0
39
0
210
0
220
0
230
1
0
LINE
5
135
100
AcDbEntity
8
2
62
256
6
ByLayer
370
13
48
1
60
0
100
AcDbLine
10
20.004035
20
-21.458092
30
0
11
16.829034
21
-21.040095
31
0
39
0
210
0
220
0
230
1
0
LINE
5
136
100
AcDbEntity
8
2
62
256
6
ByLayer
370
13
48
1
60
0
100
AcDbLine
10
16.829037
20
-21.876089
30
0
11
16.829034
21
-21.040095
31
0
39
0
210
0
220
0
230
1
0
LINE
5
137
100
AcDbEntity
8
2
62
256
6
ByLayer
370
13
48
1
60
0
100
AcDbLine
10
0
20
-21.458092
30
0
11
3.174998
21
-21.040095
31
0
39
0
210
0
220
0
230
1
0
LINE
5
138
100
AcDbEntity
8
2
62
256
6
ByLayer
370
13
48
1
60
0
100
AcDbLine
10
0
20
-21.458092
30
0
11
3.175002
21
-21.876089
31
0
39
0
210
0
220
0
230
1
0
LINE
5
139
100
AcDbEntity
8
2
62
256
6
ByLayer
370
13
48
1
60
0
100
AcDbLine
10
3.174998
20
-21.040095
30
0
11
3.175002
21
-21.876089
31
0
39
0
210
0
220
0
230
1
0
ENDBLK
5
13B
100
AcDbEntity
8
0
100
AcDbBlockEnd
0
BLOCK
5
141
100
AcDbEntity
8
0
100
AcDbBlockBegin
2
*D6
70
1
10
0
20
0
30
0
3
*D6
0
LINE
5
143
100
AcDbEntity
8
0
62
256
6
ByLayer
370
-2
48
1
60
0
100
AcDbLine
10
53.028491
20
-14.173613
30
0
11
66.336288
21
-14.173613
31
0
39
0
210
0
220
0
230
1
0
LINE
5
144
100
AcDbEntity
8
0
62
256
6
ByLayer
370
-2
48
1
60
0
100
AcDbLine
10
52.723723
20
-3.828806
30
0
11
54.192448
21
1.652548
31
0
39
0
210
0
220
0
230
1
0
ARC
5
145
100
AcDbEntity
8
0
62
256
6
ByLayer
370
-2
48
1
60
0
100
AcDbCircle
39
0
10
49.951841
20
-14.173613
30
0
40
14.3844474319618
210
0
220
0
230
1
100
AcDbArc
50
12.672396
51
62.327604
0
SOLID
5
146
100
AcDbEntity
8
0
62
256
6
ByLayer
370
-1
48
1
60
0
100
AcDbTrace
10
63.459954
20
-11.076407
30
0
11
64.511822
21
-10.959607
31
0
12
64.336288
22
-14.173613
32
0
13
64.336288
23
-14.173613
33
0
39
0
210
0
220
0
230
1
0
SOLID
5
147
100
AcDbEntity
8
0
62
256
6
ByLayer
370
-1
48
1
60
0
100
AcDbTrace
10
56.824732
20
-0.941596
30
0
11
56.439668
21
-1.927393
31
0
12
53.67481
22
-0.279303
32
0
13
53.67481
23
-0.279303
33
0
39
0
210
0
220
0
230
1
0
MTEXT
5
148
100
AcDbEntity
8
0
62
256
6
ByLayer
370
18
48
1
60
0
100
AcDbMText
10
67.370608
20
-0.807722
30
0
210
0
220
0
230
1
1
\A1;75%%d
40
3
41
0
44
1
50
0
71
5
72
5
7
iso_b_vert
0
POINT
5
149
100
AcDbEntity
8
Defpoints
62
0
6
ByLayer
370
-1
48
1
60
0
100
AcDbPoint
10
62.988578
20
-8.094483
30
0
39
0
210
0
220
0
230
1
50
360
0
POINT
5
14A
100
AcDbEntity
8
Defpoints
62
0
6
ByLayer
370
-1
48
1
60
0
100
AcDbPoint
10
49.951841
20
-14.173613
30
0
39
0
210
0
220
0
230
1
50
360
0
POINT
5
14B
100
AcDbEntity
8
Defpoints
62
0
6
ByLayer
370
-1
48
1
60
0
100
AcDbPoint
10
52.206085
20
-5.760658
30
0
39
0
210
0
220
0
230
1
50
360
0
POINT
5
14C
100
AcDbEntity
8
Defpoints
62
0
6
ByLayer
370
-1
48
1
60
0
100
AcDbPoint
10
50.156843
20
-13.408536
30
0
39
0
210
0
220
0
230
1
50
360
0
POINT
5
14D
100
AcDbEntity
8
Defpoints
62
0
6
ByLayer
370
-1
48
1
60
0
100
AcDbPoint
10
51.028491
20
-14.173613
30
0
39
0
210
0
220
0
230
1
50
360
0
ENDBLK
5
142
100
AcDbEntity
8
0
100
AcDbBlockEnd
0
BLOCK
5
15A
100
AcDbEntity
8
0
100
AcDbBlockBegin
2
_U2
70
0
10
0
20
0
30
0
3
_U2
0
MTEXT
5
150
100
AcDbEntity
8
SK2
62
256
6
ByLayer
370
18
48
1
60
0
100
AcDbMText
10
57.062495
20
-3.164988
30
0
210
0
220
0
230
1
1
\W0.8292;75%%d0'
40
3
41
0
44
1.084337
50
307.5
71
7
72
5
7
iso_b_vert
0
LINE
5
151
100
AcDbEntity
8
SK2
62
256
6
ByLayer
370
13
48
1
60
0
100
AcDbLine
10
52.723723
20
-3.828806
30
0
11
53.415991
21
-1.245229
31
0
39
0
210
0
220
0
230
1
0
LINE
5
152
100
AcDbEntity
8
SK2
62
256
6
ByLayer
370
13
48
1
60
0
100
AcDbLine
10
53.028491
20
-14.173613
30
0
11
63.336288
21
-14.173613
31
0
39
0
210
0
220
0
230
1
0
ARC
5
153
100
AcDbEntity
8
SK2
62
256
6
ByLayer
370
13
48
1
60
0
100
AcDbCircle
39
0
10
49.951841
20
-14.173613
30
0
40
11.3844474375618
210
0
220
0
230
1
100
AcDbArc
50
326.623368
51
108.376575
0
LINE
5
154
100
AcDbEntity
8
SK2
62
256
6
ByLayer
370
13
48
1
60
0
100
AcDbLine
10
52.898353
20
-3.177081
30
0
11
49.702036
21
-2.979861
31
0
39
0
210
0
220
0
230
1
0
LINE
5
155
100
AcDbEntity
8
SK2
62
256
6
ByLayer
370
13
48
1
60
0
100
AcDbLine
10
52.898353
20
-3.177081
30
0
11
49.861989
21
-2.159313
31
0
39
0
210
0
220
0
230
1
0
LINE
5
156
100
AcDbEntity
8
SK2
62
256
6
ByLayer
370
13
48
1
60
0
100
AcDbLine
10
49.702036
20
-2.979861
30
0
11
49.861989
21
-2.159313
31
0
39
0
210
0
220
0
230
1
0
LINE
5
157
100
AcDbEntity
8
SK2
62
256
6
ByLayer
370
13
48
1
60
0
100
AcDbLine
10
61.336288
20
-14.173613
30
0
11
61.533508
21
-17.369929
31
0
39
0
210
0
220
0
230
1
0
LINE
5
158
100
AcDbEntity
8
SK2
62
256
6
ByLayer
370
13
48
1
60
0
100
AcDbLine
10
61.336288
20
-14.173613
30
0
11
60.69952
21
-17.312065
31
0
39
0
210
0
220
0
230
1
0
LINE
5
159
100
AcDbEntity
8
SK2
62
256
6
ByLayer
370
13
48
1
60
0
100
AcDbLine
10
61.533508
20
-17.369929
30
0
11
60.69952
21
-17.312065
31
0
39
0
210
0
220
0
230
1
0
ENDBLK
5
15B
100
AcDbEntity
8
0
100
AcDbBlockEnd
0
BLOCK
5
160
100
AcDbEntity
8
0
100
AcDbBlockBegin
2
*D8
70
1
10
0
20
0
30
0
3
*D8
0
LINE
5
162
100
AcDbEntity
8
0
62
256
6
ByLayer
370
-2
48
1
60
0
100
AcDbLine
10
47.576195
20
0
30
0
11
78.417059
21
0
31
0
39
0
210
0
220
0
230
1
0
LINE
5
163
100
AcDbEntity
8
0
62
256
6
ByLayer
370
-2
48
1
60
0
100
AcDbLine
10
51.951841
20
-14.173613
30
0
11
78.417059
21
-14.173613
31
0
39
0
210
0
220
0
230
1
0
LINE
5
164
100
AcDbEntity
8
0
62
256
6
ByLayer
370
-2
48
1
60
0
100
AcDbLine
10
76.417059
20
3.175
30
0
11
76.417059
21
6.35
31
0
39
0
210
0
220
0
230
1
0
LINE
5
165
100
AcDbEntity
8
0
62
256
6
ByLayer
370
-2
48
1
60
0
100
AcDbLine
10
76.417059
20
-17.348613
30
0
11
76.417059
21
-20.523613
31
0
39
0
210
0
220
0
230
1
0
SOLID
5
166
100
AcDbEntity
8
0
62
256
6
ByLayer
370
-1
48
1
60
0
100
AcDbTrace
10
75.887892
20
3.175
30
0
11
76.946225
21
3.175
31
0
12
76.417059
22
0
32
0
13
76.417059
23
0
33
0
39
0
210
0
220
0
230
1
0
SOLID
5
167
100
AcDbEntity
8
0
62
256
6
ByLayer
370
-1
48
1
60
0
100
AcDbTrace
10
76.946225
20
-17.348613
30
0
11
75.887892
21
-17.348613
31
0
12
76.417059
22
-14.173613
32
0
13
76.417059
23
-14.173613
33
0
39
0
210
0
220
0
230
1
0
MTEXT
5
168
100
AcDbEntity
8
0
62
256
6
ByLayer
370
18
48
1
60
0
100
AcDbMText
10
68.917059
20
-7.086806
30
0
210
0
220
0
230
1
1
\A1;14
40
3
41
0
44
1
50
90
71
5
72
5
7
iso_b_vert
0
POINT
5
169
100
AcDbEntity
8
Defpoints
62
0
6
ByLayer
370
-1
48
1
60
0
100
AcDbPoint
10
45.576195
20
0
30
0
39
0
210
0
220
0
230
1
50
360
0
POINT
5
16A
100
AcDbEntity
8
Defpoints
62
0
6
ByLayer
370
-1
48
1
60
0
100
AcDbPoint
10
49.951841
20
-14.173613
30
0
39
0
210
0
220
0
230
1
50
360
0
POINT
5
16B
100
AcDbEntity
8
Defpoints
62
0
6
ByLayer
370
-1
48
1
60
0
100
AcDbPoint
10
76.417059
20
-14.173613
30
0
39
0
210
0
220
0
230
1
50
360
0
ENDBLK
5
161
100
AcDbEntity
8
0
100
AcDbBlockEnd
0
BLOCK
5
177
100
AcDbEntity
8
0
100
AcDbBlockBegin
2
_U3
70
0
10
0
20
0
30
0
3
_U3
0
MTEXT
5
16D
100
AcDbEntity
8
SK2
62
256
6
ByLayer
370
18
48
1
60
0
100
AcDbMText
10
75.825944
20
-8.526635
30
0
210
0
220
0
230
1
1
\W0.5785;14
40
3
41
0
44
1.084337
50
90
71
7
72
5
7
iso_b_vert
0
LINE
5
16E
100
AcDbEntity
8
SK2
62
256
6
ByLayer
370
13
48
1
60
0
100
AcDbLine
10
53.028491
20
-14.173613
30
0
11
78.417059
21
-14.173613
31
0
39
0
210
0
220
0
230
1
0
LINE
5
16F
100
AcDbEntity
8
SK2
62
256
6
ByLayer
370
13
48
1
60
0
100
AcDbLine
10
53.504035
20
0
30
0
11
78.417059
21
0
31
0
39
0
210
0
220
0
230
1
0
LINE
5
170
100
AcDbEntity
8
SK2
62
256
6
ByLayer
370
13
48
1
60
0
100
AcDbLine
10
76.417059
20
-14.173613
30
0
11
76.417059
21
0
31
0
39
0
210
0
220
0
230
1
0
LINE
5
171
100
AcDbEntity
8
SK2
62
256
6
ByLayer
370
13
48
1
60
0
100
AcDbLine
10
76.417059
20
-14.173613
30
0
11
75.999062
21
-10.998614
31
0
39
0
210
0
220
0
230
1
0
LINE
5
172
100
AcDbEntity
8
SK2
62
256
6
ByLayer
370
13
48
1
60
0
100
AcDbLine
10
76.417059
20
-14.173613
30
0
11
76.835055
21
-10.998611
31
0
39
0
210
0
220
0
230
1
0
LINE
5
173
100
AcDbEntity
8
SK2
62
256
6
ByLayer
370
13
48
1
60
0
100
AcDbLine
10
75.999062
20
-10.998614
30
0
11
76.835055
21
-10.998611
31
0
39
0
210
0
220
0
230
1
0
LINE
5
174
100
AcDbEntity
8
SK2
62
256
6
ByLayer
370
13
48
1
60
0
100
AcDbLine
10
76.417059
20
0
30
0
11
76.835055
21
-3.174998
31
0
39
0
210
0
220
0
230
1
0
LINE
5
175
100
AcDbEntity
8
SK2
62
256
6
ByLayer
370
13
48
1
60
0
100
AcDbLine
10
76.417059
20
0
30
0
11
75.999062
21
-3.175002
31
0
39
0
210
0
220
0
230
1
0
LINE
5
176
100
AcDbEntity
8
SK2
62
256
6
ByLayer
370
13
48
1
60
0
100
AcDbLine
10
76.835055
20
-3.174998
30
0
11
75.999062
21
-3.175002
31
0
39
0
210
0
220
0
230
1
0
ENDBLK
5
178
100
AcDbEntity
8
0
100
AcDbBlockEnd
0
BLOCK
5
17D
100
AcDbEntity
8
0
100
AcDbBlockBegin
2
*D10
70
1
10
0
20
0
30
0
3
*D10
0
LINE
5
17F
100
AcDbEntity
8
0
62
256
6
ByLayer
370
-2
48
1
60
0
100
AcDbLine
10
11.536078
20
-10.85
30
0
11
-11.660945
21
-10.85
31
0
39
0
210
0
220
0
230
1
0
LINE
5
180
100
AcDbEntity
8
0
62
256
6
ByLayer
370
-2
48
1
60
0
100
AcDbLine
10
16.370283
20
0
30
0
11
-11.660945
21
0
31
0
39
0
210
0
220
0
230
1
0
LINE
5
181
100
AcDbEntity
8
0
62
256
6
ByLayer
370
-2
48
1
60
0
100
AcDbLine
10
-9.660945
20
-14.025
30
0
11
-9.660945
21
-17.2
31
0
39
0
210
0
220
0
230
1
0
LINE
5
182
100
AcDbEntity
8
0
62
256
6
ByLayer
370
-2
48
1
60
0
100
AcDbLine
10
-9.660945
20
3.175
30
0
11
-9.660945
21
6.35
31
0
39
0
210
0
220
0
230
1
0
SOLID
5
183
100
AcDbEntity
8
0
62
256
6
ByLayer
370
-1
48
1
60
0
100
AcDbTrace
10
-9.131779
20
-14.025
30
0
11
-10.190112
21
-14.025
31
0
12
-9.660945
22
-10.85
32
0
13
-9.660945
23
-10.85
33
0
39
0
210
0
220
0
230
1
0
SOLID
5
184
100
AcDbEntity
8
0
62
256
6
ByLayer
370
-1
48
1
60
0
100
AcDbTrace
10
-10.190112
20
3.175
30
0
11
-9.131779
21
3.175
31
0
12
-9.660945
22
0
32
0
13
-9.660945
23
0
33
0
39
0
210
0
220
0
230
1
0
MTEXT
5
185
100
AcDbEntity
8
0
62
256
6
ByLayer
370
18
48
1
60
0
100
AcDbMText
10
-17.160945
20
-5.425
30
0
210
0
220
0
230
1
1
\A1;11
40
3
41
0
44
1
50
90
71
5
72
5
7
iso_b_vert
0
POINT
5
186
100
AcDbEntity
8
Defpoints
62
0
6
ByLayer
370
-1
48
1
60
0
100
AcDbPoint
10
13.536078
20
-10.85
30
0
39
0
210
0
220
0
230
1
50
360
0
POINT
5
187
100
AcDbEntity
8
Defpoints
62
0
6
ByLayer
370
-1
48
1
60
0
100
AcDbPoint
10
18.370283
20
0
30
0
39
0
210
0
220
0
230
1
50
360
0
POINT
5
188
100
AcDbEntity
8
Defpoints
62
0
6
ByLayer
370
-1
48
1
60
0
100
AcDbPoint
10
-9.660945
20
0
30
0
39
0
210
0
220
0
230
1
50
360
0
ENDBLK
5
17E
100
AcDbEntity
8
0
100
AcDbBlockEnd
0
BLOCK
5
194
100
AcDbEntity
8
0
100
AcDbBlockBegin
2
_U4
70
0
10
0
20
0
30
0
3
_U4
0
MTEXT
5
18A
100
AcDbEntity
8
2
62
256
6
ByLayer
370
18
48
1
60
0
100
AcDbMText
10
-10.25206
20
-6.331943
30
0
210
0
220
0
230
1
1
\W0.4657;11
40
3
41
0
44
1.084337
50
90
71
7
72
5
7
iso_b_vert
0
LINE
5
18B
100
AcDbEntity
8
2
62
256
6
ByLayer
370
13
48
1
60
0
100
AcDbLine
10
6.004035
20
0
30
0
11
-11.660945
21
0
31
0
39
0
210
0
220
0
230
1
0
LINE
5
18C
100
AcDbEntity
8
2
62
256
6
ByLayer
370
13
48
1
60
0
100
AcDbLine
10
6.004035
20
-10.85
30
0
11
-11.660945
21
-10.85
31
0
39
0
210
0
220
0
230
1
0
LINE
5
18D
100
AcDbEntity
8
2
62
256
6
ByLayer
370
13
48
1
60
0
100
AcDbLine
10
-9.660945
20
7.5
30
0
11
-9.660945
21
-18.35
31
0
39
0
210
0
220
0
230
1
0
LINE
5
18E
100
AcDbEntity
8
2
62
256
6
ByLayer
370
13
48
1
60
0
100
AcDbLine
10
-9.660945
20
0
30
0
11
-10.078942
21
3.174998
31
0
39
0
210
0
220
0
230
1
0
LINE
5
18F
100
AcDbEntity
8
2
62
256
6
ByLayer
370
13
48
1
60
0
100
AcDbLine
10
-9.660945
20
0
30
0
11
-9.242948
21
3.175002
31
0
39
0
210
0
220
0
230
1
0
LINE
5
190
100
AcDbEntity
8
2
62
256
6
ByLayer
370
13
48
1
60
0
100
AcDbLine
10
-10.078942
20
3.174998
30
0
11
-9.242948
21
3.175002
31
0
39
0
210
0
220
0
230
1
0
LINE
5
191
100
AcDbEntity
8
2
62
256
6
ByLayer
370
13
48
1
60
0
100
AcDbLine
10
-9.660945
20
-10.85
30
0
11
-9.242948
21
-14.024998
31
0
39
0
210
0
220
0
230
1
0
LINE
5
192
100
AcDbEntity
8
2
62
256
6
ByLayer
370
13
48
1
60
0
100
AcDbLine
10
-9.660945
20
-10.85
30
0
11
-10.078942
21
-14.025002
31
0
39
0
210
0
220
0
230
1
0
LINE
5
193
100
AcDbEntity
8
2
62
256
6
ByLayer
370
13
48
1
60
0
100
AcDbLine
10
-9.242948
20
-14.024998
30
0
11
-10.078942
21
-14.025002
31
0
39
0
210
0
220
0
230
1
0
ENDBLK
5
195
100
AcDbEntity
8
0
100
AcDbBlockEnd
0
BLOCK
5
19A
100
AcDbEntity
8
0
100
AcDbBlockBegin
2
*D12
70
1
10
0
20
0
30
0
3
*D12
0
LINE
5
19C
100
AcDbEntity
8
0
62
256
6
ByLayer
370
-2
48
1
60
0
100
AcDbLine
10
0
20
-7.2
30
0
11
0
21
-32.844968
31
0
39
0
210
0
220
0
230
1
0
LINE
5
19D
100
AcDbEntity
8
0
62
256
6
ByLayer
370
-2
48
1
60
0
100
AcDbLine
10
49.951841
20
-16.173613
30
0
11
49.951841
21
-32.844968
31
0
39
0
210
0
220
0
230
1
0
LINE
5
19E
100
AcDbEntity
8
0
62
256
6
ByLayer
370
-2
48
1
60
0
100
AcDbLine
10
3.175
20
-30.844968
30
0
11
46.776841
21
-30.844968
31
0
39
0
210
0
220
0
230
1
0
SOLID
5
19F
100
AcDbEntity
8
0
62
256
6
ByLayer
370
-1
48
1
60
0
100
AcDbTrace
10
3.175
20
-30.315802
30
0
11
3.175
21
-31.374135
31
0
12
0
22
-30.844968
32
0
13
0
23
-30.844968
33
0
39
0
210
0
220
0
230
1
0
SOLID
5
1A0
100
AcDbEntity
8
0
62
256
6
ByLayer
370
-1
48
1
60
0
100
AcDbTrace
10
46.776841
20
-31.374135
30
0
11
46.776841
21
-30.315802
31
0
12
49.951841
22
-30.844968
32
0
13
49.951841
23
-30.844968
33
0
39
0
210
0
220
0
230
1
0
MTEXT
5
1A1
100
AcDbEntity
8
0
62
256
6
ByLayer
370
18
48
1
60
0
100
AcDbMText
10
24.97592
20
-23.344969
30
0
210
0
220
0
230
1
1
\A1;50
40
3
41
0
44
1
50
0
71
5
72
5
7
iso_b_vert
0
POINT
5
1A2
100
AcDbEntity
8
Defpoints
62
0
6
ByLayer
370
-1
48
1
60
0
100
AcDbPoint
10
0
20
-5.2
30
0
39
0
210
0
220
0
230
1
50
360
0
POINT
5
1A3
100
AcDbEntity
8
Defpoints
62
0
6
ByLayer
370
-1
48
1
60
0
100
AcDbPoint
10
49.951841
20
-14.173613
30
0
39
0
210
0
220
0
230
1
50
360
0
POINT
5
1A4
100
AcDbEntity
8
Defpoints
62
0
6
ByLayer
370
-1
48
1
60
0
100
AcDbPoint
10
49.951841
20
-30.844968
30
0
39
0
210
0
220
0
230
1
50
360
0
ENDBLK
5
19B
100
AcDbEntity
8
0
100
AcDbBlockEnd
0
BLOCK
5
1B0
100
AcDbEntity
8
0
100
AcDbBlockBegin
2
_U5
70
0
10
0
20
0
30
0
3
_U5
0
MTEXT
5
1A6
100
AcDbEntity
8
2
62
256
6
ByLayer
370
18
48
1
60
0
100
AcDbMText
10
23.343092
20
-29.959854
30
0
210
0
220
0
230
1
1
\W0.6740;50
40
3
41
0
44
1.084337
50
0
71
7
72
5
7
iso_b_vert
0
LINE
5
1A7
100
AcDbEntity
8
2
62
256
6
ByLayer
370
13
48
1
60
0
100
AcDbLine
10
0
20
-7.2
30
0
11
0
21
-32.844968
31
0
39
0
210
0
220
0
230
1
0
LINE
5
1A8
100
AcDbEntity
8
2
62
256
6
ByLayer
370
13
48
1
60
0
100
AcDbLine
10
49.951841
20
-16.173613
30
0
11
49.951841
21
-32.844968
31
0
39
0
210
0
220
0
230
1
0
LINE
5
1A9
100
AcDbEntity
8
2
62
256
6
ByLayer
370
13
48
1
60
0
100
AcDbLine
10
0
20
-30.844968
30
0
11
49.951841
21
-30.844968
31
0
39
0
210
0
220
0
230
1
0
LINE
5
1AA
100
AcDbEntity
8
2
62
256
6
ByLayer
370
13
48
1
60
0
100
AcDbLine
10
0
20
-30.844968
30
0
11
3.174998
21
-30.426972
31
0
39
0
210
0
220
0
230
1
0
LINE
5
1AB
100
AcDbEntity
8
2
62
256
6
ByLayer
370
13
48
1
60
0
100
AcDbLine
10
0
20
-30.844968
30
0
11
3.175002
21
-31.262965
31
0
39
0
210
0
220
0
230
1
0
LINE
5
1AC
100
AcDbEntity
8
2
62
256
6
ByLayer
370
13
48
1
60
0
100
AcDbLine
10
3.174998
20
-30.426972
30
0
11
3.175002
21
-31.262965
31
0
39
0
210
0
220
0
230
1
0
LINE
5
1AD
100
AcDbEntity
8
2
62
256
6
ByLayer
370
13
48
1
60
0
100
AcDbLine
10
49.951841
20
-30.844968
30
0
11
46.776842
21
-31.262965
31
0
39
0
210
0
220
0
230
1
0
LINE
5
1AE
100
AcDbEntity
8
2
62
256
6
ByLayer
370
13
48
1
60
0
100
AcDbLine
10
49.951841
20
-30.844968
30
0
11
46.776839
21
-30.426972
31
0
39
0
210
0
220
0
230
1
0
LINE
5
1AF
100
AcDbEntity
8
2
62
256
6
ByLayer
370
13
48
1
60
0
100
AcDbLine
10
46.776842
20
-31.262965
30
0
11
46.776839
21
-30.426972
31
0
39
0
210
0
220
0
230
1
0
ENDBLK
5
1B1
100
AcDbEntity
8
0
100
AcDbBlockEnd
0
ENDSEC
0
SECTION
2
ENTITIES
0
ARC
5
AD
100
AcDbEntity
8
SK1
62
256
6
ByLayer
370
18
48
1
60
0
100
AcDbCircle
39
0
10
-8
20
-5.2
30
0
40
8
210
0
220
0
230
-1
100
AcDbArc
50
325.771134
51
34.228866
0
ELLIPSE
5
AE
100
AcDbEntity
8
1
62
256
6
ByLayer
370
18
48
1
60
0
100
AcDbEllipse
10
43.315313
20
-3.926662
30
0
11
-1.33914022850603
21
0.358821542780217
31
0
210
0
220
0
230
-1
40
0.997564
41
-1.23067341873455
42
-0.055537433622351
0
ELLIPSE
5
AF
100
AcDbEntity
8
1
62
256
6
ByLayer
370
18
48
1
60
0
100
AcDbEllipse
10
43.275593
20
-4.074897
30
0
11
-1.33914022850603
21
0.358821542780217
31
0
210
0
220
0
230
-1
40
0.997564
41
-1.23067341873455
42
0.444913758065885
0
ELLIPSE
5
B0
100
AcDbEntity
8
1
62
256
6
ByLayer
370
18
48
1
60
0
100
AcDbEllipse
10
43.009876
20
-1.782418
30
0
11
-1.40059244811915
21
0.375287615398653
31
0
210
0
220
0
230
-1
40
0.997564
41
-3.05127200274036
42
-2.65965256945476
0
ELLIPSE
5
B1
100
AcDbEntity
8
1
62
256
6
ByLayer
370
18
48
1
60
0
100
AcDbEllipse
10
43.009876
20
-1.782418
30
0
11
-1.40059244811915
21
0.375287615398653
31
0
210
0
220
0
230
-1
40
0.997564
41
-1.84352605828123
42
-0.0915969846905157
0
ELLIPSE
5
B2
100
AcDbEntity
8
1
62
256
6
ByLayer
370
18
48
1
60
0
100
AcDbEllipse
10
43.008071
20
-1.789156
30
0
11
1.40059244811915
21
-0.375287615398652
31
0
210
0
220
0
230
-1
40
0.997564
41
1.29849666322442
42
1.85129662401246
0
ELLIPSE
5
B3
100
AcDbEntity
8
1
62
256
6
ByLayer
370
18
48
1
60
0
100
AcDbEllipse
10
43.008071
20
-1.789156
30
0
11
1.40059244811915
21
-0.375287615398652
31
0
210
0
220
0
230
-1
40
0.997564
41
0.429360758221015
42
0.476528790777638
0
ELLIPSE
5
B4
100
AcDbEntity
8
1
62
256
6
ByLayer
370
18
48
1
60
0
100
AcDbEllipse
10
43.24589
20
-4.173483
30
0
11
-1.55764096036756
21
4.27066981370613E-15
31
0
210
0
220
0
230
-1
40
0.997562
41
-1.01020067205869
42
0.695823325730107
0
ELLIPSE
5
B5
100
AcDbEntity
8
1
62
256
6
ByLayer
370
18
48
1
60
0
100
AcDbEllipse
10
42.941835
20
-2.036351
30
0
11
-1.45023637725873
21
3.97619276629442E-15
31
0
210
0
220
0
230
-1
40
0.997564
41
-0.908777402351413
42
-2.59370159930459
0
ELLIPSE
5
B6
100
AcDbEntity
8
1
62
256
6
ByLayer
370
18
48
1
60
0
100
AcDbEllipse
10
20.954035
20
-8.564057
30
0
11
4.05
21
4.95965573298063E-16
31
0
210
0
220
0
230
-1
40
0.34202
41
-1.5707963267949
42
1.5707963267949
0
ELLIPSE
5
B7
100
AcDbEntity
8
1
62
256
6
ByLayer
370
18
48
1
60
0
100
AcDbEllipse
10
19.054035
20
-8.564057
30
0
11
-4.05
21
1.11041075482686E-14
31
0
210
0
220
0
230
-1
40
0.34202
41
-1.5707963267949
42
1.5707963267949
0
ELLIPSE
5
B8
100
AcDbEntity
8
1
62
256
6
ByLayer
370
18
48
1
60
0
100
AcDbEllipse
10
46.610799
20
-8.241665
30
0
11
1.16538950941776
21
-0.312265177916189
31
0
210
0
220
0
230
-1
40
0.997564
41
2.42522712360425
42
-2.95895114406347
0
ELLIPSE
5
B9
100
AcDbEntity
8
1
62
256
6
ByLayer
370
18
48
1
60
0
100
AcDbEllipse
10
46.610799
20
-8.241665
30
0
11
-1.16538950941776
21
0.312265177916189
31
0
210
0
220
0
230
-1
40
0.997564
41
0.306831670070041
42
1.09674623957348
0
ELLIPSE
5
BA
100
AcDbEntity
8
1
62
256
6
ByLayer
370
18
48
1
60
0
100
AcDbEllipse
10
46.610799
20
-8.241665
30
0
11
-1.16538950941776
21
0.312265177916189
31
0
210
0
220
0
230
-1
40
0.997564
41
2.55428455878055
42
-2.87839799194998
0
ELLIPSE
5
BB
100
AcDbEntity
8
1
62
256
6
ByLayer
370
18
48
1
60
0
100
AcDbEllipse
10
46.610799
20
-8.241665
30
0
11
-1.16538950941776
21
0.312265177916189
31
0
210
0
220
0
230
-1
40
0.997564
41
-2.87839799194998
42
-1.83399098843472
0
ELLIPSE
5
BC
100
AcDbEntity
8
1
62
256
6
ByLayer
370
18
48
1
60
0
100
AcDbEllipse
10
46.610799
20
-8.241665
30
0
11
-1.16538950941776
21
0.312265177916189
31
0
210
0
220
0
230
-1
40
0.997564
41
-1.83399098843472
42
-0.854430796809349
0
ELLIPSE
5
BD
100
AcDbEntity
8
1
62
256
6
ByLayer
370
18
48
1
60
0
100
AcDbEllipse
10
46.610799
20
-8.241665
30
0
11
-1.16538950941776
21
0.312265177916189
31
0
210
0
220
0
230
-1
40
0.997564
41
1.48453502305134
42
2.2097616252993
0
ELLIPSE
5
BE
100
AcDbEntity
8
1
62
256
6
ByLayer
370
18
48
1
60
0
100
AcDbEllipse
10
46.610799
20
-8.241665
30
0
11
1.16538950941776
21
-0.312265177916189
31
0
210
0
220
0
230
-1
40
0.997564
41
2.28716185678044
42
2.42522712360425
0
ELLIPSE
5
BF
100
AcDbEntity
8
1
62
256
6
ByLayer
370
18
48
1
60
0
100
AcDbEllipse
10
44.979562
20
-9.18081
30
0
11
-0.662625116834301
21
0.177549864940328
31
0
210
0
220
0
230
-1
40
0.997564
41
2.47780853140924
42
-3.135729482066
0
ELLIPSE
5
C0
100
AcDbEntity
8
1
62
256
6
ByLayer
370
18
48
1
60
0
100
AcDbEllipse
10
44.979562
20
-9.18081
30
0
11
-0.662625116834301
21
0.177549864940328
31
0
210
0
220
0
230
-1
40
0.997564
41
1.5649331552711
42
2.23458044897545
0
ELLIPSE
5
C1
100
AcDbEntity
8
1
62
256
6
ByLayer
370
18
48
1
60
0
100
AcDbEllipse
10
46.614591
20
-10.129864
30
0
11
-0.662625116834301
21
0.177549864940328
31
0
210
0
220
0
230
-1
40
0.997564
41
0.52361102153428
42
1.30760166515507
0
ELLIPSE
5
C2
100
AcDbEntity
8
1
62
256
6
ByLayer
370
18
48
1
60
0
100
AcDbEllipse
10
46.614591
20
-10.129864
30
0
11
-0.662625116834301
21
0.177549864940328
31
0
210
0
220
0
230
-1
40
0.997564
41
1.30760166515507
42
2.09159230877587
0
ELLIPSE
5
C3
100
AcDbEntity
8
1
62
256
6
ByLayer
370
18
48
1
60
0
100
AcDbEllipse
10
45.922741
20
-9.439456
30
0
11
-0.282050341276408
21
0.0755751611699356
31
0
210
0
220
0
230
-1
40
0.997564
41
-2.61798163205553
42
0.00586317152378969
0
ELLIPSE
5
C4
100
AcDbEntity
8
1
62
256
6
ByLayer
370
18
48
1
60
0
100
AcDbEllipse
10
48.24874
20
-9.189043
30
0
11
-0.662625116834301
21
0.177549864940328
31
0
210
0
220
0
230
-1
40
0.997564
41
-6.2091558885928E-06
42
0.263194661639819
0
ELLIPSE
5
C5
100
AcDbEntity
8
1
62
256
6
ByLayer
370
18
48
1
60
0
100
AcDbEllipse
10
48.24874
20
-9.189043
30
0
11
-0.662625116834301
21
0.177549864940328
31
0
210
0
220
0
230
-1
40
0.997564
41
0.263194661639819
42
1.04718530526061
0
ELLIPSE
5
C6
100
AcDbEntity
8
1
62
256
6
ByLayer
370
18
48
1
60
0
100
AcDbEllipse
10
47.303666
20
-9.438374
30
0
11
-0.282050341276408
21
0.0755751611699356
31
0
210
0
220
0
230
-1
40
0.997564
41
-3.01623139410319
42
-1.05000034481392
0
ELLIPSE
5
C7
100
AcDbEntity
8
1
62
256
6
ByLayer
370
18
48
1
60
0
100
AcDbEllipse
10
46.58997
20
-8.319397
30
0
11
1.16538950941776
21
-0.312265177916189
31
0
210
0
220
0
230
-1
40
0.997564
41
2.28716185678044
42
2.42522712360425
0
ELLIPSE
5
C8
100
AcDbEntity
8
1
62
256
6
ByLayer
370
18
48
1
60
0
100
AcDbEllipse
10
46.610347
20
-8.24335
30
0
11
2.53555529400881
21
-0.679399993394111
31
0
210
0
220
0
230
-1
40
0.997564
41
3.14159247331857
42
-2.35619478099342
0
ELLIPSE
5
C9
100
AcDbEntity
8
1
62
256
6
ByLayer
370
18
48
1
60
0
100
AcDbEllipse
10
46.610347
20
-8.24335
30
0
11
2.53555529400881
21
-0.679399993394111
31
0
210
0
220
0
230
-1
40
0.997564
41
-2.35619439957677
42
0
0
ELLIPSE
5
CA
100
AcDbEntity
8
1
62
256
6
ByLayer
370
18
48
1
60
0
100
AcDbEllipse
10
44.972857
20
-7.294288
30
0
11
-0.662625116834301
21
0.177549864940328
31
0
210
0
220
0
230
-1
40
0.997564
41
2.62079667160881
42
3.14158628098933
0
ELLIPSE
5
CB
100
AcDbEntity
8
1
62
256
6
ByLayer
370
18
48
1
60
0
100
AcDbEllipse
10
45.226528
20
-8.236967
30
0
11
-0.282050341276408
21
0.0755751611699356
31
0
210
0
220
0
230
-1
40
0.997564
41
-1.5766594983187
42
-0.141459049062954
0
ELLIPSE
5
CC
100
AcDbEntity
8
1
62
256
6
ByLayer
370
18
48
1
60
0
100
AcDbEllipse
10
47.99507
20
-8.246363
30
0
11
-0.282050341276408
21
0.0755751611699356
31
0
210
0
220
0
230
-1
40
0.997564
41
-3.01037479748135
42
-2.09440734832916
0
ELLIPSE
5
CD
100
AcDbEntity
8
1
62
256
6
ByLayer
370
18
48
1
60
0
100
AcDbEllipse
10
45.917931
20
-7.044957
30
0
11
-0.282050341276408
21
0.0755751611699356
31
0
210
0
220
0
230
-1
40
0.997564
41
-0.520795981980977
42
-0.161145114835408
0
ELLIPSE
5
CE
100
AcDbEntity
8
1
62
256
6
ByLayer
370
18
48
1
60
0
100
AcDbEllipse
10
46.58997
20
-8.319397
30
0
11
1.16538950941776
21
-0.312265177916189
31
0
210
0
220
0
230
-1
40
0.997564
41
-0.854430796809349
42
-0.716365529985549
0
ELLIPSE
5
CF
100
AcDbEntity
8
1
62
256
6
ByLayer
370
18
48
1
60
0
100
AcDbEllipse
10
46.585071
20
-8.337681
30
0
11
1.61937464777362
21
-0.433910129114372
31
0
210
0
220
0
230
-1
40
0.997564
41
-2.35619449019234
42
-1.31178748667709
0
ELLIPSE
5
D0
100
AcDbEntity
8
1
62
256
6
ByLayer
370
18
48
1
60
0
100
AcDbEllipse
10
46.585071
20
-8.337681
30
0
11
1.61937464777362
21
-0.433910129114372
31
0
210
0
220
0
230
-1
40
0.997564
41
2.88258381347198
42
-2.35619449019234
0
ELLIPSE
5
D1
100
AcDbEntity
8
1
62
256
6
ByLayer
370
18
48
1
60
0
100
AcDbEllipse
10
46.585071
20
-8.337681
30
0
11
1.61937464777362
21
-0.433910129114372
31
0
210
0
220
0
230
-1
40
0.997564
41
1.82980516691271
42
2.88258381347198
0
ELLIPSE
5
D2
100
AcDbEntity
8
1
62
256
6
ByLayer
370
18
48
1
60
0
100
AcDbEllipse
10
46.585071
20
-8.337681
30
0
11
1.61937464777362
21
-0.433910129114372
31
0
210
0
220
0
230
-1
40
0.997564
41
0.785398163397448
42
1.82980516691271
0
ELLIPSE
5
D3
100
AcDbEntity
8
1
62
256
6
ByLayer
370
18
48
1
60
0
100
AcDbEllipse
10
46.585071
20
-8.337681
30
0
11
1.61937464777362
21
-0.433910129114372
31
0
210
0
220
0
230
-1
40
0.997564
41
-0.259008840117812
42
0.785398163397449
0
ELLIPSE
5
D4
100
AcDbEntity
8
1
62
256
6
ByLayer
370
18
48
1
60
0
100
AcDbEllipse
10
46.585071
20
-8.337681
30
0
11
1.61937464777362
21
-0.433910129114372
31
0
210
0
220
0
230
-1
40
0.997564
41
-1.31178748667709
42
-0.259008840117812
0
ELLIPSE
5
D5
100
AcDbEntity
8
1
62
256
6
ByLayer
370
18
48
1
60
0
100
AcDbEllipse
10
46.585071
20
-8.337681
30
0
11
1.73866648732033
21
-0.465874281184534
31
0
210
0
220
0
230
-1
40
0.997564
41
0
42
6.28318530717959
0
ELLIPSE
5
D6
100
AcDbEntity
8
1
62
256
6
ByLayer
370
18
48
1
60
0
100
AcDbEllipse
10
46.590044
20
-8.319122
30
0
11
2.53555529400881
21
-0.679399993394111
31
0
210
0
220
0
230
-1
40
0.997564
41
0
42
6.28318530717959
0
ELLIPSE
5
D7
100
AcDbEntity
8
1
62
256
6
ByLayer
370
13
48
1
60
0
100
AcDbEllipse
10
46.600876
20
-8.278698
30
0
11
-2.84995997970065
21
0.763644475021802
31
0
210
0
220
0
230
-1
40
0.997564
41
0
42
6.28318530717959
0
ELLIPSE
5
D8
100
AcDbEntity
8
1
62
256
6
ByLayer
370
18
48
1
60
0
100
AcDbEllipse
10
46.598095
20
-8.289076
30
0
11
2.90362333281082
21
-0.778023527150817
31
0
210
0
220
0
230
-1
40
0.997564
41
0
42
6.28318530717959
0
ELLIPSE
5
D9
100
AcDbEntity
8
1
62
256
6
ByLayer
370
18
48
1
60
0
100
AcDbEllipse
10
49.389898
20
-13.203034
30
0
11
0.766945106073523
21
-0.2055023218114
31
0
210
0
220
0
230
-1
40
0.997564
41
0
42
1.57079632679488
0
ELLIPSE
5
DA
100
AcDbEntity
8
1
62
256
6
ByLayer
370
18
48
1
60
0
100
AcDbEllipse
10
41.723344
20
-11.148787
30
0
11
0.766945106073528
21
-0.205502321811402
31
0
210
0
220
0
230
-1
40
0.997564
41
1.57079632679488
42
3.14159265358978
0
ELLIPSE
5
DB
100
AcDbEntity
8
1
62
256
6
ByLayer
370
18
48
1
60
0
100
AcDbEllipse
10
43.772587
20
-3.500909
30
0
11
0.766945106073529
21
-0.205502321811402
31
0
210
0
220
0
230
-1
40
0.997564
41
3.14159265358978
42
-1.57079632679491
0
ELLIPSE
5
DC
100
AcDbEntity
8
1
62
256
6
ByLayer
370
18
48
1
60
0
100
AcDbEllipse
10
51.43914
20
-5.555156
30
0
11
0.76694510607353
21
-0.205502321811402
31
0
210
0
220
0
230
-1
40
0.997564
41
-1.5707963267949
42
-1.23347863515186E-14
0
ELLIPSE
5
DD
100
AcDbEntity
8
1
62
256
6
ByLayer
370
18
48
1
60
0
100
AcDbEllipse
10
46.581242
20
-8.351971
30
0
11
2.96667247474563
21
-0.794917493815723
31
0
210
0
220
0
230
-1
40
0.997564
41
0
42
6.28318530717959
0
POINT
5
70
100
AcDbEntity
8
80
62
256
6
ByLayer
370
70
48
1
60
0
100
AcDbPoint
10
0
20
0
30
0
39
0
210
0
220
0
230
1
50
360
0
POINT
5
72
100
AcDbEntity
8
81
62
256
6
ByLayer
370
70
48
1
60
0
100
AcDbPoint
10
49.951841
20
-14.173613
30
0
39
0
210
0
220
0
230
1
50
360
0
SPLINE
5
DE
100
AcDbEntity
8
1
62
256
6
ByLayer
370
18
48
1
60
0
100
AcDbSpline
70
4
71
3
72
8
73
4
40
0
40
0
40
0
40
0
40
1
40
1
40
1
40
1
41
1
10
42.2208746873675
20
-3.17607240247504
30
0
41
1
10
42.1617117150762
20
-3.17919718250386
30
0
41
1
10
42.1049391970456
20
-3.17964480844015
30
0
41
1
10
42.0503596441728
20
-3.17744263719664
30
0
0
SPLINE
5
DF
100
AcDbEntity
8
SK1
62
256
6
ByLayer
370
18
48
1
60
0
100
AcDbSpline
70
2053
71
3
72
133
73
129
40
0
40
0
40
0
40
0
40
0.0312500000000015
40
0.0312500000000015
40
0.0468750000000023
40
0.0468750000000023
40
0.0546875000000027
40
0.0546875000000027
40
0.0625000000000031
40
0.0625000000000031
40
0.0937500000000048
40
0.0937500000000048
40
0.101562500000005
40
0.101562500000005
40
0.109375000000006
40
0.109375000000006
40
0.125000000000007
40
0.125000000000007
40
0.156250000000008
40
0.156250000000008
40
0.171875000000009
40
0.171875000000009
40
0.18750000000001
40
0.203125000000011
40
0.203125000000011
40
0.210937500000012
40
0.210937500000012
40
0.218750000000012
40
0.218750000000012
40
0.250000000000014
40
0.250000000000014
40
0.257812500000015
40
0.257812500000015
40
0.265625000000015
40
0.265625000000015
40
0.281250000000016
40
0.281250000000016
40
0.312500000000018
40
0.312500000000018
40
0.320312500000018
40
0.320312500000018
40
0.328125000000018
40
0.328125000000018
40
0.343750000000019
40
0.359375000000019
40
0.359375000000019
40
0.367187500000019
40
0.367187500000019
40
0.37500000000002
40
0.37500000000002
40
0.40625000000002
40
0.40625000000002
40
0.414062500000019
40
0.414062500000019
40
0.421875000000019
40
0.421875000000019
40
0.437500000000019
40
0.437500000000019
40
0.468750000000019
40
0.468750000000019
40
0.476562500000019
40
0.476562500000019
40
0.484375000000019
40
0.484375000000019
40
0.500000000000019
40
0.515625000000019
40
0.515625000000019
40
0.523437500000019
40
0.523437500000019
40
0.531250000000019
40
0.531250000000019
40
0.562500000000018
40
0.562500000000018
40
0.578125000000018
40
0.578125000000018
40
0.593750000000018
40
0.593750000000018
40
0.625000000000017
40
0.625000000000017
40
0.632812500000017
40
0.632812500000017
40
0.640625000000017
40
0.640625000000017
40
0.656250000000016
40
0.671875000000016
40
0.671875000000016
40
0.679687500000015
40
0.679687500000015
40
0.687500000000015
40
0.687500000000015
40
0.718750000000013
40
0.718750000000013
40
0.734375000000013
40
0.734375000000013
40
0.742187500000012
40
0.742187500000012
40
0.750000000000011
40
0.750000000000011
40
0.78125000000001
40
0.78125000000001
40
0.789062500000009
40
0.789062500000009
40
0.796875000000009
40
0.796875000000009
40
0.812500000000008
40
0.828125000000007
40
0.828125000000007
40
0.835937500000007
40
0.835937500000007
40
0.843750000000007
40
0.843750000000007
40
0.875000000000005
40
0.875000000000005
40
0.890625000000004
40
0.890625000000004
40
0.898437500000004
40
0.898437500000004
40
0.906250000000004
40
0.906250000000004
40
0.937500000000003
40
0.937500000000003
40
0.945312500000002
40
0.945312500000002
40
0.953125000000002
40
0.953125000000002
40
0.968750000000001
40
0.968750000000001
40
1
40
1
40
1
40
1
41
1
10
1.80000000000037
20
-5.20000000000001
30
0
41
1
10
1.80000000000037
20
-5.29986660608825
30
0
41
1
10
1.80987263504475
20
-5.3979275117589
30
0
41
1
10
1.83878806743139
20
-5.54245204634112
30
0
41
1
10
1.85079570198185
20
-5.59019604422967
30
0
41
1
10
1.87243354113896
20
-5.66115671752221
30
0
41
1
10
1.88027682394683
20
-5.68476627571881
30
0
41
1
10
1.89703795221585
20
-5.73132827063325
30
0
41
1
10
1.90595725281325
20
-5.75429952666009
30
0
41
1
10
1.95318993479024
20
-5.86764735309257
30
0
41
1
10
1.9993307030541
20
-5.9535421173585
30
0
41
1
10
2.06737249800717
20
-6.05511831798058
30
0
41
1
10
2.08150420173946
20
-6.07514125132642
30
0
41
1
10
2.11083309542685
20
-6.11459624601228
30
0
41
1
10
2.12600484179621
20
-6.13398836565527
30
0
41
1
10
2.17264378510923
20
-6.19068842700893
30
0
41
1
10
2.2053719767821
20
-6.22671604481568
30
0
41
1
10
2.30838132137368
20
-6.32965383183763
30
0
41
1
10
2.38343397325481
20
-6.39147354305502
30
0
41
1
10
2.50619481396499
20
-6.47369499799576
30
0
41
1
10
2.54821163761342
20
-6.49892056655393
30
0
41
1
10
2.63420882690933
20
-6.54502914722711
30
0
41
1
10
2.72223345762144
20
-6.58683560980095
30
0
41
1
10
2.81435674748551
20
-6.62006311486313
30
0
41
1
10
2.88504889669492
20
-6.64167358878235
30
0
41
1
10
2.90888004645221
20
-6.64832431405123
30
0
41
1
10
2.95709337622126
20
-6.66049073400138
30
0
41
1
10
2.98131149723569
20
-6.66596347325397
30
0
41
1
10
3.10252546443312
20
-6.69022953773883
30
0
41
1
10
3.2003258560628
20
-6.6999309000242
30
0
41
1
10
3.32361182376367
20
-6.70001681966143
30
0
41
1
10
3.34832120689829
20
-6.69942645599697
30
0
41
1
10
3.39784602539119
20
-6.69701061829731
30
0
41
1
10
3.42271440263043
20
-6.69517968488033
30
0
41
1
10
3.49711848963839
20
-6.6878268581422
30
0
41
1
10
3.5460296439149
20
-6.68050349233083
30
0
41
1
10
3.69077732897692
20
-6.65154324259102
30
0
41
1
10
3.78464548370429
20
-6.62298474599528
30
0
41
1
10
3.89871207895991
20
-6.57555598705436
30
0
41
1
10
3.92135036234346
20
-6.56547770004714
30
0
41
1
10
3.96580866926793
20
-6.5443602337313
30
0
41
1
10
3.98769203554535
20
-6.53329575169231
30
0
41
1
10
4.0523299336583
20
-6.4986113278293
30
0
41
1
10
4.13581984777759
20
-6.44839685510148
30
0
41
1
10
4.21406060277483
20
-6.3903300301741
30
0
41
1
10
4.27076367661688
20
-6.3437726940838
30
0
41
1
10
4.2893632734097
20
-6.32772510739712
30
0
41
1
10
4.32576449576338
20
-6.29471950921554
30
0
41
1
10
4.34348692208969
20
-6.27783609069705
30
0
41
1
10
4.42976428266807
20
-6.19154535211313
30
0
41
1
10
4.49138798795972
20
-6.11657447739761
30
0
41
1
10
4.55930603568764
20
-6.01531769291855
30
0
41
1
10
4.57242952806278
20
-5.99468558624646
30
0
41
1
10
4.59774114401243
20
-5.9526420184997
30
0
41
1
10
4.60995756938099
20
-5.93117696634274
30
0
41
1
10
4.64496083475241
20
-5.86596900208197
30
0
41
1
10
4.66599519459392
20
-5.82165028233247
30
0
41
1
10
4.72238547563928
20
-5.68619681138178
30
0
41
1
10
4.75109629629533
20
-5.59258854714152
30
0
41
1
10
4.77548177517416
20
-5.4712313042575
30
0
41
1
10
4.7797877369254
20
-5.446673604874
30
0
41
1
10
4.7871576339591
20
-5.3974380547247
30
0
41
1
10
4.79021589057309
20
-5.37282424311541
30
0
41
1
10
4.79754680444189
20
-5.29899448826719
30
0
41
1
10
4.80241352335501
20
-5.20058590896422
30
0
41
1
10
4.79762566689486
20
-5.1022385754316
30
0
41
1
10
4.79036847147246
20
-5.02850130376403
30
0
41
1
10
4.78733725904523
20
-5.00392609096567
30
0
41
1
10
4.78002905035497
20
-4.95478354448865
30
0
41
1
10
4.77573975856821
20
-4.93017077676858
30
0
41
1
10
4.75141061113887
20
-4.80851876990734
30
0
41
1
10
4.72270088123843
20
-4.71468262915791
30
0
41
1
10
4.66624872575942
20
-4.5788984734031
30
0
41
1
10
4.64516294357016
20
-4.53443414766785
30
0
41
1
10
4.59844804304858
20
-4.44735537732059
30
0
41
1
10
4.57316244159874
20
-4.4053712733098
30
0
41
1
10
4.4917224997608
20
-4.28386292102285
30
0
41
1
10
4.43004305068597
20
-4.20873917695103
30
0
41
1
10
4.34347192648311
20
-4.122147484173
30
0
41
1
10
4.32563161527544
20
-4.10515712083573
30
0
41
1
10
4.28930189718831
20
-4.07222214220671
30
0
41
1
10
4.27079752815583
20
-4.05625769229956
30
0
41
1
10
4.2142780314746
20
-4.00984322340863
30
0
41
1
10
4.13623955907797
20
-3.95189349954741
30
0
41
1
10
4.05284438802677
20
-3.9016870825112
30
0
41
1
10
3.98822687312075
20
-3.86698029002186
30
0
41
1
10
3.96634185627424
20
-3.85590365623001
30
0
41
1
10
3.92186129076798
20
-3.83475460601282
30
0
41
1
10
3.89920426798101
20
-3.82465883157882
30
0
41
1
10
3.78528101785362
20
-3.77723941478659
30
0
41
1
10
3.69158379509084
20
-3.74868953012505
30
0
41
1
10
3.54719150379329
20
-3.71969383315847
30
0
41
1
10
3.4984154201644
20
-3.71235055468752
30
0
41
1
10
3.42424205494182
20
-3.7049477268141
30
0
41
1
10
3.3992874670215
20
-3.70308303068113
30
0
41
1
10
3.34961289841759
20
-3.70061446770588
30
0
41
1
10
3.32483767297449
20
-3.70000203808489
30
0
41
1
10
3.2012662620234
20
-3.69999187303601
30
0
41
1
10
3.10337645043858
20
-3.70966154053299
30
0
41
1
10
2.98221426052685
20
-3.73384079299423
30
0
41
1
10
2.95804231232426
20
-3.73928679257956
30
0
41
1
10
2.90982117544222
20
-3.7514218628739
30
0
41
1
10
2.88590701822334
20
-3.75807886879458
30
0
41
1
10
2.81506374310992
20
-3.77969220640734
30
0
41
1
10
2.72271819555401
20
-3.8129493653464
30
0
41
1
10
2.63443911328664
20
-3.85485177668126
30
0
41
1
10
2.56974031904558
20
-3.88953460269759
30
0
41
1
10
2.54842626370284
20
-3.90163925410446
30
0
41
1
10
2.50630578464102
20
-3.92695121849955
30
0
41
1
10
2.48545238460672
20
-3.9401923125
30
0
41
1
10
2.38343251048947
20
-4.00854892135161
30
0
41
1
10
2.30840115668663
20
-4.07031652823052
30
0
41
1
10
2.20524831375677
20
-4.17341244962772
30
0
41
1
10
2.17244243279838
20
-4.2095321577657
30
0
41
1
10
2.12565601286424
20
-4.26644799108946
30
0
41
1
10
2.11047884137931
20
-4.28586669567114
30
0
41
1
10
2.08125879379991
20
-4.32520279081408
30
0
41
1
10
2.06717317557941
20
-4.34517086979566
30
0
41
1
10
1.99932607724525
20
-4.446498519982
30
0
41
1
10
1.95322758211027
20
-4.53227570335947
30
0
41
1
10
1.90598567054239
20
-4.64562893348774
30
0
41
1
10
1.89706139208535
20
-4.66860896959214
30
0
41
1
10
1.88028609218843
20
-4.71520562633027
30
0
41
1
10
1.87244362463322
20
-4.73881233920234
30
0
41
1
10
1.85080841842635
20
-4.80975800688709
30
0
41
1
10
1.83880016245026
20
-4.85749643720593
30
0
41
1
10
1.80987993565107
20
-5.00201813983106
30
0
41
1
10
1.80000000000037
20
-5.10013339391177
30
0
41
1
10
1.80000000000037
20
-5.20000000000001
30
0
0
SPLINE
5
E0
100
AcDbEntity
8
SK1
62
256
6
ByLayer
370
18
48
1
60
0
100
AcDbSpline
70
4
71
3
72
70
73
66
40
0
40
0
40
0
40
0
40
0.0309766877702516
40
0.0309766877702516
40
0.046606096032021
40
0.046606096032021
40
0.0622355042937904
40
0.0622355042937904
40
0.124753137340868
40
0.124753137340868
40
0.156011953864407
40
0.156011953864407
40
0.187270770387946
40
0.187270770387946
40
0.249788403435023
40
0.249788403435023
40
0.265417811696793
40
0.265417811696793
40
0.281047219958563
40
0.281047219958563
40
0.312306036482102
40
0.343564853005642
40
0.343564853005642
40
0.359194261267411
40
0.359194261267411
40
0.374823669529181
40
0.374823669529181
40
0.437341302576261
40
0.437341302576261
40
0.468600119099801
40
0.468600119099801
40
0.484229527361571
40
0.484229527361571
40
0.499858935623341
40
0.499858935623341
40
0.562376568670422
40
0.562376568670422
40
0.578005976932193
40
0.578005976932193
40
0.593635385193963
40
0.593635385193963
40
0.624894201717504
40
0.656153018241044
40
0.656153018241044
40
0.671782426502815
40
0.671782426502815
40
0.687411834764585
40
0.687411834764585
40
0.749929467811668
40
0.749929467811668
40
0.78118828433521
40
0.78118828433521
40
0.79681769259698
40
0.79681769259698
40
0.812447100858751
40
0.812447100858751
40
0.874964733905834
40
0.874964733905834
40
0.890594142167605
40
0.890594142167605
40
0.906223550429376
40
0.906223550429376
40
0.937482366952917
40
0.937482366952917
40
1
40
1
40
1
40
1
41
1
10
4.79999982347005
20
-9.69999994073463
30
0
41
1
10
4.79997618286635
20
-9.69999202992894
30
0
41
1
10
4.79758199999333
20
-9.69919230441623
30
0
41
1
10
4.79036847147248
20
-9.69679808013878
30
0
41
1
10
4.78733725904525
20
-9.6957936145546
30
0
41
1
10
4.78002905035498
20
-9.69338114257185
30
0
41
1
10
4.77573975856819
20
-9.69196913381042
30
0
41
1
10
4.75141061113888
20
-9.68399984249852
30
0
41
1
10
4.72270088123841
20
-9.67468410476268
30
0
41
1
10
4.6662487257594
20
-9.65716452362072
30
0
41
1
10
4.64516294357017
20
-9.65072646257828
30
0
41
1
10
4.59844804304859
20
-9.63683107864576
30
0
41
1
10
4.57316244159873
20
-9.62947673867002
30
0
41
1
10
4.49172249976079
20
-9.60652797782147
30
0
41
1
10
4.43004305068595
20
-9.59004362045552
30
0
41
1
10
4.34347192648312
20
-9.56904469159751
30
0
41
1
10
4.32563161527543
20
-9.56481475677826
30
0
41
1
10
4.28930189718833
20
-9.55642122556087
30
0
41
1
10
4.27079752815584
20
-9.55225342936727
30
0
41
1
10
4.21427793962752
20
-9.53987931191107
30
0
41
1
10
4.13623955907795
20
-9.52372536619647
30
0
41
1
10
4.05284438802676
20
-9.5087085596292
30
0
41
1
10
3.98822687312074
20
-9.49804664047458
30
0
41
1
10
3.96634185627426
20
-9.49459287741264
30
0
41
1
10
3.92186129076797
20
-9.48791650784572
30
0
41
1
10
3.89920426798099
20
-9.48468622229795
30
0
41
1
10
3.78528101785364
20
-9.46934912683643
30
0
41
1
10
3.69158379509085
20
-9.45959109166994
30
0
41
1
10
3.54719150379327
20
-9.44956447644482
30
0
41
1
10
3.49841542016438
20
-9.44699028666817
30
0
41
1
10
3.42424205494183
20
-9.44438753440831
30
0
41
1
10
3.39928746702148
20
-9.44372964505528
30
0
41
1
10
3.34961289841758
20
-9.44285808611398
30
0
41
1
10
3.3248376729745
20
-9.44264140769111
30
0
41
1
10
3.20126626202338
20
-9.44263781380364
30
0
41
1
10
3.10337645043859
20
-9.44609352331385
30
0
41
1
10
2.98221426052683
20
-9.4544568822581
30
0
41
1
10
2.95804231232427
20
-9.45633152332645
30
0
41
1
10
2.90982117544224
20
-9.46047679156164
30
0
41
1
10
2.88590701822335
20
-9.46273635441367
30
0
41
1
10
2.81506360577405
20
-9.47000658373933
30
0
41
1
10
2.722718195554
20
-9.4810339334776
30
0
41
1
10
2.63443911328662
20
-9.49431733574503
30
0
41
1
10
2.56974031904557
20
-9.50497697127029
30
0
41
1
10
2.54842626370285
20
-9.50864639821516
30
0
41
1
10
2.506305784641
20
-9.51619290709477
30
0
41
1
10
2.48545238460673
20
-9.52007951530969
30
0
41
1
10
2.38343251048949
20
-9.53977916218168
30
0
41
1
10
2.30840115668662
20
-9.55646843092763
30
0
41
1
10
2.20524831375679
20
-9.58148017060845
30
0
41
1
10
2.17244243279836
20
-9.5898155685149
30
0
41
1
10
2.12565601286423
20
-9.60214237214996
30
0
41
1
10
2.11047884137929
20
-9.60621867889621
30
0
41
1
10
2.08125879379989
20
-9.61419670915758
30
0
41
1
10
2.06717317557943
20
-9.61810960465142
30
0
41
1
10
1.99932607724523
20
-9.63723344535252
30
0
41
1
10
1.95322758211029
20
-9.65112402367991
30
0
41
1
10
1.90598567054238
20
-9.66578047728178
30
0
41
1
10
1.89706139208536
20
-9.66857621556754
30
0
41
1
10
1.88028609218844
20
-9.67387128075809
30
0
41
1
10
1.87244362463324
20
-9.67636800691029
30
0
41
1
10
1.85080841842637
20
-9.68329895878683
30
0
41
1
10
1.83880016245027
20
-9.68720648120476
30
0
41
1
10
1.80987993565106
20
-9.69667943765337
30
0
41
1
10
1.79999241607536
20
-9.70000254889815
30
0
41
1
10
1.79999851876471
20
-9.70000049783074
30
0
0
SPLINE
5
E1
100
AcDbEntity
8
SK1
62
256
6
ByLayer
370
18
48
1
60
0
100
AcDbSpline
70
4
71
3
72
70
73
66
40
0
40
0
40
0
40
0
40
0.0625017583864886
40
0.0625017583864886
40
0.0937526375797329
40
0.0937526375797329
40
0.109378077176355
40
0.109378077176355
40
0.125003516772977
40
0.125003516772977
40
0.187505275159466
40
0.187505275159466
40
0.203130714756088
40
0.203130714756088
40
0.21875615435271
40
0.21875615435271
40
0.250007033545954
40
0.250007033545954
40
0.312508791932442
40
0.312508791932442
40
0.343759671125687
40
0.343759671125687
40
0.375010550318931
40
0.406261429512175
40
0.406261429512175
40
0.421886869108797
40
0.421886869108797
40
0.437512308705419
40
0.437512308705419
40
0.500014067091908
40
0.500014067091908
40
0.51563950668853
40
0.51563950668853
40
0.531264946285152
40
0.531264946285152
40
0.562515825478396
40
0.562515825478396
40
0.625017583864884
40
0.625017583864884
40
0.640643023461506
40
0.640643023461506
40
0.656268463058128
40
0.656268463058128
40
0.687519342251372
40
0.718770221444616
40
0.718770221444616
40
0.734395661041238
40
0.734395661041238
40
0.75002110063786
40
0.75002110063786
40
0.812522859024349
40
0.812522859024349
40
0.828148298620971
40
0.828148298620971
40
0.843773738217593
40
0.843773738217593
40
0.875024617410838
40
0.875024617410838
40
0.937526375797328
40
0.937526375797328
40
0.95315181539395
40
0.95315181539395
40
0.968777254990572
40
0.968777254990572
40
1
40
1
40
1
40
1
41
1
10
1.79999851876471
20
-0.699999502169345
30
0
41
1
10
1.80000462145409
20
-0.700001553236643
30
0
41
1
10
1.80987263504477
20
-0.703318130759965
30
0
41
1
10
1.83878806743141
20
-0.712789577117814
30
0
41
1
10
1.85079570198186
20
-0.71669693574027
30
0
41
1
10
1.87243354113897
20
-0.723628778617961
30
0
41
1
10
1.88027682394684
20
-0.726125766127848
30
0
41
1
10
1.89703795221587
20
-0.73141641329097
30
0
41
1
10
1.90595725281326
20
-0.734210648341968
30
0
41
1
10
1.95318993479026
20
-0.748864527998063
30
0
41
1
10
1.99933070305411
20
-0.762769673299187
30
0
41
1
10
2.06737249800719
20
-0.781946120667994
30
0
41
1
10
2.08150420173945
20
-0.785871208494183
30
0
41
1
10
2.11083309542687
20
-0.793877111954982
30
0
41
1
10
2.12600484179623
20
-0.797950509979115
30
0
41
1
10
2.17264378510924
20
-0.810235500658263
30
0
41
1
10
2.20537197678212
20
-0.81855037406221
30
0
41
1
10
2.30838132137367
20
-0.843525638149016
30
0
41
1
10
2.38343397325482
20
-0.860225234904062
30
0
41
1
10
2.50619481396498
20
-0.88392370248492
30
0
41
1
10
2.5482116376134
20
-0.891475071722808
30
0
41
1
10
2.63420898160944
20
-0.905645683465834
30
0
41
1
10
2.72223345762142
20
-0.918896634911461
30
0
41
1
10
2.8143567474855
20
-0.929911969537741
30
0
41
1
10
2.88504889669491
20
-0.93717992135133
30
0
41
1
10
2.90888004645219
20
-0.939436891298371
30
0
41
1
10
2.95709337622128
20
-0.943592108620535
30
0
41
1
10
2.98131149723568
20
-0.945475647507365
30
0
41
1
10
3.10252546443314
20
-0.95386789433799
30
0
41
1
10
3.20032585606279
20
-0.957334882356648
30
0
41
1
10
3.32361182376365
20
-0.957365259527408
30
0
41
1
10
3.3483212068983
20
-0.957156384684809
30
0
41
1
10
3.3978460253912
20
-0.956303398018478
30
0
41
1
10
3.42271440263042
20
-0.955657358345279
30
0
41
1
10
3.49711848963838
20
-0.953071905532128
30
0
41
1
10
3.54602964391489
20
-0.950504295303192
30
0
41
1
10
3.69077732897693
20
-0.940488343125525
30
0
41
1
10
3.78464548370431
20
-0.930725501820506
30
0
41
1
10
3.8987120789599
20
-0.915382733313538
30
0
41
1
10
3.92135036234347
20
-0.912157506132575
30
0
41
1
10
3.96580866926794
20
-0.905489764419815
30
0
41
1
10
3.98769203554536
20
-0.902039003537129
30
0
41
1
10
4.05232996159287
20
-0.891381435243221
30
0
41
1
10
4.13581984777758
20
-0.876358273596384
30
0
41
1
10
4.21406060277485
20
-0.860167483304838
30
0
41
1
10
4.27076367661689
20
-0.847754374154295
30
0
41
1
10
4.28936327340969
20
-0.843564976957357
30
0
41
1
10
4.32576449576339
20
-0.835154158049864
30
0
41
1
10
4.34348692208971
20
-0.830951508326695
30
0
41
1
10
4.42976428266806
20
-0.810024648049553
30
0
41
1
10
4.49138798795974
20
-0.793562955779937
30
0
41
1
10
4.55930603568765
20
-0.774428644576536
30
0
41
1
10
4.5724295280628
20
-0.770673844190516
30
0
41
1
10
4.59774114401244
20
-0.763336234566045
30
0
41
1
10
4.60995756938098
20
-0.759744969146387
30
0
41
1
10
4.64496083475242
20
-0.749334513941695
30
0
41
1
10
4.66599519459393
20
-0.742913107137061
30
0
41
1
10
4.7223854756393
20
-0.72541585878408
30
0
41
1
10
4.75109629629531
20
-0.716102063455045
30
0
41
1
10
4.77548177517417
20
-0.70811562547137
30
0
41
1
10
4.77978773692538
20
-0.706698357910275
30
0
41
1
10
4.78715763395911
20
-0.704265829845573
30
0
41
1
10
4.79021589057311
20
-0.703252499105266
30
0
41
1
10
4.79754240458106
20
-0.700820949934998
30
0
41
1
10
4.79997578055565
20
-0.700008076305684
30
0
41
1
10
4.79999982039504
20
-0.700000059872755
30
0
0
SPLINE
5
E2
100
AcDbEntity
8
1
62
256
6
ByLayer
370
18
48
1
60
0
100
AcDbSpline
70
4
71
3
72
26
73
22
40
0
40
0
40
0
40
0
40
0.250000000000001
40
0.250000000000001
40
0.312500000000002
40
0.312500000000002
40
0.375000000000003
40
0.375000000000003
40
0.500000000000002
40
0.500000000000002
40
0.562500000000001
40
0.562500000000001
40
0.625
40
0.625
40
0.750000000000001
40
0.750000000000001
40
0.8125
40
0.8125
40
0.875
40
0.875
40
1
40
1
40
1
40
1
41
1
10
46.1055451972969
20
-9.73426508267885
30
0
41
1
10
46.0841334329775
20
-9.75639670084617
30
0
41
1
10
46.059734525812
20
-9.77511413373667
30
0
41
1
10
46.0252355816356
20
-9.79380650753389
30
0
41
1
10
46.0181013647383
20
-9.79731601457881
30
0
41
1
10
46.003644819106
20
-9.80371830372703
30
0
41
1
10
45.9963047612875
20
-9.80662358383968
30
0
41
1
10
45.9739506306592
20
-9.81444769605499
30
0
41
1
10
45.9586049044725
20
-9.81848103675667
30
0
41
1
10
45.9348888707261
20
-9.82263751180516
30
0
41
1
10
45.926866747766
20
-9.82370596926678
30
0
41
1
10
45.9105755819736
20
-9.82516745866563
30
0
41
1
10
45.902380096135
20
-9.82555120073538
30
0
41
1
10
45.8779111000963
20
-9.82565142756279
30
0
41
1
10
45.8616449666942
20
-9.82433486537609
30
0
41
1
10
45.8373227580072
20
-9.82021648638887
30
0
41
1
10
45.8292282340587
20
-9.81848467021992
30
0
41
1
10
45.8130668587175
20
-9.81426701638431
30
0
41
1
10
45.8050200438806
20
-9.81178104977623
30
0
41
1
10
45.7814740704886
20
-9.80334850549265
30
0
41
1
10
45.7663823621421
20
-9.79639046971845
30
0
41
1
10
45.7518977863578
20
-9.78809321048677
30
0
0
SPLINE
5
E3
100
AcDbEntity
8
1
62
256
6
ByLayer
370
18
48
1
60
0
100
AcDbSpline
70
4
71
3
72
32
73
28
40
0
40
0
40
0
40
0
40
0.125
40
0.125
40
0.1875
40
0.1875
40
0.25
40
0.25
40
0.374999999999999
40
0.374999999999999
40
0.406249999999999
40
0.406249999999999
40
0.437499999999999
40
0.499999999999998
40
0.499999999999998
40
0.562499999999998
40
0.562499999999998
40
0.624999999999998
40
0.687499999999998
40
0.687499999999998
40
0.749999999999998
40
0.749999999999998
40
0.874999999999999
40
0.874999999999999
40
0.937499999999999
40
0.937499999999999
40
1
40
1
40
1
40
1
41
1
10
46.1055451972969
20
-9.73426508267885
30
0
41
1
10
46.1357853401374
20
-9.70300827989105
30
0
41
1
10
46.1686851255539
20
-9.67460380740418
30
0
41
1
10
46.2223810518027
20
-9.63640409867686
30
0
41
1
10
46.2410099278952
20
-9.62441039177286
30
0
41
1
10
46.2798803749009
20
-9.60200116825978
30
0
41
1
10
46.3001779859627
20
-9.5915747582405
30
0
41
1
10
46.3623253392107
20
-9.56352169285755
30
0
41
1
10
46.4058119141742
20
-9.54881324145534
30
0
41
1
10
46.4632490993979
20
-9.53609776054931
30
0
41
1
10
46.4749042463047
20
-9.53384302490621
30
0
41
1
10
46.4981610740451
20
-9.52999310541152
30
0
41
1
10
46.5331025300263
20
-9.52517532517435
30
0
41
1
10
46.5682116828207
20
-9.52319973545993
30
0
41
1
10
46.61517466662
20
-9.52311255992344
30
0
41
1
10
46.6387329141683
20
-9.52434232197901
30
0
41
1
10
46.6860001191808
20
-9.52944863775047
30
0
41
1
10
46.7322545620762
20
-9.53707299801586
30
0
41
1
10
46.7766604590463
20
-9.549374131395
30
0
41
1
10
46.8201998021519
20
-9.56392555276669
30
0
41
1
10
46.8415990905126
20
-9.57237009267623
30
0
41
1
10
46.9030904973898
20
-9.60031792187523
30
0
41
1
10
46.9410374923418
20
-9.62254422211884
30
0
41
1
10
46.9941128501827
20
-9.66075165986188
30
0
41
1
10
47.0112073922026
20
-9.67435526556965
30
0
41
1
10
47.0438387682383
20
-9.70293082475572
30
0
41
1
10
47.0593744954322
20
-9.7178903509812
30
0
41
1
10
47.0741693845497
20
-9.73350641297289
30
0
0
SPLINE
5
E4
100
AcDbEntity
8
1
62
256
6
ByLayer
370
18
48
1
60
0
100
AcDbSpline
70
4
71
3
72
24
73
20
40
0
40
0
40
0
40
0
40
0.125000000000001
40
0.125000000000001
40
0.250000000000002
40
0.250000000000002
40
0.312500000000003
40
0.312500000000003
40
0.375000000000003
40
0.375000000000003
40
0.500000000000004
40
0.500000000000004
40
0.562500000000005
40
0.562500000000005
40
0.625000000000006
40
0.625000000000006
40
0.750000000000005
40
0.750000000000005
40
1
40
1
40
1
40
1
41
1
10
47.4240686282916
20
-9.78678349163231
30
0
41
1
10
47.4096674116321
20
-9.79507463880866
30
0
41
1
10
47.3943178911343
20
-9.80219157672373
30
0
41
1
10
47.3632107880271
20
-9.81340719167306
30
0
41
1
10
47.3473411509064
20
-9.81759684066883
30
0
41
1
10
47.3230731141756
20
-9.8217893357667
30
0
41
1
10
47.3148682200361
20
-9.8228375001046
30
0
41
1
10
47.2985851006177
20
-9.82419970626227
30
0
41
1
10
47.2904871673209
20
-9.82452070474704
30
0
41
1
10
47.2663205312037
20
-9.82444931691014
30
0
41
1
10
47.2503781149851
20
-9.82302905866964
30
0
41
1
10
47.2267199489667
20
-9.81889039096784
30
0
41
1
10
47.2189155398902
20
-9.81717859836072
30
0
41
1
10
47.2036455964225
20
-9.81316074396439
30
0
41
1
10
47.1961518455382
20
-9.81084994469835
30
0
41
1
10
47.1740804230414
20
-9.80304883368628
30
0
41
1
10
47.1599102232736
20
-9.79669474983034
30
0
41
1
10
47.1190154461226
20
-9.77426693090958
30
0
41
1
10
47.0950535711223
20
-9.75554975169432
30
0
41
1
10
47.0741693845497
20
-9.73350641297292
30
0
0
SPLINE
5
E5
100
AcDbEntity
8
1
62
256
6
ByLayer
370
18
48
1
60
0
100
AcDbSpline
70
4
71
3
72
16
73
12
40
0
40
0
40
0
40
0
40
0.25
40
0.25
40
0.5
40
0.5
40
0.75
40
0.75
40
0.875
40
0.875
40
1
40
1
40
1
40
1
41
1
10
45.1290624211756
20
-8.60732714847391
30
0
41
1
10
45.1646061581868
20
-8.61526116714963
30
0
41
1
10
45.1993541573465
20
-8.62601151880655
30
0
41
1
10
45.267347910101
20
-8.65342611794973
30
0
41
1
10
45.3006262175147
20
-8.67009854436633
30
0
41
1
10
45.365545689403
20
-8.71026450849759
30
0
41
1
10
45.3963044697129
20
-8.73321194985063
30
0
41
1
10
45.4398124464226
20
-8.77234915038336
30
0
41
1
10
45.4538739720937
20
-8.78618586056412
30
0
41
1
10
45.4810598535771
20
-8.81558456439809
30
0
41
1
10
45.4941276098932
20
-8.83109745169445
30
0
41
1
10
45.5064879696498
20
-8.84727440196981
30
0
0
SPLINE
5
E6
100
AcDbEntity
8
1
62
256
6
ByLayer
370
18
48
1
60
0
100
AcDbSpline
70
4
71
3
72
18
73
14
40
0
40
0
40
0
40
0
40
0.25
40
0.25
40
0.375
40
0.375
40
0.499999999999999
40
0.499999999999999
40
0.749999999999999
40
0.749999999999999
40
0.874999999999999
40
0.874999999999999
40
1
40
1
40
1
40
1
41
1
10
45.5897839082892
20
-8.99114175182238
30
0
41
1
10
45.605740076193
20
-9.02904206803247
30
0
41
1
10
45.6178186979846
20
-9.06742082608905
30
0
41
1
10
45.6308431524965
20
-9.12567744050575
30
0
41
1
10
45.6343283458337
20
-9.14521227077968
30
0
41
1
10
45.6396304582628
20
-9.1845210778781
30
0
41
1
10
45.6414386095652
20
-9.20431694220456
30
0
41
1
10
45.6443618313646
20
-9.26290161931176
30
0
41
1
10
45.6430670052823
20
-9.30130303593113
30
0
41
1
10
45.6367071489825
20
-9.35814089202843
30
0
41
1
10
45.6338363968887
20
-9.37699935211204
30
0
41
1
10
45.6266694842634
20
-9.41426093426209
30
0
41
1
10
45.6223815716666
20
-9.43264245462244
30
0
41
1
10
45.617408429475
20
-9.45079019328487
30
0
0
SPLINE
5
E7
100
AcDbEntity
8
1
62
256
6
ByLayer
370
18
48
1
60
0
100
AcDbSpline
70
4
71
3
72
22
73
18
40
0
40
0
40
0
40
0
40
0.125000000000001
40
0.125000000000001
40
0.250000000000002
40
0.250000000000002
40
0.312500000000002
40
0.312500000000002
40
0.375000000000002
40
0.375000000000002
40
0.500000000000001
40
0.500000000000001
40
0.625
40
0.625
40
0.749999999999999
40
0.749999999999999
40
1
40
1
40
1
40
1
41
1
10
45.7518977863578
20
-9.78809321048677
30
0
41
1
10
45.7373253618814
20
-9.77974562852673
30
0
41
1
10
45.7232707676775
20
-9.76993045235683
30
0
41
1
10
45.6975539960082
20
-9.74833739543989
30
0
41
1
10
45.6857522913336
20
-9.73650639307162
30
0
41
1
10
45.6696107107867
20
-9.71723375661126
30
0
41
1
10
45.6644735138782
20
-9.71052344493403
30
0
41
1
10
45.6549050563046
20
-9.69683777135567
30
0
41
1
10
45.6504532513036
20
-9.68984262674449
30
0
41
1
10
45.6380540238764
20
-9.66842067258411
30
0
41
1
10
45.6310566364337
20
-9.65356008465021
30
0
41
1
10
45.6195468033432
20
-9.62271424191103
30
0
41
1
10
45.6151622313027
20
-9.60705380525759
30
0
41
1
10
45.6089667574215
20
-9.57555427835176
30
0
41
1
10
45.6071413787256
20
-9.55964363273914
30
0
41
1
10
45.6054112382807
20
-9.51173775215692
30
0
41
1
10
45.609188216436
20
-9.4807869784632
30
0
41
1
10
45.617408429475
20
-9.4507901932849
30
0
0
SPLINE
5
E8
100
AcDbEntity
8
1
62
256
6
ByLayer
370
18
48
1
60
0
100
AcDbSpline
70
4
71
3
72
24
73
20
40
0
40
0
40
0
40
0
40
0.249999999999999
40
0.249999999999999
40
0.312499999999998
40
0.312499999999998
40
0.374999999999996
40
0.374999999999996
40
0.499999999999997
40
0.499999999999997
40
0.624999999999998
40
0.624999999999998
40
0.749999999999999
40
0.749999999999999
40
0.812499999999999
40
0.812499999999999
40
0.874999999999999
40
0.874999999999999
40
1
40
1
40
1
40
1
41
1
10
45.1290624211756
20
-8.60732714847391
30
0
41
1
10
45.0996054299136
20
-8.60075180388564
30
0
41
1
10
45.0715588802632
20
-8.58975737297096
30
0
41
1
10
45.0385173280759
20
-8.57003329578286
30
0
41
1
10
45.0319895322609
20
-8.5657641423917
30
0
41
1
10
45.0193729054616
20
-8.55673767568599
30
0
41
1
10
45.0132615256773
20
-8.55196963151489
30
0
41
1
10
44.9955233929725
20
-8.53690005825332
30
0
41
1
10
44.984488356187
20
-8.52583852953795
30
0
41
1
10
44.9641203152354
20
-8.50155976584177
30
0
41
1
10
44.9547208733416
20
-8.48819361537629
30
0
41
1
10
44.9385275880191
20
-8.46020405757723
30
0
41
1
10
44.9316414359682
20
-8.44551221480837
30
0
41
1
10
44.9231989800478
20
-8.42239608000746
30
0
41
1
10
44.9207008591603
20
-8.41451004996308
30
0
41
1
10
44.9163706077901
20
-8.39835833068905
30
0
41
1
10
44.9145554372689
20
-8.39013980596913
30
0
41
1
10
44.910237919398
20
-8.36546038520494
30
0
41
1
10
44.9088116859483
20
-8.34882044068787
30
0
41
1
10
44.9088484731159
20
-8.33199255933358
30
0
0
SPLINE
5
E9
100
AcDbEntity
8
1
62
256
6
ByLayer
370
18
48
1
60
0
100
AcDbSpline
70
4
71
3
72
26
73
22
40
0
40
0
40
0
40
0
40
0.250000000000004
40
0.250000000000004
40
0.312500000000004
40
0.312500000000004
40
0.375000000000004
40
0.375000000000004
40
0.500000000000004
40
0.500000000000004
40
0.562500000000004
40
0.562500000000004
40
0.625000000000003
40
0.625000000000003
40
0.750000000000003
40
0.750000000000003
40
0.812500000000002
40
0.812500000000002
40
0.875000000000001
40
0.875000000000001
40
1
40
1
40
1
40
1
41
1
10
47.5620748101045
20
-9.45260683434221
30
0
41
1
10
47.5694708064258
20
-9.48250083629312
30
0
41
1
10
47.5724897653531
20
-9.51323230151256
30
0
41
1
10
47.5702750689211
20
-9.55270481271454
30
0
41
1
10
47.5695201495782
20
-9.56068525553083
30
0
41
1
10
47.567398354498
20
-9.57649350538008
30
0
41
1
10
47.5660327533103
20
-9.58434307874787
30
0
41
1
10
47.5610184448215
20
-9.60772499228732
30
0
41
1
10
47.5564586402901
20
-9.62309171828075
30
0
41
1
10
47.5476740766855
20
-9.64577816140373
30
0
41
1
10
47.5444202603791
20
-9.65327942837319
30
0
41
1
10
47.5372194388636
20
-9.66815074887182
30
0
41
1
10
47.5333026915418
20
-9.67545227960661
30
0
41
1
10
47.5207326627223
20
-9.69671790031815
30
0
41
1
10
47.5112176873797
20
-9.71014763872741
30
0
41
1
10
47.4951872675257
20
-9.72913050335887
30
0
41
1
10
47.4895493499224
20
-9.73526355585036
30
0
41
1
10
47.4776552045689
20
-9.74712054886884
30
0
41
1
10
47.47140922723
20
-9.75282705225643
30
0
41
1
10
47.4521606599674
20
-9.76893344770132
30
0
41
1
10
47.438519827265
20
-9.77846356836499
30
0
41
1
10
47.4240686282916
20
-9.78678349163231
30
0
0
SPLINE
5
EA
100
AcDbEntity
8
1
62
256
6
ByLayer
370
18
48
1
60
0
100
AcDbSpline
70
4
71
3
72
32
73
28
40
0
40
0
40
0
40
0
40
0.124999999999999
40
0.124999999999999
40
0.187499999999998
40
0.187499999999998
40
0.249999999999998
40
0.249999999999998
40
0.374999999999998
40
0.374999999999998
40
0.406249999999998
40
0.406249999999998
40
0.437499999999998
40
0.499999999999998
40
0.499999999999998
40
0.562499999999998
40
0.562499999999998
40
0.624999999999999
40
0.687499999999999
40
0.687499999999999
40
0.749999999999999
40
0.749999999999999
40
0.875
40
0.875
40
0.9375
40
0.9375
40
1
40
1
40
1
40
1
41
1
10
47.5620748101045
20
-9.45260683434221
30
0
41
1
10
47.5516293377939
20
-9.41038710409
30
0
41
1
10
47.5449079727374
20
-9.36733011047135
30
0
41
1
10
47.5406664118811
20
-9.30125511235084
30
0
41
1
10
47.5402329664289
20
-9.27897941839563
30
0
41
1
10
47.541478159651
20
-9.23384811345044
30
0
41
1
10
47.5431761452855
20
-9.21093848447835
30
0
41
1
10
47.5515419295501
20
-9.14279192171849
30
0
41
1
10
47.5614221392775
20
-9.09764822516259
30
0
41
1
10
47.5799191258294
20
-9.04149897738488
30
0
41
1
10
47.5839367257311
20
-9.03027378253838
30
0
41
1
10
47.5924796629649
20
-9.00821138575801
30
0
41
1
10
47.6060980135033
20
-8.97556535921159
30
0
41
1
10
47.6221011133131
20
-8.9442485698918
30
0
41
1
10
47.6455738624405
20
-8.90368410103846
30
0
41
1
10
47.6583784545269
20
-8.8839962518337
30
0
41
1
10
47.6862055886582
20
-8.84586314887002
30
0
41
1
10
47.715563339379
20
-8.80990966473927
30
0
41
1
10
47.7477908394988
20
-8.77797356042193
30
0
41
1
10
47.7814181511073
20
-8.74794871895664
30
0
41
1
10
47.7989988275897
20
-8.73386026112467
30
0
41
1
10
47.8525297112779
20
-8.69527786362286
30
0
41
1
10
47.8896384693358
20
-8.67403895003721
30
0
41
1
10
47.9474120821888
20
-8.64799671316225
30
0
41
1
10
47.9670896281277
20
-8.64027687981285
30
0
41
1
10
48.0068077563527
20
-8.62688116773651
30
0
41
1
10
48.0268375275427
20
-8.62119985147307
30
0
41
1
10
48.0470472236879
20
-8.61649292324082
30
0
0
SPLINE
5
EB
100
AcDbEntity
8
1
62
256
6
ByLayer
370
18
48
1
60
0
100
AcDbSpline
70
4
71
3
72
20
73
16
40
0
40
0
40
0
40
0
40
0.124999999999999
40
0.124999999999999
40
0.249999999999998
40
0.249999999999998
40
0.312499999999997
40
0.312499999999997
40
0.374999999999997
40
0.374999999999997
40
0.499999999999997
40
0.499999999999997
40
0.749999999999999
40
0.749999999999999
40
1
40
1
40
1
40
1
41
1
10
48.2612939833969
20
-8.34336991485159
30
0
41
1
10
48.2612576638751
20
-8.35998387686919
30
0
41
1
10
48.2597731920456
20
-8.37679799159934
30
0
41
1
10
48.2540805299348
20
-8.40921702765373
30
0
41
1
10
48.2498898792127
20
-8.4249877972407
30
0
41
1
10
48.2416133333601
20
-8.44799087907568
30
0
41
1
10
48.2385068150769
20
-8.45557292740138
30
0
41
1
10
48.2317496432033
20
-8.47023485038954
30
0
41
1
10
48.2280896381867
20
-8.47734762061088
30
0
41
1
10
48.2163007529242
20
-8.49805602110154
30
0
41
1
10
48.2073680467203
20
-8.51102578979771
30
0
41
1
10
48.1774278620835
20
-8.54746236445867
30
0
41
1
10
48.1542475990241
20
-8.56737585387292
30
0
41
1
10
48.1028092443898
20
-8.59886643316676
30
0
41
1
10
48.075576250026
20
-8.60984838595811
30
0
41
1
10
48.0470472236879
20
-8.61649292324082
30
0
0
SPLINE
5
EC
100
AcDbEntity
8
1
62
256
6
ByLayer
370
18
48
1
60
0
100
AcDbSpline
70
4
71
3
72
32
73
28
40
0
40
0
40
0
40
0
40
0.124999999999999
40
0.124999999999999
40
0.187499999999999
40
0.187499999999999
40
0.249999999999998
40
0.249999999999998
40
0.374999999999998
40
0.374999999999998
40
0.406249999999998
40
0.406249999999998
40
0.437499999999998
40
0.499999999999999
40
0.499999999999999
40
0.562499999999999
40
0.562499999999999
40
0.624999999999999
40
0.687499999999999
40
0.687499999999999
40
0.749999999999999
40
0.749999999999999
40
0.874999999999999
40
0.874999999999999
40
0.9375
40
0.9375
40
1
40
1
40
1
40
1
41
1
10
45.6120014563125
20
-7.20807446141335
30
0
41
1
10
45.6232378356184
20
-7.24734248657477
30
0
41
1
10
45.6307068371664
20
-7.2876092628217
30
0
41
1
10
45.6359857118431
20
-7.3498129530612
30
0
41
1
10
45.6367507434568
20
-7.37085115061463
30
0
41
1
10
45.6361344868038
20
-7.4136352323291
30
0
41
1
10
45.6347342209646
20
-7.43543375589887
30
0
41
1
10
45.6271798944081
20
-7.50055191726382
30
0
41
1
10
45.6177401561498
20
-7.54405175191742
30
0
41
1
10
45.5996277359852
20
-7.59876577839874
30
0
41
1
10
45.5956786192156
20
-7.60973539071721
30
0
41
1
10
45.5872528593242
20
-7.63136047570227
30
0
41
1
10
45.573781593923
20
-7.66345757304326
30
0
41
1
10
45.5578387912565
20
-7.69454933036094
30
0
41
1
10
45.534367598574
20
-7.73510799048272
30
0
41
1
10
45.5215243630505
20
-7.75494005895824
30
0
41
1
10
45.4935390615636
20
-7.793663450529
30
0
41
1
10
45.4639463015039
20
-7.83049400145312
30
0
41
1
10
45.4313467827597
20
-7.86381849817768
30
0
41
1
10
45.3972855562326
20
-7.89546273216571
30
0
41
1
10
45.3794557586083
20
-7.91048092275632
30
0
41
1
10
45.3251135664739
20
-7.95209116459999
30
0
41
1
10
45.2873754571865
20
-7.97567884894973
30
0
41
1
10
45.2285615648382
20
-8.00560346175554
30
0
41
1
10
45.2085196854718
20
-8.01468300596683
30
0
41
1
10
45.1680505972373
20
-8.03088133895339
30
0
41
1
10
45.1476344732509
20
-8.03800454348278
30
0
41
1
10
45.1270290427291
20
-8.04418837251471
30
0
0
SPLINE
5
ED
100
AcDbEntity
8
1
62
256
6
ByLayer
370
18
48
1
60
0
100
AcDbSpline
70
4
71
3
72
20
73
16
40
0
40
0
40
0
40
0
40
0.125000000000002
40
0.125000000000002
40
0.250000000000004
40
0.250000000000004
40
0.312500000000005
40
0.312500000000005
40
0.375000000000005
40
0.375000000000005
40
0.500000000000005
40
0.500000000000005
40
0.750000000000003
40
0.750000000000003
40
1
40
1
40
1
40
1
41
1
10
44.9088484731159
20
-8.33199255933358
30
0
41
1
10
44.9088847926377
20
-8.31537859731595
30
0
41
1
10
44.9103943819496
20
-8.29847074286557
30
0
41
1
10
44.9161848885246
20
-8.26568654629933
30
0
41
1
10
44.9204479548651
20
-8.24964551794558
30
0
41
1
10
44.9288685804652
20
-8.22610472317233
30
0
41
1
10
44.9320293190884
20
-8.21832032178294
30
0
41
1
10
44.9389048347855
20
-8.20321673363294
30
0
41
1
10
44.9426291249903
20
-8.19586404782272
30
0
41
1
10
44.954625837177
20
-8.17438002669188
30
0
41
1
10
44.9637169511958
20
-8.16081907198234
30
0
41
1
10
44.9941930735581
20
-8.12238235050027
30
0
41
1
10
45.0177942042497
20
-8.10089816169908
30
0
41
1
10
45.070190452888
20
-8.06583267331418
30
0
41
1
10
45.0979413777864
20
-8.05291777745258
30
0
41
1
10
45.1270290427291
20
-8.04418837251471
30
0
0
SPLINE
5
EE
100
AcDbEntity
8
1
62
256
6
ByLayer
370
18
48
1
60
0
100
AcDbSpline
70
4
71
3
72
26
73
22
40
0
40
0
40
0
40
0
40
0.250000000000005
40
0.250000000000005
40
0.312500000000005
40
0.312500000000005
40
0.375000000000005
40
0.375000000000005
40
0.500000000000004
40
0.500000000000004
40
0.562500000000004
40
0.562500000000004
40
0.625000000000004
40
0.625000000000004
40
0.750000000000003
40
0.750000000000003
40
0.812500000000003
40
0.812500000000003
40
0.875000000000002
40
0.875000000000002
40
1
40
1
40
1
40
1
41
1
10
45.6120014563125
20
-7.20807446141335
30
0
41
1
10
45.6040454522621
20
-7.18027043676013
30
0
41
1
10
45.6005087311822
20
-7.15147128620011
30
0
41
1
10
45.6021262590388
20
-7.11422743846241
30
0
41
1
10
45.6027638577156
20
-7.10668484233271
30
0
41
1
10
45.6046599711081
20
-7.09171884800828
30
0
41
1
10
45.6059168545507
20
-7.08427501478896
30
0
41
1
10
45.6106171046555
20
-7.06206518309504
30
0
41
1
10
45.614983582386
20
-7.04741996254522
30
0
41
1
10
45.6235025265277
20
-7.02572482475314
30
0
41
1
10
45.6266718840096
20
-7.01853876240808
30
0
41
1
10
45.6337122723841
20
-7.00426618654284
30
0
41
1
10
45.6375538104709
20
-6.99724534049439
30
0
41
1
10
45.6499153419854
20
-6.97675784231784
30
0
41
1
10
45.6593129427026
20
-6.96376615197418
30
0
41
1
10
45.6751998391779
20
-6.94531892388442
30
0
41
1
10
45.6807953688217
20
-6.93934406541125
30
0
41
1
10
45.6926160676532
20
-6.92776117854417
30
0
41
1
10
45.6988311555934
20
-6.92216995596219
30
0
41
1
10
45.7180062424411
20
-6.90633779315924
30
0
41
1
10
45.7316226292479
20
-6.89689890582018
30
0
41
1
10
45.7460738282212
20
-6.88857898255286
30
0
0
SPLINE
5
EF
100
AcDbEntity
8
1
62
256
6
ByLayer
370
18
48
1
60
0
100
AcDbSpline
70
4
71
3
72
16
73
12
40
0
40
0
40
0
40
0
40
0.25
40
0.25
40
0.5
40
0.5
40
0.75
40
0.75
40
0.875
40
0.875
40
1
40
1
40
1
40
1
41
1
10
48.0450766442004
20
-8.05311977837587
30
0
41
1
10
48.0102176915971
20
-8.0426301094975
30
0
41
1
10
47.9761228203083
20
-8.02944225144255
30
0
41
1
10
47.9093569963247
20
-7.99744495973828
30
0
41
1
10
47.8766542729895
20
-7.97862442429689
30
0
41
1
10
47.8127754406214
20
-7.93457474060386
30
0
41
1
10
47.7824673286593
20
-7.90994538207968
30
0
41
1
10
47.7395057556686
20
-7.86876897510589
30
0
41
1
10
47.7256046278028
20
-7.85433365216681
30
0
41
1
10
47.6986899351259
20
-7.82392285792817
30
0
41
1
10
47.6857322060911
20
-7.8079993432274
30
0
41
1
10
47.6734527246598
20
-7.79152055093299
30
0
0
SPLINE
5
F0
100
AcDbEntity
8
1
62
256
6
ByLayer
370
18
48
1
60
0
100
AcDbSpline
70
4
71
3
72
18
73
14
40
0
40
0
40
0
40
0
40
0.25
40
0.25
40
0.375
40
0.375
40
0.499999999999999
40
0.499999999999999
40
0.749999999999999
40
0.749999999999999
40
0.874999999999999
40
0.874999999999999
40
1
40
1
40
1
40
1
41
1
10
47.5901567860205
20
-7.64765320108045
30
0
41
1
10
47.5740388962119
20
-7.61035643923548
30
0
41
1
10
47.5616874355459
20
-7.57299592972062
30
0
41
1
10
47.5481201769848
20
-7.5167650875941
30
0
41
1
10
47.5444316424222
20
-7.49798913710463
30
0
41
1
10
47.5386819311686
20
-7.46035079156026
30
0
41
1
10
47.5366290301751
20
-7.4414683455163
30
0
41
1
10
47.5329313919129
20
-7.38577382999443
30
0
41
1
10
47.5336525847335
20
-7.34951324185265
30
0
41
1
10
47.5390869731103
20
-7.29612927906486
30
0
41
1
10
47.5416375090104
20
-7.27846588208569
30
0
41
1
10
47.5481479232393
20
-7.24365438530588
30
0
41
1
10
47.552100001234
20
-7.22652621674333
30
0
41
1
10
47.5567306359009
20
-7.2096567335649
30
0
0
SPLINE
5
F1
100
AcDbEntity
8
1
62
256
6
ByLayer
370
18
48
1
60
0
100
AcDbSpline
70
4
71
3
72
22
73
18
40
0
40
0
40
0
40
0
40
0.125000000000001
40
0.125000000000001
40
0.250000000000002
40
0.250000000000002
40
0.312500000000001
40
0.312500000000001
40
0.375
40
0.375
40
0.5
40
0.5
40
0.624999999999999
40
0.624999999999999
40
0.749999999999999
40
0.749999999999999
40
1
40
1
40
1
40
1
41
1
10
47.418244670155
20
-6.88726926369841
30
0
41
1
10
47.4328170946314
20
-6.89561684565844
30
0
41
1
10
47.4468972543411
20
-6.90533661006173
30
0
41
1
10
47.472713765484
20
-6.92655743419598
30
0
41
1
10
47.4845892550971
20
-6.93811306742486
30
0
41
1
10
47.5008774768315
20
-6.956838431523
30
0
41
1
10
47.5060698778539
20
-6.96334271864236
30
0
41
1
10
47.5157588872122
20
-6.97657848683513
30
0
41
1
10
47.5202761561084
20
-6.98332931686368
30
0
41
1
10
47.5328869466142
20
-7.00396170686576
30
0
41
1
10
47.5400454964942
20
-7.01822082839538
30
0
41
1
10
47.5519186181323
20
-7.04771085981675
30
0
41
1
10
47.5565015686238
20
-7.06263093801188
30
0
41
1
10
47.5631229528324
20
-7.09254094593668
30
0
41
1
10
47.5651768209087
20
-7.10759885757229
30
0
41
1
10
47.5676363892671
20
-7.15278247612129
30
0
41
1
10
47.5643847109307
20
-7.18177280420135
30
0
41
1
10
47.5567306359009
20
-7.2096567335649
30
0
0
SPLINE
5
F2
100
AcDbEntity
8
1
62
256
6
ByLayer
370
18
48
1
60
0
100
AcDbSpline
70
4
71
3
72
24
73
20
40
0
40
0
40
0
40
0
40
0.250000000000005
40
0.250000000000005
40
0.312500000000006
40
0.312500000000006
40
0.375000000000006
40
0.375000000000006
40
0.500000000000005
40
0.500000000000005
40
0.625000000000004
40
0.625000000000004
40
0.750000000000003
40
0.750000000000003
40
0.812500000000002
40
0.812500000000002
40
0.875000000000002
40
0.875000000000002
40
1
40
1
40
1
40
1
41
1
10
48.0450766442004
20
-8.05311977837587
30
0
41
1
10
48.0739661180876
20
-8.06181312664128
30
0
41
1
10
48.1014874617342
20
-8.07476765304641
30
0
41
1
10
48.1339225371716
20
-8.09675513227864
30
0
41
1
10
48.140331181123
20
-8.10146896647884
30
0
41
1
10
48.1527186483222
20
-8.111350668455
30
0
41
1
10
48.158719601931
20
-8.11653082872339
30
0
41
1
10
48.1761386435294
20
-8.13279126620613
30
0
41
1
10
48.1869771196939
20
-8.14458636914608
30
0
41
1
10
48.2069848235962
20
-8.17020992901819
30
0
41
1
10
48.216219346511
20
-8.18419156549245
30
0
41
1
10
48.2321298500309
20
-8.21323647934627
30
0
41
1
10
48.2388964902811
20
-8.2283743462274
30
0
41
1
10
48.2471927073302
20
-8.25203625192591
30
0
41
1
10
48.2496476177056
20
-8.26008354579721
30
0
41
1
10
48.25390297676
20
-8.27651476699881
30
0
41
1
10
48.25568675802
20
-8.28485043803612
30
0
41
1
10
48.2599294821255
20
-8.30980899293325
30
0
41
1
10
48.2613307705645
20
-8.3265420334973
30
0
41
1
10
48.2612939833969
20
-8.34336991485159
30
0
0
SPLINE
5
F3
100
AcDbEntity
8
1
62
256
6
ByLayer
370
18
48
1
60
0
100
AcDbSpline
70
4
71
3
72
32
73
28
40
0
40
0
40
0
40
0
40
0.125
40
0.125
40
0.1875
40
0.1875
40
0.250000000000001
40
0.250000000000001
40
0.375
40
0.375
40
0.40625
40
0.40625
40
0.4375
40
0.5
40
0.5
40
0.5625
40
0.5625
40
0.624999999999999
40
0.687499999999999
40
0.687499999999999
40
0.749999999999999
40
0.749999999999999
40
0.874999999999999
40
0.874999999999999
40
0.9375
40
0.9375
40
1
40
1
40
1
40
1
41
1
10
47.06853106912
20
-6.92641621307671
30
0
41
1
10
47.0390818332979
20
-6.95472131068836
30
0
41
1
10
47.0069296843807
20
-6.9803355657741
30
0
41
1
10
46.9542710719465
20
-7.0146639666417
30
0
41
1
10
46.9359737820107
20
-7.02542017716191
30
0
41
1
10
46.8977322715599
20
-7.04548217749737
30
0
41
1
10
46.8777323802979
20
-7.05479748209722
30
0
41
1
10
46.8163964847688
20
-7.07982214604509
30
0
41
1
10
46.7733503812664
20
-7.09288673557505
30
0
41
1
10
46.7162977624184
20
-7.10416699522851
30
0
41
1
10
46.7047110986454
20
-7.10616614833664
30
0
41
1
10
46.6815714482496
20
-7.10957875602752
30
0
41
1
10
46.6467770774065
20
-7.11384760705634
30
0
41
1
10
46.6117282217512
20
-7.11559816478409
30
0
41
1
10
46.5647667943923
20
-7.11567953160595
30
0
41
1
10
46.5411699034092
20
-7.11459398881236
30
0
41
1
10
46.4937445310361
20
-7.11007796166671
30
0
41
1
10
46.4472550787951
20
-7.10333066821961
30
0
41
1
10
46.4024771631987
20
-7.0924179272552
30
0
41
1
10
46.3585039051776
20
-7.07948589839417
30
0
41
1
10
46.3368554956736
20
-7.07197109124859
30
0
41
1
10
46.2745527803388
20
-7.04705110643438
30
0
41
1
10
46.2359764341554
20
-7.02717357696203
30
0
41
1
10
46.1818607968309
20
-6.99284851510585
30
0
41
1
10
46.1644019213907
20
-6.98060462023348
30
0
41
1
10
46.1310195853446
20
-6.95483168196079
30
0
41
1
10
46.1150975053564
20
-6.94131404399319
30
0
41
1
10
46.0999068818672
20
-6.92717488278264
30
0
0
SPLINE
5
F4
100
AcDbEntity
8
1
62
256
6
ByLayer
370
18
48
1
60
0
100
AcDbSpline
70
4
71
3
72
24
73
20
40
0
40
0
40
0
40
0
40
0.124999999999998
40
0.124999999999998
40
0.249999999999997
40
0.249999999999997
40
0.312499999999995
40
0.312499999999995
40
0.374999999999994
40
0.374999999999994
40
0.499999999999991
40
0.499999999999991
40
0.562499999999991
40
0.562499999999991
40
0.624999999999991
40
0.624999999999991
40
0.749999999999995
40
0.749999999999995
40
1
40
1
40
1
40
1
41
1
10
45.7460738282212
20
-6.88857898255286
30
0
41
1
10
45.7604750448807
20
-6.88028783537651
30
0
41
1
10
45.7758496455466
20
-6.87307729699966
30
0
41
1
10
45.807054639291
20
-6.861496349219
30
0
41
1
10
45.8229967006
20
-6.857036409473
30
0
41
1
10
45.847408631024
20
-6.85230689580119
30
0
41
1
10
45.8556677063654
20
-6.85105652446463
30
0
41
1
10
45.8720692605392
20
-6.84925231378237
30
0
41
1
10
45.8802315108886
20
-6.84869128078957
30
0
41
1
10
45.9046059960557
20
-6.84798696541226
30
0
41
1
10
45.9207067380421
20
-6.84881634384281
30
0
41
1
10
45.9446324724829
20
-6.85195643259799
30
0
41
1
10
45.9525307152094
20
-6.85331803325572
30
0
41
1
10
45.9679952202467
20
-6.85660977398898
30
0
41
1
10
45.975590014678
20
-6.858543473604
30
0
41
1
10
45.9979757126031
20
-6.86517169275
30
0
41
1
10
46.0123702231355
20
-6.87068863743575
30
0
41
1
10
46.0539836976057
20
-6.8904342414461
30
0
41
1
10
46.0784640841158
20
-6.90721630936209
30
0
41
1
10
46.0999068818672
20
-6.92717488278261
30
0
0
SPLINE
5
F5
100
AcDbEntity
8
1
62
256
6
ByLayer
370
18
48
1
60
0
100
AcDbSpline
70
4
71
3
72
26
73
22
40
0
40
0
40
0
40
0
40
0.250000000000005
40
0.250000000000005
40
0.312500000000006
40
0.312500000000006
40
0.375000000000006
40
0.375000000000006
40
0.500000000000006
40
0.500000000000006
40
0.562500000000005
40
0.562500000000005
40
0.625000000000005
40
0.625000000000005
40
0.750000000000003
40
0.750000000000003
40
0.812500000000002
40
0.812500000000002
40
0.875000000000001
40
0.875000000000001
40
1
40
1
40
1
40
1
41
1
10
47.06853106912
20
-6.92641621307671
30
0
41
1
10
47.0893828256789
20
-6.90637457232466
30
0
41
1
10
47.1132639706934
20
-6.88958945408773
30
0
41
1
10
47.1471657463241
20
-6.87312574364377
30
0
41
1
10
47.1541826425569
20
-6.87005408327945
30
0
41
1
10
47.1684135064903
20
-6.86449404969794
30
0
41
1
10
47.1756448465601
20
-6.86199450974708
30
0
41
1
10
47.1976849187987
20
-6.85534247939872
30
0
41
1
10
47.2128373181873
20
-6.85203064412993
30
0
41
1
10
47.2362877324814
20
-6.84886547437286
30
0
41
1
10
47.2442253966216
20
-6.84811222151852
30
0
41
1
10
47.2603561292835
20
-6.84724947671349
30
0
41
1
10
47.2684764058764
20
-6.84714641937014
30
0
41
1
10
47.2927369046034
20
-6.84782431510324
30
0
41
1
10
47.3088856633814
20
-6.8495789253508
30
0
41
1
10
47.3330643486943
20
-6.85423294086202
30
0
41
1
10
47.3411164846855
20
-6.8561229510416
30
0
41
1
10
47.3572044135086
20
-6.86061471101376
30
0
41
1
10
47.3652203389439
20
-6.86321595843832
30
0
41
1
10
47.3886928319184
20
-6.87192273537331
30
0
41
1
10
47.4037600943708
20
-6.87897200446669
30
0
41
1
10
47.418244670155
20
-6.88726926369841
30
0
0
LINE
5
74
100
AcDbEntity
8
1
62
256
6
ByLayer
370
18
48
1
60
1
100
AcDbLine
10
0
20
0
30
0
11
0
21
297
31
0
39
0
210
0
220
0
230
1
0
LINE
5
76
100
AcDbEntity
8
1
62
256
6
ByLayer
370
18
48
1
60
1
100
AcDbLine
10
420
20
297
30
0
11
0
21
297
31
0
39
0
210
0
220
0
230
1
0
LINE
5
77
100
AcDbEntity
8
1
62
256
6
ByLayer
370
18
48
1
60
1
100
AcDbLine
10
420
20
297
30
0
11
420
21
0
31
0
39
0
210
0
220
0
230
1
0
LINE
5
78
100
AcDbEntity
8
1
62
256
6
ByLayer
370
18
48
1
60
1
100
AcDbLine
10
0
20
0
30
0
11
420
21
0
31
0
39
0
210
0
220
0
230
1
0
LINE
5
79
100
AcDbEntity
8
1
62
256
6
ByLayer
370
18
48
1
60
0
100
AcDbLine
10
44.109811
20
-2.771261
30
0
11
44.125687
21
-2.712011
31
0
39
0
210
0
220
0
230
1
0
LINE
5
7A
100
AcDbEntity
8
1
62
256
6
ByLayer
370
18
48
1
60
0
100
AcDbLine
10
42.220875
20
-3.176072
30
0
11
42.260594
21
-3.027837
31
0
39
0
210
0
220
0
230
1
0
LINE
5
7B
100
AcDbEntity
8
1
62
256
6
ByLayer
370
18
48
1
60
0
100
AcDbLine
10
30.300753
20
0
30
0
11
51.504035
21
0
31
0
39
0
210
0
220
0
230
1
0
LINE
5
7C
100
AcDbEntity
8
1
62
256
6
ByLayer
370
18
48
1
60
0
100
AcDbLine
10
41.036644
20
-10.643797
30
0
11
40.684555
21
-10.549455
31
0
39
0
210
0
220
0
230
1
0
LINE
5
7D
100
AcDbEntity
8
1
62
256
6
ByLayer
370
18
48
1
60
0
100
AcDbLine
10
40.684555
20
-10.549455
30
0
11
40.511035
21
-10.85
31
0
39
0
210
0
220
0
230
1
0
LINE
5
7E
100
AcDbEntity
8
1
62
256
6
ByLayer
370
18
48
1
60
0
100
AcDbLine
10
32.004035
20
-10.85
30
0
11
40.511035
21
-10.85
31
0
39
0
210
0
220
0
230
1
0
LINE
5
7F
100
AcDbEntity
8
1
62
256
6
ByLayer
370
18
48
1
60
0
100
AcDbLine
10
32.004035
20
-7.884589
30
0
11
32.004035
21
-10.85
31
0
39
0
210
0
220
0
230
1
0
LINE
5
80
100
AcDbEntity
8
1
62
256
6
ByLayer
370
18
48
1
60
0
100
AcDbLine
10
51.504035
20
0
30
0
11
51.504035
21
-4.752505
31
0
39
0
210
0
220
0
230
1
0
LINE
5
81
100
AcDbEntity
8
1
62
256
6
ByLayer
370
18
48
1
60
0
100
AcDbLine
10
29.800753
20
0
30
0
11
30.300753
21
0
31
0
39
0
210
0
220
0
230
1
0
LINE
5
82
100
AcDbEntity
8
1
62
256
6
ByLayer
370
18
48
1
60
0
100
AcDbLine
10
30.300753
20
0
30
0
11
30.300753
21
-7.884589
31
0
39
0
210
0
220
0
230
1
0
LINE
5
83
100
AcDbEntity
8
1
62
256
6
ByLayer
370
13
48
1
60
0
100
AcDbLine
10
20.954035
20
-7.178824
30
0
11
20.954035
21
-9.949238
31
0
39
0
210
0
220
0
230
1
0
LINE
5
84
100
AcDbEntity
8
1
62
256
6
ByLayer
370
13
48
1
60
0
100
AcDbLine
10
19.054035
20
-7.178824
30
0
11
19.054035
21
-9.949238
31
0
39
0
210
0
220
0
230
1
0
LINE
5
85
100
AcDbEntity
8
1
62
256
6
ByLayer
370
18
48
1
60
0
100
AcDbLine
10
28.73653
20
0
30
0
11
29.800753
21
0
31
0
39
0
210
0
220
0
230
1
0
LINE
5
86
100
AcDbEntity
8
1
62
256
6
ByLayer
370
18
48
1
60
0
100
AcDbLine
10
29.800753
20
0
30
0
11
29.800753
21
-7.697593
31
0
39
0
210
0
220
0
230
1
0
LINE
5
87
100
AcDbEntity
8
1
62
256
6
ByLayer
370
18
48
1
60
0
100
AcDbLine
10
28.73653
20
0
30
0
11
8.004035
21
0
31
0
39
0
210
0
220
0
230
1
0
LINE
5
88
100
AcDbEntity
8
1
62
256
6
ByLayer
370
18
48
1
60
0
100
AcDbLine
10
28.627112
20
-6.059468
30
0
11
28.73653
21
0
31
0
39
0
210
0
220
0
230
1
0
LINE
5
89
100
AcDbEntity
8
1
62
256
6
ByLayer
370
18
48
1
60
0
100
AcDbLine
10
8.004035
20
0
30
0
11
8.004035
21
-6.059468
31
0
39
0
210
0
220
0
230
1
0
LINE
5
8A
100
AcDbEntity
8
1
62
256
6
ByLayer
370
18
48
1
60
0
100
AcDbLine
10
29.800753
20
-7.697593
30
0
11
30.300753
21
-7.884589
31
0
39
0
210
0
220
0
230
1
0
LINE
5
8B
100
AcDbEntity
8
1
62
256
6
ByLayer
370
18
48
1
60
0
100
AcDbLine
10
30.300753
20
-7.884589
30
0
11
32.004035
21
-7.884589
31
0
39
0
210
0
220
0
230
1
0
LINE
5
8C
100
AcDbEntity
8
1
62
256
6
ByLayer
370
18
48
1
60
0
100
AcDbLine
10
32.004035
20
-10.85
30
0
11
8.004035
21
-10.85
31
0
39
0
210
0
220
0
230
1
0
LINE
5
8D
100
AcDbEntity
8
1
62
256
6
ByLayer
370
18
48
1
60
0
100
AcDbLine
10
8.004035
20
-10.85
30
0
11
8.004035
21
-6.059468
31
0
39
0
210
0
220
0
230
1
0
LINE
5
8E
100
AcDbEntity
8
1
62
256
6
ByLayer
370
18
48
1
60
0
100
AcDbLine
10
8.004035
20
-6.059468
30
0
11
28.627112
21
-6.059468
31
0
39
0
210
0
220
0
230
1
0
LINE
5
8F
100
AcDbEntity
8
1
62
256
6
ByLayer
370
18
48
1
60
0
100
AcDbLine
10
28.627112
20
-6.059468
30
0
11
29.800753
21
-7.697593
31
0
39
0
210
0
220
0
230
1
0
LINE
5
90
100
AcDbEntity
8
1
62
256
6
ByLayer
370
18
48
1
60
0
100
AcDbLine
10
19.054035
20
-9.949238
30
0
11
20.954035
21
-9.949238
31
0
39
0
210
0
220
0
230
1
0
LINE
5
91
100
AcDbEntity
8
1
62
256
6
ByLayer
370
18
48
1
60
0
100
AcDbLine
10
20.954035
20
-7.178875
30
0
11
19.054035
21
-7.178875
31
0
39
0
210
0
220
0
230
1
0
LINE
5
92
100
AcDbEntity
8
SK1
62
256
6
ByLayer
370
18
48
1
60
0
100
AcDbLine
10
5.8
20
-2.7
30
0
11
8.004113
21
-2.7
31
0
39
0
210
0
220
0
230
1
0
LINE
5
94
100
AcDbEntity
8
SK1
62
256
6
ByLayer
370
18
48
1
60
0
100
AcDbLine
10
8.004113
20
-7.7
30
0
11
5.8
21
-7.7
31
0
39
0
210
0
220
0
230
1
0
LINE
5
95
100
AcDbEntity
8
SK1
62
256
6
ByLayer
370
18
48
1
60
0
100
AcDbLine
10
1.385622
20
-9.7
30
0
11
1.385622
21
-0.7
31
0
39
0
210
0
220
0
230
1
0
LINE
5
96
100
AcDbEntity
8
SK1
62
256
6
ByLayer
370
18
48
1
60
0
100
AcDbLine
10
5.8
20
-9.7
30
0
11
5.8
21
-0.7
31
0
39
0
210
0
220
0
230
1
0
LINE
5
97
100
AcDbEntity
8
SK1
62
256
6
ByLayer
370
18
48
1
60
0
100
AcDbLine
10
1.385622
20
-0.7
30
0
11
1.8
21
-0.7
31
0
39
0
210
0
220
0
230
1
0
LINE
5
98
100
AcDbEntity
8
SK1
62
256
6
ByLayer
370
18
48
1
60
0
100
AcDbLine
10
4.799616
20
-0.7
30
0
11
5.8
21
-0.7
31
0
39
0
210
0
220
0
230
1
0
LINE
5
99
100
AcDbEntity
8
SK1
62
256
6
ByLayer
370
18
48
1
60
0
100
AcDbLine
10
5.8
20
-9.7
30
0
11
4.799616
21
-9.7
31
0
39
0
210
0
220
0
230
1
0
LINE
5
9A
100
AcDbEntity
8
SK1
62
256
6
ByLayer
370
18
48
1
60
0
100
AcDbLine
10
1.8
20
-9.7
30
0
11
1.385622
21
-9.7
31
0
39
0
210
0
220
0
230
1
0
LINE
5
9B
100
AcDbEntity
8
1
62
256
6
ByLayer
370
18
48
1
60
0
100
AcDbLine
10
45.610612
20
-8.91341
30
0
11
45.589784
21
-8.991142
31
0
39
0
210
0
220
0
230
1
0
LINE
5
9C
100
AcDbEntity
8
1
62
256
6
ByLayer
370
18
48
1
60
0
100
AcDbLine
10
45.506488
20
-8.847274
30
0
11
45.527316
21
-8.769542
31
0
39
0
210
0
220
0
230
1
0
LINE
5
9D
100
AcDbEntity
8
1
62
256
6
ByLayer
370
18
48
1
60
0
100
AcDbLine
10
45.641138
20
-9.362232
30
0
11
45.617408
21
-9.45079
31
0
39
0
210
0
220
0
230
1
0
LINE
5
9E
100
AcDbEntity
8
1
62
256
6
ByLayer
370
13
48
1
60
0
100
AcDbLine
10
46.129306
20
-9.64559
30
0
11
46.105545
21
-9.734265
31
0
39
0
210
0
220
0
230
1
0
LINE
5
9F
100
AcDbEntity
8
1
62
256
6
ByLayer
370
18
48
1
60
0
100
AcDbLine
10
47.564835
20
-9.090913
30
0
11
47.586115
21
-9.011493
31
0
39
0
210
0
220
0
230
1
0
LINE
5
A0
100
AcDbEntity
8
1
62
256
6
ByLayer
370
13
48
1
60
0
100
AcDbLine
10
47.09793
20
-9.644831
30
0
11
47.074169
21
-9.733506
31
0
39
0
210
0
220
0
230
1
0
LINE
5
A1
100
AcDbEntity
8
1
62
256
6
ByLayer
370
18
48
1
60
0
100
AcDbLine
10
44.054489
20
-7.639722
30
0
11
44.074792
21
-7.56395
31
0
39
0
210
0
220
0
230
1
0
LINE
5
A2
100
AcDbEntity
8
1
62
256
6
ByLayer
370
18
48
1
60
0
100
AcDbLine
10
49.145903
20
-8.92275
30
0
11
49.125599
21
-8.998522
31
0
39
0
210
0
220
0
230
1
0
LINE
5
A3
100
AcDbEntity
8
1
62
256
6
ByLayer
370
18
48
1
60
0
100
AcDbLine
10
45.635482
20
-7.471838
30
0
11
45.614202
21
-7.551258
31
0
39
0
210
0
220
0
230
1
0
LINE
5
A4
100
AcDbEntity
8
1
62
256
6
ByLayer
370
13
48
1
60
0
100
AcDbLine
10
45.152791
20
-8.518769
30
0
11
45.129062
21
-8.607327
31
0
39
0
210
0
220
0
230
1
0
LINE
5
A5
100
AcDbEntity
8
1
62
256
6
ByLayer
370
13
48
1
60
0
100
AcDbLine
10
48.070808
20
-8.527818
30
0
11
48.047047
21
-8.616493
31
0
39
0
210
0
220
0
230
1
0
LINE
5
A6
100
AcDbEntity
8
1
62
256
6
ByLayer
370
13
48
1
60
0
100
AcDbLine
10
45.635762
20
-7.119399
30
0
11
45.612001
21
-7.208074
31
0
39
0
210
0
220
0
230
1
0
LINE
5
A7
100
AcDbEntity
8
1
62
256
6
ByLayer
370
18
48
1
60
0
100
AcDbLine
10
43.977589
20
-2.735832
30
0
11
51.644142
21
-4.790079
31
0
39
0
210
0
220
0
230
1
0
LINE
5
A8
100
AcDbEntity
8
1
62
256
6
ByLayer
370
18
48
1
60
0
100
AcDbLine
10
49.184896
20
-13.96811
30
0
11
41.518343
21
-11.913864
31
0
39
0
210
0
220
0
230
1
0
LINE
5
A9
100
AcDbEntity
8
1
62
256
6
ByLayer
370
18
48
1
60
0
100
AcDbLine
10
40.956399
20
-10.943284
30
0
11
43.005642
21
-3.295407
31
0
39
0
210
0
220
0
230
1
0
LINE
5
AA
100
AcDbEntity
8
1
62
256
6
ByLayer
370
18
48
1
60
0
100
AcDbLine
10
52.206085
20
-5.760658
30
0
11
50.156843
21
-13.408536
31
0
39
0
210
0
220
0
230
1
0
LINE
5
AB
100
AcDbEntity
8
80
62
256
6
ByLayer
370
70
48
1
60
0
100
AcDbLine
10
0
20
0
30
0
11
-0.653495
21
0
31
0
39
0
210
0
220
0
230
1
0
LINE
5
AC
100
AcDbEntity
8
81
62
256
6
ByLayer
370
70
48
1
60
0
100
AcDbLine
10
49.951841
20
-14.173613
30
0
11
51.028491
21
-14.173613
31
0
39
0
210
0
220
0
230
1
0
MTEXT
5
F6
100
AcDbEntity
8
SK6
62
256
6
ByLayer
370
18
48
1
60
0
100
AcDbMText
10
11.461368
20
4.901758
30
0
210
0
220
0
230
1
1
\W0.7607;SSKCL 10CA-09-M
40
3.5
41
0
44
1.084337
50
0
71
7
72
5
7
iso_b_vert
0
DIMENSION
5
FB
100
AcDbEntity
8
2
62
256
6
ByLayer
370
18
48
1
60
0
100
AcDbDimension
2
_U0
10
52.12641
20
-39.59032
30
0
11
26.063205
21
-39.59032
31
0
70
32
71
1
72
1
41
1
210
0
220
0
230
1
3
Standard
100
AcDbAlignedDimension
13
0
23
-5.2
33
0
14
52.12641
24
-5.159477
34
0
50
0
100
AcDbRotatedDimension
1001
ACAD
1000
DSTYLE
1002
{
1070
   371
1070
    13
1070
   372
1070
    13
1070
   170
1070
     0
1070
   144
1040
1.0
1070
   277
1070
     2
1070
   284
1070
     8
1070
   278
1070
    46
1070
   146
1040
1.166667
1070
   345
1005
16
1070
   347
1005
16
1070
   346
1005
16
1070
   344
1005
FC
1070
   343
1005
FC
1070
   172
1070
     1
1070
    76
1070
     0
1070
    75
1070
     0
1070
   282
1070
     0
1070
   281
1070
     0
1070
    71
1070
     0
1070
   272
1070
     4
1070
    74
1070
     0
1070
   279
1070
     0
1070
   173
1070
     1
1070
   340
1005
F7
1070
   271
1070
     0
1070
    77
1070
     1
1070
    73
1070
     1
1070
   171
1070
     4
1070
   274
1070
     4
1070
   177
1070
   254
1070
   176
1070
   254
1070
   178
1070
   254
1070
    78
1070
     8
1070
    41
1040
3.175
1070
   147
1040
1.5
1070
    42
1040
2.0
1070
    44
1040
2.0
1070
   140
1040
3.0
1002
}
1001
ACAD_DSTYLE_DIM_LINETYPE
1070
   380
1005
16
1001
ACAD_DSTYLE_DIM_EXT1_LINETYPE
1070
   381
1005
16
1001
ACAD_DSTYLE_DIM_EXT2_LINETYPE
1070
   382
1005
16
0
DIMENSION
5
120
100
AcDbEntity
8
2
62
256
6
ByLayer
370
18
48
1
60
0
100
AcDbDimension
2
_U1
10
0
20
-21.458092
30
0
11
10.002018
21
-21.458092
31
0
70
32
71
1
72
1
41
1
210
0
220
0
230
1
3
Standard
100
AcDbAlignedDimension
13
20.004035
23
-9.949238
33
0
14
0
24
-5.2
34
0
50
0
100
AcDbRotatedDimension
1001
ACAD
1000
DSTYLE
1002
{
1070
   371
1070
    13
1070
   372
1070
    13
1070
   170
1070
     0
1070
   144
1040
1.0
1070
   277
1070
     2
1070
   284
1070
     8
1070
   278
1070
    46
1070
   146
1040
1.166667
1070
   345
1005
16
1070
   347
1005
16
1070
   346
1005
16
1070
   344
1005
FC
1070
   343
1005
FC
1070
   172
1070
     1
1070
    76
1070
     0
1070
    75
1070
     0
1070
   282
1070
     0
1070
   281
1070
     0
1070
    71
1070
     0
1070
   272
1070
     4
1070
    74
1070
     0
1070
   279
1070
     0
1070
   173
1070
     1
1070
   340
1005
F7
1070
   271
1070
     0
1070
    77
1070
     1
1070
    73
1070
     1
1070
   171
1070
     4
1070
   274
1070
     4
1070
   177
1070
   254
1070
   176
1070
   254
1070
   178
1070
   254
1070
    78
1070
     8
1070
    41
1040
3.175
1070
   147
1040
1.5
1070
    42
1040
2.0
1070
    44
1040
2.0
1070
   140
1040
3.0
1002
}
1001
ACAD_DSTYLE_DIM_LINETYPE
1070
   380
1005
16
1001
ACAD_DSTYLE_DIM_EXT1_LINETYPE
1070
   381
1005
16
1001
ACAD_DSTYLE_DIM_EXT2_LINETYPE
1070
   382
1005
16
0
DIMENSION
5
13C
100
AcDbEntity
8
SK2
62
256
6
ByLayer
370
18
48
1
60
0
100
AcDbDimension
2
_U2
10
51.028491
20
-14.173613
30
0
11
61.36379
21
-5.416916
31
0
70
34
71
1
72
1
41
1
210
0
220
0
230
1
3
Standard
100
AcDb2LineAngularDimension
13
52.206085
23
-5.760658
33
0
14
50.156843
24
-13.408536
34
0
15
49.951841
25
-14.173613
35
0
16
62.988578
26
-8.094483
36
0
40
0
0
DIMENSION
5
15C
100
AcDbEntity
8
SK2
62
256
6
ByLayer
370
18
48
1
60
0
100
AcDbDimension
2
_U3
10
76.417059
20
-14.173613
30
0
11
76.417059
21
-7.086806
31
0
70
32
71
1
72
1
41
1
210
0
220
0
230
1
3
Standard
100
AcDbAlignedDimension
13
45.576195
23
0
33
0
14
49.951841
24
-14.173613
34
0
50
90
100
AcDbRotatedDimension
1001
ACAD
1000
DSTYLE
1002
{
1070
   371
1070
    13
1070
   372
1070
    13
1070
   170
1070
     0
1070
   144
1040
1.0
1070
   277
1070
     2
1070
   284
1070
     8
1070
   278
1070
    46
1070
   146
1040
1.166667
1070
   345
1005
16
1070
   347
1005
16
1070
   346
1005
16
1070
   344
1005
FC
1070
   343
1005
FC
1070
   172
1070
     1
1070
    76
1070
     0
1070
    75
1070
     0
1070
   282
1070
     0
1070
   281
1070
     0
1070
    71
1070
     0
1070
   272
1070
     4
1070
    74
1070
     0
1070
   279
1070
     0
1070
   173
1070
     1
1070
   340
1005
F7
1070
   271
1070
     0
1070
    77
1070
     1
1070
    73
1070
     0
1070
   171
1070
     4
1070
   274
1070
     4
1070
   177
1070
   254
1070
   176
1070
   254
1070
   178
1070
   254
1070
    78
1070
     8
1070
    41
1040
3.175
1070
   147
1040
1.5
1070
    42
1040
2.0
1070
    44
1040
2.0
1070
   140
1040
3.0
1002
}
1001
ACAD_DSTYLE_DIM_LINETYPE
1070
   380
1005
16
1001
ACAD_DSTYLE_DIM_EXT1_LINETYPE
1070
   381
1005
16
1001
ACAD_DSTYLE_DIM_EXT2_LINETYPE
1070
   382
1005
16
0
DIMENSION
5
179
100
AcDbEntity
8
2
62
256
6
ByLayer
370
18
48
1
60
0
100
AcDbDimension
2
_U4
10
-9.660945
20
0
30
0
11
-9.660945
21
-5.425
31
0
70
32
71
1
72
1
41
1
210
0
220
0
230
1
3
Standard
100
AcDbAlignedDimension
13
13.536078
23
-10.85
33
0
14
18.370283
24
0
34
0
50
-90
100
AcDbRotatedDimension
1001
ACAD
1000
DSTYLE
1002
{
1070
   371
1070
    13
1070
   372
1070
    13
1070
   170
1070
     0
1070
   144
1040
1.0
1070
   277
1070
     2
1070
   284
1070
     8
1070
   278
1070
    46
1070
   146
1040
1.166667
1070
   345
1005
16
1070
   347
1005
16
1070
   346
1005
16
1070
   344
1005
FC
1070
   343
1005
FC
1070
   172
1070
     1
1070
    76
1070
     0
1070
    75
1070
     0
1070
   282
1070
     0
1070
   281
1070
     0
1070
    71
1070
     0
1070
   272
1070
     4
1070
    74
1070
     0
1070
   279
1070
     0
1070
   173
1070
     1
1070
   340
1005
F7
1070
   271
1070
     0
1070
    77
1070
     1
1070
    73
1070
     0
1070
   171
1070
     4
1070
   274
1070
     4
1070
   177
1070
   254
1070
   176
1070
   254
1070
   178
1070
   254
1070
    78
1070
     8
1070
    41
1040
3.175
1070
   147
1040
1.5
1070
    42
1040
2.0
1070
    44
1040
2.0
1070
   140
1040
3.0
1002
}
1001
ACAD_DSTYLE_DIM_LINETYPE
1070
   380
1005
16
1001
ACAD_DSTYLE_DIM_EXT1_LINETYPE
1070
   381
1005
16
1001
ACAD_DSTYLE_DIM_EXT2_LINETYPE
1070
   382
1005
16
0
DIMENSION
5
196
100
AcDbEntity
8
2
62
256
6
ByLayer
370
18
48
1
60
0
100
AcDbDimension
2
_U5
10
49.951841
20
-30.844968
30
0
11
24.97592
21
-30.844968
31
0
70
32
71
1
72
1
41
1
210
0
220
0
230
1
3
Standard
100
AcDbAlignedDimension
13
0
23
-5.2
33
0
14
49.951841
24
-14.173613
34
0
50
0
100
AcDbRotatedDimension
1001
ACAD
1000
DSTYLE
1002
{
1070
   371
1070
    13
1070
   372
1070
    13
1070
   170
1070
     0
1070
   144
1040
1.0
1070
   277
1070
     2
1070
   284
1070
     8
1070
   278
1070
    46
1070
   146
1040
1.166667
1070
   345
1005
16
1070
   347
1005
16
1070
   346
1005
16
1070
   344
1005
FC
1070
   343
1005
FC
1070
   172
1070
     1
1070
    76
1070
     0
1070
    75
1070
     0
1070
   282
1070
     0
1070
   281
1070
     0
1070
    71
1070
     0
1070
   272
1070
     4
1070
    74
1070
     0
1070
   279
1070
     0
1070
   173
1070
     1
1070
   340
1005
F7
1070
   271
1070
     0
1070
    77
1070
     1
1070
    73
1070
     1
1070
   171
1070
     4
1070
   274
1070
     4
1070
   177
1070
   254
1070
   176
1070
   254
1070
   178
1070
   254
1070
    78
1070
     8
1070
    41
1040
3.175
1070
   147
1040
1.5
1070
    42
1040
2.0
1070
    44
1040
2.0
1070
   140
1040
3.0
1002
}
1001
ACAD_DSTYLE_DIM_LINETYPE
1070
   380
1005
16
1001
ACAD_DSTYLE_DIM_EXT1_LINETYPE
1070
   381
1005
16
1001
ACAD_DSTYLE_DIM_EXT2_LINETYPE
1070
   382
1005
16
0
ENDSEC
0
SECTION
2
OBJECTS
0
DICTIONARY
5
221
330
0
100
AcDbDictionary
280
0
281
1
3
ACAD_GROUP
350
222
3
ACAD_MLINESTYLE
350
223
0
DICTIONARY
5
222
330
0
100
AcDbDictionary
280
0
281
1
0
DICTIONARY
5
223
330
0
100
AcDbDictionary
280
0
281
1
3
Standard
350
18
0
MLINESTYLE
5
18
330
223
100
AcDbMlineStyle
2
Standard
70
0
3

62
256
51
90
52
90
71
2
49
-0.5
62
256
6
ByLayer
49
0.5
62
256
6
ByLayer
0
RASTERVARIABLES
5
210
330

100
AcDbRasterVariables
90
0
70
1
71
1
72
1
0
ENDSEC
0
EOF
