0
SECTION
2
HEADER
9
$ACADVER
1
AC1015
9
$DWGCODEPAGE
3
ANSI_1252
9
$HANDSEED
5
241
9
$ANGBASE
50
0
9
$ANGDIR
70
0
9
$ATTMODE
70
1
9
$AUNITS
70
0
9
$AUPREC
70
0
9
$CECOLOR
62
256
9
$CELTSCALE
40
1
9
$CELTYPE
6
ByLayer
9
$CELWEIGHT
370
18
9
$CLAYER
8
0
9
$CMLJUST
70
0
9
$CMLSCALE
40
1
9
$CMLSTYLE
2
Standard
9
$DIMSTYLE
2
Standard
9
$TEXTSIZE
40
0.2
9
$TEXTSTYLE
7
Standard
9
$LUNITS
70
2
9
$LUPREC
70
4
9
$EXTNAMES
290
1
9
$INSUNITS
70
4
9
$LTSCALE
40
1
9
$LWDISPLAY
290
1
9
$PDMODE
70
0
9
$PDSIZE
40
0
9
$PLINEGEN
70
0
0
ENDSEC
0
SECTION
2
CLASSES
0
CLASS
1
RASTERVARIABLES
2
AcDbRasterVariables
3
ISM
90
0
280
0
281
0
0
ENDSEC
0
SECTION
2
TABLES
0
TABLE
2
VPORT
5
237
100
AcDbSymbolTable
0
VPORT
5
1
100
AcDbSymbolTableRecord
100
AcDbViewportTableRecord
2
*Active
70
0
10
0
20
0
11
1
21
1
12
-1
22
1
13
0
23
0
14
0.5
24
0.5
15
10
25
10
16
0
26
0
36
1
17
0
27
0
37
0
0
ENDTAB
0
TABLE
2
LTYPE
5
238
100
AcDbSymbolTable
0
LTYPE
5
14
100
AcDbSymbolTableRecord
100
AcDbLinetypeTableRecord
70
0
2
ByBlock
3

72
65
73
0
40
0
0
LTYPE
5
15
100
AcDbSymbolTableRecord
100
AcDbLinetypeTableRecord
70
0
2
ByLayer
3

72
65
73
0
40
0
0
LTYPE
5
16
100
AcDbSymbolTableRecord
100
AcDbLinetypeTableRecord
70
0
2
Continuous
3
Solid line
72
65
73
0
40
0
0
LTYPE
5
6E
100
AcDbSymbolTableRecord
100
AcDbLinetypeTableRecord
70
0
2
CENTER
3
____ _ ____ _ ____ _ ____
72
65
73
4
40
47.5
49
22
74
0
49
-8.5
74
0
49
8.5
74
0
49
-8.5
74
0
0
LTYPE
5
6F
100
AcDbSymbolTableRecord
100
AcDbLinetypeTableRecord
70
0
2
DASHED
3
__ __ __ __ __ __ __ __ __
72
65
73
2
40
25.72
49
12.86
74
0
49
-12.86
74
0
0
ENDTAB
0
TABLE
2
LAYER
5
239
100
AcDbSymbolTable
0
LAYER
5
10
100
AcDbSymbolTableRecord
100
AcDbLayerTableRecord
2
0
70
0
62
7
6
Continuous
290
1
370
-3
390
0
0
LAYER
5
71
100
AcDbSymbolTableRecord
100
AcDbLayerTableRecord
2
81
70
0
62
-3
6
Continuous
290
1
370
-3
390
0
0
LAYER
5
73
100
AcDbSymbolTableRecord
100
AcDbLayerTableRecord
2
80
70
0
62
-6
6
Continuous
290
1
370
-3
390
0
0
LAYER
5
75
100
AcDbSymbolTableRecord
100
AcDbLayerTableRecord
2
1
70
0
62
4
6
Continuous
290
1
370
-3
390
0
0
LAYER
5
C4
100
AcDbSymbolTableRecord
100
AcDbLayerTableRecord
2
4
70
0
62
-2
6
CENTER
290
1
370
-3
390
0
0
LAYER
5
C9
100
AcDbSymbolTableRecord
100
AcDbLayerTableRecord
2
2
70
0
62
7
6
Continuous
290
1
370
-3
390
0
0
LAYER
5
170
100
AcDbSymbolTableRecord
100
AcDbLayerTableRecord
2
Defpoints
70
0
62
7
6
Continuous
290
0
370
-3
390
0
0
LAYER
5
223
100
AcDbSymbolTableRecord
100
AcDbLayerTableRecord
2
SK1
70
0
62
4
6
Continuous
290
1
370
-3
390
0
0
LAYER
5
224
100
AcDbSymbolTableRecord
100
AcDbLayerTableRecord
2
SK4
70
0
62
2
6
CENTER
290
1
370
-3
390
0
0
LAYER
5
225
100
AcDbSymbolTableRecord
100
AcDbLayerTableRecord
2
SK6
70
0
62
5
6
Continuous
290
1
370
-3
390
0
0
LAYER
5
226
100
AcDbSymbolTableRecord
100
AcDbLayerTableRecord
2
SK2
70
0
62
7
6
Continuous
290
1
370
-3
390
0
0
ENDTAB
0
TABLE
2
STYLE
5
23a
100
AcDbSymbolTable
0
STYLE
5
11
100
AcDbSymbolTableRecord
100
AcDbTextStyleTableRecord
2
Standard
3
txt
70
0
71
0
40
0
41
1
42
0
50
0
0
STYLE
5
161
100
AcDbSymbolTableRecord
100
AcDbTextStyleTableRecord
2
iso_b_vert
3
simplex.shx
70
0
71
0
40
0
41
1
42
0
50
0
0
STYLE
5
162
100
AcDbSymbolTableRecord
100
AcDbTextStyleTableRecord
2
DWGDirectTextStyle
3
simplex
70
0
71
0
40
0
41
1
42
0
50
0
0
ENDTAB
0
TABLE
2
DIMSTYLE
5
23b
100
AcDbSymbolTable
100
AcDbDimStyleTable
0
DIMSTYLE
105
27
100
AcDbSymbolTableRecord
100
AcDbDimStyleTableRecord
2
Standard
70
0
3
<>
41
0.18
42
0.0625
44
0.18
140
0.18
147
0.09
73
0
74
0
77
1
271
2
275
0
278
52
280
0
340
11
0
ENDTAB
0
TABLE
2
VIEW
5
23c
100
AcDbSymbolTable
0
ENDTAB
0
TABLE
2
UCS
5
23d
100
AcDbSymbolTable
0
ENDTAB
0
TABLE
2
APPID
5
23e
100
AcDbSymbolTable
0
APPID
5
12
100
AcDbSymbolTableRecord
100
AcDbRegAppTableRecord
2
ACAD
70
0
0
APPID
5
165
100
AcDbSymbolTableRecord
100
AcDbRegAppTableRecord
2
ACAD_DSTYLE_DIMBREAK
70
0
0
APPID
5
1E2
100
AcDbSymbolTableRecord
100
AcDbRegAppTableRecord
2
ACAD_DSTYLE_DIM_LINETYPE
70
0
0
APPID
5
1E3
100
AcDbSymbolTableRecord
100
AcDbRegAppTableRecord
2
ACAD_DSTYLE_DIM_EXT1_LINETYPE
70
0
0
APPID
5
1E4
100
AcDbSymbolTableRecord
100
AcDbRegAppTableRecord
2
ACAD_DSTYLE_DIM_EXT2_LINETYPE
70
0
0
APPID
5
21F
100
AcDbSymbolTableRecord
100
AcDbRegAppTableRecord
2
ACAD_MLEADERVER
70
0
0
ENDTAB
0
TABLE
2
BLOCK_RECORD
5
23f
100
AcDbSymbolTable
0
BLOCK_RECORD
5
1F
100
AcDbSymbolTableRecord
100
AcDbBlockTableRecord
2
*Model_Space
340
0
70
0
0
BLOCK_RECORD
5
1B
100
AcDbSymbolTableRecord
100
AcDbBlockTableRecord
2
*Paper_Space
340
0
70
0
0
BLOCK_RECORD
5
23
100
AcDbSymbolTableRecord
100
AcDbBlockTableRecord
2
*Paper_Space0
340
0
70
0
0
BLOCK_RECORD
5
167
100
AcDbSymbolTableRecord
100
AcDbBlockTableRecord
2
_Closed
340
0
70
0
0
BLOCK_RECORD
5
171
100
AcDbSymbolTableRecord
100
AcDbBlockTableRecord
2
*D2
340
0
70
0
0
BLOCK_RECORD
5
17D
100
AcDbSymbolTableRecord
100
AcDbBlockTableRecord
2
_U0
340
0
70
0
0
BLOCK_RECORD
5
18D
100
AcDbSymbolTableRecord
100
AcDbBlockTableRecord
2
*D4
340
0
70
0
0
BLOCK_RECORD
5
19A
100
AcDbSymbolTableRecord
100
AcDbBlockTableRecord
2
_U1
340
0
70
0
0
BLOCK_RECORD
5
1AB
100
AcDbSymbolTableRecord
100
AcDbBlockTableRecord
2
*D6
340
0
70
0
0
BLOCK_RECORD
5
1B7
100
AcDbSymbolTableRecord
100
AcDbBlockTableRecord
2
_U2
340
0
70
0
0
ENDTAB
0
ENDSEC
0
SECTION
2
BLOCKS
0
BLOCK
5
20
100
AcDbEntity
8
0
100
AcDbBlockBegin
2
*Model_Space
70
0
10
0
20
0
30
0
3
*Model_Space
0
ENDBLK
5
21
100
AcDbEntity
8
0
100
AcDbBlockEnd
0
BLOCK
5
1C
100
AcDbEntity
8
0
100
AcDbBlockBegin
2
*Paper_Space
70
0
10
0
20
0
30
0
3
*Paper_Space
0
ENDBLK
5
1D
100
AcDbEntity
8
0
100
AcDbBlockEnd
0
BLOCK
5
24
100
AcDbEntity
8
0
100
AcDbBlockBegin
2
*Paper_Space0
70
0
10
0
20
0
30
0
3
*Paper_Space0
0
ENDBLK
5
25
100
AcDbEntity
8
0
100
AcDbBlockEnd
0
BLOCK
5
168
100
AcDbEntity
8
0
100
AcDbBlockBegin
2
_Closed
70
0
10
0
20
0
30
0
3
_Closed
0
LINE
5
16A
100
AcDbEntity
8
0
62
256
6
ByLayer
370
-2
48
1
60
0
100
AcDbLine
10
-1
20
0.166667
30
0
11
0
21
0
31
0
39
0
210
0
220
0
230
1
0
LINE
5
16B
100
AcDbEntity
8
0
62
256
6
ByLayer
370
-2
48
1
60
0
100
AcDbLine
10
0
20
0
30
0
11
-1
21
-0.166667
31
0
39
0
210
0
220
0
230
1
0
LINE
5
16C
100
AcDbEntity
8
0
62
256
6
ByLayer
370
-2
48
1
60
0
100
AcDbLine
10
-1
20
0.166667
30
0
11
-1
21
-0.166667
31
0
39
0
210
0
220
0
230
1
0
LINE
5
16D
100
AcDbEntity
8
0
62
256
6
ByLayer
370
-2
48
1
60
0
100
AcDbLine
10
0
20
0
30
0
11
-1
21
0
31
0
39
0
210
0
220
0
230
1
0
ENDBLK
5
169
100
AcDbEntity
8
0
100
AcDbBlockEnd
0
BLOCK
5
172
100
AcDbEntity
8
0
100
AcDbBlockBegin
2
*D2
70
1
10
0
20
0
30
0
3
*D2
0
LINE
5
174
100
AcDbEntity
8
0
62
256
6
ByLayer
370
-2
48
1
60
0
100
AcDbLine
10
0
20
-17.5875
30
0
11
0
21
-51.675
31
0
39
0
210
0
220
0
230
1
0
LINE
5
175
100
AcDbEntity
8
0
62
256
6
ByLayer
370
-2
48
1
60
0
100
AcDbLine
10
45
20
-23.5875
30
0
11
45
21
-51.675
31
0
39
0
210
0
220
0
230
1
0
LINE
5
176
100
AcDbEntity
8
0
62
256
6
ByLayer
370
-2
48
1
60
0
100
AcDbLine
10
3.175
20
-48.5
30
0
11
41.825
21
-48.5
31
0
39
0
210
0
220
0
230
1
0
SOLID
5
177
100
AcDbEntity
8
0
62
256
6
ByLayer
370
-1
48
1
60
0
100
AcDbTrace
10
3.175
20
-47.970833
30
0
11
3.175
21
-49.029167
31
0
12
0
22
-48.5
32
0
13
0
23
-48.5
33
0
39
0
210
0
220
0
230
1
0
SOLID
5
178
100
AcDbEntity
8
0
62
256
6
ByLayer
370
-1
48
1
60
0
100
AcDbTrace
10
41.825
20
-49.029167
30
0
11
41.825
21
-47.970833
31
0
12
45
22
-48.5
32
0
13
45
23
-48.5
33
0
39
0
210
0
220
0
230
1
0
MTEXT
5
179
100
AcDbEntity
8
0
62
256
6
ByLayer
370
18
48
1
60
0
100
AcDbMText
10
22.5
20
-39.10625
30
0
210
0
220
0
230
1
1
\A1;45
40
4.5
41
0
44
1
50
0
71
5
72
5
7
iso_b_vert
0
POINT
5
17A
100
AcDbEntity
8
Defpoints
62
0
6
ByLayer
370
-1
48
1
60
0
100
AcDbPoint
10
0
20
-16
30
0
39
0
210
0
220
0
230
1
50
360
0
POINT
5
17B
100
AcDbEntity
8
Defpoints
62
0
6
ByLayer
370
-1
48
1
60
0
100
AcDbPoint
10
45
20
-22
30
0
39
0
210
0
220
0
230
1
50
360
0
POINT
5
17C
100
AcDbEntity
8
Defpoints
62
0
6
ByLayer
370
-1
48
1
60
0
100
AcDbPoint
10
45
20
-48.5
30
0
39
0
210
0
220
0
230
1
50
360
0
ENDBLK
5
173
100
AcDbEntity
8
0
100
AcDbBlockEnd
0
BLOCK
5
188
100
AcDbEntity
8
0
100
AcDbBlockBegin
2
_U0
70
0
10
0
20
0
30
0
3
_U0
0
MTEXT
5
17E
100
AcDbEntity
8
2
62
256
6
ByLayer
370
13
48
1
60
0
100
AcDbMText
10
17.220901
20
-47.172328
30
0
210
0
220
0
230
1
1
\W0.7640;45.0
40
4.5
41
0
44
1.084337
50
0
71
7
72
5
7
iso_b_vert
0
LINE
5
17F
100
AcDbEntity
8
2
62
256
6
ByLayer
370
13
48
1
60
0
100
AcDbLine
10
0
20
-17.5875
30
0
11
0
21
-51.675
31
0
39
0
210
0
220
0
230
1
0
LINE
5
180
100
AcDbEntity
8
2
62
256
6
ByLayer
370
13
48
1
60
0
100
AcDbLine
10
45
20
-23.5875
30
0
11
45
21
-51.675
31
0
39
0
210
0
220
0
230
1
0
LINE
5
181
100
AcDbEntity
8
2
62
256
6
ByLayer
370
13
48
1
60
0
100
AcDbLine
10
0
20
-48.5
30
0
11
45
21
-48.5
31
0
39
0
210
0
220
0
230
1
0
LINE
5
182
100
AcDbEntity
8
2
62
256
6
ByLayer
370
13
48
1
60
0
100
AcDbLine
10
0
20
-48.5
30
0
11
3.174997
21
-47.649261
31
0
39
0
210
0
220
0
230
1
0
LINE
5
183
100
AcDbEntity
8
2
62
256
6
ByLayer
370
13
48
1
60
0
100
AcDbLine
10
0
20
-48.5
30
0
11
3.175003
21
-49.350739
31
0
39
0
210
0
220
0
230
1
0
LINE
5
184
100
AcDbEntity
8
2
62
256
6
ByLayer
370
13
48
1
60
0
100
AcDbLine
10
3.174997
20
-47.649261
30
0
11
3.175003
21
-49.350739
31
0
39
0
210
0
220
0
230
1
0
LINE
5
185
100
AcDbEntity
8
2
62
256
6
ByLayer
370
13
48
1
60
0
100
AcDbLine
10
45
20
-48.5
30
0
11
41.825003
21
-49.350739
31
0
39
0
210
0
220
0
230
1
0
LINE
5
186
100
AcDbEntity
8
2
62
256
6
ByLayer
370
13
48
1
60
0
100
AcDbLine
10
45
20
-48.5
30
0
11
41.824997
21
-47.649261
31
0
39
0
210
0
220
0
230
1
0
LINE
5
187
100
AcDbEntity
8
2
62
256
6
ByLayer
370
13
48
1
60
0
100
AcDbLine
10
41.825003
20
-49.350739
30
0
11
41.824997
21
-47.649261
31
0
39
0
210
0
220
0
230
1
0
ENDBLK
5
189
100
AcDbEntity
8
0
100
AcDbBlockEnd
0
BLOCK
5
18E
100
AcDbEntity
8
0
100
AcDbBlockBegin
2
*D4
70
1
10
0
20
0
30
0
3
*D4
0
LINE
5
190
100
AcDbEntity
8
0
62
256
6
ByLayer
370
-2
48
1
60
0
100
AcDbLine
10
-1.5875
20
16
30
0
11
-32.9
21
16
31
0
39
0
210
0
220
0
230
1
0
LINE
5
191
100
AcDbEntity
8
0
62
256
6
ByLayer
370
-2
48
1
60
0
100
AcDbLine
10
-1.5875
20
-16
30
0
11
-32.9
21
-16
31
0
39
0
210
0
220
0
230
1
0
LINE
5
192
100
AcDbEntity
8
0
62
256
6
ByLayer
370
-2
48
1
60
0
100
AcDbLine
10
-29.725
20
12.825
30
0
11
-29.725
21
-12.825
31
0
39
0
210
0
220
0
230
1
0
SOLID
5
193
100
AcDbEntity
8
0
62
256
6
ByLayer
370
-1
48
1
60
0
100
AcDbTrace
10
-29.195833
20
12.825
30
0
11
-30.254167
21
12.825
31
0
12
-29.725
22
16
32
0
13
-29.725
23
16
33
0
39
0
210
0
220
0
230
1
0
SOLID
5
194
100
AcDbEntity
8
0
62
256
6
ByLayer
370
-1
48
1
60
0
100
AcDbTrace
10
-30.254167
20
-12.825
30
0
11
-29.195833
21
-12.825
31
0
12
-29.725
22
-16
32
0
13
-29.725
23
-16
33
0
39
0
210
0
220
0
230
1
0
MTEXT
5
195
100
AcDbEntity
8
0
62
256
6
ByLayer
370
18
48
1
60
0
100
AcDbMText
10
-39.11875
20
0
30
0
210
0
220
0
230
1
1
\A1;32
40
4.5
41
0
44
1
50
90
71
5
72
5
7
iso_b_vert
0
POINT
5
196
100
AcDbEntity
8
Defpoints
62
0
6
ByLayer
370
-1
48
1
60
0
100
AcDbPoint
10
0
20
16
30
0
39
0
210
0
220
0
230
1
50
360
0
POINT
5
197
100
AcDbEntity
8
Defpoints
62
0
6
ByLayer
370
-1
48
1
60
0
100
AcDbPoint
10
0
20
-16
30
0
39
0
210
0
220
0
230
1
50
360
0
POINT
5
198
100
AcDbEntity
8
Defpoints
62
0
6
ByLayer
370
-1
48
1
60
0
100
AcDbPoint
10
-29.725
20
-16
30
0
39
0
210
0
220
0
230
1
50
360
0
ENDBLK
5
18F
100
AcDbEntity
8
0
100
AcDbBlockEnd
0
BLOCK
5
1A6
100
AcDbEntity
8
0
100
AcDbBlockBegin
2
_U1
70
0
10
0
20
0
30
0
3
_U1
0
MTEXT
5
19B
100
AcDbEntity
8
SK2
62
256
6
ByLayer
370
13
48
1
60
0
100
AcDbMText
10
-31.736672
20
1.671816
30
0
210
0
220
0
230
1
1
\W0.7346;32.0
40
4.5
41
0
44
1.084337
50
90
71
7
72
5
7
iso_b_vert
0
MTEXT
5
19C
100
AcDbEntity
8
SK2
62
256
6
ByLayer
370
13
48
1
60
0
100
AcDbMText
10
-31.736672
20
-11.828184
30
0
210
0
220
0
230
1
1
%%c
40
4.5
41
0
44
1.084337
50
90
71
7
72
5
7
iso_b_vert
0
LINE
5
19D
100
AcDbEntity
8
SK2
62
256
6
ByLayer
370
13
48
1
60
0
100
AcDbLine
10
-1.5875
20
16
30
0
11
-32.9
21
16
31
0
39
0
210
0
220
0
230
1
0
LINE
5
19E
100
AcDbEntity
8
SK2
62
256
6
ByLayer
370
13
48
1
60
0
100
AcDbLine
10
-1.5875
20
-16
30
0
11
-32.9
21
-16
31
0
39
0
210
0
220
0
230
1
0
LINE
5
19F
100
AcDbEntity
8
SK2
62
256
6
ByLayer
370
13
48
1
60
0
100
AcDbLine
10
-29.725
20
16
30
0
11
-29.725
21
-16
31
0
39
0
210
0
220
0
230
1
0
LINE
5
1A0
100
AcDbEntity
8
SK2
62
256
6
ByLayer
370
13
48
1
60
0
100
AcDbLine
10
-29.725
20
16
30
0
11
-28.874261
21
12.825003
31
0
39
0
210
0
220
0
230
1
0
LINE
5
1A1
100
AcDbEntity
8
SK2
62
256
6
ByLayer
370
13
48
1
60
0
100
AcDbLine
10
-29.725
20
16
30
0
11
-30.575739
21
12.824997
31
0
39
0
210
0
220
0
230
1
0
LINE
5
1A2
100
AcDbEntity
8
SK2
62
256
6
ByLayer
370
13
48
1
60
0
100
AcDbLine
10
-28.874261
20
12.825003
30
0
11
-30.575739
21
12.824997
31
0
39
0
210
0
220
0
230
1
0
LINE
5
1A3
100
AcDbEntity
8
SK2
62
256
6
ByLayer
370
13
48
1
60
0
100
AcDbLine
10
-29.725
20
-16
30
0
11
-30.575739
21
-12.825003
31
0
39
0
210
0
220
0
230
1
0
LINE
5
1A4
100
AcDbEntity
8
SK2
62
256
6
ByLayer
370
13
48
1
60
0
100
AcDbLine
10
-29.725
20
-16
30
0
11
-28.874261
21
-12.824997
31
0
39
0
210
0
220
0
230
1
0
LINE
5
1A5
100
AcDbEntity
8
SK2
62
256
6
ByLayer
370
13
48
1
60
0
100
AcDbLine
10
-30.575739
20
-12.825003
30
0
11
-28.874261
21
-12.824997
31
0
39
0
210
0
220
0
230
1
0
ENDBLK
5
1A7
100
AcDbEntity
8
0
100
AcDbBlockEnd
0
BLOCK
5
1AC
100
AcDbEntity
8
0
100
AcDbBlockBegin
2
*D6
70
1
10
0
20
0
30
0
3
*D6
0
LINE
5
1AE
100
AcDbEntity
8
0
62
256
6
ByLayer
370
-2
48
1
60
0
100
AcDbLine
10
46.5875
20
-22
30
0
11
74.025
21
-22
31
0
39
0
210
0
220
0
230
1
0
LINE
5
1AF
100
AcDbEntity
8
0
62
256
6
ByLayer
370
-2
48
1
60
0
100
AcDbLine
10
46.5875
20
0
30
0
11
74.025
21
0
31
0
39
0
210
0
220
0
230
1
0
LINE
5
1B0
100
AcDbEntity
8
0
62
256
6
ByLayer
370
-2
48
1
60
0
100
AcDbLine
10
70.85
20
-18.825
30
0
11
70.85
21
-3.175
31
0
39
0
210
0
220
0
230
1
0
SOLID
5
1B1
100
AcDbEntity
8
0
62
256
6
ByLayer
370
-1
48
1
60
0
100
AcDbTrace
10
70.320833
20
-18.825
30
0
11
71.379167
21
-18.825
31
0
12
70.85
22
-22
32
0
13
70.85
23
-22
33
0
39
0
210
0
220
0
230
1
0
SOLID
5
1B2
100
AcDbEntity
8
0
62
256
6
ByLayer
370
-1
48
1
60
0
100
AcDbTrace
10
71.379167
20
-3.175
30
0
11
70.320833
21
-3.175
31
0
12
70.85
22
0
32
0
13
70.85
23
0
33
0
39
0
210
0
220
0
230
1
0
MTEXT
5
1B3
100
AcDbEntity
8
0
62
256
6
ByLayer
370
18
48
1
60
0
100
AcDbMText
10
61.45625
20
-11
30
0
210
0
220
0
230
1
1
\A1;22
40
4.5
41
0
44
1
50
90
71
5
72
5
7
iso_b_vert
0
POINT
5
1B4
100
AcDbEntity
8
Defpoints
62
0
6
ByLayer
370
-1
48
1
60
0
100
AcDbPoint
10
45
20
-22
30
0
39
0
210
0
220
0
230
1
50
360
0
POINT
5
1B5
100
AcDbEntity
8
Defpoints
62
0
6
ByLayer
370
-1
48
1
60
0
100
AcDbPoint
10
45
20
0
30
0
39
0
210
0
220
0
230
1
50
360
0
POINT
5
1B6
100
AcDbEntity
8
Defpoints
62
0
6
ByLayer
370
-1
48
1
60
0
100
AcDbPoint
10
70.85
20
0
30
0
39
0
210
0
220
0
230
1
50
360
0
ENDBLK
5
1AD
100
AcDbEntity
8
0
100
AcDbBlockEnd
0
BLOCK
5
1C2
100
AcDbEntity
8
0
100
AcDbBlockBegin
2
_U2
70
0
10
0
20
0
30
0
3
_U2
0
MTEXT
5
1B8
100
AcDbEntity
8
2
62
256
6
ByLayer
370
13
48
1
60
0
100
AcDbMText
10
69.963328
20
-16.078184
30
0
210
0
220
0
230
1
1
\W0.7346;22.0
40
4.5
41
0
44
1.084337
50
90
71
7
72
5
7
iso_b_vert
0
LINE
5
1B9
100
AcDbEntity
8
2
62
256
6
ByLayer
370
13
48
1
60
0
100
AcDbLine
10
46.5875
20
-22
30
0
11
74.025
21
-22
31
0
39
0
210
0
220
0
230
1
0
LINE
5
1BA
100
AcDbEntity
8
2
62
256
6
ByLayer
370
13
48
1
60
0
100
AcDbLine
10
46.5875
20
0
30
0
11
74.025
21
0
31
0
39
0
210
0
220
0
230
1
0
LINE
5
1BB
100
AcDbEntity
8
2
62
256
6
ByLayer
370
13
48
1
60
0
100
AcDbLine
10
70.85
20
-22
30
0
11
70.85
21
0
31
0
39
0
210
0
220
0
230
1
0
LINE
5
1BC
100
AcDbEntity
8
2
62
256
6
ByLayer
370
13
48
1
60
0
100
AcDbLine
10
70.85
20
-22
30
0
11
69.999261
21
-18.825003
31
0
39
0
210
0
220
0
230
1
0
LINE
5
1BD
100
AcDbEntity
8
2
62
256
6
ByLayer
370
13
48
1
60
0
100
AcDbLine
10
70.85
20
-22
30
0
11
71.700739
21
-18.824997
31
0
39
0
210
0
220
0
230
1
0
LINE
5
1BE
100
AcDbEntity
8
2
62
256
6
ByLayer
370
13
48
1
60
0
100
AcDbLine
10
69.999261
20
-18.825003
30
0
11
71.700739
21
-18.824997
31
0
39
0
210
0
220
0
230
1
0
LINE
5
1BF
100
AcDbEntity
8
2
62
256
6
ByLayer
370
13
48
1
60
0
100
AcDbLine
10
70.85
20
0
30
0
11
71.700739
21
-3.174997
31
0
39
0
210
0
220
0
230
1
0
LINE
5
1C0
100
AcDbEntity
8
2
62
256
6
ByLayer
370
13
48
1
60
0
100
AcDbLine
10
70.85
20
0
30
0
11
69.999261
21
-3.175003
31
0
39
0
210
0
220
0
230
1
0
LINE
5
1C1
100
AcDbEntity
8
2
62
256
6
ByLayer
370
13
48
1
60
0
100
AcDbLine
10
71.700739
20
-3.174997
30
0
11
69.999261
21
-3.175003
31
0
39
0
210
0
220
0
230
1
0
ENDBLK
5
1C3
100
AcDbEntity
8
0
100
AcDbBlockEnd
0
ENDSEC
0
SECTION
2
ENTITIES
0
ARC
5
D1
100
AcDbEntity
8
1
62
256
6
ByLayer
370
18
48
1
60
0
100
AcDbCircle
39
0
10
35.38968
20
-13.12683
30
0
40
1.6764
210
0
220
0
230
1
100
AcDbArc
50
167.5
51
227.5
0
ARC
5
D2
100
AcDbEntity
8
1
62
256
6
ByLayer
370
18
48
1
60
0
100
AcDbCircle
39
0
10
35.38968
20
-13.12683
30
0
40
1.6764
210
0
220
0
230
1
100
AcDbArc
50
347.5
51
47.5
0
ARC
5
D3
100
AcDbEntity
8
1
62
256
6
ByLayer
370
18
48
1
60
0
100
AcDbCircle
39
0
10
35.38968
20
-13.12683
30
0
40
1.6764
210
0
220
0
230
1
100
AcDbArc
50
107.5
51
167.5
0
ARC
5
D4
100
AcDbEntity
8
1
62
256
6
ByLayer
370
18
48
1
60
0
100
AcDbCircle
39
0
10
35.38968
20
-13.12683
30
0
40
1.6764
210
0
220
0
230
1
100
AcDbArc
50
227.5
51
287.5
0
ARC
5
D5
100
AcDbEntity
8
1
62
256
6
ByLayer
370
18
48
1
60
0
100
AcDbCircle
39
0
10
35.38968
20
-13.12683
30
0
40
1.2903
210
0
220
0
230
1
100
AcDbArc
50
137.5
51
197.5
0
ARC
5
D6
100
AcDbEntity
8
1
62
256
6
ByLayer
370
18
48
1
60
0
100
AcDbCircle
39
0
10
35.38968
20
-13.12683
30
0
40
1.2903
210
0
220
0
230
1
100
AcDbArc
50
257.5
51
317.5
0
ARC
5
D7
100
AcDbEntity
8
1
62
256
6
ByLayer
370
18
48
1
60
0
100
AcDbCircle
39
0
10
35.38968
20
-13.12683
30
0
40
1.2903
210
0
220
0
230
1
100
AcDbArc
50
77.5
51
137.5
0
ARC
5
D8
100
AcDbEntity
8
1
62
256
6
ByLayer
370
18
48
1
60
0
100
AcDbCircle
39
0
10
35.38968
20
-13.12683
30
0
40
1.2903
210
0
220
0
230
1
100
AcDbArc
50
17.5
51
77.5
0
ARC
5
D9
100
AcDbEntity
8
1
62
256
6
ByLayer
370
18
48
1
60
0
100
AcDbCircle
39
0
10
35.38968
20
-13.12683
30
0
40
1.6764
210
0
220
0
230
1
100
AcDbArc
50
287.5
51
347.5
0
ARC
5
DA
100
AcDbEntity
8
1
62
256
6
ByLayer
370
18
48
1
60
0
100
AcDbCircle
39
0
10
35.38968
20
-13.12683
30
0
40
1.6764
210
0
220
0
230
1
100
AcDbArc
50
47.5
51
107.5
0
ARC
5
DB
100
AcDbEntity
8
1
62
256
6
ByLayer
370
18
48
1
60
0
100
AcDbCircle
39
0
10
35.38968
20
-13.12683
30
0
40
1.2903
210
0
220
0
230
1
100
AcDbArc
50
197.5
51
257.5
0
ARC
5
DC
100
AcDbEntity
8
1
62
256
6
ByLayer
370
18
48
1
60
0
100
AcDbCircle
39
0
10
35.38968
20
-13.12683
30
0
40
1.2903
210
0
220
0
230
1
100
AcDbArc
50
317.5
51
17.5
0
ARC
5
DF
100
AcDbEntity
8
1
62
256
6
ByLayer
370
13
48
1
60
0
100
AcDbCircle
39
0
10
23.99295
20
-16.720205
30
0
40
0.8
210
0
220
0
230
1
100
AcDbArc
50
125
51
270
0
ARC
5
E1
100
AcDbEntity
8
1
62
256
6
ByLayer
370
13
48
1
60
0
100
AcDbCircle
39
0
10
44.2
20
-21.2
30
0
40
0.8
210
0
220
0
230
1
100
AcDbArc
50
245
51
30
0
ARC
5
E2
100
AcDbEntity
8
1
62
256
6
ByLayer
370
13
48
1
60
0
100
AcDbCircle
39
0
10
49.357734
20
-12.533458
30
0
40
8
210
0
220
0
230
1
100
AcDbArc
50
197.5
51
210
0
ARC
5
E3
100
AcDbEntity
8
1
62
256
6
ByLayer
370
13
48
1
60
0
100
AcDbCircle
39
0
10
27.891779
20
-1.326826
30
0
40
8
210
0
220
0
230
1
100
AcDbArc
50
317.5
51
330
0
ARC
5
E4
100
AcDbEntity
8
1
62
256
6
ByLayer
370
13
48
1
60
0
100
AcDbCircle
39
0
10
47.171984
20
-5.601145
30
0
40
8
210
0
220
0
230
1
100
AcDbArc
50
185
51
197.5
0
ARC
5
E5
100
AcDbEntity
8
1
62
256
6
ByLayer
370
13
48
1
60
0
100
AcDbCircle
39
0
10
28.919529
20
-25.520205
30
0
40
8
210
0
220
0
230
1
100
AcDbArc
50
77.5
51
90
0
ARC
5
E6
100
AcDbEntity
8
1
62
256
6
ByLayer
370
13
48
1
60
0
100
AcDbCircle
39
0
10
22.981094
20
-6.685898
30
0
40
8
210
0
220
0
230
1
100
AcDbArc
50
305
51
317.5
0
ARC
5
E7
100
AcDbEntity
8
1
62
256
6
ByLayer
370
13
48
1
60
0
100
AcDbCircle
39
0
10
36.015963
20
-27.093446
30
0
40
8
210
0
220
0
230
1
100
AcDbArc
50
65
51
77.5
0
ARC
5
E8
100
AcDbEntity
8
1
62
256
6
ByLayer
370
13
48
1
60
0
100
AcDbCircle
39
0
10
37.976091
20
-1.460284
30
0
40
0.8
210
0
220
0
230
1
100
AcDbArc
50
5
51
150
0
ARC
5
EB
100
AcDbEntity
8
1
62
256
6
ByLayer
370
18
48
1
60
0
100
AcDbCircle
39
0
10
-0.119087
20
19.410961
30
0
40
39.8722183614811
210
0
220
0
230
1
100
AcDbArc
50
311.281423
51
321.3143
0
ARC
5
EC
100
AcDbEntity
8
1
62
256
6
ByLayer
370
18
48
1
60
0
100
AcDbCircle
39
0
10
24.291961
20
-8.393728
30
0
40
2.87221836148108
210
0
220
0
230
1
100
AcDbArc
50
286.923456
51
311.281423
0
ARC
5
ED
100
AcDbEntity
8
1
62
256
6
ByLayer
370
18
48
1
60
0
100
AcDbCircle
39
0
10
28.762611
20
-3.71581
30
0
40
2.87221836148108
210
0
220
0
230
1
100
AcDbArc
50
321.3143
51
37.45372
0
ARC
5
EE
100
AcDbEntity
8
1
62
256
6
ByLayer
370
18
48
1
60
0
100
AcDbCircle
39
0
10
24.291961
20
-8.393728
30
0
40
4.46612987842788
210
0
220
0
230
1
100
AcDbArc
50
286.923456
51
311.281423
0
ARC
5
EF
100
AcDbEntity
8
1
62
256
6
ByLayer
370
18
48
1
60
0
100
AcDbCircle
39
0
10
-87.932575
20
-93.109509
30
0
40
149.072096106009
210
0
220
0
230
1
100
AcDbArc
50
38.026932
51
41.663108
0
ARC
5
F0
100
AcDbEntity
8
1
62
256
6
ByLayer
370
18
48
1
60
0
100
AcDbCircle
39
0
10
-0.119087
20
19.410961
30
0
40
41.4661298784279
210
0
220
0
230
1
100
AcDbArc
50
311.281423
51
321.3143
0
ARC
5
F1
100
AcDbEntity
8
1
62
256
6
ByLayer
370
18
48
1
60
0
100
AcDbCircle
39
0
10
-87.932575
20
-93.109509
30
0
40
149.872218361481
210
0
220
0
230
1
100
AcDbArc
50
37.45372
51
46.216789
0
ARC
5
F2
100
AcDbEntity
8
1
62
256
6
ByLayer
370
18
48
1
60
0
100
AcDbCircle
39
0
10
-87.932575
20
-93.109509
30
0
40
151.466129878428
210
0
220
0
230
1
100
AcDbArc
50
37.45372
51
43.346993
0
ARC
5
F3
100
AcDbEntity
8
1
62
256
6
ByLayer
370
18
48
1
60
0
100
AcDbCircle
39
0
10
36.808997
20
-49.531592
30
0
40
38.5338701215721
210
0
220
0
230
1
100
AcDbArc
50
106.923456
51
120.960035
0
ARC
5
F4
100
AcDbEntity
8
1
62
256
6
ByLayer
370
18
48
1
60
0
100
AcDbCircle
39
0
10
36.808997
20
-49.531592
30
0
40
40.1277816385189
210
0
220
0
230
1
100
AcDbArc
50
106.923456
51
123.120693
0
ARC
5
F5
100
AcDbEntity
8
1
62
256
6
ByLayer
370
18
48
1
60
0
100
AcDbCircle
39
0
10
28.762611
20
-3.71581
30
0
40
4.46612987842788
210
0
220
0
230
1
100
AcDbArc
50
321.3143
51
37.45372
0
ARC
5
F6
100
AcDbEntity
8
SK1
62
256
6
ByLayer
370
18
48
1
60
0
100
AcDbCircle
39
0
10
-0.6
20
11.8
30
0
40
0.999999999999996
210
0
220
0
230
1
100
AcDbArc
50
293.578178
51
306.869898
0
ARC
5
F7
100
AcDbEntity
8
SK1
62
256
6
ByLayer
370
18
48
1
60
0
100
AcDbCircle
39
0
10
-0.6
20
-11.8
30
0
40
0.999999999999996
210
0
220
0
230
1
100
AcDbArc
50
53.130102
51
66.421822
0
ARC
5
F8
100
AcDbEntity
8
2
62
256
6
ByLayer
370
13
48
1
60
0
100
AcDbCircle
39
0
10
45
20
-21.022644
30
0
40
21.9986417538148
210
0
220
0
230
1
100
AcDbArc
50
90
51
115
0
CIRCLE
5
DD
100
AcDbEntity
8
1
62
256
6
ByLayer
370
18
48
1
60
0
100
AcDbCircle
10
35.38968
20
-13.12683
30
0
40
2.625
39
0
210
0
220
0
230
1
0
CIRCLE
5
DE
100
AcDbEntity
8
1
62
256
6
ByLayer
370
18
48
1
60
0
100
AcDbCircle
10
35.38968
20
-13.12683
30
0
40
1.8
39
0
210
0
220
0
230
1
0
CIRCLE
5
E0
100
AcDbEntity
8
1
62
256
6
ByLayer
370
13
48
1
60
0
100
AcDbCircle
10
35.38968
20
-13.12683
30
0
40
3
39
0
210
0
220
0
230
1
0
CIRCLE
5
E9
100
AcDbEntity
8
1
62
256
6
ByLayer
370
13
48
1
60
0
100
AcDbCircle
10
35.38968
20
-13.12683
30
0
40
2.87330486655119
39
0
210
0
220
0
230
1
0
CIRCLE
5
EA
100
AcDbEntity
8
1
62
256
6
ByLayer
370
13
48
1
60
0
100
AcDbCircle
10
35.38968
20
-13.12683
30
0
40
3.06293413074916
39
0
210
0
220
0
230
1
0
ELLIPSE
5
F9
100
AcDbEntity
8
1
62
256
6
ByLayer
370
18
48
1
60
0
100
AcDbEllipse
10
-0.928203
20
0
30
0
11
7.49393430382558
21
-15.7933993221998
31
0
210
0
220
0
230
1
40
0.341999
41
0.161466571197712
42
1.08757920120053
0
ELLIPSE
5
FA
100
AcDbEntity
8
1
62
256
6
ByLayer
370
18
48
1
60
0
100
AcDbEllipse
10
-0.928203
20
0
30
0
11
7.49393430382552
21
15.7933993221997
31
0
210
0
220
0
230
1
40
0.341999
41
-1.08757920120053
42
-0.161466571197722
0
ELLIPSE
5
FB
100
AcDbEntity
8
1
62
256
6
ByLayer
370
18
48
1
60
0
100
AcDbEllipse
10
12.928203
20
0
30
0
11
7.49393430382482
21
-15.7933993221995
31
0
210
0
220
0
230
1
40
0.341999
41
-2.98012608239207
42
-2.05401345238922
0
ELLIPSE
5
FC
100
AcDbEntity
8
1
62
256
6
ByLayer
370
18
48
1
60
0
100
AcDbEllipse
10
16.399819
20
0
30
0
11
9.79685083058098E-16
21
16.0000000000032
31
0
210
0
220
0
230
1
40
0.087489
41
1.28482560257623
42
2.02789799328835
0
ELLIPSE
5
FD
100
AcDbEntity
8
1
62
256
6
ByLayer
370
18
48
1
60
0
100
AcDbEllipse
10
12.928203
20
0
30
0
11
7.49393430382539
21
15.7933993222002
31
0
210
0
220
0
230
1
40
0.341999
41
2.05401345238926
42
2.98012608239207
0
ELLIPSE
5
FE
100
AcDbEntity
8
1
62
256
6
ByLayer
370
18
48
1
60
0
100
AcDbEllipse
10
30.487161
20
-11.275171
30
0
11
-0.580702955710933
21
0.814115518356319
31
0
210
0
220
0
230
1
40
0.082518
41
0.604595897445948
42
0.882592188079123
0
ELLIPSE
5
FF
100
AcDbEntity
8
1
62
256
6
ByLayer
370
18
48
1
60
0
100
AcDbEllipse
10
33.117786
20
-8.404348
30
0
11
0.861629160441521
21
-0.507538362960704
31
0
210
0
220
0
230
1
40
0.082518
41
2.25900058762334
42
2.5369969212797
0
POINT
5
70
100
AcDbEntity
8
81
62
256
6
ByLayer
370
18
48
1
60
0
100
AcDbPoint
10
45
20
-22
30
0
39
0
210
0
220
0
230
1
50
360
0
POINT
5
72
100
AcDbEntity
8
80
62
256
6
ByLayer
370
18
48
1
60
0
100
AcDbPoint
10
0
20
0
30
0
39
0
210
0
220
0
230
1
50
360
0
POINT
5
74
100
AcDbEntity
8
1
62
256
6
ByLayer
370
18
48
1
60
1
100
AcDbPoint
10
0
20
-16
30
0
39
0
210
0
220
0
230
1
50
360
0
POINT
5
76
100
AcDbEntity
8
1
62
256
6
ByLayer
370
18
48
1
60
1
100
AcDbPoint
10
45
20
-22
30
0
39
0
210
0
220
0
230
1
50
360
0
POINT
5
77
100
AcDbEntity
8
1
62
256
6
ByLayer
370
18
48
1
60
1
100
AcDbPoint
10
0
20
16
30
0
39
0
210
0
220
0
230
1
50
360
0
POINT
5
78
100
AcDbEntity
8
1
62
256
6
ByLayer
370
18
48
1
60
1
100
AcDbPoint
10
0
20
-16
30
0
39
0
210
0
220
0
230
1
50
360
0
POINT
5
79
100
AcDbEntity
8
1
62
256
6
ByLayer
370
18
48
1
60
1
100
AcDbPoint
10
45
20
-22
30
0
39
0
210
0
220
0
230
1
50
360
0
POINT
5
7A
100
AcDbEntity
8
1
62
256
6
ByLayer
370
18
48
1
60
1
100
AcDbPoint
10
45
20
0
30
0
39
0
210
0
220
0
230
1
50
360
0
SPLINE
5
100
100
AcDbEntity
8
1
62
256
6
ByLayer
370
18
48
1
60
0
100
AcDbSpline
70
4
71
3
72
8
73
4
40
0
40
0
40
0
40
0
40
1
40
1
40
1
40
1
41
1
10
35.3235810177
20
-11.6316721038574
30
0
41
1
10
35.3257249354322
20
-11.6379854189691
30
0
41
1
10
35.3278691270217
20
-11.6442995405238
30
0
41
1
10
35.3300136031446
20
-11.6506144999602
30
0
0
SPLINE
5
101
100
AcDbEntity
8
1
62
256
6
ByLayer
370
18
48
1
60
0
100
AcDbSpline
70
4
71
3
72
16
73
12
40
0
40
0
40
0
40
0
40
0.25
40
0.25
40
0.5
40
0.5
40
0.75
40
0.75
40
0.875
40
0.875
40
1
40
1
40
1
40
1
41
1
10
37.0263431046987
20
-13.4896689380754
30
0
41
1
10
37.0167711416309
20
-13.532845273282
30
0
41
1
10
37.0036580145909
20
-13.5754305018099
30
0
41
1
10
36.9699515967299
20
-13.6572352162507
30
0
41
1
10
36.9493621227544
20
-13.6967018547855
30
0
41
1
10
36.8982413449495
20
-13.768000942526
30
0
41
1
10
36.8676972087499
20
-13.8003617558114
30
0
41
1
10
36.8121218163291
20
-13.8292964307103
30
0
41
1
10
36.7917237674025
20
-13.83518401566
30
0
41
1
10
36.7523698410542
20
-13.8346267159101
30
0
41
1
10
36.7335892661014
20
-13.8281950817342
30
0
41
1
10
36.7175745563991
20
-13.8171644898651
30
0
0
SPLINE
5
102
100
AcDbEntity
8
1
62
256
6
ByLayer
370
18
48
1
60
0
100
AcDbSpline
70
4
71
3
72
18
73
14
40
0
40
0
40
0
40
0
40
0.124999999999999
40
0.124999999999999
40
0.249999999999999
40
0.249999999999999
40
0.499999999999998
40
0.499999999999998
40
0.749999999999996
40
0.749999999999996
40
0.874999999999998
40
0.874999999999998
40
1
40
1
40
1
40
1
41
1
10
34.0814072892824
20
-12.4403950643183
30
0
41
1
10
34.1127585189957
20
-12.4466273419239
30
0
41
1
10
34.1457749209608
20
-12.4421756863885
30
0
41
1
10
34.2104462999445
20
-12.4233574385316
30
0
41
1
10
34.2421236546996
20
-12.4087407298026
30
0
41
1
10
34.3333783382556
20
-12.3558119255063
30
0
41
1
10
34.3892146610446
20
-12.3087509910304
30
0
41
1
10
34.487428959065
20
-12.2015885688488
30
0
41
1
10
34.5295780237659
20
-12.1416422382609
30
0
41
1
10
34.5742659250036
20
-12.0463196150619
30
0
41
1
10
34.5860634751669
20
-12.013566376862
30
0
41
1
10
34.5992248455522
20
-11.9473498935602
30
0
41
1
10
34.6007711710307
20
-11.9140352040253
30
0
41
1
10
34.591834542432
20
-11.8833614637787
30
0
0
SPLINE
5
103
100
AcDbEntity
8
1
62
256
6
ByLayer
370
18
48
1
60
0
100
AcDbSpline
70
4
71
3
72
16
73
12
40
0
40
0
40
0
40
0
40
0.125000000000008
40
0.125000000000008
40
0.250000000000017
40
0.250000000000017
40
0.500000000000011
40
0.500000000000011
40
0.750000000000006
40
0.750000000000006
40
1
40
1
40
1
40
1
41
1
10
36.1931220608292
20
-14.3895039566876
30
0
41
1
10
36.2054604154265
20
-14.4044406149943
30
0
41
1
10
36.2134740451953
20
-14.4224797964647
30
0
41
1
10
36.2175506921717
20
-14.4613725961492
30
0
41
1
10
36.2136492944158
20
-14.4819733415459
30
0
41
1
10
36.1896625745774
20
-14.5403925502156
30
0
41
1
10
36.1600316229756
20
-14.5736356188589
30
0
41
1
10
36.093323829122
20
-14.6309171765854
30
0
41
1
10
36.0558248539381
20
-14.654846612638
30
0
41
1
10
35.9771788041318
20
-14.695598489697
30
0
41
1
10
35.9359906554127
20
-14.7123328574795
30
0
41
1
10
35.8937836806518
20
-14.7256406655038
30
0
0
SPLINE
5
104
100
AcDbEntity
8
1
62
256
6
ByLayer
370
18
48
1
60
0
100
AcDbSpline
70
4
71
3
72
8
73
4
40
0
40
0
40
0
40
0
40
1
40
1
40
1
40
1
41
1
10
34.591834542432
20
-11.8833614637787
30
0
41
1
10
34.5899690825028
20
-11.8769585308744
30
0
41
1
10
34.5881038700867
20
-11.8705564475241
30
0
41
1
10
34.5862388958965
20
-11.8641551818515
30
0
0
SPLINE
5
105
100
AcDbEntity
8
1
62
256
6
ByLayer
370
18
48
1
60
0
100
AcDbSpline
70
4
71
3
72
16
73
12
40
0
40
0
40
0
40
0
40
0.249999999999991
40
0.249999999999991
40
0.499999999999981
40
0.499999999999981
40
0.749999999999972
40
0.749999999999972
40
0.874999999999986
40
0.874999999999986
40
1
40
1
40
1
40
1
41
1
10
34.257121054316
20
-14.362801296698
30
0
41
1
10
34.2897268759133
20
-14.3926790274821
30
0
41
1
10
34.3248944043554
20
-14.4200414238102
30
0
41
1
10
34.3994263420376
20
-14.4677187158381
30
0
41
1
10
34.438929385621
20
-14.4882382563658
30
0
41
1
10
34.5217005519268
20
-14.5173213762876
30
0
41
1
10
34.5652822434974
20
-14.5263104058524
30
0
41
1
10
34.6274031875266
20
-14.5181355684131
30
0
41
1
10
34.6474892709984
20
-14.5112585554487
30
0
41
1
10
34.6794064662129
20
-14.4882295573881
30
0
41
1
10
34.6911015787678
20
-14.4721889758507
30
0
41
1
10
34.6978931733841
20
-14.4539675838512
30
0
0
SPLINE
5
106
100
AcDbEntity
8
1
62
256
6
ByLayer
370
18
48
1
60
0
100
AcDbSpline
70
4
71
3
72
16
73
12
40
0
40
0
40
0
40
0
40
0.250000000000001
40
0.250000000000001
40
0.500000000000002
40
0.500000000000002
40
0.750000000000003
40
0.750000000000003
40
0.875000000000002
40
0.875000000000002
40
1
40
1
40
1
40
1
41
1
10
33.753017852027
20
-12.7639902004637
30
0
41
1
10
33.7625898150948
20
-12.7208138652571
30
0
41
1
10
33.7757029421348
20
-12.6782286367292
30
0
41
1
10
33.8094093599958
20
-12.5964239222883
30
0
41
1
10
33.8299988339713
20
-12.5569572837536
30
0
41
1
10
33.8811196117762
20
-12.4856581960131
30
0
41
1
10
33.9116637479758
20
-12.4532973827276
30
0
41
1
10
33.9672391403966
20
-12.4243627078288
30
0
41
1
10
33.9876371893232
20
-12.4184751228791
30
0
41
1
10
34.0269911156715
20
-12.4190324226289
30
0
41
1
10
34.0457716906242
20
-12.4254640568049
30
0
41
1
10
34.0617864003265
20
-12.4364946486739
30
0
0
SPLINE
5
107
100
AcDbEntity
8
1
62
256
6
ByLayer
370
18
48
1
60
0
100
AcDbSpline
70
4
71
3
72
8
73
4
40
0
40
0
40
0
40
0
40
1
40
1
40
1
40
1
41
1
10
35.4557799390257
20
-14.6219870346817
30
0
41
1
10
35.4536360212935
20
-14.61567371957
30
0
41
1
10
35.451491829704
20
-14.6093595980152
30
0
41
1
10
35.4493473535811
20
-14.6030446385789
30
0
0
SPLINE
5
108
100
AcDbEntity
8
1
62
256
6
ByLayer
370
18
48
1
60
0
100
AcDbSpline
70
4
71
3
72
8
73
4
40
0
40
0
40
0
40
0
40
1
40
1
40
1
40
1
41
1
10
36.1875264142936
20
-14.3702976747604
30
0
41
1
10
36.1893918742228
20
-14.3767006076647
30
0
41
1
10
36.191257086639
20
-14.3831026910149
30
0
41
1
10
36.1931220608292
20
-14.3895039566876
30
0
0
SPLINE
5
109
100
AcDbEntity
8
1
62
256
6
ByLayer
370
18
48
1
60
0
100
AcDbSpline
70
4
71
3
72
8
73
4
40
0
40
0
40
0
40
0
40
1
40
1
40
1
40
1
41
1
10
34.1410741645007
20
-13.9166101336276
30
0
41
1
10
34.1366774872664
20
-13.9216247841461
30
0
41
1
10
34.1322813933921
20
-13.9266387693105
30
0
41
1
10
34.1278858609894
20
-13.9316521140861
30
0
0
SPLINE
5
10A
100
AcDbEntity
8
1
62
256
6
ByLayer
370
18
48
1
60
0
100
AcDbSpline
70
4
71
3
72
16
73
12
40
0
40
0
40
0
40
0
40
0.124999999999986
40
0.124999999999986
40
0.249999999999973
40
0.249999999999973
40
0.499999999999982
40
0.499999999999982
40
0.749999999999991
40
0.749999999999991
40
1
40
1
40
1
40
1
41
1
10
36.0814677833416
20
-11.7996915546879
30
0
41
1
10
36.0882341315843
20
-11.7815378970123
30
0
41
1
10
36.0998497061167
20
-11.7655782993209
30
0
41
1
10
36.1314935351796
20
-11.7426014196348
30
0
41
1
10
36.151285002908
20
-11.7356797565033
30
0
41
1
10
36.2138708816041
20
-11.7272432609019
30
0
41
1
10
36.2574756993498
20
-11.7362828834057
30
0
41
1
10
36.3404368804362
20
-11.7654127486501
30
0
41
1
10
36.3799098675479
20
-11.785923095749
30
0
41
1
10
36.4545250532361
20
-11.8336566342591
30
0
41
1
10
36.4896115152116
20
-11.8609594334934
30
0
41
1
10
36.5222399024098
20
-11.890857841841
30
0
0
SPLINE
5
10B
100
AcDbEntity
8
1
62
256
6
ByLayer
370
18
48
1
60
0
100
AcDbSpline
70
4
71
3
72
8
73
4
40
0
40
0
40
0
40
0
40
1
40
1
40
1
40
1
41
1
10
36.7175745563991
20
-13.8171644898651
30
0
41
1
10
36.7110351062642
20
-13.815864519529
30
0
41
1
10
36.7044948208004
20
-13.8145643831387
30
0
41
1
10
36.6979536674433
20
-13.8132640742208
30
0
0
SPLINE
5
10C
100
AcDbEntity
8
1
62
256
6
ByLayer
370
18
48
1
60
0
100
AcDbSpline
70
4
71
3
72
20
73
16
40
0
40
0
40
0
40
0
40
0.124999999999991
40
0.124999999999991
40
0.249999999999982
40
0.249999999999982
40
0.499999999999987
40
0.499999999999987
40
0.62499999999999
40
0.62499999999999
40
0.749999999999994
40
0.749999999999994
40
0.874999999999997
40
0.874999999999997
40
1
40
1
40
1
40
1
41
1
10
34.7117284781775
20
-14.4395184708372
30
0
41
1
10
34.7338608359041
20
-14.416404203184
30
0
41
1
10
34.7635014967553
20
-14.401104121734
30
0
41
1
10
34.8273577097809
20
-14.3794217939814
30
0
41
1
10
34.8617343376282
20
-14.3732325488281
30
0
41
1
10
34.9669798680815
20
-14.3642829739571
30
0
41
1
10
35.0400903210868
20
-14.3708889380189
30
0
41
1
10
35.146619710792
20
-14.3946057529236
30
0
41
1
10
35.1810720909117
20
-14.4047543134469
30
0
41
1
10
35.2478355007311
20
-14.4296645221455
30
0
41
1
10
35.2804881655522
20
-14.4445975176016
30
0
41
1
10
35.3412872481488
20
-14.4795048225609
30
0
41
1
10
35.3695967918597
20
-14.4994296966963
30
0
41
1
10
35.4184629232487
20
-14.5461054440099
30
0
41
1
10
35.4390284588517
20
-14.572658008974
30
0
41
1
10
35.4493473535811
20
-14.6030446385789
30
0
0
SPLINE
5
10D
100
AcDbEntity
8
1
62
256
6
ByLayer
370
18
48
1
60
0
100
AcDbSpline
70
4
71
3
72
18
73
14
40
0
40
0
40
0
40
0
40
0.124999999999997
40
0.124999999999997
40
0.249999999999994
40
0.249999999999994
40
0.499999999999993
40
0.499999999999993
40
0.749999999999992
40
0.749999999999992
40
0.874999999999996
40
0.874999999999996
40
1
40
1
40
1
40
1
41
1
10
36.638286792225
20
-12.3370490049114
30
0
41
1
10
36.6172138666384
20
-12.3610838274802
30
0
41
1
10
36.6045609124385
20
-12.3919026980913
30
0
41
1
10
36.5885223036454
20
-12.4573188791173
30
0
41
1
10
36.585342067347
20
-12.4920606274245
30
0
41
1
10
36.5855524146814
20
-12.5975539037464
30
0
41
1
10
36.5983902180689
20
-12.6694400449735
30
0
41
1
10
36.642088448999
20
-12.8080773331648
30
0
41
1
10
36.6729289618014
20
-12.8745526592355
30
0
41
1
10
36.7331368244282
20
-12.9609148285487
30
0
41
1
10
36.7556031856839
20
-12.9875084257925
30
0
41
1
10
36.8063676571799
20
-13.0320147485457
30
0
41
1
10
36.834445861897
20
-13.05001125046
30
0
41
1
10
36.865478414479
20
-13.0576087731927
30
0
0
SPLINE
5
10E
100
AcDbEntity
8
1
62
256
6
ByLayer
370
18
48
1
60
0
100
AcDbSpline
70
4
71
3
72
8
73
4
40
0
40
0
40
0
40
0
40
1
40
1
40
1
40
1
41
1
10
34.6978931733841
20
-14.4539675838512
30
0
41
1
10
34.7025043449778
20
-14.4491518359887
30
0
41
1
10
34.7071161055882
20
-14.4443354729778
30
0
41
1
10
34.7117284781775
20
-14.4395184708372
30
0
0
SPLINE
5
10F
100
AcDbEntity
8
1
62
256
6
ByLayer
370
18
48
1
60
0
100
AcDbSpline
70
4
71
3
72
18
73
14
40
0
40
0
40
0
40
0
40
0.124999999999997
40
0.124999999999997
40
0.249999999999994
40
0.249999999999994
40
0.499999999999991
40
0.499999999999991
40
0.749999999999988
40
0.749999999999988
40
0.874999999999994
40
0.874999999999994
40
1
40
1
40
1
40
1
41
1
10
36.6979536674433
20
-13.8132640742208
30
0
41
1
10
36.66660243773
20
-13.8070317966151
30
0
41
1
10
36.6335860357649
20
-13.8114834521506
30
0
41
1
10
36.5689146567812
20
-13.8303017000074
30
0
41
1
10
36.5372373020261
20
-13.8449184087365
30
0
41
1
10
36.4459826184701
20
-13.8978472130327
30
0
41
1
10
36.3901462956811
20
-13.9449081475086
30
0
41
1
10
36.2919319976607
20
-14.0520705696902
30
0
41
1
10
36.2497829329599
20
-14.1120169002781
30
0
41
1
10
36.2050950317221
20
-14.2073395234771
30
0
41
1
10
36.1932974815588
20
-14.2400927616771
30
0
41
1
10
36.1801361111734
20
-14.3063092449789
30
0
41
1
10
36.178589785695
20
-14.3396239345137
30
0
41
1
10
36.1875264142936
20
-14.3702976747604
30
0
0
SPLINE
5
110
100
AcDbEntity
8
1
62
256
6
ByLayer
370
18
48
1
60
0
100
AcDbSpline
70
4
71
3
72
16
73
12
40
0
40
0
40
0
40
0
40
0.125
40
0.125
40
0.25
40
0.25
40
0.5
40
0.5
40
0.75
40
0.75
40
1
40
1
40
1
40
1
41
1
10
34.1278858609894
20
-13.9316521140861
30
0
41
1
10
34.1103910095689
20
-13.9399749098492
30
0
41
1
10
34.0955045069907
20
-13.9529372542044
30
0
41
1
10
34.0753730026941
20
-13.9864632359592
30
0
41
1
10
34.0702026186505
20
-14.0067826538689
30
0
41
1
10
34.0672529452052
20
-14.0698656634418
30
0
41
1
10
34.0800585794943
20
-14.1125166966779
30
0
41
1
10
34.1163081401637
20
-14.192623350382
30
0
41
1
10
34.1401807367097
20
-14.2301585363251
30
0
41
1
10
34.1942357766236
20
-14.300329536702
30
0
41
1
10
34.2244926671177
20
-14.3329028883504
30
0
41
1
10
34.257121054316
20
-14.362801296698
30
0
0
SPLINE
5
111
100
AcDbEntity
8
1
62
256
6
ByLayer
370
18
48
1
60
0
100
AcDbSpline
70
4
71
3
72
8
73
4
40
0
40
0
40
0
40
0
40
1
40
1
40
1
40
1
41
1
10
34.0617864003265
20
-12.4364946486739
30
0
41
1
10
34.0683258504615
20
-12.4377946190101
30
0
41
1
10
34.0748661359252
20
-12.4390947554004
30
0
41
1
10
34.0814072892824
20
-12.4403950643183
30
0
0
SPLINE
5
112
100
AcDbEntity
8
1
62
256
6
ByLayer
370
18
48
1
60
0
100
AcDbSpline
70
4
71
3
72
8
73
4
40
0
40
0
40
0
40
0
40
1
40
1
40
1
40
1
41
1
10
33.9138825422466
20
-13.1960503653464
30
0
41
1
10
33.9074047097282
20
-13.1944644345826
30
0
41
1
10
33.9009277367017
20
-13.1928787142433
30
0
41
1
10
33.8944515909177
20
-13.1912931964332
30
0
0
SPLINE
5
113
100
AcDbEntity
8
1
62
256
6
ByLayer
370
18
48
1
60
0
100
AcDbSpline
70
4
71
3
72
16
73
12
40
0
40
0
40
0
40
0
40
0.124999999999997
40
0.124999999999997
40
0.249999999999995
40
0.249999999999995
40
0.499999999999996
40
0.499999999999996
40
0.749999999999998
40
0.749999999999998
40
1
40
1
40
1
40
1
41
1
10
36.884909365808
20
-13.0623659421059
30
0
41
1
10
36.9040140686479
20
-13.0591489427371
30
0
41
1
10
36.9236432729492
20
-13.061228526516
30
0
41
1
10
36.9593637489885
20
-13.0771444465144
30
0
41
1
10
36.9752538189609
20
-13.0908235287797
30
0
41
1
10
37.0138529778187
20
-13.140806241848
30
0
41
1
10
37.0278268439627
20
-13.1830889329951
30
0
41
1
10
37.0440802311954
20
-13.269500355966
30
0
41
1
10
37.0460542431232
20
-13.3139401391175
30
0
41
1
10
37.042023379005
20
-13.4024255546865
30
0
41
1
10
37.0359216922613
20
-13.4464627217034
30
0
41
1
10
37.0263431046987
20
-13.4896689380754
30
0
0
SPLINE
5
114
100
AcDbEntity
8
1
62
256
6
ByLayer
370
18
48
1
60
0
100
AcDbSpline
70
4
71
3
72
16
73
12
40
0
40
0
40
0
40
0
40
0.250000000000001
40
0.250000000000001
40
0.500000000000002
40
0.500000000000002
40
0.750000000000004
40
0.750000000000004
40
0.875000000000002
40
0.875000000000002
40
1
40
1
40
1
40
1
41
1
10
34.8855772760739
20
-11.5280184730352
30
0
41
1
10
34.927755060739
20
-11.5147198686127
30
0
41
1
10
34.9711915139902
20
-11.5047835554884
30
0
41
1
10
35.0588896837758
20
-11.4930718124062
30
0
41
1
10
35.1033635323366
20
-11.4911695006522
30
0
41
1
10
35.190670742489
20
-11.4997918490222
30
0
41
1
10
35.2339680969811
20
-11.5100634402649
30
0
41
1
10
35.2868139567042
20
-11.5437258044773
30
0
41
1
10
35.3021117793008
20
-11.5584472405604
30
0
41
1
10
35.3213061067341
20
-11.5928073903916
30
0
41
1
10
35.3251264356263
20
-11.6122876624864
30
0
41
1
10
35.3235810177
20
-11.6316721038574
30
0
0
SPLINE
5
115
100
AcDbEntity
8
1
62
256
6
ByLayer
370
18
48
1
60
0
100
AcDbSpline
70
4
71
3
72
8
73
4
40
0
40
0
40
0
40
0
40
1
40
1
40
1
40
1
41
1
10
36.0676324785482
20
-11.8141406677018
30
0
41
1
10
36.0722448511375
20
-11.8093236655613
30
0
41
1
10
36.0768566117478
20
-11.8045073025503
30
0
41
1
10
36.0814677833416
20
-11.7996915546879
30
0
0
SPLINE
5
116
100
AcDbEntity
8
1
62
256
6
ByLayer
370
18
48
1
60
0
100
AcDbSpline
70
4
71
3
72
8
73
4
40
0
40
0
40
0
40
0
40
1
40
1
40
1
40
1
41
1
10
36.6514750957363
20
-12.322007024453
30
0
41
1
10
36.6470795633336
20
-12.3270203692285
30
0
41
1
10
36.6426834694593
20
-12.332034354393
30
0
41
1
10
36.638286792225
20
-12.3370490049114
30
0
0
SPLINE
5
117
100
AcDbEntity
8
1
62
256
6
ByLayer
370
18
48
1
60
0
100
AcDbSpline
70
4
71
3
72
8
73
4
40
0
40
0
40
0
40
0
40
1
40
1
40
1
40
1
41
1
10
36.865478414479
20
-13.0576087731927
30
0
41
1
10
36.8719562469975
20
-13.0591947039565
30
0
41
1
10
36.878433220024
20
-13.0607804242957
30
0
41
1
10
36.884909365808
20
-13.0623659421059
30
0
0
SPLINE
5
118
100
AcDbEntity
8
1
62
256
6
ByLayer
370
18
48
1
60
0
100
AcDbSpline
70
4
71
3
72
16
73
12
40
0
40
0
40
0
40
0
40
0.125000000000011
40
0.125000000000011
40
0.250000000000022
40
0.250000000000022
40
0.500000000000015
40
0.500000000000015
40
0.750000000000007
40
0.750000000000007
40
1
40
1
40
1
40
1
41
1
10
33.8944515909177
20
-13.1912931964332
30
0
41
1
10
33.8753468880778
20
-13.1945101958019
30
0
41
1
10
33.8557176837765
20
-13.1924306120231
30
0
41
1
10
33.8199972077372
20
-13.1765146920246
30
0
41
1
10
33.8041071377648
20
-13.1628356097594
30
0
41
1
10
33.765507978907
20
-13.1128528966911
30
0
41
1
10
33.7515341127631
20
-13.0705702055439
30
0
41
1
10
33.7352807255303
20
-12.984158782573
30
0
41
1
10
33.7333067136025
20
-12.9397189994216
30
0
41
1
10
33.7373375777207
20
-12.8512335838525
30
0
41
1
10
33.7434392644643
20
-12.8071964168357
30
0
41
1
10
33.753017852027
20
-12.7639902004637
30
0
0
SPLINE
5
119
100
AcDbEntity
8
1
62
256
6
ByLayer
370
18
48
1
60
0
100
AcDbSpline
70
4
71
3
72
16
73
12
40
0
40
0
40
0
40
0
40
0.25
40
0.25
40
0.5
40
0.5
40
0.75
40
0.75
40
0.875
40
0.875
40
1
40
1
40
1
40
1
41
1
10
35.8937836806518
20
-14.7256406655038
30
0
41
1
10
35.8516058959867
20
-14.7389392699264
30
0
41
1
10
35.8081694427355
20
-14.7488755830506
30
0
41
1
10
35.7204712729499
20
-14.7605873261328
30
0
41
1
10
35.6759974243891
20
-14.7624896378868
30
0
41
1
10
35.5886902142367
20
-14.7538672895169
30
0
41
1
10
35.5453928597446
20
-14.7435956982741
30
0
41
1
10
35.4925470000215
20
-14.7099333340618
30
0
41
1
10
35.4772491774249
20
-14.6952118979786
30
0
41
1
10
35.4580548499916
20
-14.6608517481474
30
0
41
1
10
35.4542345210995
20
-14.6413714760526
30
0
41
1
10
35.4557799390257
20
-14.6219870346817
30
0
0
SPLINE
5
11A
100
AcDbEntity
8
1
62
256
6
ByLayer
370
18
48
1
60
0
100
AcDbSpline
70
4
71
3
72
16
73
12
40
0
40
0
40
0
40
0
40
0.125000000000002
40
0.125000000000002
40
0.250000000000004
40
0.250000000000004
40
0.500000000000003
40
0.500000000000003
40
0.750000000000001
40
0.750000000000001
40
1
40
1
40
1
40
1
41
1
10
34.5862388958965
20
-11.8641551818515
30
0
41
1
10
34.5739005412992
20
-11.8492185235447
30
0
41
1
10
34.5658869115304
20
-11.8311793420744
30
0
41
1
10
34.561810264554
20
-11.7922865423898
30
0
41
1
10
34.5657116623099
20
-11.7716857969932
30
0
41
1
10
34.5896983821482
20
-11.7132665883234
30
0
41
1
10
34.61932933375
20
-11.6800235196802
30
0
41
1
10
34.6860371276037
20
-11.6227419619536
30
0
41
1
10
34.7235361027876
20
-11.598812525901
30
0
41
1
10
34.8021821525939
20
-11.5580606488421
30
0
41
1
10
34.843370301313
20
-11.5413262810595
30
0
41
1
10
34.8855772760739
20
-11.5280184730352
30
0
0
SPLINE
5
11B
100
AcDbEntity
8
1
62
256
6
ByLayer
370
18
48
1
60
0
100
AcDbSpline
70
4
71
3
72
16
73
12
40
0
40
0
40
0
40
0
40
0.25
40
0.25
40
0.500000000000001
40
0.500000000000001
40
0.750000000000001
40
0.750000000000001
40
0.875000000000001
40
0.875000000000001
40
1
40
1
40
1
40
1
41
1
10
36.5222399024098
20
-11.890857841841
30
0
41
1
10
36.5548457240071
20
-11.9207355726251
30
0
41
1
10
36.5851690502182
20
-11.9533844880288
30
0
41
1
10
36.6391608021428
20
-12.0234774593874
30
0
41
1
10
36.6630451767281
20
-12.0610417861682
30
0
41
1
10
36.6992316090756
20
-12.1409632222786
30
0
41
1
10
36.7119848273682
20
-12.1835956268069
30
0
41
1
10
36.7092552946704
20
-12.246192665918
30
0
41
1
10
36.7041550683405
20
-12.2668016869509
30
0
41
1
10
36.6839954694254
20
-12.3006045370323
30
0
41
1
10
36.6690352233648
20
-12.3136531749511
30
0
41
1
10
36.6514750957363
20
-12.322007024453
30
0
0
SPLINE
5
11C
100
AcDbEntity
8
1
62
256
6
ByLayer
370
18
48
1
60
0
100
AcDbSpline
70
4
71
3
72
18
73
14
40
0
40
0
40
0
40
0
40
0.125000000000003
40
0.125000000000003
40
0.250000000000006
40
0.250000000000006
40
0.500000000000004
40
0.500000000000004
40
0.750000000000002
40
0.750000000000002
40
0.875000000000001
40
0.875000000000001
40
1
40
1
40
1
40
1
41
1
10
33.9138825422466
20
-13.1960503653464
30
0
41
1
10
33.9451109803126
20
-13.2036958456041
30
0
41
1
10
33.9733973620767
20
-13.2219596209464
30
0
41
1
10
34.0237754859607
20
-13.2662055913476
30
0
41
1
10
34.0463648883373
20
-13.2929379607996
30
0
41
1
10
34.1062789734531
20
-13.3789035112029
30
0
41
1
10
34.1370221173854
20
-13.4449662202373
30
0
41
1
10
34.1808646766188
20
-13.5837052451296
30
0
41
1
10
34.1937768805746
20
-13.6559260340311
30
0
41
1
10
34.1940339009489
20
-13.7613185113433
30
0
41
1
10
34.1908935147205
20
-13.7960264825588
30
0
41
1
10
34.174841115844
20
-13.8616784017431
30
0
41
1
10
34.1621582767045
20
-13.8925625521109
30
0
41
1
10
34.1410741645007
20
-13.9166101336276
30
0
0
SPLINE
5
11D
100
AcDbEntity
8
1
62
256
6
ByLayer
370
18
48
1
60
0
100
AcDbSpline
70
4
71
3
72
18
73
14
40
0
40
0
40
0
40
0
40
0.125
40
0.125
40
0.25
40
0.25
40
0.5
40
0.5
40
0.75
40
0.75
40
0.875
40
0.875
40
1
40
1
40
1
40
1
41
1
10
35.3300136031446
20
-11.6506144999602
30
0
41
1
10
35.3402919072713
20
-11.6808816001346
30
0
41
1
10
35.3606553550365
20
-11.7072488152102
30
0
41
1
10
35.409288125227
20
-11.7538467483794
30
0
41
1
10
35.4377852436837
20
-11.7739717879575
30
0
41
1
10
35.5292502745742
20
-11.8265362599831
30
0
41
1
10
35.5979244007507
20
-11.8513614667344
30
0
41
1
10
35.7398369297011
20
-11.8828363327441
30
0
41
1
10
35.8128265072044
20
-11.8893653282269
30
0
41
1
10
35.917722271069
20
-11.8804048743411
30
0
41
1
10
35.9519861824879
20
-11.8742452333849
30
0
41
1
10
36.0159120243692
20
-11.8525350728364
30
0
41
1
10
36.0455365545648
20
-11.8372168852158
30
0
41
1
10
36.0676324785482
20
-11.8141406677018
30
0
0
SPLINE
5
11E
100
AcDbEntity
8
1
62
256
6
ByLayer
370
18
48
1
60
0
100
AcDbSpline
70
4
71
3
72
12
73
8
40
0
40
0
40
0
40
0
40
0.249999999999999
40
0.249999999999999
40
0.499999999999997
40
0.499999999999997
40
1
40
1
40
1
40
1
41
1
10
15.9883692336906
20
-16.2295160993942
30
0
41
1
10
15.9317614927709
20
-16.1874436456851
30
0
41
1
10
15.8737063889045
20
-16.1516907568072
30
0
41
1
10
15.7553477773181
20
-16.0906888123126
30
0
41
1
10
15.694947830874
20
-16.0655084072556
30
0
41
1
10
15.5157183318946
20
-16.0053839168842
30
0
41
1
10
15.3971893610248
20
-15.9845127212656
30
0
41
1
10
15.2792076144258
20
-15.9793025388554
30
0
0
SPLINE
5
11F
100
AcDbEntity
8
1
62
256
6
ByLayer
370
18
48
1
60
0
100
AcDbSpline
70
4
71
3
72
26
73
22
40
0
40
0
40
0
40
0
40
0.0625000000000014
40
0.0625000000000014
40
0.125000000000003
40
0.125000000000003
40
0.250000000000004
40
0.250000000000004
40
0.312500000000004
40
0.312500000000004
40
0.375000000000004
40
0.375000000000004
40
0.437500000000004
40
0.437500000000004
40
0.500000000000004
40
0.500000000000004
40
0.625000000000003
40
0.625000000000003
40
0.750000000000002
40
0.750000000000002
40
1
40
1
40
1
40
1
41
1
10
30.5385219379648
20
-5.13785482052651
30
0
41
1
10
30.5811689093473
20
-5.08417122756293
30
0
41
1
10
30.6214612025046
20
-5.02811111892288
30
0
41
1
10
30.695597908031
20
-4.91388673731493
30
0
41
1
10
30.7295323050146
20
-4.85567799631764
30
0
41
1
10
30.8224318218857
20
-4.6779436780223
30
0
41
1
10
30.8725642541676
20
-4.55533397868231
30
0
41
1
10
30.9305630575339
20
-4.36545820411652
30
0
41
1
10
30.9468655659751
20
-4.30152372744493
30
0
41
1
10
30.9732166471644
20
-4.17465626782277
30
0
41
1
10
30.9833701624492
20
-4.11138953265936
30
0
41
1
10
30.9979754515854
20
-3.98518732099839
30
0
41
1
10
31.0024261282033
20
-3.92225188570748
30
0
41
1
10
31.0058150105743
20
-3.79671796251017
30
0
41
1
10
31.0047307881841
20
-3.73383840637735
30
0
41
1
10
30.9934660940687
20
-3.54791568775116
30
0
41
1
10
30.9755042424035
20
-3.42820311019179
30
0
41
1
10
30.921173284932
20
-3.19639950393176
30
0
41
1
10
30.8847150982542
20
-3.08415650272903
30
0
41
1
10
30.7492407648326
20
-2.7595972894843
30
0
41
1
10
30.6287028946134
20
-2.56813905053912
30
0
41
1
10
30.4819237750094
20
-2.39873971559496
30
0
0
SPLINE
5
120
100
AcDbEntity
8
1
62
256
6
ByLayer
370
18
48
1
60
0
100
AcDbSpline
70
4
71
3
72
14
73
10
40
0
40
0
40
0
40
0
40
0.25
40
0.25
40
0.5
40
0.5
40
0.75
40
0.75
40
1
40
1
40
1
40
1
41
1
10
7.07679491924327
20
-4.75546271781752
30
0
41
1
10
7.11461224097556
20
-4.75546271781752
30
0
41
1
10
7.15069584045284
20
-4.77105449474936
30
0
41
1
10
7.20888443598344
20
-4.81490199488559
30
0
41
1
10
7.23273141305921
20
-4.84314171611771
30
0
41
1
10
7.27269635160155
20
-4.9032910873525
30
0
41
1
10
7.28887004110402
20
-4.93534226591987
30
0
41
1
10
7.31614231629348
20
-5.00076260618604
30
0
41
1
10
7.32728982767759
20
-5.03436773122377
30
0
41
1
10
7.33660254037858
20
-5.0686185831118
30
0
0
SPLINE
5
121
100
AcDbEntity
8
1
62
256
6
ByLayer
370
18
48
1
60
0
100
AcDbSpline
70
2053
71
3
72
95
73
91
40
0
40
0
40
0
40
0
40
0.0312500000000008
40
0.0312500000000008
40
0.0468750000000011
40
0.0468750000000011
40
0.0625000000000014
40
0.0625000000000014
40
0.0937500000000023
40
0.0937500000000023
40
0.125000000000003
40
0.125000000000003
40
0.140625000000004
40
0.140625000000004
40
0.156250000000004
40
0.156250000000004
40
0.187500000000005
40
0.187500000000005
40
0.203125000000006
40
0.203125000000006
40
0.218750000000006
40
0.218750000000006
40
0.250000000000007
40
0.250000000000007
40
0.265625000000007
40
0.265625000000007
40
0.281250000000008
40
0.281250000000008
40
0.312500000000009
40
0.312500000000009
40
0.34375000000001
40
0.34375000000001
40
0.35937500000001
40
0.35937500000001
40
0.37500000000001
40
0.37500000000001
40
0.40625000000001
40
0.40625000000001
40
0.42187500000001
40
0.42187500000001
40
0.43750000000001
40
0.43750000000001
40
0.46875000000001
40
0.46875000000001
40
0.500000000000009
40
0.500000000000009
40
0.515625000000009
40
0.515625000000009
40
0.531250000000009
40
0.531250000000009
40
0.562500000000008
40
0.562500000000008
40
0.578125000000008
40
0.578125000000008
40
0.593750000000008
40
0.593750000000008
40
0.625000000000008
40
0.625000000000008
40
0.640625000000008
40
0.640625000000008
40
0.656250000000008
40
0.656250000000008
40
0.687500000000007
40
0.687500000000007
40
0.718750000000007
40
0.718750000000007
40
0.734375000000007
40
0.734375000000007
40
0.750000000000006
40
0.750000000000006
40
0.781250000000006
40
0.781250000000006
40
0.812500000000005
40
0.812500000000005
40
0.843750000000005
40
0.843750000000005
40
0.859375000000004
40
0.859375000000004
40
0.875000000000004
40
0.890625000000003
40
0.890625000000003
40
0.906250000000003
40
0.906250000000003
40
0.937500000000002
40
0.937500000000002
40
0.953125000000001
40
0.953125000000001
40
0.968750000000001
40
0.968750000000001
40
1
40
1
40
1
40
1
41
1
10
28.7800764053786
20
-7.96827266302206
30
0
41
1
10
28.684940887108
20
-8.06273248726538
30
0
41
1
10
28.5929868469977
20
-8.15116219891505
30
0
41
1
10
28.4598708894676
20
-8.27522025273697
30
0
41
1
10
28.4163355320814
20
-8.31509710689778
30
0
41
1
10
28.3326024547537
20
-8.39048857765033
30
0
41
1
10
28.2921725789097
20
-8.42622134825788
30
0
41
1
10
28.1750960533632
20
-8.52778515015606
30
0
41
1
10
28.1025242673461
20
-8.58811128580706
30
0
41
1
10
27.9694193974374
20
-8.69354719711959
30
0
41
1
10
27.9108900986198
20
-8.73708390590949
30
0
41
1
10
27.834560168678
20
-8.78966378212189
30
0
41
1
10
27.8110417502459
20
-8.80505217424647
30
0
41
1
10
27.7679222418561
20
-8.83153193952256
30
0
41
1
10
27.7482389074998
20
-8.84266022299917
30
0
41
1
10
27.6961504185323
20
-8.86898951086826
30
0
41
1
10
27.6704586108215
20
-8.87736507908502
30
0
41
1
10
27.6452384140115
20
-8.87654545705172
30
0
41
1
10
27.6390657961842
20
-8.87402549142232
30
0
41
1
10
27.6313293786112
20
-8.86435612381467
30
0
41
1
10
27.6298036853227
20
-8.85719439516467
30
0
41
1
10
27.6322554517268
20
-8.82915573877651
30
0
41
1
10
27.6431106026854
20
-8.80171204193562
30
0
41
1
10
27.6733788243568
20
-8.74711055676158
30
0
41
1
10
27.6858928546783
20
-8.72653684893277
30
0
41
1
10
27.7154186122685
20
-8.68124356029594
30
0
41
1
10
27.7323660474863
20
-8.65660599046416
30
0
41
1
10
27.7896227252624
20
-8.57676708373248
30
0
41
1
10
27.8362861250193
20
-8.51570085350903
30
0
41
1
10
27.947261024653
20
-8.37673416890047
30
0
41
1
10
28.010199998664
20
-8.30056413485224
30
0
41
1
10
28.1144556133654
20
-8.17733787498841
30
0
41
1
10
28.1509060591068
20
-8.13469993110175
30
0
41
1
10
28.2272726303168
20
-8.04616398070084
30
0
41
1
10
28.2672908083838
20
-8.00015345579553
30
0
41
1
10
28.3898924541464
20
-7.86018309192863
30
0
41
1
10
28.4758032452576
20
-7.76335740891202
30
0
41
1
10
28.6108203515091
20
-7.61264358940494
30
0
41
1
10
28.6571390123366
20
-7.56117877155808
30
0
41
1
10
28.7502265140965
20
-7.45818106570587
30
0
41
1
10
28.7970015505008
20
-7.40663777606036
30
0
41
1
10
28.9379882042511
20
-7.25186298499241
30
0
41
1
10
29.0330568473999
20
-7.14826088594523
30
0
41
1
10
29.2241836602212
20
-6.94157643833304
30
0
41
1
10
29.3172461570595
20
-6.84173203840558
30
0
41
1
10
29.4533626364004
20
-6.69707343402271
30
0
41
1
10
29.4981514134718
20
-6.64971260515716
30
0
41
1
10
29.586564135991
20
-6.55677370186248
30
0
41
1
10
29.6301067271436
20
-6.51128570455367
30
0
41
1
10
29.7559809434176
20
-6.38073016613291
30
0
41
1
10
29.8346655014719
20
-6.30039316817454
30
0
41
1
10
29.9452196764234
20
-6.18995422367911
30
0
41
1
10
29.9809949726048
20
-6.15465874560394
30
0
41
1
10
30.0490903311847
20
-6.08847409466989
30
0
41
1
10
30.0812834475007
20
-6.05770230873119
30
0
41
1
10
30.1725832326091
20
-5.9721162510329
30
0
41
1
10
30.226458066152
20
-5.9239725840032
30
0
41
1
10
30.2969703331458
20
-5.86533605424972
30
0
41
1
10
30.3187521898723
20
-5.84807677773273
30
0
41
1
10
30.357948880347
20
-5.81887383325994
30
0
41
1
10
30.375503095127
20
-5.80681022162372
30
0
41
1
10
30.4222398031838
20
-5.77804473706198
30
0
41
1
10
30.4455530576094
20
-5.76870336668287
30
0
41
1
10
30.476192555573
20
-5.77027170133303
30
0
41
1
10
30.4830680072813
20
-5.781197634899
30
0
41
1
10
30.4812138012716
20
-5.8120049725147
30
0
41
1
10
30.4785599966114
20
-5.8246942280268
30
0
41
1
10
30.469105022441
20
-5.85497767908234
30
0
41
1
10
30.4622536114162
20
-5.87267905918543
30
0
41
1
10
30.4355862505854
20
-5.93254896450665
30
0
41
1
10
30.4098582039845
20
-5.9812198088556
30
0
41
1
10
30.3424183339181
20
-6.09574554095653
30
0
41
1
10
30.3001464095571
20
-6.16240185835264
30
0
41
1
10
30.2013897937727
20
-6.30898777398659
30
0
41
1
10
30.1449225206229
20
-6.38900043720994
30
0
41
1
10
30.0488978754144
20
-6.51932946622534
30
0
41
1
10
30.0148443013607
20
-6.56468477613856
30
0
41
1
10
29.944190156523
20
-6.65705684533211
30
0
41
1
10
29.8707242258264
20
-6.75146230568146
30
0
41
1
10
29.791571754137
20
-6.84987111393764
30
0
41
1
10
29.7094637621582
20
-6.95031303598063
30
0
41
1
10
29.6666687869621
20
-7.00185915818727
30
0
41
1
10
29.5359882720996
20
-7.1568169718941
30
0
41
1
10
29.4457834112188
20
-7.26064122791888
30
0
41
1
10
29.3057689857722
20
-7.41707948311094
30
0
41
1
10
29.2580783420482
20
-7.46959292863073
30
0
41
1
10
29.1621285519017
20
-7.57369237264695
30
0
41
1
10
29.1142158340793
20
-7.62491064820492
30
0
41
1
10
28.9706661646474
20
-7.77616249954619
30
0
41
1
10
28.8752119236492
20
-7.87381283877875
30
0
41
1
10
28.7800764053786
20
-7.96827266302206
30
0
0
SPLINE
5
122
100
AcDbEntity
8
1
62
256
6
ByLayer
370
18
48
1
60
0
100
AcDbSpline
70
4
71
3
72
14
73
10
40
0
40
0
40
0
40
0
40
0.25
40
0.25
40
0.5
40
0.5
40
0.75
40
0.75
40
1
40
1
40
1
40
1
41
1
10
4.66339745962148
20
-5.06861858311171
30
0
41
1
10
4.67271377586187
20
-5.03435447791105
30
0
41
1
10
4.68395161765923
20
-5.00049514204593
30
0
41
1
10
4.71128297061324
20
-4.93501774293347
30
0
41
1
10
4.72731528081928
20
-4.90327363414832
30
0
41
1
10
4.76725654551674
20
-4.84315978484938
30
0
41
1
10
4.79068698660564
20
-4.81521507849266
30
0
41
1
10
4.84981270910521
20
-4.77068116219561
30
0
41
1
10
4.88533182655883
20
-4.75546271781758
30
0
41
1
10
4.92320508075687
20
-4.75546271781758
30
0
0
SPLINE
5
123
100
AcDbEntity
8
1
62
256
6
ByLayer
370
18
48
1
60
0
100
AcDbSpline
70
4
71
3
72
34
73
30
40
0
40
0
40
0
40
0
40
0.124999999999999
40
0.124999999999999
40
0.187499999999998
40
0.187499999999998
40
0.249999999999998
40
0.249999999999998
40
0.374999999999997
40
0.374999999999997
40
0.437499999999998
40
0.437499999999998
40
0.499999999999998
40
0.499999999999998
40
0.562499999999998
40
0.562499999999998
40
0.593749999999998
40
0.593749999999998
40
0.624999999999998
40
0.624999999999998
40
0.687499999999998
40
0.687499999999998
40
0.749999999999998
40
0.749999999999998
40
0.812499999999998
40
0.812499999999998
40
0.874999999999998
40
0.874999999999998
40
1
40
1
40
1
40
1
41
1
10
15.1437117597742
20
6.83121931296986
30
0
41
1
10
15.1563389603035
20
7.10298809586533
30
0
41
1
10
15.1775406469323
20
7.367621119658
30
0
41
1
10
15.2289169080856
20
7.75145173518507
30
0
41
1
10
15.2493340700672
20
7.87719654555573
30
0
41
1
10
15.2984575174191
20
8.12365349131107
30
0
41
1
10
15.3272709062806
20
8.24465269192655
30
0
41
1
10
15.4280872109568
20
8.59377175713618
30
0
41
1
10
15.5140993708048
20
8.80976469333095
30
0
41
1
10
15.6885259453791
20
9.099097077176
30
0
41
1
10
15.7546600228816
20
9.18974124592742
30
0
41
1
10
15.9023875177819
20
9.35175883141264
30
0
41
1
10
15.9843125937081
20
9.42384994589594
30
0
41
1
10
16.1681086780195
20
9.54743318705795
30
0
41
1
10
16.2680313237312
20
9.59744992073686
30
0
41
1
10
16.4296583646788
20
9.65358814643804
30
0
41
1
10
16.4855678972156
20
9.66919616310705
30
0
41
1
10
16.601697828508
20
9.69405975565525
30
0
41
1
10
16.6622431332474
20
9.70332046453944
30
0
41
1
10
16.8466983906535
20
9.72100751704269
30
0
41
1
10
16.9742347747612
20
9.71971374782734
30
0
41
1
10
17.2383351011639
20
9.69355685788446
30
0
41
1
10
17.3758405657461
20
9.66827927460849
30
0
41
1
10
17.6492881637075
20
9.59874059119517
30
0
41
1
10
17.7864075075595
20
9.55448516697885
30
0
41
1
10
18.0616350967056
20
9.44990064424942
30
0
41
1
10
18.2004843623439
20
9.38912301375956
30
0
41
1
10
18.6082608842594
20
9.19047047142357
30
0
41
1
10
18.8715858947851
20
9.03578401134368
30
0
41
1
10
19.1284905521411
20
8.86406533909795
30
0
0
SPLINE
5
124
100
AcDbEntity
8
1
62
256
6
ByLayer
370
18
48
1
60
0
100
AcDbSpline
70
4
71
3
72
14
73
10
40
0
40
0
40
0
40
0
40
0.25
40
0.25
40
0.5
40
0.5
40
0.75
40
0.75
40
1
40
1
40
1
40
1
41
1
10
4.66339745962148
20
15.1759383782004
30
0
41
1
10
4.67271377586187
20
15.1873822623297
30
0
41
1
10
4.68395161765923
20
15.198560277361
30
0
41
1
10
4.71128297061324
20
15.219946979117
30
0
41
1
10
4.72731528081928
20
15.2301970920895
30
0
41
1
10
4.76725654551674
20
15.249419631371
30
0
41
1
10
4.79068698660564
20
15.2582518148049
30
0
41
1
10
4.84981270910521
20
15.2722344777971
30
0
41
1
10
4.88533182655883
20
15.2769622091385
30
0
41
1
10
4.92320508075687
20
15.2769622091385
30
0
0
SPLINE
5
125
100
AcDbEntity
8
1
62
256
6
ByLayer
370
18
48
1
60
0
100
AcDbSpline
70
4
71
3
72
8
73
4
40
0
40
0
40
0
40
0
40
1
40
1
40
1
40
1
41
1
10
19.844001376376
20
-12.3095256336816
30
0
41
1
10
19.7553780465873
20
-12.2388503929712
30
0
41
1
10
19.6687048336933
20
-12.1661303062435
30
0
41
1
10
19.5844372012886
20
-12.0914960719535
30
0
0
SPLINE
5
126
100
AcDbEntity
8
1
62
256
6
ByLayer
370
18
48
1
60
0
100
AcDbSpline
70
4
71
3
72
14
73
10
40
0
40
0
40
0
40
0
40
0.25
40
0.25
40
0.5
40
0.5
40
0.75
40
0.75
40
1
40
1
40
1
40
1
41
1
10
7.33660254037864
20
-15.1759383782003
30
0
41
1
10
7.32728622413828
20
-15.1873822623297
30
0
41
1
10
7.31604838234088
20
-15.198560277361
30
0
41
1
10
7.28871702938687
20
-15.219946979117
30
0
41
1
10
7.27268471918083
20
-15.2301970920895
30
0
41
1
10
7.23274345448337
20
-15.249419631371
30
0
41
1
10
7.20931301339451
20
-15.2582518148049
30
0
41
1
10
7.15018729089493
20
-15.272234477797
30
0
41
1
10
7.11466817344132
20
-15.2769622091385
30
0
41
1
10
7.07679491924327
20
-15.2769622091385
30
0
0
SPLINE
5
127
100
AcDbEntity
8
1
62
256
6
ByLayer
370
18
48
1
60
0
100
AcDbSpline
70
4
71
3
72
10
73
6
40
0
40
0
40
0
40
0
40
0.5
40
0.5
40
1
40
1
40
1
40
1
41
1
10
30.358401745294
20
-10.2840527005592
30
0
41
1
10
30.3347943070695
20
-10.2860057042453
30
0
41
1
10
30.3143972850008
20
-10.2899829975667
30
0
41
1
10
30.2804902334262
20
-10.301842253607
30
0
41
1
10
30.2669990713308
20
-10.3097918540346
30
0
41
1
10
30.2581701973311
20
-10.3194268792853
30
0
0
SPLINE
5
128
100
AcDbEntity
8
1
62
256
6
ByLayer
370
18
48
1
60
0
100
AcDbSpline
70
4
71
3
72
8
73
4
40
0
40
0
40
0
40
0
40
1
40
1
40
1
40
1
41
1
10
15.1437117597742
20
-7.06158699150174
30
0
41
1
10
15.1634872123757
20
-7.52115219705721
30
0
41
1
10
15.2039734708773
20
-7.96716815722951
30
0
41
1
10
15.2792076144252
20
-8.39888651138128
30
0
0
SPLINE
5
129
100
AcDbEntity
8
1
62
256
6
ByLayer
370
18
48
1
60
0
100
AcDbSpline
70
4
71
3
72
10
73
6
40
0
40
0
40
0
40
0
40
0.5
40
0.5
40
1
40
1
40
1
40
1
41
1
10
32.1457202132316
20
-8.25952750073978
30
0
41
1
10
32.1368718027698
20
-8.26918384629766
30
0
41
1
10
32.1302484551516
20
-8.28304742235125
30
0
41
1
10
32.1213479864669
20
-8.31772957124977
30
0
41
1
10
32.1191048052792
20
-8.33884867661882
30
0
41
1
10
32.1192163989491
20
-8.36246070022315
30
0
0
SPLINE
5
12A
100
AcDbEntity
8
1
62
256
6
ByLayer
370
18
48
1
60
0
100
AcDbSpline
70
4
71
3
72
10
73
6
40
0
40
0
40
0
40
0
40
0.5
40
0.5
40
1
40
1
40
1
40
1
41
1
10
15.2792076144252
20
-15.3696944815063
30
0
41
1
10
15.3774651045892
20
-15.2733214239018
30
0
41
1
10
15.4758967120647
20
-15.1776232056656
30
0
41
1
10
15.6707826817128
20
-14.9888520991781
30
0
41
1
10
15.7672008110496
20
-14.8958044195916
30
0
41
1
10
15.8601551163564
20
-14.8053702923992
30
0
0
SPLINE
5
12B
100
AcDbEntity
8
1
62
256
6
ByLayer
370
18
48
1
60
0
100
AcDbSpline
70
4
71
3
72
8
73
4
40
0
40
0
40
0
40
0
40
1
40
1
40
1
40
1
41
1
10
24.9466239065444
20
-10.5453106833838
30
0
41
1
10
23.2136534994255
20
-11.01611163601
30
0
41
1
10
21.5146089333241
20
-11.6013950584658
30
0
41
1
10
19.8440013763759
20
-12.3095256336813
30
0
0
SPLINE
5
12C
100
AcDbEntity
8
1
62
256
6
ByLayer
370
18
48
1
60
0
100
AcDbSpline
70
4
71
3
72
18
73
14
40
0
40
0
40
0
40
0
40
0.249999999999999
40
0.249999999999999
40
0.374999999999999
40
0.374999999999999
40
0.499999999999998
40
0.499999999999998
40
0.749999999999999
40
0.749999999999999
40
0.875
40
0.875
40
1
40
1
40
1
40
1
41
1
10
15.8601551163564
20
-14.8053702923992
30
0
41
1
10
16.0969196481113
20
-14.618792648649
30
0
41
1
10
16.3628325371574
20
-14.4210235585151
30
0
41
1
10
16.8024848342977
20
-14.1124983776843
30
0
41
1
10
16.9552081283023
20
-14.0081325483624
30
0
41
1
10
17.2706851187514
20
-13.7982279884135
30
0
41
1
10
17.433689252951
20
-13.6925129820914
30
0
41
1
10
17.9376702516103
20
-13.3740551357445
30
0
41
1
10
18.2935764833589
20
-13.1600233226681
30
0
41
1
10
18.8549402785239
20
-12.8397201361784
30
0
41
1
10
19.046656656974
20
-12.7330697944308
30
0
41
1
10
19.4389922557006
20
-12.5204942976076
30
0
41
1
10
19.6401318133728
20
-12.4143068192137
30
0
41
1
10
19.8440013763758
20
-12.3095256336814
30
0
0
SPLINE
5
12D
100
AcDbEntity
8
1
62
256
6
ByLayer
370
18
48
1
60
0
100
AcDbSpline
70
4
71
3
72
10
73
6
40
0
40
0
40
0
40
0
40
0.5
40
0.5
40
1
40
1
40
1
40
1
41
1
10
16.9856310997054
20
-16.4877828369183
30
0
41
1
10
16.8207495871491
20
-16.4299578883507
30
0
41
1
10
16.6513095584147
20
-16.3787556196253
30
0
41
1
10
16.3179221593148
20
-16.2930498670125
30
0
41
1
10
16.1524582045435
20
-16.2579335515197
30
0
41
1
10
15.9883692336944
20
-16.2295160993816
30
0
0
SPLINE
5
12E
100
AcDbEntity
8
1
62
256
6
ByLayer
370
18
48
1
60
0
100
AcDbSpline
70
4
71
3
72
30
73
26
40
0
40
0
40
0
40
0
40
0.0156250000000004
40
0.0156250000000004
40
0.0312500000000008
40
0.0312500000000008
40
0.0468750000000012
40
0.0468750000000012
40
0.0625000000000016
40
0.0625000000000016
40
0.0937500000000018
40
0.0937500000000018
40
0.125000000000002
40
0.125000000000002
40
0.187500000000002
40
0.187500000000002
40
0.250000000000002
40
0.250000000000002
40
0.375000000000001
40
0.375000000000001
40
0.500000000000001
40
0.500000000000001
40
0.750000000000001
40
0.750000000000001
40
1
40
1
40
1
40
1
41
1
10
15.7687565855799
20
15.0926888297493
30
0
41
1
10
15.7722720638671
20
15.0944459242874
30
0
41
1
10
15.7847013116193
20
15.089943168489
30
0
41
1
10
15.8199275988098
20
15.0730172673105
30
0
41
1
10
15.8427786783598
20
15.0606416058882
30
0
41
1
10
15.8927522207413
20
15.0323298782004
30
0
41
1
10
15.920210320394
20
15.0162085741752
30
0
41
1
10
15.9771202174959
20
14.982174444775
30
0
41
1
10
16.0065999350746
20
14.9642448505796
30
0
41
1
10
16.0970588940067
20
14.9086620696398
30
0
41
1
10
16.1601712266086
20
14.8691533205691
30
0
41
1
10
16.2885116072718
20
14.7880675666013
30
0
41
1
10
16.3537389375859
20
14.7464803063567
30
0
41
1
10
16.5514614762096
20
14.6197222573664
30
0
41
1
10
16.6854183000988
20
14.5329418183572
30
0
41
1
10
16.9553891218075
20
14.3571605169319
30
0
41
1
10
17.0912367867502
20
14.2682469680905
30
0
41
1
10
17.5004044250311
20
13.9996093900682
30
0
41
1
10
17.7752059895328
20
13.8180998072175
30
0
41
1
10
18.3263192044618
20
13.4530833313927
30
0
41
1
10
18.602804110725
20
13.2694347122444
30
0
41
1
10
19.4333723653279
20
12.7169098197313
30
0
41
1
10
19.9891896897473
20
12.3460713532758
30
0
41
1
10
21.1011333039646
20
11.6036264299503
30
0
41
1
10
21.6577339985888
20
11.2316779120059
30
0
41
1
10
22.2151116332584
20
10.8591188920568
30
0
0
SPLINE
5
12F
100
AcDbEntity
8
1
62
256
6
ByLayer
370
18
48
1
60
0
100
AcDbSpline
70
4
71
3
72
14
73
10
40
0
40
0
40
0
40
0
40
0.25
40
0.25
40
0.5
40
0.5
40
0.75
40
0.75
40
1
40
1
40
1
40
1
41
1
10
4.92320508075687
20
4.75546271781747
30
0
41
1
10
4.88538775902458
20
4.75546271781749
30
0
41
1
10
4.8493041595473
20
4.77105449474931
30
0
41
1
10
4.79111556401671
20
4.81490199488556
30
0
41
1
10
4.76726858694093
20
4.84314171611766
30
0
41
1
10
4.72730364839856
20
4.90329108735244
30
0
41
1
10
4.71112995889609
20
4.93534226591984
30
0
41
1
10
4.68385768370663
20
5.00076260618599
30
0
41
1
10
4.67271017232255
20
5.03436773122371
30
0
41
1
10
4.66339745962154
20
5.06861858311171
30
0
0
SPLINE
5
130
100
AcDbEntity
8
1
62
256
6
ByLayer
370
18
48
1
60
0
100
AcDbSpline
70
4
71
3
72
16
73
12
40
0
40
0
40
0
40
0
40
0.125
40
0.125
40
0.250000000000001
40
0.250000000000001
40
0.5
40
0.5
40
0.75
40
0.75
40
1
40
1
40
1
40
1
41
1
10
14.8829979012732
20
-15.9237144273691
30
0
41
1
10
14.8833555007291
20
-15.9272538712552
30
0
41
1
10
14.8861630332633
20
-15.9306573425709
30
0
41
1
10
14.8966909718792
20
-15.9371977030477
30
0
41
1
10
14.9045085014021
20
-15.9403581612683
30
0
41
1
10
14.9346036467009
20
-15.9492261765155
30
0
41
1
10
14.9632749217193
20
-15.9543515682138
30
0
41
1
10
15.0346717953678
20
-15.9634064893738
30
0
41
1
10
15.0777249337843
20
-15.9673372736575
30
0
41
1
10
15.1721671868393
20
-15.9740391676584
30
0
41
1
10
15.2238923602403
20
-15.9768597663704
30
0
41
1
10
15.2792076144226
20
-15.9793025388557
30
0
0
SPLINE
5
131
100
AcDbEntity
8
1
62
256
6
ByLayer
370
18
48
1
60
0
100
AcDbSpline
70
4
71
3
72
12
73
8
40
0
40
0
40
0
40
0
40
0.5
40
0.5
40
0.75
40
0.75
40
1
40
1
40
1
40
1
41
1
10
37.808280566862
20
-0.457691332798248
30
0
41
1
10
37.7975846454533
20
-0.476217212111749
30
0
41
1
10
37.8004998632696
20
-0.504021108083748
30
0
41
1
10
37.8242316736289
20
-0.555813694243909
30
0
41
1
10
37.8355381196566
20
-0.575020041362023
30
0
41
1
10
37.8638809821135
20
-0.615340865510404
30
0
41
1
10
37.8809685805869
20
-0.636634959478357
30
0
41
1
10
37.9011986122737
20
-0.65910943764348
30
0
0
SPLINE
5
132
100
AcDbEntity
8
1
62
256
6
ByLayer
370
18
48
1
60
0
100
AcDbSpline
70
4
71
3
72
14
73
10
40
0
40
0
40
0
40
0
40
0.25
40
0.25
40
0.5
40
0.5
40
0.75
40
0.75
40
1
40
1
40
1
40
1
41
1
10
7.07679491924327
20
15.2769622091386
30
0
41
1
10
7.11461224097556
20
15.2769622091386
30
0
41
1
10
7.15069584045287
20
15.2721173071439
30
0
41
1
10
7.20888443598346
20
15.2583500685585
30
0
41
1
10
7.23273141305924
20
15.2494254085199
30
0
41
1
10
7.27269635160161
20
15.230191511767
30
0
41
1
10
7.28887004110408
20
15.2198416823913
30
0
41
1
10
7.31614231629351
20
15.198472208594
30
0
41
1
10
7.3272898276777
20
15.1873778358496
30
0
41
1
10
7.33660254037869
20
15.1759383782002
30
0
0
SPLINE
5
133
100
AcDbEntity
8
1
62
256
6
ByLayer
370
18
48
1
60
0
100
AcDbSpline
70
4
71
3
72
10
73
6
40
0
40
0
40
0
40
0
40
0.5
40
0.5
40
1
40
1
40
1
40
1
41
1
10
15.8601551163563
20
-10.3472032673452
30
0
41
1
10
15.731900101895
20
-10.0186134256696
30
0
41
1
10
15.6129616064072
20
-9.70007523959845
30
0
41
1
10
15.4159393429382
20
-9.05740664632623
30
0
41
1
10
15.3374697621746
20
-8.73321395035381
30
0
41
1
10
15.2792076144252
20
-8.39888651138128
30
0
0
SPLINE
5
134
100
AcDbEntity
8
1
62
256
6
ByLayer
370
18
48
1
60
0
100
AcDbSpline
70
4
71
3
72
32
73
28
40
0
40
0
40
0
40
0
40
0.250000000000001
40
0.250000000000001
40
0.375000000000001
40
0.375000000000001
40
0.500000000000001
40
0.500000000000001
40
0.562500000000001
40
0.562500000000001
40
0.625000000000001
40
0.625000000000001
40
0.687500000000001
40
0.687500000000001
40
0.750000000000001
40
0.750000000000001
40
0.812500000000001
40
0.812500000000001
40
0.875000000000001
40
0.875000000000001
40
0.906250000000001
40
0.906250000000001
40
0.921875000000001
40
0.921875000000001
40
0.9375
40
0.9375
40
1
40
1
40
1
40
1
41
1
10
23.4341742948123
20
5.98608600228599
30
0
41
1
10
22.6538234174312
20
6.92511795773555
30
0
41
1
10
21.8735889954714
20
7.84589563274241
30
0
41
1
10
20.7121577388569
20
9.19560596480557
30
0
41
1
10
20.3272156603524
20
9.6394659543071
30
0
41
1
10
19.5661762895388
20
10.5118894458039
30
0
41
1
10
19.1898479320589
20
10.940691141056
30
0
41
1
10
18.6360517933651
20
11.5700579447912
30
0
41
1
10
18.4532591976829
20
11.7775254233128
30
0
41
1
10
18.092483803394
20
12.1870551842709
30
0
41
1
10
17.9142257279648
20
12.3894262300342
30
0
41
1
10
17.5654939053109
20
12.786234642349
30
0
41
1
10
17.3954927080182
20
12.9801290687678
30
0
41
1
10
17.0672115410685
20
13.3567217635623
30
0
41
1
10
16.9088960683063
20
13.5394474919034
30
0
41
1
10
16.6086271468806
20
13.8902695077579
30
0
41
1
10
16.4665761698628
20
14.0584468089534
30
0
41
1
10
16.2068620089809
20
14.3741136175639
30
0
41
1
10
16.0920165633764
20
14.5181930001337
30
0
41
1
10
15.9513636931094
20
14.7062287163513
30
0
41
1
10
15.909789740476
20
14.7641916210873
30
0
41
1
10
15.8570733100736
20
14.8426631607182
30
0
41
1
10
15.8410644954204
20
14.8674875219995
30
0
41
1
10
15.8129285161083
20
14.9134910541216
30
0
41
1
10
15.8007824985118
20
14.9346887739414
30
0
41
1
10
15.7500048511772
20
15.0313629798358
30
0
41
1
10
15.7412238446219
20
15.0789275077322
30
0
41
1
10
15.76875658558
20
15.0926888297493
30
0
0
SPLINE
5
135
100
AcDbEntity
8
1
62
256
6
ByLayer
370
18
48
1
60
0
100
AcDbSpline
70
4
71
3
72
14
73
10
40
0
40
0
40
0
40
0
40
0.25
40
0.25
40
0.5
40
0.5
40
0.75
40
0.75
40
1
40
1
40
1
40
1
41
1
10
4.92320508075684
20
-15.2769622091386
30
0
41
1
10
4.88538775902458
20
-15.2769622091386
30
0
41
1
10
4.8493041595473
20
-15.2721173071439
30
0
41
1
10
4.79111556401671
20
-15.2583500685585
30
0
41
1
10
4.76726858694093
20
-15.2494254085199
30
0
41
1
10
4.72730364839856
20
-15.2301915117671
30
0
41
1
10
4.71112995889609
20
-15.2198416823914
30
0
41
1
10
4.68385768370663
20
-15.198472208594
30
0
41
1
10
4.67271017232255
20
-15.1873778358497
30
0
41
1
10
4.66339745962154
20
-15.1759383782004
30
0
0
SPLINE
5
136
100
AcDbEntity
8
1
62
256
6
ByLayer
370
18
48
1
60
0
100
AcDbSpline
70
4
71
3
72
26
73
22
40
0
40
0
40
0
40
0
40
0.0624999999999991
40
0.0624999999999991
40
0.124999999999998
40
0.124999999999998
40
0.249999999999999
40
0.249999999999999
40
0.312499999999999
40
0.312499999999999
40
0.375
40
0.375
40
0.5
40
0.5
40
0.625000000000001
40
0.625000000000001
40
0.687500000000001
40
0.687500000000001
40
0.750000000000002
40
0.750000000000002
40
1
40
1
40
1
40
1
41
1
10
19.1284905521411
20
-12.0914960719535
30
0
41
1
10
19.0375572595412
20
-12.0914960719535
30
0
41
1
10
18.9468734600879
20
-12.088755859789
30
0
41
1
10
18.7660011409054
20
-12.0778215820391
30
0
41
1
10
18.6758396658238
20
-12.0696014022191
30
0
41
1
10
18.4102099467678
20
-12.0372872523328
30
0
41
1
10
18.2381367112156
20
-12.0055306188834
30
0
41
1
10
17.9870716013671
20
-11.9431092026173
30
0
41
1
10
17.9045628407301
20
-11.9198241124851
30
0
41
1
10
17.7418829445606
20
-11.8682404378462
30
0
41
1
10
17.6614313160615
20
-11.83982982471
30
0
41
1
10
17.4255479254618
20
-11.7476340269467
30
0
41
1
10
17.277525387993
20
-11.6777906063963
30
0
41
1
10
16.9978048420693
20
-11.5223083783762
30
0
41
1
10
16.8661241890325
20
-11.4366556420071
30
0
41
1
10
16.6799608722328
20
-11.296393110404
30
0
41
1
10
16.6198552358381
20
-11.2476774788472
30
0
41
1
10
16.5049012754789
20
-11.147764628619
30
0
41
1
10
16.4498204983423
20
-11.0963986881805
30
0
41
1
10
16.185492847029
20
-10.832748386061
30
0
41
1
10
16.0090880901115
20
-10.6001561941382
30
0
41
1
10
15.8601551163563
20
-10.3472032673452
30
0
0
SPLINE
5
137
100
AcDbEntity
8
1
62
256
6
ByLayer
370
18
48
1
60
0
100
AcDbSpline
70
4
71
3
72
12
73
8
40
0
40
0
40
0
40
0
40
0.499999999999999
40
0.499999999999999
40
0.75
40
0.75
40
1
40
1
40
1
40
1
41
1
10
24.9466239065444
20
-10.5453106833838
30
0
41
1
10
25.0971727249562
20
-10.5044106617597
30
0
41
1
10
25.2439743314913
20
-10.4470758339586
30
0
41
1
10
25.4578420857508
20
-10.3338896510938
30
0
41
1
10
25.5277872910376
20
-10.2916462674245
30
0
41
1
10
25.6615155979755
20
-10.2000823283844
30
0
41
1
10
25.7257910127783
20
-10.1505162795942
30
0
41
1
10
25.7874256383884
20
-10.0970935307696
30
0
0
SPLINE
5
138
100
AcDbEntity
8
1
62
256
6
ByLayer
370
18
48
1
60
0
100
AcDbSpline
70
4
71
3
72
8
73
4
40
0
40
0
40
0
40
0
40
1
40
1
40
1
40
1
41
1
10
32.2101345669971
20
-8.26324093053066
30
0
41
1
10
32.2241469647368
20
-8.24794908175699
30
0
41
1
10
32.2397337927826
20
-8.23408873135523
30
0
41
1
10
32.2568898615968
20
-8.22164330809372
30
0
0
SPLINE
5
139
100
AcDbEntity
8
1
62
256
6
ByLayer
370
18
48
1
60
0
100
AcDbSpline
70
4
71
3
72
8
73
4
40
0
40
0
40
0
40
0
40
1
40
1
40
1
40
1
41
1
10
30.230119238754
20
-10.4334753185171
30
0
41
1
10
30.2410207200949
20
-10.4153020664668
30
0
41
1
10
30.2534694615188
20
-10.3985661938847
30
0
41
1
10
30.2674835772466
20
-10.383272470256
30
0
0
SPLINE
5
13A
100
AcDbEntity
8
1
62
256
6
ByLayer
370
18
48
1
60
0
100
AcDbSpline
70
4
71
3
72
14
73
10
40
0
40
0
40
0
40
0
40
0.25
40
0.25
40
0.5
40
0.5
40
0.75
40
0.75
40
1
40
1
40
1
40
1
41
1
10
7.33660254037875
20
5.06861858311214
30
0
41
1
10
7.32728622413839
20
5.03435447791148
30
0
41
1
10
7.31604838234091
20
5.00049514204602
30
0
41
1
10
7.2887170293869
20
4.93501774293352
30
0
41
1
10
7.27268471918086
20
4.90327363414838
30
0
41
1
10
7.2327434544834
20
4.84315978484941
30
0
41
1
10
7.20931301339454
20
4.81521507849271
30
0
41
1
10
7.15018729089493
20
4.77068116219561
30
0
41
1
10
7.11466817344132
20
4.75546271781758
30
0
41
1
10
7.07679491924327
20
4.75546271781761
30
0
0
SPLINE
5
13B
100
AcDbEntity
8
1
62
256
6
ByLayer
370
18
48
1
60
0
100
AcDbSpline
70
4
71
3
72
10
73
6
40
0
40
0
40
0
40
0
40
0.5
40
0.5
40
1
40
1
40
1
40
1
41
1
10
37.8059536085344
20
-0.361721742849028
30
0
41
1
10
37.8007781691454
20
-0.370685866822157
30
0
41
1
10
37.7992006405421
20
-0.382163303557093
30
0
41
1
10
37.8030058389037
20
-0.409106065682295
30
0
41
1
10
37.8083209439611
20
-0.424619180272742
30
0
41
1
10
37.8172028184906
20
-0.4422375396598
30
0
0
SPLINE
5
13C
100
AcDbEntity
8
1
62
256
6
ByLayer
370
18
48
1
60
0
100
AcDbSpline
70
4
71
3
72
9
73
5
40
0
40
0
40
0
40
0
40
0.5
40
1
40
1
40
1
40
1
41
1
10
16.9856310997054
20
-16.4877828369184
30
0
41
1
10
17.0445924485988
20
-16.5084609403296
30
0
41
1
10
17.1619824639208
20
-16.5516984096286
30
0
41
1
10
17.2782993758106
20
-16.5987257337719
30
0
41
1
10
17.3361867991632
20
-16.6231965954499
30
0
0
SPLINE
5
13D
100
AcDbEntity
8
1
62
256
6
ByLayer
370
18
48
1
60
0
100
AcDbSpline
70
4
71
3
72
8
73
4
40
0
40
0
40
0
40
0
40
1
40
1
40
1
40
1
41
1
10
29.4946869856061
20
-1.27635623460799
30
0
41
1
10
29.8221409778425
20
-1.64304427499647
30
0
41
1
10
30.151273684315
20
-2.01713294745255
30
0
41
1
10
30.4819237750094
20
-2.39873971559499
30
0
0
SPLINE
5
13E
100
AcDbEntity
8
1
62
256
6
ByLayer
370
18
48
1
60
0
100
AcDbSpline
70
4
71
3
72
10
73
6
40
0
40
0
40
0
40
0
40
0.5
40
0.5
40
1
40
1
40
1
40
1
41
1
10
15.2792076144252
20
-15.3696944815063
30
0
41
1
10
15.1425461877991
20
-15.5037349451757
30
0
41
1
10
15.0415771769946
20
-15.6176517106026
30
0
41
1
10
14.9093437239033
20
-15.803177450351
30
0
41
1
10
14.8780561751912
20
-15.8748022663507
30
0
41
1
10
14.8829979012732
20
-15.9237144273691
30
0
0
SPLINE
5
13F
100
AcDbEntity
8
1
62
256
6
ByLayer
370
18
48
1
60
0
100
AcDbSpline
70
4
71
3
72
10
73
6
40
0
40
0
40
0
40
0
40
0.5
40
0.5
40
1
40
1
40
1
40
1
41
1
10
30.5385219379648
20
-5.13785482052651
30
0
41
1
10
29.8228686042268
20
-6.03871227947448
30
0
41
1
10
29.068800018201
20
-6.90209854451362
30
0
41
1
10
27.4850529404057
20
-8.55513623490228
30
0
41
1
10
26.6553733597193
20
-9.34478664725225
30
0
41
1
10
25.7874256383884
20
-10.0970935307696
30
0
0
SPLINE
5
140
100
AcDbEntity
8
1
62
256
6
ByLayer
370
18
48
1
60
0
100
AcDbSpline
70
4
71
3
72
8
73
4
40
0
40
0
40
0
40
0
40
1
40
1
40
1
40
1
41
1
10
15.0568490498113
20
4.5134221678228
30
0
41
1
10
15.0801718801246
20
5.31309970706079
30
0
41
1
10
15.1090823872415
20
6.08590902794128
30
0
41
1
10
15.1437117597741
20
6.83121931296986
30
0
0
SPLINE
5
141
100
AcDbEntity
8
SK1
62
256
6
ByLayer
370
18
48
1
60
0
100
AcDbSpline
70
4
71
3
72
24
73
20
40
0
40
0
40
0
40
0
40
0.0625000000000001
40
0.0625000000000001
40
0.0937500000000001
40
0.0937500000000001
40
0.125
40
0.125
40
0.1875
40
0.1875
40
0.25
40
0.25
40
0.374999999999999
40
0.374999999999999
40
0.499999999999999
40
0.499999999999999
40
0.75
40
0.75
40
1
40
1
40
1
40
1
41
1
10
-0.394913799811292
20
-4.64134914436013
30
0
41
1
10
-0.425901447032714
20
-4.6659926546063
30
0
41
1
10
-0.460923352038037
20
-4.68745660748823
30
0
41
1
10
-0.521694744017537
20
-4.70635480513138
30
0
41
1
10
-0.543161985513649
20
-4.71022012136146
30
0
41
1
10
-0.586817252076514
20
-4.71154744627049
30
0
41
1
10
-0.608768681369014
20
-4.70897595774738
30
0
41
1
10
-0.671675648628337
20
-4.69303326876928
30
0
41
1
10
-0.708794771751286
20
-4.6722118687334
30
0
41
1
10
-0.773377272723764
20
-4.62397443232291
30
0
41
1
10
-0.801549577738683
20
-4.59612526444965
30
0
41
1
10
-0.877565791529463
20
-4.50927743815646
30
0
41
1
10
-0.918002207670185
20
-4.44644339777187
30
0
41
1
10
-0.99093675602515
20
-4.31629438610295
30
0
41
1
10
-1.02286862879961
20
-4.24886704128363
30
0
41
1
10
-1.1101008286272
20
-4.04348705388159
30
0
41
1
10
-1.15737870714949
20
-3.90160072067883
30
0
41
1
10
-1.24031220033376
20
-3.61257924954592
30
0
41
1
10
-1.27575295876679
20
-3.46500953389574
30
0
41
1
10
-1.30710678118655
20
-3.31451661882926
30
0
0
SPLINE
5
142
100
AcDbEntity
8
SK1
62
256
6
ByLayer
370
18
48
1
60
0
100
AcDbSpline
70
4
71
3
72
8
73
4
40
0
40
0
40
0
40
0
40
1
40
1
40
1
40
1
41
1
10
-1.30710678118655
20
-3.31451661882926
30
0
41
1
10
-1.37240810566223
20
-3.00108157583901
30
0
41
1
10
-1.43628634923527
20
-2.67986243556891
30
0
41
1
10
-1.49503997793928
20
-2.34849338234218
30
0
0
SPLINE
5
143
100
AcDbEntity
8
SK1
62
256
6
ByLayer
370
18
48
1
60
0
100
AcDbSpline
70
4
71
3
72
20
73
16
40
0
40
0
40
0
40
0
40
0.125
40
0.125
40
0.25
40
0.25
40
0.5
40
0.5
40
0.5625
40
0.5625
40
0.625
40
0.625
40
0.75
40
0.75
40
1
40
1
40
1
40
1
41
1
10
-1.69999999999999
20
-2.34765420370229
30
0
41
1
10
-1.73206310969363
20
-2.16033448890278
30
0
41
1
10
-1.76234965181257
20
-1.97058473862921
30
0
41
1
10
-1.81749643305926
20
-1.585302495197
30
0
41
1
10
-1.84226582159175
20
-1.38992506184351
30
0
41
1
10
-1.90400874264006
20
-0.802087703728887
30
0
41
1
10
-1.9284609785436
20
-0.405392640011911
30
0
41
1
10
-1.92858996593
20
0.098096875673491
30
0
41
1
10
-1.92711759702396
20
0.1991732695476
30
0
41
1
10
-1.92124656446569
20
0.402078952310745
30
0
41
1
10
-1.91683078681109
20
0.503889993893893
30
0
41
1
10
-1.89960742958058
20
0.805850441666081
30
0
41
1
10
-1.88287055486933
20
1.00413788392149
30
0
41
1
10
-1.82092287514479
20
1.59149117216367
30
0
41
1
10
-1.7641083133845
20
1.97311873634729
30
0
41
1
10
-1.69999999999999
20
2.34765294686034
30
0
0
SPLINE
5
144
100
AcDbEntity
8
SK1
62
256
6
ByLayer
370
18
48
1
60
0
100
AcDbSpline
70
4
71
3
72
26
73
22
40
0
40
0
40
0
40
0
40
0.0312499999999996
40
0.0312499999999996
40
0.0624999999999992
40
0.0624999999999992
40
0.0937499999999988
40
0.0937499999999988
40
0.124999999999998
40
0.124999999999998
40
0.187499999999999
40
0.187499999999999
40
0.249999999999999
40
0.249999999999999
40
0.375
40
0.375
40
0.500000000000001
40
0.500000000000001
40
0.750000000000001
40
0.750000000000001
40
1
40
1
40
1
40
1
41
1
10
-0.394913799811292
20
4.64134848730546
30
0
41
1
10
-0.388425258622902
20
4.63618835793983
30
0
41
1
10
-0.381287419818449
20
4.63171844250411
30
0
41
1
10
-0.365415259342427
20
4.62594718097634
30
0
41
1
10
-0.356384395480006
20
4.62478628492951
30
0
41
1
10
-0.338769276491263
20
4.62802534740308
30
0
41
1
10
-0.330378563147519
20
4.6323068431922
30
0
41
1
10
-0.315847861838733
20
4.64354733439694
30
0
41
1
10
-0.309721117058871
20
4.65026872536157
30
0
41
1
10
-0.293285604792715
20
4.67183662232267
30
0
41
1
10
-0.285117576993628
20
4.68767495098532
30
0
41
1
10
-0.271083459937017
20
4.71966709939039
30
0
41
1
10
-0.265341062182387
20
4.73587605207916
30
0
41
1
10
-0.250120842606862
20
4.78479920545476
30
0
41
1
10
-0.242633480865351
20
4.81789012649705
30
0
41
1
10
-0.230191721451263
20
4.88386769345621
30
0
41
1
10
-0.225317789620732
20
4.91677347333891
30
0
41
1
10
-0.213130319853349
20
5.01521636762047
30
0
41
1
10
-0.208236157677135
20
5.08030239158859
30
0
41
1
10
-0.201789875664218
20
5.20909745628526
30
0
41
1
10
-0.200315036908961
20
5.27289521367564
30
0
41
1
10
-0.199999999999989
20
5.33617165766907
30
0
0
SPLINE
5
145
100
AcDbEntity
8
SK1
62
256
6
ByLayer
370
18
48
1
60
0
100
AcDbSpline
70
4
71
3
72
28
73
24
40
0
40
0
40
0
40
0
40
0.25
40
0.25
40
0.5
40
0.5
40
0.625
40
0.625
40
0.749999999999999
40
0.749999999999999
40
0.812499999999999
40
0.812499999999999
40
0.843749999999999
40
0.843749999999999
40
0.875
40
0.875
40
0.90625
40
0.90625
40
0.9375
40
0.9375
40
0.96875
40
0.96875
40
1
40
1
40
1
40
1
41
1
10
-1.30710678118655
20
3.3145152459299
30
0
41
1
10
-1.27578673191985
20
3.46484629894368
30
0
41
1
10
-1.2403661783427
20
3.61237932373058
30
0
41
1
10
-1.15738013743496
20
3.90160629861265
30
0
41
1
10
-1.11031674538833
20
4.04274368624129
30
0
41
1
10
-1.02371151847871
20
4.24699761249244
30
0
41
1
10
-0.992149964717527
20
4.31385939544438
30
0
41
1
10
-0.919480969966003
20
4.44406400035078
30
0
41
1
10
-0.878326706817404
20
4.5081848117546
30
0
41
1
10
-0.802552428118815
20
4.5950872563568
30
0
41
1
10
-0.77485919366643
20
4.62267515204977
30
0
41
1
10
-0.726125293179763
20
4.65935713023322
30
0
41
1
10
-0.708965296078389
20
4.67052822129415
30
0
41
1
10
-0.67195901527478
20
4.68980304611625
30
0
41
1
10
-0.651837905888897
20
4.69795383110088
30
0
41
1
10
-0.609887134694247
20
4.7087924831155
30
0
41
1
10
-0.587614872184105
20
4.7114938517546
30
0
41
1
10
-0.543944604523716
20
4.71031756324751
30
0
41
1
10
-0.522096252625317
20
4.70643518564884
30
0
41
1
10
-0.481742629548165
20
4.69397282821282
30
0
41
1
10
-0.462573620801777
20
4.68531528747235
30
0
41
1
10
-0.426942829143144
20
4.66516143545468
30
0
41
1
10
-0.410472906339265
20
4.65372214729592
30
0
41
1
10
-0.394913799811292
20
4.64134848730561
30
0
0
SPLINE
5
146
100
AcDbEntity
8
SK1
62
256
6
ByLayer
370
18
48
1
60
0
100
AcDbSpline
70
4
71
3
72
26
73
22
40
0
40
0
40
0
40
0
40
0.03125
40
0.03125
40
0.0624999999999999
40
0.0624999999999999
40
0.0937499999999999
40
0.0937499999999999
40
0.125
40
0.125
40
0.187499999999999
40
0.187499999999999
40
0.249999999999999
40
0.249999999999999
40
0.374999999999999
40
0.374999999999999
40
0.499999999999999
40
0.499999999999999
40
0.75
40
0.75
40
1
40
1
40
1
40
1
41
1
10
-0.394913799811292
20
-10.7863826978029
30
0
41
1
10
-0.388426507712154
20
-10.787227586153
30
0
41
1
10
-0.381289694858736
20
-10.7883210861532
30
0
41
1
10
-0.3654200450828
20
-10.791337033703
30
0
41
1
10
-0.356390117274628
20
-10.7933520846794
30
0
41
1
10
-0.338774918522915
20
-10.7980475491484
30
0
41
1
10
-0.330384211816323
20
-10.8006623096244
30
0
41
1
10
-0.315854674148483
20
-10.8056853782479
30
0
41
1
10
-0.309727185477641
20
-10.8080590642197
30
0
41
1
10
-0.293293062226127
20
-10.8148394286425
30
0
41
1
10
-0.285126039629859
20
-10.8188057871172
30
0
41
1
10
-0.271092516939376
20
-10.8260627858261
30
0
41
1
10
-0.265350305450426
20
-10.8293335169385
30
0
41
1
10
-0.250130281396991
20
-10.8384696058875
30
0
41
1
10
-0.242642588565843
20
-10.843670170307
30
0
41
1
10
-0.230199570868422
20
-10.8528598378647
30
0
41
1
10
-0.225324657946203
20
-10.856834374316
30
0
41
1
10
-0.213134100320104
20
-10.8673274181679
30
0
41
1
10
-0.208238015330068
20
-10.8724058247833
30
0
41
1
10
-0.201789896527373
20
-10.8796791250753
30
0
41
1
10
-0.200315034891105
20
-10.8818604729122
30
0
41
1
10
-0.199999999999989
20
-10.8828072337142
30
0
0
SPLINE
5
147
100
AcDbEntity
8
SK1
62
256
6
ByLayer
370
18
48
1
60
0
100
AcDbSpline
70
4
71
3
72
8
73
4
40
0
40
0
40
0
40
0
40
1
40
1
40
1
40
1
41
1
10
-1.49503997793928
20
2.34849203258926
30
0
41
1
10
-1.43628627104755
20
2.67986102744021
30
0
41
1
10
-1.37240801076524
20
3.00108015130189
30
0
41
1
10
-1.30710678118655
20
3.3145152459299
30
0
0
SPLINE
5
148
100
AcDbEntity
8
SK1
62
256
6
ByLayer
370
18
48
1
60
0
100
AcDbSpline
70
4
71
3
72
30
73
26
40
0
40
0
40
0
40
0
40
0.250000000000008
40
0.250000000000008
40
0.375000000000011
40
0.375000000000011
40
0.437500000000013
40
0.437500000000013
40
0.453125000000014
40
0.453125000000014
40
0.468750000000014
40
0.468750000000014
40
0.484375000000015
40
0.484375000000015
40
0.500000000000015
40
0.500000000000015
40
0.531250000000013
40
0.531250000000013
40
0.562500000000011
40
0.562500000000011
40
0.62500000000001
40
0.62500000000001
40
0.750000000000007
40
0.750000000000007
40
1
40
1
40
1
40
1
41
1
10
-1.69999999999999
20
2.34765294685576
30
0
41
1
10
-1.69961044225181
20
2.2572586883577
30
0
41
1
10
-1.6977068318385
20
2.16618278642361
30
0
41
1
10
-1.68861026727478
20
2.02935878184857
30
0
41
1
10
-1.68475946375358
20
1.98372491304792
30
0
41
1
10
-1.67384117057404
20
1.91523217719325
30
0
41
1
10
-1.66967775821831
20
1.89217231147967
30
0
41
1
10
-1.65983641715789
20
1.86533039904762
30
0
41
1
10
-1.65758301818303
20
1.86005243113519
30
0
41
1
10
-1.65205563856742
20
1.85060165847582
30
0
41
1
10
-1.64860934197074
20
1.84627049588499
30
0
41
1
10
-1.64063877709299
20
1.84199942607935
30
0
41
1
10
-1.63629111987302
20
1.84243164462569
30
0
41
1
10
-1.62888692033508
20
1.84643843994675
30
0
41
1
10
-1.62566916555514
20
1.8497131639833
30
0
41
1
10
-1.6169856051412
20
1.86059174535168
30
0
41
1
10
-1.61227810047424
20
1.86945386085995
30
0
41
1
10
-1.60367776004784
20
1.88777253140711
30
0
41
1
10
-1.59982985491632
20
1.89736086048552
30
0
41
1
10
-1.58898554423647
20
1.92669096647967
30
0
41
1
10
-1.58270783684463
20
1.94692992432044
30
0
41
1
10
-1.56505556333235
20
2.00844150870174
30
0
41
1
10
-1.55494031946719
20
2.05044980030817
30
0
41
1
10
-1.52652387127517
20
2.17711795633599
30
0
41
1
10
-1.51024974804281
20
2.26270942416858
30
0
41
1
10
-1.49503997793988
20
2.3484920325786
30
0
0
SPLINE
5
149
100
AcDbEntity
8
SK1
62
256
6
ByLayer
370
18
48
1
60
0
100
AcDbSpline
70
4
71
3
72
30
73
26
40
0
40
0
40
0
40
0
40
0.249999999999994
40
0.249999999999994
40
0.374999999999991
40
0.374999999999991
40
0.437499999999991
40
0.437499999999991
40
0.499999999999991
40
0.499999999999991
40
0.515624999999991
40
0.515624999999991
40
0.531249999999991
40
0.531249999999991
40
0.546874999999991
40
0.546874999999991
40
0.562499999999991
40
0.562499999999991
40
0.593749999999991
40
0.593749999999991
40
0.624999999999992
40
0.624999999999992
40
0.749999999999995
40
0.749999999999995
40
1
40
1
40
1
40
1
41
1
10
-1.49503997793928
20
-2.34849338234218
30
0
41
1
10
-1.51012038873287
20
-2.26344022805773
30
0
41
1
10
-1.52626859351958
20
-2.1784976276306
30
0
41
1
10
-1.55436279244103
20
-2.05290912645634
30
0
41
1
10
-1.56433935358569
20
-2.01133954299181
30
0
41
1
10
-1.58166446065891
20
-1.9503889844722
30
0
41
1
10
-1.58782214937702
20
-1.9302989986453
30
0
41
1
10
-1.60194269190822
20
-1.89126567336515
30
0
41
1
10
-1.60941385289485
20
-1.87192770196731
30
0
41
1
10
-1.62321157089434
20
-1.85255132027478
30
0
41
1
10
-1.62620205615826
20
-1.84900379634971
30
0
41
1
10
-1.63312845808542
20
-1.8436957923536
30
0
41
1
10
-1.63717496103641
20
-1.84201536268154
30
0
41
1
10
-1.64550750844782
20
-1.84380418255896
30
0
41
1
10
-1.64940378061016
20
-1.84732793755077
30
0
41
1
10
-1.6555824073387
20
-1.8560666599372
30
0
41
1
10
-1.65807410816046
20
-1.86126309906433
30
0
41
1
10
-1.66450273771378
20
-1.87718319520385
30
0
41
1
10
-1.66755280645526
20
-1.88849837458488
30
0
41
1
10
-1.67282618887015
20
-1.91127637950416
30
0
41
1
10
-1.6749748309669
20
-1.92276974286997
30
0
41
1
10
-1.68447028436358
20
-1.9805043991002
30
0
41
1
10
-1.68840775096777
20
-2.02687285830311
30
0
41
1
10
-1.69769487814688
20
-2.16492198041507
30
0
41
1
10
-1.6996068736004
20
-2.25643172289398
30
0
41
1
10
-1.69999999999999
20
-2.34765420370229
30
0
0
SPLINE
5
14A
100
AcDbEntity
8
SK1
62
256
6
ByLayer
370
18
48
1
60
0
100
AcDbSpline
70
4
71
3
72
26
73
22
40
0
40
0
40
0
40
0
40
0.25
40
0.25
40
0.500000000000001
40
0.500000000000001
40
0.625000000000001
40
0.625000000000001
40
0.750000000000001
40
0.750000000000001
40
0.8125
40
0.8125
40
0.874999999999999
40
0.874999999999999
40
0.906249999999999
40
0.906249999999999
40
0.9375
40
0.9375
40
0.96875
40
0.96875
40
1
40
1
40
1
40
1
41
1
10
-0.199999999999989
20
-5.33617277211951
30
0
41
1
10
-0.200314800742888
20
-5.27294373858308
30
0
41
1
10
-0.201788314269919
20
-5.20924017881703
30
0
41
1
10
-0.208207422540681
20
-5.08076755432873
30
0
41
1
10
-0.213067102815756
20
-5.01600331798619
30
0
41
1
10
-0.225163636448798
20
-4.91788495786889
30
0
41
1
10
-0.230005515013176
20
-4.88501617585194
30
0
41
1
10
-0.242417184986465
20
-4.81888282805195
30
0
41
1
10
-0.24988741335369
20
-4.78571589907955
30
0
41
1
10
-0.265070718767532
20
-4.73666607870942
30
0
41
1
10
-0.270799710556361
20
-4.72041012361524
30
0
41
1
10
-0.284801004396257
20
-4.68830582141931
30
0
41
1
10
-0.292999555969487
20
-4.67233819798071
30
0
41
1
10
-0.309321048903229
20
-4.65073469454796
30
0
41
1
10
-0.315531464191878
20
-4.64386259141477
30
0
41
1
10
-0.329976091876233
20
-4.6325523624715
30
0
41
1
10
-0.338533686057104
20
-4.62810560485738
30
0
41
1
10
-0.356257906732168
20
-4.62477461743396
30
0
41
1
10
-0.365219597406877
20
-4.62590030859471
30
0
41
1
10
-0.381195309126326
20
-4.63166238717281
30
0
41
1
10
-0.388392578577168
20
-4.63616302031681
30
0
41
1
10
-0.394913799811292
20
-4.64134914436011
30
0
0
SPLINE
5
14B
100
AcDbEntity
8
SK1
62
256
6
ByLayer
370
18
48
1
60
0
100
AcDbSpline
70
4
71
3
72
24
73
20
40
0
40
0
40
0
40
0
40
0.188459545441718
40
0.188459545441718
40
0.391344659081289
40
0.391344659081289
40
0.594229772720859
40
0.594229772720859
40
0.695672329540645
40
0.695672329540645
40
0.79711488636043
40
0.79711488636043
40
0.847836164770323
40
0.847836164770323
40
0.898557443180215
40
0.898557443180215
40
0.949278721590108
40
0.949278721590108
40
1
40
1
40
1
40
1
41
1
10
-0.211816185171841
20
10.868940671989
30
0
41
1
10
-0.214335614088668
20
10.8664859034729
30
0
41
1
10
-0.217390691903205
20
10.8636682556763
30
0
41
1
10
-0.225170221794059
20
10.856962537247
30
0
41
1
10
-0.230013012871865
20
10.8530063957256
30
0
41
1
10
-0.242425709259095
20
10.8438220163921
30
0
41
1
10
-0.249896424670027
20
10.8386234401202
30
0
41
1
10
-0.265079336283264
20
10.8294898497133
30
0
41
1
10
-0.270808032640446
20
10.8262193711045
30
0
41
1
10
-0.284808101525215
20
10.818961343297
30
0
41
1
10
-0.293006134697634
20
10.8149728198425
30
0
41
1
10
-0.30932633272792
20
10.8082174869319
30
0
41
1
10
-0.315536517292372
20
10.8058045642772
30
0
41
1
10
-0.329980700725372
20
10.8007933009157
30
0
41
1
10
-0.338538460696384
20
10.7981157413208
30
0
41
1
10
-0.356262725524772
20
10.7933812288814
30
0
41
1
10
-0.365223857041116
20
10.7913777587149
30
0
41
1
10
-0.381197648136407
20
10.788335443206
30
0
41
1
10
-0.388393721229079
20
10.7872319771612
30
0
41
1
10
-0.394913799811292
20
10.7863828177394
30
0
0
SPLINE
5
14C
100
AcDbEntity
8
SK1
62
256
6
ByLayer
370
18
48
1
60
0
100
AcDbSpline
70
4
71
3
72
39
73
35
40
0
40
0
40
0
40
0
40
0.0179591174107602
40
0.0463144777436617
40
0.0746698380765632
40
0.103025198409465
40
0.159735919075267
40
0.21644663974107
40
0.244802000073972
40
0.273157360406873
40
0.329868081072676
40
0.358223441405578
40
0.386578801738479
40
0.414934162071381
40
0.443289522404282
40
0.471644882737184
40
0.485822562903634
40
0.500000243070085
40
0.514177923236536
40
0.528355603402986
40
0.556710963735888
40
0.585066324068789
40
0.613421684401691
40
0.641777044734592
40
0.670132405067494
40
0.726843125733297
40
0.755198486066198
40
0.7835538463991
40
0.840264567064902
40
0.896975287730705
40
0.925330648063607
40
0.953686008396508
40
0.98204136872941
40
1
40
1
40
1
40
1
41
1
10
-19
20
-10.0331845219205
30
0
41
1
10
-19
20
-10.0311837051391
30
0
41
1
10
-19
20
-10.009578035072
30
0
41
1
10
-19
20
-9.91123825969146
30
0
41
1
10
-19
20
-9.71891823175801
30
0
41
1
10
-19
20
-9.36252604803423
30
0
41
1
10
-19
20
-8.74965901233355
30
0
41
1
10
-19
20
-7.9350351787146
30
0
41
1
10
-19
20
-7.16669631785615
30
0
41
1
10
-19
20
-6.32708816044823
30
0
41
1
10
-19
20
-5.39691159718635
30
0
41
1
10
-19
20
-4.35855354299241
30
0
41
1
10
-19
20
-3.54050705744922
30
0
41
1
10
-19
20
-2.6838095858885
30
0
41
1
10
-19
20
-1.79728192772168
30
0
41
1
10
-19
20
-1.0502111192676
30
0
41
1
10
-19
20
-0.444753991208074
30
0
41
1
10
-19
20
-1.751603804E-07
30
0
41
1
10
-19
20
0.444754022193024
30
0
41
1
10
-19
20
1.05021119288873
30
0
41
1
10
-19
20
1.79728161122435
30
0
41
1
10
-19
20
2.68380947355118
30
0
41
1
10
-19
20
3.54050720156599
30
0
41
1
10
-19
20
4.35855334822477
30
0
41
1
10
-19
20
5.39691150719781
30
0
41
1
10
-19
20
6.32708816497822
30
0
41
1
10
-19
20
7.16669627657109
30
0
41
1
10
-19
20
7.93503539480022
30
0
41
1
10
-19
20
8.74965879408046
30
0
41
1
10
-19
20
9.36252651571962
30
0
41
1
10
-19
20
9.7189181452959
30
0
41
1
10
-19
20
9.9112384954864
30
0
41
1
10
-19
20
10.0095777301024
30
0
41
1
10
-19
20
10.0311834165619
30
0
41
1
10
-19
20
10.0331844779833
30
0
0
SPLINE
5
14D
100
AcDbEntity
8
SK1
62
256
6
ByLayer
370
18
48
1
60
0
100
AcDbSpline
70
4
71
3
72
22
73
18
40
0
40
0
40
0
40
0
40
0.0420605651441795
40
0.101799703316121
40
0.161538841488063
40
0.221277979660005
40
0.340756256003889
40
0.400495394175831
40
0.460234532347773
40
0.579712808691657
40
0.699191085035541
40
0.758930223207483
40
0.818669361379425
40
0.878408499551367
40
0.938147637723308
40
0.99788677589525
40
1
40
1
40
1
40
1
41
1
10
-1.49503997793928
20
-2.34849338234218
30
0
41
1
10
-1.49503997793928
20
-2.57901008145927
30
0
41
1
10
-1.49503997793928
20
-3.12815554972912
30
0
41
1
10
-1.49503997793928
20
-3.96252944300574
30
0
41
1
10
-1.49503997793928
20
-4.83747557076666
30
0
41
1
10
-1.49503997793928
20
-5.93563839600924
30
0
41
1
10
-1.49503997793928
20
-6.92500328929282
30
0
41
1
10
-1.49503997793928
20
-7.80570924310555
30
0
41
1
10
-1.49503997793928
20
-8.61066206691208
30
0
41
1
10
-1.49503997793928
20
-9.46887528495321
30
0
41
1
10
-1.49503997793928
20
-10.1156289513023
30
0
41
1
10
-1.49503997793928
20
-10.4906675023526
30
0
41
1
10
-1.49503997793928
20
-10.6946434738397
30
0
41
1
10
-1.49503997793928
20
-10.8141640185915
30
0
41
1
10
-1.49503997793928
20
-10.8393957525317
30
0
41
1
10
-1.49503997793926
20
-10.783210484142
30
0
41
1
10
-1.49503997793928
20
-10.7317559619593
30
0
41
1
10
-1.49503997793928
20
-10.729971059772
30
0
0
SPLINE
5
14E
100
AcDbEntity
8
SK1
62
256
6
ByLayer
370
18
48
1
60
0
100
AcDbSpline
70
4
71
3
72
22
73
18
40
0
40
0
40
0
40
0
40
0.0021134969837665
40
0.0618526142793592
40
0.121591731574952
40
0.181330848870545
40
0.241069966166137
40
0.30080908346173
40
0.420287318052916
40
0.539765552644101
40
0.599504669939694
40
0.659243787235286
40
0.778722021826472
40
0.838461139122065
40
0.898200256417657
40
0.95793937371325
40
1
40
1
40
1
40
1
41
1
10
-1.49503997793928
20
10.7299706021897
30
0
41
1
10
-1.49503997793928
20
10.7317557411979
30
0
41
1
10
-1.49503997793928
20
10.7832105521143
30
0
41
1
10
-1.49503997793928
20
10.8393956768366
30
0
41
1
10
-1.49503997793928
20
10.814164384794
30
0
41
1
10
-1.49503997793928
20
10.6946436859911
30
0
41
1
10
-1.49503997793928
20
10.4906674180643
30
0
41
1
10
-1.49503997793928
20
10.1156294314955
30
0
41
1
10
-1.49503997793928
20
9.46887502691081
30
0
41
1
10
-1.49503997793928
20
8.61066229913334
30
0
41
1
10
-1.49503997793928
20
7.80570915265955
30
0
41
1
10
-1.49503997793928
20
6.92500328675371
30
0
41
1
10
-1.49503997793928
20
5.93563827659562
30
0
41
1
10
-1.49503997793928
20
4.83747546310531
30
0
41
1
10
-1.49503997793928
20
3.96252951444396
30
0
41
1
10
-1.49503997793928
20
3.12815500226569
30
0
41
1
10
-1.49503997793928
20
2.57900913866001
30
0
41
1
10
-1.49503997793928
20
2.3484920325788
30
0
0
SPLINE
5
14F
100
AcDbEntity
8
SK1
62
256
6
ByLayer
370
18
48
1
60
0
100
AcDbSpline
70
4
71
3
72
20
73
16
40
0
40
0
40
0
40
0
40
0.0492465163089862
40
0.112736674261599
40
0.176226832214212
40
0.239716990166824
40
0.366697306072049
40
0.430187464024662
40
0.493677621977274
40
0.6206579378825
40
0.747638253787725
40
0.811128411740338
40
0.87461856969295
40
0.938108727645563
40
1
40
1
40
1
40
1
41
1
10
-1.69999999999999
20
-2.34765420370229
30
0
41
1
10
-1.69999999999999
20
-2.60856195587277
30
0
41
1
10
-1.69999999999999
20
-3.19422498243512
30
0
41
1
10
-1.69999999999999
20
-4.06639719899749
30
0
41
1
10
-1.69999999999999
20
-4.95534741364133
30
0
41
1
10
-1.69999999999999
20
-6.06822933336571
30
0
41
1
10
-1.69999999999999
20
-7.07216160324032
30
0
41
1
10
-1.69999999999999
20
-7.96298250837995
30
0
41
1
10
-1.69999999999999
20
-8.77694672660428
30
0
41
1
10
-1.69999999999999
20
-9.64588812329171
30
0
41
1
10
-1.69999999999999
20
-10.3009819355762
30
0
41
1
10
-1.69999999999999
20
-10.6806097131649
30
0
41
1
10
-1.69999999999999
20
-10.8874544346102
30
0
41
1
10
-1.70000000000002
20
-11.0077993826885
30
0
41
1
10
-1.69999999999996
20
-11.0254916621396
30
0
41
1
10
-1.69999999999996
20
-11.0168307088874
30
0
0
SPLINE
5
150
100
AcDbEntity
8
SK1
62
256
6
ByLayer
370
18
48
1
60
0
100
AcDbSpline
70
4
71
3
72
20
73
16
40
0
40
0
40
0
40
0
40
0.0618904090355802
40
0.125380620344959
40
0.188870831654338
40
0.252361042963716
40
0.379341465582474
40
0.506321888201231
40
0.56981209951061
40
0.633302310819988
40
0.760282733438746
40
0.823772944748124
40
0.887263156057503
40
0.950753367366882
40
1
40
1
40
1
40
1
41
1
10
-1.69999999999999
20
11.0168311572937
30
0
41
1
10
-1.69999999999999
20
11.0254914816242
30
0
41
1
10
-1.69999999999999
20
11.0077991684863
30
0
41
1
10
-1.69999999999999
20
10.8874546409424
30
0
41
1
10
-1.69999999999999
20
10.6806096294116
30
0
41
1
10
-1.69999999999999
20
10.3009824188478
30
0
41
1
10
-1.69999999999999
20
9.64588785545641
30
0
41
1
10
-1.69999999999999
20
8.77694696279681
30
0
41
1
10
-1.69999999999999
20
7.96298240583451
30
0
41
1
10
-1.69999999999999
20
7.07216159896134
30
0
41
1
10
-1.69999999999999
20
6.06822920671002
30
0
41
1
10
-1.69999999999999
20
4.95534732741851
30
0
41
1
10
-1.69999999999999
20
4.06639725254811
30
0
41
1
10
-1.69999999999999
20
3.19422443293118
30
0
41
1
10
-1.69999999999999
20
2.60856107921731
30
0
41
1
10
-1.69999999999999
20
2.34765294686034
30
0
0
SPLINE
5
151
100
AcDbEntity
8
SK1
62
256
6
ByLayer
370
18
48
1
60
0
100
AcDbSpline
70
4
71
3
72
39
73
35
40
0
40
0
40
0
40
0
40
0.0159237810836619
40
0.0443988582035293
40
0.0728739353233966
40
0.101349012443264
40
0.158299166682999
40
0.215249320922733
40
0.243724398042601
40
0.272199475162468
40
0.329149629402203
40
0.35762470652207
40
0.386099783641937
40
0.414574860761805
40
0.443049937881672
40
0.471525015001539
40
0.485762553561473
40
0.500000092121407
40
0.51423763068134
40
0.528475169241274
40
0.556950246361141
40
0.585425323481009
40
0.613900400600876
40
0.642375477720743
40
0.670850554840611
40
0.727800709080345
40
0.756275786200213
40
0.78475086332008
40
0.841701017559815
40
0.898651171799549
40
0.927126248919416
40
0.955601326039284
40
0.984076403159151
40
1
40
1
40
1
40
1
41
1
10
-18
20
10.6092861231381
30
0
41
1
10
-18
20
10.6060739727402
30
0
41
1
10
-18
20
10.5825886438996
30
0
41
1
10
-18
20
10.482359969962
30
0
41
1
10
-18
20
10.2815421717017
30
0
41
1
10
-18
20
9.91155689348966
30
0
41
1
10
-18
20
9.27398495420746
30
0
41
1
10
-18
20
8.42758387223572
30
0
41
1
10
-18
20
7.63255223517845
30
0
41
1
10
-18
20
6.76298285919094
30
0
41
1
10
-18
20
5.78965645018161
30
0
41
1
10
-18
20
4.70769924070134
30
0
41
1
10
-18
20
3.84817175180621
30
0
41
1
10
-18
20
2.94117931205881
30
0
41
1
10
-18
20
1.99095571595876
30
0
41
1
10
-18
20
1.17129192458174
30
0
41
1
10
-18
20
0.501599044412444
30
0
41
1
10
-18
20
-7.85940131E-08
30
0
41
1
10
-18
20
-0.501599059707559
30
0
41
1
10
-18
20
-1.17129189084349
30
0
41
1
10
-18
20
-1.9909558545304
30
0
41
1
10
-18
20
-2.9411794741566
30
0
41
1
10
-18
20
-3.84817166067387
30
0
41
1
10
-18
20
-4.70769937196641
30
0
41
1
10
-18
20
-5.78965656162174
30
0
41
1
10
-18
20
-6.76298285981449
30
0
41
1
10
-18
20
-7.63255231230303
30
0
41
1
10
-18
20
-8.42758364438683
30
0
41
1
10
-18
20
-9.27398520146792
30
0
41
1
10
-18
20
-9.91155641668578
30
0
41
1
10
-18
20
-10.2815422565791
30
0
41
1
10
-18
20
-10.4823597514038
30
0
41
1
10
-18
20
-10.5825880499358
30
0
41
1
10
-18
20
-10.6060735962559
30
0
41
1
10
-18
20
-10.6092858764346
30
0
0
SPLINE
5
152
100
AcDbEntity
8
1
62
256
6
ByLayer
370
18
48
1
60
0
100
AcDbSpline
70
4
71
3
72
12
73
8
40
0
40
0
40
0
40
0
40
0.0968507683525916
40
0.0968507683525916
40
0.397900512235064
40
0.397900512235064
40
1
40
1
40
1
40
1
41
1
10
30.2025716273868
20
-10.6406921190543
30
0
41
1
10
30.2003494394618
20
-10.6334001328637
30
0
41
1
10
30.1985167294642
20
-10.626101855735
30
0
41
1
10
30.1924682026607
20
-10.5963120638501
30
0
41
1
10
30.1912433587614
20
-10.5737221534956
30
0
41
1
10
30.1956936467472
20
-10.5084212705127
30
0
41
1
10
30.2089158955562
20
-10.4688222303902
30
0
41
1
10
30.2301192387542
20
-10.4334753185169
30
0
0
SPLINE
5
153
100
AcDbEntity
8
1
62
256
6
ByLayer
370
18
48
1
60
0
100
AcDbSpline
70
4
71
3
72
12
73
8
40
0
40
0
40
0
40
0
40
0.597164015021956
40
0.597164015021956
40
0.895746022532935
40
0.895746022532935
40
1
40
1
40
1
40
1
41
1
10
32.2568898615969
20
-8.22164330809372
30
0
41
1
10
32.2902419374014
20
-8.19744891341441
30
0
41
1
10
32.3285899529202
20
-8.18076850840723
30
0
41
1
10
32.3935594054756
20
-8.17065926973342
30
0
41
1
10
32.4159518597961
20
-8.16994315617197
30
0
41
1
10
32.4468157097359
20
-8.17346701627099
30
0
41
1
10
32.4549003293835
20
-8.17480187309633
30
0
41
1
10
32.4630081163106
20
-8.17659710005952
30
0
0
SPLINE
5
154
100
AcDbEntity
8
1
62
256
6
ByLayer
370
18
48
1
60
0
100
AcDbSpline
70
4
71
3
72
8
73
4
40
0
40
0
40
0
40
0
40
1
40
1
40
1
40
1
41
1
10
37.9921881511599
20
0.313499908519674
30
0
41
1
10
37.9971706253201
20
0.310375933197065
30
0
41
1
10
38.002110281571
20
0.307177408581623
30
0
41
1
10
38.0070071099088
20
0.303904317255501
30
0
0
SPLINE
5
155
100
AcDbEntity
8
1
62
256
6
ByLayer
370
18
48
1
60
0
100
AcDbSpline
70
4
71
3
72
36
73
32
40
0
40
0
40
0
40
0
40
0.038080663912913
40
0.038080663912913
40
0.118240608586837
40
0.118240608586837
40
0.198400553260761
40
0.198400553260761
40
0.278560497934685
40
0.278560497934685
40
0.358720442608609
40
0.358720442608609
40
0.398800414945571
40
0.398800414945571
40
0.438880387282532
40
0.438880387282532
40
0.519040331956457
40
0.519040331956457
40
0.599200276630381
40
0.599200276630381
40
0.679360221304305
40
0.679360221304305
40
0.759520165978229
40
0.759520165978229
40
0.79960013831519
40
0.79960013831519
40
0.839680110652152
40
0.839680110652152
40
0.919840055326076
40
0.919840055326076
40
1
40
1
40
1
40
1
41
1
10
14.5244118602499
20
15.9999965530294
30
0
41
1
10
14.5244142439908
20
15.9998242489833
30
0
41
1
10
14.5245058273115
20
15.9932266011864
30
0
41
1
10
14.5250673623513
20
15.9529135742448
30
0
41
1
10
14.5258418160586
20
15.8972942940774
30
0
41
1
10
14.5282327034731
20
15.7291699669639
30
0
41
1
10
14.5298396039223
20
15.6173177969482
30
0
41
1
10
14.5339756158893
20
15.3385086676719
30
0
41
1
10
14.5365134539651
20
15.1709530497907
30
0
41
1
10
14.5426428953421
20
14.7836718970614
30
0
41
1
10
14.5462332278078
20
14.5639003846106
30
0
41
1
10
14.5526142566524
20
14.1948944505429
30
0
41
1
10
14.5549100351198
20
14.0652444973457
30
0
41
1
10
14.5598441627755
20
13.794895719485
30
0
41
1
10
14.5624863894316
20
13.6539622839393
30
0
41
1
10
14.5710143676816
20
13.2141204820728
30
0
41
1
10
14.5774913450597
20
12.8982144889859
30
0
41
1
10
14.5926271213516
20
12.2212149599622
30
0
41
1
10
14.6012769172611
20
11.8601242239253
30
0
41
1
10
14.6217707151704
20
11.0914826508171
30
0
41
1
10
14.6335089992669
20
10.6875958886983
30
0
41
1
10
14.6614648965472
20
9.84304772850157
30
0
41
1
10
14.6777015719182
20
9.40132085502717
30
0
41
1
10
14.7072234124735
20
8.71704756003572
30
0
41
1
10
14.7179427080638
20
8.48511047514506
30
0
41
1
10
14.7416851841176
20
8.01355606788658
30
0
41
1
10
14.7547351729353
20
7.77344969082804
30
0
41
1
10
14.7982711210112
20
7.04565028795986
30
0
41
1
10
14.8328158950064
20
6.5509880215549
30
0
41
1
10
14.923240301465
20
5.54446491357581
30
0
41
1
10
14.978573232253
20
5.03253578352542
30
0
41
1
10
15.0568490498166
20
4.51342216782297
30
0
0
SPLINE
5
156
100
AcDbEntity
8
SK1
62
256
6
ByLayer
370
18
48
1
60
0
100
AcDbSpline
70
4
71
3
72
17
73
13
40
0
40
0
40
0
40
0
40
0.0282065907680285
40
0.11467867532943
40
0.201150759890832
40
0.374094929013636
40
0.54703909813644
40
0.633511182697842
40
0.719983267259244
40
0.892927436382048
40
0.97939952094345
40
1
40
1
40
1
40
1
41
1
10
-0.394913799811292
20
10.7561964873128
30
0
41
1
10
-0.394913799811292
20
10.7416308498197
30
0
41
1
10
-0.394913799811263
20
10.6760795886994
30
0
41
1
10
-0.394913799811292
20
10.5176014399701
30
0
41
1
10
-0.394913799811292
20
10.1419126962119
30
0
41
1
10
-0.394913799811292
20
9.49397564760932
30
0
41
1
10
-0.394913799811292
20
8.63424165383259
30
0
41
1
10
-0.394913799811292
20
7.82801067908787
30
0
41
1
10
-0.394913799811292
20
6.94587050303235
30
0
41
1
10
-0.394913799811292
20
5.95443982150175
30
0
41
1
10
-0.394913799811292
20
5.06372344169986
30
0
41
1
10
-0.394913799811292
20
4.70990950240184
30
0
41
1
10
-0.394913799811292
20
4.64134848730563
30
0
0
SPLINE
5
157
100
AcDbEntity
8
SK1
62
256
6
ByLayer
370
18
48
1
60
0
100
AcDbSpline
70
4
71
3
72
17
73
13
40
0
40
0
40
0
40
0
40
0.0206004209541311
40
0.107072515860559
40
0.280016705673416
40
0.366488800579844
40
0.452960895486273
40
0.625905085299129
40
0.798849275111986
40
0.885321370018414
40
0.971793464924843
40
1
40
1
40
1
40
1
41
1
10
-0.394913799811292
20
-4.64134914436013
30
0
41
1
10
-0.394913799811292
20
-4.70990996410777
30
0
41
1
10
-0.394913799811292
20
-5.06372374199364
30
0
41
1
10
-0.394913799811292
20
-5.95443994194233
30
0
41
1
10
-0.394913799811292
20
-6.94587050581816
30
0
41
1
10
-0.394913799811292
20
-7.82801077124961
30
0
41
1
10
-0.394913799811292
20
-8.63424142104822
30
0
41
1
10
-0.394913799811292
20
-9.49397590704038
30
0
41
1
10
-0.394913799811292
20
-10.1419122155822
30
0
41
1
10
-0.394913799811292
20
-10.5176015241825
30
0
41
1
10
-0.394913799811263
20
-10.6760793972153
30
0
41
1
10
-0.394913799811263
20
-10.7416305477563
30
0
41
1
10
-0.394913799811292
20
-10.756196144371
30
0
0
SPLINE
5
158
100
AcDbEntity
8
SK1
62
256
6
ByLayer
370
18
48
1
60
0
100
AcDbSpline
70
4
71
2
72
6
73
3
40
0
40
0
40
0
40
1
40
1
40
1
41
1
10
-1.49503997793928
20
-10.7287184519682
30
0
41
1
10
-0.944976888870372
20
-10.7424218878285
30
0
41
1
10
-0.394913799811292
20
-10.7561253011184
30
0
0
SPLINE
5
159
100
AcDbEntity
8
SK1
62
256
6
ByLayer
370
18
48
1
60
0
100
AcDbSpline
70
4
71
2
72
6
73
3
40
0
40
0
40
0
40
1
40
1
40
1
41
1
10
-0.394913799811292
20
10.7561254450469
30
0
41
1
10
-0.944976888870372
20
10.742422032064
30
0
41
1
10
-1.49503997793928
20
10.7287185965104
30
0
0
SPLINE
5
15A
100
AcDbEntity
8
SK1
62
256
6
ByLayer
370
18
48
1
60
0
100
AcDbSpline
70
4
71
2
72
6
73
3
40
0
40
0
40
0
40
1
40
1
40
1
41
1
10
-19
20
-10.0331225704842
30
0
41
1
10
-18.4999993598728
20
-10.3216388688797
30
0
41
1
10
-18
20
-10.6101496008039
30
0
0
SPLINE
5
15B
100
AcDbEntity
8
SK1
62
256
6
ByLayer
370
18
48
1
60
0
100
AcDbSpline
70
4
71
2
72
6
73
3
40
0
40
0
40
0
40
1
40
1
40
1
41
1
10
-18
20
10.6101497360692
30
0
41
1
10
-18.499999359849
20
10.3216390035828
30
0
41
1
10
-19
20
10.033122704642
30
0
0
SPLINE
5
15C
100
AcDbEntity
8
SK1
62
256
6
ByLayer
370
18
48
1
60
0
100
AcDbSpline
70
4
71
3
72
13
73
9
40
0
40
0
40
0
40
0
40
0.239409228619507
40
0.368297568634237
40
0.499931617248406
40
0.631577025954513
40
0.760496700015052
40
1
40
1
40
1
40
1
41
1
10
-1.69999999999999
20
-11.020099440279
30
0
41
1
10
-1.69909125944702
20
-10.9940516966249
30
0
41
1
10
-1.69103211703245
20
-10.9566935764511
30
0
41
1
10
-1.66563496160401
20
-10.910494254085
30
0
41
1
10
-1.63886251160162
20
-10.8792258274842
30
0
41
1
10
-1.6062757562614
20
-10.8540692579951
30
0
41
1
10
-1.55883875866931
20
-10.8310353403564
30
0
41
1
10
-1.52110932222976
20
-10.8248656203855
30
0
41
1
10
-1.49503997793928
20
-10.8252677308309
30
0
0
SPLINE
5
15D
100
AcDbEntity
8
SK1
62
256
6
ByLayer
370
18
48
1
60
0
100
AcDbSpline
70
4
71
3
72
13
73
9
40
0
40
0
40
0
40
0
40
0.239503300406437
40
0.368422974608219
40
0.50006838336623
40
0.63170243192957
40
0.76059077180273
40
1
40
1
40
1
40
1
41
1
10
-1.49503997793928
20
10.825267829839
30
0
41
1
10
-1.52110932222061
20
10.8248657194289
30
0
41
1
10
-1.55883875865177
20
10.8310354394285
30
0
41
1
10
-1.60627575624898
20
10.854069357026
30
0
41
1
10
-1.63886251159008
20
10.8792259264472
30
0
41
1
10
-1.66563496159546
20
10.9104943529528
30
0
41
1
10
-1.69103211702637
20
10.9566936751655
30
0
41
1
10
-1.69909125944079
20
10.9940517952282
30
0
41
1
10
-1.69999999999999
20
11.0200995388071
30
0
0
SPLINE
5
15E
100
AcDbEntity
8
SK1
62
256
6
ByLayer
370
18
48
1
60
0
100
AcDbSpline
70
4
71
2
72
6
73
3
40
0
40
0
40
0
40
1
40
1
40
1
41
1
10
-1.69999999999999
20
11.0168489196732
30
0
41
1
10
-9.84999999929849
20
10.812228522059
30
0
41
1
10
-18
20
10.6076075596898
30
0
0
SPLINE
5
15F
100
AcDbEntity
8
SK1
62
256
6
ByLayer
370
18
48
1
60
0
100
AcDbSpline
70
4
71
2
72
6
73
3
40
0
40
0
40
0
40
1
40
1
40
1
41
1
10
-18
20
-10.607607381218
30
0
41
1
10
-9.84999999929857
20
-10.8122283432519
30
0
41
1
10
-1.69999999999999
20
-11.0168487405457
30
0
0
LINE
5
7B
100
AcDbEntity
8
1
62
256
6
ByLayer
370
13
48
1
60
0
100
AcDbLine
10
43.861905
20
-21.925046
30
0
11
39.396909
21
-19.842984
31
0
39
0
210
0
220
0
230
1
0
LINE
5
7C
100
AcDbEntity
8
1
62
256
6
ByLayer
370
13
48
1
60
0
100
AcDbLine
10
23.534089
20
-16.064883
30
0
11
27.569706
21
-13.239114
31
0
39
0
210
0
220
0
230
1
0
LINE
5
7D
100
AcDbEntity
8
1
62
256
6
ByLayer
370
13
48
1
60
0
100
AcDbLine
10
39.542249
20
-8.006791
30
0
11
41.727999
21
-14.939104
31
0
39
0
210
0
220
0
230
1
0
LINE
5
7E
100
AcDbEntity
8
1
62
256
6
ByLayer
370
13
48
1
60
0
100
AcDbLine
10
38.773047
20
-1.390559
30
0
11
39.202427
21
-6.298391
31
0
39
0
210
0
220
0
230
1
0
LINE
5
7F
100
AcDbEntity
8
1
62
256
6
ByLayer
370
13
48
1
60
0
100
AcDbLine
10
28.919529
20
-17.520205
30
0
11
23.99295
21
-17.520205
31
0
39
0
210
0
220
0
230
1
0
LINE
5
80
100
AcDbEntity
8
1
62
256
6
ByLayer
370
13
48
1
60
0
100
AcDbLine
10
34.819982
20
-5.326826
30
0
11
37.283271
21
-1.060284
31
0
39
0
210
0
220
0
230
1
0
LINE
5
81
100
AcDbEntity
8
1
62
256
6
ByLayer
370
13
48
1
60
0
100
AcDbLine
10
37.74748
20
-19.283078
30
0
11
30.651046
21
-17.709837
31
0
39
0
210
0
220
0
230
1
0
LINE
5
82
100
AcDbEntity
8
1
62
256
6
ByLayer
370
13
48
1
60
0
100
AcDbLine
10
28.879313
20
-12.090619
30
0
11
33.789997
21
-6.731548
31
0
39
0
210
0
220
0
230
1
0
LINE
5
83
100
AcDbEntity
8
1
62
256
6
ByLayer
370
13
48
1
60
0
100
AcDbLine
10
42.429531
20
-16.533458
30
0
11
44.89282
21
-20.8
31
0
39
0
210
0
220
0
230
1
0
LINE
5
84
100
AcDbEntity
8
1
62
256
6
ByLayer
370
18
48
1
60
0
100
AcDbLine
10
7.336603
20
15.175938
30
0
11
7.336603
21
5.068619
31
0
39
0
210
0
220
0
230
1
0
LINE
5
85
100
AcDbEntity
8
1
62
256
6
ByLayer
370
18
48
1
60
0
100
AcDbLine
10
19.128491
20
8.864065
30
0
11
23.434174
21
5.986086
31
0
39
0
210
0
220
0
230
1
0
LINE
5
86
100
AcDbEntity
8
1
62
256
6
ByLayer
370
18
48
1
60
0
100
AcDbLine
10
37.992188
20
0.3135
30
0
11
34.977356
21
-4.908342
31
0
39
0
210
0
220
0
230
1
0
LINE
5
87
100
AcDbEntity
8
1
62
256
6
ByLayer
370
18
48
1
60
0
100
AcDbLine
10
34.977356
20
-4.908342
30
0
11
27.16653
21
-13.432363
31
0
39
0
210
0
220
0
230
1
0
LINE
5
88
100
AcDbEntity
8
1
62
256
6
ByLayer
370
18
48
1
60
0
100
AcDbLine
10
4.663397
20
15.175938
30
0
11
4.663397
21
5.068619
31
0
39
0
210
0
220
0
230
1
0
LINE
5
89
100
AcDbEntity
8
1
62
256
6
ByLayer
370
18
48
1
60
0
100
AcDbLine
10
26.18693
20
-10.552137
30
0
11
27.238526
21
-11.749927
31
0
39
0
210
0
220
0
230
1
0
LINE
5
8A
100
AcDbEntity
8
1
62
256
6
ByLayer
370
18
48
1
60
0
100
AcDbLine
10
7.076795
20
4.755463
30
0
11
4.923205
21
4.755463
31
0
39
0
210
0
220
0
230
1
0
LINE
5
8B
100
AcDbEntity
8
1
62
256
6
ByLayer
370
18
48
1
60
0
100
AcDbLine
10
4.923205
20
-4.755463
30
0
11
7.076795
21
-4.755463
31
0
39
0
210
0
220
0
230
1
0
LINE
5
8C
100
AcDbEntity
8
1
62
256
6
ByLayer
370
18
48
1
60
0
100
AcDbLine
10
7.336603
20
-5.068619
30
0
11
7.336603
21
-15.175938
31
0
39
0
210
0
220
0
230
1
0
LINE
5
8D
100
AcDbEntity
8
1
62
256
6
ByLayer
370
18
48
1
60
0
100
AcDbLine
10
4.923205
20
-4.755463
30
0
11
4.923205
21
-15.276962
31
0
39
0
210
0
220
0
230
1
0
LINE
5
8E
100
AcDbEntity
8
1
62
256
6
ByLayer
370
18
48
1
60
0
100
AcDbLine
10
4.663397
20
-5.068619
30
0
11
4.663397
21
-15.175938
31
0
39
0
210
0
220
0
230
1
0
LINE
5
8F
100
AcDbEntity
8
1
62
256
6
ByLayer
370
18
48
1
60
0
100
AcDbLine
10
19.584437
20
-12.091496
30
0
11
29.494687
21
-1.276356
31
0
39
0
210
0
220
0
230
1
0
LINE
5
90
100
AcDbEntity
8
1
62
256
6
ByLayer
370
18
48
1
60
0
100
AcDbLine
10
19.128491
20
8.864065
30
0
11
19.128491
21
-12.091496
31
0
39
0
210
0
220
0
230
1
0
LINE
5
91
100
AcDbEntity
8
1
62
256
6
ByLayer
370
18
48
1
60
0
100
AcDbLine
10
25.128046
20
-11.141564
30
0
11
24.946624
21
-10.545311
31
0
39
0
210
0
220
0
230
1
0
LINE
5
92
100
AcDbEntity
8
1
62
256
6
ByLayer
370
18
48
1
60
0
100
AcDbLine
10
30.481924
20
-2.39874
30
0
11
31.042707
21
-1.969155
31
0
39
0
210
0
220
0
230
1
0
LINE
5
93
100
AcDbEntity
8
1
62
256
6
ByLayer
370
18
48
1
60
0
100
AcDbLine
10
7.076795
20
-15.276962
30
0
11
4.923205
21
-15.276962
31
0
39
0
210
0
220
0
230
1
0
LINE
5
94
100
AcDbEntity
8
1
62
256
6
ByLayer
370
18
48
1
60
0
100
AcDbLine
10
31.004626
20
-5.511084
30
0
11
32.248812
21
-6.507354
31
0
39
0
210
0
220
0
230
1
0
LINE
5
95
100
AcDbEntity
8
1
62
256
6
ByLayer
370
18
48
1
60
0
100
AcDbLine
10
15.860155
20
-14.80537
30
0
11
15.860155
21
-10.347203
31
0
39
0
210
0
220
0
230
1
0
LINE
5
96
100
AcDbEntity
8
1
62
256
6
ByLayer
370
18
48
1
60
0
100
AcDbLine
10
27.16653
20
-13.432363
30
0
11
22.343042
21
-16.809806
31
0
39
0
210
0
220
0
230
1
0
LINE
5
97
100
AcDbEntity
8
1
62
256
6
ByLayer
370
18
48
1
60
0
100
AcDbLine
10
15.279208
20
-8.398887
30
0
11
15.279208
21
-15.369694
31
0
39
0
210
0
220
0
230
1
0
LINE
5
98
100
AcDbEntity
8
1
62
256
6
ByLayer
370
18
48
1
60
0
100
AcDbLine
10
30.358402
20
-10.284053
30
0
11
32.119216
21
-8.362461
31
0
39
0
210
0
220
0
230
1
0
LINE
5
99
100
AcDbEntity
8
1
62
256
6
ByLayer
370
18
48
1
60
0
100
AcDbLine
10
32.308025
20
-0.999865
30
0
11
31.042707
21
-1.969155
31
0
39
0
210
0
220
0
230
1
0
LINE
5
9A
100
AcDbEntity
8
1
62
256
6
ByLayer
370
18
48
1
60
0
100
AcDbLine
10
22.343042
20
-16.809806
30
0
11
17.336187
21
-16.623197
31
0
39
0
210
0
220
0
230
1
0
LINE
5
9B
100
AcDbEntity
8
1
62
256
6
ByLayer
370
18
48
1
60
0
100
AcDbLine
10
7.076795
20
15.276962
30
0
11
7.076795
21
4.755463
31
0
39
0
210
0
220
0
230
1
0
LINE
5
9C
100
AcDbEntity
8
1
62
256
6
ByLayer
370
18
48
1
60
0
100
AcDbLine
10
30.358402
20
-10.284053
30
0
11
30.267484
21
-10.383272
31
0
39
0
210
0
220
0
230
1
0
LINE
5
9D
100
AcDbEntity
8
1
62
256
6
ByLayer
370
18
48
1
60
0
100
AcDbLine
10
7.076795
20
-4.755463
30
0
11
7.076795
21
-15.276962
31
0
39
0
210
0
220
0
230
1
0
LINE
5
9E
100
AcDbEntity
8
1
62
256
6
ByLayer
370
18
48
1
60
0
100
AcDbLine
10
4.923205
20
15.276962
30
0
11
7.076795
21
15.276962
31
0
39
0
210
0
220
0
230
1
0
LINE
5
9F
100
AcDbEntity
8
1
62
256
6
ByLayer
370
18
48
1
60
0
100
AcDbLine
10
25.787426
20
-10.097094
30
0
11
26.18693
21
-10.552137
31
0
39
0
210
0
220
0
230
1
0
LINE
5
A0
100
AcDbEntity
8
1
62
256
6
ByLayer
370
18
48
1
60
0
100
AcDbLine
10
22.634922
20
-16.820685
30
0
11
22.717689
21
-16.823769
31
0
39
0
210
0
220
0
230
1
0
LINE
5
A1
100
AcDbEntity
8
1
62
256
6
ByLayer
370
18
48
1
60
0
100
AcDbLine
10
32.210135
20
-8.263241
30
0
11
32.119216
21
-8.362461
31
0
39
0
210
0
220
0
230
1
0
LINE
5
A2
100
AcDbEntity
8
1
62
256
6
ByLayer
370
18
48
1
60
0
100
AcDbLine
10
38.050358
20
0.061599
30
0
11
38.030611
21
0.287304
31
0
39
0
210
0
220
0
230
1
0
LINE
5
A3
100
AcDbEntity
8
1
62
256
6
ByLayer
370
18
48
1
60
0
100
AcDbLine
10
15.143712
20
-7.061587
30
0
11
15.143712
21
6.831219
31
0
39
0
210
0
220
0
230
1
0
LINE
5
A4
100
AcDbEntity
8
1
62
256
6
ByLayer
370
18
48
1
60
0
100
AcDbLine
10
4.923205
20
15.276962
30
0
11
4.923205
21
4.755463
31
0
39
0
210
0
220
0
230
1
0
LINE
5
A5
100
AcDbEntity
8
1
62
256
6
ByLayer
370
18
48
1
60
0
100
AcDbLine
10
22.343042
20
-16.809806
30
0
11
22.634922
21
-16.820685
31
0
39
0
210
0
220
0
230
1
0
LINE
5
A6
100
AcDbEntity
8
1
62
256
6
ByLayer
370
18
48
1
60
0
100
AcDbLine
10
37.992188
20
0.3135
30
0
11
22.215112
21
10.859119
31
0
39
0
210
0
220
0
230
1
0
LINE
5
A7
100
AcDbEntity
8
1
62
256
6
ByLayer
370
18
48
1
60
0
100
AcDbLine
10
25.128046
20
-11.141564
30
0
11
25.592024
21
-12.66645
31
0
39
0
210
0
220
0
230
1
0
LINE
5
A8
100
AcDbEntity
8
1
62
256
6
ByLayer
370
18
48
1
60
0
100
AcDbLine
10
31.004626
20
-5.511084
30
0
11
30.538522
21
-5.137855
31
0
39
0
210
0
220
0
230
1
0
LINE
5
A9
100
AcDbEntity
8
SK1
62
256
6
ByLayer
370
18
48
1
60
0
100
AcDbLine
10
-1.307107
20
3.314515
30
0
11
-1.307107
21
-3.314517
31
0
39
0
210
0
220
0
230
1
0
LINE
5
AB
100
AcDbEntity
8
1
62
256
6
ByLayer
370
18
48
1
60
0
100
AcDbLine
10
19.584437
20
-12.091496
30
0
11
19.128491
21
-12.091496
31
0
39
0
210
0
220
0
230
1
0
LINE
5
AC
100
AcDbEntity
8
SK1
62
256
6
ByLayer
370
18
48
1
60
0
100
AcDbLine
10
-0.2
20
-10.883485
30
0
11
-0.2
21
-5.336173
31
0
39
0
210
0
220
0
230
1
0
LINE
5
AD
100
AcDbEntity
8
SK1
62
256
6
ByLayer
370
18
48
1
60
0
100
AcDbLine
10
-0.2
20
10.883485
30
0
11
-0.2
21
5.336172
31
0
39
0
210
0
220
0
230
1
0
LINE
5
AE
100
AcDbEntity
8
1
62
256
6
ByLayer
370
18
48
1
60
0
100
AcDbLine
10
30.321274
20
-10.517004
30
0
11
30.230119
21
-10.433475
31
0
39
0
210
0
220
0
230
1
0
LINE
5
AF
100
AcDbEntity
8
1
62
256
6
ByLayer
370
18
48
1
60
0
100
AcDbLine
10
32.348045
20
-8.305172
30
0
11
32.25689
21
-8.221643
31
0
39
0
210
0
220
0
230
1
0
LINE
5
B0
100
AcDbEntity
8
1
62
256
6
ByLayer
370
18
48
1
60
0
100
AcDbLine
10
22.717689
20
-16.823769
30
0
11
23.202244
21
-16.841829
31
0
39
0
210
0
220
0
230
1
0
LINE
5
B1
100
AcDbEntity
8
1
62
256
6
ByLayer
370
18
48
1
60
0
100
AcDbLine
10
23.236228
20
-16.460684
30
0
11
22.717689
21
-16.823769
31
0
39
0
210
0
220
0
230
1
0
LINE
5
B2
100
AcDbEntity
8
1
62
256
6
ByLayer
370
18
48
1
60
0
100
AcDbLine
10
37.817203
20
-0.442238
30
0
11
37.651601
21
-0.729069
31
0
39
0
210
0
220
0
230
1
0
LINE
5
B3
100
AcDbEntity
8
1
62
256
6
ByLayer
370
18
48
1
60
0
100
AcDbLine
10
23.271194
20
-16.375162
30
0
11
22.634922
21
-16.820685
31
0
39
0
210
0
220
0
230
1
0
LINE
5
B4
100
AcDbEntity
8
1
62
256
6
ByLayer
370
18
48
1
60
0
100
AcDbLine
10
27.16653
20
-13.432363
30
0
11
27.214919
21
-13.487539
31
0
39
0
210
0
220
0
230
1
0
LINE
5
B5
100
AcDbEntity
8
1
62
256
6
ByLayer
370
18
48
1
60
0
100
AcDbLine
10
34.797254
20
-5.365886
30
0
11
27.606636
21
-13.213068
31
0
39
0
210
0
220
0
230
1
0
LINE
5
B6
100
AcDbEntity
8
1
62
256
6
ByLayer
370
18
48
1
60
0
100
AcDbLine
10
34.977356
20
-4.908342
30
0
11
35.03654
21
-4.951737
31
0
39
0
210
0
220
0
230
1
0
LINE
5
B7
100
AcDbEntity
8
1
62
256
6
ByLayer
370
18
48
1
60
0
100
AcDbLine
10
38.050358
20
0.061599
30
0
11
37.569434
21
-0.771387
31
0
39
0
210
0
220
0
230
1
0
LINE
5
B8
100
AcDbEntity
8
1
62
256
6
ByLayer
370
18
48
1
60
0
100
AcDbLine
10
17.336187
20
-16.623197
30
0
11
17.335423
21
-16.623168
31
0
39
0
210
0
220
0
230
1
0
LINE
5
B9
100
AcDbEntity
8
1
62
256
6
ByLayer
370
18
48
1
60
0
100
AcDbLine
10
15.988369
20
-16.229516
30
0
11
15.988369
21
-16.231966
31
0
39
0
210
0
220
0
230
1
0
LINE
5
BA
100
AcDbEntity
8
1
62
256
6
ByLayer
370
18
48
1
60
0
100
AcDbLine
10
0
20
15.7
30
0
11
0
21
-15.7
31
0
39
0
210
0
220
0
230
1
0
LINE
5
BB
100
AcDbEntity
8
1
62
256
6
ByLayer
370
18
48
1
60
0
100
AcDbLine
10
15.279208
20
-16
30
0
11
15.279208
21
-15.979303
31
0
39
0
210
0
220
0
230
1
0
LINE
5
BC
100
AcDbEntity
8
1
62
256
6
ByLayer
370
18
48
1
60
0
100
AcDbLine
10
0.3
20
16
30
0
11
0.3
21
-16
31
0
39
0
210
0
220
0
230
1
0
LINE
5
BD
100
AcDbEntity
8
81
62
256
6
ByLayer
370
18
48
1
60
0
100
AcDbLine
10
45
20
-22
30
0
11
55
21
-22
31
0
39
0
210
0
220
0
230
1
0
LINE
5
BE
100
AcDbEntity
8
1
62
256
6
ByLayer
370
18
48
1
60
0
100
AcDbLine
10
38.007031
20
0.303888
30
0
11
14.528646
21
15.997169
31
0
39
0
210
0
220
0
230
1
0
LINE
5
BF
100
AcDbEntity
8
1
62
256
6
ByLayer
370
18
48
1
60
0
100
AcDbLine
10
0
20
-15.7
30
0
11
0.3
21
-16
31
0
39
0
210
0
220
0
230
1
0
LINE
5
C0
100
AcDbEntity
8
1
62
256
6
ByLayer
370
18
48
1
60
0
100
AcDbLine
10
0.3
20
16
30
0
11
0
21
15.7
31
0
39
0
210
0
220
0
230
1
0
LINE
5
C1
100
AcDbEntity
8
1
62
256
6
ByLayer
370
18
48
1
60
0
100
AcDbLine
10
14.524537
20
16
30
0
11
0.3
21
16
31
0
39
0
210
0
220
0
230
1
0
LINE
5
C2
100
AcDbEntity
8
1
62
256
6
ByLayer
370
18
48
1
60
0
100
AcDbLine
10
0.3
20
-16
30
0
11
15.279208
21
-16
31
0
39
0
210
0
220
0
230
1
0
LINE
5
C3
100
AcDbEntity
8
4
62
256
6
ByLayer
370
18
48
0.05
60
0
100
AcDbLine
10
-10
20
0
30
0
11
50
21
0
31
0
39
0
210
0
220
0
230
1
0
LINE
5
C5
100
AcDbEntity
8
SK4
62
256
6
ByLayer
370
18
48
0.05
60
0
100
AcDbLine
10
-24
20
0
30
0
11
50
21
0
31
0
39
0
210
0
220
0
230
1
0
LINE
5
C7
100
AcDbEntity
8
80
62
256
6
ByLayer
370
18
48
1
60
0
100
AcDbLine
10
0
20
0
30
0
11
-10
21
0
31
0
39
0
210
0
220
0
230
1
0
LINE
5
C8
100
AcDbEntity
8
2
62
256
6
ByLayer
370
13
48
1
60
0
100
AcDbLine
10
42.141048
20
-14.891603
30
0
11
34.361159
21
1.792423
31
0
39
0
210
0
220
0
230
1
0
LINE
5
CA
100
AcDbEntity
8
2
62
256
6
ByLayer
370
13
48
1
60
0
100
AcDbLine
10
45
20
-18.8125
30
0
11
45
21
4.150997
31
0
39
0
210
0
220
0
230
1
0
LINE
5
CB
100
AcDbEntity
8
1
62
256
6
ByLayer
370
13
48
1
60
0
100
AcDbLine
10
35.702972
20
-1.085104
30
0
11
38.295412
21
0.935692
31
0
39
0
210
0
220
0
230
1
0
LINE
5
CC
100
AcDbEntity
8
1
62
256
6
ByLayer
370
13
48
1
60
0
100
AcDbLine
10
35.702972
20
-1.085104
30
0
11
38.958495
21
-0.631263
31
0
39
0
210
0
220
0
230
1
0
LINE
5
CD
100
AcDbEntity
8
1
62
256
6
ByLayer
370
13
48
1
60
0
100
AcDbLine
10
38.295412
20
0.935692
30
0
11
38.958495
21
-0.631263
31
0
39
0
210
0
220
0
230
1
0
LINE
5
CE
100
AcDbEntity
8
1
62
256
6
ByLayer
370
13
48
1
60
0
100
AcDbLine
10
45
20
0.975997
30
0
11
41.857699
21
0.011474
31
0
39
0
210
0
220
0
230
1
0
LINE
5
CF
100
AcDbEntity
8
1
62
256
6
ByLayer
370
13
48
1
60
0
100
AcDbLine
10
45
20
0.975997
30
0
11
41.79642
21
1.711848
31
0
39
0
210
0
220
0
230
1
0
LINE
5
D0
100
AcDbEntity
8
1
62
256
6
ByLayer
370
13
48
1
60
0
100
AcDbLine
10
41.857699
20
0.011474
30
0
11
41.79642
21
1.711848
31
0
39
0
210
0
220
0
230
1
0
MTEXT
5
160
100
AcDbEntity
8
2
62
256
6
ByLayer
370
13
48
1
60
0
100
AcDbMText
10
35.07808
20
0.612593
30
0
210
0
220
0
230
1
1
\W0.7346;30.0
40
4.5
41
0
44
1.084337
50
12.5
71
7
72
5
7
iso_b_vert
0
MTEXT
5
163
100
AcDbEntity
8
SK6
62
256
6
ByLayer
370
13
48
1
60
0
100
AcDbMText
10
0.213034
20
24.507712
30
0
210
0
220
0
230
1
1
\W0.7289;C3-CP-30AL-22045-11C
40
3.5
41
0
44
1.084337
50
0
71
7
72
5
7
iso_b_vert
0
DIMENSION
5
166
100
AcDbEntity
8
2
62
256
6
ByLayer
370
13
48
1
60
0
100
AcDbDimension
2
_U0
10
45
20
-48.5
30
0
11
22.5
21
-48.5
31
0
70
32
71
1
72
1
41
1
210
0
220
0
230
1
3
Standard
100
AcDbAlignedDimension
13
0
23
-16
33
0
14
45
24
-22
34
0
50
0
100
AcDbRotatedDimension
1001
ACAD
1000
DSTYLE
1002
{
1070
   371
1070
    13
1070
   372
1070
    13
1070
     3
1000

1070
   170
1070
     0
1070
   144
1040
1.0
1070
   277
1070
     2
1070
   284
1070
     8
1070
   278
1070
    46
1070
   146
1040
0.777778
1070
   345
1005
16
1070
   347
1005
16
1070
   346
1005
16
1070
   344
1005
167
1070
   343
1005
167
1070
   172
1070
     1
1070
    76
1070
     0
1070
    75
1070
     0
1070
   282
1070
     0
1070
   281
1070
     0
1070
    71
1070
     0
1070
    74
1070
     0
1070
   279
1070
     0
1070
   173
1070
     1
1070
   340
1005
161
1070
   271
1070
     1
1070
   272
1070
     2
1070
    77
1070
     1
1070
    73
1070
     1
1070
   171
1070
     3
1070
   274
1070
     4
1070
   177
1070
   150
1070
   176
1070
     9
1070
   178
1070
    43
1070
    78
1070
     8
1070
    48
1040
-0.1
1070
    41
1040
3.175
1070
   147
1040
2.25
1070
    42
1040
1.5875
1070
    44
1040
3.175
1070
   140
1040
4.5
1002
}
1001
ACAD_DSTYLE_DIM_LINETYPE
1070
   380
1005
16
1001
ACAD_DSTYLE_DIM_EXT1_LINETYPE
1070
   381
1005
16
1001
ACAD_DSTYLE_DIM_EXT2_LINETYPE
1070
   382
1005
16
0
DIMENSION
5
18A
100
AcDbEntity
8
SK2
62
256
6
ByLayer
370
13
48
1
60
0
100
AcDbDimension
2
_U1
10
-29.725
20
-16
30
0
11
-29.725
21
0
31
0
70
32
71
1
72
1
41
1
210
0
220
0
230
1
3
Standard
100
AcDbAlignedDimension
13
0
23
16
33
0
14
0
24
-16
34
0
50
90
100
AcDbRotatedDimension
1001
ACAD
1000
DSTYLE
1002
{
1070
   371
1070
    13
1070
   372
1070
    13
1070
     3
1000

1070
   170
1070
     0
1070
   144
1040
1.0
1070
   277
1070
     2
1070
   284
1070
     8
1070
   278
1070
    46
1070
   146
1040
0.777778
1070
   345
1005
16
1070
   347
1005
16
1070
   346
1005
16
1070
   344
1005
167
1070
   343
1005
167
1070
   172
1070
     1
1070
    76
1070
     0
1070
    75
1070
     0
1070
   282
1070
     0
1070
   281
1070
     0
1070
    71
1070
     0
1070
    74
1070
     0
1070
   279
1070
     0
1070
   173
1070
     1
1070
   340
1005
161
1070
   271
1070
     1
1070
   272
1070
     2
1070
    77
1070
     1
1070
    73
1070
     0
1070
   171
1070
     3
1070
   274
1070
     4
1070
   177
1070
   150
1070
   176
1070
     9
1070
   178
1070
    43
1070
    78
1070
     8
1070
    48
1040
-0.1
1070
    41
1040
3.175
1070
   147
1040
2.25
1070
    42
1040
1.5875
1070
    44
1040
3.175
1070
   140
1040
4.5
1002
}
1001
ACAD_DSTYLE_DIM_LINETYPE
1070
   380
1005
16
1001
ACAD_DSTYLE_DIM_EXT1_LINETYPE
1070
   381
1005
16
1001
ACAD_DSTYLE_DIM_EXT2_LINETYPE
1070
   382
1005
16
0
DIMENSION
5
1A8
100
AcDbEntity
8
2
62
256
6
ByLayer
370
13
48
1
60
0
100
AcDbDimension
2
_U2
10
70.85
20
0
30
0
11
70.85
21
-11
31
0
70
32
71
1
72
1
41
1
210
0
220
0
230
1
3
Standard
100
AcDbAlignedDimension
13
45
23
-22
33
0
14
45
24
0
34
0
50
90
100
AcDbRotatedDimension
1001
ACAD
1000
DSTYLE
1002
{
1070
   371
1070
    13
1070
   372
1070
    13
1070
     3
1000

1070
   170
1070
     0
1070
   144
1040
1.0
1070
   277
1070
     2
1070
   284
1070
     8
1070
   278
1070
    46
1070
   146
1040
0.777778
1070
   345
1005
16
1070
   347
1005
16
1070
   346
1005
16
1070
   344
1005
167
1070
   343
1005
167
1070
   172
1070
     1
1070
    76
1070
     0
1070
    75
1070
     0
1070
   282
1070
     0
1070
   281
1070
     0
1070
    71
1070
     0
1070
    74
1070
     0
1070
   279
1070
     0
1070
   173
1070
     1
1070
   340
1005
161
1070
   271
1070
     1
1070
   272
1070
     2
1070
    77
1070
     1
1070
    73
1070
     0
1070
   171
1070
     3
1070
   274
1070
     4
1070
   177
1070
   150
1070
   176
1070
     9
1070
   178
1070
    43
1070
    78
1070
     8
1070
    48
1040
-0.1
1070
    41
1040
3.175
1070
   147
1040
2.25
1070
    42
1040
1.5875
1070
    44
1040
3.175
1070
   140
1040
4.5
1002
}
1001
ACAD_DSTYLE_DIM_LINETYPE
1070
   380
1005
16
1001
ACAD_DSTYLE_DIM_EXT1_LINETYPE
1070
   381
1005
16
1001
ACAD_DSTYLE_DIM_EXT2_LINETYPE
1070
   382
1005
16
0
ENDSEC
0
SECTION
2
OBJECTS
0
DICTIONARY
5
234
330
0
100
AcDbDictionary
280
0
281
1
3
ACAD_GROUP
350
235
3
ACAD_MLINESTYLE
350
236
0
DICTIONARY
5
235
330
0
100
AcDbDictionary
280
0
281
1
0
DICTIONARY
5
236
330
0
100
AcDbDictionary
280
0
281
1
3
Standard
350
18
0
MLINESTYLE
5
18
330
236
100
AcDbMlineStyle
2
Standard
70
0
3

62
256
51
90
52
90
71
2
49
-0.5
62
256
6
ByLayer
49
0.5
62
256
6
ByLayer
0
RASTERVARIABLES
5
222
330

100
AcDbRasterVariables
90
0
70
1
71
1
72
1
0
ENDSEC
0
EOF
