0
SECTION
2
HEADER
9
$ACADVER
1
AC1015
9
$DWGCODEPAGE
3
ANSI_1252
9
$HANDSEED
5
1ff
9
$ANGBASE
50
0
9
$ANGDIR
70
0
9
$ATTMODE
70
1
9
$AUNITS
70
0
9
$AUPREC
70
0
9
$CECOLOR
62
256
9
$CELTSCALE
40
1
9
$CELTYPE
6
ByLayer
9
$CELWEIGHT
370
18
9
$CLAYER
8
0
9
$CMLJUST
70
0
9
$CMLSCALE
40
1
9
$CMLSTYLE
2
Standard
9
$DIMSTYLE
2
Standard
9
$TEXTSIZE
40
0.2
9
$TEXTSTYLE
7
Standard
9
$LUNITS
70
2
9
$LUPREC
70
4
9
$EXTNAMES
290
1
9
$INSUNITS
70
4
9
$LTSCALE
40
1
9
$LWDISPLAY
290
1
9
$PDMODE
70
0
9
$PDSIZE
40
0
9
$PLINEGEN
70
0
0
ENDSEC
0
SECTION
2
CLASSES
0
CLASS
1
RASTERVARIABLES
2
AcDbRasterVariables
3
ISM
90
0
280
0
281
0
0
ENDSEC
0
SECTION
2
TABLES
0
TABLE
2
VPORT
5
1f5
100
AcDbSymbolTable
0
VPORT
5
1
100
AcDbSymbolTableRecord
100
AcDbViewportTableRecord
2
*Active
70
0
10
0
20
0
11
1
21
1
12
-1
22
1
13
0
23
0
14
0.5
24
0.5
15
10
25
10
16
0
26
0
36
1
17
0
27
0
37
0
0
ENDTAB
0
TABLE
2
LTYPE
5
1f6
100
AcDbSymbolTable
0
LTYPE
5
14
100
AcDbSymbolTableRecord
100
AcDbLinetypeTableRecord
70
0
2
ByBlock
3

72
65
73
0
40
0
0
LTYPE
5
15
100
AcDbSymbolTableRecord
100
AcDbLinetypeTableRecord
70
0
2
ByLayer
3

72
65
73
0
40
0
0
LTYPE
5
16
100
AcDbSymbolTableRecord
100
AcDbLinetypeTableRecord
70
0
2
Continuous
3
Solid line
72
65
73
0
40
0
0
LTYPE
5
6E
100
AcDbSymbolTableRecord
100
AcDbLinetypeTableRecord
70
0
2
CENTER
3
____ _ ____ _ ____ _ ____
72
65
73
4
40
47.5
49
22
74
0
49
-8.5
74
0
49
8.5
74
0
49
-8.5
74
0
0
LTYPE
5
6F
100
AcDbSymbolTableRecord
100
AcDbLinetypeTableRecord
70
0
2
DASHED
3
__ __ __ __ __ __ __ __ __
72
65
73
2
40
25.72
49
12.86
74
0
49
-12.86
74
0
0
ENDTAB
0
TABLE
2
LAYER
5
1f7
100
AcDbSymbolTable
0
LAYER
5
10
100
AcDbSymbolTableRecord
100
AcDbLayerTableRecord
2
0
70
0
62
7
6
Continuous
290
1
370
-3
390
0
0
LAYER
5
71
100
AcDbSymbolTableRecord
100
AcDbLayerTableRecord
2
80
70
0
62
-6
6
Continuous
290
1
370
-3
390
0
0
LAYER
5
73
100
AcDbSymbolTableRecord
100
AcDbLayerTableRecord
2
81
70
0
62
-3
6
Continuous
290
1
370
-3
390
0
0
LAYER
5
75
100
AcDbSymbolTableRecord
100
AcDbLayerTableRecord
2
1
70
0
62
4
6
Continuous
290
1
370
-3
390
0
0
LAYER
5
86
100
AcDbSymbolTableRecord
100
AcDbLayerTableRecord
2
4
70
0
62
-2
6
CENTER
290
1
370
-3
390
0
0
LAYER
5
9D
100
AcDbSymbolTableRecord
100
AcDbLayerTableRecord
2
2
70
0
62
7
6
Continuous
290
1
370
-3
390
0
0
LAYER
5
10A
100
AcDbSymbolTableRecord
100
AcDbLayerTableRecord
2
Defpoints
70
0
62
7
6
Continuous
290
0
370
-3
390
0
0
LAYER
5
1e1
100
AcDbSymbolTableRecord
100
AcDbLayerTableRecord
2
SK1
70
0
62
4
6
Continuous
290
1
370
-3
390
0
0
LAYER
5
1e2
100
AcDbSymbolTableRecord
100
AcDbLayerTableRecord
2
SK4
70
0
62
2
6
CENTER
290
1
370
-3
390
0
0
LAYER
5
1e3
100
AcDbSymbolTableRecord
100
AcDbLayerTableRecord
2
SK2
70
0
62
7
6
Continuous
290
1
370
-3
390
0
0
LAYER
5
1e4
100
AcDbSymbolTableRecord
100
AcDbLayerTableRecord
2
SK6
70
0
62
5
6
Continuous
290
1
370
-3
390
0
0
ENDTAB
0
TABLE
2
STYLE
5
1f8
100
AcDbSymbolTable
0
STYLE
5
11
100
AcDbSymbolTableRecord
100
AcDbTextStyleTableRecord
2
Standard
3
txt
70
0
71
0
40
0
41
1
42
0
50
0
0
STYLE
5
EF
100
AcDbSymbolTableRecord
100
AcDbTextStyleTableRecord
2
iso_b_vert
3
simplex.shx
70
0
71
0
40
0
41
1
42
0
50
0
0
STYLE
5
F0
100
AcDbSymbolTableRecord
100
AcDbTextStyleTableRecord
2
DWGDirectTextStyle
3
simplex
70
0
71
0
40
0
41
1
42
0
50
0
0
ENDTAB
0
TABLE
2
DIMSTYLE
5
1f9
100
AcDbSymbolTable
100
AcDbDimStyleTable
0
DIMSTYLE
105
27
100
AcDbSymbolTableRecord
100
AcDbDimStyleTableRecord
2
Standard
70
0
3
<>
41
0.18
42
0.0625
44
0.18
140
0.18
147
0.09
73
0
74
0
77
1
271
2
275
0
278
52
280
0
340
11
0
ENDTAB
0
TABLE
2
VIEW
5
1fa
100
AcDbSymbolTable
0
ENDTAB
0
TABLE
2
UCS
5
1fb
100
AcDbSymbolTable
0
ENDTAB
0
TABLE
2
APPID
5
1fc
100
AcDbSymbolTable
0
APPID
5
12
100
AcDbSymbolTableRecord
100
AcDbRegAppTableRecord
2
ACAD
70
0
0
APPID
5
106
100
AcDbSymbolTableRecord
100
AcDbRegAppTableRecord
2
ACAD_DSTYLE_DIMBREAK
70
0
0
APPID
5
1A0
100
AcDbSymbolTableRecord
100
AcDbRegAppTableRecord
2
ACAD_DSTYLE_DIM_LINETYPE
70
0
0
APPID
5
1A1
100
AcDbSymbolTableRecord
100
AcDbRegAppTableRecord
2
ACAD_DSTYLE_DIM_EXT1_LINETYPE
70
0
0
APPID
5
1A2
100
AcDbSymbolTableRecord
100
AcDbRegAppTableRecord
2
ACAD_DSTYLE_DIM_EXT2_LINETYPE
70
0
0
APPID
5
1DD
100
AcDbSymbolTableRecord
100
AcDbRegAppTableRecord
2
ACAD_MLEADERVER
70
0
0
ENDTAB
0
TABLE
2
BLOCK_RECORD
5
1fd
100
AcDbSymbolTable
0
BLOCK_RECORD
5
1F
100
AcDbSymbolTableRecord
100
AcDbBlockTableRecord
2
*Model_Space
340
0
70
0
0
BLOCK_RECORD
5
1B
100
AcDbSymbolTableRecord
100
AcDbBlockTableRecord
2
*Paper_Space
340
0
70
0
0
BLOCK_RECORD
5
23
100
AcDbSymbolTableRecord
100
AcDbBlockTableRecord
2
*Paper_Space0
340
0
70
0
0
BLOCK_RECORD
5
10B
100
AcDbSymbolTableRecord
100
AcDbBlockTableRecord
2
*D1
340
0
70
0
0
BLOCK_RECORD
5
117
100
AcDbSymbolTableRecord
100
AcDbBlockTableRecord
2
_U0
340
0
70
0
0
BLOCK_RECORD
5
123
100
AcDbSymbolTableRecord
100
AcDbBlockTableRecord
2
*D3
340
0
70
0
0
BLOCK_RECORD
5
12F
100
AcDbSymbolTableRecord
100
AcDbBlockTableRecord
2
_U1
340
0
70
0
0
BLOCK_RECORD
5
13B
100
AcDbSymbolTableRecord
100
AcDbBlockTableRecord
2
*D5
340
0
70
0
0
BLOCK_RECORD
5
147
100
AcDbSymbolTableRecord
100
AcDbBlockTableRecord
2
_U2
340
0
70
0
0
BLOCK_RECORD
5
153
100
AcDbSymbolTableRecord
100
AcDbBlockTableRecord
2
*D7
340
0
70
0
0
BLOCK_RECORD
5
161
100
AcDbSymbolTableRecord
100
AcDbBlockTableRecord
2
_U3
340
0
70
0
0
BLOCK_RECORD
5
16D
100
AcDbSymbolTableRecord
100
AcDbBlockTableRecord
2
*D9
340
0
70
0
0
BLOCK_RECORD
5
179
100
AcDbSymbolTableRecord
100
AcDbBlockTableRecord
2
_U4
340
0
70
0
0
ENDTAB
0
ENDSEC
0
SECTION
2
BLOCKS
0
BLOCK
5
20
100
AcDbEntity
8
0
100
AcDbBlockBegin
2
*Model_Space
70
0
10
0
20
0
30
0
3
*Model_Space
0
ENDBLK
5
21
100
AcDbEntity
8
0
100
AcDbBlockEnd
0
BLOCK
5
1C
100
AcDbEntity
8
0
100
AcDbBlockBegin
2
*Paper_Space
70
0
10
0
20
0
30
0
3
*Paper_Space
0
ENDBLK
5
1D
100
AcDbEntity
8
0
100
AcDbBlockEnd
0
BLOCK
5
24
100
AcDbEntity
8
0
100
AcDbBlockBegin
2
*Paper_Space0
70
0
10
0
20
0
30
0
3
*Paper_Space0
0
ENDBLK
5
25
100
AcDbEntity
8
0
100
AcDbBlockEnd
0
BLOCK
5
10C
100
AcDbEntity
8
0
100
AcDbBlockBegin
2
*D1
70
1
10
0
20
0
30
0
3
*D1
0
LINE
5
10E
100
AcDbEntity
8
0
62
256
6
ByLayer
370
-2
48
1
60
0
100
AcDbLine
10
0
20
-1.5875
30
0
11
0
21
-19.963398
31
0
39
0
210
0
220
0
230
1
0
LINE
5
10F
100
AcDbEntity
8
0
62
256
6
ByLayer
370
-2
48
1
60
0
100
AcDbLine
10
64.0934
20
-9.3375
30
0
11
64.0934
21
-19.963398
31
0
39
0
210
0
220
0
230
1
0
LINE
5
110
100
AcDbEntity
8
0
62
256
6
ByLayer
370
-2
48
1
60
0
100
AcDbLine
10
3.5
20
-17.963398
30
0
11
60.5934
21
-17.963398
31
0
39
0
210
0
220
0
230
1
0
SOLID
5
111
100
AcDbEntity
8
0
62
256
6
ByLayer
370
-1
48
1
60
0
100
AcDbTrace
10
3.5
20
-17.380065
30
0
11
3.5
21
-18.546732
31
0
12
0
22
-17.963398
32
0
13
0
23
-17.963398
33
0
39
0
210
0
220
0
230
1
0
SOLID
5
112
100
AcDbEntity
8
0
62
256
6
ByLayer
370
-1
48
1
60
0
100
AcDbTrace
10
60.5934
20
-18.546732
30
0
11
60.5934
21
-17.380065
31
0
12
64.0934
22
-17.963398
32
0
13
64.0934
23
-17.963398
33
0
39
0
210
0
220
0
230
1
0
MTEXT
5
113
100
AcDbEntity
8
0
62
256
6
ByLayer
370
18
48
1
60
0
100
AcDbMText
10
32.0467
20
-10.963398
30
0
210
0
220
0
230
1
1
\A1;64.09
40
3.5
41
0
44
1
50
0
71
5
72
5
7
iso_b_vert
0
POINT
5
114
100
AcDbEntity
8
Defpoints
62
0
6
ByLayer
370
-1
48
1
60
0
100
AcDbPoint
10
0
20
0
30
0
39
0
210
0
220
0
230
1
50
360
0
POINT
5
115
100
AcDbEntity
8
Defpoints
62
0
6
ByLayer
370
-1
48
1
60
0
100
AcDbPoint
10
64.0934
20
-7.75
30
0
39
0
210
0
220
0
230
1
50
360
0
POINT
5
116
100
AcDbEntity
8
Defpoints
62
0
6
ByLayer
370
-1
48
1
60
0
100
AcDbPoint
10
64.0934
20
-17.963398
30
0
39
0
210
0
220
0
230
1
50
360
0
ENDBLK
5
10D
100
AcDbEntity
8
0
100
AcDbBlockEnd
0
BLOCK
5
11E
100
AcDbEntity
8
0
100
AcDbBlockBegin
2
_U0
70
0
10
0
20
0
30
0
3
_U0
0
MTEXT
5
118
100
AcDbEntity
8
2
62
256
6
ByLayer
370
13
48
1
60
0
100
AcDbMText
10
26.725135
20
-16.930765
30
0
210
0
220
0
230
1
1
\W0.7669;64,09
40
3.5
41
0
44
1.084337
50
0
71
7
72
5
7
iso_b_vert
0
LINE
5
119
100
AcDbEntity
8
2
62
256
6
ByLayer
370
13
48
1
60
0
100
AcDbLine
10
0
20
-1.5875
30
0
11
0
21
-19.963398
31
0
39
0
210
0
220
0
230
1
0
LINE
5
11A
100
AcDbEntity
8
2
62
256
6
ByLayer
370
13
48
1
60
0
100
AcDbLine
10
64.0934
20
-9.3375
30
0
11
64.0934
21
-19.963398
31
0
39
0
210
0
220
0
230
1
0
LINE
5
11B
100
AcDbEntity
8
2
62
256
6
ByLayer
370
13
48
1
60
0
100
AcDbLine
10
0
20
-17.963398
30
0
11
64.0934
21
-17.963398
31
0
39
0
210
0
220
0
230
1
0
SOLID
5
11C
100
AcDbEntity
8
2
62
256
6
ByLayer
370
18
48
1
60
0
100
AcDbTrace
10
0
20
-17.963398
30
0
11
3.499998
21
-17.502615
31
0
12
3.500002
22
-18.424182
32
0
13
3.500002
23
-18.424182
33
0
39
0
210
0
220
0
230
1
0
SOLID
5
11D
100
AcDbEntity
8
2
62
256
6
ByLayer
370
18
48
1
60
0
100
AcDbTrace
10
64.0934
20
-17.963398
30
0
11
60.593402
21
-18.424182
31
0
12
60.593398
22
-17.502615
32
0
13
60.593398
23
-17.502615
33
0
39
0
210
0
220
0
230
1
0
ENDBLK
5
11F
100
AcDbEntity
8
0
100
AcDbBlockEnd
0
BLOCK
5
124
100
AcDbEntity
8
0
100
AcDbBlockBegin
2
*D3
70
1
10
0
20
0
30
0
3
*D3
0
LINE
5
126
100
AcDbEntity
8
0
62
256
6
ByLayer
370
-2
48
1
60
0
100
AcDbLine
10
-48
20
-9.5875
30
0
11
-48
21
-38.692985
31
0
39
0
210
0
220
0
230
1
0
LINE
5
127
100
AcDbEntity
8
0
62
256
6
ByLayer
370
-2
48
1
60
0
100
AcDbLine
10
67
20
-1.5875
30
0
11
67
21
-38.692985
31
0
39
0
210
0
220
0
230
1
0
LINE
5
128
100
AcDbEntity
8
0
62
256
6
ByLayer
370
-2
48
1
60
0
100
AcDbLine
10
-44.5
20
-36.692985
30
0
11
63.5
21
-36.692985
31
0
39
0
210
0
220
0
230
1
0
SOLID
5
129
100
AcDbEntity
8
0
62
256
6
ByLayer
370
-1
48
1
60
0
100
AcDbTrace
10
-44.5
20
-36.109652
30
0
11
-44.5
21
-37.276319
31
0
12
-48
22
-36.692985
32
0
13
-48
23
-36.692985
33
0
39
0
210
0
220
0
230
1
0
SOLID
5
12A
100
AcDbEntity
8
0
62
256
6
ByLayer
370
-1
48
1
60
0
100
AcDbTrace
10
63.5
20
-37.276319
30
0
11
63.5
21
-36.109652
31
0
12
67
22
-36.692985
32
0
13
67
23
-36.692985
33
0
39
0
210
0
220
0
230
1
0
MTEXT
5
12B
100
AcDbEntity
8
0
62
256
6
ByLayer
370
18
48
1
60
0
100
AcDbMText
10
9.5
20
-29.692985
30
0
210
0
220
0
230
1
1
\A1;115.00
40
3.5
41
0
44
1
50
0
71
5
72
5
7
iso_b_vert
0
POINT
5
12C
100
AcDbEntity
8
Defpoints
62
0
6
ByLayer
370
-1
48
1
60
0
100
AcDbPoint
10
-48
20
-8
30
0
39
0
210
0
220
0
230
1
50
360
0
POINT
5
12D
100
AcDbEntity
8
Defpoints
62
0
6
ByLayer
370
-1
48
1
60
0
100
AcDbPoint
10
67
20
0
30
0
39
0
210
0
220
0
230
1
50
360
0
POINT
5
12E
100
AcDbEntity
8
Defpoints
62
0
6
ByLayer
370
-1
48
1
60
0
100
AcDbPoint
10
67
20
-36.692985
30
0
39
0
210
0
220
0
230
1
50
360
0
ENDBLK
5
125
100
AcDbEntity
8
0
100
AcDbBlockEnd
0
BLOCK
5
136
100
AcDbEntity
8
0
100
AcDbBlockBegin
2
_U1
70
0
10
0
20
0
30
0
3
_U1
0
MTEXT
5
130
100
AcDbEntity
8
SK2
62
256
6
ByLayer
370
13
48
1
60
0
100
AcDbMText
10
3.929835
20
-35.660352
30
0
210
0
220
0
230
1
1
\W0.6440;115,00
40
3.5
41
0
44
1.084337
50
0
71
7
72
5
7
iso_b_vert
0
LINE
5
131
100
AcDbEntity
8
SK2
62
256
6
ByLayer
370
13
48
1
60
0
100
AcDbLine
10
-48
20
-9.5875
30
0
11
-48
21
-38.692985
31
0
39
0
210
0
220
0
230
1
0
LINE
5
132
100
AcDbEntity
8
SK2
62
256
6
ByLayer
370
13
48
1
60
0
100
AcDbLine
10
67
20
-1.5875
30
0
11
67
21
-38.692985
31
0
39
0
210
0
220
0
230
1
0
LINE
5
133
100
AcDbEntity
8
SK2
62
256
6
ByLayer
370
13
48
1
60
0
100
AcDbLine
10
-48
20
-36.692985
30
0
11
67
21
-36.692985
31
0
39
0
210
0
220
0
230
1
0
SOLID
5
134
100
AcDbEntity
8
SK2
62
256
6
ByLayer
370
18
48
1
60
0
100
AcDbTrace
10
-48
20
-36.692985
30
0
11
-44.500002
21
-36.232202
31
0
12
-44.499998
22
-37.153769
32
0
13
-44.499998
23
-37.153769
33
0
39
0
210
0
220
0
230
1
0
SOLID
5
135
100
AcDbEntity
8
SK2
62
256
6
ByLayer
370
18
48
1
60
0
100
AcDbTrace
10
67
20
-36.692985
30
0
11
63.500002
21
-37.153769
31
0
12
63.499998
22
-36.232202
32
0
13
63.499998
23
-36.232202
33
0
39
0
210
0
220
0
230
1
0
ENDBLK
5
137
100
AcDbEntity
8
0
100
AcDbBlockEnd
0
BLOCK
5
13C
100
AcDbEntity
8
0
100
AcDbBlockBegin
2
*D5
70
1
10
0
20
0
30
0
3
*D5
0
LINE
5
13E
100
AcDbEntity
8
0
62
256
6
ByLayer
370
-2
48
1
60
0
100
AcDbLine
10
17.59
20
9.3375
30
0
11
17.59
21
21.359119
31
0
39
0
210
0
220
0
230
1
0
LINE
5
13F
100
AcDbEntity
8
0
62
256
6
ByLayer
370
-2
48
1
60
0
100
AcDbLine
10
67
20
1.5875
30
0
11
67
21
21.359119
31
0
39
0
210
0
220
0
230
1
0
LINE
5
140
100
AcDbEntity
8
0
62
256
6
ByLayer
370
-2
48
1
60
0
100
AcDbLine
10
21.09
20
19.359119
30
0
11
63.5
21
19.359119
31
0
39
0
210
0
220
0
230
1
0
SOLID
5
141
100
AcDbEntity
8
0
62
256
6
ByLayer
370
-1
48
1
60
0
100
AcDbTrace
10
21.09
20
19.942453
30
0
11
21.09
21
18.775786
31
0
12
17.59
22
19.359119
32
0
13
17.59
23
19.359119
33
0
39
0
210
0
220
0
230
1
0
SOLID
5
142
100
AcDbEntity
8
0
62
256
6
ByLayer
370
-1
48
1
60
0
100
AcDbTrace
10
63.5
20
18.775786
30
0
11
63.5
21
19.942453
31
0
12
67
22
19.359119
32
0
13
67
23
19.359119
33
0
39
0
210
0
220
0
230
1
0
MTEXT
5
143
100
AcDbEntity
8
0
62
256
6
ByLayer
370
18
48
1
60
0
100
AcDbMText
10
42.295
20
26.359119
30
0
210
0
220
0
230
1
1
\A1;49.41
40
3.5
41
0
44
1
50
0
71
5
72
5
7
iso_b_vert
0
POINT
5
144
100
AcDbEntity
8
Defpoints
62
0
6
ByLayer
370
-1
48
1
60
0
100
AcDbPoint
10
17.59
20
7.75
30
0
39
0
210
0
220
0
230
1
50
360
0
POINT
5
145
100
AcDbEntity
8
Defpoints
62
0
6
ByLayer
370
-1
48
1
60
0
100
AcDbPoint
10
67
20
0
30
0
39
0
210
0
220
0
230
1
50
360
0
POINT
5
146
100
AcDbEntity
8
Defpoints
62
0
6
ByLayer
370
-1
48
1
60
0
100
AcDbPoint
10
67
20
19.359119
30
0
39
0
210
0
220
0
230
1
50
360
0
ENDBLK
5
13D
100
AcDbEntity
8
0
100
AcDbBlockEnd
0
BLOCK
5
14E
100
AcDbEntity
8
0
100
AcDbBlockBegin
2
_U2
70
0
10
0
20
0
30
0
3
_U2
0
MTEXT
5
148
100
AcDbEntity
8
SK2
62
256
6
ByLayer
370
13
48
1
60
0
100
AcDbMText
10
37.226601
20
20.391753
30
0
210
0
220
0
230
1
1
\W0.7778;49,41
40
3.5
41
0
44
1.084337
50
0
71
7
72
5
7
iso_b_vert
0
LINE
5
149
100
AcDbEntity
8
SK2
62
256
6
ByLayer
370
13
48
1
60
0
100
AcDbLine
10
17.59
20
9.3375
30
0
11
17.59
21
21.359119
31
0
39
0
210
0
220
0
230
1
0
LINE
5
14A
100
AcDbEntity
8
SK2
62
256
6
ByLayer
370
13
48
1
60
0
100
AcDbLine
10
67
20
1.5875
30
0
11
67
21
21.359119
31
0
39
0
210
0
220
0
230
1
0
LINE
5
14B
100
AcDbEntity
8
SK2
62
256
6
ByLayer
370
13
48
1
60
0
100
AcDbLine
10
17.59
20
19.359119
30
0
11
67
21
19.359119
31
0
39
0
210
0
220
0
230
1
0
SOLID
5
14C
100
AcDbEntity
8
SK2
62
256
6
ByLayer
370
18
48
1
60
0
100
AcDbTrace
10
17.59
20
19.359119
30
0
11
21.089998
21
19.819903
31
0
12
21.090002
22
18.898335
32
0
13
21.090002
23
18.898335
33
0
39
0
210
0
220
0
230
1
0
SOLID
5
14D
100
AcDbEntity
8
SK2
62
256
6
ByLayer
370
18
48
1
60
0
100
AcDbTrace
10
67
20
19.359119
30
0
11
63.500002
21
18.898335
31
0
12
63.499998
22
19.819903
32
0
13
63.499998
23
19.819903
33
0
39
0
210
0
220
0
230
1
0
ENDBLK
5
14F
100
AcDbEntity
8
0
100
AcDbBlockEnd
0
BLOCK
5
154
100
AcDbEntity
8
0
100
AcDbBlockBegin
2
*D7
70
1
10
0
20
0
30
0
3
*D7
0
LINE
5
156
100
AcDbEntity
8
0
62
256
6
ByLayer
370
-2
48
1
60
0
100
AcDbLine
10
67
20
-1.5875
30
0
11
67
21
-22.552503
31
0
39
0
210
0
220
0
230
1
0
LINE
5
157
100
AcDbEntity
8
0
62
256
6
ByLayer
370
-2
48
1
60
0
100
AcDbLine
10
64.0934
20
-9.3375
30
0
11
64.0934
21
-22.552503
31
0
39
0
210
0
220
0
230
1
0
LINE
5
158
100
AcDbEntity
8
0
62
256
6
ByLayer
370
-2
48
1
60
0
100
AcDbLine
10
67
20
-20.552503
30
0
11
94.166667
21
-20.552503
31
0
39
0
210
0
220
0
230
1
0
LINE
5
159
100
AcDbEntity
8
0
62
256
6
ByLayer
370
-2
48
1
60
0
100
AcDbLine
10
70.5
20
-20.552503
30
0
11
74
21
-20.552503
31
0
39
0
210
0
220
0
230
1
0
LINE
5
15A
100
AcDbEntity
8
0
62
256
6
ByLayer
370
-2
48
1
60
0
100
AcDbLine
10
60.5934
20
-20.552503
30
0
11
57.0934
21
-20.552503
31
0
39
0
210
0
220
0
230
1
0
SOLID
5
15B
100
AcDbEntity
8
0
62
256
6
ByLayer
370
-1
48
1
60
0
100
AcDbTrace
10
70.5
20
-19.96917
30
0
11
70.5
21
-21.135837
31
0
12
67
22
-20.552503
32
0
13
67
23
-20.552503
33
0
39
0
210
0
220
0
230
1
0
SOLID
5
15C
100
AcDbEntity
8
0
62
256
6
ByLayer
370
-1
48
1
60
0
100
AcDbTrace
10
60.5934
20
-21.135837
30
0
11
60.5934
21
-19.96917
31
0
12
64.0934
22
-20.552503
32
0
13
64.0934
23
-20.552503
33
0
39
0
210
0
220
0
230
1
0
MTEXT
5
15D
100
AcDbEntity
8
0
62
256
6
ByLayer
370
18
48
1
60
0
100
AcDbMText
10
84.083333
20
-13.552503
30
0
210
0
220
0
230
1
1
\A1;2.91
40
3.5
41
0
44
1
50
0
71
5
72
5
7
iso_b_vert
0
POINT
5
15E
100
AcDbEntity
8
Defpoints
62
0
6
ByLayer
370
-1
48
1
60
0
100
AcDbPoint
10
67
20
0
30
0
39
0
210
0
220
0
230
1
50
360
0
POINT
5
15F
100
AcDbEntity
8
Defpoints
62
0
6
ByLayer
370
-1
48
1
60
0
100
AcDbPoint
10
64.0934
20
-7.75
30
0
39
0
210
0
220
0
230
1
50
360
0
POINT
5
160
100
AcDbEntity
8
Defpoints
62
0
6
ByLayer
370
-1
48
1
60
0
100
AcDbPoint
10
64.0934
20
-20.552503
30
0
39
0
210
0
220
0
230
1
50
360
0
ENDBLK
5
155
100
AcDbEntity
8
0
100
AcDbBlockEnd
0
BLOCK
5
168
100
AcDbEntity
8
0
100
AcDbBlockBegin
2
_U3
70
0
10
0
20
0
30
0
3
_U3
0
MTEXT
5
162
100
AcDbEntity
8
SK2
62
256
6
ByLayer
370
13
48
1
60
0
100
AcDbMText
10
73.589293
20
-19.51987
30
0
210
0
220
0
230
1
1
\W0.6993;2,91
40
3.5
41
0
44
1.084337
50
0
71
7
72
5
7
iso_b_vert
0
LINE
5
163
100
AcDbEntity
8
SK2
62
256
6
ByLayer
370
13
48
1
60
0
100
AcDbLine
10
67
20
-1.5875
30
0
11
67
21
-22.552503
31
0
39
0
210
0
220
0
230
1
0
LINE
5
164
100
AcDbEntity
8
SK2
62
256
6
ByLayer
370
13
48
1
60
0
100
AcDbLine
10
64.0934
20
-9.3375
30
0
11
64.0934
21
-22.552503
31
0
39
0
210
0
220
0
230
1
0
LINE
5
165
100
AcDbEntity
8
SK2
62
256
6
ByLayer
370
13
48
1
60
0
100
AcDbLine
10
55.3434
20
-20.552503
30
0
11
80.559058
21
-20.552503
31
0
39
0
210
0
220
0
230
1
0
SOLID
5
166
100
AcDbEntity
8
SK2
62
256
6
ByLayer
370
18
48
1
60
0
100
AcDbTrace
10
67
20
-20.552503
30
0
11
70.499998
21
-20.091719
31
0
12
70.500002
22
-21.013287
32
0
13
70.500002
23
-21.013287
33
0
39
0
210
0
220
0
230
1
0
SOLID
5
167
100
AcDbEntity
8
SK2
62
256
6
ByLayer
370
18
48
1
60
0
100
AcDbTrace
10
64.0934
20
-20.552503
30
0
11
60.593402
21
-21.013287
31
0
12
60.593398
22
-20.091719
32
0
13
60.593398
23
-20.091719
33
0
39
0
210
0
220
0
230
1
0
ENDBLK
5
169
100
AcDbEntity
8
0
100
AcDbBlockEnd
0
BLOCK
5
16E
100
AcDbEntity
8
0
100
AcDbBlockBegin
2
*D9
70
1
10
0
20
0
30
0
3
*D9
0
LINE
5
170
100
AcDbEntity
8
0
62
256
6
ByLayer
370
-2
48
1
60
0
100
AcDbLine
10
-48
20
-9.5875
30
0
11
-48
21
-28.343428
31
0
39
0
210
0
220
0
230
1
0
LINE
5
171
100
AcDbEntity
8
0
62
256
6
ByLayer
370
-2
48
1
60
0
100
AcDbLine
10
64.0934
20
-9.3375
30
0
11
64.0934
21
-28.343428
31
0
39
0
210
0
220
0
230
1
0
LINE
5
172
100
AcDbEntity
8
0
62
256
6
ByLayer
370
-2
48
1
60
0
100
AcDbLine
10
-44.5
20
-26.343428
30
0
11
60.5934
21
-26.343428
31
0
39
0
210
0
220
0
230
1
0
SOLID
5
173
100
AcDbEntity
8
0
62
256
6
ByLayer
370
-1
48
1
60
0
100
AcDbTrace
10
-44.5
20
-25.760095
30
0
11
-44.5
21
-26.926762
31
0
12
-48
22
-26.343428
32
0
13
-48
23
-26.343428
33
0
39
0
210
0
220
0
230
1
0
SOLID
5
174
100
AcDbEntity
8
0
62
256
6
ByLayer
370
-1
48
1
60
0
100
AcDbTrace
10
60.5934
20
-26.926762
30
0
11
60.5934
21
-25.760095
31
0
12
64.0934
22
-26.343428
32
0
13
64.0934
23
-26.343428
33
0
39
0
210
0
220
0
230
1
0
MTEXT
5
175
100
AcDbEntity
8
0
62
256
6
ByLayer
370
18
48
1
60
0
100
AcDbMText
10
8.0467
20
-19.343428
30
0
210
0
220
0
230
1
1
\A1;112.09
40
3.5
41
0
44
1
50
0
71
5
72
5
7
iso_b_vert
0
POINT
5
176
100
AcDbEntity
8
Defpoints
62
0
6
ByLayer
370
-1
48
1
60
0
100
AcDbPoint
10
-48
20
-8
30
0
39
0
210
0
220
0
230
1
50
360
0
POINT
5
177
100
AcDbEntity
8
Defpoints
62
0
6
ByLayer
370
-1
48
1
60
0
100
AcDbPoint
10
64.0934
20
-7.75
30
0
39
0
210
0
220
0
230
1
50
360
0
POINT
5
178
100
AcDbEntity
8
Defpoints
62
0
6
ByLayer
370
-1
48
1
60
0
100
AcDbPoint
10
64.0934
20
-26.343428
30
0
39
0
210
0
220
0
230
1
50
360
0
ENDBLK
5
16F
100
AcDbEntity
8
0
100
AcDbBlockEnd
0
BLOCK
5
180
100
AcDbEntity
8
0
100
AcDbBlockBegin
2
_U4
70
0
10
0
20
0
30
0
3
_U4
0
MTEXT
5
17A
100
AcDbEntity
8
SK2
62
256
6
ByLayer
370
13
48
1
60
0
100
AcDbMText
10
2.476535
20
-25.310795
30
0
210
0
220
0
230
1
1
\W0.6501;112,09
40
3.5
41
0
44
1.084337
50
0
71
7
72
5
7
iso_b_vert
0
LINE
5
17B
100
AcDbEntity
8
SK2
62
256
6
ByLayer
370
13
48
1
60
0
100
AcDbLine
10
-48
20
-9.5875
30
0
11
-48
21
-28.343428
31
0
39
0
210
0
220
0
230
1
0
LINE
5
17C
100
AcDbEntity
8
SK2
62
256
6
ByLayer
370
13
48
1
60
0
100
AcDbLine
10
64.0934
20
-9.3375
30
0
11
64.0934
21
-28.343428
31
0
39
0
210
0
220
0
230
1
0
LINE
5
17D
100
AcDbEntity
8
SK2
62
256
6
ByLayer
370
13
48
1
60
0
100
AcDbLine
10
-48
20
-26.343428
30
0
11
64.0934
21
-26.343428
31
0
39
0
210
0
220
0
230
1
0
SOLID
5
17E
100
AcDbEntity
8
SK2
62
256
6
ByLayer
370
18
48
1
60
0
100
AcDbTrace
10
-48
20
-26.343428
30
0
11
-44.500002
21
-25.882645
31
0
12
-44.499998
22
-26.804212
32
0
13
-44.499998
23
-26.804212
33
0
39
0
210
0
220
0
230
1
0
SOLID
5
17F
100
AcDbEntity
8
SK2
62
256
6
ByLayer
370
18
48
1
60
0
100
AcDbTrace
10
64.0934
20
-26.343428
30
0
11
60.593402
21
-26.804212
31
0
12
60.593398
22
-25.882645
32
0
13
60.593398
23
-25.882645
33
0
39
0
210
0
220
0
230
1
0
ENDBLK
5
181
100
AcDbEntity
8
0
100
AcDbBlockEnd
0
ENDSEC
0
SECTION
2
ENTITIES
0
ARC
5
A6
100
AcDbEntity
8
1
62
256
6
ByLayer
370
18
48
1
60
0
100
AcDbCircle
39
0
10
1.050573
20
8.486524
30
0
40
0.850000000000002
210
0
220
0
230
1
100
AcDbArc
50
231.830943
51
270.103132
0
ARC
5
A7
100
AcDbEntity
8
1
62
256
6
ByLayer
370
18
48
1
60
0
100
AcDbCircle
39
0
10
0
20
-7.15
30
0
40
0.850000000000002
210
0
220
0
230
1
100
AcDbArc
50
270
51
308.169057
0
ARC
5
A8
100
AcDbEntity
8
1
62
256
6
ByLayer
370
18
48
1
60
0
100
AcDbCircle
39
0
10
0
20
7.15
30
0
40
0.850000000000002
210
0
220
0
230
1
100
AcDbArc
50
51.830943
51
90
0
ARC
5
A9
100
AcDbEntity
8
1
62
256
6
ByLayer
370
18
48
1
60
0
100
AcDbCircle
39
0
10
1.050573
20
-8.486524
30
0
40
0.850000000000002
210
0
220
0
230
1
100
AcDbArc
50
89.896868
51
128.169057
0
ELLIPSE
5
AA
100
AcDbEntity
8
1
62
256
6
ByLayer
370
13
48
1
60
0
100
AcDbEllipse
10
111.194174
20
40.892771
30
0
11
-59.4999999999999
21
7.28640780524313E-15
31
0
210
0
220
0
230
1
40
0.99863
41
0.665651944089792
42
0.71912611129651
0
ELLIPSE
5
AB
100
AcDbEntity
8
1
62
256
6
ByLayer
370
13
48
1
60
0
100
AcDbEllipse
10
4.606384
20
-1.223412
30
0
11
0.145233173011946
21
0.262502048481307
31
0
210
0
220
0
230
1
40
0.075432
41
1.43151810947679
42
2.57811880596149
0
ELLIPSE
5
AC
100
AcDbEntity
8
1
62
256
6
ByLayer
370
13
48
1
60
0
100
AcDbEllipse
10
4.260211
20
-1.046783
30
0
11
-0.126975899351433
21
-0.271803460213248
31
0
210
0
220
0
230
1
40
0.498156
41
-1.46718548881433
42
-1.04673534035823
0
ELLIPSE
5
AD
100
AcDbEntity
8
1
62
256
6
ByLayer
370
13
48
1
60
0
100
AcDbEllipse
10
18.04219
20
-62.293572
30
0
11
48.2360590094686
21
56.0934379940828
31
0
210
0
220
0
230
1
40
0.693955
41
1.09056293140676
42
1.09888838247202
0
ELLIPSE
5
AE
100
AcDbEntity
8
1
62
256
6
ByLayer
370
13
48
1
60
0
100
AcDbEllipse
10
20.401197
20
64.322137
30
0
11
-48.2360590094685
21
56.0934379940829
31
0
210
0
220
0
230
1
40
0.693955
41
2.12055450231377
42
2.24978890419411
0
ELLIPSE
5
AF
100
AcDbEntity
8
1
62
256
6
ByLayer
370
18
48
1
60
0
100
AcDbEllipse
10
4.605093
20
-8.463458
30
0
11
-1
21
1.22460635382238E-16
31
0
210
0
220
0
230
1
40
1
41
-1.56845504566378
42
-0.976274887507786
0
ELLIPSE
5
B0
100
AcDbEntity
8
1
62
256
6
ByLayer
370
18
48
1
60
0
100
AcDbEllipse
10
4.605093
20
8.463458
30
0
11
-1
21
1.22460635382238E-16
31
0
210
0
220
0
230
1
40
1
41
0.974697624481829
42
1.57684479854513
0
POINT
5
70
100
AcDbEntity
8
80
62
256
6
ByLayer
370
18
48
1
60
0
100
AcDbPoint
10
0
20
0
30
0
39
0
210
0
220
0
230
1
50
360
0
POINT
5
72
100
AcDbEntity
8
81
62
256
6
ByLayer
370
18
48
1
60
0
100
AcDbPoint
10
67
20
0
30
0
39
0
210
0
220
0
230
1
50
360
0
POINT
5
74
100
AcDbEntity
8
1
62
256
6
ByLayer
370
18
48
1
60
1
100
AcDbPoint
10
64.0934
20
-7.75
30
0
39
0
210
0
220
0
230
1
50
360
0
POINT
5
76
100
AcDbEntity
8
1
62
256
6
ByLayer
370
18
48
1
60
1
100
AcDbPoint
10
-48
20
-8
30
0
39
0
210
0
220
0
230
1
50
360
0
POINT
5
77
100
AcDbEntity
8
1
62
256
6
ByLayer
370
18
48
1
60
1
100
AcDbPoint
10
17.59
20
7.75
30
0
39
0
210
0
220
0
230
1
50
360
0
POINT
5
78
100
AcDbEntity
8
1
62
256
6
ByLayer
370
18
48
1
60
1
100
AcDbPoint
10
64.0934
20
-7.75
30
0
39
0
210
0
220
0
230
1
50
360
0
POINT
5
79
100
AcDbEntity
8
1
62
256
6
ByLayer
370
18
48
1
60
1
100
AcDbPoint
10
-48
20
-8
30
0
39
0
210
0
220
0
230
1
50
360
0
POINT
5
7A
100
AcDbEntity
8
1
62
256
6
ByLayer
370
18
48
1
60
1
100
AcDbPoint
10
64.0934
20
-7.75
30
0
39
0
210
0
220
0
230
1
50
360
0
SPLINE
5
B1
100
AcDbEntity
8
1
62
256
6
ByLayer
370
18
48
1
60
0
100
AcDbSpline
70
4
71
3
72
34
73
30
40
0
40
0
40
0
40
0
40
0.0625000000000029
40
0.0625000000000029
40
0.0937500000000043
40
0.0937500000000043
40
0.125000000000006
40
0.125000000000006
40
0.187500000000011
40
0.187500000000011
40
0.218750000000012
40
0.218750000000012
40
0.250000000000014
40
0.250000000000014
40
0.375000000000014
40
0.375000000000014
40
0.437500000000013
40
0.437500000000013
40
0.500000000000013
40
0.500000000000013
40
0.625000000000011
40
0.625000000000011
40
0.750000000000009
40
0.750000000000009
40
0.812500000000007
40
0.812500000000007
40
0.875000000000004
40
0.875000000000004
40
1
40
1
40
1
40
1
41
1
10
5.29786757230176
20
-6.97917248515407
30
0
41
1
10
5.36091745898625
20
-6.91851901849154
30
0
41
1
10
5.45131487532387
20
-6.85850801355463
30
0
41
1
10
5.61061441201889
20
-6.77409546778063
30
0
41
1
10
5.66812227170516
20
-6.74663860100659
30
0
41
1
10
5.78716511161707
20
-6.69445701187439
30
0
41
1
10
5.84917573062799
20
-6.66947978024666
30
0
41
1
10
6.04131366758088
20
-6.59747606312388
30
0
41
1
10
6.17747325081993
20
-6.5533518880406
30
0
41
1
10
6.39076834438109
20
-6.49215101424022
30
0
41
1
10
6.46360833139841
20
-6.4725415903564
30
0
41
1
10
6.61035662608873
20
-6.43534834834006
30
0
41
1
10
6.68440815746777
20
-6.41771682952279
30
0
41
1
10
7.05763850161148
20
-6.33399422735826
30
0
41
1
10
7.36548455514554
20
-6.28094632359225
30
0
41
1
10
7.83739303375569
20
-6.21913514047219
30
0
41
1
10
7.99680629476791
20
-6.20150952926841
30
0
41
1
10
8.31718729960872
20
-6.1723204070797
30
0
41
1
10
8.47735500139882
20
-6.16081428528301
30
0
41
1
10
8.95779462302374
20
-6.13508316041401
30
0
41
1
10
9.27800352002743
20
-6.1296091903607
30
0
41
1
10
9.91826236057926
20
-6.14096536253518
30
0
41
1
10
10.2383120958416
20
-6.15782470593459
30
0
41
1
10
10.7182641976189
20
-6.19978222097885
30
0
41
1
10
10.8784202399272
20
-6.21659477660785
30
0
41
1
10
11.1943574181734
20
-6.25518498914343
30
0
41
1
10
11.3506687088959
20
-6.27700064182511
30
0
41
1
10
11.8146170951197
20
-6.34951398964753
30
0
41
1
10
12.1172861294723
20
-6.4073031285148
30
0
41
1
10
12.4130521826772
20
-6.47302993398785
30
0
0
SPLINE
5
B2
100
AcDbEntity
8
1
62
256
6
ByLayer
370
13
48
1
60
0
100
AcDbSpline
70
4
71
3
72
38
73
34
40
0
40
0
40
0
40
0
40
0.0740645125984289
40
0.0740645125984289
40
0.111096768897643
40
0.111096768897643
40
0.148129025196858
40
0.148129025196858
40
0.296258050393716
40
0.296258050393716
40
0.370322562992145
40
0.370322562992145
40
0.444387075590574
40
0.444387075590574
40
0.518451588189003
40
0.518451588189003
40
0.555483844488217
40
0.555483844488217
40
0.592516100787431
40
0.592516100787431
40
0.66658061338586
40
0.66658061338586
40
0.703612869685075
40
0.703612869685075
40
0.740645125984289
40
0.740645125984289
40
0.814709638582718
40
0.814709638582718
40
0.851741894881932
40
0.851741894881932
40
0.888774151181147
40
0.888774151181147
40
1
40
1
40
1
40
1
41
1
10
4.60693702087366
20
-1.17612051712979
30
0
41
1
10
4.60691316689309
20
-0.859068444140831
30
0
41
1
10
4.60688444411244
20
-0.541194239897948
30
0
41
1
10
4.60683690969856
20
-0.0631756112879884
30
0
41
1
10
4.60682032024414
20
0.0963657876031334
30
0
41
1
10
4.60678610544949
20
0.415855533515185
30
0
41
1
10
4.60676842422939
20
0.57629646052672
30
0
41
1
10
4.60667934164221
20
1.37254274476376
30
0
41
1
10
4.60660634882649
20
1.98942951457249
30
0
41
1
10
4.6065140955663
20
2.88509907607619
30
0
41
1
10
4.60648610199871
20
3.18005205976971
30
0
41
1
10
4.60643995341013
20
3.74379289151179
30
0
41
1
10
4.60642157771952
20
4.01440866878579
30
0
41
1
10
4.6063958346906
20
4.53346840721068
30
0
41
1
10
4.60638846372609
20
4.78191408880284
30
0
41
1
10
4.60638664139429
20
5.13738207542633
30
0
41
1
10
4.60638758230908
20
5.25279567490497
30
0
41
1
10
4.6063925630894
20
5.47524604242108
30
0
41
1
10
4.6063965995817
20
5.58260755268066
30
0
41
1
10
4.60641328532921
20
5.89313653735729
30
0
41
1
10
4.60643060062662
20
6.08524505114317
30
0
41
1
10
4.60646493336148
20
6.34733102922371
30
0
41
1
10
4.60647776581595
20
6.43035762750733
30
0
41
1
10
4.60650573668551
20
6.58647837342144
30
0
41
1
10
4.60652089875816
20
6.65977181448747
30
0
41
1
10
4.60656947774109
20
6.86560455286909
30
0
41
1
10
4.60660599790421
20
6.98415219177949
30
0
41
1
10
4.60666508818369
20
7.13393296949039
30
0
41
1
10
4.60668550099791
20
7.17917248334794
30
0
41
1
10
4.60672740616863
20
7.26009743821527
30
0
41
1
10
4.60674897613833
20
7.29587334373741
30
0
41
1
10
4.60683563734847
20
7.41799462231626
30
0
41
1
10
4.60690163258866
20
7.46360375708574
30
0
41
1
10
4.60696256060689
20
7.46359985417524
30
0
0
SPLINE
5
B3
100
AcDbEntity
8
1
62
256
6
ByLayer
370
18
48
1
60
0
100
AcDbSpline
70
4
71
1
72
4
73
2
40
0
40
0
40
1
40
1
41
1
10
64.2533819529961
20
-7.40208079521003
30
0
41
1
10
65.960856598858
20
-1.63774299526929
30
0
0
SPLINE
5
B4
100
AcDbEntity
8
1
62
256
6
ByLayer
370
18
48
1
60
0
100
AcDbSpline
70
4
71
3
72
8
73
4
40
0
40
0
40
0
40
0
40
1
40
1
40
1
40
1
41
1
10
4.98313466110034
20
-7.316733456827
30
0
41
1
10
4.67051972255604
20
-7.26636293244306
30
0
41
1
10
4.35785530832158
20
-7.21034224482685
30
0
41
1
10
4.0451420962795
20
-7.14856935829152
30
0
0
SPLINE
5
B5
100
AcDbEntity
8
1
62
256
6
ByLayer
370
18
48
1
60
0
100
AcDbSpline
70
4
71
3
72
32
73
28
40
0
40
0
40
0
40
0
40
0.084781701538267
40
0.084781701538267
40
0.169563403076534
40
0.169563403076534
40
0.254345104614801
40
0.254345104614801
40
0.296735955383934
40
0.296735955383934
40
0.339126806153068
40
0.339126806153068
40
0.423908507691335
40
0.423908507691335
40
0.508690209229602
40
0.508690209229602
40
0.678253612306136
40
0.678253612306136
40
0.720644463075269
40
0.720644463075269
40
0.763035313844403
40
0.763035313844403
40
0.847817015382671
40
0.847817015382671
40
0.93259871692094
40
0.93259871692094
40
1
40
1
40
1
40
1
41
1
10
4.4730268109673
20
-1.43948141179035
30
0
41
1
10
5.0975020632018
20
-1.77777524802656
30
0
41
1
10
5.72156382192549
20
-2.11181008222101
30
0
41
1
10
6.96951939662486
20
-2.76504396057209
30
0
41
1
10
7.59407544789144
20
-3.08440187987324
30
0
41
1
10
8.84013353784877
20
-3.7016150381987
30
0
41
1
10
9.46238796902861
20
-3.99978026012991
30
0
41
1
10
10.3966437777034
20
-4.42814414170059
30
0
41
1
10
10.7082383132899
20
-4.56774002729796
30
0
41
1
10
11.3320853298838
20
-4.84007430395982
30
0
41
1
10
11.6443032023753
20
-4.97281638766711
30
0
41
1
10
12.579348557306
20
-5.35894667011505
30
0
41
1
10
13.2015809024439
20
-5.6006417784063
30
0
41
1
10
14.4466133125692
20
-6.04906573990613
30
0
41
1
10
15.0698393233251
20
-6.25595373411466
30
0
41
1
10
16.9411900835344
20
-6.81883035659251
30
0
41
1
10
18.1833571997512
20
-7.11415739433119
30
0
41
1
10
19.7419435703368
20
-7.37365119660396
30
0
41
1
10
20.0540097453511
20
-7.42003319095832
30
0
41
1
10
20.6771279105275
20
-7.50134397421809
30
0
41
1
10
20.9884108700074
20
-7.53632494032925
30
0
41
1
10
21.9218966173169
20
-7.62411821406263
30
0
41
1
10
22.5437642592742
20
-7.65976507928792
30
0
41
1
10
23.7893284999797
20
-7.68463400637182
30
0
41
1
10
24.4135148731118
20
-7.67376795476196
30
0
41
1
10
25.5307849244044
20
-7.61269706892972
30
0
41
1
10
26.0252018477557
20
-7.57107283749872
30
0
41
1
10
26.5198004111583
20
-7.51506801981159
30
0
0
SPLINE
5
B6
100
AcDbEntity
8
1
62
256
6
ByLayer
370
18
48
1
60
0
100
AcDbSpline
70
4
71
3
72
20
73
16
40
0
40
0
40
0
40
0
40
0.250000000000002
40
0.250000000000002
40
0.375000000000002
40
0.375000000000002
40
0.437500000000002
40
0.437500000000002
40
0.500000000000001
40
0.500000000000001
40
0.750000000000001
40
0.750000000000001
40
0.875
40
0.875
40
1
40
1
40
1
40
1
41
1
10
64.2008528059447
20
-7.32556094455245
30
0
41
1
10
64.0325214963028
20
-7.20524146891023
30
0
41
1
10
63.8823419921353
20
-7.04192461799525
30
0
41
1
10
63.685410469746
20
-6.72982388796262
30
0
41
1
10
63.6245198219044
20
-6.61453111056767
30
0
41
1
10
63.5407780831647
20
-6.42360298532475
30
0
41
1
10
63.514197240875
20
-6.35706260799421
30
0
41
1
10
63.4642368937581
20
-6.21951269984979
30
0
41
1
10
63.4407767912643
20
-6.14832554700064
30
0
41
1
10
63.3310396662348
20
-5.78038745315624
30
0
41
1
10
63.2672247750553
20
-5.44799138539972
30
0
41
1
10
63.2094271213946
20
-4.88921465392673
30
0
41
1
10
63.1965880975886
20
-4.69216669487327
30
0
41
1
10
63.1845664695321
20
-4.28639129928149
30
0
41
1
10
63.1852363385455
20
-4.07669114070117
30
0
41
1
10
63.1925605591533
20
-3.8602053721761
30
0
0
SPLINE
5
B7
100
AcDbEntity
8
1
62
256
6
ByLayer
370
18
48
1
60
0
100
AcDbSpline
70
4
71
3
72
8
73
4
40
0
40
0
40
0
40
0
40
1
40
1
40
1
40
1
41
1
10
66.9995988357348
20
-0.149998129189925
30
0
41
1
10
66.8016098495875
20
-0.678890093731184
30
0
41
1
10
66.6115529192263
20
-1.21322904719256
30
0
41
1
10
66.4274644107494
20
-1.7522040624568
30
0
0
SPLINE
5
B8
100
AcDbEntity
8
1
62
256
6
ByLayer
370
18
48
1
60
0
100
AcDbSpline
70
4
71
3
72
78
73
74
40
0
40
0
40
0
40
0
40
0.0386436064144902
40
0.0386436064144902
40
0.0772872128289803
40
0.0772872128289803
40
0.11593081924347
40
0.11593081924347
40
0.135252622450716
40
0.135252622450716
40
0.154574425657962
40
0.154574425657962
40
0.231861638486945
40
0.231861638486945
40
0.251183441694192
40
0.251183441694192
40
0.270505244901438
40
0.270505244901438
40
0.309148851315932
40
0.309148851315932
40
0.328470654523178
40
0.328470654523178
40
0.347792457730425
40
0.347792457730425
40
0.367114260937671
40
0.367114260937671
40
0.386436064144918
40
0.386436064144918
40
0.425079670559411
40
0.425079670559411
40
0.444401473766658
40
0.444401473766658
40
0.463723276973904
40
0.463723276973904
40
0.502366883388396
40
0.502366883388396
40
0.521688686595642
40
0.521688686595642
40
0.541010489802889
40
0.541010489802889
40
0.579654096217381
40
0.579654096217381
40
0.598975899424626
40
0.598975899424626
40
0.618297702631872
40
0.618297702631872
40
0.656941309046363
40
0.656941309046363
40
0.695584915460853
40
0.695584915460853
40
0.714906718668099
40
0.714906718668099
40
0.734228521875344
40
0.734228521875344
40
0.772872128289834
40
0.772872128289834
40
0.79219393149708
40
0.79219393149708
40
0.811515734704325
40
0.811515734704325
40
0.850159341118815
40
0.850159341118815
40
0.869481144326061
40
0.869481144326061
40
0.888802947533306
40
0.888802947533306
40
0.927446553947796
40
0.927446553947796
40
0.966090160362285
40
0.966090160362285
40
0.985411963569531
40
0.985411963569531
40
1
40
1
40
1
40
1
41
1
10
16.3993035495063
20
2.62793685602097
30
0
41
1
10
16.8906515045115
20
2.38056225857071
30
0
41
1
10
17.3807578847003
20
2.12804602199651
30
0
41
1
10
18.3598274747764
20
1.61549875144291
30
0
41
1
10
18.8492502038233
20
1.35634716883828
30
0
41
1
10
19.8279698698644
20
0.833050821285639
30
0
41
1
10
20.3173811483229
20
0.569373454902518
30
0
41
1
10
21.0528329069403
20
0.171645831457795
30
0
41
1
10
21.2985338370748
20
0.0390314599492001
30
0
41
1
10
21.7890853067103
20
-0.226170197519934
30
0
41
1
10
22.0340195140923
20
-0.358858133938526
30
0
41
1
10
23.2587499555253
20
-1.01937104402214
30
0
41
1
10
24.2361476702892
20
-1.54314549993796
30
0
41
1
10
25.4607993158041
20
-2.18197472367518
30
0
41
1
10
25.7056467403172
20
-2.30946465244711
30
0
41
1
10
26.1963905181268
20
-2.5611313483098
30
0
41
1
10
26.4417632397854
20
-2.68531135618716
30
0
41
1
10
27.1767453522327
20
-3.05423280686244
30
0
41
1
10
27.6662335468432
20
-3.29414655251998
30
0
41
1
10
28.3998992549312
20
-3.64537077479281
30
0
41
1
10
28.6445653184215
20
-3.76067082845162
30
0
41
1
10
29.1336519731316
20
-3.98863527439721
30
0
41
1
10
29.3780310980802
20
-4.10154220916218
30
0
41
1
10
29.8674400816085
20
-4.32232547782684
30
0
41
1
10
30.1124145985054
20
-4.42991995641424
30
0
41
1
10
30.6025807974064
20
-4.6415398975559
30
0
41
1
10
30.8480919843913
20
-4.74529762489186
30
0
41
1
10
31.5839507063076
20
-5.04953788058623
30
0
41
1
10
32.0735343154745
20
-5.2431893921684
30
0
41
1
10
32.807319562207
20
-5.52048044623612
30
0
41
1
10
33.0516794515808
20
-5.61098398823879
30
0
41
1
10
33.5407529750319
20
-5.78556179217097
30
0
41
1
10
33.7853474969938
20
-5.86938166524058
30
0
41
1
10
34.5192202259226
20
-6.11248637983022
30
0
41
1
10
35.0090694989094
20
-6.26303295676325
30
0
41
1
10
35.7449016279886
20
-6.47244198667971
30
0
41
1
10
35.990352033596
20
-6.5392921840232
30
0
41
1
10
36.4803394789121
20
-6.66746071554519
30
0
41
1
10
36.7250227106508
20
-6.72881583618152
30
0
41
1
10
37.4591718243632
20
-6.90262944304484
30
0
41
1
10
37.9480019506127
20
-7.0043014395076
30
0
41
1
10
38.681528581446
20
-7.13937548216418
30
0
41
1
10
38.9259952838489
20
-7.18080841657425
30
0
41
1
10
39.4153941117456
20
-7.2558236784555
30
0
41
1
10
39.660399647707
20
-7.28959884109597
30
0
41
1
10
40.3956279063403
20
-7.38120826976538
30
0
41
1
10
40.8867721791563
20
-7.42874607839667
30
0
41
1
10
41.8659455473247
20
-7.49871350150832
30
0
41
1
10
42.3548910659289
20
-7.52221699848542
30
0
41
1
10
43.0883502282658
20
-7.53171733560842
30
0
41
1
10
43.3330080544508
20
-7.53090128578609
30
0
41
1
10
43.8222448049349
20
-7.52230049342637
30
0
41
1
10
44.0668732844322
20
-7.51444335979346
30
0
41
1
10
44.8016575334793
20
-7.48068162204251
30
0
41
1
10
45.2924990433971
20
-7.44441599186155
30
0
41
1
10
46.027402735747
20
-7.37154787772346
30
0
41
1
10
46.2720284111771
20
-7.34396792867082
30
0
41
1
10
46.7612447159419
20
-7.28056746160323
30
0
41
1
10
47.0058747110857
20
-7.24509190543529
30
0
41
1
10
47.7392622037688
20
-7.12880500297851
30
0
41
1
10
48.2281813747559
20
-7.03790021186308
30
0
41
1
10
48.9619315265467
20
-6.88180289843567
30
0
41
1
10
49.2067163810766
20
-6.82689446672347
30
0
41
1
10
49.6964772519063
20
-6.7110366051092
30
0
41
1
10
49.9415728379659
20
-6.64981645135597
30
0
41
1
10
50.6768781007775
20
-6.45590586012651
30
0
41
1
10
51.1660807787084
20
-6.31340064580914
30
0
41
1
10
52.1442100836778
20
-6.00680163663117
30
0
41
1
10
52.6327235395715
20
-5.84215286315975
30
0
41
1
10
53.3659415178345
20
-5.58038214133165
30
0
41
1
10
53.6102706215155
20
-5.49037294212386
30
0
41
1
10
54.0395568035086
20
-5.3277460520676
30
0
41
1
10
54.2243893377154
20
-5.25628576822203
30
0
41
1
10
54.4093060913422
20
-5.18331426656883
30
0
0
SPLINE
5
B9
100
AcDbEntity
8
1
62
256
6
ByLayer
370
18
48
1
60
0
100
AcDbSpline
70
4
71
3
72
8
73
4
40
0
40
0
40
0
40
0
40
1
40
1
40
1
40
1
41
1
10
64.3149384862094
20
7.69346285717862
30
0
41
1
10
64.5182757053396
20
7.20254869350737
30
0
41
1
10
64.7256225928685
20
6.69776718762026
30
0
41
1
10
64.934221421081
20
6.17642861769068
30
0
0
SPLINE
5
BA
100
AcDbEntity
8
1
62
256
6
ByLayer
370
18
48
1
60
0
100
AcDbSpline
70
4
71
3
72
8
73
4
40
0
40
0
40
0
40
0
40
1
40
1
40
1
40
1
41
1
10
66.9995988357348
20
0.149998129189925
30
0
41
1
10
66.8020240077421
20
0.677783744715299
30
0
41
1
10
66.611931141209
20
1.21212168747417
30
0
41
1
10
66.4274644107495
20
1.75220406245663
30
0
0
SPLINE
5
BB
100
AcDbEntity
8
1
62
256
6
ByLayer
370
13
48
1
60
0
100
AcDbSpline
70
4
71
3
72
40
73
36
40
0
40
0
40
0
40
0
40
0.225542712074093
40
0.225542712074093
40
0.281928390092617
40
0.281928390092617
40
0.310121229101878
40
0.310121229101878
40
0.33831406811114
40
0.33831406811114
40
0.451085424148189
40
0.451085424148189
40
0.563856780185238
40
0.563856780185238
40
0.5920496191945
40
0.5920496191945
40
0.620242458203762
40
0.620242458203762
40
0.676628136222285
40
0.676628136222285
40
0.733013814240808
40
0.733013814240808
40
0.761206653250069
40
0.761206653250069
40
0.78939949225933
40
0.78939949225933
40
0.902170848296377
40
0.902170848296377
40
0.93036368730564
40
0.93036368730564
40
0.958556526314902
40
0.958556526314902
40
0.986749365324165
40
0.986749365324165
40
1
40
1
40
1
40
1
41
1
10
64.2008528059446
20
-7.32556094455245
30
0
41
1
10
61.7088659930116
20
-6.97825029626449
30
0
41
1
10
59.2677936337182
20
-6.28373470600326
30
0
41
1
10
56.18190586484
20
-5.08599926092936
30
0
41
1
10
55.5629805045682
20
-4.82999703136574
30
0
41
1
10
54.6300357144191
20
-4.42366777309544
30
0
41
1
10
54.3178642342608
20
-4.28428584888243
30
0
41
1
10
53.6937722398352
20
-3.99942850263707
30
0
41
1
10
53.3825061094394
20
-3.85427396172668
30
0
41
1
10
51.8293579535464
20
-3.11615837101576
30
0
41
1
10
50.5971458781966
20
-2.48595032977431
30
0
41
1
10
48.1323637423145
20
-1.18419927658556
30
0
41
1
10
46.9003435975683
20
-0.511680851440218
30
0
41
1
10
45.3477164455119
20
0.33204654631669
30
0
41
1
10
45.0365916342015
20
0.500996773170328
30
0
41
1
10
44.4127915914738
20
0.838668347744431
30
0
41
1
10
44.1000545805222
20
1.00742770962606
30
0
41
1
10
43.1641051670142
20
1.50975593530057
30
0
41
1
10
42.54140031957
20
1.84010317120178
30
0
41
1
10
41.295961077884
20
2.487375260253
30
0
41
1
10
40.6732977993931
20
2.80442547261245
30
0
41
1
10
39.7373632991758
20
3.26650723996175
30
0
41
1
10
39.4247994415106
20
3.41842914299417
30
0
41
1
10
38.8000760754002
20
3.71654542590466
30
0
41
1
10
38.4881068819673
20
3.86262848248396
30
0
41
1
10
36.9295067666108
20
4.57714574451251
30
0
41
1
10
35.6865375696348
20
5.09781346242303
30
0
41
1
10
34.1247879521938
20
5.66661374022556
30
0
41
1
10
33.8120140338771
20
5.77624366620714
30
0
41
1
10
33.1870377998094
20
5.98622451554118
30
0
41
1
10
32.8745959669336
20
6.08662793675021
30
0
41
1
10
32.2495583604901
20
6.27816981304315
30
0
41
1
10
31.9366830915856
20
6.36938057599735
30
0
41
1
10
31.4778728658672
20
6.49584137579649
30
0
41
1
10
31.3313205592017
20
6.53514518359981
30
0
41
1
10
31.1848938246405
20
6.57330892607831
30
0
0
SPLINE
5
BC
100
AcDbEntity
8
1
62
256
6
ByLayer
370
18
48
1
60
0
100
AcDbSpline
70
4
71
3
72
10
73
6
40
0
40
0
40
0
40
0
40
0.329201219644022
40
0.329201219644022
40
1
40
1
40
1
40
1
41
1
10
24.1594715297454
20
-7.49792703057022
30
0
41
1
10
23.8535152288892
20
-7.49704739201479
30
0
41
1
10
23.5465485392381
20
-7.49066717718756
30
0
41
1
10
22.6154602441707
20
-7.45469280980552
30
0
41
1
10
21.9935396033373
20
-7.40788115382117
30
0
41
1
10
21.373036096528
20
-7.33917868819177
30
0
0
SPLINE
5
BD
100
AcDbEntity
8
1
62
256
6
ByLayer
370
13
48
1
60
0
100
AcDbSpline
70
4
71
3
72
24
73
20
40
0
40
0
40
0
40
0
40
0.111163391243918
40
0.111163391243918
40
0.33337254343294
40
0.33337254343294
40
0.388924831480195
40
0.388924831480195
40
0.44447711952745
40
0.44447711952745
40
0.55558169562196
40
0.55558169562196
40
0.77779084781098
40
0.77779084781098
40
0.88889542390549
40
0.88889542390549
40
0.944447711952745
40
0.944447711952745
40
1
40
1
40
1
40
1
41
1
10
21.3730360968173
20
-7.33917868822374
30
0
41
1
10
20.7518752933977
20
-7.27040344638436
30
0
41
1
10
20.1321346279203
20
-7.17969099266102
30
0
41
1
10
18.2741115063363
20
-6.84423574748885
30
0
41
1
10
17.0361814805267
20
-6.53662009647351
30
0
41
1
10
15.4772048580259
20
-6.05496305541919
30
0
41
1
10
15.1645184372209
20
-5.95370344716613
30
0
41
1
10
14.5389666519541
20
-5.74224501686507
30
0
41
1
10
14.2269645304911
20
-5.63234326190147
30
0
41
1
10
13.2928621066369
20
-5.29086217408727
30
0
41
1
10
12.6726328187066
20
-5.04753578785338
30
0
41
1
10
10.8154913681462
20
-4.27648788593794
30
0
41
1
10
9.58233847269321
20
-3.70734341926854
30
0
41
1
10
7.72521360411813
20
-2.79544210234749
30
0
41
1
10
7.10485382890013
20
-2.48181006295988
30
0
41
1
10
6.17073888664072
20
-1.99965428622861
30
0
41
1
10
5.85876636858276
20
-1.83699895147748
30
0
41
1
10
5.23323472318756
20
-1.5084144856578
30
0
41
1
10
4.91993948354229
20
-1.34261960459239
30
0
41
1
10
4.60693702087369
20
-1.17612051712982
30
0
0
SPLINE
5
BE
100
AcDbEntity
8
1
62
256
6
ByLayer
370
18
48
1
60
0
100
AcDbSpline
70
4
71
3
72
18
73
14
40
0
40
0
40
0
40
0
40
0.0889322052701347
40
0.0889322052701347
40
0.177864410540269
40
0.177864410540269
40
0.355728821080539
40
0.355728821080539
40
0.533593231620809
40
0.533593231620809
40
0.711457642161078
40
0.711457642161078
40
1
40
1
40
1
40
1
41
1
10
4.04514209629113
20
-7.14856935829164
30
0
41
1
10
4.03999394128746
20
-7.17763450198223
30
0
41
1
10
4.03696932439635
20
-7.20546439809505
30
0
41
1
10
4.0348836690606
20
-7.2586447334632
30
0
41
1
10
4.03550701452215
20
-7.28399026940667
30
0
41
1
10
4.03547546039096
20
-7.35620197068039
30
0
41
1
10
4.03544981003023
20
-7.39928094707312
30
0
41
1
10
4.03539033978169
20
-7.47522149234098
30
0
41
1
10
4.03535646619781
20
-7.5080696613515
30
0
41
1
10
4.03528254958781
20
-7.56281560930245
30
0
41
1
10
4.03524242863969
20
-7.58483801847609
30
0
41
1
10
4.03513061517205
20
-7.62881588060404
30
0
41
1
10
4.03505483239715
20
-7.64224421035371
30
0
41
1
10
4.03497491244383
20
-7.6418947617353
30
0
0
SPLINE
5
BF
100
AcDbEntity
8
1
62
256
6
ByLayer
370
18
48
1
60
0
100
AcDbSpline
70
4
71
3
72
12
73
8
40
0
40
0
40
0
40
0
40
0.250000000000008
40
0.250000000000008
40
0.500000000000017
40
0.500000000000017
40
1
40
1
40
1
40
1
41
1
10
4.07944305389921
20
-1.12802840498941
30
0
41
1
10
4.1022762720259
20
-1.16404563816866
30
0
41
1
10
4.13006679835564
20
-1.19555682146768
30
0
41
1
10
4.19073516885936
20
-1.25395388531365
30
0
41
1
10
4.22384585161765
20
-1.28079168758706
30
0
41
1
10
4.32608530975347
20
-1.35566917106405
30
0
41
1
10
4.39853010246455
20
-1.3991246847369
30
0
41
1
10
4.47302681096701
20
-1.4394814117907
30
0
0
SPLINE
5
C0
100
AcDbEntity
8
1
62
256
6
ByLayer
370
18
48
1
60
0
100
AcDbSpline
70
4
71
3
72
12
73
8
40
0
40
0
40
0
40
0
40
0.500000000000002
40
0.500000000000002
40
0.750000000000001
40
0.750000000000001
40
1
40
1
40
1
40
1
41
1
10
64.5082903548121
20
3.04795353032142
30
0
41
1
10
64.4424655697242
20
3.23218740343086
30
0
41
1
10
64.3949716458978
20
3.42014596016747
30
0
41
1
10
64.3613938030515
20
3.71053855916316
30
0
41
1
10
64.3566906966813
20
3.8090707324227
30
0
41
1
10
64.3635091787215
20
4.00401332822068
30
0
41
1
10
64.3748446134767
20
4.10105095910222
30
0
41
1
10
64.3965711968794
20
4.19759434788404
30
0
0
SPLINE
5
C1
100
AcDbEntity
8
1
62
256
6
ByLayer
370
18
48
1
60
0
100
AcDbSpline
70
4
71
3
72
8
73
4
40
0
40
0
40
0
40
0
40
1
40
1
40
1
40
1
41
1
10
22.1146485716846
20
-7.67257122758028
30
0
41
1
10
22.2173743637678
20
-7.67401327136358
30
0
41
1
10
22.3200206263349
20
-7.6748210460236
30
0
41
1
10
22.4225910656878
20
-7.67499777731399
30
0
0
SPLINE
5
C2
100
AcDbEntity
8
1
62
256
6
ByLayer
370
18
48
1
60
0
100
AcDbSpline
70
4
71
3
72
18
73
14
40
0
40
0
40
0
40
0
40
0.201701431959431
40
0.201701431959431
40
0.334751193299526
40
0.334751193299526
40
0.467800954639619
40
0.467800954639619
40
0.600850715979714
40
0.600850715979714
40
0.733900477319808
40
0.733900477319808
40
1
40
1
40
1
40
1
41
1
10
54.402867229281
20
5.18514640349142
30
0
41
1
10
55.0665667160006
20
5.46047421353634
30
0
41
1
10
55.7289888283605
20
5.71729707835439
30
0
41
1
10
56.8282751735048
20
6.11044527773771
30
0
41
1
10
57.265400111291
20
6.25775746038028
30
0
41
1
10
58.140486859864
20
6.53393882856417
30
0
41
1
10
58.5785984301623
20
6.66264525928642
30
0
41
1
10
59.4567474786137
20
6.90033256619463
30
0
41
1
10
59.8967681122972
20
7.00932035015887
30
0
41
1
10
60.7798731145448
20
7.20629984831828
30
0
41
1
10
61.2234500279421
20
7.29450945452609
30
0
41
1
10
62.5505935847477
20
7.52427504588877
30
0
41
1
10
63.4320432965752
20
7.63225956503135
30
0
41
1
10
64.3149384862095
20
7.69346285717862
30
0
0
SPLINE
5
C3
100
AcDbEntity
8
1
62
256
6
ByLayer
370
18
48
1
60
0
100
AcDbSpline
70
4
71
3
72
28
73
24
40
0
40
0
40
0
40
0
40
0.047263623980086
40
0.047263623980086
40
0.183368820554357
40
0.183368820554357
40
0.319474017128629
40
0.319474017128629
40
0.387526615415766
40
0.387526615415766
40
0.455579213702902
40
0.455579213702902
40
0.591684410277176
40
0.591684410277176
40
0.659737008564313
40
0.659737008564313
40
0.72778960685145
40
0.72778960685145
40
0.863894803425725
40
0.863894803425725
40
0.931947401712863
40
0.931947401712863
40
1
40
1
40
1
40
1
41
1
10
8.60559327444355
20
-6.16542057292352
30
0
41
1
10
8.51082357706807
20
-6.2086512461168
30
0
41
1
10
8.41679326289994
20
-6.25144510818168
30
0
41
1
10
8.05501864609732
20
-6.41560693900587
30
0
41
1
10
7.79207650325688
20
-6.533862629981
30
0
41
1
10
7.28939704258892
20
-6.75605905100517
30
0
41
1
10
7.04910104094967
20
-6.86027459858153
30
0
41
1
10
6.70744503562474
20
-7.0040649892274
30
0
41
1
10
6.59676288627304
20
-7.04984800242724
30
0
41
1
10
6.38273207932437
20
-7.13628876250252
30
0
41
1
10
6.27910279428971
20
-7.1770561927903
30
0
41
1
10
5.98266251151318
20
-7.28953841148319
30
0
41
1
10
5.80649985489373
20
-7.35068252854228
30
0
41
1
10
5.58136977313052
20
-7.41577847371255
30
0
41
1
10
5.51275341806053
20
-7.43303772640411
30
0
41
1
10
5.3910241296276
20
-7.45703295708213
30
0
41
1
10
5.3388624662158
20
-7.4635875823198
30
0
41
1
10
5.20932847095332
20
-7.46609863498782
30
0
41
1
10
5.15867352039396
20
-7.44504047097311
30
0
41
1
10
5.14299206124224
20
-7.37410357718872
30
0
41
1
10
5.14802455679035
20
-7.34421349719835
30
0
41
1
10
5.17781526726799
20
-7.27282039913985
30
0
41
1
10
5.20255797820994
20
-7.23124875009236
30
0
41
1
10
5.2369059506106
20
-7.18392982788288
30
0
0
SPLINE
5
C4
100
AcDbEntity
8
1
62
256
6
ByLayer
370
18
48
1
60
0
100
AcDbSpline
70
4
71
3
72
46
73
42
40
0
40
0
40
0
40
0
40
0.0723720405964643
40
0.0723720405964643
40
0.144744081192929
40
0.144744081192929
40
0.180930101491161
40
0.180930101491161
40
0.217116121789393
40
0.217116121789393
40
0.253302142087625
40
0.253302142087625
40
0.289488162385857
40
0.289488162385857
40
0.361860202982322
40
0.361860202982322
40
0.434232243578786
40
0.434232243578786
40
0.470418263877018
40
0.470418263877018
40
0.50660428417525
40
0.50660428417525
40
0.578976324771713
40
0.578976324771713
40
0.651348365368175
40
0.651348365368175
40
0.687534385666406
40
0.687534385666406
40
0.723720405964636
40
0.723720405964636
40
0.796092446561096
40
0.796092446561096
40
0.832278466859327
40
0.832278466859327
40
0.868464487157557
40
0.868464487157557
40
0.940836527754017
40
0.940836527754017
40
0.977022548052247
40
0.977022548052247
40
1
40
1
40
1
40
1
41
1
10
63.3915964164927
20
0.819294657382414
30
0
41
1
10
62.9033490972728
20
1.08460936400076
30
0
41
1
10
62.4150963352357
20
1.34739881546318
30
0
41
1
10
61.438560829133
20
1.86782798360909
30
0
41
1
10
60.9500700348326
20
2.12504364528994
30
0
41
1
10
60.2163296251334
20
2.50478539836558
30
0
41
1
10
59.9715033064424
20
2.63021554299553
30
0
41
1
10
59.4816383282822
20
2.87919535584626
30
0
41
1
10
59.2364583419785
20
3.00243344090538
30
0
41
1
10
58.7470134197468
20
3.24462569910995
30
0
41
1
10
58.502687058506
20
3.36403668665153
30
0
41
1
10
58.0139388814048
20
3.59983834277159
30
0
41
1
10
57.7695007568153
20
3.7159895857493
30
0
41
1
10
57.036475181135
20
4.05970267442035
30
0
41
1
10
56.5478284749125
20
4.28200520327687
30
0
41
1
10
55.570094252972
20
4.71033168624535
30
0
41
1
10
55.0802447633167
20
4.91551303228366
30
0
41
1
10
54.3451378754137
20
5.20944565710104
30
0
41
1
10
54.1002191895008
20
5.30476069671025
30
0
41
1
10
53.6109360983372
20
5.49012539220101
30
0
41
1
10
53.3665820128203
20
5.58014891924225
30
0
41
1
10
52.6333125148668
20
5.84195168197809
30
0
41
1
10
52.1447947972386
20
6.00660888737437
30
0
41
1
10
51.1667211551072
20
6.31320937328229
30
0
41
1
10
50.6775784916219
20
6.45570731147905
30
0
41
1
10
49.9424161451918
20
6.64960096499121
30
0
41
1
10
49.697243543455
20
6.71084919203201
30
0
41
1
10
49.2073831986557
20
6.82674284548406
30
0
41
1
10
48.9625551835413
20
6.88166526084814
30
0
41
1
10
48.228696617407
20
7.03780050455183
30
0
41
1
10
47.7397345962395
20
7.12872178178091
30
0
41
1
10
47.0063281242013
20
7.24502416478913
30
0
41
1
10
46.7616989518384
20
7.2805038453395
30
0
41
1
10
46.2725005044595
20
7.34391148741099
30
0
41
1
10
46.0278933324652
20
7.37149480883051
30
0
41
1
10
45.2930658685735
20
7.44436862455203
30
0
41
1
10
44.802165875036
20
7.48065010762116
30
0
41
1
10
44.067279685434
20
7.51442875967109
30
0
41
1
10
43.8226236086438
20
7.52229036968404
30
0
41
1
10
43.4226434598548
20
7.52932768913809
30
0
41
1
10
43.2672890444391
20
7.53065564430645
30
0
41
1
10
43.1119755881099
20
7.53045103658673
30
0
0
SPLINE
5
C5
100
AcDbEntity
8
1
62
256
6
ByLayer
370
18
48
1
60
0
100
AcDbSpline
70
4
71
3
72
8
73
4
40
0
40
0
40
0
40
0
40
1
40
1
40
1
40
1
41
1
10
64.3149384862094
20
-7.69346285717862
30
0
41
1
10
64.5182830326714
20
-7.20253100323424
30
0
41
1
10
64.7256303723062
20
-6.69774774493715
30
0
41
1
10
64.934221421081
20
-6.17642861769085
30
0
0
SPLINE
5
C6
100
AcDbEntity
8
1
62
256
6
ByLayer
370
18
48
1
60
0
100
AcDbSpline
70
4
71
3
72
56
73
52
40
0
40
0
40
0
40
0
40
0.0347272630904221
40
0.0347272630904221
40
0.0806926315146865
40
0.0806926315146865
40
0.103675315726819
40
0.103675315726819
40
0.126657999938951
40
0.126657999938951
40
0.172623368363216
40
0.172623368363216
40
0.218588736787481
40
0.218588736787481
40
0.264554105211747
40
0.264554105211747
40
0.310519473636012
40
0.310519473636012
40
0.333502157848144
40
0.333502157848144
40
0.356484842060277
40
0.356484842060277
40
0.402450210484543
40
0.402450210484543
40
0.448415578908809
40
0.448415578908809
40
0.494380947333075
40
0.494380947333075
40
0.517363631545207
40
0.517363631545207
40
0.54034631575734
40
0.54034631575734
40
0.586311684181606
40
0.586311684181606
40
0.632277052605872
40
0.632277052605872
40
0.724207789454404
40
0.724207789454404
40
0.747190473666537
40
0.747190473666537
40
0.77017315787867
40
0.77017315787867
40
0.816138526302936
40
0.816138526302936
40
0.862103894727202
40
0.862103894727202
40
0.908069263151468
40
0.908069263151468
40
0.954034631575734
40
0.954034631575734
40
1
40
1
40
1
40
1
41
1
10
23.6318327407604
20
7.67715640465687
30
0
41
1
10
24.1029318496686
20
7.67779372375659
30
0
41
1
10
24.5743860346975
20
7.66513948723909
30
0
41
1
10
25.6675371994994
20
7.60500018709629
30
0
41
1
10
26.2895807097387
20
7.54766255174465
30
0
41
1
10
27.2234518177274
20
7.42761846873668
30
0
41
1
10
27.5348711131224
20
7.38192648729247
30
0
41
1
10
28.1582920239517
20
7.27927963985215
30
0
41
1
10
28.4703196230642
20
7.2223019767678
30
0
41
1
10
29.4048301780806
20
7.03531930831801
30
0
41
1
10
30.0268656339277
20
6.88921464860132
30
0
41
1
10
31.2713157830525
20
6.55607952897887
30
0
41
1
10
31.8940442994082
20
6.3688684107926
30
0
41
1
10
33.1411226589973
20
5.95628523781727
30
0
41
1
10
33.7633052220615
20
5.73176884524042
30
0
41
1
10
35.0073899580669
20
5.24939438095259
30
0
41
1
10
35.6292717088833
20
4.99150004321234
30
0
41
1
10
36.563945750325
20
4.58225761234758
30
0
41
1
10
36.8758861006297
20
4.44209705536542
30
0
41
1
10
37.4986887466551
20
4.15563146116827
30
0
41
1
10
37.8098104205346
20
4.0092404581836
30
0
41
1
10
38.7428483651577
20
3.56140561772145
30
0
41
1
10
39.3644276781983
20
3.25128414798215
30
0
41
1
10
40.6093432200728
20
2.61213754835956
30
0
41
1
10
41.2331932359047
20
2.28272758769665
30
0
41
1
10
42.4775402506634
20
1.61359838476292
30
0
41
1
10
43.0989885305195
20
1.27353966990563
30
0
41
1
10
44.0318675803502
20
0.758391017723909
30
0
41
1
10
44.3429661467071
20
0.585868864224381
30
0
41
1
10
44.9657712645224
20
0.23979925222082
30
0
41
1
10
45.2775597877148
20
0.0661964518094749
30
0
41
1
10
46.2113714935258
20
-0.453572640787684
30
0
41
1
10
46.8327732456415
20
-0.799298302571259
30
0
41
1
10
48.0759402512141
20
-1.48444015140746
30
0
41
1
10
48.6980310086237
20
-1.82388247511602
30
0
41
1
10
50.5672849154412
20
-2.82460872114299
30
0
41
1
10
51.8074433791768
20
-3.46321757996941
30
0
41
1
10
53.3636836504305
20
-4.20347857566361
30
0
41
1
10
53.6753341070809
20
-4.34869187731144
30
0
41
1
10
54.2975786512426
20
-4.63192004632566
30
0
41
1
10
54.6084122685759
20
-4.77004308857812
30
0
41
1
10
55.5405844345971
20
-5.17321106960679
30
0
41
1
10
56.1615639948482
20
-5.42709813719264
30
0
41
1
10
57.4052192327393
20
-5.90154532008316
30
0
41
1
10
58.0287507941494
20
-6.1222914544048
30
0
41
1
10
59.2698613892256
20
-6.52385058433069
30
0
41
1
10
59.8886305745694
20
-6.70508913634762
30
0
41
1
10
61.125141573785
20
-7.02649837079164
30
0
41
1
10
61.7429569532521
20
-7.16661058242733
30
0
41
1
10
62.980147187866
20
-7.40378179778955
30
0
41
1
10
63.5993223147304
20
-7.50092436516897
30
0
41
1
10
64.2208514412079
20
-7.57539772344831
30
0
0
SPLINE
5
C7
100
AcDbEntity
8
1
62
256
6
ByLayer
370
18
48
1
60
0
100
AcDbSpline
70
4
71
3
72
22
73
18
40
0
40
0
40
0
40
0
40
0.124999999999999
40
0.124999999999999
40
0.187499999999999
40
0.187499999999999
40
0.249999999999998
40
0.249999999999998
40
0.374999999999997
40
0.374999999999997
40
0.499999999999996
40
0.499999999999996
40
0.749999999999997
40
0.749999999999997
40
0.874999999999998
40
0.874999999999998
40
1
40
1
40
1
40
1
41
1
10
65.970571314051
20
-1.57423696029306
30
0
41
1
10
65.8884618304554
20
-1.59997245665218
30
0
41
1
10
65.809218988388
20
-1.60530850080352
30
0
41
1
10
65.6940147277984
20
-1.58726743875621
30
0
41
1
10
65.65622893546
20
-1.57687285098876
30
0
41
1
10
65.5818357150812
20
-1.54769825790416
30
0
41
1
10
65.5450954665268
20
-1.52880055165338
30
0
41
1
10
65.438579453437
20
-1.46125711332212
30
0
41
1
10
65.371878106436
20
-1.40175274735228
30
0
41
1
10
65.2458428704639
20
-1.25799608616589
30
0
41
1
10
65.1862861040192
20
-1.17310507382817
30
0
41
1
10
65.0221311588909
20
-0.892509058589042
30
0
41
1
10
64.9300244590103
20
-0.669975165200611
30
0
41
1
10
64.8129164933276
20
-0.293086155847732
30
0
41
1
10
64.7778210079407
20
-0.161159589297938
30
0
41
1
10
64.7155457051528
20
0.110758201631001
30
0
41
1
10
64.6882116627649
20
0.251261807460139
30
0
41
1
10
64.6644090982389
20
0.395984970035641
30
0
0
SPLINE
5
C8
100
AcDbEntity
8
1
62
256
6
ByLayer
370
18
48
1
60
0
100
AcDbSpline
70
4
71
3
72
8
73
4
40
0
40
0
40
0
40
0
40
1
40
1
40
1
40
1
41
1
10
5.23690595061055
20
-7.18392982788288
30
0
41
1
10
5.15184376544175
20
-7.22843188884437
30
0
41
1
10
5.06725323600915
20
-7.27270091788972
30
0
41
1
10
4.98313466110059
20
-7.31673345683538
30
0
0
SPLINE
5
C9
100
AcDbEntity
8
1
62
256
6
ByLayer
370
18
48
1
60
0
100
AcDbSpline
70
4
71
3
72
16
73
12
40
0
40
0
40
0
40
0
40
0.0068590983014046
40
0.0068590983014046
40
0.255144323726053
40
0.255144323726053
40
0.503429549150702
40
0.503429549150702
40
0.751714774575351
40
0.751714774575351
40
1
40
1
40
1
40
1
41
1
10
19.2123883174328
20
1.17929751292223
30
0
41
1
10
19.2154899330658
20
1.18193591316589
30
0
41
1
10
19.2185916091068
20
1.18458873635171
30
0
41
1
10
19.3339676918081
20
1.28380332779912
30
0
41
1
10
19.4462376940194
20
1.399189657948
30
0
41
1
10
19.6653572441799
20
1.66207834324464
30
0
41
1
10
19.7721982027724
20
1.80957039331159
30
0
41
1
10
19.9752925263101
20
2.12954047883497
30
0
41
1
10
20.0715379300781
20
2.30200597165347
30
0
41
1
10
20.2487859891422
20
2.66358465508037
30
0
41
1
10
20.3297816964194
20
2.8526836720184
30
0
41
1
10
20.4011969990542
20
3.04553487745909
30
0
0
SPLINE
5
CA
100
AcDbEntity
8
1
62
256
6
ByLayer
370
18
48
1
60
0
100
AcDbSpline
70
4
71
3
72
26
73
22
40
0
40
0
40
0
40
0
40
0.111766583164833
40
0.111766583164833
40
0.200589924848351
40
0.200589924848351
40
0.289413266531869
40
0.289413266531869
40
0.378236608215387
40
0.378236608215387
40
0.467059949898905
40
0.467059949898905
40
0.644706633265936
40
0.644706633265936
40
0.733529974949452
40
0.733529974949452
40
0.822353316632968
40
0.822353316632968
40
0.911176658316484
40
0.911176658316484
40
1
40
1
40
1
40
1
41
1
10
63.9061364714575
20
0.672354406729767
30
0
41
1
10
63.9423932264157
20
0.707616796305814
30
0
41
1
10
63.9805921610512
20
0.750306559603871
30
0
41
1
10
64.0521761309263
20
0.840699809846313
30
0
41
1
10
64.0848907263775
20
0.885619158147165
30
0
41
1
10
64.1503188844399
20
0.983133332440502
30
0
41
1
10
64.1832368762275
20
1.035970648324
30
0
41
1
10
64.2488427372791
20
1.14987395789055
30
0
41
1
10
64.2815360573111
20
1.21093802978518
30
0
41
1
10
64.3458140405954
20
1.34171196747178
30
0
41
1
10
64.3774041267641
20
1.41153439806462
30
0
41
1
10
64.4662376828158
20
1.62897552281032
30
0
41
1
10
64.5188248733089
20
1.78606595616012
30
0
41
1
10
64.5760155848506
20
2.04190331954308
30
0
41
1
10
64.591306371335
20
2.13087234413729
30
0
41
1
10
64.6106336776604
20
2.3103886214312
30
0
41
1
10
64.6148346699363
20
2.40155959660157
30
0
41
1
10
64.6095704839134
20
2.58645229218678
30
0
41
1
10
64.5998791413518
20
2.68087192458904
30
0
41
1
10
64.5652932741106
20
2.86635323634448
30
0
41
1
10
64.5404869057957
20
2.95784012880245
30
0
41
1
10
64.5082903548118
20
3.04795353032145
30
0
0
SPLINE
5
CB
100
AcDbEntity
8
1
62
256
6
ByLayer
370
18
48
1
60
0
100
AcDbSpline
70
4
71
3
72
10
73
6
40
0
40
0
40
0
40
0
40
0.5
40
0.5
40
1
40
1
40
1
40
1
41
1
10
64.2208514412079
20
-7.57539772344828
30
0
41
1
10
64.2301543942664
20
-7.54219662482234
30
0
41
1
10
64.2379547106144
20
-7.50902951332191
30
0
41
1
10
64.2489208803324
20
-7.44987799397768
30
0
41
1
10
64.2521605304743
20
-7.42385252445263
30
0
41
1
10
64.2533819529966
20
-7.40208079520573
30
0
0
SPLINE
5
CC
100
AcDbEntity
8
1
62
256
6
ByLayer
370
13
48
1
60
0
100
AcDbSpline
70
4
71
3
72
8
73
4
40
0
40
0
40
0
40
0
40
1
40
1
40
1
40
1
41
1
10
4.03388375638903
20
-0.986444034651157
30
0
41
1
10
4.05892951684552
20
-0.995481758005468
30
0
41
1
10
4.08506919865954
20
-1.00400499973361
30
0
41
1
10
4.11240387429194
20
-1.01197951066376
30
0
0
SPLINE
5
CD
100
AcDbEntity
8
1
62
256
6
ByLayer
370
18
48
1
60
0
100
AcDbSpline
70
4
71
3
72
14
73
10
40
0
40
0
40
0
40
0
40
0.250000000000001
40
0.250000000000001
40
0.500000000000001
40
0.500000000000001
40
0.750000000000001
40
0.750000000000001
40
1
40
1
40
1
40
1
41
1
10
12.4130521826773
20
-6.47302993398785
30
0
41
1
10
13.2281702834478
20
-6.65417008941259
30
0
41
1
10
14.0420870993837
20
-6.81518958268205
30
0
41
1
10
15.6667360453229
20
-7.09854346592726
30
0
41
1
10
16.4774706930673
20
-7.22086352813284
30
0
41
1
10
18.0951454514822
20
-7.42515841812838
30
0
41
1
10
18.9020863476804
20
-7.50715055044827
30
0
41
1
10
20.5116795409896
20
-7.62595689184246
30
0
41
1
10
21.3143311541802
20
-7.66283043479564
30
0
41
1
10
22.1146485716846
20
-7.67257122758031
30
0
0
SPLINE
5
CE
100
AcDbEntity
8
1
62
256
6
ByLayer
370
18
48
1
60
0
100
AcDbSpline
70
4
71
3
72
8
73
4
40
0
40
0
40
0
40
0
40
1
40
1
40
1
40
1
41
1
10
66.4274644107494
20
-1.75220406245677
30
0
41
1
10
65.9243764871285
20
-3.22514674397635
30
0
41
1
10
65.4266157643297
20
-4.69988386334248
30
0
41
1
10
64.934221421081
20
-6.17642861769085
30
0
0
SPLINE
5
CF
100
AcDbEntity
8
1
62
256
6
ByLayer
370
18
48
1
60
0
100
AcDbSpline
70
4
71
3
72
8
73
4
40
0
40
0
40
0
40
0
40
1
40
1
40
1
40
1
41
1
10
66.4274644107495
20
1.75220406245663
30
0
41
1
10
65.9243787893269
20
3.22514000359163
30
0
41
1
10
65.4266180231238
20
4.69987708988822
30
0
41
1
10
64.934221421081
20
6.17642861769068
30
0
0
SPLINE
5
D0
100
AcDbEntity
8
1
62
256
6
ByLayer
370
18
48
1
60
0
100
AcDbSpline
70
4
71
3
72
43
73
39
40
0
40
0
40
0
40
0
40
0.0143204482260999
40
0.0143204482260999
40
0.0522312002174038
40
0.0522312002174038
40
0.0901419522087077
40
0.0901419522087077
40
0.165963456191316
40
0.165963456191316
40
0.241784960173923
40
0.241784960173923
40
0.279695712165227
40
0.279695712165227
40
0.317606464156531
40
0.317606464156531
40
0.393427968139139
40
0.393427968139139
40
0.469249472121747
40
0.469249472121747
40
0.507160224113051
40
0.507160224113051
40
0.545070976104355
40
0.545070976104355
40
0.620892480086963
40
0.620892480086963
40
0.658803232078266
40
0.658803232078266
40
0.69671398406957
40
0.69671398406957
40
0.772535488052178
40
0.848356992034785
40
0.848356992034785
40
0.886267744026089
40
0.886267744026089
40
0.924178496017393
40
0.924178496017393
40
1
40
1
40
1
40
1
41
1
10
4.03497491263531
20
7.64189476257266
30
0
41
1
10
4.03495630338489
20
7.64181339906432
30
0
41
1
10
4.03493746982284
20
7.64098502527111
30
0
41
1
10
4.03486807357226
20
7.63523913753036
30
0
41
1
10
4.03481634171504
20
7.62581755387407
30
0
41
1
10
4.03471123276185
20
7.59627476153733
30
0
41
1
10
4.03465766109025
20
7.57604472141594
30
0
41
1
10
4.03449797567313
20
7.49980952349736
30
0
41
1
10
4.03439276499179
20
7.42845182991337
30
0
41
1
10
4.03419215259896
20
7.24591969506403
30
0
41
1
10
4.03409673127447
20
7.13474322826548
30
0
41
1
10
4.03396544067789
20
6.93754744515718
30
0
41
1
10
4.03392354880819
20
6.8665441103837
30
0
41
1
10
4.03384478791827
20
6.71490067969296
30
0
41
1
10
4.03380813048111
20
6.63471366924071
30
0
41
1
10
4.0337067246333
20
6.38137833531817
30
0
41
1
10
4.03365057913538
20
6.1955068540118
30
0
41
1
10
4.03356236099916
20
5.79020588700897
30
0
41
1
10
4.03353028829903
20
5.5707800335644
30
0
41
1
10
4.03350021520816
20
5.21550729416032
30
0
41
1
10
4.03349326697753
20
5.09350426391592
30
0
41
1
10
4.0334851412774
20
4.84397626920756
30
0
41
1
10
4.0334839437723
20
4.71622100422726
30
0
41
1
10
4.03348810983744
20
4.32411669518262
30
0
41
1
10
4.03350126755163
20
4.050965095549
30
0
41
1
10
4.03353268037597
20
3.62349411862064
30
0
41
1
10
4.03354508923843
20
3.47803760847026
30
0
41
1
10
4.03357301221905
20
3.18105919542884
30
0
41
1
10
4.03358854103396
20
3.02947655714036
30
0
41
1
10
4.03363767955938
20
2.57223801459665
30
0
41
1
10
4.0337103947987
20
1.95162903123506
30
0
41
1
10
4.03378066745711
20
1.30962419565776
30
0
41
1
10
4.03382547748333
20
0.819888208250717
30
0
41
1
10
4.03383911866928
20
0.654754639751815
30
0
41
1
10
4.03386220873537
20
0.325367954277425
30
0
41
1
10
4.0338716889276
20
0.160889088140749
30
0
41
1
10
4.03389227016493
20
-0.331912994470827
30
0
41
1
10
4.03389553418072
20
-0.65960431824368
30
0
41
1
10
4.03388375638915
20
-0.986444034650532
30
0
0
SPLINE
5
D1
100
AcDbEntity
8
1
62
256
6
ByLayer
370
18
48
1
60
0
100
AcDbSpline
70
4
71
3
72
8
73
4
40
0
40
0
40
0
40
0
40
1
40
1
40
1
40
1
41
1
10
64.2533819529964
20
-7.40208079521011
30
0
41
1
10
64.2412685713651
20
-7.36492917959956
30
0
41
1
10
64.2225957873682
20
-7.34110234400654
30
0
41
1
10
64.2008528059447
20
-7.32556094455245
30
0
0
SPLINE
5
D2
100
AcDbEntity
8
1
62
256
6
ByLayer
370
18
48
1
60
0
100
AcDbSpline
70
4
71
3
72
14
73
10
40
0
40
0
40
0
40
0
40
0.249999999999999
40
0.249999999999999
40
0.499999999999999
40
0.499999999999999
40
0.749999999999999
40
0.749999999999999
40
1
40
1
40
1
40
1
41
1
10
12.4130521826772
20
6.47302993398785
30
0
41
1
10
13.2281702834478
20
6.65417008941256
30
0
41
1
10
14.0420870993837
20
6.81518958268202
30
0
41
1
10
15.6667360453229
20
7.09854346592726
30
0
41
1
10
16.4774706930673
20
7.22086352813284
30
0
41
1
10
18.0951454514822
20
7.42515841812835
30
0
41
1
10
18.9020863476804
20
7.50715055044827
30
0
41
1
10
20.5116795409895
20
7.62595689184246
30
0
41
1
10
21.3143311541802
20
7.66283043479564
30
0
41
1
10
22.1146485716846
20
7.67257122758031
30
0
0
SPLINE
5
D3
100
AcDbEntity
8
1
62
256
6
ByLayer
370
13
48
1
60
0
100
AcDbSpline
70
4
71
3
72
76
73
72
40
0
40
0
40
0
40
0
40
0.0016462049517529
40
0.0127542508773869
40
0.0349703427286523
40
0.0460783886542852
40
0.0571864345799186
40
0.079402526431185
40
0.090510572356818
40
0.101618618282451
40
0.123834710133718
40
0.134942756059351
40
0.146050801984984
40
0.16826689383625
40
0.179374939761883
40
0.190482985687517
40
0.212699077538783
40
0.223807123464416
40
0.234915169390049
40
0.257131261241316
40
0.268239307166948
40
0.279347353092582
40
0.301563444943848
40
0.312671490869481
40
0.323779536795114
40
0.345995628646381
40
0.357103674572014
40
0.368211720497647
40
0.390427812348913
40
0.401535858274547
40
0.41264390420018
40
0.434859996051446
40
0.445968041977079
40
0.457076087902712
40
0.479292179753978
40
0.490400225679612
40
0.501508271605245
40
0.523724363456511
40
0.534832409382144
40
0.545940455307777
40
0.568156547159044
40
0.579264593084677
40
0.59037263901031
40
0.612588730861577
40
0.623696776787209
40
0.634804822712843
40
0.657020914564109
40
0.668128960489742
40
0.679237006415375
40
0.701453098266642
40
0.712561144192275
40
0.723669190117908
40
0.745885281969174
40
0.756993327894807
40
0.768101373820441
40
0.790317465671707
40
0.80142551159734
40
0.812533557522973
40
0.834749649374239
40
0.845857695299873
40
0.856965741225506
40
0.879181833076772
40
0.890289879002405
40
0.901397924928038
40
0.923614016779305
40
0.934722062704938
40
0.945830108630571
40
0.968046200481837
40
0.97915424640747
40
0.990262292333104
40
1
40
1
40
1
40
1
41
1
10
49.4701994269364
20
-2.85722979195035
30
0
41
1
10
49.455147547018
20
-2.85838440530662
30
0
41
1
10
49.3385319435566
20
-2.86728936076577
30
0
41
1
10
49.01882493365
20
-2.89083368643813
30
0
41
1
10
48.6125745988318
20
-2.91801115991308
30
0
41
1
10
48.2062853817559
20
-2.94242452077623
30
0
41
1
10
47.8000764503921
20
-2.96482692050424
30
0
41
1
10
47.393826040984
20
-2.98442201917678
30
0
41
1
10
46.9875360597512
20
-3.00118868508281
30
0
41
1
10
46.5813261968955
20
-3.01587807782798
30
0
41
1
10
46.1750749344476
20
-3.02772062290148
30
0
41
1
10
45.7687848013022
20
-3.03671982509852
30
0
41
1
10
45.362575080562
20
-3.04360373380945
30
0
41
1
10
44.9563242941501
20
-3.0476324350133
30
0
41
1
10
44.550034793826
20
-3.04881568993832
30
0
41
1
10
44.1438258326577
20
-3.0478560470425
30
0
41
1
10
43.7375758544317
20
-3.04404616991292
30
0
41
1
10
43.3312869364692
20
-3.03740234234144
30
0
41
1
10
42.925078288763
20
-3.02859890678568
30
0
41
1
10
42.5188281221966
20
-3.01696374013642
30
0
41
1
10
42.1125381988354
20
-3.00251945979312
30
0
41
1
10
41.7063281293544
20
-2.985915064951
30
0
41
1
10
41.3000763247812
20
-2.96652654717099
30
0
41
1
10
40.8937854531375
20
-2.94439866237661
30
0
41
1
10
40.4875750035144
20
-2.92013749414866
30
0
41
1
10
40.0813235096162
20
-2.89316973270175
30
0
41
1
10
39.6750333903979
20
-2.86354680923009
30
0
41
1
10
39.2688238780443
20
-2.83182956687088
30
0
41
1
10
38.8625734706282
20
-2.79749802034419
30
0
41
1
10
38.4562843217541
20
-2.76061058757315
30
0
41
1
10
38.0500756302805
20
-2.7216804307418
30
0
41
1
10
37.6438257061096
20
-2.68024323191838
30
0
41
1
10
37.2375364235264
20
-2.63636412415823
30
0
41
1
10
36.8313272764798
20
-2.59050841235506
30
0
41
1
10
36.4250766615347
20
-2.54227366272363
30
0
41
1
10
36.0187868977654
20
-2.49173771936475
30
0
41
1
10
35.6125773006738
20
-2.439309951908
30
0
41
1
10
35.2063261679938
20
-2.38465177187911
30
0
41
1
10
34.8000357095579
20
-2.32784754173167
30
0
41
1
10
34.3938255918651
20
-2.2692502818565
30
0
41
1
10
33.9875743442242
20
-2.20858980139602
30
0
41
1
10
33.5812844145543
20
-2.14596070819363
30
0
41
1
10
33.1750750014905
20
-2.08165355153216
30
0
41
1
10
32.7688246375072
20
-2.01546791715202
30
0
41
1
10
32.3625354960021
20
-1.94750415542288
30
0
41
1
10
31.9563267298094
20
-1.87798878300663
30
0
41
1
10
31.5500767365015
20
-1.80679177666465
30
0
41
1
10
31.1437876172059
20
-1.73401817212942
30
0
41
1
10
30.7375786635137
20
-1.65983010214924
30
0
41
1
10
30.3313280358185
20
-1.58416890476622
30
0
41
1
10
29.9250376315555
20
-1.50714470384881
30
0
41
1
10
29.5188272314085
20
-1.42885385918004
30
0
41
1
10
29.1125752909611
20
-1.34930920619857
30
0
41
1
10
28.7062844961658
20
-1.26862469916946
30
0
41
1
10
28.3000742703387
20
-1.18683097466695
30
0
41
1
10
27.8938232234782
20
-1.10401287562686
30
0
41
1
10
27.4875337097826
20
-1.02028864875362
30
0
41
1
10
27.0813247788519
20
-0.935622547140241
30
0
41
1
10
26.6750748820322
20
-0.850171862442579
30
0
41
1
10
26.2687860413814
20
-0.764059117785564
30
0
41
1
10
25.8625774674709
20
-0.677181557172389
30
0
41
1
10
25.4563273285798
20
-0.589769040293362
30
0
41
1
10
25.0500373999054
20
-0.501947651556122
30
0
41
1
10
24.6438274236068
20
-0.413543588689009
30
0
41
1
10
24.2375758509341
20
-0.324851928890581
30
0
41
1
10
23.8312852942561
20
-0.235990957660078
30
0
41
1
10
23.425075102315
20
-0.146726409424474
30
0
41
1
10
23.0188238130503
20
-0.0574180249467418
30
0
41
1
10
22.6125339189915
20
0.0318135016987355
30
0
41
1
10
22.3204049612786
20
0.0961412349739703
30
0
41
1
10
22.1298163281738
20
0.13804586057455
30
0
41
1
10
22.0407838225232
20
0.157604044705181
30
0
0
SPLINE
5
D4
100
AcDbEntity
8
1
62
256
6
ByLayer
370
18
48
1
60
0
100
AcDbSpline
70
4
71
3
72
38
73
34
40
0
40
0
40
0
40
0
40
0.0016580236196855
40
0.0016580236196855
40
0.037313094204696
40
0.037313094204696
40
0.0551406294972012
40
0.0551406294972012
40
0.0729681647897065
40
0.0729681647897065
40
0.144278305959729
40
0.144278305959729
40
0.17993337654474
40
0.17993337654474
40
0.215588447129752
40
0.215588447129752
40
0.286898588299775
40
0.286898588299775
40
0.358208729469798
40
0.358208729469798
40
0.393863800054809
40
0.393863800054809
40
0.42951887063982
40
0.42951887063982
40
0.572139152979864
40
0.572139152979864
40
0.714759435319909
40
0.714759435319909
40
0.786069576489932
40
0.786069576489932
40
0.857379717659954
40
0.857379717659954
40
1
40
1
40
1
40
1
41
1
10
5.28970756099463
20
7.46450436701838
30
0
41
1
10
5.29168538465322
20
7.46449016577802
30
0
41
1
10
5.2936822578173
20
7.46446346762329
30
0
41
1
10
5.33904786487449
20
7.46358281543456
30
0
41
1
10
5.39117471898331
20
7.45698746795148
30
0
41
1
10
5.48166308491545
20
7.43917406739928
30
0
41
1
10
5.51387873365891
20
7.43191418965034
30
0
41
1
10
5.58230438508821
20
7.41484778255736
30
0
41
1
10
5.61860776386712
20
7.40501124700353
30
0
41
1
10
5.80766456652111
20
7.350345477601
30
0
41
1
10
5.98390297678037
20
7.28905675239273
30
0
41
1
10
6.27763192948683
20
7.17761976504414
30
0
41
1
10
6.3804925916948
20
7.1371804275451
30
0
41
1
10
6.59526353102081
20
7.05046612548452
30
0
41
1
10
6.7074300326135
20
7.00407492694475
30
0
41
1
10
7.05143857018192
20
6.85928353528891
30
0
41
1
10
7.29193044983367
20
6.75494557996785
30
0
41
1
10
7.79191825117917
20
6.53392619499365
30
0
41
1
10
8.05145101069215
20
6.41721338180676
30
0
41
1
10
8.45260150736871
20
6.2352025215435
30
0
41
1
10
8.58829940383876
20
6.17336944334323
30
0
41
1
10
8.86336063861984
20
6.04766674862145
30
0
41
1
10
9.0028528416745
20
5.9837370177078
30
0
41
1
10
9.70380523291351
20
5.66192842452313
30
0
41
1
10
10.2795149141184
20
5.39593495634008
30
0
41
1
10
11.452513335421
20
4.8567010600818
30
0
41
1
10
12.0511986323419
20
4.58175581723054
30
0
41
1
10
12.9637908850834
20
4.1655249433735
30
0
41
1
10
13.2704238374193
20
4.02613505669518
30
0
41
1
10
13.8880907529698
20
3.74656948047243
30
0
41
1
10
14.1993422508251
20
3.60631860375028
30
0
41
1
10
15.1361379762954
20
3.1863003577343
30
0
41
1
10
15.7655599498242
20
2.9066478463557
30
0
41
1
10
16.3993035495063
20
2.62793685602091
30
0
0
SPLINE
5
D5
100
AcDbEntity
8
1
62
256
6
ByLayer
370
18
48
1
60
0
100
AcDbSpline
70
4
71
3
72
18
73
14
40
0
40
0
40
0
40
0
40
0.249999999999996
40
0.249999999999996
40
0.374999999999996
40
0.374999999999996
40
0.499999999999997
40
0.499999999999997
40
0.624999999999998
40
0.624999999999998
40
0.749999999999998
40
0.749999999999998
40
1
40
1
40
1
40
1
41
1
10
65.9775570161778
20
-1.58136333125995
30
0
41
1
10
66.0546562071052
20
-1.51745847204109
30
0
41
1
10
66.1354078691214
20
-1.42872003188074
30
0
41
1
10
66.26229977117
20
-1.26124662747134
30
0
41
1
10
66.3058471040966
20
-1.19918625717091
30
0
41
1
10
66.3934897010545
20
-1.06556285517621
30
0
41
1
10
66.437409386491
20
-0.994335685266464
30
0
41
1
10
66.5254492036053
20
-0.843596536485961
30
0
41
1
10
66.5695691909659
20
-0.764081977751715
30
0
41
1
10
66.657983161786
20
-0.596971729701949
30
0
41
1
10
66.7024515676586
20
-0.508980502248335
30
0
41
1
10
66.8332435644241
20
-0.238740101203803
30
0
41
1
10
66.9178020720343
20
-0.0488754452116211
30
0
41
1
10
66.9995988357348
20
0.149998129189953
30
0
0
SPLINE
5
D6
100
AcDbEntity
8
1
62
256
6
ByLayer
370
18
48
1
60
0
100
AcDbSpline
70
4
71
3
72
8
73
4
40
0
40
0
40
0
40
0
40
1
40
1
40
1
40
1
41
1
10
4.03388375638912
20
-0.986444034650475
30
0
41
1
10
4.03388192465277
20
-1.03727565148699
30
0
41
1
10
4.05235224173015
20
-1.08529522155104
30
0
41
1
10
4.07944305389455
20
-1.12802840499114
30
0
0
SPLINE
5
D7
100
AcDbEntity
8
1
62
256
6
ByLayer
370
18
48
1
60
0
100
AcDbSpline
70
4
71
3
72
10
73
6
40
0
40
0
40
0
40
0
40
0.5
40
0.5
40
1
40
1
40
1
40
1
41
1
10
64.3965711968797
20
4.19759434788406
30
0
41
1
10
64.4716482233227
20
4.53120366040824
30
0
41
1
10
64.5571963903815
20
4.86207213636166
30
0
41
1
10
64.7387279962103
20
5.52107764043657
30
0
41
1
10
64.8349153268753
20
5.84916129955249
30
0
41
1
10
64.9342214210811
20
6.17642861769068
30
0
0
SPLINE
5
D8
100
AcDbEntity
8
1
62
256
6
ByLayer
370
13
48
1
60
0
100
AcDbSpline
70
4
71
3
72
12
73
8
40
0
40
0
40
0
40
0
40
0.270514426690345
40
0.270514426690345
40
0.811274917818056
40
0.811274917818056
40
1
40
1
40
1
40
1
41
1
10
4.60696231825403
20
-7.46359962918638
30
0
41
1
10
4.60698261856328
20
-7.46363861688405
30
0
41
1
10
4.60700235748592
20
-7.45861616773723
30
0
41
1
10
4.60705920066445
20
-7.42841834108913
30
0
41
1
10
4.60709396739298
20
-7.38746152300661
30
0
41
1
10
4.6071329898337
20
-7.30523930100168
30
0
41
1
10
4.60714240134914
20
-7.28152833810688
30
0
41
1
10
4.60715105652338
20
-7.2553766934885
30
0
0
SPLINE
5
D9
100
AcDbEntity
8
1
62
256
6
ByLayer
370
18
48
1
60
0
100
AcDbSpline
70
4
71
4
72
10
73
5
40
0
40
0
40
0
40
0
40
0
40
1
40
1
40
1
40
1
40
1
41
1
10
22.1146485716846
20
7.67257122758028
30
0
41
1
10
21.686285678527
20
6.51581214004997
30
0
41
1
10
21.2579227853694
20
5.35905305251967
30
0
41
1
10
20.8295598922118
20
4.20229396498937
30
0
41
1
10
20.4011969990541
20
3.04553487745909
30
0
0
SPLINE
5
DA
100
AcDbEntity
8
1
62
256
6
ByLayer
370
13
48
1
60
0
100
AcDbSpline
70
4
71
3
72
20
73
16
40
0
40
0
40
0
40
0
40
0.046690482999274
40
0.107966299162788
40
0.169242115326302
40
0.29179374765333
40
0.353069563816844
40
0.414345379980357
40
0.536897012307386
40
0.598172828470899
40
0.659448644634413
40
0.782000276961442
40
0.843276093124955
40
0.904551909288469
40
1
40
1
40
1
40
1
41
0.999999999999999
10
64.5082903548119
20
3.04795353032143
30
0
41
0.999999999999999
10
64.4309039056397
20
3.04794320893862
30
0
41
0.999999999999999
10
64.2519612397879
20
3.04759907863229
30
0
41
0.999999999999999
10
63.9714763122516
20
3.04589636810136
30
0
41
0.999999999999999
10
63.5651864581724
20
3.04130724421151
30
0
41
0.999999999999999
10
63.1589377523057
20
3.03386250393305
30
0
41
0.999999999999999
10
62.7527277584028
20
3.02356177425023
30
0
41
0.999999999999999
10
62.3464373067455
20
3.01117883507019
30
0
41
0.999999999999999
10
61.9401878152351
20
2.99596005778597
30
0
41
0.999999999999999
10
61.5339770823001
20
2.97791095921207
30
0
41
0.999999999999999
10
61.1276859427214
20
2.95783168181589
30
0
41
0.999999999999999
10
60.7214358891519
20
2.93495194552682
30
0
41
0.999999999999999
10
60.3152248649456
20
2.90928556467657
30
0
41
0.999999999999999
10
59.9538614657003
20
2.88470873173216
30
0
41
0.999999999999999
10
59.6940935615233
20
2.86554068287816
30
0
41
0.999999999999999
10
59.5358976719048
20
2.85331383949677
30
0
0
SPLINE
5
DB
100
AcDbEntity
8
1
62
256
6
ByLayer
370
18
48
1
60
0
100
AcDbSpline
70
4
71
3
72
60
73
56
40
0
40
0
40
0
40
0
40
0.062499999999999
40
0.062499999999999
40
0.124999999999998
40
0.124999999999998
40
0.156249999999998
40
0.156249999999998
40
0.187499999999998
40
0.187499999999998
40
0.218749999999998
40
0.218749999999998
40
0.234374999999997
40
0.234374999999997
40
0.249999999999997
40
0.249999999999997
40
0.281249999999997
40
0.281249999999997
40
0.312499999999997
40
0.312499999999997
40
0.374999999999996
40
0.374999999999996
40
0.406249999999995
40
0.406249999999995
40
0.437499999999995
40
0.437499999999995
40
0.453124999999995
40
0.453124999999995
40
0.468749999999995
40
0.468749999999995
40
0.499999999999995
40
0.499999999999995
40
0.624999999999997
40
0.624999999999997
40
0.656249999999997
40
0.656249999999997
40
0.687499999999997
40
0.687499999999997
40
0.703124999999997
40
0.703124999999997
40
0.718749999999997
40
0.718749999999997
40
0.749999999999998
40
0.749999999999998
40
0.812499999999999
40
0.812499999999999
40
0.843749999999999
40
0.843749999999999
40
0.874999999999999
40
0.874999999999999
40
0.90625
40
0.90625
40
0.9375
40
0.9375
40
1
40
1
40
1
40
1
41
1
10
22.1146485716846
20
7.67257122758028
30
0
41
1
10
23.0021055776173
20
7.68502916859399
30
0
41
1
10
23.8836272765536
20
7.65014923896877
30
0
41
1
10
25.6395777644244
20
7.48987303772367
30
0
41
1
10
26.5145089958517
20
7.3644748013769
30
0
41
1
10
27.8277373189176
20
7.11162455882564
30
0
41
1
10
28.2655016720068
20
7.01646029232393
30
0
41
1
10
29.142477387395
20
6.80528410717517
30
0
41
1
10
29.5813696107423
20
6.68900301700933
30
0
41
1
10
30.4616937120064
20
6.43636565262699
30
0
41
1
10
30.9026484878416
20
6.2995312508863
30
0
41
1
10
31.5667656313586
20
6.07980371452155
30
0
41
1
10
31.7886796072269
20
6.00383162467523
30
0
41
1
10
32.2319062475346
20
5.84763915164288
30
0
41
1
10
32.4531784111063
20
5.76750193925673
30
0
41
1
10
33.1158903659858
20
5.52092688091878
30
0
41
1
10
33.5561142077271
20
5.34816717953069
30
0
41
1
10
34.4348467409692
20
4.98801421376598
30
0
41
1
10
34.8733055027205
20
4.80056461636906
30
0
41
1
10
36.1868703500422
20
4.21753939320087
30
0
41
1
10
37.0610291838867
20
3.80260142057673
30
0
41
1
10
38.3739821976811
20
3.14709525927796
30
0
41
1
10
38.81231139279
20
2.92373071989348
30
0
41
1
10
39.6902563123825
20
2.46704746743728
30
0
41
1
10
40.130289918443
20
2.23445716481712
30
0
41
1
10
40.7921344555054
20
1.87942157455612
30
0
41
1
10
41.0131685506881
20
1.76027295629558
30
0
41
1
10
41.4559769606201
20
1.52015978969777
30
0
41
1
10
41.6778465774746
20
1.39886482840126
30
0
41
1
10
42.3418732947456
20
1.03506213521987
30
0
41
1
10
42.7829458759091
20
0.791392331914977
30
0
41
1
10
44.9827584665501
20
-0.428055585385351
30
0
41
1
10
46.7239602202519
20
-1.40872974459174
30
0
41
1
10
48.9154800395457
20
-2.57145745787167
30
0
41
1
10
49.3542421488198
20
-2.8013656252063
30
0
41
1
10
50.2344659223908
20
-3.25272434436744
30
0
41
1
10
50.6756654735946
20
-3.47463435557444
30
0
41
1
10
51.3399192299999
20
-3.80036268672617
30
0
41
1
10
51.561552269581
20
-3.90777954648431
30
0
41
1
10
52.003677679326
20
-4.11862620711051
30
0
41
1
10
52.2244354865593
20
-4.22221708942533
30
0
41
1
10
52.8852842563348
20
-4.52835682929529
30
0
41
1
10
53.3247972897721
20
-4.72494718937636
30
0
41
1
10
54.6399251538243
20
-5.29295329091246
30
0
41
1
10
55.5137741056866
20
-5.64022035804379
30
0
41
1
10
56.8243841031749
20
-6.10910704312661
30
0
41
1
10
57.2614602840866
20
-6.25645424676151
30
0
41
1
10
58.1364395703473
20
-6.53272072844132
30
0
41
1
10
58.5744994607076
20
-6.661469926329
30
0
41
1
10
59.4525345556475
20
-6.89925751085676
30
0
41
1
10
59.8925001303387
20
-7.00829632636905
30
0
41
1
10
60.7754837991793
20
-7.2053921303895
30
0
41
1
10
61.2189435084044
20
-7.29365520188981
30
0
41
1
10
62.5467048986536
20
-7.52374882836392
30
0
41
1
10
63.4295822133116
20
-7.63208895995871
30
0
41
1
10
64.3149384862094
20
-7.69346285717859
30
0
0
SPLINE
5
DC
100
AcDbEntity
8
1
62
256
6
ByLayer
370
18
48
1
60
0
100
AcDbSpline
70
4
71
3
72
18
73
14
40
0
40
0
40
0
40
0
40
0.008580239088191
40
0.008580239088191
40
0.256435179316145
40
0.256435179316145
40
0.504290119544098
40
0.504290119544098
40
0.628217589658075
40
0.628217589658075
40
0.752145059772052
40
0.752145059772052
40
1
40
1
40
1
40
1
41
1
10
8.60705707238975
20
6.15390359925914
30
0
41
1
10
8.61814857663273
20
6.15328348868763
30
0
41
1
10
8.62923797857229
20
6.15267773534612
30
0
41
1
10
8.96058823563303
20
6.13500282152384
30
0
41
1
10
9.28062198958438
20
6.12960203379996
30
0
41
1
10
9.92025830327779
20
6.14105475229266
30
0
41
1
10
10.2398602826968
20
6.15793786249731
30
0
41
1
10
10.7189288803624
20
6.19985147086604
30
0
41
1
10
10.8790180312383
20
6.21666031266929
30
0
41
1
10
11.1950640413366
20
6.25527881200216
30
0
41
1
10
11.3513851657548
20
6.27710492827867
30
0
41
1
10
11.8152366317521
20
6.34962625800691
30
0
41
1
10
12.1176726811318
20
6.40738903021122
30
0
41
1
10
12.4130521826797
20
6.47302993398841
30
0
0
SPLINE
5
DD
100
AcDbEntity
8
1
62
256
6
ByLayer
370
18
48
1
60
0
100
AcDbSpline
70
4
71
3
72
10
73
6
40
0
40
0
40
0
40
0
40
0.5
40
0.5
40
1
40
1
40
1
40
1
41
1
10
4.98313466111364
20
-7.31673345682793
30
0
41
1
10
5.02041940445542
20
-7.26906311511996
30
0
41
1
10
5.06576109805675
20
-7.21672176479225
30
0
41
1
10
5.17185771366292
20
-7.10312181646535
30
0
41
1
10
5.23194929987517
20
-7.04258531504678
30
0
41
1
10
5.29786757230181
20
-6.97917248515404
30
0
0
SPLINE
5
DE
100
AcDbEntity
8
1
62
256
6
ByLayer
370
18
48
1
60
0
100
AcDbSpline
70
4
71
3
72
8
73
4
40
0
40
0
40
0
40
0
40
1
40
1
40
1
40
1
41
1
10
65.9705713140564
20
-1.57423696029855
30
0
41
1
10
65.9728996865784
20
-1.57661260827956
30
0
41
1
10
65.9752282539705
20
-1.57898806528417
30
0
41
1
10
65.9775570161847
20
-1.58136333126521
30
0
0
SPLINE
5
DF
100
AcDbEntity
8
1
62
256
6
ByLayer
370
13
48
1
60
0
100
AcDbSpline
70
4
71
3
72
10
73
6
40
0
40
0
40
0
40
0
40
0.5
40
0.5
40
1
40
1
40
1
40
1
41
1
10
4.60693702087366
20
-1.17612051712979
30
0
41
1
10
4.52075392680845
20
-1.14402544472921
30
0
41
1
10
4.43616197093831
20
-1.11446605496633
30
0
41
1
10
4.27037174458641
20
-1.05962695350365
30
0
41
1
10
4.18870392195799
20
-1.03423898695195
30
0
41
1
10
4.11240387429197
20
-1.01197951066379
30
0
0
SPLINE
5
E0
100
AcDbEntity
8
1
62
256
6
ByLayer
370
18
48
1
60
0
100
AcDbSpline
70
4
71
3
72
8
73
4
40
0
40
0
40
0
40
0
40
1
40
1
40
1
40
1
41
1
10
64.6644090982389
20
0.395984970035613
30
0
41
1
10
64.531744467962
20
0.445308786675355
30
0
41
1
10
64.4023137987982
20
0.490845727298733
30
0
41
1
10
64.2815283692524
20
0.52978374426317
30
0
0
SPLINE
5
E1
100
AcDbEntity
8
1
62
256
6
ByLayer
370
18
48
1
60
0
100
AcDbSpline
70
4
71
1
72
4
73
2
40
0
40
0
40
1
40
1
41
1
10
65.9608565988575
20
-1.63774299526918
30
0
41
1
10
65.9775570161738
20
-1.58136333127572
30
0
0
SPLINE
5
E2
100
AcDbEntity
8
1
62
256
6
ByLayer
370
18
48
1
60
0
100
AcDbSpline
70
4
71
3
72
8
73
4
40
0
40
0
40
0
40
0
40
1
40
1
40
1
40
1
41
1
10
63.3915964164927
20
0.819294657382414
30
0
41
1
10
63.8128175108274
20
0.66157857530763
30
0
41
1
10
64.236971828914
20
0.519840334923146
30
0
41
1
10
64.6644090982389
20
0.395984970035613
30
0
0
SPLINE
5
E3
100
AcDbEntity
8
1
62
256
6
ByLayer
370
18
48
1
60
0
100
AcDbSpline
70
4
71
3
72
8
73
4
40
0
40
0
40
0
40
0
40
1
40
1
40
1
40
1
41
1
10
64.3149384862095
20
-7.69346285717859
30
0
41
1
10
64.280664335268
20
-7.66498246005725
30
0
41
1
10
64.2493836415341
20
-7.62578311195449
30
0
41
1
10
64.2208514412079
20
-7.57539772344831
30
0
0
SPLINE
5
E4
100
AcDbEntity
8
1
62
256
6
ByLayer
370
18
48
1
60
0
100
AcDbSpline
70
4
71
3
72
20
73
16
40
0
40
0
40
0
40
0
40
0.250000000000001
40
0.250000000000001
40
0.375000000000001
40
0.375000000000001
40
0.437500000000001
40
0.437500000000001
40
0.500000000000001
40
0.500000000000001
40
0.75
40
0.75
40
0.875
40
0.875
40
1
40
1
40
1
40
1
41
1
10
63.3915964164927
20
0.819294657382386
30
0
41
1
10
63.3084244920718
20
0.418979754591533
30
0
41
1
10
63.2413150251268
20
0.0175965831467977
30
0
41
1
10
63.1648230026364
20
-0.586085797263166
30
0
41
1
10
63.1433729293737
20
-0.787582429728104
30
0
41
1
10
63.1174567603407
20
-1.09024364289422
30
0
41
1
10
63.1098624962098
20
-1.19120017795802
30
0
41
1
10
63.0968111746206
20
-1.3932553876617
30
0
41
1
10
63.0913629344954
20
-1.4943323615644
30
0
41
1
10
63.0697652483173
20
-1.99481349334368
30
0
41
1
10
63.0701356323677
20
-2.38382942776192
30
0
41
1
10
63.0964678583812
20
-2.95074832398342
30
0
41
1
10
63.1095625254408
20
-3.13694016387382
30
0
41
1
10
63.1445240356239
20
-3.50367291417734
30
0
41
1
10
63.1664585950558
20
-3.68447186186543
30
0
41
1
10
63.1925605591533
20
-3.8602053721761
30
0
0
SPLINE
5
E5
100
AcDbEntity
8
1
62
256
6
ByLayer
370
13
48
1
60
0
100
AcDbSpline
70
4
71
3
72
63
73
59
40
0
40
0
40
0
40
0
40
0.0089997091664042
40
0.0222130463775189
40
0.048639720799748
40
0.0618530580108627
40
0.0750663952219773
40
0.101493069644207
40
0.114706406855321
40
0.127919744066436
40
0.154346418488665
40
0.16755975569978
40
0.180773092910894
40
0.207199767333124
40
0.220413104544238
40
0.233626441755353
40
0.260053116177582
40
0.273266453388696
40
0.286479790599811
40
0.31290646502204
40
0.326119802233155
40
0.33933313944427
40
0.365759813866499
40
0.378973151077613
40
0.392186488288728
40
0.418613162710957
40
0.431826499922072
40
0.445039837133186
40
0.471466511555416
40
0.48467984876653
40
0.497893185977645
40
0.524319860399874
40
0.537533197610989
40
0.550746534822103
40
0.577173209244332
40
0.590386546455447
40
0.603599883666561
40
0.630026558088791
40
0.643239895299906
40
0.65645323251102
40
0.68287990693325
40
0.696093244144364
40
0.709306581355479
40
0.735733255777708
40
0.748946592988822
40
0.762159930199937
40
0.788586604622166
40
0.801799941833281
40
0.815013279044395
40
0.841439953466625
40
0.854653290677739
40
0.867866627888854
40
0.894293302311083
40
0.907506639522198
40
0.920719976733312
40
0.947146651155542
40
0.973573325577771
40
1
40
1
40
1
40
1
41
0.999999999999999
10
43.4602310651857
20
-0.157747481979073
30
0
41
0.999999999999999
10
43.3910612690405
20
-0.142541104592084
30
0
41
0.999999999999999
10
43.2203355223308
20
-0.104997321298385
30
0
41
0.999999999999999
10
42.8464366220063
20
-0.0229175444380872
30
0
41
0.999999999999999
10
42.4401881151546
20
0.0664296981717599
30
0
41
0.999999999999999
10
42.0339782080341
20
0.155815503193225
30
0
41
0.999999999999999
10
41.6276877470783
20
0.244844725450833
30
0
41
0.999999999999999
10
41.2214381541017
20
0.333778475828865
30
0
41
0.999999999999999
10
40.8152272769289
20
0.422500273480751
30
0
41
0.999999999999999
10
40.4089359953322
20
0.510682588851893
30
0
41
0.999999999999999
10
40.0026859192525
20
0.598522967642083
30
0
41
0.999999999999999
10
39.5964751757728
20
0.685907708864392
30
0
41
0.999999999999999
10
39.1901843496352
20
0.77257540871321
30
0
41
0.999999999999999
10
38.7839349641337
20
0.858655771482007
30
0
41
0.999999999999999
10
38.3777247016666
20
0.944032065434016
30
0
41
0.999999999999999
10
37.9714343253825
20
1.0285157959749
30
0
41
0.999999999999999
10
37.5651854573747
20
1.11216903126672
30
0
41
0.999999999999999
10
37.1589758892969
20
1.19487892174021
30
0
41
0.999999999999999
10
36.7526860334401
20
1.2765287040624
30
0
41
0.999999999999999
10
36.3464372804152
20
1.35711056717838
30
0
41
0.999999999999999
10
35.9402271838468
20
1.43651171137901
30
0
41
0.999999999999999
10
35.5339366236813
20
1.51469075689596
30
0
41
0.999999999999999
10
35.1276869873533
20
1.59157055478085
30
0
41
0.999999999999999
10
34.7214761028868
20
1.66704278886971
30
0
41
0.999999999999999
10
34.3151848960406
20
1.7411416422685
30
0
41
0.999999999999999
10
33.9089348891115
20
1.81372221134853
30
0
41
0.999999999999999
10
33.5027239824203
20
1.88468231595278
30
0
41
0.999999999999999
10
33.0964329630085
20
1.95412991855255
30
0
41
0.999999999999999
10
32.6901835902556
20
2.02185337309959
30
0
41
0.999999999999999
10
32.2839739680635
20
2.0877556480196
30
0
41
0.999999999999999
10
31.8776843945732
20
2.15201810070215
30
0
41
0.999999999999999
10
31.4714363340851
20
2.21436461404437
30
0
41
0.999999999999999
10
31.0652271022876
20
2.27470518718838
30
0
41
0.999999999999999
10
30.6589373545583
20
2.33329188683186
30
0
41
0.999999999999999
10
30.2526884008443
20
2.38978556989903
30
0
41
0.999999999999999
10
29.8464778884554
20
2.44410192789866
30
0
41
0.999999999999999
10
29.4401868463223
20
2.49656207835119
30
0
41
0.999999999999999
10
29.0339367429709
20
2.54676510184476
30
0
41
0.999999999999999
10
28.6277255577178
20
2.5946321764271
30
0
41
0.999999999999999
10
28.2214341586284
20
2.64055256543992
30
0
41
0.999999999999999
10
27.8151842972163
20
2.68406555875581
30
0
41
0.999999999999999
10
27.4089741996223
20
2.72509869271787
30
0
41
0.999999999999999
10
27.0026842024687
20
2.76411080400573
30
0
41
0.999999999999999
10
26.5964357743856
20
2.80059056940644
30
0
41
0.999999999999999
10
26.1902263045819
20
2.83448251624035
30
0
41
0.999999999999999
10
25.7839365229705
20
2.86630218336615
30
0
41
0.999999999999999
10
25.3776878115176
20
2.89548975651386
30
0
41
0.999999999999999
10
24.9714776792682
20
2.92199618325083
30
0
41
0.999999999999999
10
24.5651869115025
20
2.94639094621096
30
0
41
0.999999999999999
10
24.1589369261675
20
2.96806696567208
30
0
41
0.999999999999999
10
23.7527256755284
20
2.98697982759689
30
0
41
0.999999999999999
10
23.346434133268
20
3.00375191008749
30
0
41
0.999999999999999
10
22.9401839660735
20
3.01773116175531
30
0
41
0.999999999999999
10
22.5339733980312
20
3.02887937432954
30
0
41
0.999999999999999
10
22.127682813777
20
3.03787405029215
30
0
41
0.999999999999999
10
21.6198187885355
20
3.04545270502703
30
0
41
0.999999999999999
10
21.010444822659
20
3.04880606198666
30
0
41
0.999999999999999
10
20.6042811829821
20
3.04728511494551
30
0
41
0.999999999999999
10
20.4011969990541
20
3.04553487745909
30
0
0
SPLINE
5
E6
100
AcDbEntity
8
1
62
256
6
ByLayer
370
18
48
1
60
0
100
AcDbSpline
70
4
71
3
72
8
73
4
40
0
40
0
40
0
40
0
40
1
40
1
40
1
40
1
41
1
10
66.9995988357348
20
0.149998129189925
30
0
41
1
10
67.0001337214205
20
0.0499993763966415
30
0
41
1
10
67.0001337214205
20
-0.04999937639667
30
0
41
1
10
66.9995988357348
20
-0.149998129189982
30
0
0
SPLINE
5
E7
100
AcDbEntity
8
1
62
256
6
ByLayer
370
18
48
1
60
0
100
AcDbSpline
70
4
71
3
72
10
73
6
40
0
40
0
40
0
40
0
40
0.321811457034462
40
0.680606728125867
40
1
40
1
40
1
40
1
41
1
10
64.2876246939343
20
0.532012557773839
30
0
41
1
10
64.0842715728249
20
0.600710772141355
30
0
41
1
10
63.6463601774865
20
0.763811560233194
30
0
41
1
10
62.9816473441971
20
1.05688075955013
30
0
41
1
10
62.5104877294638
20
1.2954858746011
30
0
41
1
10
62.2845371088524
20
1.41640813443786
30
0
0
SPLINE
5
E8
100
AcDbEntity
8
1
62
256
6
ByLayer
370
18
48
1
60
0
100
AcDbSpline
70
4
71
2
72
6
73
3
40
0
40
0
40
0
40
1
40
1
40
1
41
1
10
5.29798880348545
20
7.46450235172375
30
0
41
1
10
4.95299516115364
20
7.46412860715785
30
0
41
1
10
4.60691038091227
20
7.46335480102931
30
0
0
SPLINE
5
E9
100
AcDbEntity
8
1
62
256
6
ByLayer
370
18
48
1
60
0
100
AcDbSpline
70
4
71
3
72
29
73
25
40
0
40
0
40
0
40
0
40
0.0461465240577127
40
0.0902611903517331
40
0.126064672428525
40
0.154726408434794
40
0.181175295978296
40
0.230627071966061
40
0.286057857765566
40
0.339108780538404
40
0.381662476983436
40
0.417980713141759
40
0.457204583438932
40
0.514957235188221
40
0.576903860379183
40
0.634834587957711
40
0.673716593143923
40
0.716851981375454
40
0.75479123678064
40
0.785307254944145
40
0.835322478944525
40
0.891038805866325
40
0.953523127258091
40
1
40
1
40
1
40
1
41
1
10
24.1632944256193
20
-7.49784171307351
30
0
41
1
10
24.4525156755106
20
-7.4980792925131
30
0
41
1
10
25.0197530620538
20
-7.49861368549682
30
0
41
1
10
25.81402085571
20
-7.49886693121201
30
0
41
1
10
26.504669095643
20
-7.50029676602895
30
0
41
1
10
27.0676100926211
20
-7.50291600489814
30
0
41
1
10
27.7216944076242
20
-7.50351464234174
30
0
41
1
10
28.555100796786
20
-7.50405619286272
30
0
41
1
10
29.5524780544011
20
-7.5077291578346
30
0
41
1
10
30.5077582907248
20
-7.50865327506867
30
0
41
1
10
31.3417689123229
20
-7.50914555798778
30
0
41
1
10
32.0887879667963
20
-7.50991067516884
30
0
41
1
10
32.9301333038377
20
-7.51224052134577
30
0
41
1
10
33.9357869273331
20
-7.5157313745446
30
0
41
1
10
35.0575760000513
20
-7.5148552717221
30
0
41
1
10
36.0616868328678
20
-7.51579504748662
30
0
41
1
10
36.9465496719616
20
-7.51914496425152
30
0
41
1
10
37.7050621268733
20
-7.52079372581613
30
0
41
1
10
38.4106497116628
20
-7.52233593244807
30
0
41
1
10
39.1597742891005
20
-7.52446018834721
30
0
41
1
10
40.0211104673666
20
-7.52305325717288
30
0
41
1
10
41.0846443867285
20
-7.52237245091203
30
0
41
1
10
42.1256931937125
20
-7.52830791851838
30
0
41
1
10
42.8146770338457
20
-7.52939675777191
30
0
41
1
10
43.1085735758237
20
-7.52979999920331
30
0
0
SPLINE
5
EA
100
AcDbEntity
8
1
62
256
6
ByLayer
370
18
48
1
60
0
100
AcDbSpline
70
4
71
3
72
27
73
23
40
0
40
0
40
0
40
0
40
0.0102419088237745
40
0.0976303100253131
40
0.176511902956696
40
0.245514565557898
40
0.298638373506735
40
0.367801857954403
40
0.431002925080546
40
0.487018528755263
40
0.547484867850904
40
0.604796093835299
40
0.656778383155982
40
0.704246308426481
40
0.741518855710397
40
0.787207670085142
40
0.836374260488076
40
0.880316542610927
40
0.920388508974608
40
0.953030704332834
40
0.987546126658576
40
1
40
1
40
1
40
1
41
1
10
43.1148162284393
20
7.53033603167404
30
0
41
1
10
43.0580988056655
20
7.530351135855
30
0
41
1
10
42.5174462604018
20
7.5303817405138
30
0
41
1
10
41.540278518357
20
7.5230495105499
30
0
41
1
10
40.2372279559534
20
7.52262088367883
30
0
41
1
10
39.1244425263593
20
7.52484028455356
30
0
41
1
10
38.0650707360246
20
7.52090855436566
30
0
41
1
10
37.0378897338646
20
7.51976474531494
30
0
41
1
10
35.9947434053738
20
7.515568966529
30
0
41
1
10
34.999501178076
20
7.51501143446987
30
0
41
1
10
34.038355280345
20
7.51535090468008
30
0
41
1
10
33.0974893777581
20
7.51331397745159
30
0
41
1
10
32.2310345512307
20
7.50997123724039
30
0
41
1
10
31.4736578602917
20
7.50931695957644
30
0
41
1
10
30.7514170787916
20
7.50867504571974
30
0
41
1
10
30.0197729032388
20
7.50864402823177
30
0
41
1
10
29.2511307020151
20
7.50610445460248
30
0
41
1
10
28.5139551617605
20
7.50435391999775
30
0
41
1
10
27.8674047873894
20
7.50349421205169
30
0
41
1
10
27.2751242129553
20
7.50333188313729
30
0
41
1
10
26.8456028315797
20
7.50174456772467
30
0
41
1
10
26.5873999691483
20
7.5008949270198
30
0
41
1
10
26.5187167377997
20
7.50068102308759
30
0
0
SPLINE
5
EB
100
AcDbEntity
8
1
62
256
6
ByLayer
370
18
48
1
60
0
100
AcDbSpline
70
4
71
3
72
11
73
7
40
0
40
0
40
0
40
0
40
0.219478849405563
40
0.462990891456444
40
0.730779453990538
40
1
40
1
40
1
40
1
41
1
10
22.0656172084885
20
0.152148332368483
30
0
41
1
10
21.8257206298268
20
0.204922317369863
30
0
41
1
10
21.3204209823398
20
0.333392008966854
30
0
41
1
10
20.5254173668262
20
0.59385713663238
30
0
41
1
10
19.6792573852218
20
0.938007033953966
30
0
41
1
10
19.09969801951
20
1.22387563279534
30
0
41
1
10
18.8097620354668
20
1.37940934038676
30
0
0
SPLINE
5
EC
100
AcDbEntity
8
1
62
256
6
ByLayer
370
18
48
1
60
0
100
AcDbSpline
70
4
71
3
72
15
73
11
40
0
40
0
40
0
40
0
40
0.174545801996975
40
0.317428602852029
40
0.428557332664921
40
0.507839498181424
40
0.587515943701315
40
0.698800070273622
40
0.841831056720294
40
1
40
1
40
1
40
1
41
1
10
43.438179480905
20
-0.152899497593808
30
0
41
1
10
43.6379694810635
20
-0.196844255654128
30
0
41
1
10
44.0010514285038
20
-0.287143236475203
30
0
41
1
10
44.4907019393237
20
-0.434674944942429
30
0
41
1
10
44.8710004599031
20
-0.565092747702607
30
0
41
1
10
45.1790961857412
20
-0.680337050142953
30
0
41
1
10
45.4865081690614
20
-0.803298202707822
30
0
41
1
10
45.8652441141979
20
-0.966712386708252
30
0
41
1
10
46.3319111983702
20
-1.18687160356339
30
0
41
1
10
46.6717040409146
20
-1.36461343981534
30
0
41
1
10
46.8498748168372
20
-1.46253389751266
30
0
0
SPLINE
5
ED
100
AcDbEntity
8
1
62
256
6
ByLayer
370
18
48
1
60
0
100
AcDbSpline
70
4
71
2
72
6
73
3
40
0
40
0
40
0
40
1
40
1
40
1
41
1
10
4.6069103809123
20
-7.46335480102934
30
0
41
1
10
4.95399129688806
20
-7.46413044279385
30
0
41
1
10
5.29997793094407
20
-7.46450487025635
30
0
0
LINE
5
7B
100
AcDbEntity
8
SK1
62
256
6
ByLayer
370
18
48
1
60
0
100
AcDbLine
10
0
20
-8
30
0
11
0
21
8
31
0
39
0
210
0
220
0
230
1
0
LINE
5
7D
100
AcDbEntity
8
SK1
62
256
6
ByLayer
370
18
48
1
60
0
100
AcDbLine
10
-48
20
4
30
0
11
-48
21
-4
31
0
39
0
210
0
220
0
230
1
0
LINE
5
7E
100
AcDbEntity
8
SK1
62
256
6
ByLayer
370
18
48
1
60
0
100
AcDbLine
10
-45.690599
20
8
30
0
11
-45.690599
21
-8
31
0
39
0
210
0
220
0
230
1
0
LINE
5
7F
100
AcDbEntity
8
1
62
256
6
ByLayer
370
13
48
1
60
0
100
AcDbLine
10
1.052103
20
7.636526
30
0
11
1.052103
21
-7.636526
31
0
39
0
210
0
220
0
230
1
0
LINE
5
80
100
AcDbEntity
8
1
62
256
6
ByLayer
370
18
48
1
60
0
100
AcDbLine
10
65.960857
20
-1.637743
30
0
11
65.970571
21
-1.574237
31
0
39
0
210
0
220
0
230
1
0
LINE
5
81
100
AcDbEntity
8
1
62
256
6
ByLayer
370
13
48
1
60
0
100
AcDbLine
10
0.525286
20
7.818262
30
0
11
0.525286
21
-7.818262
31
0
39
0
210
0
220
0
230
1
0
LINE
5
82
100
AcDbEntity
8
1
62
256
6
ByLayer
370
18
48
1
60
0
100
AcDbLine
10
0
20
-8
30
0
11
0
21
8
31
0
39
0
210
0
220
0
230
1
0
LINE
5
83
100
AcDbEntity
8
1
62
256
6
ByLayer
370
18
48
1
60
0
100
AcDbLine
10
63.192561
20
-3.860205
30
0
11
65.960857
21
-1.637743
31
0
39
0
210
0
220
0
230
1
0
LINE
5
84
100
AcDbEntity
8
80
62
256
6
ByLayer
370
18
48
1
60
0
100
AcDbLine
10
0
20
0
30
0
11
-5
21
0
31
0
39
0
210
0
220
0
230
1
0
LINE
5
85
100
AcDbEntity
8
4
62
256
6
ByLayer
370
18
48
0.05
60
0
100
AcDbLine
10
67
20
0
30
0
11
0
21
0
31
0
39
0
210
0
220
0
230
1
0
LINE
5
87
100
AcDbEntity
8
SK4
62
256
6
ByLayer
370
18
48
0.05
60
0
100
AcDbLine
10
72
20
0
30
0
11
-53
21
0
31
0
39
0
210
0
220
0
230
1
0
LINE
5
89
100
AcDbEntity
8
SK1
62
256
6
ByLayer
370
18
48
1
60
0
100
AcDbLine
10
-48
20
-4
30
0
11
-45.690599
21
-8
31
0
39
0
210
0
220
0
230
1
0
LINE
5
8A
100
AcDbEntity
8
SK1
62
256
6
ByLayer
370
18
48
1
60
0
100
AcDbLine
10
-45.690599
20
8
30
0
11
-48
21
4
31
0
39
0
210
0
220
0
230
1
0
LINE
5
8B
100
AcDbEntity
8
SK1
62
256
6
ByLayer
370
18
48
1
60
0
100
AcDbLine
10
-45.690599
20
-8
30
0
11
0
21
-8
31
0
39
0
210
0
220
0
230
1
0
LINE
5
8C
100
AcDbEntity
8
SK1
62
256
6
ByLayer
370
18
48
1
60
0
100
AcDbLine
10
0
20
8
30
0
11
-45.690599
21
8
31
0
39
0
210
0
220
0
230
1
0
LINE
5
8D
100
AcDbEntity
8
1
62
256
6
ByLayer
370
18
48
1
60
0
100
AcDbLine
10
1.052103
20
-7.636526
30
0
11
4.034937
21
-7.641895
31
0
39
0
210
0
220
0
230
1
0
LINE
5
8E
100
AcDbEntity
8
1
62
256
6
ByLayer
370
18
48
1
60
0
100
AcDbLine
10
22.419861
20
-7.674988
30
0
11
23.62168
21
-7.677151
31
0
39
0
210
0
220
0
230
1
0
LINE
5
8F
100
AcDbEntity
8
1
62
256
6
ByLayer
370
18
48
1
60
0
100
AcDbLine
10
23.62168
20
7.677151
30
0
11
22.419861
21
7.674988
31
0
39
0
210
0
220
0
230
1
0
LINE
5
90
100
AcDbEntity
8
1
62
256
6
ByLayer
370
18
48
1
60
0
100
AcDbLine
10
4.034937
20
7.641895
30
0
11
1.052103
21
7.636526
31
0
39
0
210
0
220
0
230
1
0
LINE
5
91
100
AcDbEntity
8
81
62
256
6
ByLayer
370
18
48
1
60
0
100
AcDbLine
10
67
20
0
30
0
11
72
21
0
31
0
39
0
210
0
220
0
230
1
0
LINE
5
92
100
AcDbEntity
8
SK2
62
256
6
ByLayer
370
13
48
1
60
0
100
AcDbLine
10
-56.625163
20
-8
30
0
11
-56.625163
21
38.857173
31
0
39
0
210
0
220
0
230
1
0
LINE
5
94
100
AcDbEntity
8
SK2
62
256
6
ByLayer
370
13
48
1
60
0
100
AcDbLine
10
-49.5875
20
8
30
0
11
-58.625163
21
8
31
0
39
0
210
0
220
0
230
1
0
LINE
5
95
100
AcDbEntity
8
SK2
62
256
6
ByLayer
370
13
48
1
60
0
100
AcDbLine
10
-49.5875
20
-8
30
0
11
-58.625163
21
-8
31
0
39
0
210
0
220
0
230
1
0
LINE
5
96
100
AcDbEntity
8
1
62
256
6
ByLayer
370
18
48
1
60
1
100
AcDbLine
10
-56.625163
20
8
30
0
11
-56.164379
21
4.500002
31
0
39
0
210
0
220
0
230
1
0
LINE
5
97
100
AcDbEntity
8
1
62
256
6
ByLayer
370
18
48
1
60
1
100
AcDbLine
10
-56.164379
20
4.500002
30
0
11
-57.085946
21
4.499998
31
0
39
0
210
0
220
0
230
1
0
LINE
5
98
100
AcDbEntity
8
1
62
256
6
ByLayer
370
18
48
1
60
1
100
AcDbLine
10
-57.085946
20
4.499998
30
0
11
-56.625163
21
8
31
0
39
0
210
0
220
0
230
1
0
LINE
5
99
100
AcDbEntity
8
1
62
256
6
ByLayer
370
18
48
1
60
1
100
AcDbLine
10
-56.625163
20
-8
30
0
11
-57.085946
21
-4.500002
31
0
39
0
210
0
220
0
230
1
0
LINE
5
9A
100
AcDbEntity
8
1
62
256
6
ByLayer
370
18
48
1
60
1
100
AcDbLine
10
-57.085946
20
-4.500002
30
0
11
-56.164379
21
-4.499998
31
0
39
0
210
0
220
0
230
1
0
LINE
5
9B
100
AcDbEntity
8
1
62
256
6
ByLayer
370
18
48
1
60
1
100
AcDbLine
10
-56.164379
20
-4.499998
30
0
11
-56.625163
21
-8
31
0
39
0
210
0
220
0
230
1
0
LINE
5
9C
100
AcDbEntity
8
2
62
256
6
ByLayer
370
13
48
1
60
0
100
AcDbLine
10
79.083343
20
-7.75
30
0
11
79.083343
21
37.200259
31
0
39
0
210
0
220
0
230
1
0
LINE
5
9E
100
AcDbEntity
8
2
62
256
6
ByLayer
370
13
48
1
60
0
100
AcDbLine
10
65.6809
20
7.75
30
0
11
81.083343
21
7.75
31
0
39
0
210
0
220
0
230
1
0
LINE
5
9F
100
AcDbEntity
8
2
62
256
6
ByLayer
370
13
48
1
60
0
100
AcDbLine
10
65.6809
20
-7.75
30
0
11
81.083343
21
-7.75
31
0
39
0
210
0
220
0
230
1
0
LINE
5
A0
100
AcDbEntity
8
1
62
256
6
ByLayer
370
18
48
1
60
1
100
AcDbLine
10
79.083343
20
7.75
30
0
11
79.544126
21
4.250002
31
0
39
0
210
0
220
0
230
1
0
LINE
5
A1
100
AcDbEntity
8
1
62
256
6
ByLayer
370
18
48
1
60
1
100
AcDbLine
10
79.544126
20
4.250002
30
0
11
78.622559
21
4.249998
31
0
39
0
210
0
220
0
230
1
0
LINE
5
A2
100
AcDbEntity
8
1
62
256
6
ByLayer
370
18
48
1
60
1
100
AcDbLine
10
78.622559
20
4.249998
30
0
11
79.083343
21
7.75
31
0
39
0
210
0
220
0
230
1
0
LINE
5
A3
100
AcDbEntity
8
1
62
256
6
ByLayer
370
18
48
1
60
1
100
AcDbLine
10
79.083343
20
-7.75
30
0
11
78.622559
21
-4.250002
31
0
39
0
210
0
220
0
230
1
0
LINE
5
A4
100
AcDbEntity
8
1
62
256
6
ByLayer
370
18
48
1
60
1
100
AcDbLine
10
78.622559
20
-4.250002
30
0
11
79.544126
21
-4.249998
31
0
39
0
210
0
220
0
230
1
0
LINE
5
A5
100
AcDbEntity
8
1
62
256
6
ByLayer
370
18
48
1
60
1
100
AcDbLine
10
79.544126
20
-4.249998
30
0
11
79.083343
21
-7.75
31
0
39
0
210
0
220
0
230
1
0
LINE
5
F4
100
AcDbEntity
8
1
62
256
6
ByLayer
370
18
48
1
60
1
100
AcDbLine
10
-56.625163
20
8
30
0
11
-56.164379
21
4.500002
31
0
39
0
210
0
220
0
230
1
0
LINE
5
F5
100
AcDbEntity
8
1
62
256
6
ByLayer
370
18
48
1
60
1
100
AcDbLine
10
-56.164379
20
4.500002
30
0
11
-57.085946
21
4.499998
31
0
39
0
210
0
220
0
230
1
0
LINE
5
F6
100
AcDbEntity
8
1
62
256
6
ByLayer
370
18
48
1
60
1
100
AcDbLine
10
-57.085946
20
4.499998
30
0
11
-56.625163
21
8
31
0
39
0
210
0
220
0
230
1
0
LINE
5
F8
100
AcDbEntity
8
1
62
256
6
ByLayer
370
18
48
1
60
1
100
AcDbLine
10
-56.625163
20
-8
30
0
11
-57.085946
21
-4.500002
31
0
39
0
210
0
220
0
230
1
0
LINE
5
F9
100
AcDbEntity
8
1
62
256
6
ByLayer
370
18
48
1
60
1
100
AcDbLine
10
-57.085946
20
-4.500002
30
0
11
-56.164379
21
-4.499998
31
0
39
0
210
0
220
0
230
1
0
LINE
5
FA
100
AcDbEntity
8
1
62
256
6
ByLayer
370
18
48
1
60
1
100
AcDbLine
10
-56.164379
20
-4.499998
30
0
11
-56.625163
21
-8
31
0
39
0
210
0
220
0
230
1
0
LINE
5
FE
100
AcDbEntity
8
1
62
256
6
ByLayer
370
18
48
1
60
1
100
AcDbLine
10
79.083343
20
7.75
30
0
11
79.544126
21
4.250002
31
0
39
0
210
0
220
0
230
1
0
LINE
5
FF
100
AcDbEntity
8
1
62
256
6
ByLayer
370
18
48
1
60
1
100
AcDbLine
10
79.544126
20
4.250002
30
0
11
78.622559
21
4.249998
31
0
39
0
210
0
220
0
230
1
0
LINE
5
100
100
AcDbEntity
8
1
62
256
6
ByLayer
370
18
48
1
60
1
100
AcDbLine
10
78.622559
20
4.249998
30
0
11
79.083343
21
7.75
31
0
39
0
210
0
220
0
230
1
0
LINE
5
102
100
AcDbEntity
8
1
62
256
6
ByLayer
370
18
48
1
60
1
100
AcDbLine
10
79.083343
20
-7.75
30
0
11
78.622559
21
-4.250002
31
0
39
0
210
0
220
0
230
1
0
LINE
5
103
100
AcDbEntity
8
1
62
256
6
ByLayer
370
18
48
1
60
1
100
AcDbLine
10
78.622559
20
-4.250002
30
0
11
79.544126
21
-4.249998
31
0
39
0
210
0
220
0
230
1
0
LINE
5
104
100
AcDbEntity
8
1
62
256
6
ByLayer
370
18
48
1
60
1
100
AcDbLine
10
79.544126
20
-4.249998
30
0
11
79.083343
21
-7.75
31
0
39
0
210
0
220
0
230
1
0
MTEXT
5
EE
100
AcDbEntity
8
SK6
62
256
6
ByLayer
370
13
48
1
60
0
100
AcDbMText
10
-18.97756
20
40.290328
30
0
210
0
220
0
230
1
1
\W0.7479;860.1-1550-044A0-PM P1BM
40
3.5
41
0
44
1.084337
50
0
71
7
72
5
7
iso_b_vert
0
MTEXT
5
F2
100
AcDbEntity
8
SK2
62
256
6
ByLayer
370
18
48
1
60
0
100
AcDbMText
10
-58.189796
20
21.409024
30
0
210
0
220
0
230
1
1
%%c
40
3.5
41
0
44
1.084337
50
90
71
7
72
5
7
iso_b_vert
0
MTEXT
5
F3
100
AcDbEntity
8
SK2
62
256
6
ByLayer
370
18
48
1
60
0
100
AcDbMText
10
-58.189796
20
26.63168
30
0
210
0
220
0
230
1
1
\W0.6930;16,000
40
3.5
41
0
44
1.084337
50
90
71
7
72
5
7
iso_b_vert
0
MTEXT
5
FC
100
AcDbEntity
8
2
62
256
6
ByLayer
370
18
48
1
60
0
100
AcDbMText
10
77.518709
20
19.75211
30
0
210
0
220
0
230
1
1
%%c
40
3.5
41
0
44
1.084337
50
90
71
7
72
5
7
iso_b_vert
0
MTEXT
5
FD
100
AcDbEntity
8
2
62
256
6
ByLayer
370
18
48
1
60
0
100
AcDbMText
10
77.518709
20
24.974766
30
0
210
0
220
0
230
1
1
\W0.6930;15,500
40
3.5
41
0
44
1.084337
50
90
71
7
72
5
7
iso_b_vert
0
HATCH
5
F7
100
AcDbEntity
8
SK2
62
256
6
ByLayer
370
13
48
1
60
0
100
AcDbHatch
10
0
20
0
30
0
210
0
220
0
230
1
2
ANSI31
70
0
71
0
91
1
92
5
93
3
72
1
10
-56.6251625675374
20
8
11
-56.1643788259847
21
4.50000169255318
72
1
10
-56.1643788259847
20
4.50000169255318
11
-57.0859463090902
21
4.49999830744682
72
1
10
-57.0859463090902
20
4.49999830744682
11
-56.6251625675374
21
8
97
0
75
0
76
1
52
0
41
0.0062
77
0
78
1
53
45
43
0
44
0
45
-0.0139193969876572
46
0.0139193969876572
79
0
47
0
98
1
10
0
20
0
0
HATCH
5
FB
100
AcDbEntity
8
SK2
62
256
6
ByLayer
370
13
48
1
60
0
100
AcDbHatch
10
0
20
0
30
0
210
0
220
0
230
1
2
ANSI31
70
0
71
0
91
1
92
5
93
3
72
1
10
-56.6251625675374
20
-8
11
-57.0859463090902
21
-4.50000169255318
72
1
10
-57.0859463090902
20
-4.50000169255318
11
-56.1643788259847
21
-4.49999830744682
72
1
10
-56.1643788259847
20
-4.49999830744682
11
-56.6251625675374
21
-8
97
0
75
0
76
1
52
0
41
0.0062
77
0
78
1
53
45
43
0
44
0
45
-0.0139193969876572
46
0.0139193969876572
79
0
47
0
98
1
10
0
20
0
0
HATCH
5
101
100
AcDbEntity
8
2
62
256
6
ByLayer
370
13
48
1
60
0
100
AcDbHatch
10
0
20
0
30
0
210
0
220
0
230
1
2
ANSI31
70
0
71
0
91
1
92
5
93
3
72
1
10
79.083342615295
20
7.75
11
79.5441263568478
21
4.25000169255318
72
1
10
79.5441263568478
20
4.25000169255318
11
78.6225588737423
21
4.24999830744682
72
1
10
78.6225588737423
20
4.24999830744682
11
79.083342615295
21
7.75
97
0
75
0
76
1
52
0
41
0.0062
77
0
78
1
53
45
43
0
44
0
45
-0.0139193969876572
46
0.0139193969876572
79
0
47
0
98
1
10
0
20
0
0
HATCH
5
105
100
AcDbEntity
8
2
62
256
6
ByLayer
370
13
48
1
60
0
100
AcDbHatch
10
0
20
0
30
0
210
0
220
0
230
1
2
ANSI31
70
0
71
0
91
1
92
5
93
3
72
1
10
79.083342615295
20
-7.75
11
78.6225588737423
21
-4.25000169255318
72
1
10
78.6225588737423
20
-4.25000169255318
11
79.5441263568478
21
-4.24999830744682
72
1
10
79.5441263568478
20
-4.24999830744682
11
79.083342615295
21
-7.75
97
0
75
0
76
1
52
0
41
0.0062
77
0
78
1
53
45
43
0
44
0
45
-0.0139193969876572
46
0.0139193969876572
79
0
47
0
98
1
10
0
20
0
0
DIMENSION
5
107
100
AcDbEntity
8
2
62
256
6
ByLayer
370
13
48
1
60
0
100
AcDbDimension
2
_U0
10
64.0934
20
-17.963398
30
0
11
32.0467
21
-17.963398
31
0
70
32
71
1
72
1
41
1
210
0
220
0
230
1
3
Standard
100
AcDbAlignedDimension
13
0
23
0
33
0
14
64.0934
24
-7.75
34
0
50
0
100
AcDbRotatedDimension
1001
ACAD
1000
DSTYLE
1002
{
1070
   371
1070
    13
1070
   372
1070
    13
1070
   170
1070
     0
1070
   144
1040
1.0
1070
   277
1070
     2
1070
   278
1070
    44
1070
   146
1040
1.0
1070
   345
1005
16
1070
   347
1005
16
1070
   346
1005
16
1070
   344
1005
0
1070
   343
1005
0
1070
   172
1070
     1
1070
    76
1070
     0
1070
    75
1070
     0
1070
   282
1070
     0
1070
   281
1070
     0
1070
    71
1070
     0
1070
    74
1070
     0
1070
   279
1070
     0
1070
   173
1070
     1
1070
   340
1005
EF
1070
   271
1070
     2
1070
   272
1070
     2
1070
    77
1070
     1
1070
    73
1070
     1
1070
   171
1070
     3
1070
   274
1070
     4
1070
   177
1070
    35
1070
   176
1070
    35
1070
   178
1070
    35
1070
    48
1040
-0.1
1070
    41
1040
3.5
1070
   147
1040
1.75
1070
    42
1040
1.5875
1070
    44
1040
2.0
1070
   140
1040
3.5
1002
}
1001
ACAD_DSTYLE_DIM_LINETYPE
1070
   380
1005
16
1001
ACAD_DSTYLE_DIM_EXT1_LINETYPE
1070
   381
1005
16
1001
ACAD_DSTYLE_DIM_EXT2_LINETYPE
1070
   382
1005
16
0
DIMENSION
5
120
100
AcDbEntity
8
SK2
62
256
6
ByLayer
370
13
48
1
60
0
100
AcDbDimension
2
_U1
10
67
20
-36.692985
30
0
11
9.5
21
-36.692985
31
0
70
32
71
1
72
1
41
1
210
0
220
0
230
1
3
Standard
100
AcDbAlignedDimension
13
-48
23
-8
33
0
14
67
24
0
34
0
50
0
100
AcDbRotatedDimension
1001
ACAD
1000
DSTYLE
1002
{
1070
   371
1070
    13
1070
   372
1070
    13
1070
   170
1070
     0
1070
   144
1040
1.0
1070
   277
1070
     2
1070
   278
1070
    44
1070
   146
1040
1.0
1070
   345
1005
16
1070
   347
1005
16
1070
   346
1005
16
1070
   344
1005
0
1070
   343
1005
0
1070
   172
1070
     1
1070
    76
1070
     0
1070
    75
1070
     0
1070
   282
1070
     0
1070
   281
1070
     0
1070
    71
1070
     0
1070
    74
1070
     0
1070
   279
1070
     0
1070
   173
1070
     1
1070
   340
1005
EF
1070
   271
1070
     2
1070
   272
1070
     2
1070
    77
1070
     1
1070
    73
1070
     1
1070
   171
1070
     3
1070
   274
1070
     4
1070
   177
1070
    35
1070
   176
1070
    35
1070
   178
1070
    35
1070
    48
1040
-0.1
1070
    41
1040
3.5
1070
   147
1040
1.75
1070
    42
1040
1.5875
1070
    44
1040
2.0
1070
   140
1040
3.5
1002
}
1001
ACAD_DSTYLE_DIM_LINETYPE
1070
   380
1005
16
1001
ACAD_DSTYLE_DIM_EXT1_LINETYPE
1070
   381
1005
16
1001
ACAD_DSTYLE_DIM_EXT2_LINETYPE
1070
   382
1005
16
0
DIMENSION
5
138
100
AcDbEntity
8
SK2
62
256
6
ByLayer
370
13
48
1
60
0
100
AcDbDimension
2
_U2
10
67
20
19.359119
30
0
11
42.295
21
19.359119
31
0
70
32
71
1
72
1
41
1
210
0
220
0
230
1
3
Standard
100
AcDbAlignedDimension
13
17.59
23
7.75
33
0
14
67
24
0
34
0
50
0
100
AcDbRotatedDimension
1001
ACAD
1000
DSTYLE
1002
{
1070
   371
1070
    13
1070
   372
1070
    13
1070
   170
1070
     0
1070
   144
1040
1.0
1070
   277
1070
     2
1070
   278
1070
    44
1070
   146
1040
1.0
1070
   345
1005
16
1070
   347
1005
16
1070
   346
1005
16
1070
   344
1005
0
1070
   343
1005
0
1070
   172
1070
     1
1070
    76
1070
     0
1070
    75
1070
     0
1070
   282
1070
     0
1070
   281
1070
     0
1070
    71
1070
     0
1070
    74
1070
     0
1070
   279
1070
     0
1070
   173
1070
     1
1070
   340
1005
EF
1070
   271
1070
     2
1070
   272
1070
     2
1070
    77
1070
     1
1070
    73
1070
     1
1070
   171
1070
     3
1070
   274
1070
     4
1070
   177
1070
    35
1070
   176
1070
    35
1070
   178
1070
    35
1070
    48
1040
-0.1
1070
    41
1040
3.5
1070
   147
1040
1.75
1070
    42
1040
1.5875
1070
    44
1040
2.0
1070
   140
1040
3.5
1002
}
1001
ACAD_DSTYLE_DIM_LINETYPE
1070
   380
1005
16
1001
ACAD_DSTYLE_DIM_EXT1_LINETYPE
1070
   381
1005
16
1001
ACAD_DSTYLE_DIM_EXT2_LINETYPE
1070
   382
1005
16
0
DIMENSION
5
150
100
AcDbEntity
8
SK2
62
256
6
ByLayer
370
13
48
1
60
0
100
AcDbDimension
2
_U3
10
64.0934
20
-20.552503
30
0
11
84.083333
21
-20.552503
31
0
70
32
71
1
72
1
41
1
210
0
220
0
230
1
3
Standard
100
AcDbAlignedDimension
13
67
23
0
33
0
14
64.0934
24
-7.75
34
0
50
0
100
AcDbRotatedDimension
1001
ACAD
1000
DSTYLE
1002
{
1070
   371
1070
    13
1070
   372
1070
    13
1070
   170
1070
     0
1070
   144
1040
1.0
1070
   277
1070
     2
1070
   278
1070
    44
1070
   146
1040
1.0
1070
   345
1005
16
1070
   347
1005
16
1070
   346
1005
16
1070
   344
1005
0
1070
   343
1005
0
1070
   172
1070
     1
1070
    76
1070
     0
1070
    75
1070
     0
1070
   282
1070
     0
1070
   281
1070
     0
1070
    71
1070
     0
1070
    74
1070
     0
1070
   279
1070
     0
1070
   173
1070
     1
1070
   340
1005
EF
1070
   271
1070
     2
1070
   272
1070
     2
1070
    77
1070
     1
1070
    73
1070
     1
1070
   171
1070
     3
1070
   274
1070
     4
1070
   177
1070
    35
1070
   176
1070
    35
1070
   178
1070
    35
1070
    48
1040
-0.1
1070
    41
1040
3.5
1070
   147
1040
1.75
1070
    42
1040
1.5875
1070
    44
1040
2.0
1070
   140
1040
3.5
1002
}
1001
ACAD_DSTYLE_DIM_LINETYPE
1070
   380
1005
16
1001
ACAD_DSTYLE_DIM_EXT1_LINETYPE
1070
   381
1005
16
1001
ACAD_DSTYLE_DIM_EXT2_LINETYPE
1070
   382
1005
16
0
DIMENSION
5
16A
100
AcDbEntity
8
SK2
62
256
6
ByLayer
370
13
48
1
60
0
100
AcDbDimension
2
_U4
10
64.0934
20
-26.343428
30
0
11
8.0467
21
-26.343428
31
0
70
32
71
1
72
1
41
1
210
0
220
0
230
1
3
Standard
100
AcDbAlignedDimension
13
-48
23
-8
33
0
14
64.0934
24
-7.75
34
0
50
0
100
AcDbRotatedDimension
1001
ACAD
1000
DSTYLE
1002
{
1070
   371
1070
    13
1070
   372
1070
    13
1070
   170
1070
     0
1070
   144
1040
1.0
1070
   277
1070
     2
1070
   278
1070
    44
1070
   146
1040
1.0
1070
   345
1005
16
1070
   347
1005
16
1070
   346
1005
16
1070
   344
1005
0
1070
   343
1005
0
1070
   172
1070
     1
1070
    76
1070
     0
1070
    75
1070
     0
1070
   282
1070
     0
1070
   281
1070
     0
1070
    71
1070
     0
1070
    74
1070
     0
1070
   279
1070
     0
1070
   173
1070
     1
1070
   340
1005
EF
1070
   271
1070
     2
1070
   272
1070
     2
1070
    77
1070
     1
1070
    73
1070
     1
1070
   171
1070
     3
1070
   274
1070
     4
1070
   177
1070
    35
1070
   176
1070
    35
1070
   178
1070
    35
1070
    48
1040
-0.1
1070
    41
1040
3.5
1070
   147
1040
1.75
1070
    42
1040
1.5875
1070
    44
1040
2.0
1070
   140
1040
3.5
1002
}
1001
ACAD_DSTYLE_DIM_LINETYPE
1070
   380
1005
16
1001
ACAD_DSTYLE_DIM_EXT1_LINETYPE
1070
   381
1005
16
1001
ACAD_DSTYLE_DIM_EXT2_LINETYPE
1070
   382
1005
16
0
ENDSEC
0
SECTION
2
OBJECTS
0
DICTIONARY
5
1f2
330
0
100
AcDbDictionary
280
0
281
1
3
ACAD_GROUP
350
1f3
3
ACAD_MLINESTYLE
350
1f4
0
DICTIONARY
5
1f3
330
0
100
AcDbDictionary
280
0
281
1
0
DICTIONARY
5
1f4
330
0
100
AcDbDictionary
280
0
281
1
3
Standard
350
18
0
MLINESTYLE
5
18
330
1f4
100
AcDbMlineStyle
2
Standard
70
0
3

62
256
51
90
52
90
71
2
49
-0.5
62
256
6
ByLayer
49
0.5
62
256
6
ByLayer
0
RASTERVARIABLES
5
1e0
330

100
AcDbRasterVariables
90
0
70
1
71
1
72
1
0
ENDSEC
0
EOF
