0
SECTION
2
HEADER
9
$ACADVER
1
AC1015
9
$DWGCODEPAGE
3
ANSI_1252
9
$HANDSEED
5
202
9
$ANGBASE
50
0
9
$ANGDIR
70
0
9
$ATTMODE
70
1
9
$AUNITS
70
0
9
$AUPREC
70
0
9
$CECOLOR
62
256
9
$CELTSCALE
40
1
9
$CELTYPE
6
ByLayer
9
$CELWEIGHT
370
18
9
$CLAYER
8
0
9
$CMLJUST
70
0
9
$CMLSCALE
40
1
9
$CMLSTYLE
2
Standard
9
$DIMSTYLE
2
Standard
9
$TEXTSIZE
40
0.2
9
$TEXTSTYLE
7
Standard
9
$LUNITS
70
2
9
$LUPREC
70
4
9
$EXTNAMES
290
1
9
$INSUNITS
70
4
9
$LTSCALE
40
1
9
$LWDISPLAY
290
1
9
$PDMODE
70
0
9
$PDSIZE
40
0
9
$PLINEGEN
70
0
0
ENDSEC
0
SECTION
2
CLASSES
0
CLASS
1
RASTERVARIABLES
2
AcDbRasterVariables
3
ISM
90
0
280
0
281
0
0
ENDSEC
0
SECTION
2
TABLES
0
TABLE
2
VPORT
5
1f8
100
AcDbSymbolTable
0
VPORT
5
1
100
AcDbSymbolTableRecord
100
AcDbViewportTableRecord
2
*Active
70
0
10
0
20
0
11
1
21
1
12
-1
22
1
13
0
23
0
14
0.5
24
0.5
15
10
25
10
16
0
26
0
36
1
17
0
27
0
37
0
0
ENDTAB
0
TABLE
2
LTYPE
5
1f9
100
AcDbSymbolTable
0
LTYPE
5
14
100
AcDbSymbolTableRecord
100
AcDbLinetypeTableRecord
70
0
2
ByBlock
3

72
65
73
0
40
0
0
LTYPE
5
15
100
AcDbSymbolTableRecord
100
AcDbLinetypeTableRecord
70
0
2
ByLayer
3

72
65
73
0
40
0
0
LTYPE
5
16
100
AcDbSymbolTableRecord
100
AcDbLinetypeTableRecord
70
0
2
Continuous
3
Solid line
72
65
73
0
40
0
0
LTYPE
5
6E
100
AcDbSymbolTableRecord
100
AcDbLinetypeTableRecord
70
0
2
CENTER
3
____ _ ____ _ ____ _ ____
72
65
73
4
40
47.5
49
22
74
0
49
-8.5
74
0
49
8.5
74
0
49
-8.5
74
0
0
LTYPE
5
6F
100
AcDbSymbolTableRecord
100
AcDbLinetypeTableRecord
70
0
2
DASHED
3
__ __ __ __ __ __ __ __ __
72
65
73
2
40
25.72
49
12.86
74
0
49
-12.86
74
0
0
ENDTAB
0
TABLE
2
LAYER
5
1fa
100
AcDbSymbolTable
0
LAYER
5
10
100
AcDbSymbolTableRecord
100
AcDbLayerTableRecord
2
0
70
0
62
7
6
Continuous
290
1
370
-3
390
0
0
LAYER
5
71
100
AcDbSymbolTableRecord
100
AcDbLayerTableRecord
2
80
70
0
62
-6
6
Continuous
290
1
370
-3
390
0
0
LAYER
5
73
100
AcDbSymbolTableRecord
100
AcDbLayerTableRecord
2
81
70
0
62
-3
6
Continuous
290
1
370
-3
390
0
0
LAYER
5
75
100
AcDbSymbolTableRecord
100
AcDbLayerTableRecord
2
1
70
0
62
4
6
Continuous
290
1
370
-3
390
0
0
LAYER
5
87
100
AcDbSymbolTableRecord
100
AcDbLayerTableRecord
2
4
70
0
62
-2
6
CENTER
290
1
370
-3
390
0
0
LAYER
5
9E
100
AcDbSymbolTableRecord
100
AcDbLayerTableRecord
2
2
70
0
62
7
6
Continuous
290
1
370
-3
390
0
0
LAYER
5
10D
100
AcDbSymbolTableRecord
100
AcDbLayerTableRecord
2
Defpoints
70
0
62
7
6
Continuous
290
0
370
-3
390
0
0
LAYER
5
1e4
100
AcDbSymbolTableRecord
100
AcDbLayerTableRecord
2
SK1
70
0
62
4
6
Continuous
290
1
370
-3
390
0
0
LAYER
5
1e5
100
AcDbSymbolTableRecord
100
AcDbLayerTableRecord
2
SK4
70
0
62
2
6
CENTER
290
1
370
-3
390
0
0
LAYER
5
1e6
100
AcDbSymbolTableRecord
100
AcDbLayerTableRecord
2
SK2
70
0
62
7
6
Continuous
290
1
370
-3
390
0
0
LAYER
5
1e7
100
AcDbSymbolTableRecord
100
AcDbLayerTableRecord
2
SK6
70
0
62
5
6
Continuous
290
1
370
-3
390
0
0
ENDTAB
0
TABLE
2
STYLE
5
1fb
100
AcDbSymbolTable
0
STYLE
5
11
100
AcDbSymbolTableRecord
100
AcDbTextStyleTableRecord
2
Standard
3
txt
70
0
71
0
40
0
41
1
42
0
50
0
0
STYLE
5
F2
100
AcDbSymbolTableRecord
100
AcDbTextStyleTableRecord
2
iso_b_vert
3
simplex.shx
70
0
71
0
40
0
41
1
42
0
50
0
0
STYLE
5
F3
100
AcDbSymbolTableRecord
100
AcDbTextStyleTableRecord
2
DWGDirectTextStyle
3
simplex
70
0
71
0
40
0
41
1
42
0
50
0
0
ENDTAB
0
TABLE
2
DIMSTYLE
5
1fc
100
AcDbSymbolTable
100
AcDbDimStyleTable
0
DIMSTYLE
105
27
100
AcDbSymbolTableRecord
100
AcDbDimStyleTableRecord
2
Standard
70
0
3
<>
41
0.18
42
0.0625
44
0.18
140
0.18
147
0.09
73
0
74
0
77
1
271
2
275
0
278
52
280
0
340
11
0
ENDTAB
0
TABLE
2
VIEW
5
1fd
100
AcDbSymbolTable
0
ENDTAB
0
TABLE
2
UCS
5
1fe
100
AcDbSymbolTable
0
ENDTAB
0
TABLE
2
APPID
5
1ff
100
AcDbSymbolTable
0
APPID
5
12
100
AcDbSymbolTableRecord
100
AcDbRegAppTableRecord
2
ACAD
70
0
0
APPID
5
109
100
AcDbSymbolTableRecord
100
AcDbRegAppTableRecord
2
ACAD_DSTYLE_DIMBREAK
70
0
0
APPID
5
1A3
100
AcDbSymbolTableRecord
100
AcDbRegAppTableRecord
2
ACAD_DSTYLE_DIM_LINETYPE
70
0
0
APPID
5
1A4
100
AcDbSymbolTableRecord
100
AcDbRegAppTableRecord
2
ACAD_DSTYLE_DIM_EXT1_LINETYPE
70
0
0
APPID
5
1A5
100
AcDbSymbolTableRecord
100
AcDbRegAppTableRecord
2
ACAD_DSTYLE_DIM_EXT2_LINETYPE
70
0
0
APPID
5
1E0
100
AcDbSymbolTableRecord
100
AcDbRegAppTableRecord
2
ACAD_MLEADERVER
70
0
0
ENDTAB
0
TABLE
2
BLOCK_RECORD
5
200
100
AcDbSymbolTable
0
BLOCK_RECORD
5
1F
100
AcDbSymbolTableRecord
100
AcDbBlockTableRecord
2
*Model_Space
340
0
70
0
0
BLOCK_RECORD
5
1B
100
AcDbSymbolTableRecord
100
AcDbBlockTableRecord
2
*Paper_Space
340
0
70
0
0
BLOCK_RECORD
5
23
100
AcDbSymbolTableRecord
100
AcDbBlockTableRecord
2
*Paper_Space0
340
0
70
0
0
BLOCK_RECORD
5
10E
100
AcDbSymbolTableRecord
100
AcDbBlockTableRecord
2
*D1
340
0
70
0
0
BLOCK_RECORD
5
11A
100
AcDbSymbolTableRecord
100
AcDbBlockTableRecord
2
_U0
340
0
70
0
0
BLOCK_RECORD
5
126
100
AcDbSymbolTableRecord
100
AcDbBlockTableRecord
2
*D3
340
0
70
0
0
BLOCK_RECORD
5
132
100
AcDbSymbolTableRecord
100
AcDbBlockTableRecord
2
_U1
340
0
70
0
0
BLOCK_RECORD
5
13E
100
AcDbSymbolTableRecord
100
AcDbBlockTableRecord
2
*D5
340
0
70
0
0
BLOCK_RECORD
5
14A
100
AcDbSymbolTableRecord
100
AcDbBlockTableRecord
2
_U2
340
0
70
0
0
BLOCK_RECORD
5
156
100
AcDbSymbolTableRecord
100
AcDbBlockTableRecord
2
*D7
340
0
70
0
0
BLOCK_RECORD
5
164
100
AcDbSymbolTableRecord
100
AcDbBlockTableRecord
2
_U3
340
0
70
0
0
BLOCK_RECORD
5
170
100
AcDbSymbolTableRecord
100
AcDbBlockTableRecord
2
*D9
340
0
70
0
0
BLOCK_RECORD
5
17C
100
AcDbSymbolTableRecord
100
AcDbBlockTableRecord
2
_U4
340
0
70
0
0
ENDTAB
0
ENDSEC
0
SECTION
2
BLOCKS
0
BLOCK
5
20
100
AcDbEntity
8
0
100
AcDbBlockBegin
2
*Model_Space
70
0
10
0
20
0
30
0
3
*Model_Space
0
ENDBLK
5
21
100
AcDbEntity
8
0
100
AcDbBlockEnd
0
BLOCK
5
1C
100
AcDbEntity
8
0
100
AcDbBlockBegin
2
*Paper_Space
70
0
10
0
20
0
30
0
3
*Paper_Space
0
ENDBLK
5
1D
100
AcDbEntity
8
0
100
AcDbBlockEnd
0
BLOCK
5
24
100
AcDbEntity
8
0
100
AcDbBlockBegin
2
*Paper_Space0
70
0
10
0
20
0
30
0
3
*Paper_Space0
0
ENDBLK
5
25
100
AcDbEntity
8
0
100
AcDbBlockEnd
0
BLOCK
5
10F
100
AcDbEntity
8
0
100
AcDbBlockBegin
2
*D1
70
1
10
0
20
0
30
0
3
*D1
0
LINE
5
111
100
AcDbEntity
8
0
62
256
6
ByLayer
370
-2
48
1
60
0
100
AcDbLine
10
0
20
-1.5875
30
0
11
0
21
-18.963398
31
0
39
0
210
0
220
0
230
1
0
LINE
5
112
100
AcDbEntity
8
0
62
256
6
ByLayer
370
-2
48
1
60
0
100
AcDbLine
10
76.4178
20
-8.3375
30
0
11
76.4178
21
-18.963398
31
0
39
0
210
0
220
0
230
1
0
LINE
5
113
100
AcDbEntity
8
0
62
256
6
ByLayer
370
-2
48
1
60
0
100
AcDbLine
10
3.5
20
-16.963398
30
0
11
72.9178
21
-16.963398
31
0
39
0
210
0
220
0
230
1
0
SOLID
5
114
100
AcDbEntity
8
0
62
256
6
ByLayer
370
-1
48
1
60
0
100
AcDbTrace
10
3.5
20
-16.380065
30
0
11
3.5
21
-17.546732
31
0
12
0
22
-16.963398
32
0
13
0
23
-16.963398
33
0
39
0
210
0
220
0
230
1
0
SOLID
5
115
100
AcDbEntity
8
0
62
256
6
ByLayer
370
-1
48
1
60
0
100
AcDbTrace
10
72.9178
20
-17.546732
30
0
11
72.9178
21
-16.380065
31
0
12
76.4178
22
-16.963398
32
0
13
76.4178
23
-16.963398
33
0
39
0
210
0
220
0
230
1
0
MTEXT
5
116
100
AcDbEntity
8
0
62
256
6
ByLayer
370
18
48
1
60
0
100
AcDbMText
10
38.2089
20
-9.963398
30
0
210
0
220
0
230
1
1
\A1;76.42
40
3.5
41
0
44
1
50
0
71
5
72
5
7
iso_b_vert
0
POINT
5
117
100
AcDbEntity
8
Defpoints
62
0
6
ByLayer
370
-1
48
1
60
0
100
AcDbPoint
10
0
20
0
30
0
39
0
210
0
220
0
230
1
50
360
0
POINT
5
118
100
AcDbEntity
8
Defpoints
62
0
6
ByLayer
370
-1
48
1
60
0
100
AcDbPoint
10
76.4178
20
-6.75
30
0
39
0
210
0
220
0
230
1
50
360
0
POINT
5
119
100
AcDbEntity
8
Defpoints
62
0
6
ByLayer
370
-1
48
1
60
0
100
AcDbPoint
10
76.4178
20
-16.963398
30
0
39
0
210
0
220
0
230
1
50
360
0
ENDBLK
5
110
100
AcDbEntity
8
0
100
AcDbBlockEnd
0
BLOCK
5
121
100
AcDbEntity
8
0
100
AcDbBlockBegin
2
_U0
70
0
10
0
20
0
30
0
3
_U0
0
MTEXT
5
11B
100
AcDbEntity
8
2
62
256
6
ByLayer
370
13
48
1
60
0
100
AcDbMText
10
32.887335
20
-15.930765
30
0
210
0
220
0
230
1
1
\W0.7581;76,42
40
3.5
41
0
44
1.084337
50
0
71
7
72
5
7
iso_b_vert
0
LINE
5
11C
100
AcDbEntity
8
2
62
256
6
ByLayer
370
13
48
1
60
0
100
AcDbLine
10
0
20
-1.5875
30
0
11
0
21
-18.963398
31
0
39
0
210
0
220
0
230
1
0
LINE
5
11D
100
AcDbEntity
8
2
62
256
6
ByLayer
370
13
48
1
60
0
100
AcDbLine
10
76.4178
20
-8.3375
30
0
11
76.4178
21
-18.963398
31
0
39
0
210
0
220
0
230
1
0
LINE
5
11E
100
AcDbEntity
8
2
62
256
6
ByLayer
370
13
48
1
60
0
100
AcDbLine
10
0
20
-16.963398
30
0
11
76.4178
21
-16.963398
31
0
39
0
210
0
220
0
230
1
0
SOLID
5
11F
100
AcDbEntity
8
2
62
256
6
ByLayer
370
18
48
1
60
0
100
AcDbTrace
10
0
20
-16.963398
30
0
11
3.499998
21
-16.502615
31
0
12
3.500002
22
-17.424182
32
0
13
3.500002
23
-17.424182
33
0
39
0
210
0
220
0
230
1
0
SOLID
5
120
100
AcDbEntity
8
2
62
256
6
ByLayer
370
18
48
1
60
0
100
AcDbTrace
10
76.4178
20
-16.963398
30
0
11
72.917802
21
-17.424182
31
0
12
72.917798
22
-16.502615
32
0
13
72.917798
23
-16.502615
33
0
39
0
210
0
220
0
230
1
0
ENDBLK
5
122
100
AcDbEntity
8
0
100
AcDbBlockEnd
0
BLOCK
5
127
100
AcDbEntity
8
0
100
AcDbBlockBegin
2
*D3
70
1
10
0
20
0
30
0
3
*D3
0
LINE
5
129
100
AcDbEntity
8
0
62
256
6
ByLayer
370
-2
48
1
60
0
100
AcDbLine
10
-45
20
-8.5875
30
0
11
-45
21
-37.692985
31
0
39
0
210
0
220
0
230
1
0
LINE
5
12A
100
AcDbEntity
8
0
62
256
6
ByLayer
370
-2
48
1
60
0
100
AcDbLine
10
79
20
-1.5875
30
0
11
79
21
-37.692985
31
0
39
0
210
0
220
0
230
1
0
LINE
5
12B
100
AcDbEntity
8
0
62
256
6
ByLayer
370
-2
48
1
60
0
100
AcDbLine
10
-41.5
20
-35.692985
30
0
11
75.5
21
-35.692985
31
0
39
0
210
0
220
0
230
1
0
SOLID
5
12C
100
AcDbEntity
8
0
62
256
6
ByLayer
370
-1
48
1
60
0
100
AcDbTrace
10
-41.5
20
-35.109652
30
0
11
-41.5
21
-36.276319
31
0
12
-45
22
-35.692985
32
0
13
-45
23
-35.692985
33
0
39
0
210
0
220
0
230
1
0
SOLID
5
12D
100
AcDbEntity
8
0
62
256
6
ByLayer
370
-1
48
1
60
0
100
AcDbTrace
10
75.5
20
-36.276319
30
0
11
75.5
21
-35.109652
31
0
12
79
22
-35.692985
32
0
13
79
23
-35.692985
33
0
39
0
210
0
220
0
230
1
0
MTEXT
5
12E
100
AcDbEntity
8
0
62
256
6
ByLayer
370
18
48
1
60
0
100
AcDbMText
10
17
20
-28.692985
30
0
210
0
220
0
230
1
1
\A1;124.00
40
3.5
41
0
44
1
50
0
71
5
72
5
7
iso_b_vert
0
POINT
5
12F
100
AcDbEntity
8
Defpoints
62
0
6
ByLayer
370
-1
48
1
60
0
100
AcDbPoint
10
-45
20
-7
30
0
39
0
210
0
220
0
230
1
50
360
0
POINT
5
130
100
AcDbEntity
8
Defpoints
62
0
6
ByLayer
370
-1
48
1
60
0
100
AcDbPoint
10
79
20
0
30
0
39
0
210
0
220
0
230
1
50
360
0
POINT
5
131
100
AcDbEntity
8
Defpoints
62
0
6
ByLayer
370
-1
48
1
60
0
100
AcDbPoint
10
79
20
-35.692985
30
0
39
0
210
0
220
0
230
1
50
360
0
ENDBLK
5
128
100
AcDbEntity
8
0
100
AcDbBlockEnd
0
BLOCK
5
139
100
AcDbEntity
8
0
100
AcDbBlockBegin
2
_U1
70
0
10
0
20
0
30
0
3
_U1
0
MTEXT
5
133
100
AcDbEntity
8
SK2
62
256
6
ByLayer
370
13
48
1
60
0
100
AcDbMText
10
10.808135
20
-34.660352
30
0
210
0
220
0
230
1
1
\W0.7145;124,00
40
3.5
41
0
44
1.084337
50
0
71
7
72
5
7
iso_b_vert
0
LINE
5
134
100
AcDbEntity
8
SK2
62
256
6
ByLayer
370
13
48
1
60
0
100
AcDbLine
10
-45
20
-8.5875
30
0
11
-45
21
-37.692985
31
0
39
0
210
0
220
0
230
1
0
LINE
5
135
100
AcDbEntity
8
SK2
62
256
6
ByLayer
370
13
48
1
60
0
100
AcDbLine
10
79
20
-1.5875
30
0
11
79
21
-37.692985
31
0
39
0
210
0
220
0
230
1
0
LINE
5
136
100
AcDbEntity
8
SK2
62
256
6
ByLayer
370
13
48
1
60
0
100
AcDbLine
10
-45
20
-35.692985
30
0
11
79
21
-35.692985
31
0
39
0
210
0
220
0
230
1
0
SOLID
5
137
100
AcDbEntity
8
SK2
62
256
6
ByLayer
370
18
48
1
60
0
100
AcDbTrace
10
-45
20
-35.692985
30
0
11
-41.500002
21
-35.232202
31
0
12
-41.499998
22
-36.153769
32
0
13
-41.499998
23
-36.153769
33
0
39
0
210
0
220
0
230
1
0
SOLID
5
138
100
AcDbEntity
8
SK2
62
256
6
ByLayer
370
18
48
1
60
0
100
AcDbTrace
10
79
20
-35.692985
30
0
11
75.500002
21
-36.153769
31
0
12
75.499998
22
-35.232202
32
0
13
75.499998
23
-35.232202
33
0
39
0
210
0
220
0
230
1
0
ENDBLK
5
13A
100
AcDbEntity
8
0
100
AcDbBlockEnd
0
BLOCK
5
13F
100
AcDbEntity
8
0
100
AcDbBlockBegin
2
*D5
70
1
10
0
20
0
30
0
3
*D5
0
LINE
5
141
100
AcDbEntity
8
0
62
256
6
ByLayer
370
-2
48
1
60
0
100
AcDbLine
10
18.11
20
8.3375
30
0
11
18.11
21
20.359119
31
0
39
0
210
0
220
0
230
1
0
LINE
5
142
100
AcDbEntity
8
0
62
256
6
ByLayer
370
-2
48
1
60
0
100
AcDbLine
10
79
20
1.5875
30
0
11
79
21
20.359119
31
0
39
0
210
0
220
0
230
1
0
LINE
5
143
100
AcDbEntity
8
0
62
256
6
ByLayer
370
-2
48
1
60
0
100
AcDbLine
10
21.61
20
18.359119
30
0
11
75.5
21
18.359119
31
0
39
0
210
0
220
0
230
1
0
SOLID
5
144
100
AcDbEntity
8
0
62
256
6
ByLayer
370
-1
48
1
60
0
100
AcDbTrace
10
21.61
20
18.942453
30
0
11
21.61
21
17.775786
31
0
12
18.11
22
18.359119
32
0
13
18.11
23
18.359119
33
0
39
0
210
0
220
0
230
1
0
SOLID
5
145
100
AcDbEntity
8
0
62
256
6
ByLayer
370
-1
48
1
60
0
100
AcDbTrace
10
75.5
20
17.775786
30
0
11
75.5
21
18.942453
31
0
12
79
22
18.359119
32
0
13
79
23
18.359119
33
0
39
0
210
0
220
0
230
1
0
MTEXT
5
146
100
AcDbEntity
8
0
62
256
6
ByLayer
370
18
48
1
60
0
100
AcDbMText
10
48.555
20
25.359119
30
0
210
0
220
0
230
1
1
\A1;60.89
40
3.5
41
0
44
1
50
0
71
5
72
5
7
iso_b_vert
0
POINT
5
147
100
AcDbEntity
8
Defpoints
62
0
6
ByLayer
370
-1
48
1
60
0
100
AcDbPoint
10
18.11
20
6.75
30
0
39
0
210
0
220
0
230
1
50
360
0
POINT
5
148
100
AcDbEntity
8
Defpoints
62
0
6
ByLayer
370
-1
48
1
60
0
100
AcDbPoint
10
79
20
0
30
0
39
0
210
0
220
0
230
1
50
360
0
POINT
5
149
100
AcDbEntity
8
Defpoints
62
0
6
ByLayer
370
-1
48
1
60
0
100
AcDbPoint
10
79
20
18.359119
30
0
39
0
210
0
220
0
230
1
50
360
0
ENDBLK
5
140
100
AcDbEntity
8
0
100
AcDbBlockEnd
0
BLOCK
5
151
100
AcDbEntity
8
0
100
AcDbBlockBegin
2
_U2
70
0
10
0
20
0
30
0
3
_U2
0
MTEXT
5
14B
100
AcDbEntity
8
SK2
62
256
6
ByLayer
370
13
48
1
60
0
100
AcDbMText
10
43.417701
20
19.391753
30
0
210
0
220
0
230
1
1
\W0.7402;60,89
40
3.5
41
0
44
1.084337
50
0
71
7
72
5
7
iso_b_vert
0
LINE
5
14C
100
AcDbEntity
8
SK2
62
256
6
ByLayer
370
13
48
1
60
0
100
AcDbLine
10
18.11
20
8.3375
30
0
11
18.11
21
20.359119
31
0
39
0
210
0
220
0
230
1
0
LINE
5
14D
100
AcDbEntity
8
SK2
62
256
6
ByLayer
370
13
48
1
60
0
100
AcDbLine
10
79
20
1.5875
30
0
11
79
21
20.359119
31
0
39
0
210
0
220
0
230
1
0
LINE
5
14E
100
AcDbEntity
8
SK2
62
256
6
ByLayer
370
13
48
1
60
0
100
AcDbLine
10
18.11
20
18.359119
30
0
11
79
21
18.359119
31
0
39
0
210
0
220
0
230
1
0
SOLID
5
14F
100
AcDbEntity
8
SK2
62
256
6
ByLayer
370
18
48
1
60
0
100
AcDbTrace
10
18.11
20
18.359119
30
0
11
21.609998
21
18.819903
31
0
12
21.610002
22
17.898335
32
0
13
21.610002
23
17.898335
33
0
39
0
210
0
220
0
230
1
0
SOLID
5
150
100
AcDbEntity
8
SK2
62
256
6
ByLayer
370
18
48
1
60
0
100
AcDbTrace
10
79
20
18.359119
30
0
11
75.500002
21
17.898335
31
0
12
75.499998
22
18.819903
32
0
13
75.499998
23
18.819903
33
0
39
0
210
0
220
0
230
1
0
ENDBLK
5
152
100
AcDbEntity
8
0
100
AcDbBlockEnd
0
BLOCK
5
157
100
AcDbEntity
8
0
100
AcDbBlockBegin
2
*D7
70
1
10
0
20
0
30
0
3
*D7
0
LINE
5
159
100
AcDbEntity
8
0
62
256
6
ByLayer
370
-2
48
1
60
0
100
AcDbLine
10
79
20
-1.5875
30
0
11
79
21
-21.552503
31
0
39
0
210
0
220
0
230
1
0
LINE
5
15A
100
AcDbEntity
8
0
62
256
6
ByLayer
370
-2
48
1
60
0
100
AcDbLine
10
76.4178
20
-8.3375
30
0
11
76.4178
21
-21.552503
31
0
39
0
210
0
220
0
230
1
0
LINE
5
15B
100
AcDbEntity
8
0
62
256
6
ByLayer
370
-2
48
1
60
0
100
AcDbLine
10
79
20
-19.552503
30
0
11
107.166667
21
-19.552503
31
0
39
0
210
0
220
0
230
1
0
LINE
5
15C
100
AcDbEntity
8
0
62
256
6
ByLayer
370
-2
48
1
60
0
100
AcDbLine
10
82.5
20
-19.552503
30
0
11
86
21
-19.552503
31
0
39
0
210
0
220
0
230
1
0
LINE
5
15D
100
AcDbEntity
8
0
62
256
6
ByLayer
370
-2
48
1
60
0
100
AcDbLine
10
72.9178
20
-19.552503
30
0
11
69.4178
21
-19.552503
31
0
39
0
210
0
220
0
230
1
0
SOLID
5
15E
100
AcDbEntity
8
0
62
256
6
ByLayer
370
-1
48
1
60
0
100
AcDbTrace
10
82.5
20
-18.96917
30
0
11
82.5
21
-20.135837
31
0
12
79
22
-19.552503
32
0
13
79
23
-19.552503
33
0
39
0
210
0
220
0
230
1
0
SOLID
5
15F
100
AcDbEntity
8
0
62
256
6
ByLayer
370
-1
48
1
60
0
100
AcDbTrace
10
72.9178
20
-20.135837
30
0
11
72.9178
21
-18.96917
31
0
12
76.4178
22
-19.552503
32
0
13
76.4178
23
-19.552503
33
0
39
0
210
0
220
0
230
1
0
MTEXT
5
160
100
AcDbEntity
8
0
62
256
6
ByLayer
370
18
48
1
60
0
100
AcDbMText
10
96.583333
20
-12.552503
30
0
210
0
220
0
230
1
1
\A1;2.58
40
3.5
41
0
44
1
50
0
71
5
72
5
7
iso_b_vert
0
POINT
5
161
100
AcDbEntity
8
Defpoints
62
0
6
ByLayer
370
-1
48
1
60
0
100
AcDbPoint
10
79
20
0
30
0
39
0
210
0
220
0
230
1
50
360
0
POINT
5
162
100
AcDbEntity
8
Defpoints
62
0
6
ByLayer
370
-1
48
1
60
0
100
AcDbPoint
10
76.4178
20
-6.75
30
0
39
0
210
0
220
0
230
1
50
360
0
POINT
5
163
100
AcDbEntity
8
Defpoints
62
0
6
ByLayer
370
-1
48
1
60
0
100
AcDbPoint
10
76.4178
20
-19.552503
30
0
39
0
210
0
220
0
230
1
50
360
0
ENDBLK
5
158
100
AcDbEntity
8
0
100
AcDbBlockEnd
0
BLOCK
5
16B
100
AcDbEntity
8
0
100
AcDbBlockBegin
2
_U3
70
0
10
0
20
0
30
0
3
_U3
0
MTEXT
5
165
100
AcDbEntity
8
SK2
62
256
6
ByLayer
370
13
48
1
60
0
100
AcDbMText
10
85.15186
20
-18.51987
30
0
210
0
220
0
230
1
1
\W0.7150;2,58
40
3.5
41
0
44
1.084337
50
0
71
7
72
5
7
iso_b_vert
0
LINE
5
166
100
AcDbEntity
8
SK2
62
256
6
ByLayer
370
13
48
1
60
0
100
AcDbLine
10
79
20
-1.5875
30
0
11
79
21
-21.552503
31
0
39
0
210
0
220
0
230
1
0
LINE
5
167
100
AcDbEntity
8
SK2
62
256
6
ByLayer
370
13
48
1
60
0
100
AcDbLine
10
76.4178
20
-8.3375
30
0
11
76.4178
21
-21.552503
31
0
39
0
210
0
220
0
230
1
0
LINE
5
168
100
AcDbEntity
8
SK2
62
256
6
ByLayer
370
13
48
1
60
0
100
AcDbLine
10
67.6678
20
-19.552503
30
0
11
92.996491
21
-19.552503
31
0
39
0
210
0
220
0
230
1
0
SOLID
5
169
100
AcDbEntity
8
SK2
62
256
6
ByLayer
370
18
48
1
60
0
100
AcDbTrace
10
79
20
-19.552503
30
0
11
82.499998
21
-19.091719
31
0
12
82.500002
22
-20.013287
32
0
13
82.500002
23
-20.013287
33
0
39
0
210
0
220
0
230
1
0
SOLID
5
16A
100
AcDbEntity
8
SK2
62
256
6
ByLayer
370
18
48
1
60
0
100
AcDbTrace
10
76.4178
20
-19.552503
30
0
11
72.917802
21
-20.013287
31
0
12
72.917798
22
-19.091719
32
0
13
72.917798
23
-19.091719
33
0
39
0
210
0
220
0
230
1
0
ENDBLK
5
16C
100
AcDbEntity
8
0
100
AcDbBlockEnd
0
BLOCK
5
171
100
AcDbEntity
8
0
100
AcDbBlockBegin
2
*D9
70
1
10
0
20
0
30
0
3
*D9
0
LINE
5
173
100
AcDbEntity
8
0
62
256
6
ByLayer
370
-2
48
1
60
0
100
AcDbLine
10
-45
20
-8.5875
30
0
11
-45
21
-27.343428
31
0
39
0
210
0
220
0
230
1
0
LINE
5
174
100
AcDbEntity
8
0
62
256
6
ByLayer
370
-2
48
1
60
0
100
AcDbLine
10
76.4178
20
-8.3375
30
0
11
76.4178
21
-27.343428
31
0
39
0
210
0
220
0
230
1
0
LINE
5
175
100
AcDbEntity
8
0
62
256
6
ByLayer
370
-2
48
1
60
0
100
AcDbLine
10
-41.5
20
-25.343428
30
0
11
72.9178
21
-25.343428
31
0
39
0
210
0
220
0
230
1
0
SOLID
5
176
100
AcDbEntity
8
0
62
256
6
ByLayer
370
-1
48
1
60
0
100
AcDbTrace
10
-41.5
20
-24.760095
30
0
11
-41.5
21
-25.926762
31
0
12
-45
22
-25.343428
32
0
13
-45
23
-25.343428
33
0
39
0
210
0
220
0
230
1
0
SOLID
5
177
100
AcDbEntity
8
0
62
256
6
ByLayer
370
-1
48
1
60
0
100
AcDbTrace
10
72.9178
20
-25.926762
30
0
11
72.9178
21
-24.760095
31
0
12
76.4178
22
-25.343428
32
0
13
76.4178
23
-25.343428
33
0
39
0
210
0
220
0
230
1
0
MTEXT
5
178
100
AcDbEntity
8
0
62
256
6
ByLayer
370
18
48
1
60
0
100
AcDbMText
10
15.7089
20
-18.343428
30
0
210
0
220
0
230
1
1
\A1;121.42
40
3.5
41
0
44
1
50
0
71
5
72
5
7
iso_b_vert
0
POINT
5
179
100
AcDbEntity
8
Defpoints
62
0
6
ByLayer
370
-1
48
1
60
0
100
AcDbPoint
10
-45
20
-7
30
0
39
0
210
0
220
0
230
1
50
360
0
POINT
5
17A
100
AcDbEntity
8
Defpoints
62
0
6
ByLayer
370
-1
48
1
60
0
100
AcDbPoint
10
76.4178
20
-6.75
30
0
39
0
210
0
220
0
230
1
50
360
0
POINT
5
17B
100
AcDbEntity
8
Defpoints
62
0
6
ByLayer
370
-1
48
1
60
0
100
AcDbPoint
10
76.4178
20
-25.343428
30
0
39
0
210
0
220
0
230
1
50
360
0
ENDBLK
5
172
100
AcDbEntity
8
0
100
AcDbBlockEnd
0
BLOCK
5
183
100
AcDbEntity
8
0
100
AcDbBlockBegin
2
_U4
70
0
10
0
20
0
30
0
3
_U4
0
MTEXT
5
17D
100
AcDbEntity
8
SK2
62
256
6
ByLayer
370
13
48
1
60
0
100
AcDbMText
10
9.954468
20
-24.310795
30
0
210
0
220
0
230
1
1
\W0.6654;121,42
40
3.5
41
0
44
1.084337
50
0
71
7
72
5
7
iso_b_vert
0
LINE
5
17E
100
AcDbEntity
8
SK2
62
256
6
ByLayer
370
13
48
1
60
0
100
AcDbLine
10
-45
20
-8.5875
30
0
11
-45
21
-27.343428
31
0
39
0
210
0
220
0
230
1
0
LINE
5
17F
100
AcDbEntity
8
SK2
62
256
6
ByLayer
370
13
48
1
60
0
100
AcDbLine
10
76.4178
20
-8.3375
30
0
11
76.4178
21
-27.343428
31
0
39
0
210
0
220
0
230
1
0
LINE
5
180
100
AcDbEntity
8
SK2
62
256
6
ByLayer
370
13
48
1
60
0
100
AcDbLine
10
-45
20
-25.343428
30
0
11
76.4178
21
-25.343428
31
0
39
0
210
0
220
0
230
1
0
SOLID
5
181
100
AcDbEntity
8
SK2
62
256
6
ByLayer
370
18
48
1
60
0
100
AcDbTrace
10
-45
20
-25.343428
30
0
11
-41.500002
21
-24.882645
31
0
12
-41.499998
22
-25.804212
32
0
13
-41.499998
23
-25.804212
33
0
39
0
210
0
220
0
230
1
0
SOLID
5
182
100
AcDbEntity
8
SK2
62
256
6
ByLayer
370
18
48
1
60
0
100
AcDbTrace
10
76.4178
20
-25.343428
30
0
11
72.917802
21
-25.804212
31
0
12
72.917798
22
-24.882645
32
0
13
72.917798
23
-24.882645
33
0
39
0
210
0
220
0
230
1
0
ENDBLK
5
184
100
AcDbEntity
8
0
100
AcDbBlockEnd
0
ENDSEC
0
SECTION
2
ENTITIES
0
ARC
5
A7
100
AcDbEntity
8
1
62
256
6
ByLayer
370
18
48
1
60
0
100
AcDbCircle
39
0
10
0
20
-6.15
30
0
40
0.849999999999999
210
0
220
0
230
1
100
AcDbArc
50
270
51
309.360536
0
ARC
5
A8
100
AcDbEntity
8
1
62
256
6
ByLayer
370
18
48
1
60
0
100
AcDbCircle
39
0
10
1.078137
20
-7.46439
30
0
40
0.850000000000002
210
0
220
0
230
1
100
AcDbArc
50
89.896868
51
129.360536
0
ARC
5
A9
100
AcDbEntity
8
1
62
256
6
ByLayer
370
18
48
1
60
0
100
AcDbCircle
39
0
10
1.078137
20
7.46439
30
0
40
0.850000000000002
210
0
220
0
230
1
100
AcDbArc
50
230.639464
51
270.103132
0
ARC
5
AA
100
AcDbEntity
8
1
62
256
6
ByLayer
370
18
48
1
60
0
100
AcDbCircle
39
0
10
0
20
6.15
30
0
40
0.849999999999999
210
0
220
0
230
1
100
AcDbArc
50
50.639464
51
90
0
ELLIPSE
5
AB
100
AcDbEntity
8
1
62
256
6
ByLayer
370
13
48
1
60
0
100
AcDbEllipse
10
17.063342
20
-44.089711
30
0
11
-58.2854189537364
21
45.6222215303053
31
0
210
0
220
0
230
1
40
0.46912
41
-1.21888317112525
42
-1.03466647226739
0
ELLIPSE
5
AC
100
AcDbEntity
8
1
62
256
6
ByLayer
370
13
48
1
60
0
100
AcDbEllipse
10
5.106688
20
-6.721947
30
0
11
-0.0175124571079942
21
0.299488420220283
31
0
210
0
220
0
230
1
40
0.484342
41
0.516152195406051
42
0.945891602265772
0
ELLIPSE
5
AD
100
AcDbEntity
8
1
62
256
6
ByLayer
370
13
48
1
60
0
100
AcDbEllipse
10
19.331479
20
-41.192016
30
0
11
-58.2854189537364
21
45.6222215303052
31
0
210
0
220
0
230
1
40
0.46912
41
-1.21888317112524
42
-1.11117754502387
0
ELLIPSE
5
AE
100
AcDbEntity
8
1
62
256
6
ByLayer
370
13
48
1
60
0
100
AcDbEllipse
10
123.194174
20
41.339538
30
0
11
-59.8999999999999
21
7.33539205939603E-15
31
0
210
0
220
0
230
1
40
0.99863
41
0.688235935905313
42
0.728092412984957
0
ELLIPSE
5
AF
100
AcDbEntity
8
1
62
256
6
ByLayer
370
18
48
1
60
0
100
AcDbEllipse
10
5.105166
20
-7.462017
30
0
11
1
21
0
31
0
210
0
220
0
230
1
40
0.999999
41
1.57220685607459
42
2.13407887011451
0
ELLIPSE
5
B0
100
AcDbEntity
8
1
62
256
6
ByLayer
370
18
48
1
60
0
100
AcDbEllipse
10
5.105166
20
7.462017
30
0
11
1
21
0
31
0
210
0
220
0
230
1
40
0.999999
41
-2.13542073392011
42
-2.09977572887692
0
POINT
5
70
100
AcDbEntity
8
80
62
256
6
ByLayer
370
18
48
1
60
0
100
AcDbPoint
10
0
20
0
30
0
39
0
210
0
220
0
230
1
50
360
0
POINT
5
72
100
AcDbEntity
8
81
62
256
6
ByLayer
370
18
48
1
60
0
100
AcDbPoint
10
79
20
0
30
0
39
0
210
0
220
0
230
1
50
360
0
POINT
5
74
100
AcDbEntity
8
1
62
256
6
ByLayer
370
18
48
1
60
1
100
AcDbPoint
10
76.4178
20
-6.75
30
0
39
0
210
0
220
0
230
1
50
360
0
POINT
5
76
100
AcDbEntity
8
1
62
256
6
ByLayer
370
18
48
1
60
1
100
AcDbPoint
10
-45
20
-7
30
0
39
0
210
0
220
0
230
1
50
360
0
POINT
5
77
100
AcDbEntity
8
1
62
256
6
ByLayer
370
18
48
1
60
1
100
AcDbPoint
10
18.11
20
6.75
30
0
39
0
210
0
220
0
230
1
50
360
0
POINT
5
78
100
AcDbEntity
8
1
62
256
6
ByLayer
370
18
48
1
60
1
100
AcDbPoint
10
76.4178
20
-6.75
30
0
39
0
210
0
220
0
230
1
50
360
0
POINT
5
79
100
AcDbEntity
8
1
62
256
6
ByLayer
370
18
48
1
60
1
100
AcDbPoint
10
-45
20
-7
30
0
39
0
210
0
220
0
230
1
50
360
0
POINT
5
7A
100
AcDbEntity
8
1
62
256
6
ByLayer
370
18
48
1
60
1
100
AcDbPoint
10
76.4178
20
-6.75
30
0
39
0
210
0
220
0
230
1
50
360
0
SPLINE
5
B1
100
AcDbEntity
8
1
62
256
6
ByLayer
370
18
48
1
60
0
100
AcDbSpline
70
4
71
3
72
8
73
4
40
0
40
0
40
0
40
0
40
1
40
1
40
1
40
1
41
1
10
5.69545805874671
20
1.99997830165907
30
0
41
1
10
5.62111635588349
20
2.05370576546016
30
0
41
1
10
5.54719824284126
20
2.10815758021391
30
0
41
1
10
5.47370453937529
20
2.16333694881016
30
0
0
SPLINE
5
B2
100
AcDbEntity
8
1
62
256
6
ByLayer
370
18
48
1
60
0
100
AcDbSpline
70
4
71
3
72
18
73
14
40
0
40
0
40
0
40
0
40
0.25
40
0.25
40
0.375000000000001
40
0.375000000000001
40
0.500000000000001
40
0.500000000000001
40
0.750000000000001
40
0.750000000000001
40
0.875
40
0.875
40
1
40
1
40
1
40
1
41
1
10
75.8710862898585
20
0.630626069108132
30
0
41
1
10
75.8029538222946
20
0.29242007030237
30
0
41
1
10
75.7480523707005
20
-0.0462651599055448
30
0
41
1
10
75.6855516928118
20
-0.555012032536467
30
0
41
1
10
75.668041185444
20
-0.724714685359885
30
0
41
1
10
75.6398501815693
20
-1.0643673760668
30
0
41
1
10
75.6291421658069
20
-1.23509043762834
30
0
41
1
10
75.6079583088371
20
-1.74181342925914
30
0
41
1
10
75.6083111761646
20
-2.06990350602342
30
0
41
1
10
75.6298446270846
20
-2.54792708818357
30
0
41
1
10
75.6405396398331
20
-2.70490527186206
30
0
41
1
10
75.669040249109
20
-3.01408442910099
30
0
41
1
10
75.6869141363165
20
-3.16670920318205
30
0
41
1
10
75.7082466918489
20
-3.31557671136113
30
0
0
SPLINE
5
B3
100
AcDbEntity
8
1
62
256
6
ByLayer
370
18
48
1
60
0
100
AcDbSpline
70
4
71
3
72
20
73
16
40
0
40
0
40
0
40
0
40
0.25
40
0.25
40
0.375
40
0.375
40
0.5
40
0.5
40
0.625
40
0.625
40
0.75
40
0.75
40
0.875
40
0.875
40
1
40
1
40
1
40
1
41
1
10
78.0381258989024
20
-1.42532683451319
30
0
41
1
10
78.1065313572707
20
-1.38680330341126
30
0
41
1
10
78.1797476691253
20
-1.32133525168311
30
0
41
1
10
78.2973810440322
20
-1.18496059806276
30
0
41
1
10
78.3381236782246
20
-1.13269444550912
30
0
41
1
10
78.4199444272534
20
-1.01846033494385
30
0
41
1
10
78.4612730961262
20
-0.956248322756409
30
0
41
1
10
78.5447699755988
20
-0.822110227987139
30
0
41
1
10
78.5870367244158
20
-0.750003686651922
30
0
41
1
10
78.6719859435013
20
-0.596846288175868
30
0
41
1
10
78.7140378199418
20
-0.516953585889354
30
0
41
1
10
78.7973116001107
20
-0.351015210661672
30
0
41
1
10
78.8385330581098
20
-0.264966842068787
30
0
41
1
10
78.9200927184761
20
-0.0869006731113871
30
0
41
1
10
78.9605796595505
20
0.0055058184936456
30
0
41
1
10
78.9997970926515
20
0.0990158111379458
30
0
0
SPLINE
5
B4
100
AcDbEntity
8
1
62
256
6
ByLayer
370
18
48
1
60
0
100
AcDbSpline
70
4
71
3
72
90
73
86
40
0
40
0
40
0
40
0
40
0.0088643770790054
40
0.0088643770790054
40
0.0275650492095905
40
0.0275650492095905
40
0.0649663934707598
40
0.0649663934707598
40
0.0836670656013441
40
0.0836670656013441
40
0.102367737731928
40
0.102367737731928
40
0.139769081993096
40
0.139769081993096
40
0.15846975412368
40
0.15846975412368
40
0.177170426254264
40
0.177170426254264
40
0.251973114776601
40
0.251973114776601
40
0.326775803298939
40
0.326775803298939
40
0.345476475429523
40
0.345476475429523
40
0.364177147560108
40
0.364177147560108
40
0.401578491821277
40
0.401578491821277
40
0.420279163951862
40
0.420279163951862
40
0.438979836082447
40
0.438979836082447
40
0.476381180343616
40
0.476381180343616
40
0.495081852474201
40
0.495081852474201
40
0.513782524604786
40
0.513782524604786
40
0.532483196735371
40
0.532483196735371
40
0.551183868865956
40
0.551183868865956
40
0.569884540996542
40
0.569884540996542
40
0.588585213127127
40
0.588585213127127
40
0.607285885257712
40
0.607285885257712
40
0.625986557388296
40
0.625986557388296
40
0.644687229518882
40
0.644687229518882
40
0.663387901649466
40
0.663387901649466
40
0.682088573780052
40
0.682088573780052
40
0.700789245910637
40
0.700789245910637
40
0.738190590171807
40
0.738190590171807
40
0.756891262302392
40
0.756891262302392
40
0.775591934432978
40
0.775591934432978
40
0.794292606563563
40
0.794292606563563
40
0.812993278694148
40
0.812993278694148
40
0.831693950824734
40
0.831693950824734
40
0.850394622955319
40
0.850394622955319
40
0.869095295085904
40
0.869095295085904
40
0.887795967216489
40
0.887795967216489
40
0.906496639347075
40
0.906496639347075
40
0.92519731147766
40
0.92519731147766
40
0.96259865573883
40
0.96259865573883
40
0.981299327869415
40
0.981299327869415
40
1
40
1
40
1
40
1
41
1
10
29.9473254896065
20
4.40545478609417
30
0
41
1
10
30.0855388619625
20
4.46253657190772
30
0
41
1
10
30.2236924431418
20
4.51874260615313
30
0
41
1
10
30.6530372950795
20
4.6909153446999
30
0
41
1
10
30.9439719141277
20
4.80391547540711
30
0
41
1
10
31.8173633637986
20
5.12946976343568
30
0
41
1
10
32.3993027302458
20
5.32994577930674
30
0
41
1
10
33.2748071277339
20
5.60215254851263
30
0
41
1
10
33.5668263909931
20
5.68854460333074
30
0
41
1
10
34.1500312676954
20
5.8506593145602
30
0
41
1
10
34.4415275451354
20
5.92646226295327
30
0
41
1
10
35.3147481560902
20
6.13896507090453
30
0
41
1
10
35.8966148745304
20
6.25959786703947
30
0
41
1
10
36.7701347591533
20
6.40814498959051
30
0
41
1
10
37.0616744379982
20
6.45211863794557
30
0
41
1
10
37.6454247452292
20
6.52898941290579
30
0
41
1
10
37.9371700509029
20
6.56191681983302
30
0
41
1
10
39.3943117714991
20
6.69734540751696
30
0
41
1
10
40.5553728355732
20
6.71413492855137
30
0
41
1
10
42.8905864354441
20
6.56228408757181
30
0
41
1
10
44.0513605125862
20
6.39445617841383
30
0
41
1
10
45.5076435652182
20
6.07694346237079
30
0
41
1
10
45.7996234577506
20
6.00818183704539
30
0
41
1
10
46.3828503965935
20
5.85994932294136
30
0
41
1
10
46.6740123008411
20
5.78071142517743
30
0
41
1
10
47.5473709453758
20
5.52888563283489
30
0
41
1
10
48.1284150521594
20
5.34118419231203
30
0
41
1
10
49.0012698842586
20
5.03321360134996
30
0
41
1
10
49.2920731084611
20
4.9257221900923
30
0
41
1
10
49.8747294747895
20
4.70265272287725
30
0
41
1
10
50.166824373433
20
4.58695511320468
30
0
41
1
10
51.0408845557006
20
4.22755416994434
30
0
41
1
10
51.6225220804589
20
3.97348272722326
30
0
41
1
10
52.4944845131006
20
3.57241368796127
30
0
41
1
10
52.7853283002681
20
3.43580945774272
30
0
41
1
10
53.3670986441914
20
3.15631211530004
30
0
41
1
10
53.6579301247706
20
3.01324917391571
30
0
41
1
10
54.2407306207311
20
2.72248109124328
30
0
41
1
10
54.5326778861634
20
2.57454282900937
30
0
41
1
10
55.1149164919947
20
2.27420830661598
30
0
41
1
10
55.4058247110514
20
2.12226533779037
30
0
41
1
10
55.9875334354805
20
1.81540106311866
30
0
41
1
10
56.2779857838461
20
1.65986990538232
30
0
41
1
10
56.8592063840257
20
1.34656470727529
30
0
41
1
10
57.1500716231823
20
1.18897139677912
30
0
41
1
10
57.7317277290032
20
0.870849362187926
30
0
41
1
10
58.0226642574857
20
0.710575205317554
30
0
41
1
10
58.6056794821865
20
0.389273258780037
30
0
41
1
10
58.8972595102944
20
0.228058548925389
30
0
41
1
10
59.4791257154661
20
-0.0944890060879686
30
0
41
1
10
59.7699200083351
20
-0.255431549072739
30
0
41
1
10
60.3513301515341
20
-0.576484311449406
30
0
41
1
10
60.6416373901841
20
-0.737151010535484
30
0
41
1
10
61.2227854425917
20
-1.05636158946075
30
0
41
1
10
61.5136317759982
20
-1.21489982856235
30
0
41
1
10
62.0952322922636
20
-1.53097576439242
30
0
41
1
10
62.3863275035184
20
-1.68800673418215
30
0
41
1
10
63.261054232207
20
-2.15412877955219
30
0
41
1
10
63.8422022171884
20
-2.45826088892375
30
0
41
1
10
64.7138770251135
20
-2.89959813500232
30
0
41
1
10
65.0041092352907
20
-3.04475632333842
30
0
41
1
10
65.5852336050456
20
-3.32902185348129
30
0
41
1
10
65.8760413769683
20
-3.46828063669364
30
0
41
1
10
66.4576838447699
20
-3.74173435846782
30
0
41
1
10
66.749129629559
20
-3.87549786383119
30
0
41
1
10
67.331812516285
20
-4.13563124177946
30
0
41
1
10
67.6225405466556
20
-4.26242666147471
30
0
41
1
10
68.2037617642022
20
-4.5080700234289
30
0
41
1
10
68.4943855399536
20
-4.62676113832245
30
0
41
1
10
69.0751669812094
20
-4.85655857140785
30
0
41
1
10
69.3653803647828
20
-4.96756948857157
30
0
41
1
10
69.9465105062326
20
-5.18050850671264
30
0
41
1
10
70.2372660872409
20
-5.28264694033479
30
0
41
1
10
70.8190437472711
20
-5.47830919394804
30
0
41
1
10
71.1106779304394
20
-5.57155777002106
30
0
41
1
10
71.6925124577109
20
-5.74776328291102
30
0
41
1
10
71.9826045928286
20
-5.83111813445959
30
0
41
1
10
72.5623921825938
20
-5.98720198789658
30
0
41
1
10
72.8521360099168
20
-6.05992757130983
30
0
41
1
10
73.7199597116749
20
-6.26299652213896
30
0
41
1
10
74.2980279638341
20
-6.37713893595165
30
0
41
1
10
75.1655574914828
20
-6.51574207348639
30
0
41
1
10
75.4550451643931
20
-6.55637916760654
30
0
41
1
10
76.0346407190294
20
-6.62651979902319
30
0
41
1
10
76.3244794945754
20
-6.65610123880771
30
0
41
1
10
76.6150302133192
20
-6.67990793885821
30
0
0
SPLINE
5
B5
100
AcDbEntity
8
1
62
256
6
ByLayer
370
18
48
1
60
0
100
AcDbSpline
70
4
71
3
72
48
73
44
40
0
40
0
40
0
40
0
40
0.0162520539453661
40
0.0162520539453661
40
0.0325041078907323
40
0.0325041078907323
40
0.0650082157814646
40
0.0650082157814646
40
0.130016431562929
40
0.130016431562929
40
0.195024647344394
40
0.195024647344394
40
0.227528755235126
40
0.227528755235126
40
0.260032863125859
40
0.260032863125859
40
0.390049294688788
40
0.390049294688788
40
0.422553402579521
40
0.422553402579521
40
0.455057510470253
40
0.455057510470253
40
0.520065726251718
40
0.520065726251718
40
0.55256983414245
40
0.55256983414245
40
0.585073942033182
40
0.585073942033182
40
0.650082157814646
40
0.650082157814646
40
0.71509037359611
40
0.71509037359611
40
0.747594481486842
40
0.747594481486842
40
0.780098589377574
40
0.780098589377574
40
0.910115020940503
40
0.910115020940503
40
0.942619128831235
40
0.942619128831235
40
0.975123236721967
40
0.975123236721967
40
1
40
1
40
1
40
1
41
1
10
4.5793553251246
20
2.62163264021981
30
0
41
1
10
4.57409253868462
20
2.55649848201591
30
0
41
1
10
4.57083938413223
20
2.49083601117789
30
0
41
1
10
4.56808626512094
20
2.35846143928296
30
0
41
1
10
4.56872781157466
20
2.29174118792514
30
0
41
1
10
4.568779646845
20
2.09040146319222
30
0
41
1
10
4.56880785899995
20
1.95424078328989
30
0
41
1
10
4.56887427302229
20
1.54211815200279
30
0
41
1
10
4.56889400857352
20
1.26519101798053
30
0
41
1
10
4.56889379347399
20
0.707139477360272
30
0
41
1
10
4.56887381818157
20
0.426014628439304
30
0
41
1
10
4.56881948611544
20
0.0011403611273693
30
0
41
1
10
4.56879729950654
20
-0.141017151542599
30
0
41
1
10
4.56874552200983
20
-0.426424476592302
30
0
41
1
10
4.56871606371433
20
-0.568864862731402
30
0
41
1
10
4.56855460522794
20
-1.27435157636802
30
0
41
1
10
4.5683805262851
20
-1.82294585452721
30
0
41
1
10
4.56813424908978
20
-2.48871023862324
30
0
41
1
10
4.56808340874309
20
-2.62098506446603
30
0
41
1
10
4.56798060897168
20
-2.87968289295887
30
0
41
1
10
4.56792847627003
20
-3.0065895079218
30
0
41
1
10
4.56777041689128
20
-3.38011882157534
30
0
41
1
10
4.56766289424894
20
-3.61957981289137
30
0
41
1
10
4.56749928518283
20
-3.96443975110438
30
0
41
1
10
4.56744434480021
20
-4.07699726289644
30
0
41
1
10
4.56733360506578
20
-4.2972320042991
30
0
41
1
10
4.56727759989286
20
-4.40528495853971
30
0
41
1
10
4.56710994497425
20
-4.71832950730084
30
0
41
1
10
4.56699860971622
20
-4.91257037134122
30
0
41
1
10
4.56677410107426
20
-5.27303809882048
30
0
41
1
10
4.56666093583743
20
-5.43926338269048
30
0
41
1
10
4.56648644114108
20
-5.66720831319188
30
0
41
1
10
4.5664273577087
20
-5.73974150581594
30
0
41
1
10
4.56630730359606
20
-5.87689708798868
30
0
41
1
10
4.56624675037372
20
-5.94105833609751
30
0
41
1
10
4.56593947623927
20
-6.24033327093787
30
0
41
1
10
4.56568008030067
20
-6.41190805758543
30
0
41
1
10
4.56530164099081
20
-6.53954921910093
30
0
41
1
10
4.56522351600918
20
-6.56052585119221
30
0
41
1
10
4.5650627416444
20
-6.59317264192501
30
0
41
1
10
4.56497990879154
20
-6.604907173974
30
0
41
1
10
4.5648285828691
20
-6.61761294370962
30
0
41
1
10
4.56476129010301
20
-6.62047196286599
30
0
41
1
10
4.56469209859316
20
-6.62066671240336
30
0
0
SPLINE
5
B6
100
AcDbEntity
8
1
62
256
6
ByLayer
370
18
48
1
60
0
100
AcDbSpline
70
4
71
3
72
8
73
4
40
0
40
0
40
0
40
0
40
1
40
1
40
1
40
1
41
1
10
78.9997970926515
20
0.0990158111378889
30
0
41
1
10
79.0000676357815
20
0.0330052703792774
30
0
41
1
10
79.0000676357815
20
-0.0330052703793058
30
0
41
1
10
78.9997970926515
20
-0.0990158111379174
30
0
0
SPLINE
5
B7
100
AcDbEntity
8
1
62
256
6
ByLayer
370
18
48
1
60
0
100
AcDbSpline
70
4
71
3
72
8
73
4
40
0
40
0
40
0
40
0
40
1
40
1
40
1
40
1
41
1
10
76.6150302133192
20
-6.67990793885829
30
0
41
1
10
76.5855897486722
20
-6.64923200290818
30
0
41
1
10
76.5588487075409
20
-6.60825301544693
30
0
41
1
10
76.5349241820632
20
-6.55732299418466
30
0
0
SPLINE
5
B8
100
AcDbEntity
8
1
62
256
6
ByLayer
370
18
48
1
60
0
100
AcDbSpline
70
4
71
3
72
60
73
56
40
0
40
0
40
0
40
0
40
0.0575903998165667
40
0.0575903998165667
40
0.0863855997248501
40
0.0863855997248501
40
0.115180799633133
40
0.115180799633133
40
0.1727711994497
40
0.1727711994497
40
0.201566399357984
40
0.201566399357984
40
0.230361599266267
40
0.230361599266267
40
0.25915679917455
40
0.25915679917455
40
0.287951999082834
40
0.287951999082834
40
0.3455423988994
40
0.3455423988994
40
0.374337598807683
40
0.374337598807683
40
0.403132798715966
40
0.403132798715966
40
0.460723198532533
40
0.460723198532533
40
0.489518398440817
40
0.489518398440817
40
0.518313598349101
40
0.518313598349101
40
0.575903998165667
40
0.575903998165667
40
0.60469919807395
40
0.60469919807395
40
0.633494397982233
40
0.633494397982233
40
0.691084797798799
40
0.691084797798799
40
0.719879997707081
40
0.719879997707081
40
0.748675197615364
40
0.748675197615364
40
0.806265597431929
40
0.806265597431929
40
0.835060797340212
40
0.835060797340212
40
0.863855997248495
40
0.863855997248495
40
0.921446397065061
40
0.921446397065061
40
0.950241596973344
40
0.950241596973344
40
0.979036796881628
40
0.979036796881628
40
1
40
1
40
1
40
1
41
1
10
4.97880079102461
20
6.55361889602642
30
0
41
1
10
5.72749372011049
20
6.49661569562156
30
0
41
1
10
6.47533097900819
20
6.40208493357565
30
0
41
1
10
7.59752928916043
20
6.20625110791596
30
0
41
1
10
7.9718560788931
20
6.13195075877326
30
0
41
1
10
8.71896443865316
20
5.96645740446019
30
0
41
1
10
9.0920469843503
20
5.87517862633516
30
0
41
1
10
10.2109083485746
20
5.5766593113388
30
0
41
1
10
10.9564407307177
20
5.34485499377516
30
0
41
1
10
12.0785168537719
20
4.95201176814794
30
0
41
1
10
12.4523699697903
20
4.81383749711236
30
0
41
1
10
13.1988287358758
20
4.52461690195389
30
0
41
1
10
13.571669355189
20
4.37345603729966
30
0
41
1
10
14.3173131197696
20
4.05906201950978
30
0
41
1
10
14.6901353440096
20
3.89585619043274
30
0
41
1
10
15.4365074959251
20
3.55845996346247
30
0
41
1
10
15.810322827523
20
3.38409722832938
30
0
41
1
10
16.9319782243903
20
2.8469421647124
30
0
41
1
10
17.6772093777372
20
2.47171849016905
30
0
41
1
10
18.7954329027846
20
1.89040074811814
30
0
41
1
10
19.1682641141246
20
1.69359459711967
30
0
41
1
10
19.9148301163795
20
1.29516754996857
30
0
41
1
10
20.2889918395889
20
1.09325034396042
30
0
41
1
10
21.4094327147414
20
0.4844923327517
30
0
41
1
10
22.1542527125819
20
0.0747823694288172
30
0
41
1
10
23.272354382693
20
-0.538110303112319
30
0
41
1
10
23.6452207561622
20
-0.742091517825799
30
0
41
1
10
24.3920913927312
20
-1.14794426376633
30
0
41
1
10
24.7662027293289
20
-1.34991675654635
30
0
41
1
10
25.8856347880587
20
-1.94814911054371
30
0
41
1
10
26.630102154077
20
-2.33725827570478
30
0
41
1
10
27.7482324554045
20
-2.8991762074478
30
0
41
1
10
28.1212205695238
20
-3.08279048472232
30
0
41
1
10
28.8684671030178
20
-3.44141324452249
30
0
41
1
10
29.2419828553731
20
-3.61614106575584
30
0
41
1
10
30.360470760216
20
-4.123422800051
30
0
41
1
10
31.1046997399008
20
-4.4394929431204
30
0
41
1
10
32.2230034057696
20
-4.87463252760546
30
0
41
1
10
32.5963835035973
20
-5.01323591491939
30
0
41
1
10
33.3434647745331
20
-5.27594527602966
30
0
41
1
10
33.7163457783977
20
-5.39978497977401
30
0
41
1
10
34.8340806294374
20
-5.74773951088227
30
0
41
1
10
35.5781087707752
20
-5.94820488087328
30
0
41
1
10
36.6967398823192
20
-6.19766237071082
30
0
41
1
10
37.0705315129109
20
-6.2723272387469
30
0
41
1
10
37.8168090225364
20
-6.40342120662638
30
0
41
1
10
38.1893639954652
20
-6.45989754243357
30
0
41
1
10
39.306450467421
20
-6.60167399201555
30
0
41
1
10
40.0503889147141
20
-6.65933042455583
30
0
41
1
10
41.1694736626982
20
-6.68904319503096
30
0
41
1
10
41.5431913342161
20
-6.68945583437622
30
0
41
1
10
42.288747464273
20
-6.67132421637368
30
0
41
1
10
42.6610418591096
20
-6.65279938837355
30
0
41
1
10
43.304203324387
20
-6.60461955693515
30
0
41
1
10
43.5751047199411
20
-6.5793584226696
30
0
41
1
10
43.8460884885961
20
-6.54917627704546
30
0
0
SPLINE
5
B9
100
AcDbEntity
8
1
62
256
6
ByLayer
370
13
48
1
60
0
100
AcDbSpline
70
4
71
3
72
18
73
14
40
0
40
0
40
0
40
0
40
0.0078893208415722
40
0.15667518704675
40
0.231068120149337
40
0.305461053251926
40
0.454246919457103
40
0.528639852559691
40
0.60303278566228
40
0.751818651867457
40
0.826211584970045
40
0.900604518072633
40
1
40
1
40
1
40
1
41
1
10
76.9550189373255
20
2.83247853939824
30
0
41
1
10
76.9424519042053
20
2.83238291024816
30
0
41
1
10
76.6928820896765
20
2.83039483029137
30
0
41
1
10
76.3248483012475
20
2.82489353477584
30
0
41
1
10
75.8509563932199
20
2.81306566235153
30
0
41
1
10
75.3769322638589
20
2.79774407987418
30
0
41
1
10
74.9029760326823
20
2.77774173566308
30
0
41
1
10
74.4290831145723
20
2.75309102664818
30
0
41
1
10
73.9550574575537
20
2.7250849503875
30
0
41
1
10
73.4810995976943
20
2.69249438978636
30
0
41
1
10
73.0072065274894
20
2.65534960660949
30
0
41
1
10
72.6118591631475
20
2.62170551400203
30
0
41
1
10
72.3350491383025
20
2.59613044406171
30
0
41
1
10
72.1767418591049
20
2.58085216882989
30
0
0
SPLINE
5
BA
100
AcDbEntity
8
1
62
256
6
ByLayer
370
13
48
1
60
0
100
AcDbSpline
70
4
71
3
72
10
73
6
40
0
40
0
40
0
40
0
40
0.0019020173031709
40
0.408534528772251
40
1
40
1
40
1
40
1
41
1
10
20.5334242944388
20
-0.079961060799917
30
0
41
1
10
20.5326621146044
20
-0.0797833981389431
30
0
41
1
10
20.3689533727981
20
-0.041623283708816
30
0
41
1
10
19.9682100865085
20
0.051748734273616
30
0
41
1
10
19.5683906100571
20
0.145385318383688
30
0
41
1
10
19.3314788781434
20
0.200851294115239
30
0
0
SPLINE
5
BB
100
AcDbEntity
8
1
62
256
6
ByLayer
370
13
48
1
60
0
100
AcDbSpline
70
4
71
3
72
60
73
56
40
0
40
0
40
0
40
0
40
0.0082990500489962
40
0.037212835061952
40
0.0516697275684282
40
0.0661266200749083
40
0.0950404050878628
40
0.109497297594341
40
0.123954190100819
40
0.152867975113774
40
0.167324867620251
40
0.181781760126729
40
0.210695545139684
40
0.225152437646162
40
0.239609330152639
40
0.268523115165595
40
0.282980007672072
40
0.297436900178551
40
0.326350685191506
40
0.340807577697983
40
0.355264470204461
40
0.384178255217416
40
0.398635147723894
40
0.413092040230371
40
0.442005825243327
40
0.456462717749805
40
0.470919610256282
40
0.499833395269238
40
0.514290287775715
40
0.528747180282193
40
0.557660965295148
40
0.572117857801626
40
0.586574750308104
40
0.615488535321059
40
0.629945427827536
40
0.644402320334014
40
0.67331610534697
40
0.687772997853447
40
0.702229890359925
40
0.73114367537288
40
0.745600567879358
40
0.760057460385836
40
0.788971245398791
40
0.803428137905268
40
0.817885030411746
40
0.846798815424701
40
0.86125570793118
40
0.875712600437657
40
0.904626385450612
40
0.91908327795709
40
0.933540170463567
40
0.962453955476523
40
0.976910847983001
40
0.991367740489478
40
1
40
1
40
1
40
1
41
1
10
58.6370226762708
20
-0.0808996245429228
30
0
41
1
10
58.5689972800901
20
-0.0650288522134872
30
0
41
1
10
58.2639618352207
20
0.00611907769553
30
0
41
1
10
57.8404748186918
20
0.105103946084086
30
0
41
1
10
57.3665820766367
20
0.215881537674818
30
0
41
1
10
56.8925569799718
20
0.325958550458637
30
0
41
1
10
56.4186000967488
20
0.435741345502748
30
0
41
1
10
55.9447076728634
20
0.544976574063838
30
0
41
1
10
55.4706825785671
20
0.65310810752041
30
0
41
1
10
54.9967251830702
20
0.760400531496373
30
0
41
1
10
54.5228317040553
20
0.86659522522632
30
0
41
1
10
54.0488057105382
20
0.971292610323445
30
0
41
1
10
53.5748478688816
20
1.07461537176346
30
0
41
1
10
53.1009552112113
20
1.1763156258219
30
0
41
1
10
52.6269307536152
20
1.2761490065727
30
0
41
1
10
52.1529748358
20
1.3740913300492
30
0
41
1
10
51.6790830304739
20
1.46989905208383
30
0
41
1
10
51.2050586226448
20
1.5634922198216
30
0
41
1
10
50.7311019114561
20
1.65470151894132
30
0
41
1
10
50.2572090410791
20
1.74329770009649
30
0
41
1
10
49.7831834524665
20
1.82936412361755
30
0
41
1
10
49.3092255145023
20
1.91258886083236
30
0
41
1
10
48.8353316953309
20
1.99275830658212
30
0
41
1
10
48.3613056303337
20
2.07011725003787
30
0
41
1
10
47.887348197102
20
2.14421455871607
30
0
41
1
10
47.413456243272
20
2.21485387419798
30
0
41
1
10
46.9394321280368
20
2.2824409984762
30
0
41
1
10
46.4654760041559
20
2.34639474160744
30
0
41
1
10
45.9915832429327
20
2.40654391936073
30
0
41
1
10
45.5175576545908
20
2.46344176632888
30
0
41
1
10
45.0435997412027
20
2.51637828344175
30
0
41
1
10
44.5697065213759
20
2.56519569056127
30
0
41
1
10
44.0956812468486
20
2.6106016775924
30
0
41
1
10
43.6217242854321
20
2.65177609877304
30
0
41
1
10
43.1478315762404
20
2.68860027168762
30
0
41
1
10
42.6738065396757
20
2.72191077230016
30
0
41
1
10
42.1998497438295
20
2.75078339158557
30
0
41
1
10
41.7259574349017
20
2.77511900514236
30
0
41
1
10
41.2519324960138
20
2.79587978496082
30
0
41
1
10
40.7779752765582
20
2.81205098782672
30
0
41
1
10
40.304081946483
20
2.82356300114804
30
0
41
1
10
39.8300560821867
20
2.83148547337424
30
0
41
1
10
39.3560983085069
20
2.83472015482977
30
0
41
1
10
38.8822055502446
20
2.83321668141539
30
0
41
1
10
38.4081808587383
20
2.82815530171015
30
0
41
1
10
37.9342245888652
20
2.8183839677805
30
0
41
1
10
37.4603324264098
20
2.80390455411478
30
0
41
1
10
36.9863076750888
20
2.78596560180674
30
0
41
1
10
36.5123507109833
20
2.76336869628881
30
0
41
1
10
36.0384578545866
20
2.73613332049513
30
0
41
1
10
35.5644324548472
20
2.70557236197092
30
0
41
1
10
35.0904748599588
20
2.67045893580252
30
0
41
1
10
34.6165813588423
20
2.63084457765717
30
0
41
1
10
34.308807847644
20
2.60307972162531
30
0
41
1
10
34.1195553370595
20
2.58507112003409
30
0
41
1
10
34.0488021749289
20
2.5782082896055
30
0
0
SPLINE
5
BC
100
AcDbEntity
8
1
62
256
6
ByLayer
370
18
48
1
60
0
100
AcDbSpline
70
4
71
3
72
26
73
22
40
0
40
0
40
0
40
0
40
0.137455151516014
40
0.137455151516014
40
0.223709636364411
40
0.223709636364411
40
0.309964121212808
40
0.309964121212808
40
0.396218606061206
40
0.396218606061206
40
0.482473090909603
40
0.482473090909603
40
0.654982060606402
40
0.654982060606402
40
0.741236545454801
40
0.741236545454801
40
0.827491030303201
40
0.827491030303201
40
0.9137455151516
40
0.9137455151516
40
1
40
1
40
1
40
1
41
1
10
76.242681879998
20
0.528709762780011
30
0
41
1
10
76.2744756917467
20
0.569086497012478
30
0
41
1
10
76.3112443438728
20
0.620289421504197
30
0
41
1
10
76.3780453228956
20
0.722332276528562
30
0
41
1
10
76.4053070624296
20
0.765973610837591
30
0
41
1
10
76.4614281279994
20
0.860384813932541
30
0
41
1
10
76.4904165352726
20
0.911344788334958
30
0
41
1
10
76.5496927998074
20
1.02084474155828
30
0
41
1
10
76.5799848840596
20
1.07938325234446
30
0
41
1
10
76.641226322664
20
1.20439161075913
30
0
41
1
10
76.6719704228332
20
1.27048071252869
30
0
41
1
10
76.7617655318251
20
1.47627742459474
30
0
41
1
10
76.8193034607841
20
1.62457716810124
30
0
41
1
10
76.8934954063787
20
1.86568302989286
30
0
41
1
10
76.9159873659065
20
1.94888000735054
30
0
41
1
10
76.9533026326037
20
2.11795107992805
30
0
41
1
10
76.9682787393969
20
2.20425905282696
30
0
41
1
10
76.987558701017
20
2.38066796615243
30
0
41
1
10
76.9917913054628
20
2.47151733723032
30
0
41
1
10
76.9852207223149
20
2.65249179228297
30
0
41
1
10
76.9744966216698
20
2.74273995079037
30
0
41
1
10
76.9550189399961
20
2.83247853941856
30
0
0
SPLINE
5
BD
100
AcDbEntity
8
1
62
256
6
ByLayer
370
18
48
1
60
0
100
AcDbSpline
70
4
71
3
72
20
73
16
40
0
40
0
40
0
40
0
40
0.125
40
0.125
40
0.25
40
0.25
40
0.375
40
0.375
40
0.5
40
0.5
40
0.625
40
0.625
40
0.75
40
0.75
40
1
40
1
40
1
40
1
41
1
10
78.0349138207919
20
-1.42204835579324
30
0
41
1
10
77.9712448959615
20
-1.42545689887169
30
0
41
1
10
77.9102971129386
20
-1.41510696657932
30
0
41
1
10
77.7929858784713
20
-1.37122807731276
30
0
41
1
10
77.7366308503777
20
-1.33765653069355
30
0
41
1
10
77.6281162264871
20
-1.24930074219387
30
0
41
1
10
77.5770179804115
20
-1.19531811084457
30
0
41
1
10
77.4812057533169
20
-1.07187702749272
30
0
41
1
10
77.4363021000308
20
-1.00223086809029
30
0
41
1
10
77.3518618296518
20
-0.848771142062645
30
0
41
1
10
77.3121364445416
20
-0.764396024404277
30
0
41
1
10
77.2391982634063
20
-0.586093117703996
30
0
41
1
10
77.2058334939458
20
-0.492023333117203
30
0
41
1
10
77.114049284407
20
-0.196647874014218
30
0
41
1
10
77.0638232196253
20
0.0177895967202062
30
0
41
1
10
77.0236256191188
20
0.247812133163365
30
0
0
SPLINE
5
BE
100
AcDbEntity
8
1
62
256
6
ByLayer
370
18
48
1
60
0
100
AcDbSpline
70
4
71
3
72
32
73
28
40
0
40
0
40
0
40
0
40
0.031249999999999
40
0.031249999999999
40
0.062499999999998
40
0.062499999999998
40
0.124999999999998
40
0.124999999999998
40
0.187499999999998
40
0.187499999999998
40
0.249999999999998
40
0.249999999999998
40
0.375000000000001
40
0.375000000000001
40
0.437500000000002
40
0.437500000000002
40
0.500000000000003
40
0.500000000000003
40
0.625000000000003
40
0.625000000000003
40
0.750000000000003
40
0.750000000000003
40
0.812500000000003
40
0.812500000000003
40
0.875000000000003
40
0.875000000000003
40
1
40
1
40
1
40
1
41
1
10
5.68979264784844
20
2.72113157616533
30
0
41
1
10
5.72128944682353
20
2.78751650028573
30
0
41
1
10
5.76029899293459
20
2.85133497112747
30
0
41
1
10
5.84843629237076
20
2.97040487088009
30
0
41
1
10
5.89740895298084
20
3.02575803974176
30
0
41
1
10
6.05605709496115
20
3.18196066655719
30
0
41
1
10
6.17830675514881
20
3.2734450830859
30
0
41
1
10
6.43466403834273
20
3.43260707943173
30
0
41
1
10
6.56996105644043
20
3.50138855311761
30
0
41
1
10
6.8508328590284
20
3.6238909026687
30
0
41
1
10
6.99685979306327
20
3.6775695404626
30
0
41
1
10
7.43843324393083
20
3.81817261085459
30
0
41
1
10
7.74045714073432
20
3.88662728526356
30
0
41
1
10
8.20177088604271
20
3.96366923749136
30
0
41
1
10
8.35696327492718
20
3.9849225463806
30
0
41
1
10
8.66999411924718
20
4.01937853943673
30
0
41
1
10
8.82737174292819
20
4.03250163710749
30
0
41
1
10
9.29746503460521
20
4.06024002118752
30
0
41
1
10
9.60995385567327
20
4.06356571046723
30
0
41
1
10
10.2332365078152
20
4.04199277191873
30
0
41
1
10
10.5440276941619
20
4.01704996510128
30
0
41
1
10
11.0089060016885
20
3.95709778336749
30
0
41
1
10
11.1639315758017
20
3.93327930136812
30
0
41
1
10
11.4722779564272
20
3.87778430736074
30
0
41
1
10
11.6246373248175
20
3.84629411293773
30
0
41
1
10
12.0763122785223
20
3.7402999959391
30
0
41
1
10
12.3702346648746
20
3.65432237186846
30
0
41
1
10
12.6568892722089
20
3.55155461444696
30
0
0
SPLINE
5
BF
100
AcDbEntity
8
1
62
256
6
ByLayer
370
18
48
1
60
0
100
AcDbSpline
70
4
71
3
72
20
73
16
40
0
40
0
40
0
40
0
40
0.250000000000003
40
0.250000000000003
40
0.375000000000004
40
0.375000000000004
40
0.437500000000004
40
0.437500000000004
40
0.500000000000004
40
0.500000000000004
40
0.750000000000002
40
0.750000000000002
40
0.875000000000001
40
0.875000000000001
40
1
40
1
40
1
40
1
41
1
10
76.5136800297275
20
-6.32197547579162
30
0
41
1
10
76.3762396488729
20
-6.20791975936478
30
0
41
1
10
76.2541657464463
20
-6.05889009425493
30
0
41
1
10
76.0949540848197
20
-5.78095127853223
30
0
41
1
10
76.0458906189684
20
-5.67918491501877
30
0
41
1
10
75.9786663793151
20
-5.51203513155127
30
0
41
1
10
75.9572962150036
20
-5.45378679032001
30
0
41
1
10
75.9172186273683
20
-5.33372162583706
30
0
41
1
10
75.8984465370143
20
-5.27176164962282
30
0
41
1
10
75.8108750270761
20
-4.95239262398542
30
0
41
1
10
75.7607676191338
20
-4.66654213456536
30
0
41
1
10
75.7167463957526
20
-4.1903844873375
30
0
41
1
10
75.7073047143919
20
-4.02275186722198
30
0
41
1
10
75.6995737370766
20
-3.67720934365016
30
0
41
1
10
75.7011910337079
20
-3.49906018765566
30
0
41
1
10
75.7082466918489
20
-3.31557671136113
30
0
0
SPLINE
5
C0
100
AcDbEntity
8
1
62
256
6
ByLayer
370
18
48
1
60
0
100
AcDbSpline
70
4
71
3
72
22
73
18
40
0
40
0
40
0
40
0
40
0.125
40
0.125
40
0.25
40
0.25
40
0.375
40
0.375
40
0.5
40
0.5
40
0.625
40
0.625
40
0.75
40
0.75
40
0.875
40
0.875
40
1
40
1
40
1
40
1
41
1
10
17.0633424015146
20
-2.69684374023851
30
0
41
1
10
17.1320067267927
20
-2.52354510245883
30
0
41
1
10
17.2098824114907
20
-2.34628497816629
30
0
41
1
10
17.3803027266538
20
-1.99238607027925
30
0
41
1
10
17.4728406767433
20
-1.8157611593125
30
0
41
1
10
17.6681116365939
20
-1.4716741184275
30
0
41
1
10
17.7708369918491
20
-1.30422547651761
30
0
41
1
10
17.981515873152
20
-0.986589329238882
30
0
41
1
10
18.0894611407122
20
-0.836414275019024
30
0
41
1
10
18.3053601389457
20
-0.560588961353204
30
0
41
1
10
18.413305406506
20
-0.434949514096246
30
0
41
1
10
18.6239842878089
20
-0.214273126406198
30
0
41
1
10
18.726709643064
20
-0.119244836356899
30
0
41
1
10
18.9219806029147
20
0.0356113711413855
30
0
41
1
10
19.0145185530042
20
0.095433218318675
30
0
41
1
10
19.1849388681673
20
0.176980859693032
30
0
41
1
10
19.2628145528653
20
0.198703457270852
30
0
41
1
10
19.3314788781433
20
0.200851294115296
30
0
0
SPLINE
5
C1
100
AcDbEntity
8
1
62
256
6
ByLayer
370
18
48
1
60
0
100
AcDbSpline
70
4
71
3
72
8
73
4
40
0
40
0
40
0
40
0
40
1
40
1
40
1
40
1
41
1
10
78.9997970926515
20
-0.0990158111379174
30
0
41
1
10
78.8203945269664
20
-0.572406820172915
30
0
41
1
10
78.6484193571674
20
-1.05092554594282
30
0
41
1
10
78.4821088822992
20
-1.53389354519675
30
0
0
SPLINE
5
C2
100
AcDbEntity
8
1
62
256
6
ByLayer
370
18
48
1
60
0
100
AcDbSpline
70
4
71
3
72
12
73
8
40
0
40
0
40
0
40
0
40
0.493738216198189
40
0.493738216198189
40
0.94136150191026
40
0.94136150191026
40
1
40
1
40
1
40
1
41
1
10
42.0937538616153
20
-6.52683117749203
30
0
41
1
10
41.6824241206375
20
-6.52984718111705
30
0
41
1
10
41.2703492637055
20
-6.52160417783844
30
0
41
1
10
40.4823649520354
20
-6.48416863212776
30
0
41
1
10
40.1068726103388
20
-6.45700923305589
30
0
41
1
10
39.6827417677627
20
-6.41588912059282
30
0
41
1
10
39.633616714755
20
-6.41096857874791
30
0
41
1
10
39.58449149418
20
-6.4058906417807
30
0
0
SPLINE
5
C3
100
AcDbEntity
8
1
62
256
6
ByLayer
370
13
48
1
60
0
100
AcDbSpline
70
4
71
3
72
38
73
34
40
0
40
0
40
0
40
0
40
0.0326937669566554
40
0.0326937669566554
40
0.070316038708145
40
0.070316038708145
40
0.107938310459635
40
0.107938310459635
40
0.258427397465596
40
0.258427397465596
40
0.296049669217085
40
0.296049669217085
40
0.333671940968575
40
0.333671940968575
40
0.408916484471556
40
0.408916484471556
40
0.559405571477515
40
0.559405571477515
40
0.597027843229005
40
0.597027843229005
40
0.634650114980495
40
0.634650114980495
40
0.709894658483473
40
0.709894658483473
40
0.86038374548943
40
0.86038374548943
40
0.879194881365174
40
0.879194881365174
40
0.898006017240919
40
0.898006017240919
40
0.935628288992407
40
0.935628288992407
40
1
40
1
40
1
40
1
41
1
10
39.5844914942014
20
-6.405890641783
30
0
41
1
10
39.2586140567639
20
-6.3722056004344
30
0
41
1
10
38.9327292455705
20
-6.33159442607339
30
0
41
1
10
38.2313914879299
20
-6.2295738256783
30
0
41
1
10
37.8568316745254
20
-6.16604548405971
30
0
41
1
10
37.110235140965
20
-6.02215682848095
30
0
41
1
10
36.7378994922887
20
-5.94177326112487
30
0
41
1
10
34.8795020846447
20
-5.49954130955422
30
0
41
1
10
33.4027336390993
20
-5.01642658028351
30
0
41
1
10
31.5419326770021
20
-4.28213881558116
30
0
41
1
10
31.1690442619332
20
-4.12872857941684
30
0
41
1
10
30.4209333588645
20
-3.80983255227719
30
0
41
1
10
30.0449104677986
20
-3.64392789022648
30
0
41
1
10
28.9213086722046
20
-3.1331785343659
30
0
41
1
10
28.1768028657376
20
-2.775190682756
30
0
41
1
10
25.9488494485774
20
-1.66388952555729
30
0
41
1
10
24.470652291953
20
-0.873542425559236
30
0
41
1
10
22.6046269936672
20
0.125794053187804
30
0
41
1
10
22.2304819129972
20
0.326185697811042
30
0
41
1
10
21.4795899665972
20
0.726679515304625
30
0
41
1
10
21.1045102855653
20
0.92591224415068
30
0
41
1
10
19.9836180824353
20
1.51648228601971
30
0
41
1
10
19.2402257873448
20
1.90129220332054
30
0
41
1
10
17.0136712198166
20
3.01537272321704
30
0
41
1
10
15.5338725252792
20
3.70353561116633
30
0
41
1
10
13.84965868862
20
4.37453879120713
30
0
41
1
10
13.6622509334839
20
4.44765795446836
30
0
41
1
10
13.2867884626695
20
4.59084635833653
30
0
41
1
10
13.0987366254491
20
4.66090453892755
30
0
41
1
10
12.5362377355507
20
4.86532819813038
30
0
41
1
10
12.1625356286466
20
4.99432491895487
30
0
41
1
10
11.1520076687907
20
5.32354591192711
30
0
41
1
10
10.5169586228094
20
5.50899731606734
30
0
41
1
10
9.88292748158685
20
5.67088469275785
30
0
0
SPLINE
5
C4
100
AcDbEntity
8
1
62
256
6
ByLayer
370
18
48
1
60
0
100
AcDbSpline
70
4
71
3
72
10
73
6
40
0
40
0
40
0
40
0
40
0.5
40
0.5
40
1
40
1
40
1
40
1
41
1
10
76.5349241820632
20
-6.55732299418466
30
0
41
1
10
76.5427205726696
20
-6.52820311821407
30
0
41
1
10
76.5492232253561
20
-6.49959161249959
30
0
41
1
10
76.5587530373731
20
-6.44762415377116
30
0
41
1
10
76.5617854555616
20
-6.42444996992503
30
0
41
1
10
76.5632580969858
20
-6.40439708958917
30
0
0
SPLINE
5
C5
100
AcDbEntity
8
1
62
256
6
ByLayer
370
18
48
1
60
0
100
AcDbSpline
70
4
71
3
72
8
73
4
40
0
40
0
40
0
40
0
40
1
40
1
40
1
40
1
41
1
10
4.56434152533612
20
6.60074597346394
30
0
41
1
10
4.56431787931831
20
6.59811545695939
30
0
41
1
10
4.57324383304174
20
6.59534000933337
30
0
41
1
10
4.58746871306528
20
6.59253974935422
30
0
0
SPLINE
5
C6
100
AcDbEntity
8
1
62
256
6
ByLayer
370
18
48
1
60
0
100
AcDbSpline
70
4
71
3
72
12
73
8
40
0
40
0
40
0
40
0
40
0.250000000000008
40
0.250000000000008
40
0.500000000000016
40
0.500000000000016
40
1
40
1
40
1
40
1
41
1
10
4.58746871306533
20
6.59253974935419
30
0
41
1
10
4.60619498370002
20
6.58885336141066
30
0
41
1
10
4.63239884983213
20
6.58533397184061
30
0
41
1
10
4.69189990620271
20
6.57843120099119
30
0
41
1
10
4.72500930318128
20
6.57510767409525
30
0
41
1
10
4.82786519679178
20
6.56551554308837
30
0
41
1
10
4.90196051968812
20
6.55946928036425
30
0
41
1
10
4.97880079102461
20
6.55361889602642
30
0
0
SPLINE
5
C7
100
AcDbEntity
8
1
62
256
6
ByLayer
370
18
48
1
60
0
100
AcDbSpline
70
4
71
3
72
44
73
40
40
0
40
0
40
0
40
0
40
0.0525458465359536
40
0.0525458465359536
40
0.105091693071907
40
0.105091693071907
40
0.157637539607861
40
0.157637539607861
40
0.210183386143814
40
0.210183386143814
40
0.315275079215722
40
0.315275079215722
40
0.367820925751676
40
0.367820925751676
40
0.420366772287631
40
0.420366772287631
40
0.472912618823585
40
0.472912618823585
40
0.52545846535954
40
0.52545846535954
40
0.578004311895494
40
0.578004311895494
40
0.630550158431449
40
0.630550158431449
40
0.683096004967403
40
0.683096004967403
40
0.735641851503358
40
0.735641851503358
40
0.788187698039313
40
0.788187698039313
40
0.840733544575267
40
0.840733544575267
40
0.893279391111222
40
0.893279391111222
40
0.945825237647176
40
0.945825237647176
40
0.998371084183131
40
0.998371084183131
40
1
40
1
40
1
40
1
41
1
10
75.8710862898585
20
0.63062606910816
30
0
41
1
10
75.5583415412659
20
0.799869526198592
30
0
41
1
10
75.2455088390128
20
0.967810964951923
30
0
41
1
10
74.6203578400717
20
1.30237248507746
30
0
41
1
10
74.3078107981062
20
1.46855639788691
30
0
41
1
10
73.6819705515697
20
1.79721000040379
30
0
41
1
10
73.3690250016641
20
1.96030566039093
30
0
41
1
10
72.7422621900744
20
2.28250776267947
30
0
41
1
10
72.427888656558
20
2.44138010094869
30
0
41
1
10
71.48712201912
20
2.90993066067424
30
0
41
1
10
70.8611575659073
20
3.21096155247667
30
0
41
1
10
69.9223798625621
20
3.64139300158465
30
0
41
1
10
69.6091646489642
20
3.78098097830082
30
0
41
1
10
68.9827076447523
20
4.05344091448126
30
0
41
1
10
68.6693296417477
20
4.18604497470065
30
0
41
1
10
68.0412798581585
20
4.44235541808973
30
0
41
1
10
67.7273097905013
20
4.56635578613557
30
0
41
1
10
67.1005048683219
20
4.80450048986805
30
0
41
1
10
66.7871730609393
20
4.91846942097604
30
0
41
1
10
66.1611937473137
20
5.13625068531005
30
0
41
1
10
65.8484623298133
20
5.23978430485465
30
0
41
1
10
65.2222929209516
20
5.43506339285852
30
0
41
1
10
64.9091250342241
20
5.52747612254478
30
0
41
1
10
64.2821101008048
20
5.70242562513999
30
0
41
1
10
63.9677075085238
20
5.78459747111117
30
0
41
1
10
63.3399408403378
20
5.93769727624044
30
0
41
1
10
63.0266011385125
20
6.00856073387089
30
0
41
1
10
62.3999319468081
20
6.13761028455298
30
0
41
1
10
62.0869104603852
20
6.19584995292604
30
0
41
1
10
61.4610582969314
20
6.29825877729076
30
0
41
1
10
61.1479305237389
20
6.34203587188918
30
0
41
1
10
60.5213697800848
20
6.41895178129087
30
0
41
1
10
60.2080033344049
20
6.45179943340062
30
0
41
1
10
59.5799498664918
20
6.50422934192687
30
0
41
1
10
59.2658859315872
20
6.52352750818446
30
0
41
1
10
58.6390196149561
20
6.54909679479616
30
0
41
1
10
58.3256154023154
20
6.55571885047277
30
0
41
1
10
58.0027318164923
20
6.55581725632419
30
0
41
1
10
57.9930237236666
20
6.55581379741247
30
0
41
1
10
57.9833159169757
20
6.55580390721968
30
0
0
SPLINE
5
C8
100
AcDbEntity
8
1
62
256
6
ByLayer
370
18
48
1
60
0
100
AcDbSpline
70
4
71
3
72
36
73
32
40
0
40
0
40
0
40
0
40
0.0086584342253224
40
0.0086584342253224
40
0.0747478719436344
40
0.0747478719436344
40
0.140837309661946
40
0.140837309661946
40
0.206926747380258
40
0.206926747380258
40
0.27301618509857
40
0.27301618509857
40
0.339105622816882
40
0.339105622816882
40
0.405195060535194
40
0.405195060535194
40
0.471284498253505
40
0.471284498253505
40
0.537373935971817
40
0.537373935971817
40
0.603463373690129
40
0.603463373690129
40
0.669552811408441
40
0.669552811408441
40
0.735642249126753
40
0.735642249126753
40
0.867821124563376
40
0.867821124563376
40
0.933910562281688
40
0.933910562281688
40
1
40
1
40
1
40
1
41
1
10
29.9139778342694
20
-4.4150694372124
30
0
41
1
10
29.8727912968548
20
-4.43123933283945
30
0
41
1
10
29.8316059758851
20
-4.44733629805029
30
0
41
1
10
29.4760840299269
20
-4.58567089650148
30
0
41
1
10
29.1623727715126
20
-4.70400831026524
30
0
41
1
10
28.5350766977853
20
-4.92978798611102
30
0
41
1
10
28.2215465044307
20
-5.0367159859494
30
0
41
1
10
27.5948549395632
20
-5.24169609622936
30
0
41
1
10
27.2813446537431
20
-5.33930947599194
30
0
41
1
10
26.6536751551387
20
-5.52387204354318
30
0
41
1
10
26.3399129809928
20
-5.61101783012671
30
0
41
1
10
25.7111438771948
20
-5.77181064008721
30
0
41
1
10
25.3965331067366
20
-5.84660303790074
30
0
41
1
10
24.7699384252683
20
-5.98528555547944
30
0
41
1
10
24.4572590496286
20
-6.04892394067878
30
0
41
1
10
23.8331002153732
20
-6.16203357812705
30
0
41
1
10
23.5219918851387
20
-6.21147036939439
30
0
41
1
10
22.8998077724648
20
-6.29995487594164
30
0
41
1
10
22.5887877053093
20
-6.3384549311973
30
0
41
1
10
21.9676841363366
20
-6.40278106562872
30
0
41
1
10
21.6573235937563
20
-6.42782859546028
30
0
41
1
10
21.0361719195667
20
-6.46488267368343
30
0
41
1
10
20.7257158259971
20
-6.47772664717141
30
0
41
1
10
20.1040930189984
20
-6.49048526530754
30
0
41
1
10
19.7928100346596
20
-6.49023886672867
30
0
41
1
10
18.8584058454609
20
-6.4702472024295
30
0
41
1
10
18.2334366104925
20
-6.43236351189955
30
0
41
1
10
17.2907201138182
20
-6.33483309004441
30
0
41
1
10
16.9755654119138
20
-6.29569860597167
30
0
41
1
10
16.3462781265204
20
-6.2053893085839
30
0
41
1
10
16.0314153688483
20
-6.15424893112129
30
0
41
1
10
15.7162195144072
20
-6.09678337864989
30
0
0
SPLINE
5
C9
100
AcDbEntity
8
1
62
256
6
ByLayer
370
18
48
1
60
0
100
AcDbSpline
70
4
71
4
72
10
73
5
40
0
40
0
40
0
40
0
40
0
40
1
40
1
40
1
40
1
40
1
41
1
10
20.7407725049691
20
0.24493434254066
30
0
41
1
10
20.3884490982627
20
0.23391358043429
30
0
41
1
10
20.0361256915563
20
0.222892818327921
30
0
41
1
10
19.6838022848498
20
0.21187205622158
30
0
41
1
10
19.3314788781434
20
0.200851294115239
30
0
0
SPLINE
5
CA
100
AcDbEntity
8
1
62
256
6
ByLayer
370
18
48
1
60
0
100
AcDbSpline
70
4
71
3
72
12
73
8
40
0
40
0
40
0
40
0
40
0.0641684173175374
40
0.0641684173175374
40
0.376112278211692
40
0.376112278211692
40
1
40
1
40
1
40
1
41
1
10
4.64427432162762
20
-6.58402198268402
30
0
41
1
10
4.65005978760996
20
-6.58330539857812
30
0
41
1
10
4.65602954510302
20
-6.58259255371433
30
0
41
1
10
4.69189990620478
20
-6.57843120099099
30
0
41
1
10
4.72500930318313
20
-6.57510767409508
30
0
41
1
10
4.82786519679297
20
-6.56551554308825
30
0
41
1
10
4.90196051968869
20
-6.55946928036423
30
0
41
1
10
4.97880079102458
20
-6.55361889602645
30
0
0
SPLINE
5
CB
100
AcDbEntity
8
1
62
256
6
ByLayer
370
18
48
1
60
0
100
AcDbSpline
70
4
71
4
72
10
73
5
40
0
40
0
40
0
40
0
40
0
40
1
40
1
40
1
40
1
40
1
41
1
10
17.0633424015149
20
-2.69684374023865
30
0
41
1
10
16.7265616796722
20
-3.5468286500074
30
0
41
1
10
16.3897809578296
20
-4.39681355977612
30
0
41
1
10
16.053000235987
20
-5.24679846954484
30
0
41
1
10
15.7162195141443
20
-6.09678337931356
30
0
0
SPLINE
5
CC
100
AcDbEntity
8
1
62
256
6
ByLayer
370
18
48
1
60
0
100
AcDbSpline
70
4
71
1
72
4
73
2
40
0
40
0
40
1
40
1
41
1
10
76.5632580969855
20
-6.40439708959292
30
0
41
1
10
78.0304463779376
20
-1.45125246280742
30
0
0
SPLINE
5
CD
100
AcDbEntity
8
1
62
256
6
ByLayer
370
13
48
1
60
0
100
AcDbSpline
70
4
71
3
72
60
73
56
40
0
40
0
40
0
40
0
40
0.0032318060103414
40
0.0177389122068461
40
0.0322460184033511
40
0.0612602307963608
40
0.0757673369928661
40
0.0902744431893706
40
0.11928865558238
40
0.133795761778886
40
0.14830286797539
40
0.1773170803684
40
0.191824186564904
40
0.206331292761409
40
0.235345505154419
40
0.249852611350924
40
0.26435971754743
40
0.293373929940439
40
0.307881036136943
40
0.322388142333449
40
0.351402354726459
40
0.365909460922962
40
0.380416567119469
40
0.409430779512478
40
0.423937885708983
40
0.438444991905489
40
0.467459204298498
40
0.481966310495002
40
0.496473416691508
40
0.525487629084517
40
0.539994735281022
40
0.554501841477527
40
0.583516053870537
40
0.598023160067042
40
0.612530266263547
40
0.641544478656557
40
0.656051584853061
40
0.670558691049567
40
0.699572903442576
40
0.714080009639081
40
0.728587115835586
40
0.757601328228595
40
0.7721084344251
40
0.786615540621606
40
0.815629753014615
40
0.83013685921112
40
0.844643965407625
40
0.873658177800635
40
0.88816528399714
40
0.902672390193645
40
0.931686602586654
40
0.946193708783159
40
0.960700814979664
40
0.989715027372674
40
1
40
1
40
1
40
1
41
1
10
64.0645102554028
20
-2.58666442727571
30
0
41
1
10
64.0381118986984
20
-2.58918642443072
30
0
41
1
10
63.8932137004378
20
-2.60293024985614
30
0
41
1
10
63.6298014138125
20
-2.62692368938662
30
0
41
1
10
63.1559095959757
20
-2.66693826193133
30
0
41
1
10
62.6819499456816
20
-2.70247258573289
30
0
41
1
10
62.2079261222304
20
-2.73346465246695
30
0
41
1
10
61.734034825977
20
-2.76111326262026
30
0
41
1
10
61.2600756447734
20
-2.78414423596908
30
0
41
1
10
60.7860523390398
20
-2.80252833482575
30
0
41
1
10
60.3121614158811
20
-2.81743167745154
30
0
41
1
10
59.8382020925283
20
-2.82763218430708
30
0
41
1
10
59.3641777149664
20
-2.83311935875975
30
0
41
1
10
58.8902856296167
20
-2.83503035770497
30
0
41
1
10
58.4163254174711
20
-2.83222579842885
30
0
41
1
10
57.9423012594024
20
-2.82474758723598
30
0
41
1
10
57.4684098135843
20
-2.81366388782763
30
0
41
1
10
56.994450605475
20
-2.7979263374888
30
0
41
1
10
56.5204269245775
20
-2.77759679347042
30
0
41
1
10
56.0465354048504
20
-2.75367257011072
30
0
41
1
10
55.5725756610717
20
-2.72521448003741
30
0
41
1
10
55.0985517181326
20
-2.69232058128571
30
0
41
1
10
54.6246601667675
20
-2.65589539471682
30
0
41
1
10
54.1507003828987
20
-2.61511616966354
30
0
41
1
10
53.6766761216967
20
-2.57010155691213
30
0
41
1
10
53.2027845679524
20
-2.52166175561004
30
0
41
1
10
52.7288252964664
20
-2.46910671304852
30
0
41
1
10
52.2548020906007
20
-2.41258950381948
30
0
41
1
10
51.7809114362543
20
-2.35280536148991
30
0
41
1
10
51.3069526110406
20
-2.28920271318032
30
0
41
1
10
50.8329285837559
20
-2.22195423424176
30
0
41
1
10
50.3590363932874
20
-2.15163790493799
30
0
41
1
10
49.8850756439451
20
-2.07785148480477
30
0
41
1
10
49.4110507641697
20
-2.00079572333891
30
0
41
1
10
48.9371585239106
20
-1.92091797808408
30
0
41
1
10
48.46319856804
20
-1.83796940180002
30
0
41
1
10
47.9891747534425
20
-1.75216852551694
30
0
41
1
10
47.5152836941076
20
-1.66382788021011
30
0
41
1
10
47.0413249651592
20
-1.57285528639901
30
0
41
1
10
46.5673020994655
20
-1.4794860605551
30
0
41
1
10
46.0934115165538
20
-1.38389420022341
30
0
41
1
10
45.6194522827699
20
-1.28614623470773
30
0
41
1
10
45.1454275514566
20
-1.18649267642064
30
0
41
1
10
44.671535018524
20
-1.08496432219602
30
0
41
1
10
44.1975744752589
20
-0.981782945423134
30
0
41
1
10
43.7235505515231
20
-0.877205319556936
30
0
41
1
10
43.2496594919641
20
-0.771125345253552
30
0
41
1
10
42.7757007385034
20
-0.663923224832644
30
0
41
1
10
42.30167727345
20
-0.555872044002825
30
0
41
1
10
41.8277859000164
20
-0.446716664827079
30
0
41
1
10
41.3538261944023
20
-0.336981860584785
30
0
41
1
10
40.8798022185908
20
-0.226931037338858
30
0
41
1
10
40.4059106071156
20
-0.116179094961098
30
0
41
1
10
39.9664359366945
20
-0.01345394602032
30
0
41
1
10
39.6454117868038
20
0.0614300357530624
30
0
41
1
10
39.5614018191119
20
0.0810375236061418
30
0
0
SPLINE
5
CE
100
AcDbEntity
8
1
62
256
6
ByLayer
370
18
48
1
60
0
100
AcDbSpline
70
4
71
3
72
10
73
6
40
0
40
0
40
0
40
0
40
0.5
40
0.5
40
1
40
1
40
1
40
1
41
1
10
76.9550189399978
20
2.83247853941853
30
0
41
1
10
76.936676679422
20
2.916985956877
30
0
41
1
10
76.9243994282427
20
3.00182763762896
30
0
41
1
10
76.9145616912624
20
3.17243471887679
30
0
41
1
10
76.9169005349017
20
3.25819191671056
30
0
41
1
10
76.9293481883759
20
3.3446577682837
30
0
0
SPLINE
5
CF
100
AcDbEntity
8
1
62
256
6
ByLayer
370
18
48
1
60
0
100
AcDbSpline
70
4
71
3
72
8
73
4
40
0
40
0
40
0
40
0
40
1
40
1
40
1
40
1
41
1
10
78.4821088822989
20
1.53389354519763
30
0
41
1
10
78.0828842227914
20
2.69324767011344
30
0
41
1
10
77.687440535806
20
3.85389198539269
30
0
41
1
10
77.2958032087878
20
5.01583515405437
30
0
0
SPLINE
5
D0
100
AcDbEntity
8
1
62
256
6
ByLayer
370
18
48
1
60
0
100
AcDbSpline
70
4
71
1
72
4
73
2
40
0
40
0
40
1
40
1
41
1
10
78.0304463779372
20
-1.4512524628073
30
0
41
1
10
78.0381258989034
20
-1.4253268345127
30
0
0
SPLINE
5
D1
100
AcDbEntity
8
1
62
256
6
ByLayer
370
18
48
1
60
0
100
AcDbSpline
70
4
71
3
72
10
73
6
40
0
40
0
40
0
40
0
40
0.5
40
0.5
40
1
40
1
40
1
40
1
41
1
10
5.47370453938802
20
2.1633369488039
30
0
41
1
10
5.50311396560843
20
2.26022702872348
30
0
41
1
10
5.53632997258444
20
2.35602829580398
30
0
41
1
10
5.60862535847548
20
2.54203096381576
30
0
41
1
10
5.64781786384299
20
2.63266249543821
30
0
41
1
10
5.68979264784844
20
2.72113157616533
30
0
0
SPLINE
5
D2
100
AcDbEntity
8
1
62
256
6
ByLayer
370
18
48
1
60
0
100
AcDbSpline
70
4
71
3
72
10
73
6
40
0
40
0
40
0
40
0
40
0.5
40
0.5
40
1
40
1
40
1
40
1
41
1
10
76.5632580969854
20
-6.40439708959448
30
0
41
1
10
76.5578954019553
20
-6.38497379295967
30
0
41
1
10
76.5506198295176
20
-6.36868423275141
30
0
41
1
10
76.5337380325907
20
-6.34153393267354
30
0
41
1
10
76.5241613808293
20
-6.33067348726033
30
0
41
1
10
76.5136800297274
20
-6.32197547579165
30
0
0
SPLINE
5
D3
100
AcDbEntity
8
1
62
256
6
ByLayer
370
18
48
1
60
0
100
AcDbSpline
70
4
71
3
72
12
73
8
40
0
40
0
40
0
40
0
40
0.5
40
0.5
40
0.75
40
0.75
40
1
40
1
40
1
40
1
41
1
10
5.10872480368727
20
2.29558706348482
30
0
41
1
10
5.01545756865261
20
2.34227407852569
30
0
41
1
10
4.92410752652279
20
2.39264921807816
30
0
41
1
10
4.7904278440148
20
2.4745353255459
30
0
41
1
10
4.74613276833679
20
2.50310147952462
30
0
41
1
10
4.6604065339171
20
2.56153478939137
30
0
41
1
10
4.61909743156133
20
2.59129306158681
30
0
41
1
10
4.57935532511561
20
2.62163264022215
30
0
0
SPLINE
5
D4
100
AcDbEntity
8
1
62
256
6
ByLayer
370
18
48
1
60
0
100
AcDbSpline
70
4
71
3
72
8
73
4
40
0
40
0
40
0
40
0
40
1
40
1
40
1
40
1
41
1
10
4.97880079100867
20
-6.55361889602764
30
0
41
1
10
5.26260915506157
20
-6.53201059117521
30
0
41
1
10
5.54629456497793
20
-6.50500974776645
30
0
41
1
10
5.82991969394666
20
-6.47269820494375
30
0
0
SPLINE
5
D5
100
AcDbEntity
8
1
62
256
6
ByLayer
370
18
48
1
60
0
100
AcDbSpline
70
4
71
3
72
58
73
54
40
0
40
0
40
0
40
0
40
0.0163077049383594
40
0.0163077049383594
40
0.0480397144564777
40
0.0480397144564777
40
0.111503733492714
40
0.111503733492714
40
0.143235743010831
40
0.143235743010831
40
0.174967752528949
40
0.174967752528949
40
0.206699762047066
40
0.206699762047066
40
0.238431771565184
40
0.238431771565184
40
0.301895790601419
40
0.301895790601419
40
0.333627800119536
40
0.333627800119536
40
0.365359809637654
40
0.365359809637654
40
0.428823828673889
40
0.428823828673889
40
0.460555838192007
40
0.460555838192007
40
0.492287847710125
40
0.492287847710125
40
0.555751866746361
40
0.555751866746361
40
0.587483876264478
40
0.587483876264478
40
0.619215885782596
40
0.619215885782596
40
0.68267990481883
40
0.68267990481883
40
0.714411914336947
40
0.714411914336947
40
0.746143923855064
40
0.746143923855064
40
0.809607942891298
40
0.809607942891298
40
0.841339952409415
40
0.841339952409415
40
0.873071961927532
40
0.873071961927532
40
0.904803971445649
40
0.904803971445649
40
0.936535980963766
40
0.936535980963766
40
0.968267990481883
40
0.968267990481883
40
1
40
1
40
1
40
1
41
1
10
41.3403375062757
20
6.68685468628061
30
0
41
1
10
41.532188801474
20
6.6872074098296
30
0
41
1
10
41.7240131408028
20
6.68505501151839
30
0
41
1
10
42.2883638841404
20
6.67133997785714
30
0
41
1
10
42.6606546450491
20
6.65282183418188
30
0
41
1
10
43.7772364438896
20
6.56919731138819
30
0
41
1
10
44.5211531242798
20
6.4759917483839
30
0
41
1
10
45.6408227086673
20
6.28130474381032
30
0
41
1
10
46.0139584417458
20
6.20739280992203
30
0
41
1
10
46.7588465444583
20
6.04242194140241
30
0
41
1
10
47.1308980525531
20
5.95131951832559
30
0
41
1
10
47.8750099587406
20
5.75256635986449
30
0
41
1
10
48.2470733013035
20
5.64492205883201
30
0
41
1
10
48.991852724458
20
5.41364665139668
30
0
41
1
10
49.3648728434803
20
5.28992549749896
30
0
41
1
10
50.4842366115275
20
4.89661672135247
30
0
41
1
10
51.2278495571043
20
4.60586510944481
30
0
41
1
10
52.3437488393044
20
4.1328833759739
30
0
41
1
10
52.7158677145092
20
3.96918770165698
30
0
41
1
10
53.4608775634921
20
3.63034223961444
30
0
41
1
10
53.8342449167395
20
3.4550069051943
30
0
41
1
10
54.9523456632942
20
2.91604366195608
30
0
41
1
10
55.6955495671763
20
2.53909805728958
30
0
41
1
10
56.8113214017295
20
1.95438278272832
30
0
41
1
10
57.1834992339684
20
1.75642354992016
30
0
41
1
10
57.9288541311528
20
1.35521629699679
30
0
41
1
10
58.3021028789766
20
1.15200062319573
30
0
41
1
10
59.4191655193877
20
0.53979211364441
30
0
41
1
10
60.1619841808747
20
0.126977639979998
30
0
41
1
10
61.2778448960217
20
-0.491163647720612
30
0
41
1
10
61.6501102079075
20
-0.696958524567066
30
0
41
1
10
62.3959157565759
20
-1.10686312195222
30
0
41
1
10
62.7685325594784
20
-1.31038679067876
30
0
41
1
10
63.8846482090043
20
-1.91390544326458
30
0
41
1
10
64.6272377011609
20
-2.30723481127882
30
0
41
1
10
65.7433265029118
20
-2.87602597344633
30
0
41
1
10
66.1161343587075
20
-3.06220135529114
30
0
41
1
10
66.8614096031721
20
-3.42544401292537
30
0
41
1
10
67.2334060819602
20
-3.60222070793452
30
0
41
1
10
68.348673665996
20
-4.11627204048304
30
0
41
1
10
69.091152715962
20
-4.43737633122345
30
0
41
1
10
70.2077037916807
20
-4.88033689560859
30
0
41
1
10
70.5807182643008
20
-5.02166190698694
30
0
41
1
10
71.3254375216562
20
-5.28934796867085
30
0
41
1
10
71.6973955767793
20
-5.41580937926759
30
0
41
1
10
72.4412833364497
20
-5.65315379807433
30
0
41
1
10
72.8132436825923
20
-5.76400779128406
30
0
41
1
10
73.557861236318
20
-5.96939820685162
30
0
41
1
10
73.9307764191288
20
-6.06397834337196
30
0
41
1
10
74.6753063687401
20
-6.23542854714546
30
0
41
1
10
75.0472101507322
20
-6.31239608386988
30
0
41
1
10
75.79094856921
20
-6.44841329500611
30
0
41
1
10
76.1625900075686
20
-6.50754521773422
30
0
41
1
10
76.5349241820632
20
-6.55732299418466
30
0
0
SPLINE
5
D6
100
AcDbEntity
8
1
62
256
6
ByLayer
370
18
48
1
60
0
100
AcDbSpline
70
4
71
3
72
40
73
36
40
0
40
0
40
0
40
0
40
0.0896135276764509
40
0.0896135276764509
40
0.179227055352902
40
0.179227055352902
40
0.224033819191126
40
0.224033819191126
40
0.268840583029351
40
0.268840583029351
40
0.313647346867576
40
0.313647346867576
40
0.358454110705801
40
0.358454110705801
40
0.403260874544025
40
0.403260874544025
40
0.44806763838225
40
0.44806763838225
40
0.492874402220475
40
0.492874402220475
40
0.537681166058699
40
0.537681166058699
40
0.627294693735147
40
0.627294693735147
40
0.67210145757337
40
0.67210145757337
40
0.716908221411594
40
0.716908221411594
40
0.80652174908804
40
0.80652174908804
40
0.851328512926264
40
0.851328512926264
40
0.896135276764488
40
0.896135276764488
40
1
40
1
40
1
40
1
41
1
10
20.7407725049691
20
0.24493434254066
30
0
41
1
10
21.3246119265098
20
-0.0760064108606286
30
0
41
1
10
21.907771790589
20
-0.395087465106144
30
0
41
1
10
23.0722011733892
20
-1.03060649751907
30
0
41
1
10
23.6540560238935
20
-1.34595409529547
30
0
41
1
10
24.5289002516423
20
-1.81065782539193
30
0
41
1
10
24.8209162474588
20
-1.96458870002726
30
0
41
1
10
25.4046789188562
20
-2.26890537085387
30
0
41
1
10
25.6963391155473
20
-2.41874956222699
30
0
41
1
10
26.2791149951839
20
-2.71403880244793
30
0
41
1
10
26.5700235140941
20
-2.85982031949089
30
0
41
1
10
27.1522023792051
20
-3.1454643185858
30
0
41
1
10
27.4434041365634
20
-3.28545743764465
30
0
41
1
10
28.0255210075706
20
-3.56057667246412
30
0
41
1
10
28.316778390475
20
-3.69515470958396
30
0
41
1
10
28.9001409717953
20
-3.95766179407667
30
0
41
1
10
29.1921911285613
20
-4.08619938378757
30
0
41
1
10
29.775576716854
20
-4.33540371016616
30
0
41
1
10
30.0671249806553
20
-4.45593005833024
30
0
41
1
10
30.6494750490071
20
-4.68951352637802
30
0
41
1
10
30.9403035580179
20
-4.80250999134162
30
0
41
1
10
31.8133780052828
20
-5.12805972383049
30
0
41
1
10
32.3951047491007
20
-5.32854629448417
30
0
41
1
10
33.2702856207175
20
-5.60079335132892
30
0
41
1
10
33.5622038405027
20
-5.68720402349032
30
0
41
1
10
34.1452034123126
20
-5.84937205010726
30
0
41
1
10
34.4365973956565
20
-5.92520467637894
30
0
41
1
10
35.3095151917907
20
-6.13780573254638
30
0
41
1
10
35.8911706455231
20
-6.25852703384197
30
0
41
1
10
36.7643641174512
20
-6.40723511105563
30
0
41
1
10
37.0557912517262
20
-6.45126784886557
30
0
41
1
10
37.6393263218842
20
-6.52826086577548
30
0
41
1
10
37.9309758365798
20
-6.56125765719946
30
0
41
1
10
38.8976128527694
20
-6.65137209905157
30
0
41
1
10
39.5713526394424
20
-6.6836008361127
30
0
41
1
10
40.2457073197075
20
-6.68488056395833
30
0
0
SPLINE
5
D7
100
AcDbEntity
8
1
62
256
6
ByLayer
370
18
48
1
60
0
100
AcDbSpline
70
4
71
3
72
26
73
22
40
0
40
0
40
0
40
0
40
0.0833167488815515
40
0.0833167488815515
40
0.185170443450268
40
0.185170443450268
40
0.287024138018985
40
0.287024138018985
40
0.388877832587701
40
0.388877832587701
40
0.490731527156417
40
0.490731527156417
40
0.592585221725134
40
0.592585221725134
40
0.694438916293851
40
0.694438916293851
40
0.796292610862568
40
0.796292610862568
40
0.898146305431284
40
0.898146305431284
40
1
40
1
40
1
40
1
41
1
10
68.0548121134086
20
4.44479125376219
30
0
41
1
10
68.2924458051425
20
4.54413279774261
30
0
41
1
10
68.5300557447576
20
4.64075639771167
30
0
41
1
10
69.0578219603426
20
4.84983111875806
30
0
41
1
10
69.3479175220731
20
4.96098364971559
30
0
41
1
10
69.9288181040327
20
5.17420169115772
30
0
41
1
10
70.2194760138648
20
5.27646320125328
30
0
41
1
10
70.8010113282909
20
5.47243318269435
30
0
41
1
10
71.0924554326501
20
5.56583554464063
30
0
41
1
10
71.6745756004524
20
5.74252258002804
30
0
41
1
10
71.9650563104872
20
5.8261866461701
30
0
41
1
10
72.546090403891
20
5.98300900744951
30
0
41
1
10
72.8367082355678
20
6.05614749476871
30
0
41
1
10
73.4175060437624
20
6.1923848207029
30
0
41
1
10
73.707899311604
20
6.25529424005563
30
0
41
1
10
74.2894958927778
20
6.37012766886832
30
0
41
1
10
74.580700241804
20
6.42223916138437
30
0
41
1
10
75.1626216094757
20
6.51533367722027
30
0
41
1
10
75.4533934004958
20
6.55616823576975
30
0
41
1
10
76.0345655085488
20
6.62652170568725
30
0
41
1
10
76.3246892717534
20
6.65611842720901
30
0
41
1
10
76.6150302133192
20
6.67990793885824
30
0
0
SPLINE
5
D8
100
AcDbEntity
8
1
62
256
6
ByLayer
370
18
48
1
60
0
100
AcDbSpline
70
4
71
3
72
8
73
4
40
0
40
0
40
0
40
0
40
1
40
1
40
1
40
1
41
1
10
78.0349138207919
20
-1.42204835579321
30
0
41
1
10
78.0359844721801
20
-1.42314122251031
30
0
41
1
10
78.0370551648858
20
-1.42423404875146
30
0
41
1
10
78.038125898904
20
-1.42532683451213
30
0
0
SPLINE
5
D9
100
AcDbEntity
8
1
62
256
6
ByLayer
370
18
48
1
60
0
100
AcDbSpline
70
4
71
3
72
8
73
4
40
0
40
0
40
0
40
0
40
1
40
1
40
1
40
1
41
1
10
75.8710862898585
20
0.630626069108132
30
0
41
1
10
76.2523628923248
20
0.487278232419584
30
0
41
1
10
76.6364261970181
20
0.359041989854575
30
0
41
1
10
77.0236256191189
20
0.247812133163308
30
0
0
SPLINE
5
DA
100
AcDbEntity
8
1
62
256
6
ByLayer
370
18
48
1
60
0
100
AcDbSpline
70
4
71
3
72
10
73
6
40
0
40
0
40
0
40
0
40
0.5
40
0.5
40
1
40
1
40
1
40
1
41
1
10
76.929348188376
20
3.34465776828361
30
0
41
1
10
76.9701389124569
20
3.62800472208943
30
0
41
1
10
77.0259188738034
20
3.90779197200763
30
0
41
1
10
77.1514681884215
20
4.46404421521825
30
0
41
1
10
77.2215939806291
20
4.7404245599696
30
0
41
1
10
77.2958032087877
20
5.01583515405437
30
0
0
SPLINE
5
DB
100
AcDbEntity
8
1
62
256
6
ByLayer
370
18
48
1
60
0
100
AcDbSpline
70
4
71
3
72
8
73
4
40
0
40
0
40
0
40
0
40
1
40
1
40
1
40
1
41
1
10
77.0236256191187
20
0.247812133163365
30
0
41
1
10
76.9361437138242
20
0.279575370077339
30
0
41
1
10
76.8502371257571
20
0.309348590261436
30
0
41
1
10
76.76825264138
20
0.336025061383936
30
0
0
SPLINE
5
DC
100
AcDbEntity
8
1
62
256
6
ByLayer
370
18
48
1
60
0
100
AcDbSpline
70
4
71
3
72
10
73
6
40
0
40
0
40
0
40
0
40
0.5
40
0.5
40
1
40
1
40
1
40
1
41
1
10
76.6150302133192
20
6.67990793885824
30
0
41
1
10
76.7267186979822
20
6.41229512429288
30
0
41
1
10
76.8396528545636
20
6.13997964920455
30
0
41
1
10
77.0669704762533
20
5.58556631953965
30
0
41
1
10
77.1813643938754
20
5.30349377752665
30
0
41
1
10
77.2958032087877
20
5.01583515405437
30
0
0
SPLINE
5
DD
100
AcDbEntity
8
1
62
256
6
ByLayer
370
18
48
1
60
0
100
AcDbSpline
70
4
71
3
72
110
73
106
40
0
40
0
40
0
40
0
40
0.0108765897151294
40
0.0108765897151294
40
0.0304021102198493
40
0.0304021102198493
40
0.0499276307245692
40
0.0499276307245692
40
0.0694531512292891
40
0.0694531512292891
40
0.088978671734009
40
0.088978671734009
40
0.108504192238729
40
0.108504192238729
40
0.128029712743449
40
0.128029712743449
40
0.147555233248169
40
0.147555233248169
40
0.167080753752889
40
0.167080753752889
40
0.186606274257609
40
0.186606274257609
40
0.206131794762329
40
0.206131794762329
40
0.225657315267048
40
0.225657315267048
40
0.245182835771768
40
0.245182835771768
40
0.264708356276488
40
0.264708356276488
40
0.284233876781208
40
0.284233876781208
40
0.303759397285928
40
0.303759397285928
40
0.323284917790648
40
0.323284917790648
40
0.342810438295368
40
0.342810438295368
40
0.362335958800088
40
0.362335958800088
40
0.381861479304808
40
0.381861479304808
40
0.401386999809528
40
0.401386999809528
40
0.420912520314247
40
0.420912520314247
40
0.440438040818967
40
0.440438040818967
40
0.459963561323687
40
0.459963561323687
40
0.479489081828407
40
0.479489081828407
40
0.499014602333127
40
0.499014602333127
40
0.518540122837847
40
0.518540122837847
40
0.538065643342567
40
0.538065643342567
40
0.557591163847287
40
0.557591163847287
40
0.577116684352007
40
0.577116684352007
40
0.596642204856727
40
0.596642204856727
40
0.616167725361447
40
0.616167725361447
40
0.635693245866166
40
0.635693245866166
40
0.655218766370886
40
0.655218766370886
40
0.674744286875606
40
0.674744286875606
40
0.694269807380326
40
0.694269807380326
40
0.713795327885046
40
0.713795327885046
40
0.733320848389766
40
0.733320848389766
40
0.752846368894486
40
0.752846368894486
40
0.772371889399206
40
0.772371889399206
40
0.791897409903926
40
0.791897409903926
40
0.811422930408646
40
0.811422930408646
40
0.830948450913366
40
0.830948450913366
40
0.850473971418086
40
0.850473971418086
40
0.869999491922806
40
0.869999491922806
40
0.889525012427525
40
0.889525012427525
40
0.909050532932245
40
0.909050532932245
40
0.928576053436965
40
0.928576053436965
40
0.948101573941685
40
0.948101573941685
40
0.967627094446405
40
0.967627094446405
40
0.987152614951125
40
0.987152614951125
40
1
40
1
40
1
40
1
41
1
10
19.9021111936029
20
6.48864991354895
30
0
41
1
10
20.0773960498236
20
6.48912161126316
30
0
41
1
10
20.2527408986288
20
6.48753183752882
30
0
41
1
10
20.7422197627494
20
6.47720236383969
30
0
41
1
10
21.0560999008892
20
6.46398584144626
30
0
41
1
10
21.6838273377518
20
6.42593322112134
30
0
41
1
10
21.997324228176
20
6.40014291673828
30
0
41
1
10
22.6244745978817
20
6.33427979619813
30
0
41
1
10
22.938393628466
20
6.29494187653924
30
0
41
1
10
23.5661080390786
20
6.20465482375823
30
0
41
1
10
23.8799203773755
20
6.15423673614774
30
0
41
1
10
24.5092231783949
20
6.03870179435316
30
0
41
1
10
24.8236642744946
20
5.97398133853821
30
0
41
1
10
25.4515199798616
20
5.83373449964137
30
0
41
1
10
25.7654280910505
20
5.75856764577333
30
0
41
1
10
26.3925441500259
20
5.59680122492722
30
0
41
1
10
26.7059608583801
20
5.50903538439482
30
0
41
1
10
27.3335608197412
20
5.32332052311742
30
0
41
1
10
27.647339379152
20
5.22501286597486
30
0
41
1
10
28.2753070509335
20
5.01855845658201
30
0
41
1
10
28.5901774047977
20
4.91053465961059
30
0
41
1
10
29.2186286882538
20
4.68306871814647
30
0
41
1
10
29.5323282748183
20
4.5642385220485
30
0
41
1
10
30.1598275849465
20
4.31908418368002
30
0
41
1
10
30.473189629305
20
4.19249204886438
30
0
41
1
10
31.0998448873612
20
3.93023824479062
30
0
41
1
10
31.4135719007796
20
3.79483032283986
30
0
41
1
10
32.0410580298413
20
3.51619302541027
30
0
41
1
10
32.3548601352495
20
3.37297023521114
30
0
41
1
10
32.9835931498723
20
3.08108705832831
30
0
41
1
10
33.2977543537364
20
2.93149627505929
30
0
41
1
10
33.9249807849442
20
2.62649637451543
30
0
41
1
10
34.2385966368466
20
2.47187319600189
30
0
41
1
10
34.865185380693
20
2.15756285874033
30
0
41
1
10
35.1781556009666
20
1.99786534936504
30
0
41
1
10
35.8050374986335
20
1.67521269844841
30
0
41
1
10
36.1185661560126
20
1.51169119006315
30
0
41
1
10
36.74596040755
20
1.18134778107225
30
0
41
1
10
37.0604936071733
20
1.01500863293975
30
0
41
1
10
37.6883130968674
20
0.680257114239737
30
0
41
1
10
38.0016304806781
20
0.511877384535097
30
0
41
1
10
38.6284814874901
20
0.175706066566193
30
0
41
1
10
38.9416047461585
20
0.0071386143049779
30
0
41
1
10
39.5675818129556
20
-0.33032148050367
30
0
41
1
10
39.8808621004111
20
-0.498410645309576
30
0
41
1
10
40.5076517187482
20
-0.833964399141394
30
0
41
1
10
40.8211071987004
20
-1.00153283751465
30
0
41
1
10
41.4492353715431
20
-1.33423731193255
30
0
41
1
10
41.7631756465834
20
-1.49976489268363
30
0
41
1
10
42.3897919379012
20
-1.82679775331556
30
0
41
1
10
42.7030849941211
20
-1.98777894415943
30
0
41
1
10
43.3291708861611
20
-2.30630453108176
30
0
41
1
10
43.6418329567509
20
-2.46426850666418
30
0
41
1
10
44.2680337114434
20
-2.77358302712398
30
0
41
1
10
44.5812339315296
20
-2.92559935994822
30
0
41
1
10
45.2080393895989
20
-3.22420055851475
30
0
41
1
10
45.5222884112672
20
-3.37051902355049
30
0
41
1
10
46.1496304278035
20
-3.65682365712127
30
0
41
1
10
46.4626529041702
20
-3.79635211170293
30
0
41
1
10
47.0889221109578
20
-4.06613047951782
30
0
41
1
10
47.4018678626787
20
-4.1967936348972
30
0
41
1
10
48.0273512429851
20
-4.45121626824312
30
0
41
1
10
48.3402670078445
20
-4.57422723507239
30
0
41
1
10
48.9664734395623
20
-4.81013204803108
30
0
41
1
10
49.2796171067293
20
-4.92343730933246
30
0
41
1
10
49.9072963184754
20
-5.13993408645393
30
0
41
1
10
50.2211577459738
20
-5.24402388183299
30
0
41
1
10
50.8474312978622
20
-5.44075744673901
30
0
41
1
10
51.1604738654182
20
-5.53291728451151
30
0
41
1
10
51.7862017431165
20
-5.70655788797757
30
0
41
1
10
52.0987065403293
20
-5.78831753423904
30
0
41
1
10
52.7244446637857
20
-5.93999172807793
30
0
41
1
10
53.0374790405036
20
-6.0096343721998
30
0
41
1
10
53.6639241868351
20
-6.13667552102197
30
0
41
1
10
53.9779543288212
20
-6.19414812042302
30
0
41
1
10
54.605102175001
20
-6.29736778149609
30
0
41
1
10
54.9179963528013
20
-6.34309481889593
30
0
41
1
10
55.5439424144854
20
-6.42023552542304
30
0
41
1
10
55.8567886437307
20
-6.45206985512115
30
0
41
1
10
56.4820541808767
20
-6.50392683108083
30
0
41
1
10
56.7947872282231
20
-6.52389820603969
30
0
41
1
10
57.4206542224164
20
-6.55029211486607
30
0
41
1
10
57.7336240708361
20
-6.55636153236671
30
0
41
1
10
58.3609585345884
20
-6.55519139099269
30
0
41
1
10
58.674814645936
20
-6.54808372367157
30
0
41
1
10
59.3009644393343
20
-6.52159616723407
30
0
41
1
10
59.6138382731446
20
-6.50183501551757
30
0
41
1
10
60.2394426025774
20
-6.44869227574537
30
0
41
1
10
60.5519249568997
20
-6.41554045699274
30
0
41
1
10
61.177400674315
20
-6.3380443265105
30
0
41
1
10
61.4902358553845
20
-6.29390484263629
30
0
41
1
10
62.1163557827154
20
-6.19057005714259
30
0
41
1
10
62.4302671252768
20
-6.13175262970671
30
0
41
1
10
63.0574655918371
20
-6.00177562179778
30
0
41
1
10
63.3704404675367
20
-5.93057699802509
30
0
41
1
10
63.996375470661
20
-5.77725636192855
30
0
41
1
10
64.3092954156994
20
-5.69512951836077
30
0
41
1
10
64.9346060425474
20
-5.52005185763608
30
0
41
1
10
65.2472495236701
20
-5.42757079905914
30
0
41
1
10
65.8730015771669
20
-5.23181707317869
30
0
41
1
10
66.1858815377236
20
-5.12791164642013
30
0
41
1
10
66.8129689616305
20
-4.90922391363432
30
0
41
1
10
67.1268356290429
20
-4.79475626143528
30
0
41
1
10
67.6458744120799
20
-4.59710633244339
30
0
41
1
10
67.8517421609701
20
-4.51670586256739
30
0
41
1
10
68.0575675694931
20
-4.43445895561675
30
0
0
SPLINE
5
DE
100
AcDbEntity
8
1
62
256
6
ByLayer
370
18
48
1
60
0
100
AcDbSpline
70
4
71
3
72
8
73
4
40
0
40
0
40
0
40
0
40
1
40
1
40
1
40
1
41
1
10
78.4821088822989
20
-1.53389354519768
30
0
41
1
10
78.0828823474993
20
-2.6932531159884
30
0
41
1
10
77.6874386920633
20
-3.85389745556657
30
0
41
1
10
77.2958032087877
20
-5.0158351540544
30
0
0
SPLINE
5
DF
100
AcDbEntity
8
1
62
256
6
ByLayer
370
18
48
1
60
0
100
AcDbSpline
70
4
71
3
72
8
73
4
40
0
40
0
40
0
40
0
40
1
40
1
40
1
40
1
41
1
10
4.56469194115138
20
6.62066715093903
30
0
41
1
10
4.56458036852518
20
6.62097465842206
30
0
41
1
10
4.56446385874608
20
6.61435503255785
30
0
41
1
10
4.56434152533615
20
6.60074597346394
30
0
0
SPLINE
5
E0
100
AcDbEntity
8
1
62
256
6
ByLayer
370
18
48
1
60
0
100
AcDbSpline
70
4
71
3
72
10
73
6
40
0
40
0
40
0
40
0
40
0.5
40
0.5
40
1
40
1
40
1
40
1
41
1
10
76.6150302133192
20
-6.67990793885821
30
0
41
1
10
76.7267246747114
20
-6.4122808036642
30
0
41
1
10
76.8396619569967
20
-6.13995761506362
30
0
41
1
10
77.0669797347955
20
-5.58554357240763
30
0
41
1
10
77.1813706869033
20
-5.30347795908466
30
0
41
1
10
77.2958032087877
20
-5.01583515405443
30
0
0
SPLINE
5
E1
100
AcDbEntity
8
1
62
256
6
ByLayer
370
18
48
1
60
0
100
AcDbSpline
70
4
71
3
72
9
73
5
40
0
40
0
40
0
40
0
40
0.322637270878264
40
1
40
1
40
1
40
1
41
1
10
5.10872480368721
20
2.29558706348485
30
0
41
1
10
5.17194567250158
20
2.26394043375322
30
0
41
1
10
5.36777759604493
20
2.16569718812878
30
0
41
1
10
5.56323640177129
20
2.06700975554372
30
0
41
1
10
5.69545805874483
20
1.99997830166004
30
0
0
SPLINE
5
E2
100
AcDbEntity
8
1
62
256
6
ByLayer
370
18
48
1
60
0
100
AcDbSpline
70
4
71
3
72
8
73
4
40
0
40
0
40
0
40
0
40
1
40
1
40
1
40
1
41
1
10
78.9997970926515
20
0.0990158111379174
30
0
41
1
10
78.8208495047346
20
0.571206266636125
30
0
41
1
10
78.6488372708228
20
1.04971191870664
30
0
41
1
10
78.4821088822989
20
1.53389354519766
30
0
0
SPLINE
5
E3
100
AcDbEntity
8
1
62
256
6
ByLayer
370
18
48
1
60
0
100
AcDbSpline
70
4
71
3
72
40
73
36
40
0
40
0
40
0
40
0
40
0.125000000000001
40
0.125000000000001
40
0.250000000000001
40
0.250000000000001
40
0.375000000000001
40
0.375000000000001
40
0.437500000000001
40
0.437500000000001
40
0.500000000000001
40
0.500000000000001
40
0.5625
40
0.5625
40
0.625
40
0.625
40
0.687499999999999
40
0.687499999999999
40
0.749999999999999
40
0.749999999999999
40
0.781249999999999
40
0.781249999999999
40
0.8125
40
0.8125
40
0.84375
40
0.84375
40
0.859375
40
0.859375
40
0.875
40
0.875
40
0.9375
40
0.9375
40
0.96875
40
0.96875
40
1
40
1
40
1
40
1
41
1
10
15.7162195144073
20
-6.09678337864992
30
0
41
1
10
15.1447905520245
20
-6.00512624330128
30
0
41
1
10
14.5790698362158
20
-5.89568543774556
30
0
41
1
10
13.4596811689678
20
-5.63910153739201
30
0
41
1
10
12.9063653806171
20
-5.49028250621194
30
0
41
1
10
11.813631159002
20
-5.14703880637148
30
0
41
1
10
11.274125113638
20
-4.95302099540132
30
0
41
1
10
10.4782071228635
20
-4.6146085571597
30
0
41
1
10
10.2150349895788
20
-4.49433014663339
30
0
41
1
10
9.69351987537934
20
-4.23627665908336
30
0
41
1
10
9.43518188533739
20
-4.09847771586729
30
0
41
1
10
8.92433597269394
20
-3.80077355330542
30
0
41
1
10
8.6710478622864
20
-3.6400062157916
30
0
41
1
10
8.17930065448226
20
-3.29718759447601
30
0
41
1
10
7.93988070415102
20
-3.11520463676979
30
0
41
1
10
7.4770893974484
20
-2.72433409590516
30
0
41
1
10
7.2529792539863
20
-2.51442366871717
30
0
41
1
10
6.83344229540637
20
-2.06833419895943
30
0
41
1
10
6.63709799791627
20
-1.83165869809304
30
0
41
1
10
6.36817220563904
20
-1.45032040865854
30
0
41
1
10
6.28280509612429
20
-1.31875931233151
30
0
41
1
10
6.12217973737603
20
-1.04537472563507
30
0
41
1
10
6.04816051679353
20
-0.905637145693532
30
0
41
1
10
5.91384481535692
20
-0.619503893885792
30
0
41
1
10
5.85354269715685
20
-0.473110976829304
30
0
41
1
10
5.7745422538847
20
-0.247951578766077
30
0
41
1
10
5.75012133812848
20
-0.171968264555943
30
0
41
1
10
5.70535584967794
20
-0.0180169819685716
30
0
41
1
10
5.68501153568252
20
0.0600436779545817
30
0
41
1
10
5.59546634218665
20
0.449355659647438
30
0
41
1
10
5.56104671233294
20
0.762338708344487
30
0
41
1
10
5.56803922674754
20
1.23415492550211
30
0
41
1
10
5.58040828370355
20
1.39231252247856
30
0
41
1
10
5.62406640162959
20
1.70050485690248
30
0
41
1
10
5.65529864667045
20
1.85164541411723
30
0
41
1
10
5.69545805874674
20
1.99997830165907
30
0
0
SPLINE
5
E4
100
AcDbEntity
8
1
62
256
6
ByLayer
370
18
48
1
60
0
100
AcDbSpline
70
4
71
3
72
8
73
4
40
0
40
0
40
0
40
0
40
1
40
1
40
1
40
1
41
1
10
5.47370453937509
20
2.16333694880746
30
0
41
1
10
5.17545400829542
20
2.31756863869694
30
0
41
1
10
4.87736811569562
20
2.47040243401523
30
0
41
1
10
4.57935532511533
20
2.6216326402203
30
0
0
SPLINE
5
E5
100
AcDbEntity
8
1
62
256
6
ByLayer
370
18
48
1
60
0
100
AcDbSpline
70
4
71
3
72
16
73
12
40
0
40
0
40
0
40
0
40
0.124999999999999
40
0.124999999999999
40
0.249999999999998
40
0.249999999999998
40
0.499999999999999
40
0.499999999999999
40
0.75
40
0.75
40
1
40
1
40
1
40
1
41
1
10
12.6568892722086
20
3.55155461444707
30
0
41
1
10
12.9957195081307
20
3.43008151545834
30
0
41
1
10
13.3349331388693
20
3.30654733641006
30
0
41
1
10
14.0123612320026
20
3.05587677180196
30
0
41
1
10
14.3508287210474
20
2.92864995740331
30
0
41
1
10
15.3653942098191
20
2.54112382699046
30
0
41
1
10
16.0406522822978
20
2.27499340788918
30
0
41
1
10
17.3884990728004
20
1.72591620890549
30
0
41
1
10
18.0610885124934
20
1.44297346929943
30
0
41
1
10
19.403255664398
20
0.85850294168111
30
0
41
1
10
20.0728332065416
20
0.556985249381739
30
0
41
1
10
20.7407725049691
20
0.24493434254066
30
0
0
SPLINE
5
E6
100
AcDbEntity
8
1
62
256
6
ByLayer
370
13
48
1
60
0
100
AcDbSpline
70
4
71
3
72
32
73
28
40
0
40
0
40
0
40
0
40
0.0386473449946152
40
0.0386473449946152
40
0.0772946899892304
40
0.0772946899892304
40
0.15458937997846
40
0.15458937997846
40
0.309178759956919
40
0.309178759956919
40
0.386473449946149
40
0.386473449946149
40
0.425120794940764
40
0.425120794940764
40
0.463768139935379
40
0.463768139935379
40
0.618357519913839
40
0.618357519913839
40
0.69565220990307
40
0.69565220990307
40
0.734299554897685
40
0.734299554897685
40
0.7729468998923
40
0.7729468998923
40
0.927536279870761
40
0.927536279870761
40
1
40
1
40
1
40
1
41
1
10
76.5136800297274
20
-6.32197547579162
30
0
41
1
10
76.1394302684754
20
-6.26388755686884
30
0
41
1
10
75.7653406359683
20
-6.19685023413354
30
0
41
1
10
75.0168568775615
20
-6.04529032838786
30
0
41
1
10
74.6419104213191
20
-5.96061376735884
30
0
41
1
10
73.5220277377109
20
-5.68272408562999
30
0
41
1
10
72.7807406562242
20
-5.46553950821695
30
0
41
1
10
70.5641624504972
20
-4.7296208241624
30
0
41
1
10
69.0960765311261
20
-4.12666273682871
30
0
41
1
10
66.8759116683941
20
-3.09894044797736
30
0
41
1
10
66.1328277587357
20
-2.73580597445204
30
0
41
1
10
65.0092452274592
20
-2.16692044640516
30
0
41
1
10
64.6354720393836
20
-1.97434017727153
30
0
41
1
10
63.890914115882
20
-1.5858157487155
30
0
41
1
10
63.5197712234212
20
-1.38969147678824
30
0
41
1
10
61.667927791491
20
-0.403193045738163
30
0
41
1
10
60.1990759620729
20
0.405228996472772
30
0
41
1
10
57.9814302198605
20
1.58364455013583
30
0
41
1
10
57.239873301744
20
1.97084683079277
30
0
41
1
10
56.1198824568925
20
2.5353982978894
30
0
41
1
10
55.7444377811909
20
2.72131191891583
30
0
41
1
10
54.9967481611426
20
3.08293700907242
30
0
41
1
10
54.6240012293386
20
3.25885093263361
30
0
41
1
10
52.7645274043358
20
4.1127827844997
30
0
41
1
10
51.2897493496181
20
4.71157296805919
30
0
41
1
10
49.1098174691772
20
5.42294009241368
30
0
41
1
10
48.4120669420084
20
5.62488369079421
30
0
41
1
10
47.7098895096426
20
5.79865041638351
30
0
0
SPLINE
5
E7
100
AcDbEntity
8
1
62
256
6
ByLayer
370
13
48
1
60
0
100
AcDbSpline
70
4
71
3
72
49
73
45
40
0
40
0
40
0
40
0
40
0.0509755196433139
40
0.0509755196433139
40
0.084869251084624
40
0.084869251084624
40
0.118762982525934
40
0.118762982525934
40
0.186550445408555
40
0.254337908291175
40
0.254337908291175
40
0.288231639732485
40
0.288231639732485
40
0.322125371173795
40
0.322125371173795
40
0.389912834056416
40
0.389912834056416
40
0.457700296939036
40
0.457700296939036
40
0.491594028380346
40
0.491594028380346
40
0.525487759821656
40
0.525487759821656
40
0.593275222704277
40
0.593275222704277
40
0.661062685586897
40
0.661062685586897
40
0.694956417028208
40
0.694956417028208
40
0.728850148469518
40
0.728850148469518
40
0.796637611352138
40
0.796637611352138
40
0.864425074234759
40
0.864425074234759
40
0.93221253711738
40
0.93221253711738
40
0.96610626855869
40
0.96610626855869
40
0.983053134279345
40
0.983053134279345
40
0.991526567139672
40
0.991526567139672
40
1
40
1
40
1
40
1
41
1
10
5.1075288394662
20
-6.45405472052937
30
0
41
1
10
5.10756181570611
20
-6.44367923866815
30
0
41
1
10
5.10759228845956
20
-6.42344961857725
30
0
41
1
10
5.10764021294483
20
-6.37356798967809
30
0
41
1
10
5.10765858781082
20
-6.34927854921455
30
0
41
1
10
5.1076942335759
20
-6.29176473876328
30
0
41
1
10
5.10771150025411
20
-6.25849774994134
30
0
41
1
10
5.1077615557866
20
-6.14672594381068
30
0
41
1
10
5.10782423467714
20
-5.96510910904007
30
0
41
1
10
5.10788517651821
20
-5.71986208446862
30
0
41
1
10
5.10793216990936
20
-5.51146807746539
30
0
41
1
10
5.10794808886979
20
-5.43769763116933
30
0
41
1
10
5.10798033996525
20
-5.28312024767084
30
0
41
1
10
5.10799668061622
20
-5.20229481730246
30
0
41
1
10
5.10804665646953
20
-4.94926380040039
30
0
41
1
10
5.10808143893902
20
-4.76560281008224
30
0
41
1
10
5.1081535209392
20
-4.37578777913851
30
0
41
1
10
5.10819085752203
20
-4.16949923078329
30
0
41
1
10
5.1082488234448
20
-3.84312793715071
30
0
41
1
10
5.10826846598715
20
-3.7315058486279
30
0
41
1
10
5.10830831810563
20
-3.50251558173741
30
0
41
1
10
5.10832856087703
20
-3.38494167949853
30
0
41
1
10
5.10838910803179
20
-3.02836677928517
30
0
41
1
10
5.1084295113539
20
-2.7840717083416
30
0
41
1
10
5.10850868525472
20
-2.28275256074008
30
0
41
1
10
5.10854746067847
20
-2.02572756952176
30
0
41
1
10
5.10860253150472
20
-1.63049379642479
30
0
41
1
10
5.10862036653
20
-1.49712841207591
30
0
41
1
10
5.10865458807891
20
-1.22707013716061
30
0
41
1
10
5.10867095990943
20
-1.0904277115753
30
0
41
1
10
5.10871669033816
20
-0.680220327061704
30
0
41
1
10
5.10874292688487
20
-0.404390753592054
30
0
41
1
10
5.10878304217238
20
0.149404325190659
30
0
41
1
10
5.10879666010882
20
0.423753524809683
30
0
41
1
10
5.1088078922586
20
0.967543765940434
30
0
41
1
10
5.10880551491368
20
1.23698427400129
30
0
41
1
10
5.10878714277453
20
1.6374216011651
30
0
41
1
10
5.10877854541937
20
1.77027830300773
30
0
41
1
10
5.1087615238576
20
1.96860696933535
30
0
41
1
10
5.10875515823088
20
2.03457429525173
30
0
41
1
10
5.10874457038057
20
2.13286935036501
30
0
41
1
10
5.10874086653311
20
2.16554216833197
30
0
41
1
10
5.1087331033261
20
2.23070338309702
30
0
41
1
10
5.10872898223838
20
2.26365822681947
30
0
41
1
10
5.10872480368727
20
2.29558706348482
30
0
0
SPLINE
5
E8
100
AcDbEntity
8
1
62
256
6
ByLayer
370
13
48
1
60
0
100
AcDbSpline
70
4
71
3
72
27
73
23
40
0
40
0
40
0
40
0
40
0.045854638497579
40
0.085610695226846
40
0.125366751956114
40
0.204878865414649
40
0.244634922143916
40
0.284390978873184
40
0.363903092331719
40
0.403659149060987
40
0.443415205790254
40
0.522927319248789
40
0.562683375978057
40
0.602439432707325
40
0.681951546165859
40
0.721707602895127
40
0.761463659624395
40
0.816128237627138
40
0.84097577308293
40
0.865823308538722
40
0.920487886541465
40
1
40
1
40
1
40
1
41
1
10
26.0047034961664
20
-2.58276990146166
30
0
41
1
10
25.8680393333796
20
-2.59592117769049
30
0
41
1
10
25.6128732910534
20
-2.61957089775382
30
0
41
1
10
25.2391762651587
20
-2.65170217376956
30
0
41
1
10
24.7652847586165
20
-2.68925179183523
30
0
41
1
10
24.2913255695531
20
-2.72228185291172
30
0
41
1
10
23.8173024393166
20
-2.75073853532845
30
0
41
1
10
23.3434118156113
20
-2.77581332583583
30
0
41
1
10
22.8694529528415
20
-2.79623270506366
30
0
41
1
10
22.3954287674767
20
-2.81196056446643
30
0
41
1
10
21.9215363269772
20
-2.82417454281585
30
0
41
1
10
21.4475752501419
20
-2.83167491040405
30
0
41
1
10
20.9735501032373
20
-2.83448504765897
30
0
41
1
10
20.4996577178034
20
-2.83372149663629
30
0
41
1
10
20.0256978383848
20
-2.82826704590713
30
0
41
1
10
19.5516744137911
20
-2.81816479026912
30
0
41
1
10
19.1517925708422
20
-2.8067041919019
30
0
41
1
10
18.7963032703962
20
-2.79376612648465
30
0
41
1
10
18.4852371919931
20
-2.78041063884947
30
0
41
1
10
18.1742392633584
20
-2.76555196017614
30
0
41
1
10
17.7003742559226
20
-2.73958208548507
30
0
41
1
10
17.3003890217021
20
-2.71367164116438
30
0
41
1
10
17.0633424015149
20
-2.69684374023865
30
0
0
SPLINE
5
E9
100
AcDbEntity
8
1
62
256
6
ByLayer
370
18
48
1
60
0
100
AcDbSpline
70
4
71
3
72
11
73
7
40
0
40
0
40
0
40
0
40
0.207854609865569
40
0.447919712219404
40
0.720528266441843
40
1
40
1
40
1
40
1
41
1
10
39.5829662240355
20
0.0760047285361622
30
0
41
1
10
39.3950344290316
20
0.119945961263767
30
0
41
1
10
38.9905793435241
20
0.227007240018736
30
0
41
1
10
38.341839535023
20
0.442843146600552
30
0
41
1
10
37.6308714570786
20
0.732355956465568
30
0
41
1
10
37.1374284640405
20
0.975331836621791
30
0
41
1
10
36.8881367253147
20
1.10871819776651
30
0
0
SPLINE
5
EA
100
AcDbEntity
8
1
62
256
6
ByLayer
370
18
48
1
60
0
100
AcDbSpline
70
4
71
3
72
15
73
11
40
0
40
0
40
0
40
0
40
0.177763432646883
40
0.32325380501299
40
0.436393907755815
40
0.517096747698926
40
0.598085262688975
40
0.71144560074792
40
0.857317650619249
40
1
40
1
40
1
40
1
41
1
10
20.5162157243016
20
-0.0759498342522988
30
0
41
1
10
20.6826770298248
20
-0.114778123899981
30
0
41
1
10
20.9850788706793
20
-0.1936709089982
30
0
41
1
10
21.3926626651715
20
-0.320663835953752
30
0
41
1
10
21.7090314907228
20
-0.431862540855093
30
0
41
1
10
21.9645847752981
20
-0.529285629447031
30
0
41
1
10
22.2198205568034
20
-0.632850033324132
30
0
41
1
10
22.5354353063805
20
-0.770369431484028
30
0
41
1
10
22.9077479143444
20
-0.946408892499932
30
0
41
1
10
23.1744836747688
20
-1.08615975743692
30
0
41
1
10
23.3062503693239
20
-1.15832424949051
30
0
0
SPLINE
5
EB
100
AcDbEntity
8
1
62
256
6
ByLayer
370
18
48
1
60
0
100
AcDbSpline
70
4
71
3
72
15
73
11
40
0
40
0
40
0
40
0
40
0.175048327682277
40
0.31830675201674
40
0.429697119728049
40
0.509133514514025
40
0.588820161559011
40
0.700313239718931
40
0.843752315935353
40
1
40
1
40
1
40
1
41
1
10
58.61659689238
20
-0.0761342694205496
30
0
41
1
10
58.7830528276336
20
-0.115000776758677
30
0
41
1
10
59.0854132095454
20
-0.19394743084024
30
0
41
1
10
59.4928896566456
20
-0.320976017482792
30
0
41
1
10
59.8090733907796
20
-0.43216348474877
30
0
41
1
10
60.0643663545749
20
-0.529514584669215
30
0
41
1
10
60.3189661365041
20
-0.632846318683733
30
0
41
1
10
60.6335188887836
20
-0.769826223773634
30
0
41
1
10
61.0193676731686
20
-0.95250254463545
30
0
41
1
10
61.2999671351337
20
-1.09917624721308
30
0
41
1
10
61.4460975986031
20
-1.17921721537513
30
0
0
SPLINE
5
EC
100
AcDbEntity
8
1
62
256
6
ByLayer
370
18
48
1
60
0
100
AcDbSpline
70
4
71
3
72
22
73
18
40
0
40
0
40
0
40
0
40
0.0575586176069228
40
0.108481908912849
40
0.145783900016189
40
0.173506393366018
40
0.200004554557082
40
0.225746245019456
40
0.363971996371119
40
0.482019496320967
40
0.623002913611301
40
0.765767144176583
40
0.821156417650593
40
0.86931039815884
40
0.914693840575417
40
0.96480458079192
40
1
40
1
40
1
40
1
41
1
10
41.870874760845
20
-6.52739071033452
30
0
41
1
10
42.1793104974858
20
-6.52788240167285
30
0
41
1
10
42.7613701039767
20
-6.52885898539242
30
0
41
1
10
43.5437583134943
20
-6.52943430103321
30
0
41
1
10
44.1695860671384
20
-6.53116332489501
30
0
41
1
10
44.6525874347916
20
-6.53267323443077
30
0
41
1
10
45.0810704280048
20
-6.53297150203468
30
0
41
1
10
46.105283220523
20
-6.53456100251782
30
0
41
1
10
47.6209042393367
20
-6.53754322157604
30
0
41
1
10
49.7569465947269
20
-6.54080426713955
30
0
41
1
10
51.9170021763608
20
-6.54519401209484
30
0
41
1
10
53.7403910314108
20
-6.54720842011517
30
0
41
1
10
55.0646332917021
20
-6.55106561241067
30
0
41
1
10
55.8653325510104
20
-6.55139192720208
30
0
41
1
10
56.6376450524873
20
-6.55299927947408
30
0
41
1
10
57.3402920345227
20
-6.55540051423577
30
0
41
1
10
57.7989346496787
20
-6.55570489628957
30
0
41
1
10
57.9881603119282
20
-6.5557295300093
30
0
0
SPLINE
5
ED
100
AcDbEntity
8
1
62
256
6
ByLayer
370
18
48
1
60
0
100
AcDbSpline
70
4
71
3
72
28
73
24
40
0
40
0
40
0
40
0
40
0.034641717176513
40
0.08788017376454
40
0.129346542878279
40
0.160137964606865
40
0.187093326510191
40
0.216089893150804
40
0.261688581724367
40
0.310845025756714
40
0.351674672888073
40
0.383263794372777
40
0.411222766136204
40
0.452338289371036
40
0.504365230241023
40
0.551046061562362
40
0.618437184884814
40
0.685372799386425
40
0.750470773140926
40
0.807407550275475
40
0.874976192397614
40
0.941534699776733
40
1
40
1
40
1
40
1
41
1
10
5.10746827006656
20
-6.45298707940808
30
0
41
1
10
5.27474509168059
20
-6.45555594321215
30
0
41
1
10
5.70121672477938
20
-6.46104286407848
30
0
41
1
10
6.33640224717988
20
-6.46328499684088
30
0
41
1
10
6.96168989862215
20
-6.46487182590494
30
0
41
1
10
7.44554670828927
20
-6.46380883636263
30
0
41
1
10
7.85676350226225
20
-6.45919555491577
30
0
41
1
10
8.36243430806095
20
-6.45813555044734
30
0
41
1
10
8.97522439071457
20
-6.46345486629784
30
0
41
1
10
9.62686689422429
20
-6.47005784106216
30
0
41
1
10
10.2207874077466
20
-6.47172403264815
30
0
41
1
10
10.7170757975799
20
-6.47274356634645
30
0
41
1
10
11.2157425942469
20
-6.47384385769567
30
0
41
1
10
11.8153972583846
20
-6.47434092721764
30
0
41
1
10
12.5078302214537
20
-6.47500541603199
30
0
41
1
10
13.3303579347128
20
-6.47713518604183
30
0
41
1
10
14.226744400556
20
-6.47808560950273
30
0
41
1
10
15.2143279857221
20
-6.48022990865931
30
0
41
1
10
16.1501342317592
20
-6.48184377307609
30
0
41
1
10
17.0890758807796
20
-6.48300482530198
30
0
41
1
10
18.0352536358116
20
-6.48563932861265
30
0
41
1
10
18.9890026605286
20
-6.48639139639386
30
0
41
1
10
19.608140800635
20
-6.48788222125216
30
0
41
1
10
19.8976705142392
20
-6.48863495391137
30
0
0
SPLINE
5
EE
100
AcDbEntity
8
1
62
256
6
ByLayer
370
18
48
1
60
0
100
AcDbSpline
70
4
71
3
72
27
73
23
40
0
40
0
40
0
40
0
40
0.0643238576207341
40
0.132813411541852
40
0.202660650708545
40
0.271054413264184
40
0.349679938947974
40
0.428647051419117
40
0.466585135625515
40
0.512011649507876
40
0.564480526251634
40
0.60893094767257
40
0.640854336627947
40
0.674978736601045
40
0.718974759949888
40
0.77338087940624
40
0.82457589879507
40
0.855073658666608
40
0.883424537747124
40
0.915810074890908
40
0.959423216531066
40
1
40
1
40
1
40
1
41
1
10
19.8990465833862
20
6.48865358695997
30
0
41
1
10
19.5961839476575
20
6.48786237362668
30
0
41
1
10
18.9708450865201
20
6.48635305601746
30
0
41
1
10
18.0166374284925
20
6.48561016434854
30
0
41
1
10
17.0432687672021
20
6.48286125250812
30
0
41
1
10
16.0221801162532
20
6.48180494841483
30
0
41
1
10
14.9581509508549
20
6.47946171967794
30
0
41
1
10
14.037510714192
20
6.47804160692058
30
0
41
1
10
13.2731873658969
20
6.47692494633171
30
0
41
1
10
12.6336334496076
20
6.47531406611083
30
0
41
1
10
11.9634433673047
20
6.47439512983291
30
0
41
1
10
11.3567722770442
20
6.47403752865347
30
0
41
1
10
10.8365600676223
20
6.4730336455824
30
0
41
1
10
10.3182533008139
20
6.47190337295788
30
0
41
1
10
9.70131536006201
20
6.470490492371
30
0
41
1
10
9.01812023133519
20
6.46401509215789
30
0
41
1
10
8.37778863996681
20
6.45809396266034
30
0
41
1
10
7.85675670736862
20
6.45919736174341
30
0
41
1
10
7.44554873581313
20
6.46380829722455
30
0
41
1
10
6.96168910602592
20
6.46487203666393
30
0
41
1
10
6.40944114129834
20
6.46347030120563
30
0
41
1
10
6.01546828587257
20
6.46214089347393
30
0
41
1
10
5.82660695470605
20
6.46092632954097
30
0
0
SPLINE
5
EF
100
AcDbEntity
8
1
62
256
6
ByLayer
370
18
48
1
60
0
100
AcDbSpline
70
4
71
3
72
25
73
21
40
0
40
0
40
0
40
0
40
0.0839561226017198
40
0.163722521169641
40
0.220737171622278
40
0.291341686787443
40
0.359903279401683
40
0.419514068247402
40
0.48358111658162
40
0.550720636335481
40
0.615420952997052
40
0.675291361399502
40
0.708066059715713
40
0.748855742666566
40
0.802255161472627
40
0.83876976825506
40
0.874420323945689
40
0.910112140671904
40
0.948099637450351
40
1
40
1
40
1
40
1
41
1
10
58.006537705928
20
6.55562190420974
30
0
41
1
10
57.6098844443542
20
6.55506477626511
30
0
41
1
10
56.836292476861
20
6.5539784814307
30
0
41
1
10
55.7935296953605
20
6.55124552590078
30
0
41
1
10
54.8129748197474
20
6.55072228152088
30
0
41
1
10
53.8929869020777
20
6.54638493609204
30
0
41
1
10
52.9501035446383
20
6.54537842584855
30
0
41
1
10
52.0497320991344
20
6.54507841840478
30
0
41
1
10
51.1486976657084
20
6.54381934680944
30
0
41
1
10
50.222882033177
20
6.54185257173515
30
0
41
1
10
49.3170954832341
20
6.54034256451689
30
0
41
1
10
48.5736361026923
20
6.53969630963104
30
0
41
1
10
47.9431519846828
20
6.53802698207539
30
0
41
1
10
47.3432917384664
20
6.53685245454832
30
0
41
1
10
46.7257591281449
20
6.5362324436262
30
0
41
1
10
46.132460951886
20
6.53518371355588
30
0
41
1
10
45.6228412391559
20
6.53399447534079
30
0
41
1
10
45.1063565953096
20
6.53315295088814
30
0
41
1
10
44.5129606368894
20
6.5323249795353
30
0
41
1
10
44.0882811937136
20
6.53153293207006
30
0
41
1
10
43.8430596811645
20
6.53107740639089
30
0
0
SPLINE
5
F0
100
AcDbEntity
8
1
62
256
6
ByLayer
370
18
48
1
60
0
100
AcDbSpline
70
4
71
3
72
10
73
6
40
0
40
0
40
0
40
0
40
0.183932876972152
40
0.567123184586148
40
1
40
1
40
1
40
1
41
1
10
76.7754415969509
20
0.338701649141029
30
0
41
1
10
76.6639705396343
20
0.373711146911944
30
0
41
1
10
76.3187939913847
20
0.489956300568366
30
0
41
1
10
75.698165974766
20
0.747877966629517
30
0
41
1
10
75.1891476114241
20
0.997750014396217
30
0
41
1
10
74.9173903112593
20
1.1434246726437
30
0
0
LINE
5
7B
100
AcDbEntity
8
SK1
62
256
6
ByLayer
370
18
48
1
60
0
100
AcDbLine
10
0
20
-7
30
0
11
0
21
7
31
0
39
0
210
0
220
0
230
1
0
LINE
5
7D
100
AcDbEntity
8
SK1
62
256
6
ByLayer
370
18
48
1
60
0
100
AcDbLine
10
-45
20
3.5
30
0
11
-45
21
-3.5
31
0
39
0
210
0
220
0
230
1
0
LINE
5
7E
100
AcDbEntity
8
SK1
62
256
6
ByLayer
370
18
48
1
60
0
100
AcDbLine
10
-42.979274
20
7
30
0
11
-42.979274
21
-7
31
0
39
0
210
0
220
0
230
1
0
LINE
5
7F
100
AcDbEntity
8
1
62
256
6
ByLayer
370
18
48
1
60
0
100
AcDbLine
10
78.030446
20
-1.451252
30
0
11
78.034914
21
-1.422048
31
0
39
0
210
0
220
0
230
1
0
LINE
5
80
100
AcDbEntity
8
1
62
256
6
ByLayer
370
13
48
1
60
0
100
AcDbLine
10
1.079667
20
6.614391
30
0
11
1.079667
21
-6.614391
31
0
39
0
210
0
220
0
230
1
0
LINE
5
81
100
AcDbEntity
8
1
62
256
6
ByLayer
370
18
48
1
60
0
100
AcDbLine
10
75.708247
20
-3.315577
30
0
11
78.030446
21
-1.451252
31
0
39
0
210
0
220
0
230
1
0
LINE
5
82
100
AcDbEntity
8
1
62
256
6
ByLayer
370
13
48
1
60
0
100
AcDbLine
10
0.539068
20
6.807195
30
0
11
0.539068
21
-6.807195
31
0
39
0
210
0
220
0
230
1
0
LINE
5
83
100
AcDbEntity
8
1
62
256
6
ByLayer
370
18
48
1
60
0
100
AcDbLine
10
0
20
-7
30
0
11
0
21
7
31
0
39
0
210
0
220
0
230
1
0
LINE
5
84
100
AcDbEntity
8
1
62
256
6
ByLayer
370
18
48
1
60
0
100
AcDbLine
10
5.107474
20
-6.462227
30
0
11
5.107529
21
-6.454055
31
0
39
0
210
0
220
0
230
1
0
LINE
5
85
100
AcDbEntity
8
80
62
256
6
ByLayer
370
18
48
1
60
0
100
AcDbLine
10
0
20
0
30
0
11
-5
21
0
31
0
39
0
210
0
220
0
230
1
0
LINE
5
86
100
AcDbEntity
8
4
62
256
6
ByLayer
370
18
48
0.05
60
0
100
AcDbLine
10
79
20
0
30
0
11
0
21
0
31
0
39
0
210
0
220
0
230
1
0
LINE
5
88
100
AcDbEntity
8
SK4
62
256
6
ByLayer
370
18
48
0.05
60
0
100
AcDbLine
10
84
20
0
30
0
11
-50
21
0
31
0
39
0
210
0
220
0
230
1
0
LINE
5
8A
100
AcDbEntity
8
SK1
62
256
6
ByLayer
370
18
48
1
60
0
100
AcDbLine
10
-45
20
-3.5
30
0
11
-42.979274
21
-7
31
0
39
0
210
0
220
0
230
1
0
LINE
5
8B
100
AcDbEntity
8
SK1
62
256
6
ByLayer
370
18
48
1
60
0
100
AcDbLine
10
-42.979274
20
7
30
0
11
-45
21
3.5
31
0
39
0
210
0
220
0
230
1
0
LINE
5
8C
100
AcDbEntity
8
SK1
62
256
6
ByLayer
370
18
48
1
60
0
100
AcDbLine
10
-42.979274
20
-7
30
0
11
0
21
-7
31
0
39
0
210
0
220
0
230
1
0
LINE
5
8D
100
AcDbEntity
8
SK1
62
256
6
ByLayer
370
18
48
1
60
0
100
AcDbLine
10
0
20
7
30
0
11
-42.979274
21
7
31
0
39
0
210
0
220
0
230
1
0
LINE
5
8E
100
AcDbEntity
8
1
62
256
6
ByLayer
370
18
48
1
60
0
100
AcDbLine
10
1.079667
20
-6.614391
30
0
11
4.564654
21
-6.620664
31
0
39
0
210
0
220
0
230
1
0
LINE
5
8F
100
AcDbEntity
8
1
62
256
6
ByLayer
370
18
48
1
60
0
100
AcDbLine
10
40.246868
20
-6.684892
30
0
11
41.340892
21
-6.686862
31
0
39
0
210
0
220
0
230
1
0
LINE
5
90
100
AcDbEntity
8
1
62
256
6
ByLayer
370
18
48
1
60
0
100
AcDbLine
10
41.340892
20
6.686862
30
0
11
40.246868
21
6.684892
31
0
39
0
210
0
220
0
230
1
0
LINE
5
91
100
AcDbEntity
8
1
62
256
6
ByLayer
370
18
48
1
60
0
100
AcDbLine
10
4.564654
20
6.620664
30
0
11
1.079667
21
6.614391
31
0
39
0
210
0
220
0
230
1
0
LINE
5
92
100
AcDbEntity
8
81
62
256
6
ByLayer
370
18
48
1
60
0
100
AcDbLine
10
79
20
0
30
0
11
84
21
0
31
0
39
0
210
0
220
0
230
1
0
LINE
5
93
100
AcDbEntity
8
SK2
62
256
6
ByLayer
370
13
48
1
60
0
100
AcDbLine
10
-53.625163
20
-7
30
0
11
-53.625163
21
38.225706
31
0
39
0
210
0
220
0
230
1
0
LINE
5
95
100
AcDbEntity
8
SK2
62
256
6
ByLayer
370
13
48
1
60
0
100
AcDbLine
10
-46.5875
20
7
30
0
11
-55.625163
21
7
31
0
39
0
210
0
220
0
230
1
0
LINE
5
96
100
AcDbEntity
8
SK2
62
256
6
ByLayer
370
13
48
1
60
0
100
AcDbLine
10
-46.5875
20
-7
30
0
11
-55.625163
21
-7
31
0
39
0
210
0
220
0
230
1
0
LINE
5
97
100
AcDbEntity
8
1
62
256
6
ByLayer
370
18
48
1
60
1
100
AcDbLine
10
-53.625163
20
7
30
0
11
-53.164379
21
3.500002
31
0
39
0
210
0
220
0
230
1
0
LINE
5
98
100
AcDbEntity
8
1
62
256
6
ByLayer
370
18
48
1
60
1
100
AcDbLine
10
-53.164379
20
3.500002
30
0
11
-54.085946
21
3.499998
31
0
39
0
210
0
220
0
230
1
0
LINE
5
99
100
AcDbEntity
8
1
62
256
6
ByLayer
370
18
48
1
60
1
100
AcDbLine
10
-54.085946
20
3.499998
30
0
11
-53.625163
21
7
31
0
39
0
210
0
220
0
230
1
0
LINE
5
9A
100
AcDbEntity
8
1
62
256
6
ByLayer
370
18
48
1
60
1
100
AcDbLine
10
-53.625163
20
-7
30
0
11
-54.085946
21
-3.500002
31
0
39
0
210
0
220
0
230
1
0
LINE
5
9B
100
AcDbEntity
8
1
62
256
6
ByLayer
370
18
48
1
60
1
100
AcDbLine
10
-54.085946
20
-3.500002
30
0
11
-53.164379
21
-3.499998
31
0
39
0
210
0
220
0
230
1
0
LINE
5
9C
100
AcDbEntity
8
1
62
256
6
ByLayer
370
18
48
1
60
1
100
AcDbLine
10
-53.164379
20
-3.499998
30
0
11
-53.625163
21
-7
31
0
39
0
210
0
220
0
230
1
0
LINE
5
9D
100
AcDbEntity
8
2
62
256
6
ByLayer
370
13
48
1
60
0
100
AcDbLine
10
91.083343
20
-6.75
30
0
11
91.083343
21
36.200259
31
0
39
0
210
0
220
0
230
1
0
LINE
5
9F
100
AcDbEntity
8
2
62
256
6
ByLayer
370
13
48
1
60
0
100
AcDbLine
10
78.0053
20
6.75
30
0
11
93.083343
21
6.75
31
0
39
0
210
0
220
0
230
1
0
LINE
5
A0
100
AcDbEntity
8
2
62
256
6
ByLayer
370
13
48
1
60
0
100
AcDbLine
10
78.0053
20
-6.75
30
0
11
93.083343
21
-6.75
31
0
39
0
210
0
220
0
230
1
0
LINE
5
A1
100
AcDbEntity
8
1
62
256
6
ByLayer
370
18
48
1
60
1
100
AcDbLine
10
91.083343
20
6.75
30
0
11
91.544126
21
3.250002
31
0
39
0
210
0
220
0
230
1
0
LINE
5
A2
100
AcDbEntity
8
1
62
256
6
ByLayer
370
18
48
1
60
1
100
AcDbLine
10
91.544126
20
3.250002
30
0
11
90.622559
21
3.249998
31
0
39
0
210
0
220
0
230
1
0
LINE
5
A3
100
AcDbEntity
8
1
62
256
6
ByLayer
370
18
48
1
60
1
100
AcDbLine
10
90.622559
20
3.249998
30
0
11
91.083343
21
6.75
31
0
39
0
210
0
220
0
230
1
0
LINE
5
A4
100
AcDbEntity
8
1
62
256
6
ByLayer
370
18
48
1
60
1
100
AcDbLine
10
91.083343
20
-6.75
30
0
11
90.622559
21
-3.250002
31
0
39
0
210
0
220
0
230
1
0
LINE
5
A5
100
AcDbEntity
8
1
62
256
6
ByLayer
370
18
48
1
60
1
100
AcDbLine
10
90.622559
20
-3.250002
30
0
11
91.544126
21
-3.249998
31
0
39
0
210
0
220
0
230
1
0
LINE
5
A6
100
AcDbEntity
8
1
62
256
6
ByLayer
370
18
48
1
60
1
100
AcDbLine
10
91.544126
20
-3.249998
30
0
11
91.083343
21
-6.75
31
0
39
0
210
0
220
0
230
1
0
LINE
5
F7
100
AcDbEntity
8
1
62
256
6
ByLayer
370
18
48
1
60
1
100
AcDbLine
10
-53.625163
20
7
30
0
11
-53.164379
21
3.500002
31
0
39
0
210
0
220
0
230
1
0
LINE
5
F8
100
AcDbEntity
8
1
62
256
6
ByLayer
370
18
48
1
60
1
100
AcDbLine
10
-53.164379
20
3.500002
30
0
11
-54.085946
21
3.499998
31
0
39
0
210
0
220
0
230
1
0
LINE
5
F9
100
AcDbEntity
8
1
62
256
6
ByLayer
370
18
48
1
60
1
100
AcDbLine
10
-54.085946
20
3.499998
30
0
11
-53.625163
21
7
31
0
39
0
210
0
220
0
230
1
0
LINE
5
FB
100
AcDbEntity
8
1
62
256
6
ByLayer
370
18
48
1
60
1
100
AcDbLine
10
-53.625163
20
-7
30
0
11
-54.085946
21
-3.500002
31
0
39
0
210
0
220
0
230
1
0
LINE
5
FC
100
AcDbEntity
8
1
62
256
6
ByLayer
370
18
48
1
60
1
100
AcDbLine
10
-54.085946
20
-3.500002
30
0
11
-53.164379
21
-3.499998
31
0
39
0
210
0
220
0
230
1
0
LINE
5
FD
100
AcDbEntity
8
1
62
256
6
ByLayer
370
18
48
1
60
1
100
AcDbLine
10
-53.164379
20
-3.499998
30
0
11
-53.625163
21
-7
31
0
39
0
210
0
220
0
230
1
0
LINE
5
101
100
AcDbEntity
8
1
62
256
6
ByLayer
370
18
48
1
60
1
100
AcDbLine
10
91.083343
20
6.75
30
0
11
91.544126
21
3.250002
31
0
39
0
210
0
220
0
230
1
0
LINE
5
102
100
AcDbEntity
8
1
62
256
6
ByLayer
370
18
48
1
60
1
100
AcDbLine
10
91.544126
20
3.250002
30
0
11
90.622559
21
3.249998
31
0
39
0
210
0
220
0
230
1
0
LINE
5
103
100
AcDbEntity
8
1
62
256
6
ByLayer
370
18
48
1
60
1
100
AcDbLine
10
90.622559
20
3.249998
30
0
11
91.083343
21
6.75
31
0
39
0
210
0
220
0
230
1
0
LINE
5
105
100
AcDbEntity
8
1
62
256
6
ByLayer
370
18
48
1
60
1
100
AcDbLine
10
91.083343
20
-6.75
30
0
11
90.622559
21
-3.250002
31
0
39
0
210
0
220
0
230
1
0
LINE
5
106
100
AcDbEntity
8
1
62
256
6
ByLayer
370
18
48
1
60
1
100
AcDbLine
10
90.622559
20
-3.250002
30
0
11
91.544126
21
-3.249998
31
0
39
0
210
0
220
0
230
1
0
LINE
5
107
100
AcDbEntity
8
1
62
256
6
ByLayer
370
18
48
1
60
1
100
AcDbLine
10
91.544126
20
-3.249998
30
0
11
91.083343
21
-6.75
31
0
39
0
210
0
220
0
230
1
0
MTEXT
5
F1
100
AcDbEntity
8
SK6
62
256
6
ByLayer
370
13
48
1
60
0
100
AcDbMText
10
-11.109026
20
39.290328
30
0
210
0
220
0
230
1
1
\W0.7386;860.1-1350-057A0-PM P1BM
40
3.5
41
0
44
1.084337
50
0
71
7
72
5
7
iso_b_vert
0
MTEXT
5
F5
100
AcDbEntity
8
SK2
62
256
6
ByLayer
370
18
48
1
60
0
100
AcDbMText
10
-55.189796
20
20.409024
30
0
210
0
220
0
230
1
1
%%c
40
3.5
41
0
44
1.084337
50
90
71
7
72
5
7
iso_b_vert
0
MTEXT
5
F6
100
AcDbEntity
8
SK2
62
256
6
ByLayer
370
18
48
1
60
0
100
AcDbMText
10
-55.189796
20
25.63168
30
0
210
0
220
0
230
1
1
\W0.7145;14,000
40
3.5
41
0
44
1.084337
50
90
71
7
72
5
7
iso_b_vert
0
MTEXT
5
FF
100
AcDbEntity
8
2
62
256
6
ByLayer
370
18
48
1
60
0
100
AcDbMText
10
89.518709
20
18.75211
30
0
210
0
220
0
230
1
1
%%c
40
3.5
41
0
44
1.084337
50
90
71
7
72
5
7
iso_b_vert
0
MTEXT
5
100
100
AcDbEntity
8
2
62
256
6
ByLayer
370
18
48
1
60
0
100
AcDbMText
10
89.518709
20
23.974766
30
0
210
0
220
0
230
1
1
\W0.6930;13,500
40
3.5
41
0
44
1.084337
50
90
71
7
72
5
7
iso_b_vert
0
HATCH
5
FA
100
AcDbEntity
8
SK2
62
256
6
ByLayer
370
13
48
1
60
0
100
AcDbHatch
10
0
20
0
30
0
210
0
220
0
230
1
2
ANSI31
70
0
71
0
91
1
92
5
93
3
72
1
10
-53.6251625675374
20
7
11
-53.1643788259847
21
3.50000169255318
72
1
10
-53.1643788259847
20
3.50000169255318
11
-54.0859463090902
21
3.49999830744682
72
1
10
-54.0859463090902
20
3.49999830744682
11
-53.6251625675374
21
7
97
0
75
0
76
1
52
0
41
0.0062
77
0
78
1
53
45
43
0
44
0
45
-0.0139193969876572
46
0.0139193969876572
79
0
47
0
98
1
10
0
20
0
0
HATCH
5
FE
100
AcDbEntity
8
SK2
62
256
6
ByLayer
370
13
48
1
60
0
100
AcDbHatch
10
0
20
0
30
0
210
0
220
0
230
1
2
ANSI31
70
0
71
0
91
1
92
5
93
3
72
1
10
-53.6251625675374
20
-7
11
-54.0859463090902
21
-3.50000169255318
72
1
10
-54.0859463090902
20
-3.50000169255318
11
-53.1643788259847
21
-3.49999830744682
72
1
10
-53.1643788259847
20
-3.49999830744682
11
-53.6251625675374
21
-7
97
0
75
0
76
1
52
0
41
0.0062
77
0
78
1
53
45
43
0
44
0
45
-0.0139193969876572
46
0.0139193969876572
79
0
47
0
98
1
10
0
20
0
0
HATCH
5
104
100
AcDbEntity
8
2
62
256
6
ByLayer
370
13
48
1
60
0
100
AcDbHatch
10
0
20
0
30
0
210
0
220
0
230
1
2
ANSI31
70
0
71
0
91
1
92
5
93
3
72
1
10
91.083342615295
20
6.75
11
91.5441263568478
21
3.25000169255318
72
1
10
91.5441263568478
20
3.25000169255318
11
90.6225588737423
21
3.24999830744682
72
1
10
90.6225588737423
20
3.24999830744682
11
91.083342615295
21
6.75
97
0
75
0
76
1
52
0
41
0.0062
77
0
78
1
53
45
43
0
44
0
45
-0.0139193969876572
46
0.0139193969876572
79
0
47
0
98
1
10
0
20
0
0
HATCH
5
108
100
AcDbEntity
8
2
62
256
6
ByLayer
370
13
48
1
60
0
100
AcDbHatch
10
0
20
0
30
0
210
0
220
0
230
1
2
ANSI31
70
0
71
0
91
1
92
5
93
3
72
1
10
91.083342615295
20
-6.75
11
90.6225588737423
21
-3.25000169255318
72
1
10
90.6225588737423
20
-3.25000169255318
11
91.5441263568478
21
-3.24999830744682
72
1
10
91.5441263568478
20
-3.24999830744682
11
91.083342615295
21
-6.75
97
0
75
0
76
1
52
0
41
0.0062
77
0
78
1
53
45
43
0
44
0
45
-0.0139193969876572
46
0.0139193969876572
79
0
47
0
98
1
10
0
20
0
0
DIMENSION
5
10A
100
AcDbEntity
8
2
62
256
6
ByLayer
370
13
48
1
60
0
100
AcDbDimension
2
_U0
10
76.4178
20
-16.963398
30
0
11
38.2089
21
-16.963398
31
0
70
32
71
1
72
1
41
1
210
0
220
0
230
1
3
Standard
100
AcDbAlignedDimension
13
0
23
0
33
0
14
76.4178
24
-6.75
34
0
50
0
100
AcDbRotatedDimension
1001
ACAD
1000
DSTYLE
1002
{
1070
   371
1070
    13
1070
   372
1070
    13
1070
   170
1070
     0
1070
   144
1040
1.0
1070
   277
1070
     2
1070
   278
1070
    44
1070
   146
1040
1.0
1070
   345
1005
16
1070
   347
1005
16
1070
   346
1005
16
1070
   344
1005
0
1070
   343
1005
0
1070
   172
1070
     1
1070
    76
1070
     0
1070
    75
1070
     0
1070
   282
1070
     0
1070
   281
1070
     0
1070
    71
1070
     0
1070
    74
1070
     0
1070
   279
1070
     0
1070
   173
1070
     1
1070
   340
1005
F2
1070
   271
1070
     2
1070
   272
1070
     2
1070
    77
1070
     1
1070
    73
1070
     1
1070
   171
1070
     3
1070
   274
1070
     4
1070
   177
1070
    35
1070
   176
1070
    35
1070
   178
1070
    35
1070
    48
1040
-0.1
1070
    41
1040
3.5
1070
   147
1040
1.75
1070
    42
1040
1.5875
1070
    44
1040
2.0
1070
   140
1040
3.5
1002
}
1001
ACAD_DSTYLE_DIM_LINETYPE
1070
   380
1005
16
1001
ACAD_DSTYLE_DIM_EXT1_LINETYPE
1070
   381
1005
16
1001
ACAD_DSTYLE_DIM_EXT2_LINETYPE
1070
   382
1005
16
0
DIMENSION
5
123
100
AcDbEntity
8
SK2
62
256
6
ByLayer
370
13
48
1
60
0
100
AcDbDimension
2
_U1
10
79
20
-35.692985
30
0
11
17
21
-35.692985
31
0
70
32
71
1
72
1
41
1
210
0
220
0
230
1
3
Standard
100
AcDbAlignedDimension
13
-45
23
-7
33
0
14
79
24
0
34
0
50
0
100
AcDbRotatedDimension
1001
ACAD
1000
DSTYLE
1002
{
1070
   371
1070
    13
1070
   372
1070
    13
1070
   170
1070
     0
1070
   144
1040
1.0
1070
   277
1070
     2
1070
   278
1070
    44
1070
   146
1040
1.0
1070
   345
1005
16
1070
   347
1005
16
1070
   346
1005
16
1070
   344
1005
0
1070
   343
1005
0
1070
   172
1070
     1
1070
    76
1070
     0
1070
    75
1070
     0
1070
   282
1070
     0
1070
   281
1070
     0
1070
    71
1070
     0
1070
    74
1070
     0
1070
   279
1070
     0
1070
   173
1070
     1
1070
   340
1005
F2
1070
   271
1070
     2
1070
   272
1070
     2
1070
    77
1070
     1
1070
    73
1070
     1
1070
   171
1070
     3
1070
   274
1070
     4
1070
   177
1070
    35
1070
   176
1070
    35
1070
   178
1070
    35
1070
    48
1040
-0.1
1070
    41
1040
3.5
1070
   147
1040
1.75
1070
    42
1040
1.5875
1070
    44
1040
2.0
1070
   140
1040
3.5
1002
}
1001
ACAD_DSTYLE_DIM_LINETYPE
1070
   380
1005
16
1001
ACAD_DSTYLE_DIM_EXT1_LINETYPE
1070
   381
1005
16
1001
ACAD_DSTYLE_DIM_EXT2_LINETYPE
1070
   382
1005
16
0
DIMENSION
5
13B
100
AcDbEntity
8
SK2
62
256
6
ByLayer
370
13
48
1
60
0
100
AcDbDimension
2
_U2
10
79
20
18.359119
30
0
11
48.555
21
18.359119
31
0
70
32
71
1
72
1
41
1
210
0
220
0
230
1
3
Standard
100
AcDbAlignedDimension
13
18.11
23
6.75
33
0
14
79
24
0
34
0
50
0
100
AcDbRotatedDimension
1001
ACAD
1000
DSTYLE
1002
{
1070
   371
1070
    13
1070
   372
1070
    13
1070
   170
1070
     0
1070
   144
1040
1.0
1070
   277
1070
     2
1070
   278
1070
    44
1070
   146
1040
1.0
1070
   345
1005
16
1070
   347
1005
16
1070
   346
1005
16
1070
   344
1005
0
1070
   343
1005
0
1070
   172
1070
     1
1070
    76
1070
     0
1070
    75
1070
     0
1070
   282
1070
     0
1070
   281
1070
     0
1070
    71
1070
     0
1070
    74
1070
     0
1070
   279
1070
     0
1070
   173
1070
     1
1070
   340
1005
F2
1070
   271
1070
     2
1070
   272
1070
     2
1070
    77
1070
     1
1070
    73
1070
     1
1070
   171
1070
     3
1070
   274
1070
     4
1070
   177
1070
    35
1070
   176
1070
    35
1070
   178
1070
    35
1070
    48
1040
-0.1
1070
    41
1040
3.5
1070
   147
1040
1.75
1070
    42
1040
1.5875
1070
    44
1040
2.0
1070
   140
1040
3.5
1002
}
1001
ACAD_DSTYLE_DIM_LINETYPE
1070
   380
1005
16
1001
ACAD_DSTYLE_DIM_EXT1_LINETYPE
1070
   381
1005
16
1001
ACAD_DSTYLE_DIM_EXT2_LINETYPE
1070
   382
1005
16
0
DIMENSION
5
153
100
AcDbEntity
8
SK2
62
256
6
ByLayer
370
13
48
1
60
0
100
AcDbDimension
2
_U3
10
76.4178
20
-19.552503
30
0
11
96.583333
21
-19.552503
31
0
70
32
71
1
72
1
41
1
210
0
220
0
230
1
3
Standard
100
AcDbAlignedDimension
13
79
23
0
33
0
14
76.4178
24
-6.75
34
0
50
0
100
AcDbRotatedDimension
1001
ACAD
1000
DSTYLE
1002
{
1070
   371
1070
    13
1070
   372
1070
    13
1070
   170
1070
     0
1070
   144
1040
1.0
1070
   277
1070
     2
1070
   278
1070
    44
1070
   146
1040
1.0
1070
   345
1005
16
1070
   347
1005
16
1070
   346
1005
16
1070
   344
1005
0
1070
   343
1005
0
1070
   172
1070
     1
1070
    76
1070
     0
1070
    75
1070
     0
1070
   282
1070
     0
1070
   281
1070
     0
1070
    71
1070
     0
1070
    74
1070
     0
1070
   279
1070
     0
1070
   173
1070
     1
1070
   340
1005
F2
1070
   271
1070
     2
1070
   272
1070
     2
1070
    77
1070
     1
1070
    73
1070
     1
1070
   171
1070
     3
1070
   274
1070
     4
1070
   177
1070
    35
1070
   176
1070
    35
1070
   178
1070
    35
1070
    48
1040
-0.1
1070
    41
1040
3.5
1070
   147
1040
1.75
1070
    42
1040
1.5875
1070
    44
1040
2.0
1070
   140
1040
3.5
1002
}
1001
ACAD_DSTYLE_DIM_LINETYPE
1070
   380
1005
16
1001
ACAD_DSTYLE_DIM_EXT1_LINETYPE
1070
   381
1005
16
1001
ACAD_DSTYLE_DIM_EXT2_LINETYPE
1070
   382
1005
16
0
DIMENSION
5
16D
100
AcDbEntity
8
SK2
62
256
6
ByLayer
370
13
48
1
60
0
100
AcDbDimension
2
_U4
10
76.4178
20
-25.343428
30
0
11
15.7089
21
-25.343428
31
0
70
32
71
1
72
1
41
1
210
0
220
0
230
1
3
Standard
100
AcDbAlignedDimension
13
-45
23
-7
33
0
14
76.4178
24
-6.75
34
0
50
0
100
AcDbRotatedDimension
1001
ACAD
1000
DSTYLE
1002
{
1070
   371
1070
    13
1070
   372
1070
    13
1070
   170
1070
     0
1070
   144
1040
1.0
1070
   277
1070
     2
1070
   278
1070
    44
1070
   146
1040
1.0
1070
   345
1005
16
1070
   347
1005
16
1070
   346
1005
16
1070
   344
1005
0
1070
   343
1005
0
1070
   172
1070
     1
1070
    76
1070
     0
1070
    75
1070
     0
1070
   282
1070
     0
1070
   281
1070
     0
1070
    71
1070
     0
1070
    74
1070
     0
1070
   279
1070
     0
1070
   173
1070
     1
1070
   340
1005
F2
1070
   271
1070
     2
1070
   272
1070
     2
1070
    77
1070
     1
1070
    73
1070
     1
1070
   171
1070
     3
1070
   274
1070
     4
1070
   177
1070
    35
1070
   176
1070
    35
1070
   178
1070
    35
1070
    48
1040
-0.1
1070
    41
1040
3.5
1070
   147
1040
1.75
1070
    42
1040
1.5875
1070
    44
1040
2.0
1070
   140
1040
3.5
1002
}
1001
ACAD_DSTYLE_DIM_LINETYPE
1070
   380
1005
16
1001
ACAD_DSTYLE_DIM_EXT1_LINETYPE
1070
   381
1005
16
1001
ACAD_DSTYLE_DIM_EXT2_LINETYPE
1070
   382
1005
16
0
ENDSEC
0
SECTION
2
OBJECTS
0
DICTIONARY
5
1f5
330
0
100
AcDbDictionary
280
0
281
1
3
ACAD_GROUP
350
1f6
3
ACAD_MLINESTYLE
350
1f7
0
DICTIONARY
5
1f6
330
0
100
AcDbDictionary
280
0
281
1
0
DICTIONARY
5
1f7
330
0
100
AcDbDictionary
280
0
281
1
3
Standard
350
18
0
MLINESTYLE
5
18
330
1f7
100
AcDbMlineStyle
2
Standard
70
0
3

62
256
51
90
52
90
71
2
49
-0.5
62
256
6
ByLayer
49
0.5
62
256
6
ByLayer
0
RASTERVARIABLES
5
1e3
330

100
AcDbRasterVariables
90
0
70
1
71
1
72
1
0
ENDSEC
0
EOF
