0
SECTION
2
HEADER
9
$ACADVER
1
AC1015
9
$DWGCODEPAGE
3
ANSI_1252
9
$HANDSEED
5
200
9
$ANGBASE
50
0
9
$ANGDIR
70
0
9
$ATTMODE
70
1
9
$AUNITS
70
0
9
$AUPREC
70
0
9
$CECOLOR
62
256
9
$CELTSCALE
40
1
9
$CELTYPE
6
ByLayer
9
$CELWEIGHT
370
18
9
$CLAYER
8
0
9
$CMLJUST
70
0
9
$CMLSCALE
40
1
9
$CMLSTYLE
2
Standard
9
$DIMSTYLE
2
Standard
9
$TEXTSIZE
40
0.2
9
$TEXTSTYLE
7
Standard
9
$LUNITS
70
2
9
$LUPREC
70
4
9
$EXTNAMES
290
1
9
$INSUNITS
70
4
9
$LTSCALE
40
1
9
$LWDISPLAY
290
1
9
$PDMODE
70
0
9
$PDSIZE
40
0
9
$PLINEGEN
70
0
0
ENDSEC
0
SECTION
2
CLASSES
0
CLASS
1
RASTERVARIABLES
2
AcDbRasterVariables
3
ISM
90
0
280
0
281
0
0
ENDSEC
0
SECTION
2
TABLES
0
TABLE
2
VPORT
5
1f6
100
AcDbSymbolTable
0
VPORT
5
1
100
AcDbSymbolTableRecord
100
AcDbViewportTableRecord
2
*Active
70
0
10
0
20
0
11
1
21
1
12
-1
22
1
13
0
23
0
14
0.5
24
0.5
15
10
25
10
16
0
26
0
36
1
17
0
27
0
37
0
0
ENDTAB
0
TABLE
2
LTYPE
5
1f7
100
AcDbSymbolTable
0
LTYPE
5
14
100
AcDbSymbolTableRecord
100
AcDbLinetypeTableRecord
70
0
2
ByBlock
3

72
65
73
0
40
0
0
LTYPE
5
15
100
AcDbSymbolTableRecord
100
AcDbLinetypeTableRecord
70
0
2
ByLayer
3

72
65
73
0
40
0
0
LTYPE
5
16
100
AcDbSymbolTableRecord
100
AcDbLinetypeTableRecord
70
0
2
Continuous
3
Solid line
72
65
73
0
40
0
0
LTYPE
5
6E
100
AcDbSymbolTableRecord
100
AcDbLinetypeTableRecord
70
0
2
CENTER
3
____ _ ____ _ ____ _ ____
72
65
73
4
40
47.5
49
22
74
0
49
-8.5
74
0
49
8.5
74
0
49
-8.5
74
0
0
LTYPE
5
6F
100
AcDbSymbolTableRecord
100
AcDbLinetypeTableRecord
70
0
2
DASHED
3
__ __ __ __ __ __ __ __ __
72
65
73
2
40
25.72
49
12.86
74
0
49
-12.86
74
0
0
ENDTAB
0
TABLE
2
LAYER
5
1f8
100
AcDbSymbolTable
0
LAYER
5
10
100
AcDbSymbolTableRecord
100
AcDbLayerTableRecord
2
0
70
0
62
7
6
Continuous
290
1
370
-3
390
0
0
LAYER
5
71
100
AcDbSymbolTableRecord
100
AcDbLayerTableRecord
2
80
70
0
62
-6
6
Continuous
290
1
370
-3
390
0
0
LAYER
5
73
100
AcDbSymbolTableRecord
100
AcDbLayerTableRecord
2
81
70
0
62
-3
6
Continuous
290
1
370
-3
390
0
0
LAYER
5
75
100
AcDbSymbolTableRecord
100
AcDbLayerTableRecord
2
1
70
0
62
4
6
Continuous
290
1
370
-3
390
0
0
LAYER
5
87
100
AcDbSymbolTableRecord
100
AcDbLayerTableRecord
2
4
70
0
62
-2
6
CENTER
290
1
370
-3
390
0
0
LAYER
5
9E
100
AcDbSymbolTableRecord
100
AcDbLayerTableRecord
2
2
70
0
62
7
6
Continuous
290
1
370
-3
390
0
0
LAYER
5
10B
100
AcDbSymbolTableRecord
100
AcDbLayerTableRecord
2
Defpoints
70
0
62
7
6
Continuous
290
0
370
-3
390
0
0
LAYER
5
1e2
100
AcDbSymbolTableRecord
100
AcDbLayerTableRecord
2
SK1
70
0
62
4
6
Continuous
290
1
370
-3
390
0
0
LAYER
5
1e3
100
AcDbSymbolTableRecord
100
AcDbLayerTableRecord
2
SK4
70
0
62
2
6
CENTER
290
1
370
-3
390
0
0
LAYER
5
1e4
100
AcDbSymbolTableRecord
100
AcDbLayerTableRecord
2
SK2
70
0
62
7
6
Continuous
290
1
370
-3
390
0
0
LAYER
5
1e5
100
AcDbSymbolTableRecord
100
AcDbLayerTableRecord
2
SK6
70
0
62
5
6
Continuous
290
1
370
-3
390
0
0
ENDTAB
0
TABLE
2
STYLE
5
1f9
100
AcDbSymbolTable
0
STYLE
5
11
100
AcDbSymbolTableRecord
100
AcDbTextStyleTableRecord
2
Standard
3
txt
70
0
71
0
40
0
41
1
42
0
50
0
0
STYLE
5
F0
100
AcDbSymbolTableRecord
100
AcDbTextStyleTableRecord
2
iso_b_vert
3
simplex.shx
70
0
71
0
40
0
41
1
42
0
50
0
0
STYLE
5
F1
100
AcDbSymbolTableRecord
100
AcDbTextStyleTableRecord
2
DWGDirectTextStyle
3
simplex
70
0
71
0
40
0
41
1
42
0
50
0
0
ENDTAB
0
TABLE
2
DIMSTYLE
5
1fa
100
AcDbSymbolTable
100
AcDbDimStyleTable
0
DIMSTYLE
105
27
100
AcDbSymbolTableRecord
100
AcDbDimStyleTableRecord
2
Standard
70
0
3
<>
41
0.18
42
0.0625
44
0.18
140
0.18
147
0.09
73
0
74
0
77
1
271
2
275
0
278
52
280
0
340
11
0
ENDTAB
0
TABLE
2
VIEW
5
1fb
100
AcDbSymbolTable
0
ENDTAB
0
TABLE
2
UCS
5
1fc
100
AcDbSymbolTable
0
ENDTAB
0
TABLE
2
APPID
5
1fd
100
AcDbSymbolTable
0
APPID
5
12
100
AcDbSymbolTableRecord
100
AcDbRegAppTableRecord
2
ACAD
70
0
0
APPID
5
107
100
AcDbSymbolTableRecord
100
AcDbRegAppTableRecord
2
ACAD_DSTYLE_DIMBREAK
70
0
0
APPID
5
1A1
100
AcDbSymbolTableRecord
100
AcDbRegAppTableRecord
2
ACAD_DSTYLE_DIM_LINETYPE
70
0
0
APPID
5
1A2
100
AcDbSymbolTableRecord
100
AcDbRegAppTableRecord
2
ACAD_DSTYLE_DIM_EXT1_LINETYPE
70
0
0
APPID
5
1A3
100
AcDbSymbolTableRecord
100
AcDbRegAppTableRecord
2
ACAD_DSTYLE_DIM_EXT2_LINETYPE
70
0
0
APPID
5
1DE
100
AcDbSymbolTableRecord
100
AcDbRegAppTableRecord
2
ACAD_MLEADERVER
70
0
0
ENDTAB
0
TABLE
2
BLOCK_RECORD
5
1fe
100
AcDbSymbolTable
0
BLOCK_RECORD
5
1F
100
AcDbSymbolTableRecord
100
AcDbBlockTableRecord
2
*Model_Space
340
0
70
0
0
BLOCK_RECORD
5
1B
100
AcDbSymbolTableRecord
100
AcDbBlockTableRecord
2
*Paper_Space
340
0
70
0
0
BLOCK_RECORD
5
23
100
AcDbSymbolTableRecord
100
AcDbBlockTableRecord
2
*Paper_Space0
340
0
70
0
0
BLOCK_RECORD
5
10C
100
AcDbSymbolTableRecord
100
AcDbBlockTableRecord
2
*D1
340
0
70
0
0
BLOCK_RECORD
5
118
100
AcDbSymbolTableRecord
100
AcDbBlockTableRecord
2
_U0
340
0
70
0
0
BLOCK_RECORD
5
124
100
AcDbSymbolTableRecord
100
AcDbBlockTableRecord
2
*D3
340
0
70
0
0
BLOCK_RECORD
5
130
100
AcDbSymbolTableRecord
100
AcDbBlockTableRecord
2
_U1
340
0
70
0
0
BLOCK_RECORD
5
13C
100
AcDbSymbolTableRecord
100
AcDbBlockTableRecord
2
*D5
340
0
70
0
0
BLOCK_RECORD
5
148
100
AcDbSymbolTableRecord
100
AcDbBlockTableRecord
2
_U2
340
0
70
0
0
BLOCK_RECORD
5
154
100
AcDbSymbolTableRecord
100
AcDbBlockTableRecord
2
*D7
340
0
70
0
0
BLOCK_RECORD
5
162
100
AcDbSymbolTableRecord
100
AcDbBlockTableRecord
2
_U3
340
0
70
0
0
BLOCK_RECORD
5
16E
100
AcDbSymbolTableRecord
100
AcDbBlockTableRecord
2
*D9
340
0
70
0
0
BLOCK_RECORD
5
17A
100
AcDbSymbolTableRecord
100
AcDbBlockTableRecord
2
_U4
340
0
70
0
0
ENDTAB
0
ENDSEC
0
SECTION
2
BLOCKS
0
BLOCK
5
20
100
AcDbEntity
8
0
100
AcDbBlockBegin
2
*Model_Space
70
0
10
0
20
0
30
0
3
*Model_Space
0
ENDBLK
5
21
100
AcDbEntity
8
0
100
AcDbBlockEnd
0
BLOCK
5
1C
100
AcDbEntity
8
0
100
AcDbBlockBegin
2
*Paper_Space
70
0
10
0
20
0
30
0
3
*Paper_Space
0
ENDBLK
5
1D
100
AcDbEntity
8
0
100
AcDbBlockEnd
0
BLOCK
5
24
100
AcDbEntity
8
0
100
AcDbBlockBegin
2
*Paper_Space0
70
0
10
0
20
0
30
0
3
*Paper_Space0
0
ENDBLK
5
25
100
AcDbEntity
8
0
100
AcDbBlockEnd
0
BLOCK
5
10D
100
AcDbEntity
8
0
100
AcDbBlockBegin
2
*D1
70
1
10
0
20
0
30
0
3
*D1
0
LINE
5
10F
100
AcDbEntity
8
0
62
256
6
ByLayer
370
-2
48
1
60
0
100
AcDbLine
10
0
20
-1.5875
30
0
11
0
21
-18.763398
31
0
39
0
210
0
220
0
230
1
0
LINE
5
110
100
AcDbEntity
8
0
62
256
6
ByLayer
370
-2
48
1
60
0
100
AcDbLine
10
76.4866
20
-8.1375
30
0
11
76.4866
21
-18.763398
31
0
39
0
210
0
220
0
230
1
0
LINE
5
111
100
AcDbEntity
8
0
62
256
6
ByLayer
370
-2
48
1
60
0
100
AcDbLine
10
3.5
20
-16.763398
30
0
11
72.9866
21
-16.763398
31
0
39
0
210
0
220
0
230
1
0
SOLID
5
112
100
AcDbEntity
8
0
62
256
6
ByLayer
370
-1
48
1
60
0
100
AcDbTrace
10
3.5
20
-16.180065
30
0
11
3.5
21
-17.346732
31
0
12
0
22
-16.763398
32
0
13
0
23
-16.763398
33
0
39
0
210
0
220
0
230
1
0
SOLID
5
113
100
AcDbEntity
8
0
62
256
6
ByLayer
370
-1
48
1
60
0
100
AcDbTrace
10
72.9866
20
-17.346732
30
0
11
72.9866
21
-16.180065
31
0
12
76.4866
22
-16.763398
32
0
13
76.4866
23
-16.763398
33
0
39
0
210
0
220
0
230
1
0
MTEXT
5
114
100
AcDbEntity
8
0
62
256
6
ByLayer
370
18
48
1
60
0
100
AcDbMText
10
38.2433
20
-9.763398
30
0
210
0
220
0
230
1
1
\A1;76.49
40
3.5
41
0
44
1
50
0
71
5
72
5
7
iso_b_vert
0
POINT
5
115
100
AcDbEntity
8
Defpoints
62
0
6
ByLayer
370
-1
48
1
60
0
100
AcDbPoint
10
0
20
0
30
0
39
0
210
0
220
0
230
1
50
360
0
POINT
5
116
100
AcDbEntity
8
Defpoints
62
0
6
ByLayer
370
-1
48
1
60
0
100
AcDbPoint
10
76.4866
20
-6.55
30
0
39
0
210
0
220
0
230
1
50
360
0
POINT
5
117
100
AcDbEntity
8
Defpoints
62
0
6
ByLayer
370
-1
48
1
60
0
100
AcDbPoint
10
76.4866
20
-16.763398
30
0
39
0
210
0
220
0
230
1
50
360
0
ENDBLK
5
10E
100
AcDbEntity
8
0
100
AcDbBlockEnd
0
BLOCK
5
11F
100
AcDbEntity
8
0
100
AcDbBlockBegin
2
_U0
70
0
10
0
20
0
30
0
3
_U0
0
MTEXT
5
119
100
AcDbEntity
8
2
62
256
6
ByLayer
370
13
48
1
60
0
100
AcDbMText
10
32.921735
20
-15.730765
30
0
210
0
220
0
230
1
1
\W0.7669;76,49
40
3.5
41
0
44
1.084337
50
0
71
7
72
5
7
iso_b_vert
0
LINE
5
11A
100
AcDbEntity
8
2
62
256
6
ByLayer
370
13
48
1
60
0
100
AcDbLine
10
0
20
-1.5875
30
0
11
0
21
-18.763398
31
0
39
0
210
0
220
0
230
1
0
LINE
5
11B
100
AcDbEntity
8
2
62
256
6
ByLayer
370
13
48
1
60
0
100
AcDbLine
10
76.4866
20
-8.1375
30
0
11
76.4866
21
-18.763398
31
0
39
0
210
0
220
0
230
1
0
LINE
5
11C
100
AcDbEntity
8
2
62
256
6
ByLayer
370
13
48
1
60
0
100
AcDbLine
10
0
20
-16.763398
30
0
11
76.4866
21
-16.763398
31
0
39
0
210
0
220
0
230
1
0
SOLID
5
11D
100
AcDbEntity
8
2
62
256
6
ByLayer
370
18
48
1
60
0
100
AcDbTrace
10
0
20
-16.763398
30
0
11
3.499998
21
-16.302615
31
0
12
3.500002
22
-17.224182
32
0
13
3.500002
23
-17.224182
33
0
39
0
210
0
220
0
230
1
0
SOLID
5
11E
100
AcDbEntity
8
2
62
256
6
ByLayer
370
18
48
1
60
0
100
AcDbTrace
10
76.4866
20
-16.763398
30
0
11
72.986602
21
-17.224182
31
0
12
72.986598
22
-16.302615
32
0
13
72.986598
23
-16.302615
33
0
39
0
210
0
220
0
230
1
0
ENDBLK
5
120
100
AcDbEntity
8
0
100
AcDbBlockEnd
0
BLOCK
5
125
100
AcDbEntity
8
0
100
AcDbBlockBegin
2
*D3
70
1
10
0
20
0
30
0
3
*D3
0
LINE
5
127
100
AcDbEntity
8
0
62
256
6
ByLayer
370
-2
48
1
60
0
100
AcDbLine
10
-45
20
-8.5875
30
0
11
-45
21
-37.692985
31
0
39
0
210
0
220
0
230
1
0
LINE
5
128
100
AcDbEntity
8
0
62
256
6
ByLayer
370
-2
48
1
60
0
100
AcDbLine
10
79
20
-1.5875
30
0
11
79
21
-37.692985
31
0
39
0
210
0
220
0
230
1
0
LINE
5
129
100
AcDbEntity
8
0
62
256
6
ByLayer
370
-2
48
1
60
0
100
AcDbLine
10
-41.5
20
-35.692985
30
0
11
75.5
21
-35.692985
31
0
39
0
210
0
220
0
230
1
0
SOLID
5
12A
100
AcDbEntity
8
0
62
256
6
ByLayer
370
-1
48
1
60
0
100
AcDbTrace
10
-41.5
20
-35.109652
30
0
11
-41.5
21
-36.276319
31
0
12
-45
22
-35.692985
32
0
13
-45
23
-35.692985
33
0
39
0
210
0
220
0
230
1
0
SOLID
5
12B
100
AcDbEntity
8
0
62
256
6
ByLayer
370
-1
48
1
60
0
100
AcDbTrace
10
75.5
20
-36.276319
30
0
11
75.5
21
-35.109652
31
0
12
79
22
-35.692985
32
0
13
79
23
-35.692985
33
0
39
0
210
0
220
0
230
1
0
MTEXT
5
12C
100
AcDbEntity
8
0
62
256
6
ByLayer
370
18
48
1
60
0
100
AcDbMText
10
17
20
-28.692985
30
0
210
0
220
0
230
1
1
\A1;124.00
40
3.5
41
0
44
1
50
0
71
5
72
5
7
iso_b_vert
0
POINT
5
12D
100
AcDbEntity
8
Defpoints
62
0
6
ByLayer
370
-1
48
1
60
0
100
AcDbPoint
10
-45
20
-7
30
0
39
0
210
0
220
0
230
1
50
360
0
POINT
5
12E
100
AcDbEntity
8
Defpoints
62
0
6
ByLayer
370
-1
48
1
60
0
100
AcDbPoint
10
79
20
0
30
0
39
0
210
0
220
0
230
1
50
360
0
POINT
5
12F
100
AcDbEntity
8
Defpoints
62
0
6
ByLayer
370
-1
48
1
60
0
100
AcDbPoint
10
79
20
-35.692985
30
0
39
0
210
0
220
0
230
1
50
360
0
ENDBLK
5
126
100
AcDbEntity
8
0
100
AcDbBlockEnd
0
BLOCK
5
137
100
AcDbEntity
8
0
100
AcDbBlockBegin
2
_U1
70
0
10
0
20
0
30
0
3
_U1
0
MTEXT
5
131
100
AcDbEntity
8
SK2
62
256
6
ByLayer
370
13
48
1
60
0
100
AcDbMText
10
10.808135
20
-34.660352
30
0
210
0
220
0
230
1
1
\W0.7145;124,00
40
3.5
41
0
44
1.084337
50
0
71
7
72
5
7
iso_b_vert
0
LINE
5
132
100
AcDbEntity
8
SK2
62
256
6
ByLayer
370
13
48
1
60
0
100
AcDbLine
10
-45
20
-8.5875
30
0
11
-45
21
-37.692985
31
0
39
0
210
0
220
0
230
1
0
LINE
5
133
100
AcDbEntity
8
SK2
62
256
6
ByLayer
370
13
48
1
60
0
100
AcDbLine
10
79
20
-1.5875
30
0
11
79
21
-37.692985
31
0
39
0
210
0
220
0
230
1
0
LINE
5
134
100
AcDbEntity
8
SK2
62
256
6
ByLayer
370
13
48
1
60
0
100
AcDbLine
10
-45
20
-35.692985
30
0
11
79
21
-35.692985
31
0
39
0
210
0
220
0
230
1
0
SOLID
5
135
100
AcDbEntity
8
SK2
62
256
6
ByLayer
370
18
48
1
60
0
100
AcDbTrace
10
-45
20
-35.692985
30
0
11
-41.500002
21
-35.232202
31
0
12
-41.499998
22
-36.153769
32
0
13
-41.499998
23
-36.153769
33
0
39
0
210
0
220
0
230
1
0
SOLID
5
136
100
AcDbEntity
8
SK2
62
256
6
ByLayer
370
18
48
1
60
0
100
AcDbTrace
10
79
20
-35.692985
30
0
11
75.500002
21
-36.153769
31
0
12
75.499998
22
-35.232202
32
0
13
75.499998
23
-35.232202
33
0
39
0
210
0
220
0
230
1
0
ENDBLK
5
138
100
AcDbEntity
8
0
100
AcDbBlockEnd
0
BLOCK
5
13D
100
AcDbEntity
8
0
100
AcDbBlockBegin
2
*D5
70
1
10
0
20
0
30
0
3
*D5
0
LINE
5
13F
100
AcDbEntity
8
0
62
256
6
ByLayer
370
-2
48
1
60
0
100
AcDbLine
10
17.96
20
8.1375
30
0
11
17.96
21
20.159119
31
0
39
0
210
0
220
0
230
1
0
LINE
5
140
100
AcDbEntity
8
0
62
256
6
ByLayer
370
-2
48
1
60
0
100
AcDbLine
10
79
20
1.5875
30
0
11
79
21
20.159119
31
0
39
0
210
0
220
0
230
1
0
LINE
5
141
100
AcDbEntity
8
0
62
256
6
ByLayer
370
-2
48
1
60
0
100
AcDbLine
10
21.46
20
18.159119
30
0
11
75.5
21
18.159119
31
0
39
0
210
0
220
0
230
1
0
SOLID
5
142
100
AcDbEntity
8
0
62
256
6
ByLayer
370
-1
48
1
60
0
100
AcDbTrace
10
21.46
20
18.742453
30
0
11
21.46
21
17.575786
31
0
12
17.96
22
18.159119
32
0
13
17.96
23
18.159119
33
0
39
0
210
0
220
0
230
1
0
SOLID
5
143
100
AcDbEntity
8
0
62
256
6
ByLayer
370
-1
48
1
60
0
100
AcDbTrace
10
75.5
20
17.575786
30
0
11
75.5
21
18.742453
31
0
12
79
22
18.159119
32
0
13
79
23
18.159119
33
0
39
0
210
0
220
0
230
1
0
MTEXT
5
144
100
AcDbEntity
8
0
62
256
6
ByLayer
370
18
48
1
60
0
100
AcDbMText
10
48.48
20
25.159119
30
0
210
0
220
0
230
1
1
\A1;61.04
40
3.5
41
0
44
1
50
0
71
5
72
5
7
iso_b_vert
0
POINT
5
145
100
AcDbEntity
8
Defpoints
62
0
6
ByLayer
370
-1
48
1
60
0
100
AcDbPoint
10
17.96
20
6.55
30
0
39
0
210
0
220
0
230
1
50
360
0
POINT
5
146
100
AcDbEntity
8
Defpoints
62
0
6
ByLayer
370
-1
48
1
60
0
100
AcDbPoint
10
79
20
0
30
0
39
0
210
0
220
0
230
1
50
360
0
POINT
5
147
100
AcDbEntity
8
Defpoints
62
0
6
ByLayer
370
-1
48
1
60
0
100
AcDbPoint
10
79
20
18.159119
30
0
39
0
210
0
220
0
230
1
50
360
0
ENDBLK
5
13E
100
AcDbEntity
8
0
100
AcDbBlockEnd
0
BLOCK
5
14F
100
AcDbEntity
8
0
100
AcDbBlockBegin
2
_U2
70
0
10
0
20
0
30
0
3
_U2
0
MTEXT
5
149
100
AcDbEntity
8
SK2
62
256
6
ByLayer
370
13
48
1
60
0
100
AcDbMText
10
43.595868
20
19.191753
30
0
210
0
220
0
230
1
1
\W0.6898;61,04
40
3.5
41
0
44
1.084337
50
0
71
7
72
5
7
iso_b_vert
0
LINE
5
14A
100
AcDbEntity
8
SK2
62
256
6
ByLayer
370
13
48
1
60
0
100
AcDbLine
10
17.96
20
8.1375
30
0
11
17.96
21
20.159119
31
0
39
0
210
0
220
0
230
1
0
LINE
5
14B
100
AcDbEntity
8
SK2
62
256
6
ByLayer
370
13
48
1
60
0
100
AcDbLine
10
79
20
1.5875
30
0
11
79
21
20.159119
31
0
39
0
210
0
220
0
230
1
0
LINE
5
14C
100
AcDbEntity
8
SK2
62
256
6
ByLayer
370
13
48
1
60
0
100
AcDbLine
10
17.96
20
18.159119
30
0
11
79
21
18.159119
31
0
39
0
210
0
220
0
230
1
0
SOLID
5
14D
100
AcDbEntity
8
SK2
62
256
6
ByLayer
370
18
48
1
60
0
100
AcDbTrace
10
17.96
20
18.159119
30
0
11
21.459998
21
18.619903
31
0
12
21.460002
22
17.698335
32
0
13
21.460002
23
17.698335
33
0
39
0
210
0
220
0
230
1
0
SOLID
5
14E
100
AcDbEntity
8
SK2
62
256
6
ByLayer
370
18
48
1
60
0
100
AcDbTrace
10
79
20
18.159119
30
0
11
75.500002
21
17.698335
31
0
12
75.499998
22
18.619903
32
0
13
75.499998
23
18.619903
33
0
39
0
210
0
220
0
230
1
0
ENDBLK
5
150
100
AcDbEntity
8
0
100
AcDbBlockEnd
0
BLOCK
5
155
100
AcDbEntity
8
0
100
AcDbBlockBegin
2
*D7
70
1
10
0
20
0
30
0
3
*D7
0
LINE
5
157
100
AcDbEntity
8
0
62
256
6
ByLayer
370
-2
48
1
60
0
100
AcDbLine
10
79
20
-1.5875
30
0
11
79
21
-21.352503
31
0
39
0
210
0
220
0
230
1
0
LINE
5
158
100
AcDbEntity
8
0
62
256
6
ByLayer
370
-2
48
1
60
0
100
AcDbLine
10
76.4866
20
-8.1375
30
0
11
76.4866
21
-21.352503
31
0
39
0
210
0
220
0
230
1
0
LINE
5
159
100
AcDbEntity
8
0
62
256
6
ByLayer
370
-2
48
1
60
0
100
AcDbLine
10
79
20
-19.352503
30
0
11
106.166667
21
-19.352503
31
0
39
0
210
0
220
0
230
1
0
LINE
5
15A
100
AcDbEntity
8
0
62
256
6
ByLayer
370
-2
48
1
60
0
100
AcDbLine
10
82.5
20
-19.352503
30
0
11
86
21
-19.352503
31
0
39
0
210
0
220
0
230
1
0
LINE
5
15B
100
AcDbEntity
8
0
62
256
6
ByLayer
370
-2
48
1
60
0
100
AcDbLine
10
72.9866
20
-19.352503
30
0
11
69.4866
21
-19.352503
31
0
39
0
210
0
220
0
230
1
0
SOLID
5
15C
100
AcDbEntity
8
0
62
256
6
ByLayer
370
-1
48
1
60
0
100
AcDbTrace
10
82.5
20
-18.76917
30
0
11
82.5
21
-19.935837
31
0
12
79
22
-19.352503
32
0
13
79
23
-19.352503
33
0
39
0
210
0
220
0
230
1
0
SOLID
5
15D
100
AcDbEntity
8
0
62
256
6
ByLayer
370
-1
48
1
60
0
100
AcDbTrace
10
72.9866
20
-19.935837
30
0
11
72.9866
21
-18.76917
31
0
12
76.4866
22
-19.352503
32
0
13
76.4866
23
-19.352503
33
0
39
0
210
0
220
0
230
1
0
MTEXT
5
15E
100
AcDbEntity
8
0
62
256
6
ByLayer
370
18
48
1
60
0
100
AcDbMText
10
96.083333
20
-12.352503
30
0
210
0
220
0
230
1
1
\A1;2.51
40
3.5
41
0
44
1
50
0
71
5
72
5
7
iso_b_vert
0
POINT
5
15F
100
AcDbEntity
8
Defpoints
62
0
6
ByLayer
370
-1
48
1
60
0
100
AcDbPoint
10
79
20
0
30
0
39
0
210
0
220
0
230
1
50
360
0
POINT
5
160
100
AcDbEntity
8
Defpoints
62
0
6
ByLayer
370
-1
48
1
60
0
100
AcDbPoint
10
76.4866
20
-6.55
30
0
39
0
210
0
220
0
230
1
50
360
0
POINT
5
161
100
AcDbEntity
8
Defpoints
62
0
6
ByLayer
370
-1
48
1
60
0
100
AcDbPoint
10
76.4866
20
-19.352503
30
0
39
0
210
0
220
0
230
1
50
360
0
ENDBLK
5
156
100
AcDbEntity
8
0
100
AcDbBlockEnd
0
BLOCK
5
169
100
AcDbEntity
8
0
100
AcDbBlockBegin
2
_U3
70
0
10
0
20
0
30
0
3
_U3
0
MTEXT
5
163
100
AcDbEntity
8
SK2
62
256
6
ByLayer
370
13
48
1
60
0
100
AcDbMText
10
85.589293
20
-18.31987
30
0
210
0
220
0
230
1
1
\W0.6993;2,51
40
3.5
41
0
44
1.084337
50
0
71
7
72
5
7
iso_b_vert
0
LINE
5
164
100
AcDbEntity
8
SK2
62
256
6
ByLayer
370
13
48
1
60
0
100
AcDbLine
10
79
20
-1.5875
30
0
11
79
21
-21.352503
31
0
39
0
210
0
220
0
230
1
0
LINE
5
165
100
AcDbEntity
8
SK2
62
256
6
ByLayer
370
13
48
1
60
0
100
AcDbLine
10
76.4866
20
-8.1375
30
0
11
76.4866
21
-21.352503
31
0
39
0
210
0
220
0
230
1
0
LINE
5
166
100
AcDbEntity
8
SK2
62
256
6
ByLayer
370
13
48
1
60
0
100
AcDbLine
10
67.7366
20
-19.352503
30
0
11
92.559058
21
-19.352503
31
0
39
0
210
0
220
0
230
1
0
SOLID
5
167
100
AcDbEntity
8
SK2
62
256
6
ByLayer
370
18
48
1
60
0
100
AcDbTrace
10
79
20
-19.352503
30
0
11
82.499998
21
-18.891719
31
0
12
82.500002
22
-19.813287
32
0
13
82.500002
23
-19.813287
33
0
39
0
210
0
220
0
230
1
0
SOLID
5
168
100
AcDbEntity
8
SK2
62
256
6
ByLayer
370
18
48
1
60
0
100
AcDbTrace
10
76.4866
20
-19.352503
30
0
11
72.986602
21
-19.813287
31
0
12
72.986598
22
-18.891719
32
0
13
72.986598
23
-18.891719
33
0
39
0
210
0
220
0
230
1
0
ENDBLK
5
16A
100
AcDbEntity
8
0
100
AcDbBlockEnd
0
BLOCK
5
16F
100
AcDbEntity
8
0
100
AcDbBlockBegin
2
*D9
70
1
10
0
20
0
30
0
3
*D9
0
LINE
5
171
100
AcDbEntity
8
0
62
256
6
ByLayer
370
-2
48
1
60
0
100
AcDbLine
10
-45
20
-8.5875
30
0
11
-45
21
-27.343428
31
0
39
0
210
0
220
0
230
1
0
LINE
5
172
100
AcDbEntity
8
0
62
256
6
ByLayer
370
-2
48
1
60
0
100
AcDbLine
10
76.4866
20
-8.1375
30
0
11
76.4866
21
-27.343428
31
0
39
0
210
0
220
0
230
1
0
LINE
5
173
100
AcDbEntity
8
0
62
256
6
ByLayer
370
-2
48
1
60
0
100
AcDbLine
10
-41.5
20
-25.343428
30
0
11
72.9866
21
-25.343428
31
0
39
0
210
0
220
0
230
1
0
SOLID
5
174
100
AcDbEntity
8
0
62
256
6
ByLayer
370
-1
48
1
60
0
100
AcDbTrace
10
-41.5
20
-24.760095
30
0
11
-41.5
21
-25.926762
31
0
12
-45
22
-25.343428
32
0
13
-45
23
-25.343428
33
0
39
0
210
0
220
0
230
1
0
SOLID
5
175
100
AcDbEntity
8
0
62
256
6
ByLayer
370
-1
48
1
60
0
100
AcDbTrace
10
72.9866
20
-25.926762
30
0
11
72.9866
21
-24.760095
31
0
12
76.4866
22
-25.343428
32
0
13
76.4866
23
-25.343428
33
0
39
0
210
0
220
0
230
1
0
MTEXT
5
176
100
AcDbEntity
8
0
62
256
6
ByLayer
370
18
48
1
60
0
100
AcDbMText
10
15.7433
20
-18.343428
30
0
210
0
220
0
230
1
1
\A1;121.49
40
3.5
41
0
44
1
50
0
71
5
72
5
7
iso_b_vert
0
POINT
5
177
100
AcDbEntity
8
Defpoints
62
0
6
ByLayer
370
-1
48
1
60
0
100
AcDbPoint
10
-45
20
-7
30
0
39
0
210
0
220
0
230
1
50
360
0
POINT
5
178
100
AcDbEntity
8
Defpoints
62
0
6
ByLayer
370
-1
48
1
60
0
100
AcDbPoint
10
76.4866
20
-6.55
30
0
39
0
210
0
220
0
230
1
50
360
0
POINT
5
179
100
AcDbEntity
8
Defpoints
62
0
6
ByLayer
370
-1
48
1
60
0
100
AcDbPoint
10
76.4866
20
-25.343428
30
0
39
0
210
0
220
0
230
1
50
360
0
ENDBLK
5
170
100
AcDbEntity
8
0
100
AcDbBlockEnd
0
BLOCK
5
181
100
AcDbEntity
8
0
100
AcDbBlockBegin
2
_U4
70
0
10
0
20
0
30
0
3
_U4
0
MTEXT
5
17B
100
AcDbEntity
8
SK2
62
256
6
ByLayer
370
13
48
1
60
0
100
AcDbMText
10
9.988868
20
-24.310795
30
0
210
0
220
0
230
1
1
\W0.6717;121,49
40
3.5
41
0
44
1.084337
50
0
71
7
72
5
7
iso_b_vert
0
LINE
5
17C
100
AcDbEntity
8
SK2
62
256
6
ByLayer
370
13
48
1
60
0
100
AcDbLine
10
-45
20
-8.5875
30
0
11
-45
21
-27.343428
31
0
39
0
210
0
220
0
230
1
0
LINE
5
17D
100
AcDbEntity
8
SK2
62
256
6
ByLayer
370
13
48
1
60
0
100
AcDbLine
10
76.4866
20
-8.1375
30
0
11
76.4866
21
-27.343428
31
0
39
0
210
0
220
0
230
1
0
LINE
5
17E
100
AcDbEntity
8
SK2
62
256
6
ByLayer
370
13
48
1
60
0
100
AcDbLine
10
-45
20
-25.343428
30
0
11
76.4866
21
-25.343428
31
0
39
0
210
0
220
0
230
1
0
SOLID
5
17F
100
AcDbEntity
8
SK2
62
256
6
ByLayer
370
18
48
1
60
0
100
AcDbTrace
10
-45
20
-25.343428
30
0
11
-41.500002
21
-24.882645
31
0
12
-41.499998
22
-25.804212
32
0
13
-41.499998
23
-25.804212
33
0
39
0
210
0
220
0
230
1
0
SOLID
5
180
100
AcDbEntity
8
SK2
62
256
6
ByLayer
370
18
48
1
60
0
100
AcDbTrace
10
76.4866
20
-25.343428
30
0
11
72.986602
21
-25.804212
31
0
12
72.986598
22
-24.882645
32
0
13
72.986598
23
-24.882645
33
0
39
0
210
0
220
0
230
1
0
ENDBLK
5
182
100
AcDbEntity
8
0
100
AcDbBlockEnd
0
ENDSEC
0
SECTION
2
ENTITIES
0
ARC
5
A7
100
AcDbEntity
8
1
62
256
6
ByLayer
370
18
48
1
60
0
100
AcDbCircle
39
0
10
1.283584
20
7.264636
30
0
40
0.849999999999998
210
0
220
0
230
1
100
AcDbArc
50
220.970336
51
270.103132
0
ARC
5
A8
100
AcDbEntity
8
1
62
256
6
ByLayer
370
18
48
1
60
0
100
AcDbCircle
39
0
10
0
20
-6.15
30
0
40
0.849999999999999
210
0
220
0
230
1
100
AcDbArc
50
270
51
319.029664
0
ARC
5
A9
100
AcDbEntity
8
1
62
256
6
ByLayer
370
18
48
1
60
0
100
AcDbCircle
39
0
10
1.283584
20
-7.264636
30
0
40
0.849999999999998
210
0
220
0
230
1
100
AcDbArc
50
89.896868
51
139.029664
0
ARC
5
AA
100
AcDbEntity
8
1
62
256
6
ByLayer
370
18
48
1
60
0
100
AcDbCircle
39
0
10
0
20
6.15
30
0
40
0.849999999999999
210
0
220
0
230
1
100
AcDbArc
50
40.970336
51
90
0
ELLIPSE
5
AB
100
AcDbEntity
8
1
62
256
6
ByLayer
370
13
48
1
60
0
100
AcDbEllipse
10
123.194174
20
41.339538
30
0
11
-59.8999999999999
21
7.33539205939603E-15
31
0
210
0
220
0
230
1
40
0.99863
41
0.693518000100586
42
0.728057587687576
0
ELLIPSE
5
AC
100
AcDbEntity
8
1
62
256
6
ByLayer
370
13
48
1
60
0
100
AcDbEllipse
10
17.071256
20
-43.402869
30
0
11
-58.8014421901772
21
44.9551727427232
31
0
210
0
220
0
230
1
40
0.463812
41
-1.23003306500732
42
-1.0483241250224
0
ELLIPSE
5
AD
100
AcDbEntity
8
1
62
256
6
ByLayer
370
13
48
1
60
0
100
AcDbEllipse
10
5.430407
20
-6.515551
30
0
11
-0.019521495213849
21
0.299364178258882
31
0
210
0
220
0
230
1
40
0.47272
41
0.583725062397692
42
0.913173653494853
0
ELLIPSE
5
AE
100
AcDbEntity
8
1
62
256
6
ByLayer
370
13
48
1
60
0
100
AcDbEllipse
10
19.313313
20
-40.470253
30
0
11
-58.8014421901772
21
44.9551727427231
31
0
210
0
220
0
230
1
40
0.463812
41
-1.23003306500732
42
-1.12605802532912
0
ELLIPSE
5
AF
100
AcDbEntity
8
1
62
256
6
ByLayer
370
18
48
1
60
0
100
AcDbEllipse
10
5.428886
20
-7.266532
30
0
11
1
21
0
31
0
210
0
220
0
230
1
40
1
41
1.57189833643938
42
2.12808994319502
0
ELLIPSE
5
B0
100
AcDbEntity
8
1
62
256
6
ByLayer
370
18
48
1
60
0
100
AcDbEllipse
10
5.428886
20
7.266532
30
0
11
1
21
0
31
0
210
0
220
0
230
1
40
1
41
-2.12899704727965
42
-2.08774304545799
0
POINT
5
70
100
AcDbEntity
8
80
62
256
6
ByLayer
370
18
48
1
60
0
100
AcDbPoint
10
0
20
0
30
0
39
0
210
0
220
0
230
1
50
360
0
POINT
5
72
100
AcDbEntity
8
81
62
256
6
ByLayer
370
18
48
1
60
0
100
AcDbPoint
10
79
20
0
30
0
39
0
210
0
220
0
230
1
50
360
0
POINT
5
74
100
AcDbEntity
8
1
62
256
6
ByLayer
370
18
48
1
60
1
100
AcDbPoint
10
76.4866
20
-6.55
30
0
39
0
210
0
220
0
230
1
50
360
0
POINT
5
76
100
AcDbEntity
8
1
62
256
6
ByLayer
370
18
48
1
60
1
100
AcDbPoint
10
-45
20
-7
30
0
39
0
210
0
220
0
230
1
50
360
0
POINT
5
77
100
AcDbEntity
8
1
62
256
6
ByLayer
370
18
48
1
60
1
100
AcDbPoint
10
17.96
20
6.55
30
0
39
0
210
0
220
0
230
1
50
360
0
POINT
5
78
100
AcDbEntity
8
1
62
256
6
ByLayer
370
18
48
1
60
1
100
AcDbPoint
10
76.4866
20
-6.55
30
0
39
0
210
0
220
0
230
1
50
360
0
POINT
5
79
100
AcDbEntity
8
1
62
256
6
ByLayer
370
18
48
1
60
1
100
AcDbPoint
10
-45
20
-7
30
0
39
0
210
0
220
0
230
1
50
360
0
POINT
5
7A
100
AcDbEntity
8
1
62
256
6
ByLayer
370
18
48
1
60
1
100
AcDbPoint
10
76.4866
20
-6.55
30
0
39
0
210
0
220
0
230
1
50
360
0
SPLINE
5
B1
100
AcDbEntity
8
1
62
256
6
ByLayer
370
18
48
1
60
0
100
AcDbSpline
70
4
71
1
72
4
73
2
40
0
40
0
40
1
40
1
41
1
10
78.0405001162027
20
-1.44099369432706
30
0
41
1
10
78.0463120126965
20
-1.42137306058609
30
0
0
SPLINE
5
B2
100
AcDbEntity
8
1
62
256
6
ByLayer
370
18
48
1
60
0
100
AcDbSpline
70
4
71
3
72
9
73
5
40
0
40
0
40
0
40
0
40
0.483018429672788
40
1
40
1
40
1
40
1
41
1
10
5.43240170651131
20
2.126715910515
30
0
41
1
10
5.49322768714259
20
2.09700211976227
30
0
41
1
10
5.61908542666626
20
2.03539997820505
30
0
41
1
10
5.74479360696174
20
1.97363601985018
30
0
41
1
10
5.8097420766284
20
1.94166405197689
30
0
0
SPLINE
5
B3
100
AcDbEntity
8
1
62
256
6
ByLayer
370
18
48
1
60
0
100
AcDbSpline
70
4
71
3
72
22
73
18
40
0
40
0
40
0
40
0
40
0.125
40
0.125
40
0.25
40
0.25
40
0.375
40
0.375
40
0.5
40
0.5
40
0.625
40
0.625
40
0.75
40
0.75
40
0.875
40
0.875
40
1
40
1
40
1
40
1
41
1
10
17.0712557101499
20
-2.67393060677782
30
0
41
1
10
17.1391305413444
20
-2.50094741609036
30
0
41
1
10
17.2161108208655
20
-2.32373570451048
30
0
41
1
10
17.3845716639155
20
-1.96939721969434
30
0
41
1
10
17.476045623879
20
-1.79228433631695
30
0
41
1
10
17.6690713819183
20
-1.44670850402312
30
0
41
1
10
17.7706156134985
20
-1.27825910147473
30
0
41
1
10
17.978872134578
20
-0.958156941835
30
0
41
1
10
18.0855762605447
20
-0.806516732558833
30
0
41
1
10
18.2989928782835
20
-0.527367434608124
30
0
41
1
10
18.4056970042502
20
-0.399869288420803
30
0
41
1
10
18.6139535253296
20
-0.175171682522517
30
0
41
1
10
18.7154977569099
20
-0.0779810308246738
30
0
41
1
10
18.9085235149491
20
0.0813991746445026
30
0
41
1
10
18.9999974749126
20
0.143582480806117
30
0
41
1
10
19.1684583179626
20
0.229938132818347
30
0
41
1
10
19.2454385974838
20
0.25410709357854
30
0
41
1
10
19.3133134286782
20
0.258684691523342
30
0
0
SPLINE
5
B4
100
AcDbEntity
8
1
62
256
6
ByLayer
370
13
48
1
60
0
100
AcDbSpline
70
4
71
3
72
36
73
32
40
0
40
0
40
0
40
0
40
0.15299878120134
40
0.15299878120134
40
0.30599756240268
40
0.30599756240268
40
0.325122410052848
40
0.325122410052848
40
0.344247257703016
40
0.344247257703016
40
0.382496953003352
40
0.382496953003352
40
0.458996343604021
40
0.458996343604021
40
0.61199512480536
40
0.61199512480536
40
0.631119972455527
40
0.631119972455527
40
0.650244820105694
40
0.650244820105694
40
0.688494515406028
40
0.688494515406028
40
0.764993906006695
40
0.764993906006695
40
0.917992687208028
40
0.917992687208028
40
0.956242382508361
40
0.956242382508361
40
0.994492077808694
40
0.994492077808694
40
1
40
1
40
1
40
1
41
1
10
76.5791981272463
20
-6.12394021040851
30
0
41
1
10
75.0898463448324
20
-5.89542795427539
30
0
41
1
10
73.6208191244569
20
-5.53209452204703
30
0
41
1
10
70.682347750905
20
-4.58316774414303
30
0
41
1
10
69.2128152534214
20
-3.99761011923798
30
0
41
1
10
67.5357406535555
20
-3.24339310573629
30
0
41
1
10
67.3488796717235
20
-3.15817322679243
30
0
41
1
10
66.9761533198328
20
-2.98602335987113
30
0
41
1
10
66.7901227264578
20
-2.89902167222667
30
0
41
1
10
66.232873256562
20
-2.63553216858762
30
0
41
1
10
65.8624835722639
20
-2.45658178698832
30
0
41
1
10
64.7537771146387
20
-1.9115724759244
30
0
41
1
10
64.0179203188245
20
-1.53733241527502
30
0
41
1
10
61.8122005295428
20
-0.397371416020604
30
0
41
1
10
60.3444771523896
20
0.386295161702122
30
0
41
1
10
58.6726252039414
20
1.24819657259928
30
0
41
1
10
58.486584253842
20
1.34370319698456
30
0
41
1
10
58.1138493359226
20
1.53401407940069
30
0
41
1
10
57.9269193705434
20
1.62893544903005
30
0
41
1
10
57.3672240096674
20
1.91123042800788
30
0
41
1
10
56.995413950568
20
2.09614907725691
30
0
41
1
10
55.8831103520462
20
2.64003297212381
30
0
41
1
10
55.1455443797507
20
2.98760029526232
30
0
41
1
10
52.9368193594354
20
3.97263044172146
30
0
41
1
10
51.4699507542184
20
4.5527688578367
30
0
41
1
10
49.6172652822985
20
5.14233019289739
30
0
41
1
10
49.2458108050658
20
5.25352727495905
30
0
41
1
10
48.5002732123789
20
5.4613127518135
30
0
41
1
10
48.1259321632434
20
5.55789134405916
30
0
41
1
10
47.6997332154488
20
5.65872186719182
30
0
41
1
10
47.6461055484233
20
5.67124270069783
30
0
41
1
10
47.5924963258367
20
5.68359203404785
30
0
0
SPLINE
5
B5
100
AcDbEntity
8
1
62
256
6
ByLayer
370
18
48
1
60
0
100
AcDbSpline
70
4
71
3
72
18
73
14
40
0
40
0
40
0
40
0
40
0.250000000000001
40
0.250000000000001
40
0.375000000000001
40
0.375000000000001
40
0.500000000000001
40
0.500000000000001
40
0.750000000000001
40
0.750000000000001
40
0.875
40
0.875
40
1
40
1
40
1
40
1
41
1
10
75.9694323031633
20
0.634401057281735
30
0
41
1
10
75.9020996417507
20
0.303152138165359
30
0
41
1
10
75.847833830478
20
-0.0286907440492712
30
0
41
1
10
75.7860587439151
20
-0.527347073643227
30
0
41
1
10
75.7687522031086
20
-0.69371517925174
30
0
41
1
10
75.7408980880702
20
-1.02675862416959
30
0
41
1
10
75.7303230269031
20
-1.19425193685567
30
0
41
1
10
75.7094599625299
20
-1.69067219297213
30
0
41
1
10
75.7098614437127
20
-2.01212583589219
30
0
41
1
10
75.7312711695589
20
-2.48050287261228
30
0
41
1
10
75.7418922393383
20
-2.63431698317524
30
0
41
1
10
75.7701900619501
20
-2.93726455590249
30
0
41
1
10
75.7879362444875
20
-3.08679478455426
30
0
41
1
10
75.8090833077084
20
-3.23243501163907
30
0
0
SPLINE
5
B6
100
AcDbEntity
8
1
62
256
6
ByLayer
370
18
48
1
60
0
100
AcDbSpline
70
4
71
3
72
40
73
36
40
0
40
0
40
0
40
0
40
0.125000000000001
40
0.125000000000001
40
0.250000000000002
40
0.250000000000002
40
0.375000000000003
40
0.375000000000003
40
0.500000000000004
40
0.500000000000004
40
0.531250000000004
40
0.531250000000004
40
0.562500000000004
40
0.562500000000004
40
0.625000000000002
40
0.625000000000002
40
0.656250000000002
40
0.656250000000002
40
0.687500000000001
40
0.687500000000001
40
0.750000000000001
40
0.750000000000001
40
0.781250000000001
40
0.781250000000001
40
0.812500000000001
40
0.812500000000001
40
0.875000000000001
40
0.875000000000001
40
0.9375
40
0.9375
40
0.953125
40
0.953125
40
0.96875
40
0.96875
40
1
40
1
40
1
40
1
41
1
10
15.8041175180429
20
-5.90331038799158
30
0
41
1
10
15.2428078974581
20
-5.81341498946736
30
0
41
1
10
14.6868594481748
20
-5.70687012487863
30
0
41
1
10
13.5865862167258
20
-5.45699819265707
30
0
41
1
10
13.0425748707195
20
-5.31218320535615
30
0
41
1
10
11.9675804915469
20
-4.97987845124507
30
0
41
1
10
11.4367278313251
20
-4.7917653678343
30
0
41
1
10
10.3917030960823
20
-4.35633989611819
30
0
41
1
10
9.87702759536231
20
-4.11139632456371
30
0
41
1
10
9.24723240326156
20
-3.75395314468952
30
0
41
1
10
9.12196578373494
20
-3.67983127206185
30
0
41
1
10
8.87294145146157
20
-3.52574938591505
30
0
41
1
10
8.74893707284184
20
-3.44565258496451
30
0
41
1
10
8.38202176088495
20
-3.19797540364277
30
0
41
1
10
8.14359118239278
20
-3.02294024745899
30
0
41
1
10
7.79757847875066
20
-2.74128438658056
30
0
41
1
10
7.68418493295283
20
-2.64420588318853
30
0
41
1
10
7.46175548034844
20
-2.44282100975946
30
0
41
1
10
7.35256034713871
20
-2.33832788960041
30
0
41
1
10
7.03552903087103
20
-2.01569794847362
30
0
41
1
10
6.83717697517972
20
-1.78774948755355
30
0
41
1
10
6.56420433001114
20
-1.42123981674828
30
0
41
1
10
6.47733245327359
20
-1.29494479659147
30
0
41
1
10
6.3131494273045
20
-1.0327260893248
30
0
41
1
10
6.23578193376949
20
-0.89650342677146
30
0
41
1
10
6.02520602479095
20
-0.480449015554513
30
0
41
1
10
5.91141920160999
20
-0.190733903889367
30
0
41
1
10
5.75076573613345
20
0.419871371619053
30
0
41
1
10
5.70792114006281
20
0.726469956979571
30
0
41
1
10
5.7030688082495
20
1.11063506181822
30
0
41
1
10
5.70454646856965
20
1.18752558794844
30
0
41
1
10
5.71250803584135
20
1.34142308389778
30
0
41
1
10
5.71901682895242
20
1.41844576391344
30
0
41
1
10
5.74574630920751
20
1.64644815289074
30
0
41
1
10
5.7731868454689
20
1.79546923238917
30
0
41
1
10
5.80974207662894
20
1.9416640519766
30
0
0
SPLINE
5
B7
100
AcDbEntity
8
1
62
256
6
ByLayer
370
18
48
1
60
0
100
AcDbSpline
70
4
71
3
72
12
73
8
40
0
40
0
40
0
40
0
40
0.5
40
0.5
40
0.75
40
0.75
40
1
40
1
40
1
40
1
41
1
10
5.43240170651137
20
2.12671591051497
30
0
41
1
10
5.34025046827961
20
2.17173224370038
30
0
41
1
10
5.24998313803249
20
2.22016651895342
30
0
41
1
10
5.11784669249187
20
2.29872431717163
30
0
41
1
10
5.07406491571334
20
2.32609498752495
30
0
41
1
10
4.98922464985836
20
2.38208710186763
30
0
41
1
10
4.94832395273014
20
2.41058162305174
30
0
41
1
10
4.90895085128426
20
2.43961332674212
30
0
0
SPLINE
5
B8
100
AcDbEntity
8
1
62
256
6
ByLayer
370
18
48
1
60
0
100
AcDbSpline
70
4
71
3
72
8
73
4
40
0
40
0
40
0
40
0
40
1
40
1
40
1
40
1
41
1
10
78.9997911353589
20
0.0988725284105954
30
0
41
1
10
78.8203390663376
20
0.571636376393798
30
0
41
1
10
78.64788317209
20
1.05071447718632
30
0
41
1
10
78.4807207636021
20
1.53544854632665
30
0
0
SPLINE
5
B9
100
AcDbEntity
8
1
62
256
6
ByLayer
370
13
48
1
60
0
100
AcDbSpline
70
4
71
3
72
60
73
56
40
0
40
0
40
0
40
0
40
0.0104311126817694
40
0.0249114147524115
40
0.0393917168230538
40
0.068352320964338
40
0.0828326230349806
40
0.0973129251056224
40
0.126273529246906
40
0.140753831317549
40
0.155234133388191
40
0.184194737529475
40
0.198675039600116
40
0.213155341670759
40
0.242115945812044
40
0.256596247882686
40
0.271076549953328
40
0.300037154094612
40
0.314517456165254
40
0.328997758235896
40
0.357958362377181
40
0.372438664447822
40
0.386918966518466
40
0.41587957065975
40
0.430359872730392
40
0.444840174801035
40
0.473800778942318
40
0.48828108101296
40
0.502761383083602
40
0.531721987224887
40
0.546202289295529
40
0.560682591366171
40
0.589643195507455
40
0.604123497578097
40
0.61860379964874
40
0.647564403790024
40
0.662044705860666
40
0.676525007931308
40
0.705485612072592
40
0.719965914143234
40
0.734446216213877
40
0.763406820355161
40
0.777887122425803
40
0.792367424496446
40
0.821328028637729
40
0.835808330708372
40
0.850288632779014
40
0.879249236920298
40
0.89372953899094
40
0.908209841061582
40
0.937170445202867
40
0.951650747273509
40
0.966131049344151
40
0.995091653485435
40
1
40
1
40
1
40
1
41
1
10
64.2493120545249
20
-2.54828576134244
30
0
41
1
10
64.1639537617907
20
-2.55662496191178
30
0
41
1
10
63.9600956256839
20
-2.57609598825883
30
0
41
1
10
63.6377152812598
20
-2.6051954546549
30
0
41
1
10
63.1638240974472
20
-2.64483818793997
30
0
41
1
10
62.6898644387545
20
-2.68004159371841
30
0
41
1
10
62.215839998636
20
-2.7107447534309
30
0
41
1
10
61.7419493195411
20
-2.73812338479084
30
0
41
1
10
61.267990116569
20
-2.76092697460217
30
0
41
1
10
60.7939661799761
20
-2.77912697886802
30
0
41
1
10
60.3200758624628
20
-2.79386585044989
30
0
41
1
10
59.846116519488
20
-2.80394595073758
30
0
41
1
10
59.3720915405451
20
-2.8093575977957
30
0
41
1
10
58.8982000935653
20
-2.81121333451006
30
0
41
1
10
58.4242398865286
20
-2.80839818065891
30
0
41
1
10
57.950215120081
20
-2.80095379912413
30
0
41
1
10
57.4763242964169
20
-2.78992398680018
30
0
41
1
10
57.0023650706664
20
-2.77428469366899
30
0
41
1
10
56.5283407749968
20
-2.75409762319231
30
0
41
1
10
56.0544498838279
20
-2.7303357769222
30
0
41
1
10
55.5804901389366
20
-2.70208365051099
30
0
41
1
10
55.1064655870003
20
-2.6694384916195
30
0
41
1
10
54.6325746604785
20
-2.63328132304062
30
0
41
1
10
54.1586148675907
20
-2.59281237003705
30
0
41
1
10
53.6845899968791
20
-2.5481495162729
30
0
41
1
10
53.2106990634292
20
-2.5000801460269
30
0
41
1
10
52.7367397694901
20
-2.44793599007215
30
0
41
1
10
52.2627159285133
20
-2.39186879299109
30
0
41
1
10
51.7888258737803
20
-2.33255233353151
30
0
41
1
10
51.314867020482
20
-2.26945553667335
30
0
41
1
10
50.8408423895866
20
-2.20274976005447
30
0
41
1
10
50.3669508470889
20
-2.13299271754727
30
0
41
1
10
49.892990123859
20
-2.05980078883044
30
0
41
1
10
49.4189646600136
20
-1.98337264874348
30
0
41
1
10
48.9450730650485
20
-1.90413738552115
30
0
41
1
10
48.4711131086405
20
-1.8218627807575
30
0
41
1
10
47.9970886759636
20
-1.73676525580765
30
0
41
1
10
47.5231982259143
20
-1.64914113606071
30
0
41
1
10
47.0492394614769
20
-1.55891269860436
30
0
41
1
10
46.5752159518554
20
-1.46631299939369
30
0
41
1
10
46.1013259639939
20
-1.37150208498036
30
0
41
1
10
45.6273667068193
20
-1.27455864974425
30
0
41
1
10
45.1533413835047
20
-1.17573086685556
30
0
41
1
10
44.6794495019454
20
-1.07503780127152
30
0
41
1
10
44.2054889743262
20
-0.972710723328731
30
0
41
1
10
43.7314644362273
20
-0.869003604443833
30
0
41
1
10
43.2575739877504
20
-0.763801345872622
30
0
41
1
10
42.7836152029568
20
-0.657490908501728
30
0
41
1
10
42.3095911161411
20
-0.550342542512652
30
0
41
1
10
41.8357003661425
20
-0.442094930970938
30
0
41
1
10
41.3617406571893
20
-0.333276893481525
30
0
41
1
10
40.8877160722522
20
-0.224149088193343
30
0
41
1
10
40.413825086613
20
-0.114322927679296
30
0
41
1
10
40.0181909723857
20
-0.0226214152355908
30
0
41
1
10
39.7410171467517
20
0.0415076992823913
30
0
41
1
10
39.7008488795648
20
0.0508012624241587
30
0
0
SPLINE
5
BA
100
AcDbEntity
8
1
62
256
6
ByLayer
370
18
48
1
60
0
100
AcDbSpline
70
4
71
3
72
8
73
4
40
0
40
0
40
0
40
0
40
1
40
1
40
1
40
1
41
1
10
4.89432449713931
20
6.39297477996445
30
0
41
1
10
4.89429740887289
20
6.38955435227183
30
0
41
1
10
4.90481318743608
20
6.38597925106416
30
0
41
1
10
4.92120430330002
20
6.38244257130904
30
0
0
SPLINE
5
BB
100
AcDbEntity
8
1
62
256
6
ByLayer
370
18
48
1
60
0
100
AcDbSpline
70
4
71
3
72
44
73
40
40
0
40
0
40
0
40
0
40
0.088928289225829
40
0.088928289225829
40
0.177856578451658
40
0.177856578451658
40
0.222320723064573
40
0.222320723064573
40
0.266784867677487
40
0.266784867677487
40
0.311249012290402
40
0.311249012290402
40
0.355713156903316
40
0.355713156903316
40
0.40017730151623
40
0.40017730151623
40
0.444641446129145
40
0.444641446129145
40
0.48910559074206
40
0.48910559074206
40
0.533569735354974
40
0.533569735354974
40
0.622498024580801
40
0.622498024580801
40
0.666962169193716
40
0.666962169193716
40
0.71142631380663
40
0.71142631380663
40
0.800354603032459
40
0.800354603032459
40
0.844818747645373
40
0.844818747645373
40
0.889282892258287
40
0.889282892258287
40
0.933747036871201
40
0.933747036871201
40
0.978211181484114
40
0.978211181484114
40
1
40
1
40
1
40
1
41
1
10
20.6402215494645
20
0.348173707993226
30
0
41
1
10
21.2259779750303
20
0.0361205787801566
30
0
41
1
10
21.8110470865089
20
-0.274498357322585
30
0
41
1
10
22.9793020380176
20
-0.893921258578104
30
0
41
1
10
23.5630447537493
20
-1.20165542372507
30
0
41
1
10
24.4406084574858
20
-1.65557416048944
30
0
41
1
10
24.7334015806743
20
-1.80599312082973
30
0
41
1
10
25.3192339670414
20
-2.10373979056607
30
0
41
1
10
25.6119198354975
20
-2.25041413045344
30
0
41
1
10
26.1966787493991
20
-2.53968816676584
30
0
41
1
10
26.4885815007686
20
-2.68257280439801
30
0
41
1
10
27.0726916318048
20
-2.96267103646218
30
0
41
1
10
27.3648132159439
20
-3.10004795208613
30
0
41
1
10
27.9487500504028
20
-3.37016267272398
30
0
41
1
10
28.2409015227748
20
-3.50234209037365
30
0
41
1
10
28.8259473332201
20
-3.76035342023678
30
0
41
1
10
29.1187302652425
20
-3.88678899488593
30
0
41
1
10
29.7043322756633
20
-4.1323113078179
30
0
41
1
10
29.9969600896453
20
-4.25112337343748
30
0
41
1
10
30.5813426535861
20
-4.48165742726962
30
0
41
1
10
30.8731976577024
20
-4.59321465948062
30
0
41
1
10
31.7491731189536
20
-4.91490846121835
30
0
41
1
10
32.3326666058025
20
-5.11340617348242
30
0
41
1
10
33.2101217373156
20
-5.38356165673855
30
0
41
1
10
33.502882689579
20
-5.46947750559215
30
0
41
1
10
34.0882254575592
20
-5.6310799435374
30
0
41
1
10
34.3807221302016
20
-5.70677883077374
30
0
41
1
10
35.2567800093823
20
-5.91943833828185
30
0
41
1
10
35.8403486226919
20
-6.04070722311837
30
0
41
1
10
36.7160548973896
20
-6.19112053804065
30
0
41
1
10
37.0082699271943
20
-6.23585665752316
30
0
41
1
10
37.5931176502625
20
-6.31461758378396
30
0
41
1
10
37.8858788987513
20
-6.34869981366305
30
0
41
1
10
38.4709773912108
20
-6.40546494917942
30
0
41
1
10
38.7632895101414
20
-6.42823988759201
30
0
41
1
10
39.3470534750567
20
-6.46268212923607
30
0
41
1
10
39.6388421198557
20
-6.47426547304218
30
0
41
1
10
40.0737354513939
20
-6.48316084591187
30
0
41
1
10
40.216698935967
20
-6.4847397074578
30
0
41
1
10
40.3596624810636
20
-6.484968006488
30
0
0
SPLINE
5
BC
100
AcDbEntity
8
1
62
256
6
ByLayer
370
18
48
1
60
0
100
AcDbSpline
70
4
71
3
72
24
73
20
40
0
40
0
40
0
40
0
40
0.0749311442375777
40
0.0749311442375777
40
0.177716572655628
40
0.177716572655628
40
0.383287429491723
40
0.383287429491723
40
0.486072857909769
40
0.486072857909769
40
0.588858286327815
40
0.588858286327815
40
0.691643714745861
40
0.691643714745861
40
0.794429143163908
40
0.794429143163908
40
0.897214571581954
40
0.897214571581954
40
1
40
1
40
1
40
1
41
1
10
68.1869056570343
20
4.32314472283485
30
0
41
1
10
68.3997824667801
20
4.40928600578653
30
0
41
1
10
68.6125121996711
20
4.4933229863685
30
0
41
1
10
69.116421813201
20
4.68804414995137
30
0
41
1
10
69.4076623147783
20
4.79660760699602
30
0
41
1
10
70.2816706381255
20
5.10907513458849
30
0
41
1
10
70.8638289074233
20
5.30084155717731
30
0
41
1
10
71.7391176770104
20
5.56028128179153
30
0
41
1
10
72.031274251481
20
5.64243877921754
30
0
41
1
10
72.6150162182082
20
5.79613606798043
30
0
41
1
10
72.9064344978721
20
5.86779315430385
30
0
41
1
10
73.487969958165
20
6.00112226399119
30
0
41
1
10
73.7784208891046
20
6.06251049869113
30
0
41
1
10
74.3590536707065
20
6.17460772379172
30
0
41
1
10
74.6489039985145
20
6.22552399809166
30
0
41
1
10
75.2286712521407
20
6.31646828984896
30
0
41
1
10
75.518700405082
20
6.35646878071756
30
0
41
1
10
76.0985333572046
20
6.42576289872684
30
0
41
1
10
76.3884151248351
20
6.45499225025156
30
0
41
1
10
76.6787542670057
20
6.47862382642958
30
0
0
SPLINE
5
BD
100
AcDbEntity
8
1
62
256
6
ByLayer
370
18
48
1
60
0
100
AcDbSpline
70
4
71
3
72
36
73
32
40
0
40
0
40
0
40
0
40
0.0312499999999986
40
0.0312499999999986
40
0.0624999999999972
40
0.0624999999999972
40
0.124999999999996
40
0.124999999999996
40
0.156249999999996
40
0.156249999999996
40
0.187499999999995
40
0.187499999999995
40
0.249999999999994
40
0.249999999999994
40
0.312499999999993
40
0.312499999999993
40
0.374999999999992
40
0.374999999999992
40
0.499999999999993
40
0.499999999999993
40
0.624999999999993
40
0.624999999999993
40
0.687499999999995
40
0.687499999999995
40
0.749999999999996
40
0.749999999999996
40
0.874999999999999
40
0.874999999999999
40
0.9375
40
0.9375
40
1
40
1
40
1
40
1
41
1
10
5.79693425892197
20
2.66514149223136
30
0
41
1
10
5.82844323336431
20
2.73294284744171
30
0
41
1
10
5.86690147842131
20
2.79621108157357
30
0
41
1
10
5.95497869160872
20
2.9155752007542
30
0
41
1
10
6.00492641007125
20
2.97195205057102
30
0
41
1
10
6.16676729732865
20
3.13007076946289
30
0
41
1
10
6.28818038938266
20
3.21951334617657
30
0
41
1
10
6.48328002512437
20
3.33885060413937
30
0
41
1
10
6.550790676704
20
3.37618680386177
30
0
41
1
10
6.68843188712972
20
3.44593912345149
30
0
41
1
10
6.75837782037939
20
3.47828941462347
30
0
41
1
10
6.97103488531246
20
3.56912415326974
30
0
41
1
10
7.11653490614285
20
3.6214655394958
30
0
41
1
10
7.41327645076547
20
3.71395715918939
30
0
41
1
10
7.56453853849297
20
3.75405769440906
30
0
41
1
10
7.87195675948206
20
3.82421852168397
30
0
41
1
10
8.02734732795727
20
3.85405952888254
30
0
41
1
10
8.49366301054278
20
3.92970066770886
30
0
41
1
10
8.80656412647204
20
3.96225635271682
30
0
41
1
10
9.43580326085646
20
3.99824466274438
30
0
41
1
10
9.75215360732514
20
4.00155464943637
30
0
41
1
10
10.2292274852581
20
3.98498785551695
30
0
41
1
10
10.388424516443
20
3.97582553367377
30
0
41
1
10
10.7039674232304
20
3.95039770415235
30
0
41
1
10
10.8607620275517
20
3.93411939041377
30
0
41
1
10
11.3282330366214
20
3.87442401303721
30
0
41
1
10
11.6360066732819
20
3.82021989869935
30
0
41
1
10
12.0916915479908
20
3.71515997839569
30
0
41
1
10
12.2425877583926
20
3.67616197875688
30
0
41
1
10
12.5423276649599
20
3.58963298242847
30
0
41
1
10
12.6916455614
20
3.54191576528436
30
0
41
1
10
12.8381164125525
20
3.49024066020095
30
0
0
SPLINE
5
BE
100
AcDbEntity
8
1
62
256
6
ByLayer
370
18
48
1
60
0
100
AcDbSpline
70
4
71
3
72
110
73
106
40
0
40
0
40
0
40
0
40
0.009787949298784
40
0.009787949298784
40
0.0293222144828168
40
0.0293222144828168
40
0.0488564796668496
40
0.0488564796668496
40
0.0683907448508824
40
0.0683907448508824
40
0.0879250100349153
40
0.0879250100349153
40
0.107459275218948
40
0.107459275218948
40
0.126993540402981
40
0.126993540402981
40
0.146527805587014
40
0.146527805587014
40
0.166062070771047
40
0.166062070771047
40
0.185596335955079
40
0.185596335955079
40
0.205130601139112
40
0.205130601139112
40
0.224664866323145
40
0.224664866323145
40
0.244199131507178
40
0.244199131507178
40
0.263733396691211
40
0.263733396691211
40
0.283267661875244
40
0.283267661875244
40
0.302801927059277
40
0.302801927059277
40
0.322336192243309
40
0.322336192243309
40
0.341870457427342
40
0.341870457427342
40
0.361404722611375
40
0.361404722611375
40
0.380938987795408
40
0.380938987795408
40
0.400473252979441
40
0.400473252979441
40
0.420007518163474
40
0.420007518163474
40
0.439541783347507
40
0.439541783347507
40
0.459076048531539
40
0.459076048531539
40
0.478610313715572
40
0.478610313715572
40
0.498144578899605
40
0.498144578899605
40
0.517678844083638
40
0.517678844083638
40
0.537213109267671
40
0.537213109267671
40
0.556747374451704
40
0.556747374451704
40
0.576281639635737
40
0.576281639635737
40
0.59581590481977
40
0.59581590481977
40
0.615350170003802
40
0.615350170003802
40
0.634884435187835
40
0.634884435187835
40
0.654418700371868
40
0.654418700371868
40
0.673952965555901
40
0.673952965555901
40
0.693487230739934
40
0.693487230739934
40
0.713021495923967
40
0.713021495923967
40
0.732555761108
40
0.732555761108
40
0.752090026292033
40
0.752090026292033
40
0.771624291476066
40
0.771624291476066
40
0.791158556660098
40
0.791158556660098
40
0.810692821844131
40
0.810692821844131
40
0.830227087028164
40
0.830227087028164
40
0.849761352212197
40
0.849761352212197
40
0.86929561739623
40
0.86929561739623
40
0.888829882580263
40
0.888829882580263
40
0.908364147764296
40
0.908364147764296
40
0.927898412948328
40
0.927898412948328
40
0.947432678132361
40
0.947432678132361
40
0.966966943316394
40
0.966966943316394
40
0.986501208500427
40
0.986501208500427
40
1
40
1
40
1
40
1
41
1
10
20.0418201960405
20
6.29277103072181
30
0
41
1
10
20.1994446626918
20
6.29321393555776
30
0
41
1
10
20.3571078755144
20
6.29204757718742
30
0
41
1
10
20.8289864732328
20
6.28355353260608
30
0
41
1
10
21.1428564661691
20
6.27133614699991
30
0
41
1
10
21.7705460167413
20
6.23550394359009
30
0
41
1
10
22.0839803969168
20
6.21169872805444
30
0
41
1
10
22.7109397565988
20
6.1495308102765
30
0
41
1
10
23.0247321023896
20
6.11201763634813
30
0
41
1
10
23.6521866401465
20
6.02553810474458
30
0
41
1
10
23.965875242948
20
5.97710222586022
30
0
41
1
10
24.5945877943938
20
5.86725671613277
30
0
41
1
10
24.909269740767
20
5.80512313704358
30
0
41
1
10
25.5372395253231
20
5.67026614008819
30
0
41
1
10
25.8511842972651
20
5.59766468455845
30
0
41
1
10
26.4782810825532
20
5.44215555717747
30
0
41
1
10
26.7915830929346
20
5.35816757440213
30
0
41
1
10
27.4189096147974
20
5.17929813141882
30
0
41
1
10
27.7325119214452
20
5.0845315659474
30
0
41
1
10
28.3600423656119
20
4.88538615995279
30
0
41
1
10
28.6743712226433
20
4.78156170005718
30
0
41
1
10
29.3032835934165
20
4.5621695031067
30
0
41
1
10
29.6171505349135
20
4.44734703730265
30
0
41
1
10
30.2448779640922
20
4.21039238979486
30
0
41
1
10
30.5583393594018
20
4.08788206570713
30
0
41
1
10
31.1849626733528
20
3.83471822709765
30
0
41
1
10
31.4985540445993
20
3.70400701319363
30
0
41
1
10
32.1256801308691
20
3.43473919769744
30
0
41
1
10
32.4392497519111
20
3.29623212246401
30
0
41
1
10
33.0673624974012
20
3.01409827032293
30
0
41
1
10
33.3818773152571
20
2.86941525389744
30
0
41
1
10
34.0097197631942
20
2.57397891249622
30
0
41
1
10
34.3235554037858
20
2.42415661505615
30
0
41
1
10
34.9504553234903
20
2.1196753318541
30
0
41
1
10
35.2635080697254
20
1.96501052140994
30
0
41
1
10
35.8902580003178
20
1.65262351035082
30
0
41
1
10
36.2036212044258
20
1.49427611365925
30
0
41
1
10
36.8305341574873
20
1.17441952596855
30
0
41
1
10
37.1444031803348
20
1.01358293395455
30
0
41
1
10
37.772627832413
20
0.688926719329686
30
0
41
1
10
38.0866171493373
20
0.525304578501846
30
0
41
1
10
38.7140802072914
20
0.199004153712252
30
0
41
1
10
39.0274348327033
20
0.0354517866251456
30
0
41
1
10
39.6536405817122
20
-0.291989450486284
30
0
41
1
10
39.96688766583
20
-0.455083064891454
30
0
41
1
10
40.593359153823
20
-0.780565117502618
30
0
41
1
10
40.9065401347846
20
-0.943048611273412
30
0
41
1
10
41.5338976638661
20
-1.26549926070325
30
0
41
1
10
41.8479923264068
20
-1.42631905581035
30
0
41
1
10
42.4757493591866
20
-1.74458094551088
30
0
41
1
10
42.7894526856696
20
-1.90119504511682
30
0
41
1
10
43.4161450070874
20
-2.21084254551692
30
0
41
1
10
43.7290198878046
20
-2.36435198463707
30
0
41
1
10
44.3552758853622
20
-2.66506633685239
30
0
41
1
10
44.6683508888745
20
-2.81280391070658
30
0
41
1
10
45.2946072562501
20
-3.10290167887001
30
0
41
1
10
45.6081465689484
20
-3.24472625477486
30
0
41
1
10
46.2355418711148
20
-3.52324783779167
30
0
41
1
10
46.5495540919539
20
-3.65955707621671
30
0
41
1
10
47.1768569069248
20
-3.92260192486339
30
0
41
1
10
47.4901544222657
20
-4.04994723706369
30
0
41
1
10
48.1161023697878
20
-4.29763471710035
30
0
41
1
10
48.4290867568729
20
-4.41756195957527
30
0
41
1
10
49.0550397170516
20
-4.6474310373122
30
0
41
1
10
49.3678769953295
20
-4.75780604303253
30
0
41
1
10
49.9945969942166
20
-4.96851867414321
30
0
41
1
10
50.3081148729396
20
-5.06980095734517
30
0
41
1
10
50.9357119529641
20
-5.26251478695443
30
0
41
1
10
51.2493651704369
20
-5.35282326217944
30
0
41
1
10
51.8758340880352
20
-5.52240733964902
30
0
41
1
10
52.1885780055834
20
-5.60183251522358
30
0
41
1
10
52.814336590458
20
-5.75052322324368
30
0
41
1
10
53.1271449302193
20
-5.81910976191244
30
0
41
1
10
53.7527852392952
20
-5.94357299581989
30
0
41
1
10
54.0659449990607
20
-5.99948691770783
30
0
41
1
10
54.6927026376699
20
-6.10047211120283
30
0
41
1
10
55.0063803161308
20
-6.14609744974337
30
0
41
1
10
55.633471228886
20
-6.22274732329333
30
0
41
1
10
55.9466730167433
20
-6.25426382026615
30
0
41
1
10
56.5722945792583
20
-6.30585029429594
30
0
41
1
10
56.8850168860968
20
-6.32588221576555
30
0
41
1
10
57.5103930665978
20
-6.35294071385039
30
0
41
1
10
57.8228770788721
20
-6.35959646002001
30
0
41
1
10
58.4487660813789
20
-6.35994512844363
30
0
41
1
10
58.7620010369919
20
-6.35380265459816
30
0
41
1
10
59.3887910415665
20
-6.32947385769333
30
0
41
1
10
59.702551737777
20
-6.31100351170366
30
0
41
1
10
60.3288683049279
20
-6.26080303046078
30
0
41
1
10
60.641490825726
20
-6.22929442596697
30
0
41
1
10
61.2668380193142
20
-6.15547393474716
30
0
41
1
10
61.5794167644668
20
-6.11339391826073
30
0
41
1
10
62.2044389486971
20
-6.0148164357127
30
0
41
1
10
62.5171830012391
20
-5.95872084844299
30
0
41
1
10
63.1434124086833
20
-5.83424748869686
30
0
41
1
10
63.4568423273001
20
-5.76576217885284
30
0
41
1
10
64.0839970219269
20
-5.61801959666693
30
0
41
1
10
64.3973046924892
20
-5.53885691329543
30
0
41
1
10
65.0229842096916
20
-5.37010655231452
30
0
41
1
10
65.3356125850032
20
-5.2809709810266
30
0
41
1
10
65.9608322413601
20
-5.09248536450602
30
0
41
1
10
66.2731858825805
20
-4.99248264178385
30
0
41
1
10
66.8986410691613
20
-4.78205641133167
30
0
41
1
10
67.2117615938362
20
-4.67185768588871
30
0
41
1
10
67.7415257653425
20
-4.47709443536689
30
0
41
1
10
67.9582679334612
20
-4.39524519179176
30
0
41
1
10
68.1748899000807
20
-4.31144220829063
30
0
0
SPLINE
5
BF
100
AcDbEntity
8
1
62
256
6
ByLayer
370
18
48
1
60
0
100
AcDbSpline
70
4
71
3
72
8
73
4
40
0
40
0
40
0
40
0
40
1
40
1
40
1
40
1
41
1
10
78.9997911353589
20
0.0988725284106522
30
0
41
1
10
79.0000696215457
20
0.0329575094702079
30
0
41
1
10
79.0000696215457
20
-0.0329575094702363
30
0
41
1
10
78.9997911353589
20
-0.0988725284106522
30
0
0
SPLINE
5
C0
100
AcDbEntity
8
1
62
256
6
ByLayer
370
18
48
1
60
0
100
AcDbSpline
70
4
71
3
72
8
73
4
40
0
40
0
40
0
40
0
40
1
40
1
40
1
40
1
41
1
10
5.80974207662894
20
1.94166405197663
30
0
41
1
10
5.73504218103614
20
1.99411067625832
30
0
41
1
10
5.6607531692753
20
2.04728176397484
30
0
41
1
10
5.58687624437624
20
2.10118125938089
30
0
0
SPLINE
5
C1
100
AcDbEntity
8
1
62
256
6
ByLayer
370
18
48
1
60
0
100
AcDbSpline
70
4
71
3
72
8
73
4
40
0
40
0
40
0
40
0
40
1
40
1
40
1
40
1
41
1
10
75.9694323031632
20
0.634401057281735
30
0
41
1
10
76.3166702924773
20
0.497847531370212
30
0
41
1
10
76.6663532054087
20
0.374302857040306
30
0
41
1
10
77.0187644932998
20
0.265275210832016
30
0
0
SPLINE
5
C2
100
AcDbEntity
8
1
62
256
6
ByLayer
370
18
48
1
60
0
100
AcDbSpline
70
4
71
3
72
12
73
8
40
0
40
0
40
0
40
0
40
0.481333072294646
40
0.481333072294646
40
0.891671013380184
40
0.891671013380184
40
1
40
1
40
1
40
1
41
1
10
42.3862106579839
20
-6.32922300557988
30
0
41
1
10
41.9506758270187
20
-6.33530180850306
30
0
41
1
10
41.5142211424936
20
-6.3291456842349
30
0
41
1
10
40.7029927447221
20
-6.29473398080984
30
0
41
1
10
40.3287297888967
20
-6.26988012139708
30
0
41
1
10
39.8563219728832
20
-6.22724366400465
30
0
41
1
10
39.7576573432246
20
-6.21772038180208
30
0
41
1
10
39.658990130974
20
-6.20758170977035
30
0
0
SPLINE
5
C3
100
AcDbEntity
8
1
62
256
6
ByLayer
370
13
48
1
60
0
100
AcDbSpline
70
4
71
3
72
38
73
34
40
0
40
0
40
0
40
0
40
0.0277610338166108
40
0.0277610338166108
40
0.0654798010444596
40
0.0654798010444596
40
0.103198568272308
40
0.103198568272308
40
0.254073637183703
40
0.254073637183703
40
0.291792404411551
40
0.291792404411551
40
0.310651788025475
40
0.310651788025475
40
0.329511171639398
40
0.329511171639398
40
0.404948706095091
40
0.404948706095091
40
0.555823775006474
40
0.555823775006474
40
0.59354254223432
40
0.59354254223432
40
0.631261309462165
40
0.631261309462165
40
0.706698843917857
40
0.706698843917857
40
0.857573912829238
40
0.857573912829238
40
0.895292680057084
40
0.895292680057084
40
0.93301144728493
40
0.93301144728493
40
1
40
1
40
1
40
1
41
1
10
39.6589901312997
20
-6.20758170980386
30
0
41
1
10
39.383917110187
20
-6.17931623962531
30
0
41
1
10
39.1088240163609
20
-6.14626776710816
30
0
41
1
10
38.4596481289105
20
-6.05717922556789
30
0
41
1
10
38.0861636151422
20
-5.99719436698558
30
0
41
1
10
37.3417998602092
20
-5.86093730729047
30
0
41
1
10
36.9705551154262
20
-5.78463704621049
30
0
41
1
10
35.1175746345964
20
-5.36409308290854
30
0
41
1
10
33.645060818413
20
-4.90233922095086
30
0
41
1
10
31.7909950176279
20
-4.19889384045405
30
0
41
1
10
31.4195260607765
20
-4.05186343881053
30
0
41
1
10
30.8607205949829
20
-3.82255324795344
30
0
41
1
10
30.6741852492786
20
-3.74465881726408
30
0
41
1
10
30.3005478963612
20
-3.58601996392909
30
0
41
1
10
30.1132909663428
20
-3.50520325958828
30
0
41
1
10
29.1792539248082
20
-3.09602217522772
30
0
41
1
10
28.436588079295
20
-2.75148719561614
30
0
41
1
10
26.2145922609776
20
-1.6810429207884
30
0
41
1
10
24.7409525952156
20
-0.918621964580581
30
0
41
1
10
22.882926741662
20
0.0462990136874168
30
0
41
1
10
22.5105006123074
20
0.239836161482998
30
0
41
1
10
21.7633245366549
20
0.626710724366774
30
0
41
1
10
21.3885336276371
20
0.820087490704907
30
0
41
1
10
20.2698584042371
20
1.3929518592997
30
0
41
1
10
19.5281752443256
20
1.76655665777139
30
0
41
1
10
17.3078756208143
20
2.84917021548006
30
0
41
1
10
15.8337281055595
20
3.51913442082105
30
0
41
1
10
13.9729697642019
20
4.24726427882666
30
0
41
1
10
13.5998998531332
20
4.38739970565328
30
0
41
1
10
12.8512142741092
20
4.65546752961453
30
0
41
1
10
12.4771554297011
20
4.78288340609177
30
0
41
1
10
11.4427831951774
20
5.1159945365697
30
0
41
1
10
10.7840503091163
20
5.30599462707511
30
0
41
1
10
10.12652031432
20
5.47150602241101
30
0
0
SPLINE
5
C4
100
AcDbEntity
8
1
62
256
6
ByLayer
370
13
48
1
60
0
100
AcDbSpline
70
4
71
3
72
18
73
14
40
0
40
0
40
0
40
0
40
0.0500289331989765
40
0.195136740557309
40
0.267690644236474
40
0.340244547915639
40
0.48535235527397
40
0.557906258953137
40
0.630460162632302
40
0.775567969990633
40
0.8481218736698
40
0.920675777348965
40
1
40
1
40
1
40
1
41
0.999999999999999
10
77.1442863507516
20
2.80832633357489
30
0
41
0.999999999999999
10
77.0625769261032
20
2.80763764428508
30
0
41
0.999999999999999
10
76.7438531212447
20
2.80416275921246
30
0
41
0.999999999999999
10
76.3066817331245
20
2.79553550518927
30
0
41
0.999999999999999
10
75.8327904151191
20
2.7814895718208
30
0
41
0.999999999999999
10
75.3587656344259
20
2.7639888850076
30
0
41
0.999999999999999
10
74.884809390221
20
2.74186320828574
30
0
41
0.999999999999999
10
74.4109170904148
20
2.71514965595117
30
0
41
0.999999999999999
10
73.9368908245032
20
2.68512747752482
30
0
41
0.999999999999999
10
73.4629329957505
20
2.65058689530429
30
0
41
0.999999999999999
10
72.9890405447839
20
2.61156324254214
30
0
41
0.999999999999999
10
72.6224628651976
20
2.57895658641337
30
0
41
0.999999999999998
10
72.3744167916919
20
2.55529987936186
30
0
41
0.999999999999998
10
72.2448717814333
20
2.54251503853263
30
0
0
SPLINE
5
C5
100
AcDbEntity
8
1
62
256
6
ByLayer
370
13
48
1
60
0
100
AcDbSpline
70
4
71
3
72
10
73
6
40
0
40
0
40
0
40
0
40
0.102917406963045
40
0.468395500422548
40
1
40
1
40
1
40
1
41
0.999999999999999
10
20.6506240580293
20
-0.0508949659939618
30
0
41
0.999999999999999
10
20.6047416858015
20
-0.0402774145668446
30
0
41
0.999999999999999
10
20.3959127576413
20
0.0080191361628579
30
0
41
0.999999999999999
10
19.9500432603406
20
0.111020621009686
30
0
41
0.999999999999999
10
19.5502245561919
20
0.203774456146334
30
0
41
0.999999999999999
10
19.3133134286782
20
0.258684691523343
30
0
0
SPLINE
5
C6
100
AcDbEntity
8
1
62
256
6
ByLayer
370
18
48
1
60
0
100
AcDbSpline
70
4
71
3
72
10
73
6
40
0
40
0
40
0
40
0
40
0.5
40
0.5
40
1
40
1
40
1
40
1
41
1
10
77.1309594658038
20
3.101150061038
30
0
41
1
10
77.1510836526383
20
3.37070380550028
30
0
41
1
10
77.190277560915
20
3.63619111389684
30
0
41
1
10
77.2860025326029
20
4.16346874785091
30
0
41
1
10
77.3430148697569
20
4.42515644637683
30
0
41
1
10
77.4050351996367
20
4.68577623825823
30
0
0
SPLINE
5
C7
100
AcDbEntity
8
1
62
256
6
ByLayer
370
18
48
1
60
0
100
AcDbSpline
70
4
71
3
72
8
73
4
40
0
40
0
40
0
40
0
40
1
40
1
40
1
40
1
41
1
10
78.0438808090194
20
-1.41889377766333
30
0
41
1
10
78.0446911866027
20
-1.41972022848751
30
0
41
1
10
78.0455015878293
20
-1.42054665612889
30
0
41
1
10
78.0463120126971
20
-1.4213730605855
30
0
0
SPLINE
5
C8
100
AcDbEntity
8
1
62
256
6
ByLayer
370
18
48
1
60
0
100
AcDbSpline
70
4
71
3
72
20
73
16
40
0
40
0
40
0
40
0
40
0.25
40
0.25
40
0.375000000000001
40
0.375000000000001
40
0.437500000000001
40
0.437500000000001
40
0.500000000000001
40
0.500000000000001
40
0.75
40
0.75
40
0.875
40
0.875
40
1
40
1
40
1
40
1
41
1
10
76.5791981272462
20
-6.12394021040851
30
0
41
1
10
76.4481691991854
20
-6.0124422004134
30
0
41
1
10
76.3317639410208
20
-5.86776915660715
30
0
41
1
10
76.1799080578961
20
-5.59914474240975
30
0
41
1
10
76.1331037557503
20
-5.50095015039182
30
0
41
1
10
76.0689580065359
20
-5.3399090419785
30
0
41
1
10
76.048561831155
20
-5.28382340221455
30
0
41
1
10
76.0102974022179
20
-5.16827023284984
30
0
41
1
10
75.9923688510116
20
-5.10866851396304
30
0
41
1
10
75.9087013655434
20
-4.80159951948741
30
0
41
1
10
75.8607261640174
20
-4.52719680671237
30
0
41
1
10
75.8182980507527
20
-4.07080880768035
30
0
41
1
10
75.8091098948573
20
-3.91024094189663
30
0
41
1
10
75.8013078410559
20
-3.57898338229154
30
0
41
1
10
75.8026141278191
20
-3.40824313115215
30
0
41
1
10
75.8090833077084
20
-3.23243501163907
30
0
0
SPLINE
5
C9
100
AcDbEntity
8
1
62
256
6
ByLayer
370
18
48
1
60
0
100
AcDbSpline
70
4
71
3
72
8
73
4
40
0
40
0
40
0
40
0
40
1
40
1
40
1
40
1
41
1
10
5.30647302032696
20
-6.33987166659958
30
0
41
1
10
5.53778301980947
20
-6.3207727596662
30
0
41
1
10
5.76901509090141
20
-6.29820763194928
30
0
41
1
10
6.00020107589748
20
-6.27222277648411
30
0
0
SPLINE
5
CA
100
AcDbEntity
8
1
62
256
6
ByLayer
370
18
48
1
60
0
100
AcDbSpline
70
4
71
3
72
54
73
50
40
0
40
0
40
0
40
0
40
0.0182435197533677
40
0.0182435197533677
40
0.0499130836322899
40
0.0499130836322899
40
0.113252211390135
40
0.113252211390135
40
0.144921775269057
40
0.144921775269057
40
0.176591339147979
40
0.176591339147979
40
0.239930466905825
40
0.239930466905825
40
0.271600030784748
40
0.271600030784748
40
0.303269594663671
40
0.303269594663671
40
0.366608722421518
40
0.366608722421518
40
0.398278286300442
40
0.398278286300442
40
0.429947850179365
40
0.429947850179365
40
0.493286977937213
40
0.493286977937213
40
0.524956541816137
40
0.524956541816137
40
0.556626105695061
40
0.556626105695061
40
0.619965233452909
40
0.619965233452909
40
0.683304361210758
40
0.683304361210758
40
0.714973925089682
40
0.714973925089682
40
0.746643488968607
40
0.746643488968607
40
0.809982616726456
40
0.809982616726456
40
0.84165218060538
40
0.84165218060538
40
0.873321744484304
40
0.873321744484304
40
0.936660872242153
40
0.936660872242153
40
0.968330436121076
40
0.968330436121076
40
1
40
1
40
1
40
1
41
1
10
41.47094919594
20
6.48696943951975
30
0
41
1
10
41.6850655068272
20
6.48730240220149
30
0
41
1
10
41.8993199855464
20
6.48460504721913
30
0
41
1
10
42.4856893488184
20
6.46890510036457
30
0
41
1
10
42.8570861808443
20
6.4498112660757
30
0
41
1
10
43.9704201902937
20
6.36552043826964
30
0
41
1
10
44.7114216065762
20
6.27328057110574
30
0
41
1
10
45.8253448503279
20
6.08253058215664
30
0
41
1
10
46.1975004388624
20
6.01013138535163
30
0
41
1
10
46.9409244963211
20
5.8486721611053
30
0
41
1
10
47.3120461896852
20
5.75967753253394
30
0
41
1
10
48.4247683181214
20
5.46899197719105
30
0
41
1
10
49.1656359519214
20
5.24351024676886
30
0
41
1
10
50.2797479648323
20
4.86201324644861
30
0
41
1
10
50.6519780706414
20
4.72750139110943
30
0
41
1
10
51.3947983673871
20
4.44596180994429
30
0
41
1
10
51.7656828194264
20
4.29887647436351
30
0
41
1
10
52.8779005790191
20
3.84034745860129
30
0
41
1
10
53.6186628828319
20
3.51142759866272
30
0
41
1
10
54.733048431127
20
2.98963857269604
30
0
41
1
10
55.1051182120172
20
2.81095506832821
30
0
41
1
10
55.847381184174
20
2.44679269108178
30
0
41
1
10
56.2180263836146
20
2.26112511370789
30
0
41
1
10
57.3297173786164
20
1.6955139476629
30
0
41
1
10
58.0705189961711
20
1.3069679081533
30
0
41
1
10
59.1852432012693
20
0.714121864673785
30
0
41
1
10
59.5569013355114
20
0.515172012672565
30
0
41
1
10
60.2986612153411
20
0.116863027474381
30
0
41
1
10
60.6691260300511
20
-0.0826354349480312
30
0
41
1
10
61.7804629384909
20
-0.679943166069108
30
0
41
1
10
62.5213402889959
20
-1.07658532584043
30
0
41
1
10
64.0080432073078
20
-1.85663359078995
30
0
41
1
10
64.7486614312008
20
-2.23725657973037
30
0
41
1
10
65.8596945067645
20
-2.78678264415214
30
0
41
1
10
66.2300931286144
20
-2.96632966510961
30
0
41
1
10
66.9715574583182
20
-3.31719931169039
30
0
41
1
10
67.3430220613191
20
-3.48863195181522
30
0
41
1
10
68.456997349386
20
-3.9873017705898
30
0
41
1
10
69.1972041664707
20
-4.29827514686485
30
0
41
1
10
70.3080333739402
20
-4.72672778407386
30
0
41
1
10
70.6784280126548
20
-4.86317201802899
30
0
41
1
10
71.4200410790619
20
-5.12250604764637
30
0
41
1
10
71.7917620885341
20
-5.24553103101803
30
0
41
1
10
72.9043721248419
20
-5.59127367403804
30
0
41
1
10
73.643286997373
20
-5.79083624073058
30
0
41
1
10
74.7514946897343
20
-6.04055843130095
30
0
41
1
10
75.1208810448629
20
-6.11552249245273
30
0
41
1
10
75.8602324463592
20
-6.24841103387908
30
0
41
1
10
76.2300174581724
20
-6.30641747251426
30
0
41
1
10
76.6007747462592
20
-6.35547015422898
30
0
0
SPLINE
5
CB
100
AcDbEntity
8
1
62
256
6
ByLayer
370
18
48
1
60
0
100
AcDbSpline
70
4
71
1
72
4
73
2
40
0
40
0
40
1
40
1
41
1
10
76.6280902835501
20
-6.20920937887769
30
0
41
1
10
78.0405001162032
20
-1.44099369432718
30
0
0
SPLINE
5
CC
100
AcDbEntity
8
1
62
256
6
ByLayer
370
18
48
1
60
0
100
AcDbSpline
70
4
71
3
72
44
73
40
40
0
40
0
40
0
40
0
40
0.0163826689866698
40
0.0163826689866698
40
0.0327653379733397
40
0.0327653379733397
40
0.0655306759466795
40
0.0655306759466795
40
0.131061351893359
40
0.131061351893359
40
0.196592027840038
40
0.196592027840038
40
0.262122703786718
40
0.262122703786718
40
0.393184055680077
40
0.393184055680077
40
0.425949393653417
40
0.425949393653417
40
0.458714731626756
40
0.458714731626756
40
0.524245407573436
40
0.524245407573436
40
0.557010745546775
40
0.557010745546775
40
0.589776083520115
40
0.589776083520115
40
0.655306759466794
40
0.655306759466794
40
0.720837435413473
40
0.720837435413473
40
0.753602773386813
40
0.753602773386813
40
0.786368111360152
40
0.786368111360152
40
0.917429463253509
40
0.917429463253509
40
0.982960139200188
40
0.982960139200188
40
1
40
1
40
1
40
1
41
1
10
4.90895085129316
20
2.4396133267399
30
0
41
1
10
4.90383785753204
20
2.37602373906853
30
0
41
1
10
4.90069449488109
20
2.31193175926202
30
0
41
1
10
4.89809776514377
20
2.18274965214857
30
0
41
1
10
4.89873455131433
20
2.11765391433769
30
0
41
1
10
4.8987893776399
20
1.92127763107138
30
0
41
1
10
4.89881979877919
20
1.78847303261364
30
0
41
1
10
4.89889322084497
20
1.38734812831328
30
0
41
1
10
4.8989182748733
20
1.11806694227678
30
0
41
1
10
4.89892938228536
20
0.575907042464991
30
0
41
1
10
4.89891541294776
20
0.30302799397441
30
0
41
1
10
4.89885511801356
20
-0.246377303008501
30
0
41
1
10
4.89880829024128
20
-0.524631190547183
30
0
41
1
10
4.89863227943249
20
-1.34323595397953
30
0
41
1
10
4.89846880036356
20
-1.87277088862049
30
0
41
1
10
4.89823204626421
20
-2.51414141289195
30
0
41
1
10
4.89818297695638
20
-2.64136710161145
30
0
41
1
10
4.89808327643061
20
-2.89003577292823
30
0
41
1
10
4.89803247337275
20
-3.0119564978296
30
0
41
1
10
4.89787770989091
20
-3.37060783887154
30
0
41
1
10
4.89777145948983
20
-3.60025612968965
30
0
41
1
10
4.89760826282961
20
-3.93053795075789
30
0
41
1
10
4.8975532108544
20
-4.03825966805923
30
0
41
1
10
4.89744173429602
20
-4.24886783003828
30
0
41
1
10
4.89738510844489
20
-4.35209460447851
30
0
41
1
10
4.89721499602723
20
-4.65062348976636
30
0
41
1
10
4.89710102269612
20
-4.83550942000571
30
0
41
1
10
4.89686941765248
20
-5.17785749452722
30
0
41
1
10
4.89675179381351
20
-5.33531836935711
30
0
41
1
10
4.8965693959521
20
-5.55054332733428
30
0
41
1
10
4.89650742908776
20
-5.61894087427029
30
0
41
1
10
4.89638146782505
20
-5.7477893278774
30
0
41
1
10
4.89631780829728
20
-5.80792172680009
30
0
41
1
10
4.89599437339612
20
-6.08764765805651
30
0
41
1
10
4.89572002541473
20
-6.24545912634815
30
0
41
1
10
4.89524303708902
20
-6.38064007570495
30
0
41
1
10
4.89507541259135
20
-6.40776693882475
30
0
41
1
10
4.8948505316487
20
-6.41975013710032
30
0
41
1
10
4.89480336863261
20
-6.42103832586648
30
0
41
1
10
4.89475538864565
20
-6.42113706708577
30
0
0
SPLINE
5
CD
100
AcDbEntity
8
1
62
256
6
ByLayer
370
18
48
1
60
0
100
AcDbSpline
70
4
71
3
72
10
73
6
40
0
40
0
40
0
40
0
40
0.5
40
0.5
40
1
40
1
40
1
40
1
41
1
10
5.58687624439864
20
2.10118125937049
30
0
41
1
10
5.6146822130101
20
2.19917407646946
30
0
41
1
10
5.64663116846265
20
2.29616715592675
30
0
41
1
10
5.7169687152855
20
2.48430898149169
30
0
41
1
10
5.75544617336377
20
2.57586697677306
30
0
41
1
10
5.79693425892197
20
2.66514149223136
30
0
0
SPLINE
5
CE
100
AcDbEntity
8
1
62
256
6
ByLayer
370
18
48
1
60
0
100
AcDbSpline
70
4
71
3
72
8
73
4
40
0
40
0
40
0
40
0
40
1
40
1
40
1
40
1
41
1
10
76.6787542670057
20
-6.47862382642958
30
0
41
1
10
76.6499813965967
20
-6.4476695661555
30
0
41
1
10
76.6239890838029
20
-6.40652232958834
30
0
41
1
10
76.6007747462592
20
-6.35547015422898
30
0
0
SPLINE
5
CF
100
AcDbEntity
8
1
62
256
6
ByLayer
370
13
48
1
60
0
100
AcDbSpline
70
4
71
3
72
27
73
23
40
0
40
0
40
0
40
0
40
0.0649795540490352
40
0.103938739296992
40
0.142897924544949
40
0.220816295040863
40
0.25977548028882
40
0.298734665536777
40
0.37665303603269
40
0.415612221280647
40
0.454571406528603
40
0.532489777024518
40
0.571448962272475
40
0.610408147520431
40
0.688326518016345
40
0.727285703264302
40
0.766244888512259
40
0.819813768228199
40
0.844163259008173
40
0.868512749788146
40
0.922081629504086
40
1
40
1
40
1
40
1
41
1
10
26.1954954627797
20
-2.54371625749044
30
0
41
1
10
25.9978803372574
20
-2.56317785234444
30
0
41
1
10
25.6817576452827
20
-2.59271218170349
30
0
41
1
10
25.2470901305438
20
-2.6297459812011
30
0
41
1
10
24.7731992426043
20
-2.666943405111
30
0
41
1
10
24.2992400297962
20
-2.69966275973204
30
0
41
1
10
23.8252162642118
20
-2.72785121077808
30
0
41
1
10
23.3513262406883
20
-2.75267709835677
30
0
41
1
10
22.8773673520589
20
-2.77289107488511
30
0
41
1
10
22.4033425684943
20
-2.78845815551679
30
0
41
1
10
21.9294507832915
20
-2.80053149503604
30
0
41
1
10
21.4554897408517
20
-2.80793558188
30
0
41
1
10
20.9814640158882
20
-2.81069355014571
30
0
41
1
10
20.5075722794357
20
-2.80989761870021
30
0
41
1
10
20.0336123980756
20
-2.80445479593902
30
0
41
1
10
19.5595883455702
20
-2.79440802625291
30
0
41
1
10
19.1597066631522
20
-2.78301281956468
30
0
41
1
10
18.804217135001
20
-2.77015884921059
30
0
41
1
10
18.4931507347759
20
-2.75689535871339
30
0
41
1
10
18.1821531200736
20
-2.74213618245247
30
0
41
1
10
17.7082889413194
20
-2.71634287531586
30
0
41
1
10
17.3083029347625
20
-2.69062807433198
30
0
41
1
10
17.0712557101502
20
-2.67393060677793
30
0
0
SPLINE
5
D0
100
AcDbEntity
8
1
62
256
6
ByLayer
370
18
48
1
60
0
100
AcDbSpline
70
4
71
3
72
8
73
4
40
0
40
0
40
0
40
0
40
1
40
1
40
1
40
1
41
1
10
4.89475511605511
20
6.42113761525312
30
0
41
1
10
4.89461866010598
20
6.42140560755451
30
0
41
1
10
4.89447559604037
20
6.41205399522818
30
0
41
1
10
4.89432449713931
20
6.39297477996445
30
0
0
SPLINE
5
D1
100
AcDbEntity
8
1
62
256
6
ByLayer
370
18
48
1
60
0
100
AcDbSpline
70
4
71
4
72
10
73
5
40
0
40
0
40
0
40
0
40
0
40
1
40
1
40
1
40
1
40
1
41
1
10
20.6402215494644
20
0.348173707993254
30
0
41
1
10
20.3084945192679
20
0.325801453875755
30
0
41
1
10
19.9767674890714
20
0.303429199758284
30
0
41
1
10
19.6450404588749
20
0.281056945640813
30
0
41
1
10
19.3133134286782
20
0.258684691523342
30
0
0
SPLINE
5
D2
100
AcDbEntity
8
1
62
256
6
ByLayer
370
18
48
1
60
0
100
AcDbSpline
70
4
71
3
72
20
73
16
40
0
40
0
40
0
40
0
40
0.250000000000005
40
0.250000000000005
40
0.375000000000004
40
0.375000000000004
40
0.500000000000003
40
0.500000000000003
40
0.625000000000002
40
0.625000000000002
40
0.750000000000002
40
0.750000000000002
40
0.875000000000001
40
0.875000000000001
40
1
40
1
40
1
40
1
41
1
10
78.0463120126955
20
-1.42137306058677
30
0
41
1
10
78.1144160996774
20
-1.38096280660218
30
0
41
1
10
78.1871644358739
20
-1.31423813726417
30
0
41
1
10
78.3038197301477
20
-1.1770002622298
30
0
41
1
10
78.3442134538833
20
-1.12459169354011
30
0
41
1
10
78.425341957721
20
-1.01030724120824
30
0
41
1
10
78.4662967748097
20
-0.9482235104945
30
0
41
1
10
78.548989333472
20
-0.814652475546069
30
0
41
1
10
78.5907359690954
20
-0.743146886324951
30
0
41
1
10
78.6749643056251
20
-0.590838874264023
30
0
41
1
10
78.7166444404465
20
-0.511489340998025
30
0
41
1
10
78.7991542509255
20
-0.346867982224637
30
0
41
1
10
78.8399834591909
20
-0.261593499097103
30
0
41
1
10
78.9207404295132
20
-0.0853121000027102
30
0
41
1
10
78.9608545395672
20
0.0061601517063252
30
0
41
1
10
78.9997911353589
20
0.0988725284106238
30
0
0
SPLINE
5
D3
100
AcDbEntity
8
1
62
256
6
ByLayer
370
18
48
1
60
0
100
AcDbSpline
70
4
71
3
72
8
73
4
40
0
40
0
40
0
40
0
40
1
40
1
40
1
40
1
41
1
10
77.144286350768
20
2.80832633357505
30
0
41
1
10
77.1293139666083
20
2.90534948152893
30
0
41
1
10
77.123621364623
20
3.00285974666426
30
0
41
1
10
77.1309594658037
20
3.10115006103817
30
0
0
SPLINE
5
D4
100
AcDbEntity
8
1
62
256
6
ByLayer
370
18
48
1
60
0
100
AcDbSpline
70
4
71
3
72
10
73
6
40
0
40
0
40
0
40
0
40
0.5
40
0.5
40
1
40
1
40
1
40
1
41
1
10
76.6787542670057
20
6.47862382642958
30
0
41
1
10
76.7977411443551
20
6.19115912303025
30
0
41
1
10
76.9182226128443
20
5.89829181668412
30
0
41
1
10
77.1608483812315
20
5.3011882386181
30
0
41
1
10
77.2829645534109
20
4.99677854897595
30
0
41
1
10
77.4050351996367
20
4.6857762382582
30
0
0
SPLINE
5
D5
100
AcDbEntity
8
1
62
256
6
ByLayer
370
18
48
1
60
0
100
AcDbSpline
70
4
71
3
72
8
73
4
40
0
40
0
40
0
40
0
40
1
40
1
40
1
40
1
41
1
10
78.4807207636019
20
-1.53544854632719
30
0
41
1
10
78.1189616872573
20
-2.58446997830632
30
0
41
1
10
77.7603931949042
20
-3.63457695058955
30
0
41
1
10
77.4050351996367
20
-4.68577623825823
30
0
0
SPLINE
5
D6
100
AcDbEntity
8
1
62
256
6
ByLayer
370
18
48
1
60
0
100
AcDbSpline
70
4
71
3
72
10
73
6
40
0
40
0
40
0
40
0
40
0.5
40
0.5
40
1
40
1
40
1
40
1
41
1
10
76.6007747462592
20
-6.35547015422901
30
0
41
1
10
76.6081044118822
20
-6.32780470595938
30
0
41
1
10
76.614253219123
20
-6.30067486672334
30
0
41
1
10
76.6234316817465
20
-6.25112523767154
30
0
41
1
10
76.6264826505869
20
-6.22872496238597
30
0
41
1
10
76.6280902835509
20
-6.20920937887234
30
0
0
SPLINE
5
D7
100
AcDbEntity
8
1
62
256
6
ByLayer
370
18
48
1
60
0
100
AcDbSpline
70
4
71
3
72
26
73
22
40
0
40
0
40
0
40
0
40
0.126715864473673
40
0.126715864473673
40
0.214044278026305
40
0.214044278026305
40
0.301372691578937
40
0.301372691578937
40
0.388701105131569
40
0.388701105131569
40
0.476029518684201
40
0.476029518684201
40
0.650686345789464
40
0.650686345789464
40
0.738014759342098
40
0.738014759342098
40
0.825343172894732
40
0.825343172894732
40
0.912671586447366
40
0.912671586447366
40
1
40
1
40
1
40
1
41
1
10
76.2822881535512
20
0.524020101681714
30
0
41
1
10
76.3157480215509
20
0.561574389505296
30
0
41
1
10
76.353402600034
20
0.608319741863596
30
0
41
1
10
76.4234463905358
20
0.703611982654962
30
0
41
1
10
76.4534966797279
20
0.746658676562447
30
0
41
1
10
76.5154920930657
20
0.840086776832379
30
0
41
1
10
76.5475316845483
20
0.890592398579713
30
0
41
1
10
76.6132584290495
20
0.999244779214649
30
0
41
1
10
76.6469491240376
20
1.05739000456867
30
0
41
1
10
76.7154903984983
20
1.18166864003913
30
0
41
1
10
76.7498987051799
20
1.24701595939672
30
0
41
1
10
76.8516840818331
20
1.45108058556349
30
0
41
1
10
76.9182693088236
20
1.59827355061617
30
0
41
1
10
77.0089091042116
20
1.83805999189931
30
0
41
1
10
77.0371628987819
20
1.92032105117229
30
0
41
1
10
77.0870859928694
20
2.08835529551354
30
0
41
1
10
77.1088690310175
20
2.17434974427673
30
0
41
1
10
77.1425227051794
20
2.35092570522266
30
0
41
1
10
77.1543917321222
20
2.44225454218116
30
0
41
1
10
77.1623053583405
20
2.62492004271448
30
0
41
1
10
77.1584475160637
20
2.71655999756481
30
0
41
1
10
77.144286350768
20
2.80832633357505
30
0
0
SPLINE
5
D8
100
AcDbEntity
8
1
62
256
6
ByLayer
370
18
48
1
60
0
100
AcDbSpline
70
4
71
3
72
10
73
6
40
0
40
0
40
0
40
0
40
0.5
40
0.5
40
1
40
1
40
1
40
1
41
1
10
76.6787542670057
20
-6.47862382642958
30
0
41
1
10
76.7977541088966
20
-6.19112780152525
30
0
41
1
10
76.9182424611524
20
-5.89824339337676
30
0
41
1
10
77.1608687566422
20
-5.30113767102426
30
0
41
1
10
77.2829783776551
20
-4.99674332861755
30
0
41
1
10
77.4050351996367
20
-4.68577623825823
30
0
0
SPLINE
5
D9
100
AcDbEntity
8
1
62
256
6
ByLayer
370
13
48
1
60
0
100
AcDbSpline
70
4
71
3
72
60
73
56
40
0
40
0
40
0
40
0
40
0.0138005847726046
40
0.0426476403177335
40
0.0570711680902961
40
0.0714946958628627
40
0.10034175140799
40
0.114765279180555
40
0.12918880695312
40
0.158035862498247
40
0.172459390270811
40
0.186882918043376
40
0.215729973588504
40
0.230153501361069
40
0.244577029133633
40
0.273424084678761
40
0.287847612451326
40
0.30227114022389
40
0.331118195769018
40
0.345541723541582
40
0.359965251314147
40
0.388812306859275
40
0.403235834631839
40
0.417659362404404
40
0.446506417949532
40
0.460929945722096
40
0.475353473494661
40
0.504200529039789
40
0.518624056812353
40
0.533047584584918
40
0.561894640130046
40
0.57631816790261
40
0.590741695675175
40
0.619588751220303
40
0.634012278992867
40
0.648435806765432
40
0.67728286231056
40
0.691706390083125
40
0.706129917855689
40
0.734976973400817
40
0.749400501173381
40
0.763824028945946
40
0.792671084491074
40
0.807094612263638
40
0.821518140036202
40
0.850365195581331
40
0.864788723353896
40
0.879212251126459
40
0.908059306671588
40
0.922482834444152
40
0.936906362216716
40
0.965753417761845
40
0.980176945534409
40
0.994600473306973
40
1
40
1
40
1
40
1
41
0.999999999999999
10
58.7549216231217
20
-0.0520204949281436
30
0
41
0.999999999999998
10
58.6415480148422
20
-0.0257579409475568
30
0
41
0.999999999999999
10
58.2911476476053
20
0.0552810776755735
30
0
41
0.999999999999999
10
57.8223082000504
20
0.163880693737127
30
0
41
0.999999999999999
10
57.3484160669651
20
0.273564751250604
30
0
41
0.999999999999999
10
56.8743903454862
20
0.382475517033499
30
0
41
0.999999999999999
10
56.4004334712839
20
0.490998067753481
30
0
41
0.999999999999999
10
55.9265416568823
20
0.598881761915721
30
0
41
0.999999999999999
10
55.452515942321
20
0.705593541323425
30
0
41
0.999999999999999
10
54.978558569276
20
0.811378765367011
30
0
41
0.999999999999999
10
54.5046657253408
20
0.915982358927836
30
0
41
0.999999999999999
10
54.030639132235
20
1.01902600396417
30
0
41
0.999999999999999
10
53.5566813186592
20
1.12061528523464
30
0
41
0.999999999999999
10
53.0827892645712
20
1.22050611847524
30
0
41
0.999999999999999
10
52.6087641590345
20
1.3184737434849
30
0
41
0.999999999999999
10
52.1348082151104
20
1.41447954722881
30
0
41
0.999999999999999
10
51.6609169938292
20
1.50828473388003
30
0
41
0.999999999999999
10
51.1868919407369
20
1.59982648858738
30
0
41
0.999999999999999
10
50.7129352300865
20
1.68892379367333
30
0
41
0.999999999999999
10
50.2390429777601
20
1.77535236533595
30
0
41
0.999999999999999
10
49.7650167798887
20
1.85921019645326
30
0
41
0.999999999999999
10
49.2910588774107
20
1.94017649545561
30
0
41
0.999999999999999
10
48.8171657021359
20
2.01804291543744
30
0
41
0.999999999999999
10
48.3431390421146
20
2.09306620427839
30
0
41
0.999999999999999
10
47.8691816322733
20
2.16478925642778
30
0
41
0.999999999999999
10
47.3952902704208
20
2.23302114588731
30
0
41
0.999999999999999
10
46.9212655038454
20
2.29817699366797
30
0
41
0.999999999999999
10
46.4473093643216
20
2.35967279498249
30
0
41
0.999999999999999
10
45.9734172174323
20
2.41734330277018
30
0
41
0.999999999999999
10
45.4993910180338
20
2.47174801185193
30
0
41
0.999999999999999
10
45.025433135974
20
2.52217726644199
30
0
41
0.999999999999999
10
44.5515405378786
20
2.56847929532538
30
0
41
0.999999999999999
10
44.0775146399437
20
2.61136489523725
30
0
41
0.999999999999999
10
43.6035576818667
20
2.65001729335868
30
0
41
0.999999999999999
10
43.1296655817733
20
2.68432367190786
30
0
41
0.999999999999999
10
42.6556399194023
20
2.7151207329278
30
0
41
0.999999999999999
10
42.1816831305134
20
2.74149068976792
30
0
41
0.999999999999999
10
41.7077914280858
20
2.76334034820008
30
0
41
0.999999999999999
10
41.2337658645467
20
2.78162893922056
30
0
41
0.999999999999999
10
40.7598086621806
20
2.79535113032216
30
0
41
0.999999999999999
10
40.2859159625937
20
2.80444317946044
30
0
41
0.999999999999999
10
39.8118894952723
20
2.80996880215736
30
0
41
0.999999999999999
10
39.3379317486956
20
2.81084215537769
30
0
41
0.999999999999999
10
38.8640395984013
20
2.8070187560281
30
0
41
0.999999999999999
10
38.3900142674308
20
2.79966963197711
30
0
41
0.999999999999999
10
37.9160579837815
20
2.78765763328093
30
0
41
0.999999999999999
10
37.4421664176502
20
2.77098973514646
30
0
41
0.999999999999999
10
36.9681410318434
20
2.75090269380431
30
0
41
0.999999999999999
10
36.4941840749918
20
2.72621547477354
30
0
41
0.999999999999999
10
36.0202918347304
20
2.69695261248075
30
0
41
0.999999999999999
10
35.5462658187862
20
2.66441249755073
30
0
41
0.999999999999999
10
35.0723082477811
20
2.62738782759618
30
0
41
0.999999999999999
10
34.5984153797168
20
2.58593471610826
30
0
41
0.999999999999999
10
34.3170385747752
20
2.55949276814693
30
0
41
0.999999999999999
10
34.1541792447698
20
2.54350751148229
30
0
41
0.999999999999999
10
34.1098194081645
20
2.53910306841468
30
0
0
SPLINE
5
DA
100
AcDbEntity
8
1
62
256
6
ByLayer
370
18
48
1
60
0
100
AcDbSpline
70
4
71
3
72
8
73
4
40
0
40
0
40
0
40
0
40
1
40
1
40
1
40
1
41
1
10
5.58687624437499
20
2.10118125937669
30
0
41
1
10
5.36102485387372
20
2.21466742640334
30
0
41
1
10
5.1350643328617
20
2.3275091752636
30
0
41
1
10
4.90895085128375
20
2.43961332674056
30
0
0
SPLINE
5
DB
100
AcDbEntity
8
1
62
256
6
ByLayer
370
18
48
1
60
0
100
AcDbSpline
70
4
71
3
72
98
73
94
40
0
40
0
40
0
40
0
40
0.0047136531453159
40
0.0047136531453159
40
0.0234926408218189
40
0.0234926408218189
40
0.0610506161748256
40
0.0610506161748256
40
0.0798296038513289
40
0.0798296038513289
40
0.0986085915278322
40
0.0986085915278322
40
0.13616656688084
40
0.13616656688084
40
0.154945554557343
40
0.154945554557343
40
0.173724542233846
40
0.173724542233846
40
0.248840492939859
40
0.248840492939859
40
0.267619480616363
40
0.267619480616363
40
0.286398468292866
40
0.286398468292866
40
0.305177455969369
40
0.305177455969369
40
0.323956443645873
40
0.323956443645873
40
0.342735431322376
40
0.342735431322376
40
0.361514418998879
40
0.361514418998879
40
0.399072394351887
40
0.399072394351887
40
0.41785138202839
40
0.41785138202839
40
0.436630369704894
40
0.436630369704894
40
0.455409357381398
40
0.455409357381398
40
0.474188345057901
40
0.474188345057901
40
0.492967332734405
40
0.492967332734405
40
0.511746320410908
40
0.511746320410908
40
0.530525308087412
40
0.530525308087412
40
0.549304295763916
40
0.549304295763916
40
0.568083283440419
40
0.568083283440419
40
0.586862271116923
40
0.586862271116923
40
0.62442024646993
40
0.62442024646993
40
0.643199234146433
40
0.643199234146433
40
0.661978221822936
40
0.661978221822936
40
0.680757209499439
40
0.680757209499439
40
0.699536197175943
40
0.699536197175943
40
0.718315184852446
40
0.718315184852446
40
0.737094172528949
40
0.737094172528949
40
0.755873160205452
40
0.755873160205452
40
0.774652147881956
40
0.774652147881956
40
0.793431135558459
40
0.793431135558459
40
0.812210123234962
40
0.812210123234962
40
0.830989110911465
40
0.830989110911465
40
0.849768098587969
40
0.849768098587969
40
0.887326073940976
40
0.887326073940976
40
0.90610506161748
40
0.90610506161748
40
0.924884049293984
40
0.924884049293984
40
0.943663036970488
40
0.943663036970488
40
0.962442024646992
40
0.962442024646992
40
0.981221012323496
40
0.981221012323496
40
1
40
1
40
1
40
1
41
1
10
30.0672521760775
20
4.27819687252077
30
0
41
1
10
30.1406313955727
20
4.3075809596013
30
0
41
1
10
30.2139873428045
20
4.33673531091583
30
0
41
1
10
30.5794535915108
20
4.48092596033214
30
0
41
1
10
30.871252502501
20
4.59248095909851
30
0
41
1
10
31.7470605103343
20
4.91417114769953
30
0
41
1
10
32.330441434261
20
5.11267375215059
30
0
41
1
10
33.2077267095808
20
5.38284778337047
30
0
41
1
10
33.5004298230316
20
5.46877189425683
30
0
41
1
10
34.0856642340815
20
5.63040101382043
30
0
41
1
10
34.3781074506107
20
5.70611432295692
30
0
41
1
10
35.2540046923021
20
5.91882384434979
30
0
41
1
10
35.8374624439104
20
6.04013720902705
30
0
41
1
10
36.7129971916381
20
6.19063219256432
30
0
41
1
10
37.0051531018739
20
6.23539836369903
30
0
41
1
10
37.5898886872654
20
6.31422087977799
30
0
41
1
10
37.8825913308592
20
6.34833802770473
30
0
41
1
10
39.3450687318698
20
6.49043773088869
30
0
41
1
10
40.5093973469291
20
6.51477604131242
30
0
41
1
10
41.9708186108003
20
6.43232107671486
30
0
41
1
10
42.2635371875209
20
6.41012660767819
30
0
41
1
10
42.8482905463343
20
6.35479673055565
30
0
41
1
10
43.1403306085026
20
6.32161458247194
30
0
41
1
10
43.723801367374
20
6.24423920428555
30
0
41
1
10
44.0155092790481
20
6.2001768538025
30
0
41
1
10
44.5989610613816
20
6.10142604180149
30
0
41
1
10
44.8904060095609
20
6.04653190943677
30
0
41
1
10
45.4740121773117
20
5.92649991264506
30
0
41
1
10
45.7661772121813
20
5.8614055463313
30
0
41
1
10
46.3506267950843
20
5.7204841844212
30
0
41
1
10
46.6433189520536
20
5.64484046913924
30
0
41
1
10
47.5200858209989
20
5.40420964433517
30
0
41
1
10
48.1030028827015
20
5.22439909904372
30
0
41
1
10
48.9778062978849
20
4.92874268945693
30
0
41
1
10
49.2691952373056
20
4.82552357412703
30
0
41
1
10
49.8527880649901
20
4.61126716212249
30
0
41
1
10
50.144890935355
20
4.500127909535
30
0
41
1
10
50.729317912282
20
4.26920360726103
30
0
41
1
10
51.0219296619862
20
4.14989119960308
30
0
41
1
10
51.6061904158685
20
3.90497605128576
30
0
41
1
10
51.8977772725459
20
3.77875899863258
30
0
41
1
10
52.4809087070673
20
3.52038838203683
30
0
41
1
10
52.7725581569747
20
3.38841657544376
30
0
41
1
10
53.3554706269526
20
3.11801913451563
30
0
41
1
10
53.646857562767
20
2.97977757102365
30
0
41
1
10
54.2304156232077
20
2.69873974170631
30
0
41
1
10
54.5224011887748
20
2.55563905283952
30
0
41
1
10
55.1068582768546
20
2.26433380311948
30
0
41
1
10
55.399323418931
20
2.11675648453064
30
0
41
1
10
55.9832735342279
20
1.81871183854815
30
0
41
1
10
56.2746863602673
20
1.66758930290092
30
0
41
1
10
56.8576686726336
20
1.36346311297123
30
0
41
1
10
57.1492423094446
20
1.21047519522673
30
0
41
1
10
58.0232883605986
20
0.747034163579855
30
0
41
1
10
58.6065395120904
20
0.434784816806996
30
0
41
1
10
59.4833366931846
20
-0.0365429138246043
30
0
41
1
10
59.7755901528528
20
-0.193342942872079
30
0
41
1
10
60.3591593640345
20
-0.506356215275162
30
0
41
1
10
60.6504459181095
20
-0.662891002763018
30
0
41
1
10
61.2332705595266
20
-0.973692545609964
30
0
41
1
10
61.5247114538283
20
-1.12814558502154
30
0
41
1
10
62.1072464099279
20
-1.43589279773846
30
0
41
1
10
62.3986800921631
20
-1.58856122542454
30
0
41
1
10
62.9822367131256
20
-1.89084235932148
30
0
41
1
10
63.2740900170748
20
-2.04109307102718
30
0
41
1
10
63.8585798201019
20
-2.33772654511614
30
0
41
1
10
64.1506312597625
20
-2.48357576065408
30
0
41
1
10
64.7337992592855
20
-2.77133178890247
30
0
41
1
10
65.0250295661749
20
-2.91302681291475
30
0
41
1
10
65.6077183301878
20
-3.19050561746903
30
0
41
1
10
65.8989959087277
20
-3.32659789210737
30
0
41
1
10
66.4814510973492
20
-3.59340186447781
30
0
41
1
10
66.7729128419464
20
-3.72366236257588
30
0
41
1
10
67.3564147430151
20
-3.97773813886147
30
0
41
1
10
67.6483637666652
20
-4.10209166910104
30
0
41
1
10
68.2325154902249
20
-4.34288010061761
30
0
41
1
10
68.5243627926397
20
-4.45917991017691
30
0
41
1
10
69.1069879728544
20
-4.68447650158811
30
0
41
1
10
69.3980498118956
20
-4.79307113697362
30
0
41
1
10
70.2714167404772
20
-5.10560407027995
30
0
41
1
10
70.8529934901698
20
-5.29739547504525
30
0
41
1
10
71.72720150212
20
-5.55686302804932
30
0
41
1
10
72.0186069306935
20
-5.63895580231355
30
0
41
1
10
72.6026945728119
20
-5.79303334674327
30
0
41
1
10
72.8948465196052
20
-5.86500512080957
30
0
41
1
10
73.4775710646795
20
-5.99886448651927
30
0
41
1
10
73.7686890363671
20
-6.06052150161636
30
0
41
1
10
74.3508276157535
20
-6.17312641329011
30
0
41
1
10
74.6415149085688
20
-6.22428279037979
30
0
41
1
10
75.2231056023375
20
-6.31567556310128
30
0
41
1
10
75.514129250286
20
-6.35587938330966
30
0
41
1
10
76.0961238149563
20
-6.4255175396427
30
0
41
1
10
76.3871654419341
20
-6.45489053480097
30
0
41
1
10
76.6787542670057
20
-6.47862382642958
30
0
0
SPLINE
5
DC
100
AcDbEntity
8
1
62
256
6
ByLayer
370
18
48
1
60
0
100
AcDbSpline
70
4
71
3
72
44
73
40
40
0
40
0
40
0
40
0
40
0.052653748869499
40
0.052653748869499
40
0.105307497738998
40
0.105307497738998
40
0.157961246608497
40
0.157961246608497
40
0.210614995477996
40
0.210614995477996
40
0.263268744347495
40
0.263268744347495
40
0.315922493216994
40
0.315922493216994
40
0.368576242086493
40
0.368576242086493
40
0.421229990955992
40
0.421229990955992
40
0.473883739825491
40
0.473883739825491
40
0.52653748869499
40
0.52653748869499
40
0.579191237564489
40
0.579191237564489
40
0.631844986433988
40
0.631844986433988
40
0.684498735303487
40
0.684498735303487
40
0.737152484172986
40
0.737152484172986
40
0.789806233042485
40
0.789806233042485
40
0.842459981911984
40
0.842459981911984
40
0.895113730781483
40
0.895113730781483
40
0.947767479650982
40
0.947767479650982
40
1
40
1
40
1
40
1
41
1
10
75.9694323031632
20
0.634401057281735
30
0
41
1
10
75.6570398872662
20
0.798356300705109
30
0
41
1
10
75.3445789311107
20
0.961008119496483
30
0
41
1
10
74.7201828377748
20
1.28497680544305
30
0
41
1
10
74.4080464037348
20
1.44589476453479
30
0
41
1
10
73.7830985598566
20
1.76403387143873
30
0
41
1
10
73.4706121378241
20
1.92185840397019
30
0
41
1
10
72.8448865403857
20
2.23361629710377
30
0
41
1
10
72.5311697572422
20
2.38725302505188
30
0
41
1
10
71.904298502886
20
2.68968120512025
30
0
41
1
10
71.5913195035561
20
2.83828654920458
30
0
41
1
10
70.9653591996224
20
3.12887836379719
30
0
41
1
10
70.6526990789161
20
3.27141173195611
30
0
41
1
10
70.0275254393251
20
3.54912443191515
30
0
41
1
10
69.714764852349
20
3.68380423654142
30
0
41
1
10
69.0892126981096
20
3.94693346557938
30
0
41
1
10
68.7763567273905
20
4.07507034741113
30
0
41
1
10
68.1495019081396
20
4.32261917947352
30
0
41
1
10
67.8355546168353
20
4.44255376046132
30
0
41
1
10
67.2089414075197
20
4.67286602524379
30
0
41
1
10
66.8957811137558
20
4.78304756219768
30
0
41
1
10
66.2702308762395
20
4.99344758852189
30
0
41
1
10
65.9578139838702
20
5.09343167237392
30
0
41
1
10
65.3324459010959
20
5.28188889210583
30
0
41
1
10
65.0197355294292
20
5.37101979806496
30
0
41
1
10
64.3938658629376
20
5.5397469400333
30
0
41
1
10
64.0804513651855
20
5.61889485327225
30
0
41
1
10
63.4530711471502
20
5.76661012416426
30
0
41
1
10
63.139544255049
20
5.83506785019992
30
0
41
1
10
62.5131055874073
20
5.95947914138168
30
0
41
1
10
62.2002599354942
20
6.01553780655973
30
0
41
1
10
61.5750202739955
20
6.11402420206969
30
0
41
1
10
61.2623273079277
20
6.15605944975636
30
0
41
1
10
60.6367596915546
20
6.22979909561295
30
0
41
1
10
60.3240202090133
20
6.26125895342398
30
0
41
1
10
59.6974664548338
20
6.31134269222929
30
0
41
1
10
59.3835875804393
20
6.32974411824745
30
0
41
1
10
58.7590968708155
20
6.35384647554383
30
0
41
1
10
58.4482546524174
20
6.35992066036894
30
0
41
1
10
58.1376983366496
20
6.35977177840513
30
0
0
SPLINE
5
DD
100
AcDbEntity
8
1
62
256
6
ByLayer
370
18
48
1
60
0
100
AcDbSpline
70
4
71
3
72
34
73
30
40
0
40
0
40
0
40
0
40
0.0099667093562082
40
0.0099667093562082
40
0.0759689287324609
40
0.0759689287324609
40
0.141971148108713
40
0.141971148108713
40
0.207973367484966
40
0.207973367484966
40
0.273975586861219
40
0.273975586861219
40
0.339977806237472
40
0.339977806237472
40
0.405980025613724
40
0.405980025613724
40
0.471982244989977
40
0.471982244989977
40
0.537984464366229
40
0.537984464366229
40
0.603986683742482
40
0.603986683742482
40
0.669988903118735
40
0.669988903118735
40
0.735991122494988
40
0.735991122494988
40
0.867995561247493
40
0.867995561247493
40
1
40
1
40
1
40
1
41
1
10
30.062362394164
20
-4.27904407592487
30
0
41
1
10
30.0149684445002
20
-4.29711060175978
30
0
41
1
10
29.9675647642484
20
-4.31508550547861
30
0
41
1
10
29.6061611528592
20
-4.45139725966322
30
0
41
1
10
29.2917712958482
20
-4.56631007588905
30
0
41
1
10
28.6636288151307
20
-4.78518005275646
30
0
41
1
10
28.3498647647154
20
-4.88870916999488
30
0
41
1
10
27.7230415824019
20
-5.0874408221791
30
0
41
1
10
27.4097037148507
20
-5.18202177793373
30
0
41
1
10
26.7827487672937
20
-5.36058484951272
30
0
41
1
10
26.4695463466448
20
-5.44442348372456
30
0
41
1
10
25.8424349379559
20
-5.59972962805958
30
0
41
1
10
25.5284096401485
20
-5.67226530648875
30
0
41
1
10
24.9001133937205
20
-5.80698353999665
30
0
41
1
10
24.5857290726781
20
-5.86892562823783
30
0
41
1
10
23.9581501372265
20
-5.97832750978006
30
0
41
1
10
23.6449461745037
20
-6.02661802497147
30
0
41
1
10
23.0183262530284
20
-6.11281672771509
30
0
41
1
10
22.7048854525201
20
-6.15021147877204
30
0
41
1
10
22.0784735166549
20
-6.21216294529208
30
0
41
1
10
21.7652195089207
20
-6.23587128043187
30
0
41
1
10
21.1377588873305
20
-6.27156281838194
30
0
41
1
10
20.8239401609319
20
-6.28371434385394
30
0
41
1
10
20.1951543891672
20
-6.29489170460008
30
0
41
1
10
19.8809217901681
20
-6.29383321711089
30
0
41
1
10
18.9400712008279
20
-6.27222267604733
30
0
41
1
10
18.3136932695311
20
-6.23362540704051
30
0
41
1
10
17.0603146541519
20
-6.10464776560033
30
0
41
1
10
16.4336967137475
20
-6.0161518335544
30
0
41
1
10
15.8041175180429
20
-5.90331038799158
30
0
0
SPLINE
5
DE
100
AcDbEntity
8
1
62
256
6
ByLayer
370
18
48
1
60
0
100
AcDbSpline
70
4
71
3
72
12
73
8
40
0
40
0
40
0
40
0
40
0.249999999999992
40
0.249999999999992
40
0.499999999999984
40
0.499999999999984
40
1
40
1
40
1
40
1
41
1
10
4.9212043033001
20
6.38244257130904
30
0
41
1
10
4.94062049830163
20
6.37825317600778
30
0
41
1
10
4.9667514180868
20
6.3743167574462
30
0
41
1
10
5.0255213878379
20
6.3666765938805
30
0
41
1
10
5.0580669313174
20
6.36302491125903
30
0
41
1
10
5.15894675981841
20
6.35256427410781
30
0
41
1
10
5.23137318243522
20
6.34607254342208
30
0
41
1
10
5.30647302032699
20
6.33987166659958
30
0
0
SPLINE
5
DF
100
AcDbEntity
8
1
62
256
6
ByLayer
370
18
48
1
60
0
100
AcDbSpline
70
4
71
3
72
56
73
52
40
0
40
0
40
0
40
0
40
0.0574382397183238
40
0.0574382397183238
40
0.0861573595774857
40
0.0861573595774857
40
0.114876479436648
40
0.114876479436648
40
0.172314719154971
40
0.172314719154971
40
0.201033839014133
40
0.201033839014133
40
0.229752958873295
40
0.229752958873295
40
0.287191198591619
40
0.287191198591619
40
0.344629438309943
40
0.344629438309943
40
0.373348558169105
40
0.373348558169105
40
0.402067678028267
40
0.402067678028267
40
0.45950591774659
40
0.45950591774659
40
0.488225037605752
40
0.488225037605752
40
0.516944157464915
40
0.516944157464915
40
0.574382397183239
40
0.574382397183239
40
0.603101517042401
40
0.603101517042401
40
0.631820636901562
40
0.631820636901562
40
0.689258876619885
40
0.689258876619885
40
0.717977996479046
40
0.717977996479046
40
0.746697116338207
40
0.746697116338207
40
0.804135356056529
40
0.804135356056529
40
0.861573595774852
40
0.861573595774852
40
0.919011835493175
40
0.919011835493175
40
0.947730955352336
40
0.947730955352336
40
0.976450075211496
40
0.976450075211496
40
1
40
1
40
1
40
1
41
1
10
5.30647302032691
20
6.33987166659958
30
0
41
1
10
6.05250820503176
20
6.27827270160199
30
0
41
1
10
6.7977327225754
20
6.1806170308686
30
0
41
1
10
7.91595611305979
20
5.98238824678089
30
0
41
1
10
8.28898621042413
20
5.9076671640741
30
0
41
1
10
9.03354593558842
20
5.74206997624847
30
0
41
1
10
9.40535871928233
20
5.65110906785588
30
0
41
1
10
10.5203833887736
20
5.35466656072953
30
0
41
1
10
11.2633092771671
20
5.12573950754674
30
0
41
1
10
12.3811474058116
20
4.73948090371491
30
0
41
1
10
12.7538894739125
20
4.60375344723644
30
0
41
1
10
13.4978878961219
20
4.32017119849039
30
0
41
1
10
13.8694815960732
20
4.17216715018392
30
0
41
1
10
14.9840993966301
20
3.71105067903346
30
0
41
1
10
15.7270456849108
20
3.38096404765773
30
0
41
1
10
17.2179641364532
20
2.68331839936852
30
0
41
1
10
17.9608564998215
20
2.31845580964074
30
0
41
1
10
19.0751615475921
20
1.75420624546766
30
0
41
1
10
19.4466265142706
20
1.56334510707222
30
0
41
1
10
20.1902940348212
20
1.17728840061898
30
0
41
1
10
20.5628155040955
20
0.981860624166671
30
0
41
1
10
21.6800179013733
20
0.392135525087269
30
0
41
1
10
22.4224877417008
20
-0.0041957547006461
30
0
41
1
10
23.5365441108586
20
-0.596195548842928
30
0
41
1
10
23.9079768392449
20
-0.79307095006979
30
0
41
1
10
24.6517610069682
20
-1.18447720572391
30
0
41
1
10
25.0245269488744
20
-1.37927717218616
30
0
41
1
10
26.1408419727194
20
-1.95644396623842
30
0
41
1
10
26.8829388875044
20
-2.33130257643424
30
0
41
1
10
27.9968328697225
20
-2.87182649062643
30
0
41
1
10
28.3682967997577
20
-3.0483026939435
30
0
41
1
10
29.1122189014434
20
-3.39270750726837
30
0
41
1
10
29.4849011807845
20
-3.56080424512692
30
0
41
1
10
30.6003416351709
20
-4.04830098005456
30
0
41
1
10
31.3421333227635
20
-4.35149087838857
30
0
41
1
10
32.4559398872435
20
-4.76811552554119
30
0
41
1
10
32.8274224986642
20
-4.90059233612717
30
0
41
1
10
33.5715149836341
20
-5.1517872104528
30
0
41
1
10
33.9439368019266
20
-5.27043429930697
30
0
41
1
10
35.0586294481002
20
-5.60295502720743
30
0
41
1
10
35.8001147901379
20
-5.7939121545717
30
0
41
1
10
37.2851844451251
20
-6.10958960781016
30
0
41
1
10
38.0303613597932
20
-6.23434169232738
30
0
41
1
10
39.5156764060357
20
-6.41174438306498
30
0
41
1
10
40.2569161462554
20
-6.46474878385052
30
0
41
1
10
41.3707654007099
20
-6.4896318109534
30
0
41
1
10
41.7426249937818
20
-6.48881757042838
30
0
41
1
10
42.4867395543508
20
-6.46885989392294
30
0
41
1
10
42.8581459986978
20
-6.4497483444944
30
0
41
1
10
43.5335898934117
20
-6.39857873565094
30
0
41
1
10
43.8377074087169
20
-6.36946443478215
30
0
41
1
10
44.1418152749579
20
-6.3343675676085
30
0
0
SPLINE
5
E0
100
AcDbEntity
8
1
62
256
6
ByLayer
370
18
48
1
60
0
100
AcDbSpline
70
4
71
3
72
8
73
4
40
0
40
0
40
0
40
0
40
1
40
1
40
1
40
1
41
1
10
76.6280902835504
20
-6.20920937887783
30
0
41
1
10
76.6179459922053
20
-6.16886383307929
30
0
41
1
10
76.6002013071771
20
-6.14181269704486
30
0
41
1
10
76.5791981272463
20
-6.12394021040851
30
0
0
SPLINE
5
E1
100
AcDbEntity
8
1
62
256
6
ByLayer
370
18
48
1
60
0
100
AcDbSpline
70
4
71
3
72
16
73
12
40
0
40
0
40
0
40
0
40
0.125
40
0.125
40
0.249999999999999
40
0.249999999999999
40
0.500000000000001
40
0.500000000000001
40
0.750000000000001
40
0.750000000000001
40
1
40
1
40
1
40
1
41
1
10
12.8381164125526
20
3.49024066020073
30
0
41
1
10
13.164328399534
20
3.37515265071556
30
0
41
1
10
13.4914934827009
20
3.25788750682099
30
0
41
1
10
14.1456286876629
20
3.01961653994633
30
0
41
1
10
14.4724367399504
20
2.89867350194828
30
0
41
1
10
15.4519966667074
20
2.53027370456988
30
0
41
1
10
16.1038820062097
20
2.27725965229641
30
0
41
1
10
17.4049563607236
20
1.75529418466599
30
0
41
1
10
18.0541460475491
20
1.48634607735539
30
0
41
1
10
19.3495106122877
20
0.93093765620219
30
0
41
1
10
19.9956855247716
20
0.644485834150657
30
0
41
1
10
20.6402215494645
20
0.348173707993198
30
0
0
SPLINE
5
E2
100
AcDbEntity
8
1
62
256
6
ByLayer
370
13
48
1
60
0
100
AcDbSpline
70
4
71
3
72
50
73
46
40
0
40
0
40
0
40
0
40
0.0468853637693275
40
0.0468853637693275
40
0.0809251722061372
40
0.0809251722061372
40
0.114964980642947
40
0.114964980642947
40
0.183044597516566
40
0.251124214390186
40
0.251124214390186
40
0.285164022826995
40
0.285164022826995
40
0.319203831263805
40
0.353243639700615
40
0.353243639700615
40
0.387283448137424
40
0.387283448137424
40
0.455363065011044
40
0.455363065011044
40
0.489402873447854
40
0.489402873447854
40
0.523442681884663
40
0.523442681884663
40
0.591522298758283
40
0.591522298758283
40
0.659601915631903
40
0.659601915631903
40
0.693641724068712
40
0.693641724068712
40
0.727681532505522
40
0.727681532505522
40
0.795761149379142
40
0.795761149379142
40
0.863840766252761
40
0.863840766252761
40
0.931920383126381
40
0.931920383126381
40
0.96596019156319
40
0.96596019156319
40
0.982980095781595
40
0.982980095781595
40
0.991490047890798
40
0.991490047890798
40
1
40
1
40
1
40
1
41
1
10
5.43126153072674
20
-6.26108285266244
30
0
41
1
10
5.4312924211757
20
-6.25330747288035
30
0
41
1
10
5.43132132258026
20
-6.23754004321057
30
0
41
1
10
5.43136877591706
20
-6.19670302937351
30
0
41
1
10
5.43138797614495
20
-6.1753013268393
30
0
41
1
10
5.4314252467733
20
-6.12386522495365
30
0
41
1
10
5.43144335409397
20
-6.09372555598821
30
0
41
1
10
5.43149581829141
20
-5.9915434127399
30
0
41
1
10
5.43156136921303
20
-5.82352900209185
30
0
41
1
10
5.43162411212944
20
-5.59366604708293
30
0
41
1
10
5.43167191502732
20
-5.39756932123245
30
0
41
1
10
5.4316880108945
20
-5.32805307122982
30
0
41
1
10
5.43172048649836
20
-5.18183121272546
30
0
41
1
10
5.43175319207859
20
-5.02870472684248
30
0
41
1
10
5.43178674783564
20
-4.86186308832433
30
0
41
1
10
5.43182087787494
20
-4.68812594918063
30
0
41
1
10
5.43183823468581
20
-4.59777491662393
30
0
41
1
10
5.431890829487
20
-4.31887689496006
30
0
41
1
10
5.4319267716167
20
-4.12173866641146
30
0
41
1
10
5.4319820543991
20
-3.80938076489477
30
0
41
1
10
5.43200070421028
20
-3.70247791446033
30
0
41
1
10
5.43203838286919
20
-3.48302850425426
30
0
41
1
10
5.43205744323603
20
-3.37027917312284
30
0
41
1
10
5.43211424985446
20
-3.02803973911776
30
0
41
1
10
5.43215188124455
20
-2.79322011975688
30
0
41
1
10
5.43222514056743
20
-2.31068632434628
30
0
41
1
10
5.43226077289114
20
-2.06297128428167
30
0
41
1
10
5.43231100936157
20
-1.6815707803315
30
0
41
1
10
5.43232721322741
20
-1.55279447975948
30
0
41
1
10
5.43235816332461
20
-1.29186820411792
30
0
41
1
10
5.4323728796866
20
-1.1599078629211
30
0
41
1
10
5.43241375394501
20
-0.763432686705244
30
0
41
1
10
5.43243687470078
20
-0.496307905343684
30
0
41
1
10
5.43247123356358
20
0.0398780361259696
30
0
41
1
10
5.43248228448664
20
0.305851430952714
30
0
41
1
10
5.43248924601198
20
0.833710562831982
30
0
41
1
10
5.43248516447454
20
1.09559589849104
30
0
41
1
10
5.43246507231669
20
1.48531922628095
30
0
41
1
10
5.43245604114378
20
1.61470802838838
30
0
41
1
10
5.43243860379562
20
1.8079932940372
30
0
41
1
10
5.4324321427444
20
1.87226506131751
30
0
41
1
10
5.43242147597388
20
1.96806512335229
30
0
41
1
10
5.43241775641045
20
1.99991390007392
30
0
41
1
10
5.43240998336921
20
2.06344226752523
30
0
41
1
10
5.43240586565179
20
2.09559744448614
30
0
41
1
10
5.43240170651137
20
2.12671591051497
30
0
0
SPLINE
5
E3
100
AcDbEntity
8
1
62
256
6
ByLayer
370
18
48
1
60
0
100
AcDbSpline
70
4
71
3
72
20
73
16
40
0
40
0
40
0
40
0
40
0.125000000000001
40
0.125000000000001
40
0.250000000000001
40
0.250000000000001
40
0.375000000000002
40
0.375000000000002
40
0.500000000000003
40
0.500000000000003
40
0.75
40
0.75
40
0.875
40
0.875
40
1
40
1
40
1
40
1
41
1
10
78.0438808090194
20
-1.41889377766336
30
0
41
1
10
77.979304844827
20
-1.42399038475944
30
0
41
1
10
77.9174562440523
20
-1.41490083332499
30
0
41
1
10
77.7983541343149
20
-1.37282073491031
30
0
41
1
10
77.7411091879999
20
-1.33978565001459
30
0
41
1
10
77.630832393255
20
-1.25180139495347
30
0
41
1
10
77.5789929550962
20
-1.19778293275144
30
0
41
1
10
77.4814391303649
20
-1.07322260475715
30
0
41
1
10
77.4356346911378
20
-1.00257503776609
30
0
41
1
10
77.3062930777175
20
-0.767910784991273
30
0
41
1
10
77.2335278658654
20
-0.586743353402937
30
0
41
1
10
77.1407760072555
20
-0.287100303636493
30
0
41
1
10
77.1126074532487
20
-0.182403150942804
30
0
41
1
10
77.0615014685726
20
0.0361567625039925
30
0
41
1
10
77.0386944857726
20
0.149615341811426
30
0
41
1
10
77.0187644932997
20
0.265275210831959
30
0
0
SPLINE
5
E4
100
AcDbEntity
8
1
62
256
6
ByLayer
370
18
48
1
60
0
100
AcDbSpline
70
4
71
4
72
10
73
5
40
0
40
0
40
0
40
0
40
0
40
1
40
1
40
1
40
1
40
1
41
1
10
17.0712557101502
20
-2.67393060677793
30
0
41
1
10
16.7544711621234
20
-3.48127555208134
30
0
41
1
10
16.4376866140966
20
-4.28862049738475
30
0
41
1
10
16.1209020660697
20
-5.09596544268817
30
0
41
1
10
15.8041175180429
20
-5.90331038799158
30
0
0
SPLINE
5
E5
100
AcDbEntity
8
1
62
256
6
ByLayer
370
18
48
1
60
0
100
AcDbSpline
70
4
71
3
72
8
73
4
40
0
40
0
40
0
40
0
40
1
40
1
40
1
40
1
41
1
10
78.480720763602
20
1.53544854632713
30
0
41
1
10
78.118963293368
20
2.58446532093995
30
0
41
1
10
77.7603947758853
20
3.63457227382341
30
0
41
1
10
77.4050351996367
20
4.6857762382582
30
0
0
SPLINE
5
E6
100
AcDbEntity
8
1
62
256
6
ByLayer
370
18
48
1
60
0
100
AcDbSpline
70
4
71
3
72
8
73
4
40
0
40
0
40
0
40
0
40
1
40
1
40
1
40
1
41
1
10
78.9997911353589
20
-0.0988725284106238
30
0
41
1
10
78.8198917038019
20
-0.572814946442946
30
0
41
1
10
78.6474723983659
20
-1.05190563027242
30
0
41
1
10
78.480720763602
20
-1.53544854632705
30
0
0
SPLINE
5
E7
100
AcDbEntity
8
1
62
256
6
ByLayer
370
18
48
1
60
0
100
AcDbSpline
70
4
71
3
72
13
73
9
40
0
40
0
40
0
40
0
40
0.228728240615569
40
0.40029365445878
40
0.514523452202736
40
0.629043108782257
40
0.800633870342198
40
1
40
1
40
1
40
1
41
1
10
39.7172833806529
20
0.0469988704354591
30
0
41
1
10
39.5229115257306
20
0.0920125525667856
30
0
41
1
10
39.1831485369236
20
0.181788423389435
30
0
41
1
10
38.7471998257939
20
0.322114671798488
30
0
41
1
10
38.4087026646576
20
0.444787819576959
30
0
41
1
10
38.0716043556298
20
0.577891706223085
30
0
41
1
10
37.6637388653457
20
0.75470486229122
30
0
41
1
10
37.3529427171434
20
0.907055925580693
30
0
41
1
10
37.1861618346763
20
0.993735126612933
30
0
0
SPLINE
5
E8
100
AcDbEntity
8
1
62
256
6
ByLayer
370
18
48
1
60
0
100
AcDbSpline
70
4
71
3
72
10
73
6
40
0
40
0
40
0
40
0
40
0.224582223424071
40
0.607800977040165
40
1
40
1
40
1
40
1
41
1
10
76.8196656039611
20
0.348914876971975
30
0
41
1
10
76.7052724665061
20
0.381230859585912
30
0
41
1
10
76.3918243158454
20
0.48039496396936
30
0
41
1
10
75.8509935898917
20
0.713940806163009
30
0
41
1
10
75.4270840672843
20
0.917926429497044
30
0
41
1
10
75.2097945087377
20
1.03091174133303
30
0
0
SPLINE
5
E9
100
AcDbEntity
8
1
62
256
6
ByLayer
370
18
48
1
60
0
100
AcDbSpline
70
4
71
3
72
14
73
10
40
0
40
0
40
0
40
0
40
0.230200995055458
40
0.402881044242245
40
0.517847648146362
40
0.598957436719465
40
0.712505651089161
40
0.858617422107682
40
1
40
1
40
1
40
1
41
1
10
20.6344903022875
20
-0.0471617338276076
30
0
41
1
10
20.837504958591
20
-0.0942183366462643
30
0
41
1
10
21.1922747380194
20
-0.188494524195562
30
0
41
1
10
21.6474820763565
20
-0.33680479981706
30
0
41
1
10
21.970554667793
20
-0.455677357302704
30
0
41
1
10
22.2412288762687
20
-0.562973734045045
30
0
41
1
10
22.5392522742167
20
-0.689665994971335
30
0
41
1
10
22.8895876632975
20
-0.851071178869802
30
0
41
1
10
23.1402841797837
20
-0.978913985714428
30
0
41
1
10
23.2634728577465
20
-1.04452589919407
30
0
0
SPLINE
5
EA
100
AcDbEntity
8
1
62
256
6
ByLayer
370
18
48
1
60
0
100
AcDbSpline
70
4
71
3
72
14
73
10
40
0
40
0
40
0
40
0
40
0.221898063239854
40
0.388357659733889
40
0.499192574349822
40
0.577389149238209
40
0.686828848913711
40
0.82763925498047
40
1
40
1
40
1
40
1
41
1
10
58.7354354405326
20
-0.0475070001703841
30
0
41
1
10
58.9381506785638
20
-0.0945474197192198
30
0
41
1
10
59.2924391925958
20
-0.188770849879802
30
0
41
1
10
59.7470462553271
20
-0.336939950480911
30
0
41
1
10
60.0698361868139
20
-0.455712392998009
30
0
41
1
10
60.3402193180335
20
-0.562914109914317
30
0
41
1
10
60.6377300892808
20
-0.689259058031212
30
0
41
1
10
61.0200154902349
20
-0.865919558428573
30
0
41
1
10
61.302788875654
20
-1.00971707538398
30
0
41
1
10
61.4582665735795
20
-1.092779601655
30
0
0
SPLINE
5
EB
100
AcDbEntity
8
1
62
256
6
ByLayer
370
18
48
1
60
0
100
AcDbSpline
70
4
71
3
72
29
73
25
40
0
40
0
40
0
40
0
40
0.0587746600279313
40
0.110568518437147
40
0.148269916443246
40
0.175830426108352
40
0.202129880957145
40
0.227704777111148
40
0.272237504817183
40
0.324882610537653
40
0.381945504603735
40
0.421985655259217
40
0.46311773710379
40
0.518754203441375
40
0.549424193610046
40
0.595187172709819
40
0.644135761289378
40
0.689860916991441
40
0.732375032656425
40
0.771677141196231
40
0.834870680955349
40
0.890909764263744
40
0.947054962152781
40
1
40
1
40
1
40
1
41
1
10
42.0049901663543
20
-6.33145013794493
30
0
41
1
10
42.320306005704
20
-6.33197898882773
30
0
41
1
10
42.9140924295661
20
-6.33301155205967
30
0
41
1
10
43.7102194081485
20
-6.33373740842214
30
0
41
1
10
44.3419774738976
20
-6.33539952093952
30
0
41
1
10
44.8263854067636
20
-6.33675671919016
30
0
41
1
10
45.2523009021589
20
-6.3370655715502
30
0
41
1
10
45.770963458652
20
-6.33776291244754
30
0
41
1
10
46.4305246944678
20
-6.33963206169429
30
0
41
1
10
47.260062926229
20
-6.34070733986059
30
0
41
1
10
48.0653646795591
20
-6.34192194777472
30
0
41
1
10
48.8087339862189
20
-6.34386545068651
30
0
41
1
10
49.5444928291211
20
-6.34452656266194
30
0
41
1
10
50.2298468393948
20
-6.34544138170057
30
0
41
1
10
50.9400965630994
20
-6.34758816192098
30
0
41
1
10
51.6143104961803
20
-6.34823446551243
30
0
41
1
10
52.3695271725489
20
-6.34874105295106
30
0
41
1
10
53.1073332631343
20
-6.35160160141547
30
0
41
1
10
53.7931902436055
20
-6.35199176633958
30
0
41
1
10
54.5729942710567
20
-6.35230653849456
30
0
41
1
10
55.4255938268955
20
-6.3556576003048
30
0
41
1
10
56.368761392676
20
-6.35552483205495
30
0
41
1
10
57.256803500592
20
-6.35896205331602
30
0
41
1
10
57.8434813820671
20
-6.35948307939904
30
0
41
1
10
58.1282156619345
20
-6.35964700685335
30
0
0
SPLINE
5
EC
100
AcDbEntity
8
1
62
256
6
ByLayer
370
18
48
1
60
0
100
AcDbSpline
70
4
71
3
72
29
73
25
40
0
40
0
40
0
40
0
40
0.0119008838196428
40
0.059835154573859
40
0.100875625730168
40
0.178223337945669
40
0.252354613932301
40
0.326693815994784
40
0.392505032530003
40
0.456834143342698
40
0.530412083701639
40
0.602325859198034
40
0.638552507142835
40
0.678447488912066
40
0.722070905704896
40
0.76554883430745
40
0.799927660891252
40
0.816602053927302
40
0.829626542187503
40
0.846459620695395
40
0.872641583444122
40
0.922331150781591
40
0.989239952626386
40
1
40
1
40
1
40
1
41
1
10
20.0403529848371
20
6.29272341388656
30
0
41
1
10
19.9846207500065
20
6.29260456341513
30
0
41
1
10
19.7044099594632
20
6.29202071402608
30
0
41
1
10
19.2319931034071
20
6.29084131420018
30
0
41
1
10
18.4530777820542
20
6.29013418876312
30
0
41
1
10
17.551473044512
20
6.2879877232854
30
0
41
1
10
16.4939351881132
20
6.28630090029722
30
0
41
1
10
15.4904213099298
20
6.2846794930654
30
0
41
1
10
14.5328027765385
20
6.28258089210584
30
0
41
1
10
13.5787809886827
20
6.28159766473092
30
0
41
1
10
12.5960697450422
20
6.27888526614782
30
0
41
1
10
11.745317163191
20
6.27868667528153
30
0
41
1
10
11.0524814688729
20
6.27705831752502
30
0
41
1
10
10.4916090199553
20
6.2758123408166
30
0
41
1
10
9.89692109816139
20
6.27495956829233
30
0
41
1
10
9.32823866422856
20
6.27404278803039
30
0
41
1
10
8.88557958663307
20
6.272826829107
30
0
41
1
10
8.58533858362622
20
6.27204336533708
30
0
41
1
10
8.36827297842783
20
6.27145191180983
30
0
41
1
10
8.10544562776016
20
6.27098918020914
30
0
41
1
10
7.67228493899643
20
6.27056619740577
30
0
41
1
10
7.00728430951918
20
6.26949191084006
30
0
41
1
10
6.41605754174677
20
6.2676674616643
30
0
41
1
10
6.05632586840284
20
6.26515976349714
30
0
41
1
10
6.00650532712288
20
6.26478706188479
30
0
0
SPLINE
5
ED
100
AcDbEntity
8
1
62
256
6
ByLayer
370
18
48
1
60
0
100
AcDbSpline
70
4
71
3
72
28
73
24
40
0
40
0
40
0
40
0
40
0.087590020221115
40
0.166535472458094
40
0.223069421485273
40
0.274612551386602
40
0.329869808021452
40
0.38223971650696
40
0.432489321269743
40
0.48355555340212
40
0.535936348744294
40
0.579062022468994
40
0.620271978884408
40
0.672909080523869
40
0.702602530438143
40
0.72931767900694
40
0.765831085561805
40
0.810680973724797
40
0.847699222320331
40
0.883241514828273
40
0.918358985268314
40
0.956470415966495
40
1
40
1
40
1
40
1
41
1
10
58.1382330307799
20
6.35960373597254
30
0
41
1
10
57.7288243472123
20
6.35894784024904
30
0
41
1
10
56.9503661864708
20
6.35772251816067
30
0
41
1
10
55.9078151545118
20
6.35538025521072
30
0
41
1
10
55.0332363420983
20
6.35454246465056
30
0
41
1
10
54.2746923063655
20
6.3509770386795
30
0
41
1
10
53.532381784514
20
6.34979113175592
30
0
41
1
10
52.7926821803476
20
6.34879997996794
30
0
41
1
10
52.0805089131255
20
6.34819452659076
30
0
41
1
10
51.3636967177656
20
6.34815757995091
30
0
41
1
10
50.6783704742692
20
6.34696863743858
30
0
41
1
10
50.0393628351445
20
6.34491510948033
30
0
41
1
10
49.399097494524
20
6.34449627397501
30
0
41
1
10
48.8216363866104
20
6.34379685911549
30
0
41
1
10
48.3119230331486
20
6.34268801567345
30
0
41
1
10
47.8775846129856
20
6.34151375911301
30
0
41
1
10
47.3724348638884
20
6.34087913734439
30
0
41
1
10
46.8191085020378
20
6.34017370457141
30
0
41
1
10
46.2702928908817
20
6.33920515196684
30
0
41
1
10
45.7669728140853
20
6.33801725755637
30
0
41
1
10
45.2585867236185
20
6.33722749805818
30
0
41
1
10
44.7128133952982
20
6.33645442968387
30
0
41
1
10
44.3312226159512
20
6.33575550190264
30
0
41
1
10
44.1277582894765
20
6.33537873404396
30
0
0
SPLINE
5
EE
100
AcDbEntity
8
1
62
256
6
ByLayer
370
18
48
1
60
0
100
AcDbSpline
70
4
71
3
72
28
73
24
40
0
40
0
40
0
40
0
40
0.0345077466877335
40
0.0874016636176194
40
0.127716381768333
40
0.155786092972145
40
0.178942649058604
40
0.204176201132733
40
0.231462060472541
40
0.26071627778883
40
0.328325520578885
40
0.399989260116423
40
0.46954188030443
40
0.530367114379293
40
0.598613295500933
40
0.647758307947854
40
0.68223649188661
40
0.724578641529566
40
0.77556270373182
40
0.824782835023381
40
0.900278202404171
40
0.976506789309157
40
1
40
1
40
1
40
1
41
1
10
5.43123202161749
20
-6.26021657882237
30
0
41
1
10
5.59595005750381
20
-6.26235356143374
30
0
41
1
10
6.01412984775649
20
-6.26688765803354
30
0
41
1
10
6.62900248971175
20
-6.26892945955584
30
0
41
1
10
7.2162553616154
20
-6.26980524740108
30
0
41
1
10
7.66334502989605
20
-6.27036230350285
30
0
41
1
10
8.0358464906061
20
-6.27106882502454
30
0
41
1
10
8.40499072658821
20
-6.27166689651673
30
0
41
1
10
8.80385366063643
20
-6.27264139452643
30
0
41
1
10
9.4094698571395
20
-6.27436022929757
30
0
41
1
10
10.231561870724
20
-6.27547576067695
30
0
41
1
10
11.25024305631
20
-6.27798705396413
30
0
41
1
10
12.235800714484
20
-6.27873548481418
30
0
41
1
10
13.2047132153712
20
-6.280436452999
30
0
41
1
10
14.0740735414534
20
-6.28227088867237
30
0
41
1
10
14.8149098051495
20
-6.28307363788485
30
0
41
1
10
15.4293833270719
20
-6.28446436295798
30
0
41
1
10
16.0528276395199
20
-6.28585460037584
30
0
41
1
10
16.748185384285
20
-6.28647734926361
30
0
41
1
10
17.6052714297449
20
-6.28820315723505
30
0
41
1
10
18.5854791295267
20
-6.29031582294365
30
0
41
1
10
19.4402059745376
20
-6.29136836801621
30
0
41
1
10
19.9266580947212
20
-6.29242139380719
30
0
41
1
10
20.041260255769
20
-6.29267665176741
30
0
0
LINE
5
7B
100
AcDbEntity
8
SK1
62
256
6
ByLayer
370
18
48
1
60
0
100
AcDbLine
10
0
20
-7
30
0
11
0
21
7
31
0
39
0
210
0
220
0
230
1
0
LINE
5
7D
100
AcDbEntity
8
SK1
62
256
6
ByLayer
370
18
48
1
60
0
100
AcDbLine
10
-42.979274
20
7
30
0
11
-42.979274
21
-7
31
0
39
0
210
0
220
0
230
1
0
LINE
5
7E
100
AcDbEntity
8
SK1
62
256
6
ByLayer
370
18
48
1
60
0
100
AcDbLine
10
-45
20
3.5
30
0
11
-45
21
-3.5
31
0
39
0
210
0
220
0
230
1
0
LINE
5
7F
100
AcDbEntity
8
1
62
256
6
ByLayer
370
13
48
1
60
0
100
AcDbLine
10
0.641792
20
6.707318
30
0
11
0.641792
21
-6.707318
31
0
39
0
210
0
220
0
230
1
0
LINE
5
80
100
AcDbEntity
8
1
62
256
6
ByLayer
370
18
48
1
60
0
100
AcDbLine
10
0
20
-7
30
0
11
0
21
7
31
0
39
0
210
0
220
0
230
1
0
LINE
5
81
100
AcDbEntity
8
1
62
256
6
ByLayer
370
13
48
1
60
0
100
AcDbLine
10
1.285114
20
6.414637
30
0
11
1.285114
21
-6.414637
31
0
39
0
210
0
220
0
230
1
0
LINE
5
82
100
AcDbEntity
8
1
62
256
6
ByLayer
370
18
48
1
60
0
100
AcDbLine
10
75.809083
20
-3.232435
30
0
11
78.0405
21
-1.440994
31
0
39
0
210
0
220
0
230
1
0
LINE
5
83
100
AcDbEntity
8
1
62
256
6
ByLayer
370
18
48
1
60
0
100
AcDbLine
10
78.0405
20
-1.440994
30
0
11
78.043881
21
-1.418894
31
0
39
0
210
0
220
0
230
1
0
LINE
5
84
100
AcDbEntity
8
1
62
256
6
ByLayer
370
18
48
1
60
0
100
AcDbLine
10
5.431206
20
-6.266536
30
0
11
5.431262
21
-6.261083
31
0
39
0
210
0
220
0
230
1
0
LINE
5
85
100
AcDbEntity
8
80
62
256
6
ByLayer
370
18
48
1
60
0
100
AcDbLine
10
0
20
0
30
0
11
-5
21
0
31
0
39
0
210
0
220
0
230
1
0
LINE
5
86
100
AcDbEntity
8
4
62
256
6
ByLayer
370
18
48
0.05
60
0
100
AcDbLine
10
79
20
0
30
0
11
0
21
0
31
0
39
0
210
0
220
0
230
1
0
LINE
5
88
100
AcDbEntity
8
SK4
62
256
6
ByLayer
370
18
48
0.05
60
0
100
AcDbLine
10
84
20
0
30
0
11
-50
21
0
31
0
39
0
210
0
220
0
230
1
0
LINE
5
8A
100
AcDbEntity
8
SK1
62
256
6
ByLayer
370
18
48
1
60
0
100
AcDbLine
10
-42.979274
20
-7
30
0
11
0
21
-7
31
0
39
0
210
0
220
0
230
1
0
LINE
5
8B
100
AcDbEntity
8
SK1
62
256
6
ByLayer
370
18
48
1
60
0
100
AcDbLine
10
0
20
7
30
0
11
-42.979274
21
7
31
0
39
0
210
0
220
0
230
1
0
LINE
5
8C
100
AcDbEntity
8
SK1
62
256
6
ByLayer
370
18
48
1
60
0
100
AcDbLine
10
-45
20
-3.5
30
0
11
-42.979274
21
-7
31
0
39
0
210
0
220
0
230
1
0
LINE
5
8D
100
AcDbEntity
8
SK1
62
256
6
ByLayer
370
18
48
1
60
0
100
AcDbLine
10
-42.979274
20
7
30
0
11
-45
21
3.5
31
0
39
0
210
0
220
0
230
1
0
LINE
5
8E
100
AcDbEntity
8
1
62
256
6
ByLayer
370
18
48
1
60
0
100
AcDbLine
10
1.285114
20
-6.414637
30
0
11
4.894725
21
-6.421135
31
0
39
0
210
0
220
0
230
1
0
LINE
5
8F
100
AcDbEntity
8
1
62
256
6
ByLayer
370
18
48
1
60
0
100
AcDbLine
10
40.354311
20
-6.484962
30
0
11
41.465728
21
-6.486962
31
0
39
0
210
0
220
0
230
1
0
LINE
5
90
100
AcDbEntity
8
1
62
256
6
ByLayer
370
18
48
1
60
0
100
AcDbLine
10
41.465728
20
6.486962
30
0
11
40.354311
21
6.484962
31
0
39
0
210
0
220
0
230
1
0
LINE
5
91
100
AcDbEntity
8
1
62
256
6
ByLayer
370
18
48
1
60
0
100
AcDbLine
10
4.894725
20
6.421135
30
0
11
1.285114
21
6.414637
31
0
39
0
210
0
220
0
230
1
0
LINE
5
92
100
AcDbEntity
8
81
62
256
6
ByLayer
370
18
48
1
60
0
100
AcDbLine
10
79
20
0
30
0
11
84
21
0
31
0
39
0
210
0
220
0
230
1
0
LINE
5
93
100
AcDbEntity
8
SK2
62
256
6
ByLayer
370
13
48
1
60
0
100
AcDbLine
10
-53.625163
20
-7
30
0
11
-53.625163
21
38.225706
31
0
39
0
210
0
220
0
230
1
0
LINE
5
95
100
AcDbEntity
8
SK2
62
256
6
ByLayer
370
13
48
1
60
0
100
AcDbLine
10
-46.5875
20
7
30
0
11
-55.625163
21
7
31
0
39
0
210
0
220
0
230
1
0
LINE
5
96
100
AcDbEntity
8
SK2
62
256
6
ByLayer
370
13
48
1
60
0
100
AcDbLine
10
-46.5875
20
-7
30
0
11
-55.625163
21
-7
31
0
39
0
210
0
220
0
230
1
0
LINE
5
97
100
AcDbEntity
8
1
62
256
6
ByLayer
370
18
48
1
60
1
100
AcDbLine
10
-53.625163
20
7
30
0
11
-53.164379
21
3.500002
31
0
39
0
210
0
220
0
230
1
0
LINE
5
98
100
AcDbEntity
8
1
62
256
6
ByLayer
370
18
48
1
60
1
100
AcDbLine
10
-53.164379
20
3.500002
30
0
11
-54.085946
21
3.499998
31
0
39
0
210
0
220
0
230
1
0
LINE
5
99
100
AcDbEntity
8
1
62
256
6
ByLayer
370
18
48
1
60
1
100
AcDbLine
10
-54.085946
20
3.499998
30
0
11
-53.625163
21
7
31
0
39
0
210
0
220
0
230
1
0
LINE
5
9A
100
AcDbEntity
8
1
62
256
6
ByLayer
370
18
48
1
60
1
100
AcDbLine
10
-53.625163
20
-7
30
0
11
-54.085946
21
-3.500002
31
0
39
0
210
0
220
0
230
1
0
LINE
5
9B
100
AcDbEntity
8
1
62
256
6
ByLayer
370
18
48
1
60
1
100
AcDbLine
10
-54.085946
20
-3.500002
30
0
11
-53.164379
21
-3.499998
31
0
39
0
210
0
220
0
230
1
0
LINE
5
9C
100
AcDbEntity
8
1
62
256
6
ByLayer
370
18
48
1
60
1
100
AcDbLine
10
-53.164379
20
-3.499998
30
0
11
-53.625163
21
-7
31
0
39
0
210
0
220
0
230
1
0
LINE
5
9D
100
AcDbEntity
8
2
62
256
6
ByLayer
370
13
48
1
60
0
100
AcDbLine
10
91.083343
20
-6.55
30
0
11
91.083343
21
35.125392
31
0
39
0
210
0
220
0
230
1
0
LINE
5
9F
100
AcDbEntity
8
2
62
256
6
ByLayer
370
13
48
1
60
0
100
AcDbLine
10
78.0741
20
6.55
30
0
11
93.083343
21
6.55
31
0
39
0
210
0
220
0
230
1
0
LINE
5
A0
100
AcDbEntity
8
2
62
256
6
ByLayer
370
13
48
1
60
0
100
AcDbLine
10
78.0741
20
-6.55
30
0
11
93.083343
21
-6.55
31
0
39
0
210
0
220
0
230
1
0
LINE
5
A1
100
AcDbEntity
8
1
62
256
6
ByLayer
370
18
48
1
60
1
100
AcDbLine
10
91.083343
20
6.55
30
0
11
91.544126
21
3.050002
31
0
39
0
210
0
220
0
230
1
0
LINE
5
A2
100
AcDbEntity
8
1
62
256
6
ByLayer
370
18
48
1
60
1
100
AcDbLine
10
91.544126
20
3.050002
30
0
11
90.622559
21
3.049998
31
0
39
0
210
0
220
0
230
1
0
LINE
5
A3
100
AcDbEntity
8
1
62
256
6
ByLayer
370
18
48
1
60
1
100
AcDbLine
10
90.622559
20
3.049998
30
0
11
91.083343
21
6.55
31
0
39
0
210
0
220
0
230
1
0
LINE
5
A4
100
AcDbEntity
8
1
62
256
6
ByLayer
370
18
48
1
60
1
100
AcDbLine
10
91.083343
20
-6.55
30
0
11
90.622559
21
-3.050002
31
0
39
0
210
0
220
0
230
1
0
LINE
5
A5
100
AcDbEntity
8
1
62
256
6
ByLayer
370
18
48
1
60
1
100
AcDbLine
10
90.622559
20
-3.050002
30
0
11
91.544126
21
-3.049998
31
0
39
0
210
0
220
0
230
1
0
LINE
5
A6
100
AcDbEntity
8
1
62
256
6
ByLayer
370
18
48
1
60
1
100
AcDbLine
10
91.544126
20
-3.049998
30
0
11
91.083343
21
-6.55
31
0
39
0
210
0
220
0
230
1
0
LINE
5
F5
100
AcDbEntity
8
1
62
256
6
ByLayer
370
18
48
1
60
1
100
AcDbLine
10
-53.625163
20
7
30
0
11
-53.164379
21
3.500002
31
0
39
0
210
0
220
0
230
1
0
LINE
5
F6
100
AcDbEntity
8
1
62
256
6
ByLayer
370
18
48
1
60
1
100
AcDbLine
10
-53.164379
20
3.500002
30
0
11
-54.085946
21
3.499998
31
0
39
0
210
0
220
0
230
1
0
LINE
5
F7
100
AcDbEntity
8
1
62
256
6
ByLayer
370
18
48
1
60
1
100
AcDbLine
10
-54.085946
20
3.499998
30
0
11
-53.625163
21
7
31
0
39
0
210
0
220
0
230
1
0
LINE
5
F9
100
AcDbEntity
8
1
62
256
6
ByLayer
370
18
48
1
60
1
100
AcDbLine
10
-53.625163
20
-7
30
0
11
-54.085946
21
-3.500002
31
0
39
0
210
0
220
0
230
1
0
LINE
5
FA
100
AcDbEntity
8
1
62
256
6
ByLayer
370
18
48
1
60
1
100
AcDbLine
10
-54.085946
20
-3.500002
30
0
11
-53.164379
21
-3.499998
31
0
39
0
210
0
220
0
230
1
0
LINE
5
FB
100
AcDbEntity
8
1
62
256
6
ByLayer
370
18
48
1
60
1
100
AcDbLine
10
-53.164379
20
-3.499998
30
0
11
-53.625163
21
-7
31
0
39
0
210
0
220
0
230
1
0
LINE
5
FF
100
AcDbEntity
8
1
62
256
6
ByLayer
370
18
48
1
60
1
100
AcDbLine
10
91.083343
20
6.55
30
0
11
91.544126
21
3.050002
31
0
39
0
210
0
220
0
230
1
0
LINE
5
100
100
AcDbEntity
8
1
62
256
6
ByLayer
370
18
48
1
60
1
100
AcDbLine
10
91.544126
20
3.050002
30
0
11
90.622559
21
3.049998
31
0
39
0
210
0
220
0
230
1
0
LINE
5
101
100
AcDbEntity
8
1
62
256
6
ByLayer
370
18
48
1
60
1
100
AcDbLine
10
90.622559
20
3.049998
30
0
11
91.083343
21
6.55
31
0
39
0
210
0
220
0
230
1
0
LINE
5
103
100
AcDbEntity
8
1
62
256
6
ByLayer
370
18
48
1
60
1
100
AcDbLine
10
91.083343
20
-6.55
30
0
11
90.622559
21
-3.050002
31
0
39
0
210
0
220
0
230
1
0
LINE
5
104
100
AcDbEntity
8
1
62
256
6
ByLayer
370
18
48
1
60
1
100
AcDbLine
10
90.622559
20
-3.050002
30
0
11
91.544126
21
-3.049998
31
0
39
0
210
0
220
0
230
1
0
LINE
5
105
100
AcDbEntity
8
1
62
256
6
ByLayer
370
18
48
1
60
1
100
AcDbLine
10
91.544126
20
-3.049998
30
0
11
91.083343
21
-6.55
31
0
39
0
210
0
220
0
230
1
0
MTEXT
5
EF
100
AcDbEntity
8
SK6
62
256
6
ByLayer
370
13
48
1
60
0
100
AcDbMText
10
-10.23416
20
39.090328
30
0
210
0
220
0
230
1
1
\W0.7174;860.1-1310-057A1-PM P1BM
40
3.5
41
0
44
1.084337
50
0
71
7
72
5
7
iso_b_vert
0
MTEXT
5
F3
100
AcDbEntity
8
SK2
62
256
6
ByLayer
370
18
48
1
60
0
100
AcDbMText
10
-55.189796
20
20.409024
30
0
210
0
220
0
230
1
1
%%c
40
3.5
41
0
44
1.084337
50
90
71
7
72
5
7
iso_b_vert
0
MTEXT
5
F4
100
AcDbEntity
8
SK2
62
256
6
ByLayer
370
18
48
1
60
0
100
AcDbMText
10
-55.189796
20
25.63168
30
0
210
0
220
0
230
1
1
\W0.7145;14,000
40
3.5
41
0
44
1.084337
50
90
71
7
72
5
7
iso_b_vert
0
MTEXT
5
FD
100
AcDbEntity
8
2
62
256
6
ByLayer
370
18
48
1
60
0
100
AcDbMText
10
89.518709
20
18.55211
30
0
210
0
220
0
230
1
1
%%c
40
3.5
41
0
44
1.084337
50
90
71
7
72
5
7
iso_b_vert
0
MTEXT
5
FE
100
AcDbEntity
8
2
62
256
6
ByLayer
370
18
48
1
60
0
100
AcDbMText
10
89.518709
20
23.774766
30
0
210
0
220
0
230
1
1
\W0.6440;13,100
40
3.5
41
0
44
1.084337
50
90
71
7
72
5
7
iso_b_vert
0
HATCH
5
F8
100
AcDbEntity
8
SK2
62
256
6
ByLayer
370
13
48
1
60
0
100
AcDbHatch
10
0
20
0
30
0
210
0
220
0
230
1
2
ANSI31
70
0
71
0
91
1
92
5
93
3
72
1
10
-53.6251625675374
20
7
11
-53.1643788259847
21
3.50000169255318
72
1
10
-53.1643788259847
20
3.50000169255318
11
-54.0859463090902
21
3.49999830744682
72
1
10
-54.0859463090902
20
3.49999830744682
11
-53.6251625675374
21
7
97
0
75
0
76
1
52
0
41
0.0062
77
0
78
1
53
45
43
0
44
0
45
-0.0139193969876572
46
0.0139193969876572
79
0
47
0
98
1
10
0
20
0
0
HATCH
5
FC
100
AcDbEntity
8
SK2
62
256
6
ByLayer
370
13
48
1
60
0
100
AcDbHatch
10
0
20
0
30
0
210
0
220
0
230
1
2
ANSI31
70
0
71
0
91
1
92
5
93
3
72
1
10
-53.6251625675374
20
-7
11
-54.0859463090902
21
-3.50000169255318
72
1
10
-54.0859463090902
20
-3.50000169255318
11
-53.1643788259847
21
-3.49999830744682
72
1
10
-53.1643788259847
20
-3.49999830744682
11
-53.6251625675374
21
-7
97
0
75
0
76
1
52
0
41
0.0062
77
0
78
1
53
45
43
0
44
0
45
-0.0139193969876572
46
0.0139193969876572
79
0
47
0
98
1
10
0
20
0
0
HATCH
5
102
100
AcDbEntity
8
2
62
256
6
ByLayer
370
13
48
1
60
0
100
AcDbHatch
10
0
20
0
30
0
210
0
220
0
230
1
2
ANSI31
70
0
71
0
91
1
92
5
93
3
72
1
10
91.083342615295
20
6.55000000000001
11
91.5441263568478
21
3.0500016925532
72
1
10
91.5441263568478
20
3.0500016925532
11
90.6225588737423
21
3.04999830744683
72
1
10
90.6225588737423
20
3.04999830744683
11
91.083342615295
21
6.55000000000001
97
0
75
0
76
1
52
0
41
0.0062
77
0
78
1
53
45
43
0
44
0
45
-0.0139193969876572
46
0.0139193969876572
79
0
47
0
98
1
10
0
20
0
0
HATCH
5
106
100
AcDbEntity
8
2
62
256
6
ByLayer
370
13
48
1
60
0
100
AcDbHatch
10
0
20
0
30
0
210
0
220
0
230
1
2
ANSI31
70
0
71
0
91
1
92
5
93
3
72
1
10
91.083342615295
20
-6.54999999999998
11
90.6225588737423
21
-3.05000169255317
72
1
10
90.6225588737423
20
-3.05000169255317
11
91.5441263568478
21
-3.0499983074468
72
1
10
91.5441263568478
20
-3.0499983074468
11
91.083342615295
21
-6.54999999999998
97
0
75
0
76
1
52
0
41
0.0062
77
0
78
1
53
45
43
0
44
0
45
-0.0139193969876572
46
0.0139193969876572
79
0
47
0
98
1
10
0
20
0
0
DIMENSION
5
108
100
AcDbEntity
8
2
62
256
6
ByLayer
370
13
48
1
60
0
100
AcDbDimension
2
_U0
10
76.4866
20
-16.763398
30
0
11
38.2433
21
-16.763398
31
0
70
32
71
1
72
1
41
1
210
0
220
0
230
1
3
Standard
100
AcDbAlignedDimension
13
0
23
0
33
0
14
76.4866
24
-6.55
34
0
50
0
100
AcDbRotatedDimension
1001
ACAD
1000
DSTYLE
1002
{
1070
   371
1070
    13
1070
   372
1070
    13
1070
   170
1070
     0
1070
   144
1040
1.0
1070
   277
1070
     2
1070
   278
1070
    44
1070
   146
1040
1.0
1070
   345
1005
16
1070
   347
1005
16
1070
   346
1005
16
1070
   344
1005
0
1070
   343
1005
0
1070
   172
1070
     1
1070
    76
1070
     0
1070
    75
1070
     0
1070
   282
1070
     0
1070
   281
1070
     0
1070
    71
1070
     0
1070
    74
1070
     0
1070
   279
1070
     0
1070
   173
1070
     1
1070
   340
1005
F0
1070
   271
1070
     2
1070
   272
1070
     2
1070
    77
1070
     1
1070
    73
1070
     1
1070
   171
1070
     3
1070
   274
1070
     4
1070
   177
1070
    35
1070
   176
1070
    35
1070
   178
1070
    35
1070
    48
1040
-0.1
1070
    41
1040
3.5
1070
   147
1040
1.75
1070
    42
1040
1.5875
1070
    44
1040
2.0
1070
   140
1040
3.5
1002
}
1001
ACAD_DSTYLE_DIM_LINETYPE
1070
   380
1005
16
1001
ACAD_DSTYLE_DIM_EXT1_LINETYPE
1070
   381
1005
16
1001
ACAD_DSTYLE_DIM_EXT2_LINETYPE
1070
   382
1005
16
0
DIMENSION
5
121
100
AcDbEntity
8
SK2
62
256
6
ByLayer
370
13
48
1
60
0
100
AcDbDimension
2
_U1
10
79
20
-35.692985
30
0
11
17
21
-35.692985
31
0
70
32
71
1
72
1
41
1
210
0
220
0
230
1
3
Standard
100
AcDbAlignedDimension
13
-45
23
-7
33
0
14
79
24
0
34
0
50
0
100
AcDbRotatedDimension
1001
ACAD
1000
DSTYLE
1002
{
1070
   371
1070
    13
1070
   372
1070
    13
1070
   170
1070
     0
1070
   144
1040
1.0
1070
   277
1070
     2
1070
   278
1070
    44
1070
   146
1040
1.0
1070
   345
1005
16
1070
   347
1005
16
1070
   346
1005
16
1070
   344
1005
0
1070
   343
1005
0
1070
   172
1070
     1
1070
    76
1070
     0
1070
    75
1070
     0
1070
   282
1070
     0
1070
   281
1070
     0
1070
    71
1070
     0
1070
    74
1070
     0
1070
   279
1070
     0
1070
   173
1070
     1
1070
   340
1005
F0
1070
   271
1070
     2
1070
   272
1070
     2
1070
    77
1070
     1
1070
    73
1070
     1
1070
   171
1070
     3
1070
   274
1070
     4
1070
   177
1070
    35
1070
   176
1070
    35
1070
   178
1070
    35
1070
    48
1040
-0.1
1070
    41
1040
3.5
1070
   147
1040
1.75
1070
    42
1040
1.5875
1070
    44
1040
2.0
1070
   140
1040
3.5
1002
}
1001
ACAD_DSTYLE_DIM_LINETYPE
1070
   380
1005
16
1001
ACAD_DSTYLE_DIM_EXT1_LINETYPE
1070
   381
1005
16
1001
ACAD_DSTYLE_DIM_EXT2_LINETYPE
1070
   382
1005
16
0
DIMENSION
5
139
100
AcDbEntity
8
SK2
62
256
6
ByLayer
370
13
48
1
60
0
100
AcDbDimension
2
_U2
10
79
20
18.159119
30
0
11
48.48
21
18.159119
31
0
70
32
71
1
72
1
41
1
210
0
220
0
230
1
3
Standard
100
AcDbAlignedDimension
13
17.96
23
6.55
33
0
14
79
24
0
34
0
50
0
100
AcDbRotatedDimension
1001
ACAD
1000
DSTYLE
1002
{
1070
   371
1070
    13
1070
   372
1070
    13
1070
   170
1070
     0
1070
   144
1040
1.0
1070
   277
1070
     2
1070
   278
1070
    44
1070
   146
1040
1.0
1070
   345
1005
16
1070
   347
1005
16
1070
   346
1005
16
1070
   344
1005
0
1070
   343
1005
0
1070
   172
1070
     1
1070
    76
1070
     0
1070
    75
1070
     0
1070
   282
1070
     0
1070
   281
1070
     0
1070
    71
1070
     0
1070
    74
1070
     0
1070
   279
1070
     0
1070
   173
1070
     1
1070
   340
1005
F0
1070
   271
1070
     2
1070
   272
1070
     2
1070
    77
1070
     1
1070
    73
1070
     1
1070
   171
1070
     3
1070
   274
1070
     4
1070
   177
1070
    35
1070
   176
1070
    35
1070
   178
1070
    35
1070
    48
1040
-0.1
1070
    41
1040
3.5
1070
   147
1040
1.75
1070
    42
1040
1.5875
1070
    44
1040
2.0
1070
   140
1040
3.5
1002
}
1001
ACAD_DSTYLE_DIM_LINETYPE
1070
   380
1005
16
1001
ACAD_DSTYLE_DIM_EXT1_LINETYPE
1070
   381
1005
16
1001
ACAD_DSTYLE_DIM_EXT2_LINETYPE
1070
   382
1005
16
0
DIMENSION
5
151
100
AcDbEntity
8
SK2
62
256
6
ByLayer
370
13
48
1
60
0
100
AcDbDimension
2
_U3
10
76.4866
20
-19.352503
30
0
11
96.083333
21
-19.352503
31
0
70
32
71
1
72
1
41
1
210
0
220
0
230
1
3
Standard
100
AcDbAlignedDimension
13
79
23
0
33
0
14
76.4866
24
-6.55
34
0
50
0
100
AcDbRotatedDimension
1001
ACAD
1000
DSTYLE
1002
{
1070
   371
1070
    13
1070
   372
1070
    13
1070
   170
1070
     0
1070
   144
1040
1.0
1070
   277
1070
     2
1070
   278
1070
    44
1070
   146
1040
1.0
1070
   345
1005
16
1070
   347
1005
16
1070
   346
1005
16
1070
   344
1005
0
1070
   343
1005
0
1070
   172
1070
     1
1070
    76
1070
     0
1070
    75
1070
     0
1070
   282
1070
     0
1070
   281
1070
     0
1070
    71
1070
     0
1070
    74
1070
     0
1070
   279
1070
     0
1070
   173
1070
     1
1070
   340
1005
F0
1070
   271
1070
     2
1070
   272
1070
     2
1070
    77
1070
     1
1070
    73
1070
     1
1070
   171
1070
     3
1070
   274
1070
     4
1070
   177
1070
    35
1070
   176
1070
    35
1070
   178
1070
    35
1070
    48
1040
-0.1
1070
    41
1040
3.5
1070
   147
1040
1.75
1070
    42
1040
1.5875
1070
    44
1040
2.0
1070
   140
1040
3.5
1002
}
1001
ACAD_DSTYLE_DIM_LINETYPE
1070
   380
1005
16
1001
ACAD_DSTYLE_DIM_EXT1_LINETYPE
1070
   381
1005
16
1001
ACAD_DSTYLE_DIM_EXT2_LINETYPE
1070
   382
1005
16
0
DIMENSION
5
16B
100
AcDbEntity
8
SK2
62
256
6
ByLayer
370
13
48
1
60
0
100
AcDbDimension
2
_U4
10
76.4866
20
-25.343428
30
0
11
15.7433
21
-25.343428
31
0
70
32
71
1
72
1
41
1
210
0
220
0
230
1
3
Standard
100
AcDbAlignedDimension
13
-45
23
-7
33
0
14
76.4866
24
-6.55
34
0
50
0
100
AcDbRotatedDimension
1001
ACAD
1000
DSTYLE
1002
{
1070
   371
1070
    13
1070
   372
1070
    13
1070
   170
1070
     0
1070
   144
1040
1.0
1070
   277
1070
     2
1070
   278
1070
    44
1070
   146
1040
1.0
1070
   345
1005
16
1070
   347
1005
16
1070
   346
1005
16
1070
   344
1005
0
1070
   343
1005
0
1070
   172
1070
     1
1070
    76
1070
     0
1070
    75
1070
     0
1070
   282
1070
     0
1070
   281
1070
     0
1070
    71
1070
     0
1070
    74
1070
     0
1070
   279
1070
     0
1070
   173
1070
     1
1070
   340
1005
F0
1070
   271
1070
     2
1070
   272
1070
     2
1070
    77
1070
     1
1070
    73
1070
     1
1070
   171
1070
     3
1070
   274
1070
     4
1070
   177
1070
    35
1070
   176
1070
    35
1070
   178
1070
    35
1070
    48
1040
-0.1
1070
    41
1040
3.5
1070
   147
1040
1.75
1070
    42
1040
1.5875
1070
    44
1040
2.0
1070
   140
1040
3.5
1002
}
1001
ACAD_DSTYLE_DIM_LINETYPE
1070
   380
1005
16
1001
ACAD_DSTYLE_DIM_EXT1_LINETYPE
1070
   381
1005
16
1001
ACAD_DSTYLE_DIM_EXT2_LINETYPE
1070
   382
1005
16
0
ENDSEC
0
SECTION
2
OBJECTS
0
DICTIONARY
5
1f3
330
0
100
AcDbDictionary
280
0
281
1
3
ACAD_GROUP
350
1f4
3
ACAD_MLINESTYLE
350
1f5
0
DICTIONARY
5
1f4
330
0
100
AcDbDictionary
280
0
281
1
0
DICTIONARY
5
1f5
330
0
100
AcDbDictionary
280
0
281
1
3
Standard
350
18
0
MLINESTYLE
5
18
330
1f5
100
AcDbMlineStyle
2
Standard
70
0
3

62
256
51
90
52
90
71
2
49
-0.5
62
256
6
ByLayer
49
0.5
62
256
6
ByLayer
0
RASTERVARIABLES
5
1e1
330

100
AcDbRasterVariables
90
0
70
1
71
1
72
1
0
ENDSEC
0
EOF
