0
SECTION
2
HEADER
9
$ACADVER
1
AC1015
9
$DWGCODEPAGE
3
ANSI_1252
9
$HANDSEED
5
218
9
$ANGBASE
50
0
9
$ANGDIR
70
0
9
$ATTMODE
70
1
9
$AUNITS
70
0
9
$AUPREC
70
0
9
$CECOLOR
62
256
9
$CELTSCALE
40
1
9
$CELTYPE
6
ByLayer
9
$CELWEIGHT
370
18
9
$CLAYER
8
0
9
$CMLJUST
70
0
9
$CMLSCALE
40
1
9
$CMLSTYLE
2
Standard
9
$DIMSTYLE
2
Standard
9
$TEXTSIZE
40
0.2
9
$TEXTSTYLE
7
Standard
9
$LUNITS
70
2
9
$LUPREC
70
4
9
$EXTNAMES
290
1
9
$INSUNITS
70
4
9
$LTSCALE
40
1
9
$LWDISPLAY
290
1
9
$PDMODE
70
0
9
$PDSIZE
40
0
9
$PLINEGEN
70
0
0
ENDSEC
0
SECTION
2
CLASSES
0
CLASS
1
RASTERVARIABLES
2
AcDbRasterVariables
3
ISM
90
0
280
0
281
0
0
ENDSEC
0
SECTION
2
TABLES
0
TABLE
2
VPORT
5
20e
100
AcDbSymbolTable
0
VPORT
5
1
100
AcDbSymbolTableRecord
100
AcDbViewportTableRecord
2
*Active
70
0
10
0
20
0
11
1
21
1
12
-1
22
1
13
0
23
0
14
0.5
24
0.5
15
10
25
10
16
0
26
0
36
1
17
0
27
0
37
0
0
ENDTAB
0
TABLE
2
LTYPE
5
20f
100
AcDbSymbolTable
0
LTYPE
5
14
100
AcDbSymbolTableRecord
100
AcDbLinetypeTableRecord
70
0
2
ByBlock
3

72
65
73
0
40
0
0
LTYPE
5
15
100
AcDbSymbolTableRecord
100
AcDbLinetypeTableRecord
70
0
2
ByLayer
3

72
65
73
0
40
0
0
LTYPE
5
16
100
AcDbSymbolTableRecord
100
AcDbLinetypeTableRecord
70
0
2
Continuous
3
Solid line
72
65
73
0
40
0
0
LTYPE
5
6E
100
AcDbSymbolTableRecord
100
AcDbLinetypeTableRecord
70
0
2
CENTER
3
____ _ ____ _ ____ _ ____
72
65
73
4
40
47.5
49
22
74
0
49
-8.5
74
0
49
8.5
74
0
49
-8.5
74
0
0
LTYPE
5
6F
100
AcDbSymbolTableRecord
100
AcDbLinetypeTableRecord
70
0
2
DASHED
3
__ __ __ __ __ __ __ __ __
72
65
73
2
40
25.72
49
12.86
74
0
49
-12.86
74
0
0
ENDTAB
0
TABLE
2
LAYER
5
210
100
AcDbSymbolTable
0
LAYER
5
10
100
AcDbSymbolTableRecord
100
AcDbLayerTableRecord
2
0
70
0
62
7
6
Continuous
290
1
370
-3
390
0
0
LAYER
5
71
100
AcDbSymbolTableRecord
100
AcDbLayerTableRecord
2
80
70
0
62
-6
6
Continuous
290
1
370
-3
390
0
0
LAYER
5
73
100
AcDbSymbolTableRecord
100
AcDbLayerTableRecord
2
81
70
0
62
-3
6
Continuous
290
1
370
-3
390
0
0
LAYER
5
75
100
AcDbSymbolTableRecord
100
AcDbLayerTableRecord
2
1
70
0
62
4
6
Continuous
290
1
370
-3
390
0
0
LAYER
5
86
100
AcDbSymbolTableRecord
100
AcDbLayerTableRecord
2
4
70
0
62
-2
6
CENTER
290
1
370
-3
390
0
0
LAYER
5
A1
100
AcDbSymbolTableRecord
100
AcDbLayerTableRecord
2
2
70
0
62
7
6
Continuous
290
1
370
-3
390
0
0
LAYER
5
123
100
AcDbSymbolTableRecord
100
AcDbLayerTableRecord
2
Defpoints
70
0
62
7
6
Continuous
290
0
370
-3
390
0
0
LAYER
5
1fa
100
AcDbSymbolTableRecord
100
AcDbLayerTableRecord
2
SK1
70
0
62
4
6
Continuous
290
1
370
-3
390
0
0
LAYER
5
1fb
100
AcDbSymbolTableRecord
100
AcDbLayerTableRecord
2
SK4
70
0
62
2
6
CENTER
290
1
370
-3
390
0
0
LAYER
5
1fc
100
AcDbSymbolTableRecord
100
AcDbLayerTableRecord
2
SK2
70
0
62
7
6
Continuous
290
1
370
-3
390
0
0
LAYER
5
1fd
100
AcDbSymbolTableRecord
100
AcDbLayerTableRecord
2
SK6
70
0
62
5
6
Continuous
290
1
370
-3
390
0
0
ENDTAB
0
TABLE
2
STYLE
5
211
100
AcDbSymbolTable
0
STYLE
5
11
100
AcDbSymbolTableRecord
100
AcDbTextStyleTableRecord
2
Standard
3
txt
70
0
71
0
40
0
41
1
42
0
50
0
0
STYLE
5
108
100
AcDbSymbolTableRecord
100
AcDbTextStyleTableRecord
2
iso_b_vert
3
simplex.shx
70
0
71
0
40
0
41
1
42
0
50
0
0
STYLE
5
109
100
AcDbSymbolTableRecord
100
AcDbTextStyleTableRecord
2
DWGDirectTextStyle
3
simplex
70
0
71
0
40
0
41
1
42
0
50
0
0
ENDTAB
0
TABLE
2
DIMSTYLE
5
212
100
AcDbSymbolTable
100
AcDbDimStyleTable
0
DIMSTYLE
105
27
100
AcDbSymbolTableRecord
100
AcDbDimStyleTableRecord
2
Standard
70
0
3
<>
41
0.18
42
0.0625
44
0.18
140
0.18
147
0.09
73
0
74
0
77
1
271
2
275
0
278
52
280
0
340
11
0
ENDTAB
0
TABLE
2
VIEW
5
213
100
AcDbSymbolTable
0
ENDTAB
0
TABLE
2
UCS
5
214
100
AcDbSymbolTable
0
ENDTAB
0
TABLE
2
APPID
5
215
100
AcDbSymbolTable
0
APPID
5
12
100
AcDbSymbolTableRecord
100
AcDbRegAppTableRecord
2
ACAD
70
0
0
APPID
5
11F
100
AcDbSymbolTableRecord
100
AcDbRegAppTableRecord
2
ACAD_DSTYLE_DIMBREAK
70
0
0
APPID
5
1B9
100
AcDbSymbolTableRecord
100
AcDbRegAppTableRecord
2
ACAD_DSTYLE_DIM_LINETYPE
70
0
0
APPID
5
1BA
100
AcDbSymbolTableRecord
100
AcDbRegAppTableRecord
2
ACAD_DSTYLE_DIM_EXT1_LINETYPE
70
0
0
APPID
5
1BB
100
AcDbSymbolTableRecord
100
AcDbRegAppTableRecord
2
ACAD_DSTYLE_DIM_EXT2_LINETYPE
70
0
0
APPID
5
1F6
100
AcDbSymbolTableRecord
100
AcDbRegAppTableRecord
2
ACAD_MLEADERVER
70
0
0
ENDTAB
0
TABLE
2
BLOCK_RECORD
5
216
100
AcDbSymbolTable
0
BLOCK_RECORD
5
1F
100
AcDbSymbolTableRecord
100
AcDbBlockTableRecord
2
*Model_Space
340
0
70
0
0
BLOCK_RECORD
5
1B
100
AcDbSymbolTableRecord
100
AcDbBlockTableRecord
2
*Paper_Space
340
0
70
0
0
BLOCK_RECORD
5
23
100
AcDbSymbolTableRecord
100
AcDbBlockTableRecord
2
*Paper_Space0
340
0
70
0
0
BLOCK_RECORD
5
124
100
AcDbSymbolTableRecord
100
AcDbBlockTableRecord
2
*D1
340
0
70
0
0
BLOCK_RECORD
5
130
100
AcDbSymbolTableRecord
100
AcDbBlockTableRecord
2
_U0
340
0
70
0
0
BLOCK_RECORD
5
13C
100
AcDbSymbolTableRecord
100
AcDbBlockTableRecord
2
*D3
340
0
70
0
0
BLOCK_RECORD
5
148
100
AcDbSymbolTableRecord
100
AcDbBlockTableRecord
2
_U1
340
0
70
0
0
BLOCK_RECORD
5
154
100
AcDbSymbolTableRecord
100
AcDbBlockTableRecord
2
*D5
340
0
70
0
0
BLOCK_RECORD
5
160
100
AcDbSymbolTableRecord
100
AcDbBlockTableRecord
2
_U2
340
0
70
0
0
BLOCK_RECORD
5
16C
100
AcDbSymbolTableRecord
100
AcDbBlockTableRecord
2
*D7
340
0
70
0
0
BLOCK_RECORD
5
17A
100
AcDbSymbolTableRecord
100
AcDbBlockTableRecord
2
_U3
340
0
70
0
0
BLOCK_RECORD
5
186
100
AcDbSymbolTableRecord
100
AcDbBlockTableRecord
2
*D9
340
0
70
0
0
BLOCK_RECORD
5
192
100
AcDbSymbolTableRecord
100
AcDbBlockTableRecord
2
_U4
340
0
70
0
0
ENDTAB
0
ENDSEC
0
SECTION
2
BLOCKS
0
BLOCK
5
20
100
AcDbEntity
8
0
100
AcDbBlockBegin
2
*Model_Space
70
0
10
0
20
0
30
0
3
*Model_Space
0
ENDBLK
5
21
100
AcDbEntity
8
0
100
AcDbBlockEnd
0
BLOCK
5
1C
100
AcDbEntity
8
0
100
AcDbBlockBegin
2
*Paper_Space
70
0
10
0
20
0
30
0
3
*Paper_Space
0
ENDBLK
5
1D
100
AcDbEntity
8
0
100
AcDbBlockEnd
0
BLOCK
5
24
100
AcDbEntity
8
0
100
AcDbBlockBegin
2
*Paper_Space0
70
0
10
0
20
0
30
0
3
*Paper_Space0
0
ENDBLK
5
25
100
AcDbEntity
8
0
100
AcDbBlockEnd
0
BLOCK
5
125
100
AcDbEntity
8
0
100
AcDbBlockBegin
2
*D1
70
1
10
0
20
0
30
0
3
*D1
0
LINE
5
127
100
AcDbEntity
8
0
62
256
6
ByLayer
370
-2
48
1
60
0
100
AcDbLine
10
0
20
-1.5875
30
0
11
0
21
-18.563398
31
0
39
0
210
0
220
0
230
1
0
LINE
5
128
100
AcDbEntity
8
0
62
256
6
ByLayer
370
-2
48
1
60
0
100
AcDbLine
10
134.5554
20
-7.9375
30
0
11
134.5554
21
-18.563398
31
0
39
0
210
0
220
0
230
1
0
LINE
5
129
100
AcDbEntity
8
0
62
256
6
ByLayer
370
-2
48
1
60
0
100
AcDbLine
10
3.5
20
-16.563398
30
0
11
131.0554
21
-16.563398
31
0
39
0
210
0
220
0
230
1
0
SOLID
5
12A
100
AcDbEntity
8
0
62
256
6
ByLayer
370
-1
48
1
60
0
100
AcDbTrace
10
3.5
20
-15.980065
30
0
11
3.5
21
-17.146732
31
0
12
0
22
-16.563398
32
0
13
0
23
-16.563398
33
0
39
0
210
0
220
0
230
1
0
SOLID
5
12B
100
AcDbEntity
8
0
62
256
6
ByLayer
370
-1
48
1
60
0
100
AcDbTrace
10
131.0554
20
-17.146732
30
0
11
131.0554
21
-15.980065
31
0
12
134.5554
22
-16.563398
32
0
13
134.5554
23
-16.563398
33
0
39
0
210
0
220
0
230
1
0
MTEXT
5
12C
100
AcDbEntity
8
0
62
256
6
ByLayer
370
18
48
1
60
0
100
AcDbMText
10
67.2777
20
-9.563398
30
0
210
0
220
0
230
1
1
\A1;134.56
40
3.5
41
0
44
1
50
0
71
5
72
5
7
iso_b_vert
0
POINT
5
12D
100
AcDbEntity
8
Defpoints
62
0
6
ByLayer
370
-1
48
1
60
0
100
AcDbPoint
10
0
20
0
30
0
39
0
210
0
220
0
230
1
50
360
0
POINT
5
12E
100
AcDbEntity
8
Defpoints
62
0
6
ByLayer
370
-1
48
1
60
0
100
AcDbPoint
10
134.5554
20
-6.35
30
0
39
0
210
0
220
0
230
1
50
360
0
POINT
5
12F
100
AcDbEntity
8
Defpoints
62
0
6
ByLayer
370
-1
48
1
60
0
100
AcDbPoint
10
134.5554
20
-16.563398
30
0
39
0
210
0
220
0
230
1
50
360
0
ENDBLK
5
126
100
AcDbEntity
8
0
100
AcDbBlockEnd
0
BLOCK
5
137
100
AcDbEntity
8
0
100
AcDbBlockBegin
2
_U0
70
0
10
0
20
0
30
0
3
_U0
0
MTEXT
5
131
100
AcDbEntity
8
2
62
256
6
ByLayer
370
13
48
1
60
0
100
AcDbMText
10
61.085835
20
-15.530765
30
0
210
0
220
0
230
1
1
\W0.7145;134,56
40
3.5
41
0
44
1.084337
50
0
71
7
72
5
7
iso_b_vert
0
LINE
5
132
100
AcDbEntity
8
2
62
256
6
ByLayer
370
13
48
1
60
0
100
AcDbLine
10
0
20
-1.5875
30
0
11
0
21
-18.563398
31
0
39
0
210
0
220
0
230
1
0
LINE
5
133
100
AcDbEntity
8
2
62
256
6
ByLayer
370
13
48
1
60
0
100
AcDbLine
10
134.5554
20
-7.9375
30
0
11
134.5554
21
-18.563398
31
0
39
0
210
0
220
0
230
1
0
LINE
5
134
100
AcDbEntity
8
2
62
256
6
ByLayer
370
13
48
1
60
0
100
AcDbLine
10
0
20
-16.563398
30
0
11
134.5554
21
-16.563398
31
0
39
0
210
0
220
0
230
1
0
SOLID
5
135
100
AcDbEntity
8
2
62
256
6
ByLayer
370
18
48
1
60
0
100
AcDbTrace
10
0
20
-16.563398
30
0
11
3.499998
21
-16.102615
31
0
12
3.500002
22
-17.024182
32
0
13
3.500002
23
-17.024182
33
0
39
0
210
0
220
0
230
1
0
SOLID
5
136
100
AcDbEntity
8
2
62
256
6
ByLayer
370
18
48
1
60
0
100
AcDbTrace
10
134.5554
20
-16.563398
30
0
11
131.055402
21
-17.024182
31
0
12
131.055398
22
-16.102615
32
0
13
131.055398
23
-16.102615
33
0
39
0
210
0
220
0
230
1
0
ENDBLK
5
138
100
AcDbEntity
8
0
100
AcDbBlockEnd
0
BLOCK
5
13D
100
AcDbEntity
8
0
100
AcDbBlockBegin
2
*D3
70
1
10
0
20
0
30
0
3
*D3
0
LINE
5
13F
100
AcDbEntity
8
0
62
256
6
ByLayer
370
-2
48
1
60
0
100
AcDbLine
10
-45
20
-8.5875
30
0
11
-45
21
-37.692985
31
0
39
0
210
0
220
0
230
1
0
LINE
5
140
100
AcDbEntity
8
0
62
256
6
ByLayer
370
-2
48
1
60
0
100
AcDbLine
10
137
20
-1.5875
30
0
11
137
21
-37.692985
31
0
39
0
210
0
220
0
230
1
0
LINE
5
141
100
AcDbEntity
8
0
62
256
6
ByLayer
370
-2
48
1
60
0
100
AcDbLine
10
-41.5
20
-35.692985
30
0
11
133.5
21
-35.692985
31
0
39
0
210
0
220
0
230
1
0
SOLID
5
142
100
AcDbEntity
8
0
62
256
6
ByLayer
370
-1
48
1
60
0
100
AcDbTrace
10
-41.5
20
-35.109652
30
0
11
-41.5
21
-36.276319
31
0
12
-45
22
-35.692985
32
0
13
-45
23
-35.692985
33
0
39
0
210
0
220
0
230
1
0
SOLID
5
143
100
AcDbEntity
8
0
62
256
6
ByLayer
370
-1
48
1
60
0
100
AcDbTrace
10
133.5
20
-36.276319
30
0
11
133.5
21
-35.109652
31
0
12
137
22
-35.692985
32
0
13
137
23
-35.692985
33
0
39
0
210
0
220
0
230
1
0
MTEXT
5
144
100
AcDbEntity
8
0
62
256
6
ByLayer
370
18
48
1
60
0
100
AcDbMText
10
46
20
-28.692985
30
0
210
0
220
0
230
1
1
\A1;182.00
40
3.5
41
0
44
1
50
0
71
5
72
5
7
iso_b_vert
0
POINT
5
145
100
AcDbEntity
8
Defpoints
62
0
6
ByLayer
370
-1
48
1
60
0
100
AcDbPoint
10
-45
20
-7
30
0
39
0
210
0
220
0
230
1
50
360
0
POINT
5
146
100
AcDbEntity
8
Defpoints
62
0
6
ByLayer
370
-1
48
1
60
0
100
AcDbPoint
10
137
20
0
30
0
39
0
210
0
220
0
230
1
50
360
0
POINT
5
147
100
AcDbEntity
8
Defpoints
62
0
6
ByLayer
370
-1
48
1
60
0
100
AcDbPoint
10
137
20
-35.692985
30
0
39
0
210
0
220
0
230
1
50
360
0
ENDBLK
5
13E
100
AcDbEntity
8
0
100
AcDbBlockEnd
0
BLOCK
5
14F
100
AcDbEntity
8
0
100
AcDbBlockBegin
2
_U1
70
0
10
0
20
0
30
0
3
_U1
0
MTEXT
5
149
100
AcDbEntity
8
SK2
62
256
6
ByLayer
370
13
48
1
60
0
100
AcDbMText
10
39.992401
20
-34.660352
30
0
210
0
220
0
230
1
1
\W0.6930;182,00
40
3.5
41
0
44
1.084337
50
0
71
7
72
5
7
iso_b_vert
0
LINE
5
14A
100
AcDbEntity
8
SK2
62
256
6
ByLayer
370
13
48
1
60
0
100
AcDbLine
10
-45
20
-8.5875
30
0
11
-45
21
-37.692985
31
0
39
0
210
0
220
0
230
1
0
LINE
5
14B
100
AcDbEntity
8
SK2
62
256
6
ByLayer
370
13
48
1
60
0
100
AcDbLine
10
137
20
-1.5875
30
0
11
137
21
-37.692985
31
0
39
0
210
0
220
0
230
1
0
LINE
5
14C
100
AcDbEntity
8
SK2
62
256
6
ByLayer
370
13
48
1
60
0
100
AcDbLine
10
-45
20
-35.692985
30
0
11
137
21
-35.692985
31
0
39
0
210
0
220
0
230
1
0
SOLID
5
14D
100
AcDbEntity
8
SK2
62
256
6
ByLayer
370
18
48
1
60
0
100
AcDbTrace
10
-45
20
-35.692985
30
0
11
-41.500002
21
-35.232202
31
0
12
-41.499998
22
-36.153769
32
0
13
-41.499998
23
-36.153769
33
0
39
0
210
0
220
0
230
1
0
SOLID
5
14E
100
AcDbEntity
8
SK2
62
256
6
ByLayer
370
18
48
1
60
0
100
AcDbTrace
10
137
20
-35.692985
30
0
11
133.500002
21
-36.153769
31
0
12
133.499998
22
-35.232202
32
0
13
133.499998
23
-35.232202
33
0
39
0
210
0
220
0
230
1
0
ENDBLK
5
150
100
AcDbEntity
8
0
100
AcDbBlockEnd
0
BLOCK
5
155
100
AcDbEntity
8
0
100
AcDbBlockBegin
2
*D5
70
1
10
0
20
0
30
0
3
*D5
0
LINE
5
157
100
AcDbEntity
8
0
62
256
6
ByLayer
370
-2
48
1
60
0
100
AcDbLine
10
32.96
20
7.9375
30
0
11
32.96
21
19.959119
31
0
39
0
210
0
220
0
230
1
0
LINE
5
158
100
AcDbEntity
8
0
62
256
6
ByLayer
370
-2
48
1
60
0
100
AcDbLine
10
137
20
1.5875
30
0
11
137
21
19.959119
31
0
39
0
210
0
220
0
230
1
0
LINE
5
159
100
AcDbEntity
8
0
62
256
6
ByLayer
370
-2
48
1
60
0
100
AcDbLine
10
36.46
20
17.959119
30
0
11
133.5
21
17.959119
31
0
39
0
210
0
220
0
230
1
0
SOLID
5
15A
100
AcDbEntity
8
0
62
256
6
ByLayer
370
-1
48
1
60
0
100
AcDbTrace
10
36.46
20
18.542453
30
0
11
36.46
21
17.375786
31
0
12
32.96
22
17.959119
32
0
13
32.96
23
17.959119
33
0
39
0
210
0
220
0
230
1
0
SOLID
5
15B
100
AcDbEntity
8
0
62
256
6
ByLayer
370
-1
48
1
60
0
100
AcDbTrace
10
133.5
20
17.375786
30
0
11
133.5
21
18.542453
31
0
12
137
22
17.959119
32
0
13
137
23
17.959119
33
0
39
0
210
0
220
0
230
1
0
MTEXT
5
15C
100
AcDbEntity
8
0
62
256
6
ByLayer
370
18
48
1
60
0
100
AcDbMText
10
84.98
20
24.959119
30
0
210
0
220
0
230
1
1
\A1;104.04
40
3.5
41
0
44
1
50
0
71
5
72
5
7
iso_b_vert
0
POINT
5
15D
100
AcDbEntity
8
Defpoints
62
0
6
ByLayer
370
-1
48
1
60
0
100
AcDbPoint
10
32.96
20
6.35
30
0
39
0
210
0
220
0
230
1
50
360
0
POINT
5
15E
100
AcDbEntity
8
Defpoints
62
0
6
ByLayer
370
-1
48
1
60
0
100
AcDbPoint
10
137
20
0
30
0
39
0
210
0
220
0
230
1
50
360
0
POINT
5
15F
100
AcDbEntity
8
Defpoints
62
0
6
ByLayer
370
-1
48
1
60
0
100
AcDbPoint
10
137
20
17.959119
30
0
39
0
210
0
220
0
230
1
50
360
0
ENDBLK
5
156
100
AcDbEntity
8
0
100
AcDbBlockEnd
0
BLOCK
5
167
100
AcDbEntity
8
0
100
AcDbBlockBegin
2
_U2
70
0
10
0
20
0
30
0
3
_U2
0
MTEXT
5
161
100
AcDbEntity
8
SK2
62
256
6
ByLayer
370
13
48
1
60
0
100
AcDbMText
10
78.603868
20
18.991753
30
0
210
0
220
0
230
1
1
\W0.7261;104,04
40
3.5
41
0
44
1.084337
50
0
71
7
72
5
7
iso_b_vert
0
LINE
5
162
100
AcDbEntity
8
SK2
62
256
6
ByLayer
370
13
48
1
60
0
100
AcDbLine
10
32.96
20
7.9375
30
0
11
32.96
21
19.959119
31
0
39
0
210
0
220
0
230
1
0
LINE
5
163
100
AcDbEntity
8
SK2
62
256
6
ByLayer
370
13
48
1
60
0
100
AcDbLine
10
137
20
1.5875
30
0
11
137
21
19.959119
31
0
39
0
210
0
220
0
230
1
0
LINE
5
164
100
AcDbEntity
8
SK2
62
256
6
ByLayer
370
13
48
1
60
0
100
AcDbLine
10
32.96
20
17.959119
30
0
11
137
21
17.959119
31
0
39
0
210
0
220
0
230
1
0
SOLID
5
165
100
AcDbEntity
8
SK2
62
256
6
ByLayer
370
18
48
1
60
0
100
AcDbTrace
10
32.96
20
17.959119
30
0
11
36.459998
21
18.419903
31
0
12
36.460002
22
17.498335
32
0
13
36.460002
23
17.498335
33
0
39
0
210
0
220
0
230
1
0
SOLID
5
166
100
AcDbEntity
8
SK2
62
256
6
ByLayer
370
18
48
1
60
0
100
AcDbTrace
10
137
20
17.959119
30
0
11
133.500002
21
17.498335
31
0
12
133.499998
22
18.419903
32
0
13
133.499998
23
18.419903
33
0
39
0
210
0
220
0
230
1
0
ENDBLK
5
168
100
AcDbEntity
8
0
100
AcDbBlockEnd
0
BLOCK
5
16D
100
AcDbEntity
8
0
100
AcDbBlockBegin
2
*D7
70
1
10
0
20
0
30
0
3
*D7
0
LINE
5
16F
100
AcDbEntity
8
0
62
256
6
ByLayer
370
-2
48
1
60
0
100
AcDbLine
10
137
20
-1.5875
30
0
11
137
21
-21.152503
31
0
39
0
210
0
220
0
230
1
0
LINE
5
170
100
AcDbEntity
8
0
62
256
6
ByLayer
370
-2
48
1
60
0
100
AcDbLine
10
134.5554
20
-7.9375
30
0
11
134.5554
21
-21.152503
31
0
39
0
210
0
220
0
230
1
0
LINE
5
171
100
AcDbEntity
8
0
62
256
6
ByLayer
370
-2
48
1
60
0
100
AcDbLine
10
137
20
-19.152503
30
0
11
165.333333
21
-19.152503
31
0
39
0
210
0
220
0
230
1
0
LINE
5
172
100
AcDbEntity
8
0
62
256
6
ByLayer
370
-2
48
1
60
0
100
AcDbLine
10
140.5
20
-19.152503
30
0
11
144
21
-19.152503
31
0
39
0
210
0
220
0
230
1
0
LINE
5
173
100
AcDbEntity
8
0
62
256
6
ByLayer
370
-2
48
1
60
0
100
AcDbLine
10
131.0554
20
-19.152503
30
0
11
127.5554
21
-19.152503
31
0
39
0
210
0
220
0
230
1
0
SOLID
5
174
100
AcDbEntity
8
0
62
256
6
ByLayer
370
-1
48
1
60
0
100
AcDbTrace
10
140.5
20
-18.56917
30
0
11
140.5
21
-19.735837
31
0
12
137
22
-19.152503
32
0
13
137
23
-19.152503
33
0
39
0
210
0
220
0
230
1
0
SOLID
5
175
100
AcDbEntity
8
0
62
256
6
ByLayer
370
-1
48
1
60
0
100
AcDbTrace
10
131.0554
20
-19.735837
30
0
11
131.0554
21
-18.56917
31
0
12
134.5554
22
-19.152503
32
0
13
134.5554
23
-19.152503
33
0
39
0
210
0
220
0
230
1
0
MTEXT
5
176
100
AcDbEntity
8
0
62
256
6
ByLayer
370
18
48
1
60
0
100
AcDbMText
10
154.666667
20
-12.152503
30
0
210
0
220
0
230
1
1
\A1;2.44
40
3.5
41
0
44
1
50
0
71
5
72
5
7
iso_b_vert
0
POINT
5
177
100
AcDbEntity
8
Defpoints
62
0
6
ByLayer
370
-1
48
1
60
0
100
AcDbPoint
10
137
20
0
30
0
39
0
210
0
220
0
230
1
50
360
0
POINT
5
178
100
AcDbEntity
8
Defpoints
62
0
6
ByLayer
370
-1
48
1
60
0
100
AcDbPoint
10
134.5554
20
-6.35
30
0
39
0
210
0
220
0
230
1
50
360
0
POINT
5
179
100
AcDbEntity
8
Defpoints
62
0
6
ByLayer
370
-1
48
1
60
0
100
AcDbPoint
10
134.5554
20
-19.152503
30
0
39
0
210
0
220
0
230
1
50
360
0
ENDBLK
5
16E
100
AcDbEntity
8
0
100
AcDbBlockEnd
0
BLOCK
5
181
100
AcDbEntity
8
0
100
AcDbBlockBegin
2
_U3
70
0
10
0
20
0
30
0
3
_U3
0
MTEXT
5
17B
100
AcDbEntity
8
SK2
62
256
6
ByLayer
370
13
48
1
60
0
100
AcDbMText
10
142.783326
20
-18.11987
30
0
210
0
220
0
230
1
1
\W0.7721;2,44
40
3.5
41
0
44
1.084337
50
0
71
7
72
5
7
iso_b_vert
0
LINE
5
17C
100
AcDbEntity
8
SK2
62
256
6
ByLayer
370
13
48
1
60
0
100
AcDbLine
10
137
20
-1.5875
30
0
11
137
21
-21.152503
31
0
39
0
210
0
220
0
230
1
0
LINE
5
17D
100
AcDbEntity
8
SK2
62
256
6
ByLayer
370
13
48
1
60
0
100
AcDbLine
10
134.5554
20
-7.9375
30
0
11
134.5554
21
-21.152503
31
0
39
0
210
0
220
0
230
1
0
LINE
5
17E
100
AcDbEntity
8
SK2
62
256
6
ByLayer
370
13
48
1
60
0
100
AcDbLine
10
125.8054
20
-19.152503
30
0
11
151.365024
21
-19.152503
31
0
39
0
210
0
220
0
230
1
0
SOLID
5
17F
100
AcDbEntity
8
SK2
62
256
6
ByLayer
370
18
48
1
60
0
100
AcDbTrace
10
137
20
-19.152503
30
0
11
140.499998
21
-18.691719
31
0
12
140.500002
22
-19.613287
32
0
13
140.500002
23
-19.613287
33
0
39
0
210
0
220
0
230
1
0
SOLID
5
180
100
AcDbEntity
8
SK2
62
256
6
ByLayer
370
18
48
1
60
0
100
AcDbTrace
10
134.5554
20
-19.152503
30
0
11
131.055402
21
-19.613287
31
0
12
131.055398
22
-18.691719
32
0
13
131.055398
23
-18.691719
33
0
39
0
210
0
220
0
230
1
0
ENDBLK
5
182
100
AcDbEntity
8
0
100
AcDbBlockEnd
0
BLOCK
5
187
100
AcDbEntity
8
0
100
AcDbBlockBegin
2
*D9
70
1
10
0
20
0
30
0
3
*D9
0
LINE
5
189
100
AcDbEntity
8
0
62
256
6
ByLayer
370
-2
48
1
60
0
100
AcDbLine
10
-45
20
-8.5875
30
0
11
-45
21
-27.343428
31
0
39
0
210
0
220
0
230
1
0
LINE
5
18A
100
AcDbEntity
8
0
62
256
6
ByLayer
370
-2
48
1
60
0
100
AcDbLine
10
134.5554
20
-7.9375
30
0
11
134.5554
21
-27.343428
31
0
39
0
210
0
220
0
230
1
0
LINE
5
18B
100
AcDbEntity
8
0
62
256
6
ByLayer
370
-2
48
1
60
0
100
AcDbLine
10
-41.5
20
-25.343428
30
0
11
131.0554
21
-25.343428
31
0
39
0
210
0
220
0
230
1
0
SOLID
5
18C
100
AcDbEntity
8
0
62
256
6
ByLayer
370
-1
48
1
60
0
100
AcDbTrace
10
-41.5
20
-24.760095
30
0
11
-41.5
21
-25.926762
31
0
12
-45
22
-25.343428
32
0
13
-45
23
-25.343428
33
0
39
0
210
0
220
0
230
1
0
SOLID
5
18D
100
AcDbEntity
8
0
62
256
6
ByLayer
370
-1
48
1
60
0
100
AcDbTrace
10
131.0554
20
-25.926762
30
0
11
131.0554
21
-24.760095
31
0
12
134.5554
22
-25.343428
32
0
13
134.5554
23
-25.343428
33
0
39
0
210
0
220
0
230
1
0
MTEXT
5
18E
100
AcDbEntity
8
0
62
256
6
ByLayer
370
18
48
1
60
0
100
AcDbMText
10
44.7777
20
-18.343428
30
0
210
0
220
0
230
1
1
\A1;179.56
40
3.5
41
0
44
1
50
0
71
5
72
5
7
iso_b_vert
0
POINT
5
18F
100
AcDbEntity
8
Defpoints
62
0
6
ByLayer
370
-1
48
1
60
0
100
AcDbPoint
10
-45
20
-7
30
0
39
0
210
0
220
0
230
1
50
360
0
POINT
5
190
100
AcDbEntity
8
Defpoints
62
0
6
ByLayer
370
-1
48
1
60
0
100
AcDbPoint
10
134.5554
20
-6.35
30
0
39
0
210
0
220
0
230
1
50
360
0
POINT
5
191
100
AcDbEntity
8
Defpoints
62
0
6
ByLayer
370
-1
48
1
60
0
100
AcDbPoint
10
134.5554
20
-25.343428
30
0
39
0
210
0
220
0
230
1
50
360
0
ENDBLK
5
188
100
AcDbEntity
8
0
100
AcDbBlockEnd
0
BLOCK
5
199
100
AcDbEntity
8
0
100
AcDbBlockBegin
2
_U4
70
0
10
0
20
0
30
0
3
_U4
0
MTEXT
5
193
100
AcDbEntity
8
SK2
62
256
6
ByLayer
370
13
48
1
60
0
100
AcDbMText
10
38.770101
20
-24.310795
30
0
210
0
220
0
230
1
1
\W0.6930;179,56
40
3.5
41
0
44
1.084337
50
0
71
7
72
5
7
iso_b_vert
0
LINE
5
194
100
AcDbEntity
8
SK2
62
256
6
ByLayer
370
13
48
1
60
0
100
AcDbLine
10
-45
20
-8.5875
30
0
11
-45
21
-27.343428
31
0
39
0
210
0
220
0
230
1
0
LINE
5
195
100
AcDbEntity
8
SK2
62
256
6
ByLayer
370
13
48
1
60
0
100
AcDbLine
10
134.5554
20
-7.9375
30
0
11
134.5554
21
-27.343428
31
0
39
0
210
0
220
0
230
1
0
LINE
5
196
100
AcDbEntity
8
SK2
62
256
6
ByLayer
370
13
48
1
60
0
100
AcDbLine
10
-45
20
-25.343428
30
0
11
134.5554
21
-25.343428
31
0
39
0
210
0
220
0
230
1
0
SOLID
5
197
100
AcDbEntity
8
SK2
62
256
6
ByLayer
370
18
48
1
60
0
100
AcDbTrace
10
-45
20
-25.343428
30
0
11
-41.500002
21
-24.882645
31
0
12
-41.499998
22
-25.804212
32
0
13
-41.499998
23
-25.804212
33
0
39
0
210
0
220
0
230
1
0
SOLID
5
198
100
AcDbEntity
8
SK2
62
256
6
ByLayer
370
18
48
1
60
0
100
AcDbTrace
10
134.5554
20
-25.343428
30
0
11
131.055402
21
-25.804212
31
0
12
131.055398
22
-24.882645
32
0
13
131.055398
23
-24.882645
33
0
39
0
210
0
220
0
230
1
0
ENDBLK
5
19A
100
AcDbEntity
8
0
100
AcDbBlockEnd
0
ENDSEC
0
SECTION
2
ENTITIES
0
ARC
5
AA
100
AcDbEntity
8
1
62
256
6
ByLayer
370
18
48
1
60
0
100
AcDbCircle
39
0
10
1.494357
20
-6.960492
30
0
40
0.850000000000001
210
0
220
0
230
1
100
AcDbArc
50
89.896868
51
151.526014
0
ARC
5
AB
100
AcDbEntity
8
1
62
256
6
ByLayer
370
18
48
1
60
0
100
AcDbCircle
39
0
10
1.494357
20
6.960492
30
0
40
0.850000000000001
210
0
220
0
230
1
100
AcDbArc
50
208.473986
51
270.103132
0
ARC
5
AC
100
AcDbEntity
8
1
62
256
6
ByLayer
370
18
48
1
60
0
100
AcDbCircle
39
0
10
0
20
-6.15
30
0
40
0.850000000000001
210
0
220
0
230
1
100
AcDbArc
50
270
51
331.526014
0
ARC
5
AD
100
AcDbEntity
8
1
62
256
6
ByLayer
370
18
48
1
60
0
100
AcDbCircle
39
0
10
0
20
6.15
30
0
40
0.850000000000001
210
0
220
0
230
1
100
AcDbArc
50
28.473986
51
90
0
ELLIPSE
5
AE
100
AcDbEntity
8
1
62
256
6
ByLayer
370
13
48
1
60
0
100
AcDbEllipse
10
181.194174
20
41.339538
30
0
11
-59.8999999999998
21
7.33539205939601E-15
31
0
210
0
220
0
230
1
40
0.99863
41
0.699394391696396
42
0.728020495080695
0
ELLIPSE
5
AF
100
AcDbEntity
8
1
62
256
6
ByLayer
370
13
48
1
60
0
100
AcDbEllipse
10
5.438343
20
-0.284863
30
0
11
-0.129188175983186
21
-0.270758961414276
31
0
210
0
220
0
230
1
40
0.441218
41
-1.40653280137799
42
-1.04826089769162
0
ELLIPSE
5
B0
100
AcDbEntity
8
1
62
256
6
ByLayer
370
13
48
1
60
0
100
AcDbEllipse
10
5.763986
20
-0.445841
30
0
11
0.137441725034861
21
0.26666415623297
31
0
210
0
220
0
230
1
40
0.03099
41
1.50653100041026
42
2.54532608706041
0
ELLIPSE
5
B1
100
AcDbEntity
8
1
62
256
6
ByLayer
370
13
48
1
60
0
100
AcDbEllipse
10
17.07957
20
-65.926999
30
0
11
45.0313397047315
21
58.7431324017531
31
0
210
0
220
0
230
1
40
0.74247
41
0.957014692002381
42
0.97794997783273
0
ELLIPSE
5
B2
100
AcDbEntity
8
1
62
256
6
ByLayer
370
13
48
1
60
0
100
AcDbEllipse
10
19.294803
20
67.625153
30
0
11
-45.0313397047313
21
58.7431324017532
31
0
210
0
220
0
230
1
40
0.74247
41
2.24271617297075
42
2.34021866589282
0
ELLIPSE
5
B3
100
AcDbEntity
8
1
62
256
6
ByLayer
370
18
48
1
60
0
100
AcDbEllipse
10
5.762633
20
6.966899
30
0
11
1
21
0
31
0
210
0
220
0
230
1
40
1
41
-2.122436157844
42
-1.56451944415506
0
ELLIPSE
5
B4
100
AcDbEntity
8
1
62
256
6
ByLayer
370
18
48
1
60
0
100
AcDbEllipse
10
5.762633
20
-6.966899
30
0
11
1
21
0
31
0
210
0
220
0
230
1
40
1
41
1.57212568984087
42
2.12170677030334
0
POINT
5
70
100
AcDbEntity
8
80
62
256
6
ByLayer
370
18
48
1
60
0
100
AcDbPoint
10
0
20
0
30
0
39
0
210
0
220
0
230
1
50
360
0
POINT
5
72
100
AcDbEntity
8
81
62
256
6
ByLayer
370
18
48
1
60
0
100
AcDbPoint
10
137
20
0
30
0
39
0
210
0
220
0
230
1
50
360
0
POINT
5
74
100
AcDbEntity
8
1
62
256
6
ByLayer
370
18
48
1
60
1
100
AcDbPoint
10
134.5554
20
-6.35
30
0
39
0
210
0
220
0
230
1
50
360
0
POINT
5
76
100
AcDbEntity
8
1
62
256
6
ByLayer
370
18
48
1
60
1
100
AcDbPoint
10
-45
20
-7
30
0
39
0
210
0
220
0
230
1
50
360
0
POINT
5
77
100
AcDbEntity
8
1
62
256
6
ByLayer
370
18
48
1
60
1
100
AcDbPoint
10
32.96
20
6.35
30
0
39
0
210
0
220
0
230
1
50
360
0
POINT
5
78
100
AcDbEntity
8
1
62
256
6
ByLayer
370
18
48
1
60
1
100
AcDbPoint
10
134.5554
20
-6.35
30
0
39
0
210
0
220
0
230
1
50
360
0
POINT
5
79
100
AcDbEntity
8
1
62
256
6
ByLayer
370
18
48
1
60
1
100
AcDbPoint
10
-45
20
-7
30
0
39
0
210
0
220
0
230
1
50
360
0
POINT
5
7A
100
AcDbEntity
8
1
62
256
6
ByLayer
370
18
48
1
60
1
100
AcDbPoint
10
134.5554
20
-6.35
30
0
39
0
210
0
220
0
230
1
50
360
0
SPLINE
5
B5
100
AcDbEntity
8
1
62
256
6
ByLayer
370
13
48
1
60
0
100
AcDbSpline
70
4
71
3
72
25
73
21
40
0
40
0
40
0
40
0
40
0.0471799654770213
40
0.133085668582747
40
0.161720902951319
40
0.218991371688469
40
0.27626184042562
40
0.362167543531342
40
0.390802777899918
40
0.448073246637068
40
0.505343715374215
40
0.591249418479941
40
0.619884652848516
40
0.677155121585663
40
0.734425590322814
40
0.820331293428537
40
0.848966527797112
40
0.906236996534262
40
0.963507465271412
40
1
40
1
40
1
40
1
41
1
10
135.358721295758
20
2.78467880047969
30
0
41
1
10
135.278803028197
20
2.78396952895571
30
0
41
1
10
135.053371868797
20
2.78146170476316
30
0
41
1
10
134.779467515981
20
2.77672899986814
30
0
41
1
10
134.48846619349
20
2.77009235606221
30
0
41
1
10
134.245936806356
20
2.76350598133416
30
0
41
1
10
133.906401364461
20
2.75244229378145
30
0
41
1
10
133.615406543358
20
2.7410489006333
30
0
41
1
10
133.324404666903
20
2.72807034831058
30
0
41
1
10
133.081874756217
20
2.71622493164324
30
0
41
1
10
132.742338601687
20
2.69783289596654
30
0
41
1
10
132.451343263021
20
2.68018489351124
30
0
41
1
10
132.160341045858
20
2.66098436892184
30
0
41
1
10
131.917810918427
20
2.64398596474825
30
0
41
1
10
131.578274585089
20
2.61842438001488
30
0
41
1
10
131.287279306739
20
2.59466836339035
30
0
41
1
10
130.996277399405
20
2.56940118031974
30
0
41
1
10
130.753747772952
20
2.54738488227883
30
0
41
1
10
130.497913107777
20
2.52287734856449
30
0
41
1
10
130.33910138268
20
2.50702513969759
30
0
41
1
10
130.277292826441
20
2.50075847171689
30
0
0
SPLINE
5
B6
100
AcDbEntity
8
1
62
256
6
ByLayer
370
13
48
1
60
0
100
AcDbSpline
70
4
71
3
72
93
73
89
40
0
40
0
40
0
40
0
40
0.0040838024332717
40
0.0158408442319424
40
0.0275978860306111
40
0.0452334487286158
40
0.0511119696279519
40
0.0628690114266221
40
0.0746260532252902
40
0.0922616159232955
40
0.0981401368226316
40
0.109897178621302
40
0.121654220419972
40
0.139289783117975
40
0.145168304017312
40
0.156925345815982
40
0.168682387614652
40
0.186317950312657
40
0.192196471211992
40
0.203953513010661
40
0.215710554809333
40
0.233346117507336
40
0.239224638406672
40
0.250981680205343
40
0.262738722004012
40
0.280374284702016
40
0.286252805601352
40
0.298009847400022
40
0.309766889198692
40
0.327402451896697
40
0.333280972796032
40
0.345038014594701
40
0.356795056393371
40
0.374430619091378
40
0.380309139990712
40
0.392066181789382
40
0.403823223588052
40
0.421458786286057
40
0.427337307185391
40
0.439094348984062
40
0.450851390782732
40
0.468486953480738
40
0.474365474380072
40
0.486122516178742
40
0.497879557977411
40
0.515515120675417
40
0.521393641574752
40
0.533150683373422
40
0.544907725172091
40
0.562543287870096
40
0.568421808769431
40
0.580178850568101
40
0.591935892366771
40
0.609571455064777
40
0.615449975964112
40
0.627207017762782
40
0.638964059561452
40
0.656599622259457
40
0.662478143158792
40
0.674235184957462
40
0.685992226756132
40
0.703627789454136
40
0.709506310353472
40
0.721263352152142
40
0.733020393950812
40
0.750655956648817
40
0.756534477548152
40
0.768291519346821
40
0.780048561145492
40
0.797684123843496
40
0.803562644742832
40
0.815319686541502
40
0.827076728340172
40
0.844712291038177
40
0.850590811937512
40
0.862347853736182
40
0.874104895534852
40
0.891740458232857
40
0.897618979132191
40
0.909376020930862
40
0.921133062729534
40
0.938768625427537
40
0.944647146326872
40
0.956404188125541
40
0.96816122992421
40
0.985796792622217
40
0.991675313521552
40
1
40
1
40
1
40
1
41
1
10
78.7630455620366
20
-0.021594772493728
30
0
41
1
10
78.7293523746616
20
-0.0138471394029409
30
0
41
1
10
78.5986569126807
20
0.0162038309699994
30
0
41
1
10
78.3709357130369
20
0.0684812119559978
30
0
41
1
10
78.0313993876736
20
0.146368691298193
30
0
41
1
10
77.7404041385923
20
0.213142270477078
30
0
41
1
10
77.4494022743466
20
0.279800078763941
30
0
41
1
10
77.206872674209
20
0.33515785819938
30
0
41
1
10
76.8673373505757
20
0.412423926333559
30
0
41
1
10
76.5763429865548
20
0.478481140198113
30
0
41
1
10
76.2853417581041
20
0.544265305592773
30
0
41
1
10
76.0428124153954
20
0.598791501827349
30
0
41
1
10
75.7032769617863
20
0.674712694713264
30
0
41
1
10
75.4122820558481
20
0.739430254194217
30
0
41
1
10
75.1212800347908
20
0.803721273022688
30
0
41
1
10
74.8787499987531
20
0.856904092372331
30
0
41
1
10
74.5392136956801
20
0.930770959052011
30
0
41
1
10
74.2482182565679
20
0.993547604140502
30
0
41
1
10
73.9572159643397
20
1.05575105155995
30
0
41
1
10
73.7146857860155
20
1.10710071218824
30
0
41
1
10
73.3751493989804
20
1.17823636303697
30
0
41
1
10
73.0841540952058
20
1.2385000412163
30
0
41
1
10
72.7931521810549
20
1.29805119984951
30
0
41
1
10
72.5506225536694
20
1.34710266568098
30
0
41
1
10
72.2110872241891
20
1.41486314016691
30
0
41
1
10
71.9200928831177
20
1.47206670183996
30
0
41
1
10
71.6290916934011
20
1.5284213269197
30
0
41
1
10
71.3865623952414
20
1.57472367216169
30
0
41
1
10
71.0470270255395
20
1.63848259341898
30
0
41
1
10
70.7560322084475
20
1.69209502739267
30
0
41
1
10
70.4650302846354
20
1.74473003444828
30
0
41
1
10
70.2225003167404
20
1.78785379124841
30
0
41
1
10
69.8829640691128
20
1.84702024428478
30
0
41
1
10
69.5919686390766
20
1.89654516562058
30
0
41
1
10
69.3009663264664
20
1.94497356032914
30
0
41
1
10
69.0584361230766
20
1.98452003826492
30
0
41
1
10
68.7188996991067
20
2.03854739907604
30
0
41
1
10
68.42790436328
20
2.08352734478922
30
0
41
1
10
68.1369024207935
20
2.12730147616804
30
0
41
1
10
67.8943727686971
20
2.16290476245993
30
0
41
1
10
67.5548373972821
20
2.21129345550406
30
0
41
1
10
67.2638430120799
20
2.25131404324347
30
0
41
1
10
66.9728417688916
20
2.29003328668267
30
0
41
1
10
66.7303124385468
20
2.32136958323119
30
0
41
1
10
66.3907770648961
20
2.36368205427556
30
0
41
1
10
66.0997822843121
20
2.39838263361568
30
0
41
1
10
65.8087804302976
20
2.43169729706503
30
0
41
1
10
65.566250508545
20
2.4584826906009
30
0
41
1
10
65.2267142706158
20
2.49433354343685
30
0
41
1
10
64.9357187966924
20
2.52339553210606
30
0
41
1
10
64.6447163982511
20
2.55099734835781
30
0
41
1
10
64.402186122735
20
2.57298238463178
30
0
41
1
10
64.0626496259908
20
2.60203462395944
30
0
41
1
10
63.7716542572863
20
2.62518129805318
30
0
41
1
10
63.4806523106799
20
2.64680432927156
30
0
41
1
10
63.2381226564902
20
2.66377506777905
30
0
41
1
10
62.89858726516
20
2.68574574994156
30
0
41
1
10
62.6075928459216
20
2.70275556732272
30
0
41
1
10
62.3165915507776
20
2.71820106708384
30
0
41
1
10
62.0740621952894
20
2.73000802690006
30
0
41
1
10
61.7345268495907
20
2.74471230435648
30
0
41
1
10
61.443532154206
20
2.75544770230658
30
0
41
1
10
61.1525304355861
20
2.7645904823442
30
0
41
1
10
60.9100006183469
20
2.77113678870552
30
0
41
1
10
60.5704644680349
20
2.77845112817536
30
0
41
1
10
60.2794690099807
20
2.78281798696721
30
0
41
1
10
59.9884665748529
20
2.78557378593873
30
0
41
1
10
59.7459362633467
20
2.78679596493202
30
0
41
1
10
59.4063997346554
20
2.78664278446359
30
0
41
1
10
59.1154043532796
20
2.78458609737853
30
0
41
1
10
58.824402406135
20
2.78091008340092
30
0
41
1
10
58.5818727424355
20
2.77677783566127
30
0
41
1
10
58.2423373065431
20
2.76913255542922
30
0
41
1
10
57.9513428211633
20
2.7606560282492
30
0
41
1
10
57.6603414391916
20
2.75058004764773
30
0
41
1
10
57.4178120224735
20
2.74113955332515
30
0
41
1
10
57.0782766379848
20
2.72609604604227
30
0
41
1
10
56.7872819581002
20
2.71130423127732
30
0
41
1
10
56.4962802990214
20
2.69494477310115
30
0
41
1
10
56.2537505301314
20
2.68029937531213
30
0
41
1
10
55.9142144127341
20
2.65801268334962
30
0
41
1
10
55.6232189481964
20
2.63704873043042
30
0
41
1
10
55.3322164753126
20
2.61455725965089
30
0
41
1
10
55.0896861274288
20
2.59483856312943
30
0
41
1
10
54.7501495537586
20
2.56550210993413
30
0
41
1
10
54.4591541371594
20
2.5385413630083
30
0
41
1
10
54.1964705666907
20
2.51286901134364
30
0
41
1
10
54.0792770734043
20
2.50105326145436
30
0
41
1
10
54.0105876415605
20
2.49400721598226
30
0
0
SPLINE
5
B7
100
AcDbEntity
8
1
62
256
6
ByLayer
370
18
48
1
60
0
100
AcDbSpline
70
4
71
3
72
36
73
32
40
0
40
0
40
0
40
0
40
0.0451783922656628
40
0.0451783922656628
40
0.204315326888052
40
0.204315326888052
40
0.24409956054365
40
0.24409956054365
40
0.283883794199247
40
0.283883794199247
40
0.363452261510442
40
0.363452261510442
40
0.403236495166039
40
0.403236495166039
40
0.443020728821637
40
0.443020728821637
40
0.522589196132832
40
0.522589196132832
40
0.602157663444026
40
0.602157663444026
40
0.641941897099624
40
0.641941897099624
40
0.681726130755221
40
0.681726130755221
40
0.840863065377611
40
0.840863065377611
40
0.880647299033208
40
0.880647299033208
40
0.920431532688805
40
0.920431532688805
40
1
40
1
40
1
40
1
41
1
10
5.23532849741423
20
6.11717054293712
30
0
41
1
10
5.23526695202494
20
6.11718376567168
30
0
41
1
10
5.23520368395461
20
6.11176717911761
30
0
41
1
10
5.2349169831059
20
6.06272257741412
30
0
41
1
10
5.23469131649648
20
5.95910456530243
30
0
41
1
10
5.23444651302162
20
5.74668861127554
30
0
41
1
10
5.23439935970427
20
5.69993444975071
30
0
41
1
10
5.23431070731803
20
5.59934577471123
30
0
41
1
10
5.23426902195018
20
5.54536619764076
30
0
41
1
10
5.23415247124711
20
5.37257291797005
30
0
41
1
10
5.23408615912888
20
5.24294808925066
30
0
41
1
10
5.234005168327
20
5.02686073523915
30
0
41
1
10
5.23398123872474
20
4.95121241326351
30
0
41
1
10
5.23393960139703
20
4.79254106389359
30
0
41
1
10
5.23392185156786
20
4.70919639228043
30
0
41
1
10
5.23387837859644
20
4.45092066346288
30
0
41
1
10
5.23386227809826
20
4.26758353629884
30
0
41
1
10
5.2338514434646
20
3.87928096318143
30
0
41
1
10
5.2338567224914
20
3.67431440225866
30
0
41
1
10
5.23387634625058
20
3.35034010322002
30
0
41
1
10
5.23388484822573
20
3.2393429257707
30
0
41
1
10
5.23390473691833
20
3.01274468404859
30
0
41
1
10
5.23391604975899
20
2.89786520497577
30
0
41
1
10
5.23397655768736
20
2.31576133887398
30
0
41
1
10
5.23403835891588
20
1.82579425067195
30
0
41
1
10
5.23408024948608
20
1.18223693824254
30
0
41
1
10
5.2340867434576
20
1.05258008842458
30
0
41
1
10
5.2340945310342
20
0.793344991640083
30
0
41
1
10
5.23409584573932
20
0.663468162985708
30
0
41
1
10
5.23409009067805
20
0.273068487319819
30
0
41
1
10
5.23407335447965
20
0.0117796243079056
30
0
41
1
10
5.23403823703055
20
-0.250546817401414
30
0
0
SPLINE
5
B8
100
AcDbEntity
8
1
62
256
6
ByLayer
370
13
48
1
60
0
100
AcDbSpline
70
4
71
3
72
36
73
32
40
0
40
0
40
0
40
0
40
0.0776753290499543
40
0.0776753290499543
40
0.116512993574932
40
0.116512993574932
40
0.155350658099909
40
0.155350658099909
40
0.310701316199817
40
0.310701316199817
40
0.388376645249771
40
0.388376645249771
40
0.427214309774749
40
0.427214309774749
40
0.466051974299726
40
0.466051974299726
40
0.621402632399635
40
0.621402632399635
40
0.660240296924612
40
0.660240296924612
40
0.699077961449589
40
0.699077961449589
40
0.776753290499544
40
0.776753290499544
40
0.854428619549499
40
0.854428619549499
40
0.932103948599453
40
0.932103948599453
40
0.970941613124431
40
0.970941613124431
40
1
40
1
40
1
40
1
41
1
10
5.76456622324707
20
-0.42446524423201
30
0
41
1
10
5.76457296560358
20
-0.169764224352292
30
0
41
1
10
5.76457341049473
20
0.084106344142441
30
0
41
1
10
5.76456801714028
20
0.463694168318057
30
0
41
1
10
5.76456520497311
20
0.590019801546163
30
0
41
1
10
5.76455808041223
20
0.842260855281893
30
0
41
1
10
5.76455375514644
20
0.96849547879097
30
0
41
1
10
5.76452982296129
20
1.59479640677679
30
0
41
1
10
5.7645039982385
20
2.07407522997587
30
0
41
1
10
5.76447817656836
20
2.76109484738509
30
0
41
1
10
5.76447165893035
20
2.98573504646646
30
0
41
1
10
5.76446749163722
20
3.30796421697593
30
0
41
1
10
5.76446701952156
20
3.41310049690208
30
0
41
1
10
5.76446819197002
20
3.61882171595229
30
0
41
1
10
5.7644698459172
20
3.71967742102731
30
0
41
1
10
5.76448390692548
20
4.20868038731911
30
0
41
1
10
5.76451391211205
20
4.55074754615347
30
0
41
1
10
5.76457620197101
20
4.91863076702143
30
0
41
1
10
5.76458987577232
20
4.98917688516559
30
0
41
1
10
5.76461959371704
20
5.12406519166854
30
0
41
1
10
5.76463567870073
20
5.18850712131393
30
0
41
1
10
5.76468660277254
20
5.36985764249099
30
0
41
1
10
5.76472429195212
20
5.47572112079817
30
0
41
1
10
5.7648048497112
20
5.65783543872237
30
0
41
1
10
5.76484782209678
20
5.7342179165428
30
0
41
1
10
5.76493559059355
20
5.85580680636122
30
0
41
1
10
5.76497994654179
20
5.90049757160355
30
0
41
1
10
5.7650443608311
20
5.9434475380753
30
0
41
1
10
5.76506549619955
20
5.95372300432334
30
0
41
1
10
5.76510098539367
20
5.96448856044083
30
0
41
1
10
5.76511573821622
20
5.96681791356926
30
0
41
1
10
5.76512995294402
20
5.96690126953382
30
0
0
SPLINE
5
B9
100
AcDbEntity
8
1
62
256
6
ByLayer
370
18
48
1
60
0
100
AcDbSpline
70
4
71
3
72
8
73
4
40
0
40
0
40
0
40
0
40
1
40
1
40
1
40
1
41
1
10
134.742506720656
20
-6.27725306402357
30
0
41
1
10
134.714860484493
20
-6.24649896323697
30
0
41
1
10
134.690036202515
20
-6.206074968157
30
0
41
1
10
134.667820779239
20
-6.15604668224947
30
0
0
SPLINE
5
BA
100
AcDbEntity
8
1
62
256
6
ByLayer
370
18
48
1
60
0
100
AcDbSpline
70
4
71
3
72
8
73
4
40
0
40
0
40
0
40
0
40
1
40
1
40
1
40
1
41
1
10
134.742506720656
20
6.27725306402357
30
0
41
1
10
134.998677967414
20
5.65355242372073
30
0
41
1
10
135.261756758489
20
5.00614836675524
30
0
41
1
10
135.523552450546
20
4.32924872530302
30
0
0
SPLINE
5
BB
100
AcDbEntity
8
1
62
256
6
ByLayer
370
18
48
1
60
0
100
AcDbSpline
70
4
71
3
72
22
73
18
40
0
40
0
40
0
40
0
40
0.107735174122713
40
0.107735174122713
40
0.286188139298177
40
0.286188139298177
40
0.375414621885909
40
0.375414621885909
40
0.464641104473641
40
0.464641104473641
40
0.643094069649094
40
0.643094069649094
40
0.821547034824547
40
0.821547034824547
40
0.910773517412274
40
0.910773517412274
40
1
40
1
40
1
40
1
41
1
10
134.334541733227
20
0.527581575946755
30
0
41
1
10
134.366794487553
20
0.560943868686053
30
0
41
1
10
134.402034991659
20
0.600873904799585
30
0
41
1
10
134.503230166928
20
0.72508019839529
30
0
41
1
10
134.571751094295
20
0.818287068608413
30
0
41
1
10
134.680559124235
20
0.980988357103485
30
0
41
1
10
134.717908518944
20
1.03917684081571
30
0
41
1
10
134.79407240317
20
1.16318695354644
30
0
41
1
10
134.832311335512
20
1.22806214027932
30
0
41
1
10
134.946746961538
20
1.43115491770794
30
0
41
1
10
135.023061118692
20
1.57799711416425
30
0
41
1
10
135.167409543643
20
1.89540816231181
30
0
41
1
10
135.233632469559
20
2.06073752470226
30
0
41
1
10
135.309388722351
20
2.32210625232074
30
0
41
1
10
135.330595760966
20
2.41149950395936
30
0
41
1
10
135.358429694406
20
2.59659966803611
30
0
41
1
10
135.364614589343
20
2.69045364628946
30
0
41
1
10
135.358721296638
20
2.78467880048751
30
0
0
SPLINE
5
BC
100
AcDbEntity
8
1
62
256
6
ByLayer
370
18
48
1
60
0
100
AcDbSpline
70
4
71
3
72
8
73
4
40
0
40
0
40
0
40
0
40
1
40
1
40
1
40
1
41
1
10
136.479242330737
20
-1.53710483927662
30
0
41
1
10
136.15808934629
20
-2.46693671475143
30
0
41
1
10
135.839521131078
20
-3.39764966571778
30
0
41
1
10
135.523552450546
20
-4.32924872530316
30
0
0
SPLINE
5
BD
100
AcDbEntity
8
1
62
256
6
ByLayer
370
18
48
1
60
0
100
AcDbSpline
70
4
71
3
72
18
73
14
40
0
40
0
40
0
40
0
40
0.125
40
0.125
40
0.25
40
0.25
40
0.5
40
0.5
40
0.75
40
0.75
40
0.875
40
0.875
40
1
40
1
40
1
40
1
41
1
10
136.052892158647
20
-1.41544920476332
30
0
41
1
10
135.987339913793
20
-1.42229041080591
30
0
41
1
10
135.924523275138
20
-1.41447956944887
30
0
41
1
10
135.803499259524
20
-1.3741704441932
30
0
41
1
10
135.745294074759
20
-1.34162035185889
30
0
41
1
10
135.577069804061
20
-1.2099788404104
30
0
41
1
10
135.478766110875
20
-1.08209051636427
30
0
41
1
10
135.303919731283
20
-0.765704798792456
30
0
41
1
10
135.23047634186
20
-0.582601670442699
30
0
41
1
10
135.136778227451
20
-0.278604881189324
30
0
41
1
10
135.108346299552
20
-0.172281981201223
30
0
41
1
10
135.05683070894
20
0.0498937636931203
30
0
41
1
10
135.034043720151
20
0.164522768006464
30
0
41
1
10
135.014111829403
20
0.281727427978268
30
0
0
SPLINE
5
BE
100
AcDbEntity
8
1
62
256
6
ByLayer
370
18
48
1
60
0
100
AcDbSpline
70
4
71
3
72
22
73
18
40
0
40
0
40
0
40
0
40
0.249999999999999
40
0.249999999999999
40
0.375000000000001
40
0.375000000000001
40
0.437500000000001
40
0.437500000000001
40
0.500000000000002
40
0.500000000000002
40
0.750000000000001
40
0.750000000000001
40
0.812500000000001
40
0.812500000000001
40
0.875000000000001
40
0.875000000000001
40
1
40
1
40
1
40
1
41
1
10
134.648749318026
20
-5.92913900582244
30
0
41
1
10
134.523417288619
20
-5.82057207929424
30
0
41
1
10
134.412090641426
20
-5.68047963870055
30
0
41
1
10
134.266844366076
20
-5.42139685291161
30
0
41
1
10
134.222073808671
20
-5.32683148358413
30
0
41
1
10
134.160698077751
20
-5.17197266097534
30
0
41
1
10
134.14115909179
20
-5.11802486451813
30
0
41
1
10
134.104458548397
20
-5.00681241871817
30
0
41
1
10
134.087258809408
20
-4.94947723323028
30
0
41
1
10
134.006966422264
20
-4.65422615392188
30
0
41
1
10
133.960841725075
20
-4.39081167825688
30
0
41
1
10
133.926579797128
20
-4.02638834394114
30
0
41
1
10
133.920906745168
20
-3.95173143391631
30
0
41
1
10
133.911979232303
20
-3.79878307708029
30
0
41
1
10
133.908727463663
20
-3.72035982321799
30
0
41
1
10
133.902745076167
20
-3.48195022381168
30
0
41
1
10
133.903722157736
20
-3.31815021313628
30
0
41
1
10
133.909616943774
20
-3.14953655222948
30
0
0
SPLINE
5
BF
100
AcDbEntity
8
1
62
256
6
ByLayer
370
18
48
1
60
0
100
AcDbSpline
70
4
71
3
72
32
73
28
40
0
40
0
40
0
40
0
40
0.103348503237262
40
0.103348503237262
40
0.206697006474523
40
0.206697006474523
40
0.310045509711785
40
0.310045509711785
40
0.413394012949047
40
0.413394012949047
40
0.465068264567678
40
0.465068264567678
40
0.516742516186309
40
0.516742516186309
40
0.62009101942357
40
0.62009101942357
40
0.723439522660832
40
0.723439522660832
40
0.775113774279463
40
0.775113774279463
40
0.826788025898094
40
0.826788025898094
40
0.930136529135359
40
0.930136529135359
40
0.981810780753992
40
0.981810780753992
40
1
40
1
40
1
40
1
41
1
10
134.06639155582
20
0.633404319604068
30
0
41
1
10
133.454354525258
20
0.944646136882682
30
0
41
1
10
132.844637514476
20
1.251558162934
30
0
41
1
10
131.628104577753
20
1.85264953590226
30
0
41
1
10
131.021392871772
20
2.14661258892497
30
0
41
1
10
129.807660376439
20
2.71541000075322
30
0
41
1
10
129.200710032014
20
2.99056292881994
30
0
41
1
10
127.984357405749
20
3.51751473208995
30
0
41
1
10
127.374730215001
20
3.7694361186438
30
0
41
1
10
126.455919197139
20
4.12533407727571
30
0
41
1
10
126.149044837928
20
4.24055119997172
30
0
41
1
10
125.533431709632
20
4.46302284006009
30
0
41
1
10
125.224171990504
20
4.57019088918094
30
0
41
1
10
124.296529202085
20
4.87775148965926
30
0
41
1
10
123.681864356198
20
5.06334714261644
30
0
41
1
10
122.457425993295
20
5.39412834900872
30
0
41
1
10
121.847889997045
20
5.54008784481451
30
0
41
1
10
120.9358278442
20
5.72269431553892
30
0
41
1
10
120.632034024668
20
5.77762128776041
30
0
41
1
10
120.02483402132
20
5.87796541283703
30
0
41
1
10
119.721210366414
20
5.92279544952319
30
0
41
1
10
118.810509030703
20
6.04050573419576
30
0
41
1
10
118.20328196808
20
6.09727947072147
30
0
41
1
10
117.289989556415
20
6.14679563821215
30
0
41
1
10
116.985165558461
20
6.15676514913315
30
0
41
1
10
116.572346369263
20
6.1627789519209
30
0
41
1
10
116.46478316338
20
6.16370075724967
30
0
41
1
10
116.357140110289
20
6.16393897548036
30
0
0
SPLINE
5
C0
100
AcDbEntity
8
1
62
256
6
ByLayer
370
18
48
1
60
0
100
AcDbSpline
70
4
71
3
72
106
73
102
40
0
40
0
40
0
40
0
40
0.0032656548428861
40
0.0032656548428861
40
0.0224749888556426
40
0.0224749888556426
40
0.0416843228683992
40
0.0416843228683992
40
0.0608936568811557
40
0.0608936568811557
40
0.0801029908939123
40
0.0801029908939123
40
0.118521658919425
40
0.118521658919425
40
0.137730992932182
40
0.137730992932182
40
0.156940326944939
40
0.156940326944939
40
0.176149660957695
40
0.176149660957695
40
0.195358994970452
40
0.195358994970452
40
0.21456832898321
40
0.21456832898321
40
0.233777662995967
40
0.233777662995967
40
0.252986997008724
40
0.252986997008724
40
0.272196331021481
40
0.272196331021481
40
0.291405665034239
40
0.291405665034239
40
0.310614999046996
40
0.310614999046996
40
0.329824333059754
40
0.329824333059754
40
0.349033667072511
40
0.349033667072511
40
0.368243001085268
40
0.368243001085268
40
0.387452335098026
40
0.387452335098026
40
0.42587100312354
40
0.42587100312354
40
0.464289671149055
40
0.464289671149055
40
0.483499005161811
40
0.483499005161811
40
0.502708339174568
40
0.502708339174568
40
0.521917673187325
40
0.521917673187325
40
0.541127007200082
40
0.541127007200082
40
0.560336341212839
40
0.560336341212839
40
0.579545675225595
40
0.579545675225595
40
0.598755009238353
40
0.598755009238353
40
0.617964343251109
40
0.617964343251109
40
0.637173677263866
40
0.637173677263866
40
0.656383011276623
40
0.656383011276623
40
0.67559234528938
40
0.67559234528938
40
0.694801679302137
40
0.694801679302137
40
0.714011013314893
40
0.714011013314893
40
0.73322034732765
40
0.73322034732765
40
0.752429681340407
40
0.752429681340407
40
0.771639015353164
40
0.771639015353164
40
0.790848349365921
40
0.790848349365921
40
0.810057683378678
40
0.810057683378678
40
0.829267017391434
40
0.829267017391434
40
0.848476351404191
40
0.848476351404191
40
0.867685685416948
40
0.867685685416948
40
0.886895019429705
40
0.886895019429705
40
0.906104353442462
40
0.906104353442462
40
0.925313687455218
40
0.925313687455218
40
0.944523021467975
40
0.944523021467975
40
0.963732355480732
40
0.963732355480732
40
0.982941689493489
40
0.982941689493489
40
1
40
1
40
1
40
1
41
1
10
88.2305012782921
20
-4.13229533416992
30
0
41
1
10
88.1783872734059
20
-4.15161117752305
30
0
41
1
10
88.1262825175249
20
-4.17080481988134
30
0
41
1
10
87.7677499952413
20
-4.30204102964819
30
0
41
1
10
87.4617323708123
20
-4.40992901880074
30
0
41
1
10
86.8495178505906
20
-4.61688922309
30
0
41
1
10
86.5435861870371
20
-4.71647667868126
30
0
41
1
10
85.9314016189354
20
-4.9060398073926
30
0
41
1
10
85.6252062395316
20
-4.99589789299998
30
0
41
1
10
85.0124311803691
20
-5.1661836514067
30
0
41
1
10
84.7056174069055
20
-5.24658105650789
30
0
41
1
10
83.7843333799605
20
-5.47337195872061
30
0
41
1
10
83.1682769593641
20
-5.60323532410942
30
0
41
1
10
82.2393553123287
20
-5.76713535306894
30
0
41
1
10
81.9285691965164
20
-5.81624965824014
30
0
41
1
10
81.3095029954112
20
-5.90169962871593
30
0
41
1
10
81.0006285466928
20
-5.93888903090064
30
0
41
1
10
80.3842621948681
20
-6.0019260843859
30
0
41
1
10
80.0765522349558
20
-6.02749573608298
30
0
41
1
10
79.4623906247191
20
-6.06605152938934
30
0
41
1
10
79.1556799551618
20
-6.07965310035991
30
0
41
1
10
78.5425913119627
20
-6.09579362604958
30
0
41
1
10
78.2364543755875
20
-6.09811389937295
30
0
41
1
10
77.6241056791281
20
-6.09008041083243
30
0
41
1
10
77.3180890324473
20
-6.08002357592477
30
0
41
1
10
76.705744818915
20
-6.04950703101366
30
0
41
1
10
76.3993916962036
20
-6.02862625445127
30
0
41
1
10
75.7864213324802
20
-5.97440382502413
30
0
41
1
10
75.4795159615721
20
-5.94099348398325
30
0
41
1
10
74.8650480843876
20
-5.86414266939389
30
0
41
1
10
74.5574061686121
20
-5.820239301795
30
0
41
1
10
73.9406730837588
20
-5.72046195497239
30
0
41
1
10
73.6317853574196
20
-5.66408896540949
30
0
41
1
10
73.0121910081876
20
-5.54153608301198
30
0
41
1
10
72.7012409120322
20
-5.47493492026916
30
0
41
1
10
72.0818918930174
20
-5.33106965701396
30
0
41
1
10
71.7729935836057
20
-5.25368459828576
30
0
41
1
10
71.1565879970225
20
-5.08934183417259
30
0
41
1
10
70.8487574793757
20
-5.00305401177317
30
0
41
1
10
70.2342514295614
20
-4.82053380831846
30
0
41
1
10
69.9275193662934
20
-4.72431157623566
30
0
41
1
10
69.0077611223507
20
-4.42281825548821
30
0
41
1
10
68.3955373656864
20
-4.2063529163739
30
0
41
1
10
67.1706497429096
20
-3.73882717580886
30
0
41
1
10
66.5576339151912
20
-3.49136533932835
30
0
41
1
10
65.6355689398909
20
-3.09872058939013
30
0
41
1
10
65.3278488005502
20
-2.96443580649893
30
0
41
1
10
64.7109435871494
20
-2.69085254470087
30
0
41
1
10
64.4020535317217
20
-2.55122085200173
30
0
41
1
10
63.7823065025147
20
-2.26573551409794
30
0
41
1
10
63.4711743375606
20
-2.11988284645218
30
0
41
1
10
62.8512674124615
20
-1.82605474862473
30
0
41
1
10
62.541910925797
20
-1.67799006648198
30
0
41
1
10
61.9249355627554
20
-1.37846693417441
30
0
41
1
10
61.6169970304828
20
-1.22766064631978
30
0
41
1
10
61.0018678634358
20
-0.924654060556378
30
0
41
1
10
60.6947829102879
20
-0.772237496030641
30
0
41
1
10
60.0809527456356
20
-0.466874562022866
30
0
41
1
10
59.7744617731667
20
-0.31340843637625
30
0
41
1
10
59.1613201216884
20
-0.0069403775996761
30
0
41
1
10
58.854771810807
20
0.146269655172631
30
0
41
1
10
58.241669935701
20
0.452522959411482
30
0
41
1
10
57.9349112623318
20
0.605132389856465
30
0
41
1
10
57.3210892394987
20
0.909592759367115
30
0
41
1
10
57.0138445482668
20
1.06107120082237
30
0
41
1
10
56.3984624133599
20
1.36205268885917
30
0
41
1
10
56.0904568800001
20
1.51181175402806
30
0
41
1
10
55.4728401586775
20
1.80788890489092
30
0
41
1
10
55.163530744216
20
1.95483398679701
30
0
41
1
10
54.5432271677747
20
2.24512951631661
30
0
41
1
10
54.2319690821832
20
2.38858861759442
30
0
41
1
10
53.6112522549963
20
2.6694997262691
30
0
41
1
10
53.3009891977028
20
2.80718169463316
30
0
41
1
10
52.6810549798631
20
3.07746858731832
30
0
41
1
10
52.3712046837544
20
3.20973472319986
30
0
41
1
10
51.7515399060951
20
3.46641768882779
30
0
41
1
10
51.4418072471142
20
3.59170397684176
30
0
41
1
10
50.8215879831492
20
3.83528499037712
30
0
41
1
10
50.511389280562
20
3.95391177229962
30
0
41
1
10
49.890084016642
20
4.18212943954393
30
0
41
1
10
49.5788397137433
20
4.29197525345998
30
0
41
1
10
48.958700792559
20
4.50351350622671
30
0
41
1
10
48.6492443443952
20
4.60453790688624
30
0
41
1
10
48.0319193476429
20
4.79685644067547
30
0
41
1
10
47.7238071952225
20
4.88813788143079
30
0
41
1
10
47.1082430219153
20
5.0612740966734
30
0
41
1
10
46.8010128096586
20
5.14316082166911
30
0
41
1
10
46.1867952678758
20
5.29581181000151
30
0
41
1
10
45.8800228195649
20
5.3669734705779
30
0
41
1
10
45.2664394280972
20
5.49930804828153
30
0
41
1
10
44.9596330596347
20
5.56039968820312
30
0
41
1
10
44.3460723190736
20
5.67133775938433
30
0
41
1
10
44.039044171259
20
5.72099997422498
30
0
41
1
10
43.4246722707371
20
5.81001669450512
30
0
41
1
10
43.1172082614965
20
5.84935443737362
30
0
41
1
10
42.5012421882616
20
5.91620290288364
30
0
41
1
10
42.1929481639148
20
5.94364802842918
30
0
41
1
10
41.5748010388198
20
5.98719009814653
30
0
41
1
10
41.265181765731
20
6.00357359098126
30
0
41
1
10
40.6790393069969
20
6.02322061406213
30
0
41
1
10
40.4023455470686
20
6.0275301864184
30
0
41
1
10
40.1265334041659
20
6.02711525101057
30
0
0
SPLINE
5
C1
100
AcDbEntity
8
1
62
256
6
ByLayer
370
13
48
1
60
0
100
AcDbSpline
70
4
71
3
72
93
73
89
40
0
40
0
40
0
40
0
40
0.0030056936077934
40
0.0147912299463598
40
0.0324695344542087
40
0.0383623026234919
40
0.0501478389620577
40
0.061933375300624
40
0.0796116798084729
40
0.0855044479777561
40
0.0972899843163224
40
0.109075520654888
40
0.126753825162738
40
0.132646593332021
40
0.144432129670587
40
0.156217666009153
40
0.173895970517002
40
0.179788738686285
40
0.191574275024851
40
0.203359811363417
40
0.221038115871267
40
0.22693088404055
40
0.238716420379116
40
0.250501956717682
40
0.268180261225531
40
0.274073029394814
40
0.28585856573338
40
0.297644102071946
40
0.315322406579796
40
0.321215174749079
40
0.333000711087645
40
0.344786247426211
40
0.36246455193406
40
0.368357320103343
40
0.380142856441909
40
0.391928392780475
40
0.409606697288325
40
0.415499465457608
40
0.427285001796174
40
0.43907053813474
40
0.456748842642589
40
0.462641610811872
40
0.474427147150438
40
0.486212683489004
40
0.503890987996854
40
0.509783756166136
40
0.521569292504703
40
0.533354828843269
40
0.551033133351118
40
0.556925901520401
40
0.568711437858967
40
0.580496974197533
40
0.598175278705383
40
0.604068046874665
40
0.615853583213232
40
0.627639119551798
40
0.645317424059647
40
0.65121019222893
40
0.662995728567496
40
0.674781264906062
40
0.692459569413912
40
0.698352337583194
40
0.710137873921761
40
0.721923410260327
40
0.739601714768176
40
0.745494482937459
40
0.757280019276025
40
0.769065555614591
40
0.786743860122441
40
0.792636628291723
40
0.80442216463029
40
0.816207700968856
40
0.833886005476705
40
0.839778773645988
40
0.851564309984554
40
0.86334984632312
40
0.881028150830969
40
0.886920919000252
40
0.898706455338819
40
0.910491991677385
40
0.928170296185234
40
0.934063064354517
40
0.94584860069308
40
0.95763413703165
40
0.975312441539499
40
0.981205209708781
40
0.992990746047348
40
1
40
1
40
1
40
1
41
1
10
116.859222726115
20
-0.0207184869258867
30
0
41
1
10
116.834481764087
20
-0.0150379311056952
30
0
41
1
10
116.71272933814
20
0.0129146917343235
30
0
41
1
10
116.445462802982
20
0.0742698444269933
30
0
41
1
10
116.154467746067
20
0.1411407628716
30
0
41
1
10
115.863465878209
20
0.207933176758274
30
0
41
1
10
115.620936102302
20
0.263427287308957
30
0
41
1
10
115.28140033977
20
0.340928123200882
30
0
41
1
10
114.990405549969
20
0.407234234375352
30
0
41
1
10
114.699404045852
20
0.473309785081255
30
0
41
1
10
114.456874571293
20
0.528107044318204
30
0
41
1
10
114.117339067601
20
0.604457202516954
30
0
41
1
10
113.82634425556
20
0.669593758321212
30
0
41
1
10
113.53534242738
20
0.73434579646252
30
0
41
1
10
113.29281256395
20
0.7879398187913
30
0
41
1
10
112.953276469021
20
0.862429748242788
30
0
41
1
10
112.662281172254
20
0.925789547108905
30
0
41
1
10
112.37127897647
20
0.988615835000274
30
0
41
1
10
112.128748935059
20
1.0405096458764
30
0
41
1
10
111.789212806186
20
1.11245088338498
30
0
41
1
10
111.498217641925
20
1.17345019791603
30
0
41
1
10
111.207215633223
20
1.23377271930934
30
0
41
1
10
110.964685748936
20
1.28348927053872
30
0
41
1
10
110.625149889825
20
1.35222147315187
30
0
41
1
10
110.334155083123
20
1.4103017206734
30
0
41
1
10
110.04315362981
20
1.46756946321878
30
0
41
1
10
109.800624219987
20
1.51465563229982
30
0
41
1
10
109.461088812709
20
1.57955292427854
30
0
41
1
10
109.170094079671
20
1.63418430146228
30
0
41
1
10
108.879092309899
20
1.68787234233628
30
0
41
1
10
108.636562499158
20
1.73189439121393
30
0
41
1
10
108.297026495116
20
1.79235580028489
30
0
41
1
10
108.006031279243
20
1.84303011635822
30
0
41
1
10
107.715029153524
20
1.89263851396325
30
0
41
1
10
107.472499142257
20
1.93318653194305
30
0
41
1
10
107.132962994317
20
1.98864987348509
30
0
41
1
10
106.84196776232
20
2.03489751664946
30
0
41
1
10
106.550965657551
20
2.07996865352862
30
0
41
1
10
106.308435690402
20
2.11667011347751
30
0
41
1
10
105.968899732752
20
2.16662770467999
30
0
41
1
10
105.677904869355
20
2.20802634459892
30
0
41
1
10
105.386903395113
20
2.24814818409371
30
0
41
1
10
105.144373987149
20
2.28066712074425
30
0
41
1
10
104.804838603262
20
2.32466126252515
30
0
41
1
10
104.513843903541
20
2.36083155640733
30
0
41
1
10
104.222842165452
20
2.39563689417798
30
0
41
1
10
103.980312382598
20
2.42367588953746
30
0
41
1
10
103.640776416734
20
2.46130368593034
30
0
41
1
10
103.349781222466
20
2.49191306508876
30
0
41
1
10
103.058779098526
20
2.52107986045971
30
0
41
1
10
102.816249069034
20
2.54437807101811
30
0
41
1
10
102.476712864306
20
2.57528826520854
30
0
41
1
10
102.18571756232
20
2.60005112528728
30
0
41
1
10
101.894715384388
20
2.62330912019419
30
0
41
1
10
101.652185355899
20
2.64165225021494
30
0
41
1
10
101.312649320308
20
2.66556190739837
30
0
41
1
10
101.021654409415
20
2.68425132659573
30
0
41
1
10
100.730652915083
20
2.70138499428378
30
0
41
1
10
100.488123518463
20
2.71460109623652
30
0
41
1
10
100.148588200199
20
2.73128478865519
30
0
41
1
10
99.8575935965211
20
2.74372570151163
30
0
41
1
10
99.5665919721748
20
2.75457870510357
30
0
41
1
10
99.3240622855471
20
2.76255053901926
30
0
41
1
10
98.9845264390565
20
2.77186405827874
30
0
41
1
10
98.6935313197305
20
2.77795045664987
30
0
41
1
10
98.4025292341204
20
2.78242825027553
30
0
41
1
10
98.1599992147798
20
2.78508426328727
30
0
41
1
10
97.8204629974851
20
2.78694118456675
30
0
41
1
10
97.5294676657631
20
2.786614655882
30
0
41
1
10
97.2384654563818
20
2.78467424247665
30
0
41
1
10
96.9959353918501
20
2.78198930642836
30
0
41
1
10
96.6563992847509
20
2.77637127756412
30
0
41
1
10
96.3654043015798
20
2.76963148679405
30
0
41
1
10
96.0744027363927
20
2.76128325360844
30
0
41
1
10
95.8318733023422
20
2.75327283422174
30
0
41
1
10
95.4923379831575
20
2.74021744147413
30
0
41
1
10
95.2013434225252
20
2.7271177734608
30
0
41
1
10
94.9103418673118
20
2.71243834868781
30
0
41
1
10
94.6678122379996
20
2.69918237005052
30
0
41
1
10
94.3282764479468
20
2.67882563729387
30
0
41
1
10
94.0372813450142
20
2.65950302860145
30
0
41
1
10
93.7462792389527
20
2.63864018043085
30
0
41
1
10
93.5037491873766
20
2.62026768236933
30
0
41
1
10
93.1642129166907
20
2.59280167652935
30
0
41
1
10
92.8732175391576
20
2.56743397740294
30
0
41
1
10
92.5822152978257
20
2.54057829151773
30
0
41
1
10
92.3790009247115
20
2.52103724870685
30
0
41
1
10
92.2242947376595
20
2.5055512464472
30
0
41
1
10
92.1666003614097
20
2.49969213245268
30
0
0
SPLINE
5
C2
100
AcDbEntity
8
1
62
256
6
ByLayer
370
13
48
1
60
0
100
AcDbSpline
70
4
71
3
72
80
73
76
40
0
40
0
40
0
40
0
40
0.0127950832349934
40
0.0196033930057867
40
0.0332200125473726
40
0.0468366320889592
40
0.0672615614013384
40
0.0740698711721316
40
0.0876864907137182
40
0.101303110255304
40
0.121728039567684
40
0.128536349338476
40
0.142152968880064
40
0.15576958842165
40
0.176194517734029
40
0.183002827504822
40
0.196619447046408
40
0.210236066587995
40
0.230660995900374
40
0.237469305671168
40
0.251085925212754
40
0.264702544754339
40
0.285127474066719
40
0.291935783837513
40
0.305552403379099
40
0.319169022920685
40
0.339593952233065
40
0.346402262003857
40
0.360018881545444
40
0.37363550108703
40
0.39406043039941
40
0.400868740170203
40
0.41448535971179
40
0.428101979253375
40
0.448526908565755
40
0.455335218336548
40
0.468951837878134
40
0.48256845741972
40
0.5029933867321
40
0.509801696502893
40
0.523418316044479
40
0.537034935586066
40
0.557459864898445
40
0.564268174669238
40
0.577884794210825
40
0.591501413752411
40
0.61192634306479
40
0.618734652835584
40
0.63235127237717
40
0.645967891918756
40
0.666392821231136
40
0.673201131001929
40
0.686817750543515
40
0.700434370085101
40
0.720859299397481
40
0.727667609168274
40
0.74128422870986
40
0.754900848251447
40
0.775325777563826
40
0.782134087334619
40
0.795750706876206
40
0.809367326417792
40
0.829792255730171
40
0.836600565500965
40
0.850217185042551
40
0.863833804584137
40
0.884258733896516
40
0.89106704366731
40
0.904683663208896
40
0.918300282750482
40
0.938725212062862
40
0.945533521833655
40
0.952341831604448
40
0.972766760916828
40
1
40
1
40
1
40
1
41
1
10
40.6668471866199
20
-0.0225383248785249
30
0
41
1
10
40.5756980830292
20
-0.0015886259146214
30
0
41
1
10
40.4360516965859
20
0.0305247221367892
30
0
41
1
10
40.1994022827977
20
0.0849419091192089
30
0
41
1
10
39.9568724223981
20
0.140588236103639
30
0
41
1
10
39.6173367404033
20
0.218387061068881
30
0
41
1
10
39.3263420923237
20
0.285034612792287
30
0
41
1
10
39.0353406187507
20
0.351521011979542
30
0
41
1
10
38.7928111492093
20
0.406705550387215
30
0
41
1
10
38.4532757236378
20
0.483676950878646
30
0
41
1
10
38.1622810667157
20
0.549428784291905
30
0
41
1
10
37.8712794997634
20
0.614865530959917
30
0
41
1
10
37.6287498591241
20
0.669075288125924
30
0
41
1
10
37.2892139957192
20
0.744506608030803
30
0
41
1
10
36.9982188010028
20
0.80875594815788
30
0
41
1
10
36.7072166111019
20
0.872539487782262
30
0
41
1
10
36.4646864556141
20
0.925274327282693
30
0
41
1
10
36.1251500022666
20
0.998470009916899
30
0
41
1
10
35.8341545133112
20
1.06062554244477
30
0
41
1
10
35.5431522852021
20
1.12217063312096
30
0
41
1
10
35.3006223526722
20
1.17294797882957
30
0
41
1
10
34.9610865907337
20
1.24323937534578
30
0
41
1
10
34.6700919016773
20
1.30273324038194
30
0
41
1
10
34.3790904214592
20
1.3614759659263
30
0
41
1
10
34.1365609513597
20
1.40982930410681
30
0
41
1
10
33.7970255214696
20
1.47656925654181
30
0
41
1
10
33.5060308671048
20
1.53285319928912
30
0
41
1
10
33.2150293152995
20
1.58825299280576
30
0
41
1
10
32.9724997100464
20
1.63373805831716
30
0
41
1
10
32.6329639419708
20
1.69631382184354
30
0
41
1
10
32.3419688649135
20
1.74887071047607
30
0
41
1
10
32.050966809659
20
1.80041719974127
30
0
41
1
10
31.8084367557957
20
1.84261384768302
30
0
41
1
10
31.4689003964858
20
1.90044574735583
30
0
41
1
10
31.1779049293525
20
1.94878741221782
30
0
41
1
10
30.8869026621671
20
1.99600134109411
30
0
41
1
10
30.6443726786434
20
2.03451699878832
30
0
41
1
10
30.3048368441849
20
2.08706756874665
30
0
41
1
10
30.0138420992974
20
2.13074654369757
30
0
41
1
10
29.7228405828152
20
2.17319373371211
30
0
41
1
10
29.4803110812322
20
2.20767646802946
30
0
41
1
10
29.1407755967535
20
2.25446855513439
30
0
41
1
10
28.8497808962648
20
2.29309001155658
30
0
41
1
10
28.5587793094373
20
2.33038643984972
30
0
41
1
10
28.3162496948651
20
2.36052363859954
30
0
41
1
10
27.9767139533305
20
2.40113150363189
30
0
41
1
10
27.6857189307154
20
2.43434213441233
30
0
41
1
10
27.3947169454899
20
2.46614478017088
30
0
41
1
10
27.1521869438746
20
2.49165803116162
30
0
41
1
10
26.8126506245856
20
2.52570403186092
30
0
41
1
10
26.5216551502267
20
2.55319207256315
30
0
41
1
10
26.2306528314895
20
2.57919976417366
30
0
41
1
10
25.9881227905455
20
2.59984560100531
30
0
41
1
10
25.6485868744576
20
2.62700411514882
30
0
41
1
10
25.3575920664153
20
2.64850899043219
30
0
41
1
10
25.0665905055631
20
2.66848082791688
30
0
41
1
10
24.8240609720051
20
2.6840726606587
30
0
41
1
10
24.4845254509036
20
2.70410428081771
30
0
41
1
10
24.1935307383468
20
2.71943983378355
30
0
41
1
10
23.9025291653628
20
2.73320185834188
30
0
41
1
10
23.6599995877946
20
2.74360226759725
30
0
41
1
10
23.3204639368858
20
2.75632797919195
30
0
41
1
10
23.0294690153302
20
2.76535523239599
30
0
41
1
10
22.7384671296902
20
2.77278216180099
30
0
41
1
10
22.4959372003933
20
2.77789633636396
30
0
41
1
10
22.1564009422718
20
2.78319870397942
30
0
41
1
10
21.8654054627198
20
2.78583136560218
30
0
41
1
10
21.5744030737471
20
2.78684781020004
30
0
41
1
10
21.3318729329878
20
2.78662005510818
30
0
41
1
10
20.9923368438578
20
2.78443618600818
30
0
41
1
10
20.7013418945286
20
2.78063923763696
30
0
41
1
10
20.4588554995822
20
2.77616381859874
30
0
41
1
10
20.2163098954995
20
2.77089552442663
30
0
41
1
10
19.8282220745697
20
2.76030868580309
30
0
41
1
10
19.4887696429807
20
2.74804169892306
30
0
41
1
10
19.2948031687955
20
2.73998617871427
30
0
0
SPLINE
5
C3
100
AcDbEntity
8
1
62
256
6
ByLayer
370
18
48
1
60
0
100
AcDbSpline
70
4
71
3
72
8
73
4
40
0
40
0
40
0
40
0
40
1
40
1
40
1
40
1
41
1
10
134.694758008366
20
-6.00782499487784
30
0
41
1
10
134.684735907978
20
-5.9711647965365
30
0
41
1
10
134.668244729231
20
-5.94602660339697
30
0
41
1
10
134.648749318026
20
-5.92913900582241
30
0
0
SPLINE
5
C4
100
AcDbEntity
8
1
62
256
6
ByLayer
370
18
48
1
60
0
100
AcDbSpline
70
4
71
1
72
4
73
2
40
0
40
0
40
1
40
1
41
1
10
136.050553866027
20
-1.43073488683589
30
0
41
1
10
136.054574079199
20
-1.41716287462219
30
0
0
SPLINE
5
C5
100
AcDbEntity
8
1
62
256
6
ByLayer
370
18
48
1
60
0
100
AcDbSpline
70
4
71
3
72
18
73
14
40
0
40
0
40
0
40
0
40
0.0728088459537152
40
0.0728088459537152
40
0.14561769190743
40
0.14561769190743
40
0.29123538381486
40
0.29123538381486
40
0.582470767629721
40
0.582470767629721
40
0.873706151444581
40
0.873706151444581
40
1
40
1
40
1
40
1
41
1
10
5.24569145606961
20
-5.53247687007055
30
0
41
1
10
5.24082726260809
20
-5.56038664279424
30
0
41
1
10
5.23784242979644
20
-5.5873875342931
30
0
41
1
10
5.23540680765876
20
-5.63954775826574
30
0
41
1
10
5.23599502047855
20
-5.66470673493518
30
0
41
1
10
5.2359763673341
20
-5.73722498786032
30
0
41
1
10
5.23595808833292
20
-5.78177584353256
30
0
41
1
10
5.23588803399727
20
-5.90303462742264
30
0
41
1
10
5.23582155281196
20
-5.96691328076932
30
0
41
1
10
5.23566129824763
20
-6.0619561256315
30
0
41
1
10
5.23556749270873
20
-6.0931171916265
30
0
41
1
10
5.23542104947177
20
-6.11402521182168
30
0
41
1
10
5.23537504031555
20
-6.11718149464153
30
0
41
1
10
5.23532802867098
20
-6.11717053866337
30
0
0
SPLINE
5
C6
100
AcDbEntity
8
1
62
256
6
ByLayer
370
18
48
1
60
0
100
AcDbSpline
70
4
71
3
72
10
73
6
40
0
40
0
40
0
40
0
40
0.5
40
0.5
40
1
40
1
40
1
40
1
41
1
10
134.667820779239
20
-6.15604668224947
30
0
41
1
10
134.675248235593
20
-6.12770804377826
30
0
41
1
10
134.681396845705
20
-6.1001171464128
30
0
41
1
10
134.690461201235
20
-6.04978174760308
30
0
41
1
10
134.693354303259
20
-6.02731995362126
30
0
41
1
10
134.694758009013
20
-6.00782498589385
30
0
0
SPLINE
5
C7
100
AcDbEntity
8
1
62
256
6
ByLayer
370
13
48
1
60
0
100
AcDbSpline
70
4
71
3
72
10
73
6
40
0
40
0
40
0
40
0
40
0.5
40
0.5
40
1
40
1
40
1
40
1
41
1
10
5.76456622324704
20
-0.424465244231982
30
0
41
1
10
5.68370961828217
20
-0.396687079229878
30
0
41
1
10
5.60436008054216
20
-0.370375764682564
30
0
41
1
10
5.44881991728317
20
-0.319920556494537
30
0
41
1
10
5.37201681847495
20
-0.295592304329546
30
0
41
1
10
5.29936207859524
20
-0.272905991228043
30
0
0
SPLINE
5
C8
100
AcDbEntity
8
1
62
256
6
ByLayer
370
18
48
1
60
0
100
AcDbSpline
70
4
71
3
72
8
73
4
40
0
40
0
40
0
40
0
40
1
40
1
40
1
40
1
41
1
10
5.85924050310572
20
-5.65911963376453
30
0
41
1
10
5.65484115621894
20
-5.61942986450274
30
0
41
1
10
5.45033739823572
20
-5.57721948422787
30
0
41
1
10
5.24569145608692
20
-5.53247687007106
30
0
0
SPLINE
5
C9
100
AcDbEntity
8
1
62
256
6
ByLayer
370
18
48
1
60
0
100
AcDbSpline
70
4
71
3
72
8
73
4
40
0
40
0
40
0
40
0
40
1
40
1
40
1
40
1
41
1
10
136.052892158647
20
-1.41544920476332
30
0
41
1
10
136.053452787528
20
-1.41602043914295
30
0
41
1
10
136.054013427712
20
-1.41659166242982
30
0
41
1
10
136.054574079197
20
-1.4171628746233
30
0
0
SPLINE
5
CA
100
AcDbEntity
8
1
62
256
6
ByLayer
370
18
48
1
60
0
100
AcDbSpline
70
4
71
1
72
4
73
2
40
0
40
0
40
1
40
1
41
1
10
134.694758008367
20
-6.00782499487789
30
0
41
1
10
136.050553866027
20
-1.43073488683578
30
0
0
SPLINE
5
CB
100
AcDbEntity
8
1
62
256
6
ByLayer
370
18
48
1
60
0
100
AcDbSpline
70
4
71
3
72
8
73
4
40
0
40
0
40
0
40
0
40
1
40
1
40
1
40
1
41
1
10
136.999784817704
20
0.0987206784676289
30
0
41
1
10
136.819795910391
20
0.572093496642339
30
0
41
1
10
136.646867448475
20
1.0517810678935
30
0
41
1
10
136.479242330737
20
1.53710483927614
30
0
0
SPLINE
5
CC
100
AcDbEntity
8
1
62
256
6
ByLayer
370
18
48
1
60
0
100
AcDbSpline
70
4
71
3
72
16
73
12
40
0
40
0
40
0
40
0
40
0.250000000000002
40
0.250000000000002
40
0.375000000000002
40
0.375000000000002
40
0.500000000000001
40
0.500000000000001
40
0.750000000000001
40
0.750000000000001
40
1
40
1
40
1
40
1
41
1
10
13.1920090941353
20
-4.89144359456083
30
0
41
1
10
13.7999546697298
20
-5.04537046502364
30
0
41
1
10
14.4094565164476
20
-5.18582111724012
30
0
41
1
10
15.3256690612756
20
-5.37694132722498
30
0
41
1
10
15.631402931337
20
-5.43737347825848
30
0
41
1
10
16.243501283265
20
-5.55162496552191
30
0
41
1
10
16.5500103488417
20
-5.60546299273636
30
0
41
1
10
17.4675324804203
20
-5.75634227561628
30
0
41
1
10
18.077418162327
20
-5.84298397229102
30
0
41
1
10
19.2932580144209
20
-5.98637647898423
30
0
41
1
10
19.8992129353961
20
-6.04314643876845
30
0
41
1
10
20.5030198669245
20
-6.08293421211428
30
0
0
SPLINE
5
CD
100
AcDbEntity
8
1
62
256
6
ByLayer
370
18
48
1
60
0
100
AcDbSpline
70
4
71
3
72
34
73
30
40
0
40
0
40
0
40
0
40
0.0157492941339825
40
0.0157492941339825
40
0.0343200621691903
40
0.0343200621691903
40
0.108603134310022
40
0.108603134310022
40
0.145744670380437
40
0.145744670380437
40
0.182886206450853
40
0.182886206450853
40
0.257169278591684
40
0.257169278591684
40
0.331452350732516
40
0.331452350732516
40
0.368593886802932
40
0.368593886802932
40
0.405735422873349
40
0.405735422873349
40
0.554301567155011
40
0.554301567155011
40
0.702867711436674
40
0.702867711436674
40
0.851433855718337
40
0.851433855718337
40
0.925716927859169
40
0.925716927859169
40
1
40
1
40
1
40
1
41
1
10
6.37081790926803
20
5.96826337099085
30
0
41
1
10
6.39686941785379
20
5.96827673686093
30
0
41
1
10
6.42426839343145
20
5.96744423221912
30
0
41
1
10
6.48621005195866
20
5.96389639283348
30
0
41
1
10
6.52116530082986
20
5.96087980279151
30
0
41
1
10
6.70256795733178
20
5.94079524268693
30
0
41
1
10
6.86864701662114
20
5.9089255892377
30
0
41
1
10
7.14201390562033
20
5.8436846471858
30
0
41
1
10
7.23753864428457
20
5.81890421926457
30
0
41
1
10
7.43447307845727
20
5.76457274133
30
0
41
1
10
7.53552196145205
20
5.73513486719946
30
0
41
1
10
7.8453837816437
20
5.64110560761304
30
0
41
1
10
8.06085722672088
20
5.57085595421572
30
0
41
1
10
8.50597907332985
20
5.41914145712821
30
0
41
1
10
8.73566494564952
20
5.33763784540128
30
0
41
1
10
9.08924183991275
20
5.20871379494036
30
0
41
1
10
9.20883458546155
20
5.16453611741559
30
0
41
1
10
9.44962430985055
20
5.07463194133581
30
0
41
1
10
9.57077695684958
20
5.02892530663377
30
0
41
1
10
10.1799892279719
20
4.79716008968884
30
0
41
1
10
10.67807352443
20
4.60193074680333
30
0
41
1
10
11.6917969650145
20
4.19782252642472
30
0
41
1
10
12.2075085405232
20
3.98882398164278
30
0
41
1
10
13.2530854905408
20
3.56232064229033
30
0
41
1
10
13.7839444737908
20
3.34422425095235
30
0
41
1
10
14.5845941203184
20
3.01547615161863
30
0
41
1
10
14.8522981657867
20
2.90553054008097
30
0
41
1
10
15.3895547225523
20
2.68394626200339
30
0
41
1
10
15.6590256419124
20
2.57261415930523
30
0
41
1
10
15.9292629473249
20
2.46094612340588
30
0
0
SPLINE
5
CE
100
AcDbEntity
8
1
62
256
6
ByLayer
370
18
48
1
60
0
100
AcDbSpline
70
4
71
4
72
10
73
5
40
0
40
0
40
0
40
0
40
0
40
1
40
1
40
1
40
1
40
1
41
1
10
20.5030198669246
20
6.08293421211422
30
0
41
1
10
20.2009656923923
20
5.24719720376424
30
0
41
1
10
19.8989115178601
20
4.41146019541424
30
0
41
1
10
19.5968573433278
20
3.57572318706426
30
0
41
1
10
19.2948031687955
20
2.73998617871428
30
0
0
SPLINE
5
CF
100
AcDbEntity
8
1
62
256
6
ByLayer
370
18
48
1
60
0
100
AcDbSpline
70
4
71
3
72
14
73
10
40
0
40
0
40
0
40
0
40
0.197954805460705
40
0.197954805460705
40
0.598977402730357
40
0.598977402730357
40
0.799488701365179
40
0.799488701365179
40
1
40
1
40
1
40
1
41
1
10
10.8809853401881
20
4.51011776126782
30
0
41
1
10
11.0383744544554
20
4.52178544172111
30
0
41
1
10
11.1948069406694
20
4.53634612016884
30
0
41
1
10
11.6652704882272
20
4.58878719056949
30
0
41
1
10
11.976361315781
20
4.63528935382351
30
0
41
1
10
12.4370315751042
20
4.72044630442068
30
0
41
1
10
12.5895915267313
20
4.75139520990999
30
0
41
1
10
12.8926744719739
20
4.81805076512367
30
0
41
1
10
13.0436813728558
20
4.85388822306723
30
0
41
1
10
13.1920090941353
20
4.891443594561
30
0
0
SPLINE
5
D0
100
AcDbEntity
8
1
62
256
6
ByLayer
370
18
48
1
60
0
100
AcDbSpline
70
4
71
3
72
10
73
6
40
0
40
0
40
0
40
0
40
0.673330836990394
40
0.673330836990394
40
1
40
1
40
1
40
1
41
1
10
100.143195831993
20
-6.1351576874988
30
0
41
1
10
99.6033870745135
20
-6.13430924407157
30
0
41
1
10
99.0621188405077
20
-6.11524365593669
30
0
41
1
10
98.2546542666297
20
-6.05946955159641
30
0
41
1
10
97.9903091969128
20
-6.03686681962949
30
0
41
1
10
97.7265671116672
20
-6.01005996672129
30
0
0
SPLINE
5
D1
100
AcDbEntity
8
1
62
256
6
ByLayer
370
13
48
1
60
0
100
AcDbSpline
70
4
71
3
72
40
73
36
40
0
40
0
40
0
40
0
40
0.0072417272082995
40
0.0072417272082995
40
0.0404710012546849
40
0.0404710012546849
40
0.106929549347455
40
0.106929549347455
40
0.239846645532994
40
0.239846645532994
40
0.273075919579379
40
0.273075919579379
40
0.306305193625764
40
0.306305193625764
40
0.372763741718531
40
0.372763741718531
40
0.505680837904068
40
0.505680837904068
40
0.538910111950453
40
0.538910111950453
40
0.572139385996838
40
0.572139385996838
40
0.638597934089606
40
0.638597934089606
40
0.771515030275143
40
0.771515030275143
40
0.837973578367911
40
0.837973578367911
40
0.871202852414294
40
0.871202852414294
40
0.904432126460677
40
0.904432126460677
40
0.970890674553445
40
0.970890674553445
40
1
40
1
40
1
40
1
41
1
10
97.7265671120398
20
-6.01005996675917
30
0
41
1
10
97.6530723629702
20
-6.00258993054669
30
0
41
1
10
97.5796244369699
20
-5.99479343510359
30
0
41
1
10
97.1695582078911
20
-5.94941925813026
30
0
41
1
10
96.8337143598836
20
-5.90536466522158
30
0
41
1
10
95.8280458863917
20
-5.75341464891642
30
0
41
1
10
95.1600044003242
20
-5.6256140247153
30
0
41
1
10
93.157837289612
20
-5.16845459184114
30
0
41
1
10
91.8254266536553
20
-4.76489032100133
30
0
41
1
10
90.1449030249635
20
-4.15672609792313
30
0
41
1
10
89.8080206686358
20
-4.02992711389524
30
0
41
1
10
89.1322272786856
20
-3.76655050892054
30
0
41
1
10
88.7945648945764
20
-3.63042198656558
30
0
41
1
10
87.7850932734264
20
-3.21146420343808
30
0
41
1
10
87.1152170972333
20
-2.9175983675735
30
0
41
1
10
85.1097711699132
20
-2.00235559084678
30
0
41
1
10
83.7779860581859
20
-1.34780206885989
30
0
41
1
10
82.101877620363
20
-0.508894839098133
30
0
41
1
10
81.7660591878796
20
-0.340125495047232
30
0
41
1
10
81.0927924287207
20
-0.0014878146642161
30
0
41
1
10
80.7550409639773
20
0.168607869806351
30
0
41
1
10
79.7408203711475
20
0.6780181788871
30
0
41
1
10
79.0685495350528
20
1.01370539737357
30
0
41
1
10
77.0580265534726
20
1.99907237734868
30
0
41
1
10
75.7257790584748
20
2.62617742373405
30
0
41
1
10
73.7181208299455
20
3.48244598704855
30
0
41
1
10
73.0472846783147
20
3.75364405525482
30
0
41
1
10
72.0359816010893
20
4.13445219878508
30
0
41
1
10
71.6976084095198
20
4.25710931566672
30
0
41
1
10
71.0208640760667
20
4.49214500046088
30
0
41
1
10
70.6826235729984
20
4.60452679421306
30
0
41
1
10
69.6674898149
20
4.92511461907438
30
0
41
1
10
68.9909949059523
20
5.11646934539081
30
0
41
1
10
68.0178428620436
20
5.35611928327961
30
0
41
1
10
67.7212187035867
20
5.42434823167392
30
0
41
1
10
67.4253943241948
20
5.48750524771381
30
0
0
SPLINE
5
D2
100
AcDbEntity
8
1
62
256
6
ByLayer
370
18
48
1
60
0
100
AcDbSpline
70
4
71
3
72
12
73
8
40
0
40
0
40
0
40
0
40
0.0469986128930138
40
0.0469986128930138
40
0.830077050055129
40
0.830077050055129
40
1
40
1
40
1
40
1
41
1
10
24.0664301069176
20
-5.99798793983095
30
0
41
1
10
24.0257294897437
20
-5.99810707749555
30
0
41
1
10
23.9850289599156
20
-5.99812518472808
30
0
41
1
10
23.2662361620797
20
-5.99665956230092
30
0
41
1
10
22.5919441001534
20
-5.96708669471997
30
0
41
1
10
21.7737403871158
20
-5.89832220523988
30
0
41
1
10
21.6279442000076
20
-5.88478426337537
30
0
41
1
10
21.482222112759
20
-5.86998264584278
30
0
0
SPLINE
5
D3
100
AcDbEntity
8
1
62
256
6
ByLayer
370
13
48
1
60
0
100
AcDbSpline
70
4
71
3
72
22
73
18
40
0
40
0
40
0
40
0
40
0.229089681755506
40
0.229089681755506
40
0.357574734796255
40
0.357574734796255
40
0.421817261316629
40
0.421817261316629
40
0.486059787837004
40
0.486059787837004
40
0.743029893918502
40
0.743029893918502
40
0.871514946959253
40
0.871514946959253
40
0.935757473479626
40
0.935757473479626
40
1
40
1
40
1
40
1
41
1
10
21.4822221153199
20
-5.86998264610287
30
0
41
1
10
20.2848434095
20
-5.74835975446007
30
0
41
1
10
19.0924676942056
20
-5.5414174382654
30
0
41
1
10
17.2237072480596
20
-5.09680541042073
30
0
41
1
10
16.550635633947
20
-4.91267919339649
30
0
41
1
10
15.535852940344
20
-4.60204984313899
30
0
41
1
10
15.1960671305657
20
-4.4925229192086
30
0
41
1
10
14.5179985502145
20
-4.26362322690287
30
0
41
1
10
14.1798957075476
20
-4.14438701661447
30
0
41
1
10
12.4929628906335
20
-3.52632484312886
30
0
41
1
10
11.1542498635431
20
-2.96230054829667
30
0
41
1
10
9.14186334507193
20
-2.04956171776291
30
0
41
1
10
8.47027828492276
20
-1.73434561536021
30
0
41
1
10
7.45906848217135
20
-1.25015636789692
30
0
41
1
10
7.12135509439471
20
-1.08687787238549
30
0
41
1
10
6.44414199163054
20
-0.757483602389243
30
0
41
1
10
6.10426412242808
20
-0.591172833910292
30
0
41
1
10
5.76456622324702
20
-0.424465244231982
30
0
0
SPLINE
5
D4
100
AcDbEntity
8
1
62
256
6
ByLayer
370
18
48
1
60
0
100
AcDbSpline
70
4
71
3
72
30
73
26
40
0
40
0
40
0
40
0
40
0.16653797233281
40
0.16653797233281
40
0.270720725791209
40
0.270720725791209
40
0.374903479249609
40
0.374903479249609
40
0.479086232708008
40
0.479086232708008
40
0.583268986166407
40
0.583268986166407
40
0.635360362895606
40
0.635360362895606
40
0.687451739624806
40
0.687451739624806
40
0.791634493083204
40
0.791634493083204
40
0.843725869812403
40
0.843725869812403
40
0.895817246541602
40
0.895817246541602
40
0.947908623270801
40
0.947908623270801
40
1
40
1
40
1
40
1
41
1
10
10.9171033615918
20
-4.5063219743129
30
0
41
1
10
10.5164519976563
20
-4.6650450950456
30
0
41
1
10
10.1208383024524
20
-4.81939391954444
30
0
41
1
10
9.48732525971369
20
-5.06082092280329
30
0
41
1
10
9.24589067665056
20
-5.1513463993868
30
0
41
1
10
8.76879116380067
20
-5.32577293390841
30
0
41
1
10
8.53589714042874
20
-5.40866777710406
30
0
41
1
10
8.08434940322675
20
-5.5630944137441
30
0
41
1
10
7.86527835976227
20
-5.63478978509536
30
0
41
1
10
7.44581223444868
20
-5.76261503294288
30
0
41
1
10
7.24794978018338
20
-5.81798486758029
30
0
41
1
10
6.97335800214961
20
-5.88412115383542
30
0
41
1
10
6.88554893775836
20
-5.90332811989578
30
0
41
1
10
6.71849453883488
20
-5.93504049656147
30
0
41
1
10
6.63892937879172
20
-5.94758451149187
30
0
41
1
10
6.41763942474316
20
-5.97281691734909
30
0
41
1
10
6.29484279920212
20
-5.97317518015512
30
0
41
1
10
6.1568695820452
20
-5.94181843641235
30
0
41
1
10
6.11868594783849
20
-5.92582974303471
30
0
41
1
10
6.06170165228622
20
-5.88306606128114
30
0
41
1
10
6.0424764824966
20
-5.85625661272002
30
0
41
1
10
6.02300483292606
20
-5.79140818418222
30
0
41
1
10
6.02275561379167
20
-5.75337081101782
30
0
41
1
10
6.04210919421399
20
-5.66547186598373
30
0
41
1
10
6.06156433392741
20
-5.61637285158068
30
0
41
1
10
6.09026540335751
20
-5.56252673816203
30
0
0
SPLINE
5
D5
100
AcDbEntity
8
1
62
256
6
ByLayer
370
18
48
1
60
0
100
AcDbSpline
70
4
71
3
72
34
73
30
40
0
40
0
40
0
40
0
40
0.0625000000000013
40
0.0625000000000013
40
0.125000000000003
40
0.125000000000003
40
0.156250000000002
40
0.156250000000002
40
0.187500000000002
40
0.187500000000002
40
0.250000000000001
40
0.250000000000001
40
0.3125
40
0.3125
40
0.374999999999999
40
0.374999999999999
40
0.499999999999998
40
0.499999999999998
40
0.624999999999996
40
0.624999999999996
40
0.687499999999997
40
0.687499999999997
40
0.749999999999998
40
0.749999999999998
40
0.874999999999999
40
0.874999999999999
40
0.937499999999999
40
0.937499999999999
40
1
40
1
40
1
40
1
41
1
10
6.06737659287842
20
-5.37684179890053
30
0
41
1
10
6.12887959159812
20
-5.30461949357291
30
0
41
1
10
6.22066782303037
20
-5.23569500841347
30
0
41
1
10
6.43943922402832
20
-5.10706178551524
30
0
41
1
10
6.56287690498348
20
-5.04914319803393
30
0
41
1
10
6.76121231038744
20
-4.9691743038783
30
0
41
1
10
6.82986372123179
20
-4.94361173436138
30
0
41
1
10
6.9696621747776
20
-4.89511003670313
30
0
41
1
10
7.04069174545964
20
-4.87219478867632
30
0
41
1
10
7.25659840073016
20
-4.8069452165403
30
0
41
1
10
7.40426223108056
20
-4.76807754519004
30
0
41
1
10
7.70529174693218
20
-4.69810799177867
30
0
41
1
10
7.85867895819973
20
-4.66702614213148
30
0
41
1
10
8.17029851166916
20
-4.61197620461797
30
0
41
1
10
8.3274849747767
20
-4.58821494934952
30
0
41
1
10
8.79943124999343
20
-4.52762328205844
30
0
41
1
10
9.11600268373155
20
-4.50114392016096
30
0
41
1
10
9.75244008938313
20
-4.47340029599135
30
0
41
1
10
10.0723181435978
20
-4.47220451479694
30
0
41
1
10
10.5545768623084
20
-4.48913831625708
30
0
41
1
10
10.7154402927863
20
-4.4979245073263
30
0
41
1
10
11.0343337921014
20
-4.52140981517033
30
0
41
1
10
11.1927989569917
20
-4.53612229663574
30
0
41
1
10
11.6652704882272
20
-4.58878719056949
30
0
41
1
10
11.976361315781
20
-4.63528935382351
30
0
41
1
10
12.4370315751042
20
-4.72044630442068
30
0
41
1
10
12.5895915267313
20
-4.75139520991002
30
0
41
1
10
12.8926744719739
20
-4.8180507651237
30
0
41
1
10
13.0436813728558
20
-4.85388822306726
30
0
41
1
10
13.1920090941353
20
-4.891443594561
30
0
0
SPLINE
5
D6
100
AcDbEntity
8
1
62
256
6
ByLayer
370
18
48
1
60
0
100
AcDbSpline
70
4
71
3
72
14
73
10
40
0
40
0
40
0
40
0
40
0.0498826890976377
40
0.0498826890976377
40
0.366588459398425
40
0.366588459398425
40
0.683294229699213
40
0.683294229699213
40
1
40
1
40
1
40
1
41
1
10
18.4521350924263
20
1.27332774325384
30
0
41
1
10
18.4684559224069
20
1.29089077507339
30
0
41
1
10
18.484723543657
20
1.30888039300032
30
0
41
1
10
18.6038104862322
20
1.44415204916845
30
0
41
1
10
18.7041398311696
20
1.57782363539877
30
0
41
1
10
18.8948562072626
20
1.87233697880157
30
0
41
1
10
18.985235762449
20
2.03316719122535
30
0
41
1
10
19.1516811209671
20
2.37422234037189
30
0
41
1
10
19.2277403997391
20
2.55443390793468
30
0
41
1
10
19.2948031687956
20
2.73998617871425
30
0
0
SPLINE
5
D7
100
AcDbEntity
8
1
62
256
6
ByLayer
370
18
48
1
60
0
100
AcDbSpline
70
4
71
3
72
8
73
4
40
0
40
0
40
0
40
0
40
1
40
1
40
1
40
1
41
1
10
136.999784817704
20
-0.0987206784676005
30
0
41
1
10
136.819356160636
20
-0.573250043365846
30
0
41
1
10
136.646463815008
20
-1.05294970490334
30
0
41
1
10
136.479242330737
20
-1.53710483927625
30
0
0
SPLINE
5
D8
100
AcDbEntity
8
1
62
256
6
ByLayer
370
18
48
1
60
0
100
AcDbSpline
70
4
71
3
72
8
73
4
40
0
40
0
40
0
40
0
40
1
40
1
40
1
40
1
41
1
10
6.09026540335748
20
-5.56252673816203
30
0
41
1
10
6.01285764206455
20
-5.59500893610053
30
0
41
1
10
5.9358493265336
20
-5.62720732354688
30
0
41
1
10
5.85924050310646
20
-5.65911963377505
30
0
0
SPLINE
5
D9
100
AcDbEntity
8
1
62
256
6
ByLayer
370
18
48
1
60
0
100
AcDbSpline
70
4
71
3
72
8
73
4
40
0
40
0
40
0
40
0
40
1
40
1
40
1
40
1
41
1
10
135.358721296638
20
2.78467880048751
30
0
41
1
10
135.357746441335
20
2.80026531483281
30
0
41
1
10
135.357087524418
20
2.81587803078313
30
0
41
1
10
135.356765608174
20
2.83149731779292
30
0
0
SPLINE
5
DA
100
AcDbEntity
8
1
62
256
6
ByLayer
370
13
48
1
60
0
100
AcDbSpline
70
4
71
3
72
16
73
12
40
0
40
0
40
0
40
0
40
0.0476739142663188
40
0.0476739142663188
40
0.439536948514296
40
0.439536948514296
40
0.635468465638285
40
0.635468465638285
40
0.831399982762273
40
0.831399982762273
40
1
40
1
40
1
40
1
41
1
10
5.76513043603299
20
-5.96690323821599
30
0
41
1
10
5.7651350547724
20
-5.96691379155962
30
0
41
1
10
5.76513961648121
20
-5.96668684960491
30
0
41
1
10
5.76518111566634
20
-5.96241508741178
30
0
41
1
10
5.76521403938972
20
-5.94268259227837
30
0
41
1
10
5.76525417358408
20
-5.88923552699074
30
0
41
1
10
5.76526600626471
20
-5.86743332295544
30
0
41
1
10
5.76528599946408
20
-5.81571587165962
30
0
41
1
10
5.76529417313276
20
-5.78571041958219
30
0
41
1
10
5.76530530515359
20
-5.72255681482841
30
0
41
1
10
5.76530883610243
20
-5.69047505546726
30
0
41
1
10
5.76531059852965
20
-5.65553160277634
30
0
0
SPLINE
5
DB
100
AcDbEntity
8
1
62
256
6
ByLayer
370
18
48
1
60
0
100
AcDbSpline
70
4
71
3
72
20
73
16
40
0
40
0
40
0
40
0
40
0.249999999999991
40
0.249999999999991
40
0.374999999999993
40
0.374999999999993
40
0.499999999999994
40
0.499999999999994
40
0.624999999999996
40
0.624999999999996
40
0.749999999999997
40
0.749999999999997
40
0.874999999999999
40
0.874999999999999
40
1
40
1
40
1
40
1
41
1
10
136.054574071074
20
-1.41716287968791
30
0
41
1
10
136.122356900594
20
-1.37490015425135
30
0
41
1
10
136.194621966534
20
-1.3069538223364
30
0
41
1
10
136.310285015956
20
-1.16889710268194
30
0
41
1
10
136.350321270574
20
-1.11636572892428
30
0
41
1
10
136.430752654275
20
-1.00205266278152
30
0
41
1
10
136.471332567006
20
-0.94010613809229
30
0
41
1
10
136.553221587759
20
-0.807114604273806
30
0
41
1
10
136.594530650768
20
-0.736067412974506
30
0
41
1
10
136.677862631807
20
-0.584938002353482
30
0
41
1
10
136.719255951737
20
-0.505983720046288
30
0
41
1
10
136.801009195404
20
-0.342675421677285
30
0
41
1
10
136.841450734732
20
-0.258170358347201
30
0
41
1
10
136.921415825852
20
-0.083658478738414
30
0
41
1
10
136.96112815577
20
0.0068095196015747
30
0
41
1
10
136.999784817704
20
0.0987206784676289
30
0
0
SPLINE
5
DC
100
AcDbEntity
8
1
62
256
6
ByLayer
370
18
48
1
60
0
100
AcDbSpline
70
4
71
3
72
34
73
30
40
0
40
0
40
0
40
0
40
0.0995520127121883
40
0.0995520127121883
40
0.149328019068283
40
0.149328019068283
40
0.199104025424377
40
0.199104025424377
40
0.298656038136566
40
0.298656038136566
40
0.398208050848755
40
0.398208050848755
40
0.497760063560944
40
0.497760063560944
40
0.597312076273134
40
0.597312076273134
40
0.696864088985323
40
0.696864088985323
40
0.746640095341417
40
0.746640095341417
40
0.796416101697512
40
0.796416101697512
40
0.895968114409702
40
0.895968114409702
40
0.945744120765798
40
0.945744120765798
40
0.995520127121893
40
0.995520127121893
40
1
40
1
40
1
40
1
41
1
10
5.64562122636255
20
-0.66409739599419
30
0
41
1
10
6.32169180116426
20
-1.00312835878532
30
0
41
1
10
6.99723350753965
20
-1.33909861724504
30
0
41
1
10
8.01036483703064
20
-1.83185506162766
30
0
41
1
10
8.34842656669568
20
-1.99435590908197
30
0
41
1
10
9.0236235807599
20
-2.3139934275284
30
0
41
1
10
9.36077502637107
20
-2.471179198485
30
0
41
1
10
10.3716605902506
20
-2.9334594147337
30
0
41
1
10
11.0449483181469
20
-3.22906322673364
30
0
41
1
10
12.3936984263346
20
-3.78913225648327
30
0
41
1
10
13.0698955705457
20
-4.05386964442681
30
0
41
1
10
14.4178220890261
20
-4.5420278756263
30
0
41
1
10
15.0909200217545
20
-4.76574666638132
30
0
41
1
10
16.4388293166946
20
-5.16804047642307
30
0
41
1
10
17.1148312402414
20
-5.34690140184705
30
0
41
1
10
18.4629697510929
20
-5.65266325507466
30
0
41
1
10
19.1359083131812
20
-5.77972516988262
30
0
41
1
10
20.1462531275193
20
-5.92977862691626
30
0
41
1
10
20.4831793624372
20
-5.97304469122011
30
0
41
1
10
21.1578078566932
20
-6.04573936669019
30
0
41
1
10
21.4956301538253
20
-6.07516378123319
30
0
41
1
10
22.5070516487871
20
-6.14201716115647
30
0
41
1
10
23.1799165907385
20
-6.15820186853904
30
0
41
1
10
24.189763478731
20
-6.13983928270446
30
0
41
1
10
24.526499346126
20
-6.12661460194485
30
0
41
1
10
25.2006325091991
20
-6.08596267265455
30
0
41
1
10
25.5383676959127
20
-6.05849335150691
30
0
41
1
10
25.906009582984
20
-6.02095312978068
30
0
41
1
10
25.9363619773601
20
-6.01779709268794
30
0
41
1
10
25.966710989031
20
-6.0145848027999
30
0
0
SPLINE
5
DD
100
AcDbEntity
8
1
62
256
6
ByLayer
370
18
48
1
60
0
100
AcDbSpline
70
4
71
3
72
56
73
52
40
0
40
0
40
0
40
0
40
0.0182173476568349
40
0.0182173476568349
40
0.0678549829574279
40
0.0678549829574279
40
0.117492618258021
40
0.117492618258021
40
0.167130253558614
40
0.167130253558614
40
0.19194907120891
40
0.19194907120891
40
0.216767888859207
40
0.216767888859207
40
0.266405524159799
40
0.266405524159799
40
0.291224341810095
40
0.291224341810095
40
0.316043159460392
40
0.316043159460392
40
0.365680794760985
40
0.365680794760985
40
0.390499612411281
40
0.390499612411281
40
0.415318430061577
40
0.415318430061577
40
0.464956065362169
40
0.464956065362169
40
0.51459370066276
40
0.51459370066276
40
0.564231335963351
40
0.564231335963351
40
0.589050153613646
40
0.589050153613646
40
0.613868971263941
40
0.613868971263941
40
0.663506606564529
40
0.663506606564529
40
0.688325424214822
40
0.688325424214822
40
0.713144241865116
40
0.713144241865116
40
0.762781877165704
40
0.762781877165704
40
0.787600694815998
40
0.787600694815998
40
0.812419512466292
40
0.812419512466292
40
0.91169478306747
40
0.91169478306747
40
1
40
1
40
1
40
1
41
1
10
61.4784884364872
20
6.218459078748
30
0
41
1
10
61.7250216652314
20
6.21886216226758
30
0
41
1
10
61.9714784017462
20
6.21541169292112
30
0
41
1
10
62.8895401773104
20
6.18822046377443
30
0
41
1
10
63.5614684090755
20
6.13971009658675
30
0
41
1
10
64.9086145050894
20
5.98612517377734
30
0
41
1
10
65.5801028337605
20
5.88144567428034
30
0
41
1
10
66.9228672511506
20
5.61906457131877
30
0
41
1
10
67.5941838241949
20
5.46140512503581
30
0
41
1
10
68.6038553769872
20
5.18737370246657
30
0
41
1
10
68.9405133423759
20
5.08985132222264
30
0
41
1
10
69.6126471560894
20
4.88366179312746
30
0
41
1
10
69.9483853625468
20
4.77489622598998
30
0
41
1
10
70.9552870974833
20
4.43245827977765
30
0
41
1
10
71.6262339371052
20
4.18276643400898
30
0
41
1
10
72.6349663012999
20
3.7798614206055
30
0
41
1
10
72.971797672502
20
3.64074935455298
30
0
41
1
10
73.6441117914439
20
3.35500695560603
30
0
41
1
10
73.9798845684086
20
3.20824116708442
30
0
41
1
10
74.9866906746018
20
2.75736202320331
30
0
41
1
10
75.6573516565332
20
2.44290419709776
30
0
41
1
10
76.6652623431523
20
1.95517187019152
30
0
41
1
10
77.0019040470228
20
1.78977032243017
30
0
41
1
10
77.6744768035559
20
1.45557312507881
30
0
41
1
10
78.0103137177715
20
1.28678747728245
30
0
41
1
10
79.0171241651935
20
0.776620721531572
30
0
41
1
10
79.6875547260155
20
0.43173244740143
30
0
41
1
10
81.0304617964012
20
-0.260629094788499
30
0
41
1
10
81.7040054633155
20
-0.608317653638693
30
0
41
1
10
83.046580251108
20
-1.29326263614405
30
0
41
1
10
83.7168280433158
20
-1.63091302635286
30
0
41
1
10
84.7233576623502
20
-2.12499817572524
30
0
41
1
10
85.0590907170078
20
-2.2875717875805
30
0
41
1
10
85.7314939477838
20
-2.60755453441965
30
0
41
1
10
86.0678347823038
20
-2.76486011895335
30
0
41
1
10
87.0749234101896
20
-3.22602212241924
30
0
41
1
10
87.7450668618385
20
-3.51945564772205
30
0
41
1
10
88.7510524749604
20
-3.93429548191668
30
0
41
1
10
89.0865431951664
20
-4.06830300442323
30
0
41
1
10
89.7583450820403
20
-4.32698851335783
30
0
41
1
10
90.0948453766397
20
-4.45177584514443
30
0
41
1
10
91.1022305134441
20
-4.80974500655094
30
0
41
1
10
91.772320906988
20
-5.02681781610983
30
0
41
1
10
92.7778448664451
20
-5.31700464713162
30
0
41
1
10
93.1131121116666
20
-5.40779633718876
30
0
41
1
10
93.784369541703
20
-5.57692005957196
30
0
41
1
10
94.1206833075954
20
-5.65533770571901
30
0
41
1
10
95.8003545147424
20
-6.0142555945292
30
0
41
1
10
97.1370896246175
20
-6.19445563302398
30
0
41
1
10
99.6773386549266
20
-6.31748450755822
30
0
41
1
10
100.866603628893
20
-6.2836986368273
30
0
41
1
10
102.060255741609
20
-6.15978801501535
30
0
0
SPLINE
5
DE
100
AcDbEntity
8
1
62
256
6
ByLayer
370
13
48
1
60
0
100
AcDbSpline
70
4
71
3
72
8
73
4
40
0
40
0
40
0
40
0
40
1
40
1
40
1
40
1
41
1
10
5.23403823703049
20
-0.250546817401698
30
0
41
1
10
5.25509664598661
20
-0.258417283129745
30
0
41
1
10
5.27685392154075
20
-0.265877859283421
30
0
41
1
10
5.29936207859524
20
-0.272905991228015
30
0
0
SPLINE
5
DF
100
AcDbEntity
8
1
62
256
6
ByLayer
370
18
48
1
60
0
100
AcDbSpline
70
4
71
3
72
12
73
8
40
0
40
0
40
0
40
0
40
0.25
40
0.25
40
0.5
40
0.5
40
1
40
1
40
1
40
1
41
1
10
5.2703461633956
20
-0.370599003191444
30
0
41
1
10
5.29113179874741
20
-0.405642310874868
30
0
41
1
10
5.31726313747438
20
-0.436088661211272
30
0
41
1
10
5.37496463040142
20
-0.492304453889716
30
0
41
1
10
5.40655067619983
20
-0.517787351414398
30
0
41
1
10
5.50409882467739
20
-0.588087911965431
30
0
41
1
10
5.57362873948816
20
-0.627995126425759
30
0
41
1
10
5.64562122636241
20
-0.664097395994105
30
0
0
SPLINE
5
E0
100
AcDbEntity
8
1
62
256
6
ByLayer
370
18
48
1
60
0
100
AcDbSpline
70
4
71
3
72
8
73
4
40
0
40
0
40
0
40
0
40
1
40
1
40
1
40
1
41
1
10
136.999784817704
20
0.0987206784676005
30
0
41
1
10
137.000071727433
20
0.0329068928224956
30
0
41
1
10
137.000071727433
20
-0.032906892822524
30
0
41
1
10
136.999784817704
20
-0.0987206784676289
30
0
0
SPLINE
5
E1
100
AcDbEntity
8
1
62
256
6
ByLayer
370
18
48
1
60
0
100
AcDbSpline
70
4
71
3
72
18
73
14
40
0
40
0
40
0
40
0
40
0.25
40
0.25
40
0.375
40
0.375
40
0.499999999999999
40
0.499999999999999
40
0.75
40
0.75
40
0.875
40
0.875
40
1
40
1
40
1
40
1
41
1
10
134.06639155582
20
0.633404319604097
30
0
41
1
10
134.000019833283
20
0.309438824104745
30
0
41
1
10
133.946540153726
20
-0.0152157920919933
30
0
41
1
10
133.885693257727
20
-0.503233244714437
30
0
41
1
10
133.868654365751
20
-0.666079099324435
30
0
41
1
10
133.841255513653
20
-0.992127818692751
30
0
41
1
10
133.830869618928
20
-1.15616655690786
30
0
41
1
10
133.810472146588
20
-1.64172500502605
30
0
41
1
10
133.81099691688
20
-1.95616286242316
30
0
41
1
10
133.832357248476
20
-2.41431922997606
30
0
41
1
10
133.842922852842
20
-2.56477703580552
30
0
41
1
10
133.871041095064
20
-2.86110765408398
30
0
41
1
10
133.888658531964
20
-3.00730613428516
30
0
41
1
10
133.909616943774
20
-3.14953655222951
30
0
0
SPLINE
5
E2
100
AcDbEntity
8
1
62
256
6
ByLayer
370
18
48
1
60
0
100
AcDbSpline
70
4
71
3
72
10
73
6
40
0
40
0
40
0
40
0
40
0.5
40
0.5
40
1
40
1
40
1
40
1
41
1
10
135.356765608174
20
2.83149731779267
30
0
41
1
10
135.351492783909
20
3.08733329039461
30
0
41
1
10
135.371284067436
20
3.33846216788288
30
0
41
1
10
135.432684964285
20
3.83662239206305
30
0
41
1
10
135.475006637381
20
4.08352001234783
30
0
41
1
10
135.523552450546
20
4.32924872530307
30
0
0
SPLINE
5
E3
100
AcDbEntity
8
1
62
256
6
ByLayer
370
18
48
1
60
0
100
AcDbSpline
70
4
71
3
72
70
73
66
40
0
40
0
40
0
40
0
40
0.0271090837068345
40
0.0271090837068345
40
0.0542181674136689
40
0.0542181674136689
40
0.0813272511205034
40
0.0813272511205034
40
0.108436334827338
40
0.108436334827338
40
0.162654502241007
40
0.162654502241007
40
0.216872669654676
40
0.216872669654676
40
0.24398175336151
40
0.24398175336151
40
0.271090837068345
40
0.271090837068345
40
0.298199920775179
40
0.298199920775179
40
0.325309004482014
40
0.325309004482014
40
0.352418088188848
40
0.352418088188848
40
0.379527171895683
40
0.379527171895683
40
0.406636255602517
40
0.406636255602517
40
0.433745339309351
40
0.433745339309351
40
0.460854423016186
40
0.460854423016186
40
0.48796350672302
40
0.48796350672302
40
0.542181674136689
40
0.542181674136689
40
0.569290757843524
40
0.569290757843524
40
0.596399841550359
40
0.596399841550359
40
0.65061800896403
40
0.65061800896403
40
0.704836176377701
40
0.704836176377701
40
0.731945260084536
40
0.731945260084536
40
0.759054343791371
40
0.759054343791371
40
0.786163427498206
40
0.786163427498206
40
0.813272511205041
40
0.813272511205041
40
0.840381594911875
40
0.840381594911875
40
0.86749067861871
40
0.86749067861871
40
0.894599762325545
40
0.894599762325545
40
0.92170884603238
40
0.92170884603238
40
0.948817929739215
40
0.948817929739215
40
0.97592701344605
40
0.97592701344605
40
1
40
1
40
1
40
1
41
1
10
15.9292629473248
20
2.46094612340593
30
0
41
1
10
16.240946824535
20
2.32124401278745
30
0
41
1
10
16.5516048632297
20
2.17918499026749
30
0
41
1
10
17.1712624666077
20
1.89117056182309
30
0
41
1
10
17.4806677295836
20
1.74604573983956
30
0
41
1
10
18.0980603264748
20
1.45241609843339
30
0
41
1
10
18.4062776297554
20
1.30439342214385
30
0
41
1
10
19.0219462612077
20
1.00627415696985
30
0
41
1
10
19.3292989127464
20
0.855917758487806
30
0
41
1
10
20.2512670307773
20
0.403978867070606
30
0
41
1
10
20.8650834516447
20
0.100037240261713
30
0
41
1
10
22.0937254485635
20
-0.507694245684348
30
0
41
1
10
22.7086528590443
20
-0.811219413878916
30
0
41
1
10
23.6343513766027
20
-1.26121199028532
30
0
41
1
10
23.943310781785
20
-1.41064038561385
30
0
41
1
10
24.562635210719
20
-1.70700480639135
30
0
41
1
10
24.8728662014789
20
-1.85425376282936
30
0
41
1
10
25.4953961150568
20
-2.14498786952981
30
0
41
1
10
25.8064731341866
20
-2.28793440106108
30
0
41
1
10
26.4264512674979
20
-2.56960072543919
30
0
41
1
10
26.735849571865
20
-2.70757429364969
30
0
41
1
10
27.3532664204373
20
-2.97741810003683
30
0
41
1
10
27.6614312944945
20
-3.10905714670003
30
0
41
1
10
28.2771092773399
20
-3.36647549081371
30
0
41
1
10
28.584425437701
20
-3.49265863976578
30
0
41
1
10
29.1989600279535
20
-3.73639455914866
30
0
41
1
10
29.5059488838579
20
-3.85455878578205
30
0
41
1
10
30.1199268211051
20
-4.08355025376753
30
0
41
1
10
30.4269257473382
20
-4.19486995967554
30
0
41
1
10
31.0410062450481
20
-4.40869911570351
30
0
41
1
10
31.3483627752666
20
-4.51095134846244
30
0
41
1
10
31.9635121705749
20
-4.70719270655874
30
0
41
1
10
32.2712915961693
20
-4.80164122908835
30
0
41
1
10
33.1962815921677
20
-5.07070321775092
30
0
41
1
10
33.8150695280505
20
-5.23013463859738
30
0
41
1
10
34.7477685112126
20
-5.44150052070535
30
0
41
1
10
35.0590125357046
20
-5.50611203575568
30
0
41
1
10
35.678720266045
20
-5.62400486686184
30
0
41
1
10
35.9879628005808
20
-5.67734352253191
30
0
41
1
10
36.9137562052713
20
-5.82216935791419
30
0
41
1
10
37.5285071917319
20
-5.89403646981432
30
0
41
1
10
38.7566534329006
20
-5.99531153393778
30
0
41
1
10
39.369821142574
20
-6.02194293314992
30
0
41
1
10
40.2900353445015
20
-6.02874273638031
30
0
41
1
10
40.5969837985293
20
-6.02526267707839
30
0
41
1
10
41.2114254990898
20
-6.00597627037942
30
0
41
1
10
41.5188976658554
20
-5.99037451902723
30
0
41
1
10
42.1348625575863
20
-5.94836519264035
30
0
41
1
10
42.4431197055803
20
-5.92171075371792
30
0
41
1
10
43.0613266939265
20
-5.85608396646481
30
0
41
1
10
43.3711026941793
20
-5.81715746103362
30
0
41
1
10
43.9920867559382
20
-5.72833164592856
30
0
41
1
10
44.3034754290798
20
-5.67850871113086
30
0
41
1
10
44.9232287859062
20
-5.56744931356695
30
0
41
1
10
45.2324001303282
20
-5.50626753972736
30
0
41
1
10
45.8495116812559
20
-5.37389794184995
30
0
41
1
10
46.1574143535918
20
-5.30276849780975
30
0
41
1
10
46.7725763093108
20
-5.15054243029516
30
0
41
1
10
47.079587809868
20
-5.06902999132069
30
0
41
1
10
47.6934085691286
20
-4.89696380679206
30
0
41
1
10
48.0000635133274
20
-4.80642837477103
30
0
41
1
10
48.6130920984106
20
-4.61611590609601
30
0
41
1
10
48.9197071535587
20
-4.51639924500179
30
0
41
1
10
49.498525301364
20
-4.31968994875285
30
0
41
1
10
49.7708509631932
20
-4.2242212388152
30
0
41
1
10
50.0433751492828
20
-4.125432011426
30
0
0
SPLINE
5
E4
100
AcDbEntity
8
1
62
256
6
ByLayer
370
18
48
1
60
0
100
AcDbSpline
70
4
71
3
72
96
73
92
40
0
40
0
40
0
40
0
40
0.0126763707424486
40
0.0126763707424486
40
0.0509744899249933
40
0.0509744899249933
40
0.0892726091075377
40
0.0892726091075377
40
0.127570728290082
40
0.127570728290082
40
0.146719787881354
40
0.146719787881354
40
0.165868847472626
40
0.165868847472626
40
0.185017907063899
40
0.185017907063899
40
0.204166966655171
40
0.204166966655171
40
0.223316026246443
40
0.223316026246443
40
0.242465085837715
40
0.242465085837715
40
0.261614145428988
40
0.261614145428988
40
0.28076320502026
40
0.28076320502026
40
0.299912264611532
40
0.299912264611532
40
0.319061324202804
40
0.319061324202804
40
0.338210383794076
40
0.338210383794076
40
0.357359443385349
40
0.357359443385349
40
0.376508502976621
40
0.376508502976621
40
0.395657562567893
40
0.395657562567893
40
0.433955681750438
40
0.433955681750438
40
0.45310474134171
40
0.45310474134171
40
0.472253800932982
40
0.472253800932982
40
0.491402860524254
40
0.491402860524254
40
0.510551920115526
40
0.510551920115526
40
0.529700979706799
40
0.529700979706799
40
0.548850039298071
40
0.548850039298071
40
0.567999098889343
40
0.567999098889343
40
0.587148158480615
40
0.587148158480615
40
0.606297218071888
40
0.606297218071888
40
0.62544627766316
40
0.62544627766316
40
0.644595337254432
40
0.644595337254432
40
0.663744396845704
40
0.663744396845704
40
0.702042516028247
40
0.702042516028247
40
0.721191575619519
40
0.721191575619519
40
0.74034063521079
40
0.74034063521079
40
0.759489694802062
40
0.759489694802062
40
0.778638754393333
40
0.778638754393333
40
0.797787813984604
40
0.797787813984604
40
0.816936873575876
40
0.816936873575876
40
0.855234992758419
40
0.855234992758419
40
0.87438405234969
40
0.87438405234969
40
0.893533111940962
40
0.893533111940962
40
0.931831231123505
40
0.931831231123505
40
0.970129350306048
40
0.970129350306048
40
0.989278409897319
40
0.989278409897319
40
1
40
1
40
1
40
1
41
1
10
78.2042487955766
20
6.0960148991112
30
0
41
1
10
78.407656778695
20
6.09620705909032
30
0
41
1
10
78.6108237390108
20
6.0936805802871
30
0
41
1
10
79.4274168722806
20
6.07335444509951
30
0
41
1
10
80.0393900044144
20
6.03613203049704
30
0
41
1
10
81.2630085061033
20
5.91305036481162
30
0
41
1
10
81.8746633785236
20
5.82994361021426
30
0
41
1
10
83.1011424231353
20
5.61647326814102
30
0
41
1
10
83.7153838939339
20
5.48878458010296
30
0
41
1
10
84.6409840068558
20
5.26315350884872
30
0
41
1
10
84.95036051713
20
5.18274294500225
30
0
41
1
10
85.5704125929173
20
5.01169559006806
30
0
41
1
10
85.8802381001953
20
4.92131791497064
30
0
41
1
10
86.4977567464158
20
4.73115027817894
30
0
41
1
10
86.805669117611
20
4.63129577812137
30
0
41
1
10
87.4207044755113
20
4.42416131317168
30
0
41
1
10
87.7275461556216
20
4.31639284453715
30
0
41
1
10
88.3406180509102
20
4.09266964211255
30
0
41
1
10
88.6468458093312
20
3.97676494044154
30
0
41
1
10
89.2586661370527
20
3.73774434506254
30
0
41
1
10
89.5645097023295
20
3.61506614653561
30
0
41
1
10
90.1758987706401
20
3.36228942874001
30
0
41
1
10
90.4816099932898
20
3.23235847718118
30
0
41
1
10
91.093397995684
20
2.96671833805874
30
0
41
1
10
91.3992650822184
20
2.83077211293479
30
0
41
1
10
92.0119499372339
20
2.55383038475455
30
0
41
1
10
92.3185724434411
20
2.41227398951691
30
0
41
1
10
92.9328520341441
20
2.12444756953332
30
0
41
1
10
93.2404579411299
20
1.97854359958572
30
0
41
1
10
93.8569219873559
20
1.68150291493049
30
0
41
1
10
94.1661294215162
20
1.53089708363055
30
0
41
1
10
94.7859321299795
20
1.22591267461831
30
0
41
1
10
95.0958551302226
20
1.07203012450219
30
0
41
1
10
95.7147510162213
20
0.763084522837204
30
0
41
1
10
96.0237746496069
20
0.607507693083591
30
0
41
1
10
96.6419599013796
20
0.296223455791477
30
0
41
1
10
96.9508600701379
20
0.1399982167693
30
0
41
1
10
97.8776201963457
20
-0.329137743447433
30
0
41
1
10
98.4964350699721
20
-0.641276732100124
30
0
41
1
10
99.4261065119337
20
-1.10674984095152
30
0
41
1
10
99.7350536774135
20
-1.26062602107001
30
0
41
1
10
100.351626019509
20
-1.56397333880014
30
0
41
1
10
100.659104026212
20
-1.71430867815874
30
0
41
1
10
101.273380150974
20
-2.0110514275824
30
0
41
1
10
101.579929106429
20
-2.15799740649968
30
0
41
1
10
102.192323206366
20
-2.44571944080914
30
0
41
1
10
102.498344971417
20
-2.58683825567755
30
0
41
1
10
103.109746380769
20
-2.86496319751819
30
0
41
1
10
103.415377057465
20
-3.00138357701522
30
0
41
1
10
104.026623641409
20
-3.26790550523705
30
0
41
1
10
104.332231013242
20
-3.39813629772712
30
0
41
1
10
104.943944985957
20
-3.65252359445196
30
0
41
1
10
105.249711728625
20
-3.7775299016071
30
0
41
1
10
105.862323479796
20
-4.01933133678571
30
0
41
1
10
106.169153583385
20
-4.13573004541286
30
0
41
1
10
106.783771002034
20
-4.36126648009028
30
0
41
1
10
107.091814878473
20
-4.46983136177545
30
0
41
1
10
107.709099994355
20
-4.67900740245858
30
0
41
1
10
108.01908369605
20
-4.77950271409762
30
0
41
1
10
108.637766214439
20
-4.97150718101432
30
0
41
1
10
108.946215912983
20
-5.06314142719231
30
0
41
1
10
109.562025298374
20
-5.23667850178234
30
0
41
1
10
109.869058326776
20
-5.31759458559284
30
0
41
1
10
110.789100531295
20
-5.5433415079786
30
0
41
1
10
111.400612247293
20
-5.67283299483049
30
0
41
1
10
112.316965689634
20
-5.83397394144757
30
0
41
1
10
112.622340275987
20
-5.88223637386713
30
0
41
1
10
113.233136455216
20
-5.96846060191891
30
0
41
1
10
113.538435208205
20
-6.00611002841231
30
0
41
1
10
114.149888847188
20
-6.0686759178277
30
0
41
1
10
114.455761279919
20
-6.09405410441656
30
0
41
1
10
115.068331435986
20
-6.13395494743159
30
0
41
1
10
115.375083635704
20
-6.14820877237372
30
0
41
1
10
115.989630765451
20
-6.16407506416675
30
0
41
1
10
116.297693286944
20
-6.165788090468
30
0
41
1
10
116.91487722194
20
-6.15856922885678
30
0
41
1
10
117.224768265417
20
-6.14938706201238
30
0
41
1
10
118.151411000747
20
-6.10172785387232
30
0
41
1
10
118.765674034641
20
-6.04531536431168
30
0
41
1
10
119.684401614533
20
-5.92799964210721
30
0
41
1
10
119.990298069137
20
-5.88328270652815
30
0
41
1
10
120.601212075081
20
-5.78306530654709
30
0
41
1
10
120.906483032796
20
-5.72818305385533
30
0
41
1
10
121.821663475607
20
-5.5460602308398
30
0
41
1
10
122.431378303281
20
-5.4005768394108
30
0
41
1
10
123.653044998429
20
-5.07169507511873
30
0
41
1
10
124.264732579579
20
-4.88752757703938
30
0
41
1
10
125.18538478022
20
-4.58340073077437
30
0
41
1
10
125.492975727742
20
-4.47722472101162
30
0
41
1
10
125.974077116781
20
-4.3039760149851
30
0
41
1
10
126.147167062918
20
-4.24025145841722
30
0
41
1
10
126.320266921814
20
-4.17526567498768
30
0
0
SPLINE
5
E5
100
AcDbEntity
8
1
62
256
6
ByLayer
370
18
48
1
60
0
100
AcDbSpline
70
4
71
3
72
8
73
4
40
0
40
0
40
0
40
0
40
1
40
1
40
1
40
1
41
1
10
5.23403823703052
20
-0.250546817401386
30
0
41
1
10
5.2340325071369
20
-0.293348975359493
30
0
41
1
10
5.24862786700407
20
-0.333983286142427
30
0
41
1
10
5.27034616339353
20
-0.370599003191842
30
0
0
SPLINE
5
E6
100
AcDbEntity
8
1
62
256
6
ByLayer
370
18
48
1
60
0
100
AcDbSpline
70
4
71
3
72
60
73
56
40
0
40
0
40
0
40
0
40
0.0115776864520142
40
0.0115776864520142
40
0.0363166976512722
40
0.0363166976512722
40
0.0610557088505303
40
0.0610557088505303
40
0.110533731249046
40
0.110533731249046
40
0.160011753647562
40
0.160011753647562
40
0.258967798444594
40
0.258967798444594
40
0.283706809643851
40
0.283706809643851
40
0.308445820843108
40
0.308445820843108
40
0.357923843241623
40
0.357923843241623
40
0.382662854440881
40
0.382662854440881
40
0.407401865640139
40
0.407401865640139
40
0.456879888038655
40
0.456879888038655
40
0.481618899237914
40
0.481618899237914
40
0.506357910437172
40
0.506357910437172
40
0.555835932835689
40
0.555835932835689
40
0.605313955234205
40
0.605313955234205
40
0.654791977632721
40
0.654791977632721
40
0.67953098883198
40
0.67953098883198
40
0.704270000031238
40
0.704270000031238
40
0.753748022429755
40
0.753748022429755
40
0.778487033629014
40
0.778487033629014
40
0.803226044828272
40
0.803226044828272
40
0.852704067226787
40
0.852704067226787
40
0.877443078426045
40
0.877443078426045
40
0.902182089625303
40
0.902182089625303
40
0.951660112023819
40
0.951660112023819
40
1
40
1
40
1
40
1
41
1
10
23.3804961708569
20
6.14988469593848
30
0
41
1
10
23.5380119039307
20
6.15013315323731
30
0
41
1
10
23.6955248533306
20
6.14882569519204
30
0
41
1
10
24.1896717974184
20
6.13984221565224
30
0
41
1
10
24.5264059560988
20
6.12661890120432
30
0
41
1
10
25.2005356558496
20
6.08596984517436
30
0
41
1
10
25.5382690880543
20
6.05850203525586
30
0
41
1
10
26.5501221340876
20
5.95518502619891
30
0
41
1
10
27.2229334596645
20
5.8584729562597
30
0
41
1
10
28.5689016996561
20
5.61184869668526
30
0
41
1
10
29.2423626532607
20
5.46182413411944
30
0
41
1
10
31.2669669946145
20
4.93664414675106
30
0
41
1
10
32.6086863242836
20
4.48974477451895
30
0
41
1
10
34.2950835659848
20
3.83466161464281
30
0
41
1
10
34.6324030011156
20
3.69900161968616
30
0
41
1
10
35.3058536861069
20
3.41975611861037
30
0
41
1
10
35.6422550824258
20
3.27609847830155
30
0
41
1
10
36.651279282361
20
2.83437132769166
30
0
41
1
10
37.323619476002
20
2.5253689046362
30
0
41
1
10
38.3345444255061
20
2.04515641600173
30
0
41
1
10
38.6720630718517
20
1.88220248840747
30
0
41
1
10
39.3456803804415
20
1.55284573037665
30
0
41
1
10
39.6821132770788
20
1.38632569693382
30
0
41
1
10
40.6910288414084
20
0.882685969607564
30
0
41
1
10
41.3630269189408
20
0.541287456105835
30
0
41
1
10
42.373125285768
20
0.0266185305132751
30
0
41
1
10
42.7104974609783
20
-0.145575148914475
30
0
41
1
10
43.3843571885221
20
-0.488938054317145
30
0
41
1
10
43.7208511292121
20
-0.660064665321812
30
0
41
1
10
44.729767086646
20
-1.17034042101395
30
0
41
1
10
45.4015173015693
20
-1.50658895524049
30
0
41
1
10
46.7473364240492
20
-2.16341059423189
30
0
41
1
10
47.4221615993936
20
-2.48452421093998
30
0
41
1
10
48.7675044915531
20
-3.09898813435541
30
0
41
1
10
49.4390441072412
20
-3.39316702006045
30
0
41
1
10
50.4477758333616
20
-3.80960655960848
30
0
41
1
10
50.7842530525003
20
-3.94429235582626
30
0
41
1
10
51.4580650768127
20
-4.20474929260928
30
0
41
1
10
51.7950340233352
20
-4.33032697710982
30
0
41
1
10
52.8042267632076
20
-4.69100173622712
30
0
41
1
10
53.4757053123053
20
-4.91060270816797
30
0
41
1
10
54.4838830238589
20
-5.20511324174046
30
0
41
1
10
54.8201192964869
20
-5.2974538906675
30
0
41
1
10
55.4933276823182
20
-5.47000561950142
30
0
41
1
10
55.8304914083548
20
-5.55022184131118
30
0
41
1
10
56.8399468358282
20
-5.77088642950062
30
0
41
1
10
57.5113909063334
20
-5.89174827893575
30
0
41
1
10
58.5190971638797
20
-6.0318790007631
30
0
41
1
10
58.8551042327621
20
-6.07172309503159
30
0
41
1
10
59.527774166987
20
-6.13741594301905
30
0
41
1
10
59.8648035653995
20
-6.16327029864226
30
0
41
1
10
60.87465699264
20
-6.21930516902901
30
0
41
1
10
61.5460934332832
20
-6.22800285622921
30
0
41
1
10
62.8738092450073
20
-6.18869412195801
30
0
41
1
10
63.530268921898
20
-6.14195101268777
30
0
41
1
10
64.1882718600346
20
-6.06820456458539
30
0
0
SPLINE
5
E7
100
AcDbEntity
8
1
62
256
6
ByLayer
370
18
48
1
60
0
100
AcDbSpline
70
4
71
3
72
56
73
52
40
0
40
0
40
0
40
0
40
0.0835148918680031
40
0.0835148918680031
40
0.112155051497125
40
0.112155051497125
40
0.140795211126246
40
0.140795211126246
40
0.198075530384491
40
0.198075530384491
40
0.226715690013614
40
0.226715690013614
40
0.255355849642737
40
0.255355849642737
40
0.312636168900986
40
0.312636168900986
40
0.341276328530111
40
0.341276328530111
40
0.369916488159237
40
0.369916488159237
40
0.427196807417487
40
0.427196807417487
40
0.484477126675738
40
0.484477126675738
40
0.541757445933988
40
0.541757445933988
40
0.570397605563113
40
0.570397605563113
40
0.599037765192239
40
0.599037765192239
40
0.656318084450491
40
0.656318084450491
40
0.684958244079618
40
0.684958244079618
40
0.713598403708746
40
0.713598403708746
40
0.770878722966998
40
0.770878722966998
40
0.799518882596124
40
0.799518882596124
40
0.828159042225249
40
0.828159042225249
40
0.885439361483499
40
0.885439361483499
40
0.914079521112624
40
0.914079521112624
40
0.942719680741749
40
0.942719680741749
40
0.971359840370875
40
0.971359840370875
40
1
40
1
40
1
40
1
41
1
10
99.5725013417439
20
6.28701133149164
30
0
41
1
10
100.550117922013
20
6.28882250699414
30
0
41
1
10
101.525557994322
20
6.22936159373415
30
0
41
1
10
102.840695403761
20
6.06839154684988
30
0
41
1
10
103.176721988248
20
6.02020572958492
30
0
41
1
10
103.847484987103
20
5.91030576382767
30
0
41
1
10
104.182523766063
20
5.84855203242307
30
0
41
1
10
105.187297011734
20
5.6434021691812
30
0
41
1
10
105.856825348601
20
5.48022009295664
30
0
41
1
10
106.863446834878
20
5.19815539072792
30
0
41
1
10
107.199609629587
20
5.09782907369009
30
0
41
1
10
107.870557293613
20
4.88603211545546
30
0
41
1
10
108.20561697681
20
4.77448554218267
30
0
41
1
10
109.210312553789
20
4.42390529037002
30
0
41
1
10
109.879530989283
20
4.16901855258033
30
0
41
1
10
110.885308788661
20
3.75880947735823
30
0
41
1
10
111.221224313799
20
3.61727744798941
30
0
41
1
10
111.892426674937
20
3.32638887108388
30
0
41
1
10
112.22755692816
20
3.17710622463454
30
0
41
1
10
113.232324629434
20
2.71910907064984
30
0
41
1
10
113.901314294811
20
2.40020365523318
30
0
41
1
10
115.241400295804
20
1.74193136716269
30
0
41
1
10
115.913545676742
20
1.40207466563899
30
0
41
1
10
117.253399647832
20
0.714363630549798
30
0
41
1
10
117.922221538983
20
0.366095421012659
30
0
41
1
10
118.926672939011
20
-0.157397552305667
30
0
41
1
10
119.261692149664
20
-0.33207886706856
30
0
41
1
10
119.932620553677
20
-0.680873825563367
30
0
41
1
10
120.268309454605
20
-0.854882114075593
30
0
41
1
10
121.273395099154
20
-1.37244689719194
30
0
41
1
10
121.942106936065
20
-1.71220027100054
30
0
41
1
10
122.946012965132
20
-2.20858342316342
30
0
41
1
10
123.28079059208
20
-2.37183203222656
30
0
41
1
10
123.951129511436
20
-2.6929820295706
30
0
41
1
10
124.286947522582
20
-2.85099884986431
30
0
41
1
10
125.292391096682
20
-3.31387995244299
30
0
41
1
10
125.961028358359
20
-3.60815921361461
30
0
41
1
10
126.964485839695
20
-4.0233895195139
30
0
41
1
10
127.299056875748
20
-4.15743396936927
30
0
41
1
10
127.968862749898
20
-4.41602877342729
30
0
41
1
10
128.304393631377
20
-4.54068801324311
30
0
41
1
10
129.310365359975
20
-4.89851026596293
30
0
41
1
10
129.979460278523
20
-5.1152928500162
30
0
41
1
10
130.983760808166
20
-5.40439521551554
30
0
41
1
10
131.318633890252
20
-5.49475635421425
30
0
41
1
10
131.989085545692
20
-5.66291828536549
30
0
41
1
10
132.324563317683
20
-5.74066856423318
30
0
41
1
10
132.994455475073
20
-5.88261873659724
30
0
41
1
10
133.329147700399
20
-5.94689816094652
30
0
41
1
10
133.998439495868
20
-6.06179718966411
30
0
41
1
10
134.332882767245
20
-6.1124897437555
30
0
41
1
10
134.667820779239
20
-6.15604668224944
30
0
0
SPLINE
5
E8
100
AcDbEntity
8
1
62
256
6
ByLayer
370
13
48
1
60
0
100
AcDbSpline
70
4
71
3
72
93
73
89
40
0
40
0
40
0
40
0
40
0.0012618044138424
40
0.0189848233511174
40
0.0248924963302085
40
0.0367078422883918
40
0.0485231882465751
40
0.0662462071838501
40
0.0721538801629417
40
0.0839692261211245
40
0.0957845720793078
40
0.113507591016583
40
0.119415263995674
40
0.131230609953858
40
0.143045955912041
40
0.160768974849315
40
0.166676647828407
40
0.17849199378659
40
0.190307339744773
40
0.208030358682048
40
0.21393803166114
40
0.225753377619323
40
0.237568723577506
40
0.255291742514781
40
0.261199415493872
40
0.273014761452056
40
0.284830107410239
40
0.302553126347514
40
0.308460799326605
40
0.320276145284788
40
0.332091491242972
40
0.349814510180247
40
0.355722183159338
40
0.367537529117521
40
0.379352875075704
40
0.397075894012979
40
0.402983566992071
40
0.414798912950254
40
0.426614258908437
40
0.444337277845712
40
0.450244950824804
40
0.462060296782987
40
0.47387564274117
40
0.491598661678445
40
0.497506334657537
40
0.50932168061572
40
0.521137026573903
40
0.538860045511178
40
0.544767718490269
40
0.556583064448453
40
0.568398410406636
40
0.58612142934391
40
0.592029102323002
40
0.603844448281185
40
0.615659794239369
40
0.633382813176643
40
0.639290486155735
40
0.651105832113918
40
0.662921178072101
40
0.680644197009376
40
0.686551869988467
40
0.698367215946651
40
0.710182561904834
40
0.727905580842109
40
0.733813253821201
40
0.745628599779383
40
0.757443945737567
40
0.775166964674842
40
0.781074637653933
40
0.792889983612116
40
0.804705329570299
40
0.822428348507574
40
0.828336021486666
40
0.840151367444849
40
0.851966713403032
40
0.869689732340307
40
0.875597405319399
40
0.887412751277582
40
0.899228097235765
40
0.91695111617304
40
0.922858789152131
40
0.934674135110315
40
0.946489481068498
40
0.964212500005772
40
0.970120172984864
40
0.981935518943047
40
0.993750864901231
40
1
40
1
40
1
40
1
41
1
10
122.458351661777
20
-2.50721932827719
30
0
41
1
10
122.44799223657
20
-2.50825860644881
30
0
41
1
10
122.292125930266
20
-2.52385478012045
30
0
41
1
10
122.087741297577
20
-2.54350526461457
30
0
41
1
10
121.796711870155
20
-2.57004095243295
30
0
41
1
10
121.554215729675
20
-2.59119764903045
30
0
41
1
10
121.214715439434
20
-2.61906472091292
30
0
41
1
10
120.923679555533
20
-2.64111873649182
30
0
41
1
10
120.632650595858
20
-2.66167025788448
30
0
41
1
10
120.390154790938
20
-2.67779518391075
30
0
41
1
10
120.050654874655
20
-2.69855528700828
30
0
41
1
10
119.759619126227
20
-2.71446518143921
30
0
41
1
10
119.468590073113
20
-2.72882410904381
30
0
41
1
10
119.226093964423
20
-2.73974918966084
30
0
41
1
10
118.886593304576
20
-2.75318234858341
30
0
41
1
10
118.595556771216
20
-2.76278122574112
30
0
41
1
10
118.304527031341
20
-2.77080531551891
30
0
41
1
10
118.062030510364
20
-2.77642957044614
30
0
41
1
10
117.722529553626
20
-2.78242128126965
30
0
41
1
10
117.431492979083
20
-2.7856334577441
30
0
41
1
10
117.140463274774
20
-2.78725868145142
30
0
41
1
10
116.897966797748
20
-2.78753533205881
30
0
41
1
10
116.558465947915
20
-2.78603380717237
30
0
41
1
10
116.267429551354
20
-2.78283127672901
30
0
41
1
10
115.976400136398
20
-2.77804624855074
30
0
41
1
10
115.733903985228
20
-2.77297763630941
30
0
41
1
10
115.394403679058
20
-2.7640049434165
30
0
41
1
10
115.103367758774
20
-2.75442342453928
30
0
41
1
10
114.812338737205
20
-2.74327497124477
30
0
41
1
10
114.569842754734
20
-2.73290727658352
30
0
41
1
10
114.230342378689
20
-2.71654214045105
30
0
41
1
10
113.939306171217
20
-2.70066530326363
30
0
41
1
10
113.648276779458
20
-2.68325320207927
30
0
41
1
10
113.405780525418
20
-2.66768117290118
30
0
41
1
10
113.066279841876
20
-2.64407470089338
30
0
41
1
10
112.775243367116
20
-2.62204868519225
30
0
41
1
10
112.484213611411
20
-2.59853056747622
30
0
41
1
10
112.241717055873
20
-2.57789321413253
30
0
41
1
10
111.902216113392
20
-2.54725524203965
30
0
41
1
10
111.61117966092
20
-2.51927764146092
30
0
41
1
10
111.320150229467
20
-2.48986912988991
30
0
41
1
10
111.077654062999
20
-2.46435898059639
30
0
41
1
10
110.738153712034
20
-2.42697887005988
30
0
41
1
10
110.44711774451
20
-2.39331510594116
30
0
41
1
10
110.156088680838
20
-2.35829313987003
30
0
41
1
10
109.913592692447
20
-2.32814859460669
30
0
41
1
10
109.574092375462
20
-2.28437298268855
30
0
41
1
10
109.283056275378
20
-2.24533305132954
30
0
41
1
10
108.992027024525
20
-2.20501916059388
30
0
41
1
10
108.749530878915
20
-2.17051656297724
30
0
41
1
10
108.410030291996
20
-2.12074583616212
30
0
41
1
10
108.118993834142
20
-2.0766856281229
30
0
41
1
10
107.827964027604
20
-2.03144613869449
30
0
41
1
10
107.585467407298
20
-1.99289832354441
30
0
41
1
10
107.245966368361
20
-1.93758397103457
30
0
41
1
10
106.954929836855
20
-1.88890488894162
30
0
41
1
10
106.663900346979
20
-1.8391551259266
30
0
41
1
10
106.421404127809
20
-1.79691813897529
30
0
41
1
10
106.08190368593
20
-1.73657373841442
30
0
41
1
10
105.790867637481
20
-1.68372940274648
30
0
41
1
10
105.499838503711
20
-1.62993282109699
30
0
41
1
10
105.257342485157
20
-1.58439982331274
30
0
41
1
10
104.91784218724
20
-1.51958601743723
30
0
41
1
10
104.626806154916
20
-1.46306560164584
30
0
41
1
10
104.33577700017
20
-1.40571798831098
30
0
41
1
10
104.093280937457
20
-1.35730707913967
30
0
41
1
10
103.753780449118
20
-1.28861715289136
30
0
41
1
10
103.462744047983
20
-1.22893710492781
30
0
41
1
10
103.171714262381
20
-1.16856298441917
30
0
41
1
10
102.929217640214
20
-1.1177176372627
30
0
41
1
10
102.589716577873
20
-1.04578186543697
30
0
41
1
10
102.298680013037
20
-0.983490506668574
30
0
41
1
10
102.007650491466
20
-0.920644736791388
30
0
41
1
10
101.765154244401
20
-0.867832065127601
30
0
41
1
10
101.425653764332
20
-0.793311446577405
30
0
41
1
10
101.13461769427
20
-0.728982006256871
30
0
41
1
10
100.843588558718
20
-0.664244413999114
30
0
41
1
10
100.601092558394
20
-0.609952874652919
30
0
41
1
10
100.261592317281
20
-0.53353765590154
30
0
41
1
10
99.9705563549677
20
-0.467765651371366
30
0
41
1
10
99.6795272734103
20
-0.401733575949493
30
0
41
1
10
99.4370312720612
20
-0.34646253364761
30
0
41
1
10
99.0975308616964
20
-0.26885424624561
30
0
41
1
10
98.8064945080799
20
-0.202243848495556
30
0
41
1
10
98.5154647425813
20
-0.135526232820155
30
0
41
1
10
98.2729681090672
20
-0.0797874018738298
30
0
41
1
10
98.0276640053647
20
-0.0233702291123166
30
0
41
1
10
97.8793490991268
20
0.0107083674921284
30
0
41
1
10
97.8280410451243
20
0.0224943504114776
30
0
0
SPLINE
5
E9
100
AcDbEntity
8
1
62
256
6
ByLayer
370
13
48
1
60
0
100
AcDbSpline
70
4
71
3
72
93
73
89
40
0
40
0
40
0
40
0
40
0.0054031510588403
40
0.0171966071934834
40
0.0289900633281285
40
0.0466802475300942
40
0.0525769755974163
40
0.0643704317320599
40
0.0761638878667045
40
0.0938540720686702
40
0.0997508001359923
40
0.111544256270636
40
0.123337712405281
40
0.141027896607246
40
0.146924624674568
40
0.158718080809212
40
0.170511536943857
40
0.188201721145822
40
0.194098449213144
40
0.205891905347788
40
0.217685361482433
40
0.235375545684398
40
0.24127227375172
40
0.253065729886364
40
0.264859186021009
40
0.282549370222975
40
0.288446098290296
40
0.30023955442494
40
0.312033010559584
40
0.32972319476155
40
0.335619922828873
40
0.347413378963516
40
0.35920683509816
40
0.376897019300127
40
0.382793747367449
40
0.394587203502092
40
0.406380659636737
40
0.424070843838703
40
0.429967571906025
40
0.44176102804067
40
0.453554484175313
40
0.471244668377279
40
0.477141396444601
40
0.488934852579245
40
0.500728308713889
40
0.518418492915855
40
0.524315220983177
40
0.536108677117821
40
0.547902133252465
40
0.565592317454431
40
0.571489045521753
40
0.583282501656398
40
0.595075957791041
40
0.612766141993007
40
0.618662870060329
40
0.630456326194973
40
0.642249782329617
40
0.659939966531583
40
0.665836694598905
40
0.677630150733549
40
0.689423606868193
40
0.707113791070159
40
0.713010519137481
40
0.724803975272126
40
0.736597431406769
40
0.754287615608735
40
0.760184343676057
40
0.771977799810702
40
0.783771255945345
40
0.801461440147311
40
0.807358168214633
40
0.819151624349278
40
0.830945080483921
40
0.848635264685887
40
0.854531992753209
40
0.866325448887854
40
0.878118905022498
40
0.895809089224463
40
0.901705817291785
40
0.91349927342643
40
0.925292729561074
40
0.942982913763039
40
0.948879641830361
40
0.960673097965006
40
0.97246655409965
40
0.990156738301616
40
0.996053466368937
40
1
40
1
40
1
40
1
41
1
10
46.3144916957193
20
-2.50165333863134
30
0
41
1
10
46.2700465561377
20
-2.50615939879742
30
0
41
1
10
46.1285921481648
20
-2.52034193403361
30
0
41
1
10
45.8901551384316
20
-2.54335633587417
30
0
41
1
10
45.5506540914213
20
-2.57440170427668
30
0
41
1
10
45.2596174699965
20
-2.59920484471613
30
0
41
1
10
44.9685877837022
20
-2.62252935183443
30
0
41
1
10
44.7260914343042
20
-2.64098454956934
30
0
41
1
10
44.3865909766153
20
-2.66503455415295
30
0
41
1
10
44.0955550688375
20
-2.68378832200853
30
0
41
1
10
43.8045261885917
20
-2.7010145647296
30
0
41
1
10
43.5620304493902
20
-2.71434808854068
30
0
41
1
10
43.2225305532016
20
-2.73117465832402
30
0
41
1
10
42.9314947522192
20
-2.74369428785417
30
0
41
1
10
42.6404655871304
20
-2.75464599360535
30
0
41
1
10
42.397969357437
20
-2.76271679891698
30
0
41
1
10
42.058468518387
20
-2.77213854812649
30
0
41
1
10
41.7674318530912
20
-2.77829132568499
30
0
41
1
10
41.476402043103
20
-2.7828618124471
30
0
41
1
10
41.2339054627195
20
-2.78559951842107
30
0
41
1
10
40.8944044024118
20
-2.78754608161697
30
0
41
1
10
40.6033677582704
20
-2.78729510100032
30
0
41
1
10
40.3123380351726
20
-2.78545943429441
30
0
41
1
10
40.0698416381254
20
-2.78285004097978
30
0
41
1
10
39.7303410829925
20
-2.77731431239727
30
0
41
1
10
39.4393050686991
20
-2.77066683916124
30
0
41
1
10
39.1482760727498
20
-2.76244452268492
30
0
41
1
10
38.9057802501393
20
-2.75451291267714
30
0
41
1
10
38.566280285892
20
-2.74154389140708
30
0
41
1
10
38.2752444839084
20
-2.72855535713765
30
0
41
1
10
37.9842153751051
20
-2.71401221460405
30
0
41
1
10
37.7417192056232
20
-2.7008204523255
30
0
41
1
10
37.4022184415728
20
-2.68052084090036
30
0
41
1
10
37.1111818250976
20
-2.66129905193577
30
0
41
1
10
36.8201520389036
20
-2.64056402213336
30
0
41
1
10
36.5776554783907
20
-2.62223473416202
30
0
41
1
10
36.2381544577841
20
-2.59479957761604
30
0
41
1
10
35.9471178501191
20
-2.56953177773323
30
0
41
1
10
35.6560881572951
20
-2.54280424321757
30
0
41
1
10
35.413591767911
20
-2.51951121703598
30
0
41
1
10
35.0740911852783
20
-2.48519740910714
30
0
41
1
10
34.7830551156153
20
-2.45411809729308
30
0
41
1
10
34.4920260460067
20
-2.4216458816617
30
0
41
1
10
34.249530171702
20
-2.39360517808174
30
0
41
1
10
33.9100301792924
20
-2.35273035642388
30
0
41
1
10
33.6189944040342
20
-2.31612577919674
30
0
41
1
10
33.3279653727034
20
-2.27820589664142
30
0
41
1
10
33.0854692753891
20
-2.2456725481413
30
0
41
1
10
32.7459685913197
20
-2.19860716912405
30
0
41
1
10
32.4549320158358
20
-2.15680916654102
30
0
41
1
10
32.1639022362826
20
-2.11378718221451
30
0
41
1
10
31.9214056763216
20
-2.07705922151337
30
0
41
1
10
31.5819046600308
20
-2.02423634760285
30
0
41
1
10
31.2908680498072
20
-1.97763039662425
30
0
41
1
10
30.9998383418336
20
-1.92990246292845
30
0
41
1
10
30.7573419170525
20
-1.88931740974124
30
0
41
1
10
30.4178412390546
20
-1.83122205578115
30
0
41
1
10
30.126805051685
20
-1.78023657869036
30
0
41
1
10
29.8357758473725
20
-1.7282429211798
30
0
41
1
10
29.5932798714006
20
-1.68417622951898
30
0
41
1
10
29.253779784918
20
-1.62134733346852
30
0
41
1
10
28.9627439878355
20
-1.56645633495498
30
0
41
1
10
28.6717149956074
20
-1.51068046159378
30
0
41
1
10
28.4292189493154
20
-1.46354179369644
30
0
41
1
10
28.0897183378002
20
-1.39656219333568
30
0
41
1
10
27.7986818181681
20
-1.33827255102094
30
0
41
1
10
27.5076520748864
20
-1.27922642827579
30
0
41
1
10
27.2651555464154
20
-1.2294464594313
30
0
41
1
10
26.9256545847282
20
-1.15892585118328
30
0
41
1
10
26.6346180206442
20
-1.097767151863
30
0
41
1
10
26.3435883477076
20
-1.03598815129396
30
0
41
1
10
26.1010919322508
20
-0.984020776045327
30
0
41
1
10
25.7615912277025
20
-0.910603863218853
30
0
41
1
10
25.470554985868
20
-0.847137251651958
30
0
41
1
10
25.1795257114949
20
-0.783194094272943
30
0
41
1
10
24.9370296832512
20
-0.729518939166837
30
0
41
1
10
24.5975295567311
20
-0.653885707172947
30
0
41
1
10
24.30649376688
20
-0.588701678549853
30
0
41
1
10
24.0154648262312
20
-0.523191559968552
30
0
41
1
10
23.772968837388
20
-0.468311267864152
30
0
41
1
10
23.4334683075392
20
-0.391169637422621
30
0
41
1
10
23.142431851087
20
-0.324874978214069
30
0
41
1
10
22.8514021521891
20
-0.258401453283028
30
0
41
1
10
22.6089056557017
20
-0.20281714663065
30
0
41
1
10
22.2694047306469
20
-0.124866403428228
30
0
41
1
10
21.9783681786337
20
-0.0580598994656611
30
0
41
1
10
21.7518852306611
20
-0.0060486430712388
30
0
41
1
10
21.6709223807337
20
0.0125616427531838
30
0
41
1
10
21.6384618619193
20
0.020024677005182
30
0
0
SPLINE
5
EA
100
AcDbEntity
8
1
62
256
6
ByLayer
370
18
48
1
60
0
100
AcDbSpline
70
4
71
3
72
50
73
46
40
0
40
0
40
0
40
0
40
0.0224517668107907
40
0.0224517668107907
40
0.0449035336215814
40
0.0449035336215814
40
0.0898070672431636
40
0.0898070672431636
40
0.179614134486328
40
0.179614134486328
40
0.22451766810791
40
0.22451766810791
40
0.246969434918701
40
0.246969434918701
40
0.269421201729492
40
0.269421201729492
40
0.359228268972658
40
0.359228268972658
40
0.449035336215823
40
0.449035336215823
40
0.471487103026615
40
0.471487103026615
40
0.493938869837406
40
0.493938869837406
40
0.538842403458989
40
0.538842403458989
40
0.628649470702155
40
0.628649470702155
40
0.673553004323738
40
0.673553004323738
40
0.69600477113453
40
0.69600477113453
40
0.718456537945322
40
0.718456537945322
40
0.808263605188488
40
0.808263605188488
40
0.898070672431654
40
0.898070672431654
40
0.920522439242446
40
0.920522439242446
40
0.942974206053237
40
0.942974206053237
40
0.98787773967482
40
0.98787773967482
40
1
40
1
40
1
40
1
41
1
10
20.5030198669246
20
6.08293421211428
30
0
41
1
10
20.8041132953125
20
6.10510942106635
30
0
41
1
10
21.1045212598671
20
6.12152335226716
30
0
41
1
10
21.7042913491882
20
6.1430751331431
30
0
41
1
10
22.0032422456048
20
6.14824675694473
30
0
41
1
10
22.8990982279039
20
6.14696107429538
30
0
41
1
10
23.4943585387093
20
6.12380151579211
30
0
41
1
10
25.27739422063
20
5.98854834887086
30
0
41
1
10
26.4637366789839
20
5.8111212003455
30
0
41
1
10
28.2535571951261
20
5.42051376915816
30
0
41
1
10
28.8521218373158
20
5.26974721077534
30
0
41
1
10
29.7549070403036
20
5.01406799947819
30
0
41
1
10
30.0557372306995
20
4.92395316784163
30
0
41
1
10
30.6553653366815
20
4.73566126325801
30
0
41
1
10
30.95454212805
20
4.63737402516762
30
0
41
1
10
32.4472336124217
20
4.12538209574967
30
0
41
1
10
33.6333906291819
20
3.65309378655274
30
0
41
1
10
36.0085500951206
20
2.61413758299233
30
0
41
1
10
37.19832307898
20
2.04877619898301
30
0
41
1
10
38.7006506096279
20
1.30588386464962
30
0
41
1
10
39.0018999940718
20
1.15585516350984
30
0
41
1
10
39.601514586113
20
0.854516386198867
30
0
41
1
10
39.9006910462658
20
0.703468358335812
30
0
41
1
10
40.7964227402429
20
0.249343620733441
30
0
41
1
10
41.3911921477695
20
-0.0546801465821432
30
0
41
1
10
43.1729516302213
20
-0.961328939648695
30
0
41
1
10
44.3569561272538
20
-1.55940720089958
30
0
41
1
10
46.1429673473397
20
-2.41576835010741
30
0
41
1
10
46.7400378517072
20
-2.69431151056543
30
0
41
1
10
47.639849345467
20
-3.09856771425226
30
0
41
1
10
47.941022869158
20
-3.23111891737401
30
0
41
1
10
48.5411833652041
20
-3.48892618958601
30
0
41
1
10
48.8403324304399
20
-3.61472433973171
30
0
41
1
10
50.3338062806178
20
-4.22438641273718
30
0
41
1
10
51.5185591850522
20
-4.65480720957595
30
0
41
1
10
53.8906989326591
20
-5.37175384810331
30
0
41
1
10
55.076987818199
20
-5.65952895935425
30
0
41
1
10
56.5747583884443
20
-5.91409470449301
30
0
41
1
10
56.8754301920289
20
-5.95994053102422
30
0
41
1
10
57.4758719446465
20
-6.04032263639675
30
0
41
1
10
57.775322957544
20
-6.07489300884635
30
0
41
1
10
58.671489106171
20
-6.16189188730488
30
0
41
1
10
59.266469212196
20
-6.19740282134026
30
0
41
1
10
60.0206309891067
20
-6.21416165432163
30
0
41
1
10
60.1808489290111
20
-6.21609419526794
30
0
41
1
10
60.3409966892541
20
-6.21640163218967
30
0
0
SPLINE
5
EB
100
AcDbEntity
8
1
62
256
6
ByLayer
370
18
48
1
60
0
100
AcDbSpline
70
4
71
3
72
52
73
48
40
0
40
0
40
0
40
0
40
0.0817951484648198
40
0.0817951484648198
40
0.100924416205137
40
0.100924416205137
40
0.120053683945454
40
0.120053683945454
40
0.158312219426088
40
0.158312219426088
40
0.234829290387356
40
0.234829290387356
40
0.27308782586799
40
0.27308782586799
40
0.292217093608307
40
0.292217093608307
40
0.311346361348623
40
0.311346361348623
40
0.387863432309888
40
0.387863432309888
40
0.464380503271154
40
0.464380503271154
40
0.48350977101147
40
0.48350977101147
40
0.502639038751787
40
0.502639038751787
40
0.540897574232418
40
0.540897574232418
40
0.617414645193682
40
0.617414645193682
40
0.655673180674314
40
0.655673180674314
40
0.67480244841463
40
0.67480244841463
40
0.693931716154946
40
0.693931716154946
40
0.770448787116212
40
0.770448787116212
40
0.846965858077479
40
0.846965858077479
40
0.866095125817795
40
0.866095125817795
40
0.88522439355811
40
0.88522439355811
40
0.92348292903874
40
0.92348292903874
40
1
40
1
40
1
40
1
41
1
10
88.1695632390817
20
4.14298650554818
30
0
41
1
10
89.4348300651563
20
4.63462581004325
30
0
41
1
10
90.6981344988886
20
5.05859993030964
30
0
41
1
10
92.2701085752398
20
5.47561750391884
30
0
41
1
10
92.5687961883588
20
5.54982292303913
30
0
41
1
10
93.1673976735793
20
5.68867445006481
30
0
41
1
10
93.467793363443
20
5.75309448579716
30
0
41
1
10
94.3650224585782
20
5.92974968607933
30
0
41
1
10
94.9600155239986
20
6.02590004404615
30
0
41
1
10
96.740241375256
20
6.24797270900874
30
0
41
1
10
97.9204538565622
20
6.30765456218461
30
0
41
1
10
99.6966687380019
20
6.26234356226527
30
0
41
1
10
100.28978910835
20
6.22481865212657
30
0
41
1
10
101.182704366884
20
6.13465172991059
30
0
41
1
10
101.480905071582
20
6.09894847226934
30
0
41
1
10
102.078982931661
20
6.01638199006919
30
0
41
1
10
102.379097204036
20
5.96927366746735
30
0
41
1
10
103.8746805753
20
5.70798098165824
30
0
41
1
10
105.058387712601
20
5.4142687393188
30
0
41
1
10
107.42334221234
20
4.68411212991182
30
0
41
1
10
108.603646720449
20
4.24653230709731
30
0
41
1
10
110.090783107191
20
3.62743362379888
30
0
41
1
10
110.388664870757
20
3.49979697284337
30
0
41
1
10
110.985989182491
20
3.23784960700101
30
0
41
1
10
111.286039280846
20
3.10336253625991
30
0
41
1
10
112.183200082561
20
2.69213354977677
30
0
41
1
10
112.778217118685
20
2.40867037917036
30
0
41
1
10
114.558115333903
20
1.53831549823656
30
0
41
1
10
115.736858786561
20
0.929553695276383
30
0
41
1
10
117.510862626492
20
0.0078738964526508
30
0
41
1
10
118.102865649235
20
-0.301383838067068
30
0
41
1
10
118.994115730317
20
-0.76394443495181
30
0
41
1
10
119.291898962047
20
-0.91758646096099
30
0
41
1
10
119.888555115248
20
-1.22443448878738
30
0
41
1
10
120.188193581722
20
-1.3774587772638
30
0
41
1
10
121.683840195729
20
-2.13410342482263
30
0
41
1
10
122.866985094887
20
-2.71171329359913
30
0
41
1
10
125.229708853237
20
-3.77225819055585
30
0
41
1
10
126.408576944133
20
-4.25642687086386
30
0
41
1
10
127.892950954393
20
-4.78155746356086
30
0
41
1
10
128.190260196378
20
-4.882721911869
30
0
41
1
10
128.786561980531
20
-5.07617890346106
30
0
41
1
10
129.085666105087
20
-5.16893170305249
30
0
41
1
10
129.983142957546
20
-5.43247879145011
30
0
41
1
10
130.579162019738
20
-5.58831566833607
30
0
41
1
10
132.363735364678
20
-5.99384045507631
30
0
41
1
10
133.549911795358
20
-6.18063590841913
30
0
41
1
10
134.742506720656
20
-6.27725306402357
30
0
0
SPLINE
5
EC
100
AcDbEntity
8
1
62
256
6
ByLayer
370
18
48
1
60
0
100
AcDbSpline
70
4
71
3
72
8
73
4
40
0
40
0
40
0
40
0
40
1
40
1
40
1
40
1
41
1
10
134.06639155582
20
0.633404319604068
30
0
41
1
10
134.380112850424
20
0.504759408606134
30
0
41
1
10
134.695944501497
20
0.387141337024417
30
0
41
1
10
135.014111829403
20
0.281727427978296
30
0
0
SPLINE
5
ED
100
AcDbEntity
8
1
62
256
6
ByLayer
370
18
48
1
60
0
100
AcDbSpline
70
4
71
3
72
16
73
12
40
0
40
0
40
0
40
0
40
0.249999999999998
40
0.249999999999998
40
0.374999999999999
40
0.374999999999999
40
0.499999999999999
40
0.499999999999999
40
0.749999999999999
40
0.749999999999999
40
1
40
1
40
1
40
1
41
1
10
13.1920090941353
20
4.89144359456083
30
0
41
1
10
13.7999546697299
20
5.04537046502364
30
0
41
1
10
14.4094565164476
20
5.18582111724012
30
0
41
1
10
15.3256690612756
20
5.37694132722496
30
0
41
1
10
15.631402931337
20
5.43737347825848
30
0
41
1
10
16.243501283265
20
5.55162496552191
30
0
41
1
10
16.5500103488417
20
5.60546299273636
30
0
41
1
10
17.4675324804203
20
5.75634227561628
30
0
41
1
10
18.077418162327
20
5.84298397229102
30
0
41
1
10
19.2932580144209
20
5.98637647898423
30
0
41
1
10
19.8992129353961
20
6.04314643876845
30
0
41
1
10
20.5030198669245
20
6.08293421211428
30
0
0
SPLINE
5
EE
100
AcDbEntity
8
1
62
256
6
ByLayer
370
13
48
1
60
0
100
AcDbSpline
70
4
71
3
72
36
73
32
40
0
40
0
40
0
40
0
40
0.0695410494518692
40
0.0695410494518692
40
0.139082098903738
40
0.139082098903738
40
0.278164197807479
40
0.278164197807479
40
0.41724629671122
40
0.41724629671122
40
0.452016821437155
40
0.452016821437155
40
0.48678734616309
40
0.48678734616309
40
0.556328395614963
40
0.556328395614963
40
0.695410494518711
40
0.695410494518711
40
0.764951543970584
40
0.764951543970584
40
0.79972206869652
40
0.79972206869652
40
0.834492593422456
40
0.834492593422456
40
0.90403364287433
40
0.90403364287433
40
0.938804167600267
40
0.938804167600267
40
0.973574692326204
40
0.973574692326204
40
1
40
1
40
1
40
1
41
1
10
134.648749318026
20
-5.92913900582241
30
0
41
1
10
133.974836574617
20
-5.82754638764206
30
0
41
1
10
133.30201803696
20
-5.69885585172099
30
0
41
1
10
131.955257541771
20
-5.38998946052556
30
0
41
1
10
131.279582190731
20
-5.20924317714736
30
0
41
1
10
129.26800070979
20
-4.60247806937124
30
0
41
1
10
127.94174459828
20
-4.1111294417791
30
0
41
1
10
125.289723226315
20
-3.00203857834839
30
0
41
1
10
123.963915597281
20
-2.38426687419724
30
0
41
1
10
122.288856090263
20
-1.56433020347913
30
0
41
1
10
121.952943821427
20
-1.39796734582612
30
0
41
1
10
121.27883885429
20
-1.06132300082476
30
0
41
1
10
120.941502747153
20
-0.891494294106906
30
0
41
1
10
119.93424397881
20
-0.382081714905041
30
0
41
1
10
119.266588137644
20
-0.0412970699280777
30
0
41
1
10
117.269553981596
20
0.973253796122549
30
0
41
1
10
115.946182488475
20
1.63933366888679
30
0
41
1
10
113.951444404532
20
2.58046584597361
30
0
41
1
10
113.284921456735
20
2.88450309273196
30
0
41
1
10
112.2799685597
20
3.32077615373726
30
0
41
1
10
111.944141053945
20
3.46294287634692
30
0
41
1
10
111.270274201756
20
3.73973282530793
30
0
41
1
10
110.932256204753
20
3.87434012787384
30
0
41
1
10
109.920926439322
20
4.2629851241322
30
0
41
1
10
109.248076776179
20
4.50264942859974
30
0
41
1
10
108.238016342178
20
4.82967836665367
30
0
41
1
10
107.901200149034
20
4.93327042424895
30
0
41
1
10
107.22681644737
20
5.12894024432896
30
0
41
1
10
106.888743259367
20
5.22114157550163
30
0
41
1
10
106.295500140565
20
5.37200059432388
30
0
41
1
10
106.039856119167
20
5.43342383699169
30
0
41
1
10
105.784637221108
20
5.49108303629609
30
0
0
SPLINE
5
EF
100
AcDbEntity
8
1
62
256
6
ByLayer
370
18
48
1
60
0
100
AcDbSpline
70
4
71
3
72
10
73
6
40
0
40
0
40
0
40
0
40
0.704419177715491
40
0.704419177715491
40
1
40
1
40
1
40
1
41
1
10
61.9751211210697
20
-6.06625026775421
30
0
41
1
10
61.4031777773143
20
-6.06359474508682
30
0
41
1
10
60.8300925485762
20
-6.0406699858703
30
0
41
1
10
60.0132430135762
20
-5.97916184453672
30
0
41
1
10
59.7711122534425
20
-5.95734522799592
30
0
41
1
10
59.5288957011938
20
-5.93198042264632
30
0
0
SPLINE
5
F0
100
AcDbEntity
8
1
62
256
6
ByLayer
370
13
48
1
60
0
100
AcDbSpline
70
4
71
3
72
36
73
32
40
0
40
0
40
0
40
0
40
0.0097230477162614
40
0.0097230477162614
40
0.043941325047261
40
0.043941325047261
40
0.180814434371257
40
0.180814434371257
40
0.249250989033254
40
0.249250989033254
40
0.283469266364253
40
0.283469266364253
40
0.317687543695252
40
0.317687543695252
40
0.454560653019247
40
0.454560653019247
40
0.591433762343242
40
0.591433762343242
40
0.625652039674241
40
0.625652039674241
40
0.659870317005241
40
0.659870317005241
40
0.72830687166724
40
0.72830687166724
40
0.865179980991237
40
0.865179980991237
40
0.899398258322236
40
0.899398258322236
40
0.933616535653235
40
0.933616535653235
40
1
40
1
40
1
40
1
41
1
10
59.5288947072798
20
-5.93198031856409
30
0
41
1
10
59.4327500147908
20
-5.92191208698122
30
0
41
1
10
59.3365918051183
20
-5.91128480662408
30
0
41
1
10
58.9021329194662
20
-5.86075529666599
30
0
41
1
10
58.5647183878167
20
-5.8146464410882
30
0
41
1
10
56.8809840052755
20
-5.5514004596422
30
0
41
1
10
55.5448111967948
20
-5.23594972458287
30
0
41
1
10
53.5349101742413
20
-4.62885902052557
30
0
41
1
10
52.8640506097958
20
-4.4041852863302
30
0
41
1
10
51.853584961609
20
-4.03702339890143
30
0
41
1
10
51.5160823054147
20
-3.90959741414525
30
0
41
1
10
50.8392533410465
20
-3.64525943726522
30
0
41
1
10
50.5003488196254
20
-3.50853814847153
30
0
41
1
10
48.8129375260861
20
-2.80841942458801
30
0
41
1
10
47.4761401270687
20
-2.19178600137965
30
0
41
1
10
44.799500771074
20
-0.902489684236173
30
0
41
1
10
43.4599802204172
20
-0.229239312428547
30
0
41
1
10
41.7655171923511
20
0.610852092143375
30
0
41
1
10
41.4270572193194
20
0.778126554954071
30
0
41
1
10
40.7522745599043
20
1.10935737743873
30
0
41
1
10
40.4156527633857
20
1.27340970682587
30
0
41
1
10
39.4074387166549
20
1.75962301447132
30
0
41
1
10
38.73757260204
20
2.0760160555532
30
0
41
1
10
36.7290276304791
20
2.99096436687145
30
0
41
1
10
35.3918003184033
20
3.55602766596525
30
0
41
1
10
33.704261688155
20
4.17310267458259
30
0
41
1
10
33.3657828479802
20
4.29219021625343
30
0
41
1
10
32.6875879772425
20
4.52029855154078
30
0
41
1
10
32.3494503256293
20
4.62875642840888
30
0
41
1
10
31.3575660109267
20
4.93080554644408
30
0
41
1
10
30.7059305505894
20
5.10850464841505
30
0
41
1
10
30.0554185573726
20
5.26304681520938
30
0
0
SPLINE
5
F1
100
AcDbEntity
8
1
62
256
6
ByLayer
370
18
48
1
60
0
100
AcDbSpline
70
4
71
3
72
10
73
6
40
0
40
0
40
0
40
0
40
0.5
40
0.5
40
1
40
1
40
1
40
1
41
1
10
5.85924050312451
20
-5.65911963376624
30
0
41
1
10
5.8845508558839
20
-5.61652846833888
30
0
41
1
10
5.91512285113595
20
-5.57106592493491
30
0
41
1
10
5.98507537610627
20
-5.47644022176294
30
0
41
1
10
6.02431549079151
20
-5.42740798473545
30
0
41
1
10
6.06737659287842
20
-5.37684179890053
30
0
0
SPLINE
5
F2
100
AcDbEntity
8
1
62
256
6
ByLayer
370
13
48
1
60
0
100
AcDbSpline
70
4
71
3
72
93
73
89
40
0
40
0
40
0
40
0
40
0.0027059954184638
40
0.0145195876036591
40
0.0322399758814555
40
0.038146771974054
40
0.0499603641592514
40
0.0617739563444488
40
0.0794943446222431
40
0.085401140714841
40
0.0972147329000363
40
0.109028325085234
40
0.126748713363029
40
0.132655509455629
40
0.144469101640825
40
0.156282693826023
40
0.174003082103817
40
0.179909878196416
40
0.191723470381613
40
0.203537062566809
40
0.221257450844606
40
0.227164246937203
40
0.238977839122399
40
0.250791431307597
40
0.268511819585391
40
0.27441861567799
40
0.286232207863187
40
0.298045800048384
40
0.315766188326177
40
0.321672984418777
40
0.333486576603974
40
0.34530016878917
40
0.363020557066965
40
0.368927353159564
40
0.380740945344761
40
0.392554537529956
40
0.410274925807751
40
0.416181721900352
40
0.427995314085547
40
0.439808906270745
40
0.457529294548539
40
0.463436090641138
40
0.475249682826335
40
0.487063275011532
40
0.504783663289328
40
0.510690459381926
40
0.522504051567122
40
0.534317643752321
40
0.552038032030113
40
0.557944828122713
40
0.56975842030791
40
0.581572012493106
40
0.599292400770901
40
0.6051991968635
40
0.617012789048697
40
0.628826381233893
40
0.646546769511689
40
0.652453565604287
40
0.664267157789483
40
0.67608074997468
40
0.693801138252477
40
0.699707934345074
40
0.711521526530271
40
0.723335118715468
40
0.741055506993263
40
0.746962303085862
40
0.758775895271058
40
0.770589487456254
40
0.788309875734051
40
0.794216671826649
40
0.806030264011845
40
0.817843856197041
40
0.835564244474838
40
0.841471040567436
40
0.853284632752633
40
0.865098224937829
40
0.882818613215624
40
0.888725409308223
40
0.900539001493419
40
0.912352593678616
40
0.930072981956412
40
0.93597977804901
40
0.947793370234207
40
0.959606962419404
40
0.977327350697199
40
0.983234146789797
40
0.995047738974994
40
1
40
1
40
1
40
1
41
1
10
84.3708733598936
20
-2.50608470491298
30
0
41
1
10
84.3486548653804
20
-2.50831890617423
30
0
41
1
10
84.2294371561869
20
-2.52023802238816
30
0
41
1
10
83.9647176578158
20
-2.54588424685861
30
0
41
1
10
83.6736808286223
20
-2.57228061130647
30
0
41
1
10
83.382650927639
20
-2.59721061202271
30
0
41
1
10
83.1401543600862
20
-2.61701429268729
30
0
41
1
10
82.8006535200316
20
-2.64296686799128
30
0
41
1
10
82.5096172660283
20
-2.66336404748597
30
0
41
1
10
82.218588095367
20
-2.68224657050197
30
0
41
1
10
81.976092132388
20
-2.6969710220977
30
0
41
1
10
81.6365919954335
20
-2.71576027472068
30
0
41
1
10
81.345556146101
20
-2.72997607373941
30
0
41
1
10
81.0545271458308
20
-2.7426381139316
30
0
41
1
10
80.8120312486506
20
-2.75214564375224
30
0
41
1
10
80.4725310870714
20
-2.76359009531106
30
0
41
1
10
80.1814950111033
20
-2.7714801542719
30
0
41
1
10
79.8904655400789
20
-2.77778635398559
30
0
41
1
10
79.6479690586307
20
-2.78197035316615
30
0
41
1
10
79.30846790161
20
-2.78593749210822
30
0
41
1
10
79.0174310048777
20
-2.78741185641297
30
0
41
1
10
78.7264009998993
20
-2.78729930839853
30
0
41
1
10
78.48390433989
20
-2.78612664778399
30
0
41
1
10
78.1444033832634
20
-2.78259936709003
30
0
41
1
10
77.8533670494595
20
-2.77766763057454
30
0
41
1
10
77.5623378257563
20
-2.77115833532406
30
0
41
1
10
77.3198418327354
20
-2.76465429290332
30
0
41
1
10
76.9803416701394
20
-2.75367973105585
30
0
41
1
10
76.6893058116307
20
-2.7423939024834
30
0
41
1
10
76.3982768047285
20
-2.72954965805775
30
0
41
1
10
76.1557809146925
20
-2.71777281232701
30
0
41
1
10
75.8162807942132
20
-2.69944513353971
30
0
41
1
10
75.5252447789455
20
-2.68189800431483
30
0
41
1
10
75.2342153835598
20
-2.66282202926615
30
0
41
1
10
74.9917189536866
20
-2.6458657999745
30
0
41
1
10
74.6522178311048
20
-2.62033236312641
30
0
41
1
10
74.3611809304401
20
-2.59667142220891
30
0
41
1
10
74.0701508990105
20
-2.57153425998772
30
0
41
1
10
73.8276542116093
20
-2.54955736312553
30
0
41
1
10
73.4881532190697
20
-2.5170657001766
30
0
41
1
10
73.1971168605619
20
-2.48752456280371
30
0
41
1
10
72.90608762209
20
-2.45657232009285
30
0
41
1
10
72.6635916283138
20
-2.4297874558464
30
0
41
1
10
72.3240914855701
20
-2.39064756186639
30
0
41
1
10
72.0330556604124
20
-2.35550352114021
30
0
41
1
10
71.7420266931601
20
-2.3190231848869
30
0
41
1
10
71.4995308416814
20
-2.28767667366057
30
0
41
1
10
71.1600307828973
20
-2.24224535784475
30
0
41
1
10
70.8689948223466
20
-2.20181596663957
30
0
41
1
10
70.5779654768922
20
-2.16013552485046
30
0
41
1
10
70.3354690742843
20
-2.12450823931482
30
0
41
1
10
69.9959679575605
20
-2.0731925555144
30
0
41
1
10
69.7049310339436
20
-2.02784200647247
30
0
41
1
10
69.413900963768
20
-1.98134083537389
30
0
41
1
10
69.1714042318004
20
-1.94176002131203
30
0
41
1
10
68.8319031553161
20
-1.88503526186017
30
0
41
1
10
68.5408667079199
20
-1.83518606236839
30
0
41
1
10
68.2498373721555
20
-1.78429733618663
30
0
41
1
10
68.0073413102045
20
-1.74113115355647
30
0
41
1
10
67.6678411119914
20
-1.67952387148495
30
0
41
1
10
67.3768052777563
20
-1.62563766668157
30
0
41
1
10
67.0857763308977
20
-1.57083180904345
30
0
41
1
10
66.8432805044968
20
-1.52447887279828
30
0
41
1
10
66.5037804826628
20
-1.45855766297561
30
0
41
1
10
66.2127445541766
20
-1.40113181677549
30
0
41
1
10
65.9217152370699
20
-1.34291515218834
30
0
41
1
10
65.6792188591857
20
-1.29380399935724
30
0
41
1
10
65.33971778442
20
-1.22417777378314
30
0
41
1
10
65.0486809049588
20
-1.16374107714938
30
0
41
1
10
64.757650888283
20
-1.10264704969268
30
0
41
1
10
64.5151541885153
20
-1.05122584593352
30
0
41
1
10
64.1756531159752
20
-0.978527964408045
30
0
41
1
10
63.8846166320436
20
-0.915629471970021
30
0
41
1
10
63.5935872264371
20
-0.852214299112489
30
0
41
1
10
63.3510911183142
20
-0.798952263562029
30
0
41
1
10
63.0115909103931
20
-0.723848194916769
30
0
41
1
10
62.7205551200657
20
-0.65906610728112
30
0
41
1
10
62.4295262590807
20
-0.593914915299052
30
0
41
1
10
62.18703050484
20
-0.539304924068858
30
0
41
1
10
61.8475305558105
20
-0.462492507601212
30
0
41
1
10
61.556494660212
20
-0.396431942576584
30
0
41
1
10
61.2654653472216
20
-0.330156011209397
30
0
41
1
10
61.0229689714292
20
-0.27471214538545
30
0
41
1
10
60.6834679165902
20
-0.19691386876417
30
0
41
1
10
60.3924310711872
20
-0.130191500095691
30
0
41
1
10
60.1014011065003
20
-0.0634008769507943
30
0
41
1
10
59.91524123322
20
-0.0205844296665134
30
0
41
1
10
59.7775790386559
20
0.0110777155959738
30
0
41
1
10
59.7369162470871
20
0.0204286462685275
30
0
0
SPLINE
5
F3
100
AcDbEntity
8
1
62
256
6
ByLayer
370
18
48
1
60
0
100
AcDbSpline
70
4
71
3
72
10
73
6
40
0
40
0
40
0
40
0
40
0.519750815136598
40
0.519750815136598
40
1
40
1
40
1
40
1
41
1
10
20.5030198669246
20
-6.08293421211431
30
0
41
1
10
20.8041476518744
20
-6.1051119513904
30
0
41
1
10
21.1045898487583
20
-6.12152709365938
30
0
41
1
10
21.681633891871
20
-6.1422597934324
30
0
41
1
10
21.9579610736537
20
-6.14743078411931
30
0
41
1
10
22.2339655702282
20
-6.14781914036408
30
0
0
SPLINE
5
F4
100
AcDbEntity
8
1
62
256
6
ByLayer
370
18
48
1
60
0
100
AcDbSpline
70
4
71
3
72
54
73
50
40
0
40
0
40
0
40
0
40
0.0544241264374715
40
0.0544241264374715
40
0.128219284870809
40
0.128219284870809
40
0.146668074479144
40
0.146668074479144
40
0.165116864087478
40
0.165116864087478
40
0.202014443304148
40
0.202014443304148
40
0.275809601737488
40
0.275809601737488
40
0.312707180954159
40
0.312707180954159
40
0.331155970562494
40
0.331155970562494
40
0.34960476017083
40
0.34960476017083
40
0.386502339387502
40
0.386502339387502
40
0.423399918604173
40
0.423399918604173
40
0.497195077037517
40
0.497195077037517
40
0.515643866645852
40
0.515643866645852
40
0.534092656254188
40
0.534092656254188
40
0.570990235470858
40
0.570990235470858
40
0.644785393904199
40
0.644785393904199
40
0.681682973120869
40
0.681682973120869
40
0.700131762729205
40
0.700131762729205
40
0.71858055233754
40
0.71858055233754
40
0.866170869204226
40
0.866170869204226
40
0.884619658812562
40
0.884619658812562
40
0.903068448420898
40
0.903068448420898
40
0.939966027637568
40
0.939966027637568
40
1
40
1
40
1
40
1
41
1
10
50.0814065559511
20
4.10991812577328
30
0
41
1
10
50.959344381921
20
4.44663988044718
30
0
41
1
10
51.8334514014638
20
4.75008846642788
30
0
41
1
10
53.8944914668998
20
5.37275119526092
30
0
41
1
10
55.0809265566471
20
5.66039326718999
30
0
41
1
10
56.5789008976263
20
5.91474964374817
30
0
41
1
10
56.8796160317798
20
5.96055267976209
30
0
41
1
10
57.4801132348098
20
6.04083790930125
30
0
41
1
10
57.7795893245617
20
6.07536022053165
30
0
41
1
10
58.6758407479261
20
6.16220711381024
30
0
41
1
10
59.2708805905558
20
6.19761219074047
30
0
41
1
10
61.0526005519379
20
6.23686993302351
30
0
41
1
10
62.235052037476
20
6.17356307588355
30
0
41
1
10
64.0176547572687
20
5.94734883747071
30
0
41
1
10
64.6130746588609
20
5.84997400254255
30
0
41
1
10
65.5103865118325
20
5.67168391910548
30
0
41
1
10
65.8105185553534
20
5.6069328992003
30
0
41
1
10
66.4112105342894
20
5.46674892742456
30
0
41
1
10
66.7108244555911
20
5.39185352042523
30
0
41
1
10
67.6075002186968
20
5.15298982694796
30
0
41
1
10
68.2024784041784
20
4.97489068871127
30
0
41
1
10
69.3899494758094
20
4.5852609431299
30
0
41
1
10
69.9824438187902
20
4.37376242242271
30
0
41
1
10
71.759459779136
20
3.69397586302989
30
0
41
1
10
72.944167463108
20
3.18132299793783
30
0
41
1
10
74.4376175260692
20
2.48503168891818
30
0
41
1
10
74.7369958413839
20
2.34311175819218
30
0
41
1
10
75.3374950197854
20
2.05456324961375
30
0
41
1
10
75.6373095698284
20
1.90804761280626
30
0
41
1
10
76.5342755323601
20
1.46590569856079
30
0
41
1
10
77.1294411107889
20
1.16593850672939
30
0
41
1
10
78.9100638170466
20
0.257502816653925
30
0
41
1
10
80.0919807765121
20
-0.35684474978629
30
0
41
1
10
81.8708882779889
20
-1.26407398104484
30
0
41
1
10
82.4651081737672
20
-1.56361462056867
30
0
41
1
10
83.3603447265358
20
-2.0045932359979
30
0
41
1
10
83.6592536282349
20
-2.15050239692556
30
0
41
1
10
84.2588500433729
20
-2.43859900857211
30
0
41
1
10
84.5591825463543
20
-2.58071883618044
30
0
41
1
10
87.2499756380132
20
-3.8340595457264
30
0
41
1
10
89.5963216633033
20
-4.76703285039378
30
0
41
1
10
92.2783147373517
20
-5.4777024547395
30
0
41
1
10
92.5770465167001
20
-5.55183043250247
30
0
41
1
10
93.1757456261621
20
-5.69051444007639
30
0
41
1
10
93.4761705712232
20
-5.75483896782484
30
0
41
1
10
94.3734526354724
20
-5.93121524869451
30
0
41
1
10
94.968491448656
20
-6.02716761794181
30
0
41
1
10
96.5275479476026
20
-6.22109437113971
30
0
41
1
10
97.4887689399204
20
-6.28270636966715
30
0
41
1
10
98.4513195905645
20
-6.28500056481667
30
0
0
SPLINE
5
F5
100
AcDbEntity
8
1
62
256
6
ByLayer
370
18
48
1
60
0
100
AcDbSpline
70
4
71
3
72
16
73
12
40
0
40
0
40
0
40
0
40
0.158957439166495
40
0.158957439166495
40
0.26408775927068
40
0.26408775927068
40
0.369218079374865
40
0.369218079374865
40
0.579478719583242
40
0.579478719583242
40
1
40
1
40
1
40
1
41
1
10
126.264544068212
20
4.17835757760119
30
0
41
1
10
126.711618629202
20
4.35436531091619
30
0
41
1
10
127.159329027677
20
4.52218157791705
30
0
41
1
10
127.905190270956
20
4.78577837858774
30
0
41
1
10
128.202556474141
20
4.8868327294316
30
0
41
1
10
128.798965619049
20
5.08007628828059
30
0
41
1
10
129.098169922997
20
5.17273786637088
30
0
41
1
10
129.995577652935
20
5.43585294418151
30
0
41
1
10
130.591105634691
20
5.59127130183154
30
0
41
1
10
132.372856519063
20
5.99542321175122
30
0
41
1
10
133.555431605116
20
6.18108309153808
30
0
41
1
10
134.742506720656
20
6.27725306402357
30
0
0
SPLINE
5
F6
100
AcDbEntity
8
1
62
256
6
ByLayer
370
18
48
1
60
0
100
AcDbSpline
70
4
71
3
72
8
73
4
40
0
40
0
40
0
40
0
40
1
40
1
40
1
40
1
41
1
10
134.742506720656
20
-6.27725306402357
30
0
41
1
10
134.998707408014
20
-5.65348074463435
30
0
41
1
10
135.261787896193
20
-5.00606785702232
30
0
41
1
10
135.523552450546
20
-4.32924872530316
30
0
0
SPLINE
5
F7
100
AcDbEntity
8
1
62
256
6
ByLayer
370
18
48
1
60
0
100
AcDbSpline
70
4
71
3
72
8
73
4
40
0
40
0
40
0
40
0
40
1
40
1
40
1
40
1
41
1
10
136.479242330737
20
1.53710483927651
30
0
41
1
10
136.158090668425
20
2.46693288678577
30
0
41
1
10
135.839522434352
20
3.39764582315624
30
0
41
1
10
135.523552450546
20
4.32924872530305
30
0
0
SPLINE
5
F8
100
AcDbEntity
8
1
62
256
6
ByLayer
370
18
48
1
60
0
100
AcDbSpline
70
4
71
3
72
14
73
10
40
0
40
0
40
0
40
0
40
0.239631297722289
40
0.419362599808571
40
0.539012450099288
40
0.623451219364039
40
0.74163044884218
40
0.893665825501738
40
1
40
1
40
1
40
1
41
1
10
21.6473854785316
20
0.0179730793681756
30
0
41
1
10
21.4649012897927
20
0.0599645354510585
30
0
41
1
10
21.1459558552841
20
0.143230013445617
30
0
41
1
10
20.7366199136796
20
0.272460068150025
30
0
41
1
10
20.4459722503713
20
0.375413383312122
30
0
41
1
10
20.2023299728439
20
0.468016051023312
30
0
41
1
10
19.9340729878124
20
0.577202257989939
30
0
41
1
10
19.6494961217273
20
0.701490873945374
30
0
41
1
10
19.4545383003411
20
0.795950567169996
30
0
41
1
10
19.3743442354793
20
0.836149240655999
30
0
0
SPLINE
5
F9
100
AcDbEntity
8
1
62
256
6
ByLayer
370
18
48
1
60
0
100
AcDbSpline
70
4
71
3
72
13
73
9
40
0
40
0
40
0
40
0
40
0.229664965403218
40
0.401994866507646
40
0.516801365970218
40
0.631923604394151
40
0.80435529489722
40
1
40
1
40
1
40
1
41
1
10
97.8476276553071
20
0.0179949512487383
30
0
41
1
10
97.6652307338179
20
0.0599252552929102
30
0
41
1
10
97.3461965771249
20
0.143164313073356
30
0
41
1
10
96.9366622301344
20
0.272333662886808
30
0
41
1
10
96.6180384699123
20
0.385190377798239
30
0
41
1
10
96.3003450893974
20
0.507651345882721
30
0
41
1
10
95.9199764562346
20
0.668301426404412
30
0
41
1
10
95.630963997544
20
0.806125563638233
30
0
41
1
10
95.4775867281803
20
0.88354988483286
30
0
0
SPLINE
5
FA
100
AcDbEntity
8
1
62
256
6
ByLayer
370
18
48
1
60
0
100
AcDbSpline
70
4
71
3
72
22
73
18
40
0
40
0
40
0
40
0
40
0.0527372573628416
40
0.102538499638803
40
0.160975509691985
40
0.222191042377387
40
0.280011328395462
40
0.36710875627326
40
0.468208943279667
40
0.577022306978973
40
0.676394262517744
40
0.761724429750456
40
0.822405213267223
40
0.878610939887733
40
0.938291499947324
40
0.98896884089825
40
1
40
1
40
1
40
1
41
1
10
40.0948392091255
20
6.02707994483094
30
0
41
1
10
39.8461279398516
20
6.02651599912167
30
0
41
1
10
39.3625486300291
20
6.02546960140953
30
0
41
1
10
38.6033581329345
20
6.02487984776843
30
0
41
1
10
37.804190628608
20
6.02236970197524
30
0
41
1
10
36.9671984218442
20
6.02245972530389
30
0
41
1
10
35.9950414417739
20
6.01959124503227
30
0
41
1
10
34.8348043899994
20
6.01868813612214
30
0
41
1
10
33.4339567643386
20
6.01552666227903
30
0
41
1
10
31.9757079431332
20
6.01231999736919
30
0
41
1
10
30.591219818735
20
6.01067156166906
30
0
41
1
10
29.4343685443989
20
6.00831296815346
30
0
41
1
10
28.4801364077256
20
6.00678413419627
30
0
41
1
10
27.649254575322
20
6.00452939036626
30
0
41
1
10
26.8615970300676
20
6.00398148304601
30
0
41
1
10
26.2967840433723
20
6.00239839969382
30
0
41
1
10
26.0114759139372
20
6.00084274372679
30
0
41
1
10
25.9605221890567
20
6.00053459776325
30
0
0
SPLINE
5
FB
100
AcDbEntity
8
1
62
256
6
ByLayer
370
18
48
1
60
0
100
AcDbSpline
70
4
71
3
72
14
73
10
40
0
40
0
40
0
40
0
40
0.230851324389592
40
0.404037479126544
40
0.519370678728732
40
0.600768328601279
40
0.714696784294689
40
0.861269799375572
40
1
40
1
40
1
40
1
41
1
10
78.7505636651968
20
-0.0187246316544929
30
0
41
1
10
78.9411984971653
20
-0.062591302577232
30
0
41
1
10
79.2744503432368
20
-0.150039570566491
30
0
41
1
10
79.7021904703957
20
-0.286669075850114
30
0
41
1
10
80.0060830358678
20
-0.395947745985978
30
0
41
1
10
80.260956972909
20
-0.494529718248799
30
0
41
1
10
80.5415188170559
20
-0.610779289656165
30
0
41
1
10
80.8688023226504
20
-0.757501995817393
30
0
41
1
10
81.1023020296408
20
-0.873213985291443
30
0
41
1
10
81.2157615962262
20
-0.93186535206911
30
0
0
SPLINE
5
FC
100
AcDbEntity
8
1
62
256
6
ByLayer
370
18
48
1
60
0
100
AcDbSpline
70
4
71
3
72
9
73
5
40
0
40
0
40
0
40
0
40
0.382874868314225
40
1
40
1
40
1
40
1
41
1
10
134.655486056403
20
0.407777515843236
30
0
41
1
10
134.50808083924
20
0.462850457433262
30
0
41
1
10
134.121742622952
20
0.622977218889076
30
0
41
1
10
133.735453032292
20
0.80106785804503
30
0
41
1
10
133.496461272387
20
0.922108043749574
30
0
0
SPLINE
5
FD
100
AcDbEntity
8
1
62
256
6
ByLayer
370
18
48
1
60
0
100
AcDbSpline
70
4
71
2
72
6
73
3
40
0
40
0
40
0
40
1
40
1
40
1
41
1
10
6.37303353379582
20
5.96824292914769
30
0
41
1
10
6.06904793147135
20
5.9677498083457
30
0
41
1
10
5.76506966852477
20
5.96689063683402
30
0
0
SPLINE
5
FE
100
AcDbEntity
8
1
62
256
6
ByLayer
370
18
48
1
60
0
100
AcDbSpline
70
4
71
3
72
33
73
29
40
0
40
0
40
0
40
0
40
0.046057634160873
40
0.0849264009595571
40
0.114844496054702
40
0.138390345334978
40
0.157599841132496
40
0.199312666808442
40
0.243879891944332
40
0.289811256697509
40
0.336941487759391
40
0.387685847129055
40
0.434036267583436
40
0.486165268727064
40
0.547237699016619
40
0.595086486013232
40
0.639504146568238
40
0.695949164254762
40
0.727966112527423
40
0.759341537111602
40
0.799732562721383
40
0.838356445172562
40
0.87422803684702
40
0.90820487972099
40
0.94302607778432
40
0.971126081758914
40
0.996827385104757
40
1
40
1
40
1
40
1
41
1
10
100.111388208527
20
-6.13512033761174
30
0
41
1
10
100.35855037305
20
-6.1353490472471
30
0
41
1
10
100.814526797436
20
-6.13594348040138
30
0
41
1
10
101.433748557003
20
-6.13734194485593
30
0
41
1
10
101.929063614004
20
-6.13851342683461
30
0
41
1
10
102.320340192417
20
-6.13908868250297
30
0
41
1
10
102.775188432674
20
-6.13979974317095
30
0
41
1
10
103.343200813977
20
-6.14086619112362
30
0
41
1
10
104.055089648698
20
-6.14197602668267
30
0
41
1
10
104.796184806259
20
-6.14260710977072
30
0
41
1
10
105.570505481335
20
-6.14559363737345
30
0
41
1
10
106.347118347635
20
-6.14669989647859
30
0
41
1
10
107.1506359406
20
-6.14741382546421
30
0
41
1
10
108.009729043409
20
-6.14764117994855
30
0
41
1
10
108.877127407098
20
-6.14903665657462
30
0
41
1
10
109.702125515325
20
-6.15316909752957
30
0
41
1
10
110.503043861949
20
-6.15339990059519
30
0
41
1
10
111.217897391273
20
-6.15460394365917
30
0
41
1
10
111.863266886694
20
-6.1555233008107
30
0
41
1
10
112.422088818817
20
-6.15605472807769
30
0
41
1
10
113.016508853972
20
-6.15763390404368
30
0
41
1
10
113.635133180412
20
-6.15978710702518
30
0
41
1
10
114.219224947553
20
-6.16034540353277
30
0
41
1
10
114.782837324591
20
-6.16130374583102
30
0
41
1
10
115.304602920244
20
-6.16271703651549
30
0
41
1
10
115.781807925228
20
-6.16347665184912
30
0
41
1
10
116.088595498462
20
-6.16366412065764
30
0
41
1
10
116.244072696261
20
-6.16393298124103
30
0
41
1
10
116.261156254061
20
-6.16396316837975
30
0
0
SPLINE
5
FF
100
AcDbEntity
8
1
62
256
6
ByLayer
370
18
48
1
60
0
100
AcDbSpline
70
4
71
3
72
25
73
21
40
0
40
0
40
0
40
0
40
0.041116366631384
40
0.0975565628680675
40
0.143801115085979
40
0.189567294284585
40
0.24919651103348
40
0.320054414774776
40
0.400696644169693
40
0.488038165229235
40
0.549828110960558
40
0.598437466930613
40
0.649991941061422
40
0.708546368578088
40
0.770258947869328
40
0.835977642229423
40
0.89178757072858
40
0.944451107068967
40
0.990370894884053
40
1
40
1
40
1
40
1
41
1
10
78.1839342768682
20
6.09586699132561
30
0
41
1
10
77.9918390914956
20
6.09538578091687
30
0
41
1
10
77.536055980152
20
6.09436854180842
30
0
41
1
10
76.8642165295458
20
6.09306791789891
30
0
41
1
10
76.1706576531333
20
6.09264304859795
30
0
41
1
10
75.4621968999388
20
6.09020105120465
30
0
41
1
10
74.6387470139349
20
6.08961094947557
30
0
41
1
10
73.6523582370901
20
6.0872786106859
30
0
41
1
10
72.5364905016491
20
6.08592803658325
30
0
41
1
10
71.4629916054889
20
6.08306377728491
30
0
41
1
10
70.539145937849
20
6.0823026812958
30
0
41
1
10
69.782498675861
20
6.08061111116487
30
0
41
1
10
69.0409715946526
20
6.07902727802147
30
0
41
1
10
68.2382114465087
20
6.07845699802752
30
0
41
1
10
67.3693292139166
20
6.07589333481471
30
0
41
1
10
66.5130899628435
20
6.07504294750481
30
0
41
1
10
65.7000281125043
20
6.07300329255921
30
0
41
1
10
64.9768868436855
20
6.07195892828767
30
0
41
1
10
64.4783146749037
20
6.07100157001219
30
0
41
1
10
64.221882735576
20
6.06967706840297
30
0
41
1
10
64.1774074094219
20
6.06943388250238
30
0
0
SPLINE
5
100
100
AcDbEntity
8
1
62
256
6
ByLayer
370
18
48
1
60
0
100
AcDbSpline
70
4
71
3
72
28
73
24
40
0
40
0
40
0
40
0
40
0.0158311803438858
40
0.0572675074293279
40
0.0983332751417695
40
0.138218267485855
40
0.17995063141426
40
0.225013365446374
40
0.272468522714045
40
0.309498839652784
40
0.368163881382815
40
0.452472865258173
40
0.528749498054467
40
0.621599725253822
40
0.696612116231793
40
0.751735731357419
40
0.803384042172102
40
0.852554456961519
40
0.909595421572938
40
0.93477241468734
40
0.958132234224876
40
0.980028848380858
40
1
40
1
40
1
40
1
41
1
10
116.261307718763
20
6.16400372263968
30
0
41
1
10
116.186378116367
20
6.16389338567666
30
0
41
1
10
115.915328763584
20
6.16348303453702
30
0
41
1
10
115.449913253256
20
6.16309915651789
30
0
41
1
10
114.870651348507
20
6.16152892083676
30
0
41
1
10
114.289988880576
20
6.16039853438051
30
0
41
1
10
113.690406775996
20
6.15990127500629
30
0
41
1
10
113.05499503894
20
6.15779255795067
30
0
41
1
10
112.44185187826
20
6.15605782658611
30
0
41
1
10
111.764285684797
20
6.155458972502
30
0
41
1
10
110.912526254632
20
6.15392069260869
30
0
41
1
10
109.874608734286
20
6.15379660050831
30
0
41
1
10
108.676048738947
20
6.14809208174151
30
0
41
1
10
107.520238722157
20
6.14757283573138
30
0
41
1
10
106.464924299175
20
6.14685396513536
30
0
41
1
10
105.604513617514
20
6.14570965180354
30
0
41
1
10
104.86646052892
20
6.14278144669922
30
0
41
1
10
104.119309132178
20
6.14202114499528
30
0
41
1
10
103.497457151684
20
6.1411357179685
30
0
41
1
10
102.997774181728
20
6.1401985071885
30
0
41
1
10
102.664412691249
20
6.1396311485675
30
0
41
1
10
102.355680197164
20
6.13914293825835
30
0
41
1
10
102.15753626065
20
6.13884951390861
30
0
41
1
10
102.063105867584
20
6.13869024299333
30
0
0
SPLINE
5
101
100
AcDbEntity
8
1
62
256
6
ByLayer
370
18
48
1
60
0
100
AcDbSpline
70
4
71
3
72
32
73
28
40
0
40
0
40
0
40
0
40
0.0265914392395279
40
0.0547291558913192
40
0.0803973163321966
40
0.124671326892224
40
0.165773901009232
40
0.203190479653286
40
0.238071174106328
40
0.271725565792999
40
0.300254924933629
40
0.332978218228695
40
0.367344994845569
40
0.39601604812186
40
0.423311490638818
40
0.488752190245261
40
0.529880639857618
40
0.584456545289412
40
0.643423849371614
40
0.702281636265655
40
0.752048781017264
40
0.801106711432838
40
0.8424644680655
40
0.887269194635722
40
0.949234082420586
40
0.994383049795675
40
1
40
1
40
1
40
1
41
1
10
61.9766280758792
20
-6.06575636603046
30
0
41
1
10
62.1038475354324
20
-6.06530258050782
30
0
41
1
10
62.3733966505932
20
-6.06391245225959
30
0
41
1
10
62.7929265006684
20
-6.05737383491152
30
0
41
1
10
63.3321270058207
20
-6.05501506983038
30
0
41
1
10
63.9135334874334
20
-6.06786148815863
30
0
41
1
10
64.5602898624745
20
-6.07139898134878
30
0
41
1
10
65.1711444721074
20
-6.0721466458603
30
0
41
1
10
65.747363240835
20
-6.07282030591077
30
0
41
1
10
66.2749639288664
20
-6.07428339283939
30
0
41
1
10
66.7899834773841
20
-6.07533274696789
30
0
41
1
10
67.30999662408
20
-6.07593135430577
30
0
41
1
10
67.8306779030697
20
-6.07733087594053
30
0
41
1
10
68.3218926668004
20
-6.07835463850742
30
0
41
1
10
68.9820689745759
20
-6.07917944129917
30
0
41
1
10
69.7099981392041
20
-6.08043056771194
30
0
41
1
10
70.5862477430188
20
-6.082387901705
30
0
41
1
10
71.4273622349408
20
-6.08297240981355
30
0
41
1
10
72.3646315203492
20
-6.08590075441253
30
0
41
1
10
73.2757083607689
20
-6.08589572186844
30
0
41
1
10
74.1332162296209
20
-6.08897258167156
30
0
41
1
10
74.8951744768643
20
-6.08948879848285
30
0
41
1
10
75.6304938782577
20
-6.09082753751073
30
0
41
1
10
76.4359644367811
20
-6.09320059169636
30
0
41
1
10
77.2620595174782
20
-6.09312768664259
30
0
41
1
10
77.8750593180495
20
-6.09555021157584
30
0
41
1
10
78.1511111624743
20
-6.09590374074386
30
0
41
1
10
78.1816546758645
20
-6.09594112468076
30
0
0
SPLINE
5
102
100
AcDbEntity
8
1
62
256
6
ByLayer
370
18
48
1
60
0
100
AcDbSpline
70
4
71
3
72
29
73
25
40
0
40
0
40
0
40
0
40
0.0211025376181621
40
0.0453037158267966
40
0.0693346214103195
40
0.112007102711384
40
0.152062664148435
40
0.188875205593659
40
0.228182177462401
40
0.264428038419144
40
0.309156074467373
40
0.358587031572632
40
0.414927858095681
40
0.482757443359247
40
0.55751509876798
40
0.631341967540088
40
0.698099999407755
40
0.757416536231174
40
0.805248622256284
40
0.855623457324642
40
0.904718710367341
40
0.946562066704297
40
0.991901767672512
40
1
40
1
40
1
40
1
41
1
10
23.8693266279683
20
-5.99723290881354
30
0
41
1
10
23.9636852254057
20
-5.99663731146106
30
0
41
1
10
24.1758582032236
20
-5.99520619916802
30
0
41
1
10
24.5399259534494
20
-5.98917187500118
30
0
41
1
10
25.0408860529229
20
-5.98929665677596
30
0
41
1
10
25.6019347712945
20
-5.9990628235341
30
0
41
1
10
26.2406357624696
20
-6.00222798928232
30
0
41
1
10
26.8648423110546
20
-6.00390170694644
30
0
41
1
10
27.4769912178806
20
-6.00438944948451
30
0
41
1
10
28.1305899222363
20
-6.00573546301774
30
0
41
1
10
28.8402228038188
20
-6.00760120490915
30
0
41
1
10
29.6593738449171
20
-6.00842722979121
30
0
41
1
10
30.6039423422344
20
-6.01079164818751
30
0
41
1
10
31.6867311120633
20
-6.01181435439173
30
0
41
1
10
32.8641597894833
20
-6.01522933515102
30
0
41
1
10
34.0362270974432
20
-6.01595941496299
30
0
41
1
10
35.124146931706
20
-6.01916976373403
30
0
41
1
10
36.0706174928917
20
-6.01974056808643
30
0
41
1
10
36.927917461247
20
-6.02244860828199
30
0
41
1
10
37.7295962509936
20
-6.0222418234948
30
0
41
1
10
38.4986768161835
20
-6.02462279167199
30
0
41
1
10
39.2403580608431
20
-6.02540173565657
30
0
41
1
10
39.7589141206793
20
-6.02630654810531
30
0
41
1
10
40.0497362028899
20
-6.02691463563266
30
0
41
1
10
40.093808633557
20
-6.02700934356724
30
0
0
SPLINE
5
103
100
AcDbEntity
8
1
62
256
6
ByLayer
370
18
48
1
60
0
100
AcDbSpline
70
4
71
3
72
14
73
10
40
0
40
0
40
0
40
0
40
0.226750341996937
40
0.396804427890392
40
0.509986916825568
40
0.589832626726712
40
0.701604593439358
40
0.845421781352311
40
1
40
1
40
1
40
1
41
1
10
116.849995169235
20
-0.0185998455614822
30
0
41
1
10
117.040974292127
20
-0.0624936171514321
30
0
41
1
10
117.374669799335
20
-0.150007675425627
30
0
41
1
10
117.802821514807
20
-0.286848259095848
30
0
41
1
10
118.106556317171
20
-0.396152506609099
30
0
41
1
10
118.360948207902
20
-0.494621775978004
30
0
41
1
10
118.641123919784
20
-0.610690654643633
30
0
41
1
10
118.983369606795
20
-0.764380518340744
30
0
41
1
10
119.231975497023
20
-0.887398530645243
30
0
41
1
10
119.360666930017
20
-0.954027350264028
30
0
0
SPLINE
5
104
100
AcDbEntity
8
1
62
256
6
ByLayer
370
18
48
1
60
0
100
AcDbSpline
70
4
71
3
72
13
73
9
40
0
40
0
40
0
40
0
40
0.234079268255136
40
0.409721562417628
40
0.526738058108745
40
0.644163918531977
40
0.820163102694065
40
1
40
1
40
1
40
1
41
1
10
59.7470254909314
20
0.0181038666027291
30
0
41
1
10
59.5648501240792
20
0.0600293916096462
30
0
41
1
10
59.2462255826074
20
0.143201112674859
30
0
41
1
10
58.8371455903671
20
0.272253735568142
30
0
41
1
10
58.5189860297724
20
0.384839197668725
30
0
41
1
10
58.2010541151335
20
0.50731129423545
30
0
41
1
10
57.8350395870297
20
0.661518852168939
30
0
41
1
10
57.5604640512528
20
0.792624961321138
30
0
41
1
10
57.4218467587847
20
0.862477068370737
30
0
0
SPLINE
5
105
100
AcDbEntity
8
1
62
256
6
ByLayer
370
18
48
1
60
0
100
AcDbSpline
70
4
71
3
72
13
73
9
40
0
40
0
40
0
40
0
40
0.234297704286324
40
0.410140410027159
40
0.527328221983141
40
0.644877952343447
40
0.821006804655561
40
1
40
1
40
1
40
1
41
1
10
40.6505960211167
20
-0.0188030436176518
30
0
41
1
10
40.841017926834
20
-0.0626019247932845
30
0
41
1
10
41.1741331103991
20
-0.149983435563911
30
0
41
1
10
41.6018187961496
20
-0.286492239488524
30
0
41
1
10
41.9346885287531
20
-0.406120664111398
30
0
41
1
10
42.267014795929
20
-0.536498087037018
30
0
41
1
10
42.6483042078172
20
-0.700437002561131
30
0
41
1
10
42.9340232644785
20
-0.839955194756328
30
0
41
1
10
43.0778296251189
20
-0.914120871005053
30
0
0
SPLINE
5
106
100
AcDbEntity
8
1
62
256
6
ByLayer
370
18
48
1
60
0
100
AcDbSpline
70
4
71
2
72
6
73
3
40
0
40
0
40
0
40
1
40
1
40
1
41
1
10
5.76507682097341
20
-5.96687750842341
30
0
41
1
10
6.06835782703143
20
-5.96768511208998
30
0
41
1
10
6.3716399710292
20
-5.96824749663583
30
0
0
LINE
5
7B
100
AcDbEntity
8
SK1
62
256
6
ByLayer
370
18
48
1
60
0
100
AcDbLine
10
0
20
-7
30
0
11
0
21
7
31
0
39
0
210
0
220
0
230
1
0
LINE
5
7D
100
AcDbEntity
8
SK1
62
256
6
ByLayer
370
18
48
1
60
0
100
AcDbLine
10
-45
20
3.5
30
0
11
-45
21
-3.5
31
0
39
0
210
0
220
0
230
1
0
LINE
5
7E
100
AcDbEntity
8
SK1
62
256
6
ByLayer
370
18
48
1
60
0
100
AcDbLine
10
-42.979274
20
7
30
0
11
-42.979274
21
-7
31
0
39
0
210
0
220
0
230
1
0
LINE
5
7F
100
AcDbEntity
8
1
62
256
6
ByLayer
370
13
48
1
60
0
100
AcDbLine
10
1.495887
20
6.110493
30
0
11
1.495887
21
-6.110493
31
0
39
0
210
0
220
0
230
1
0
LINE
5
80
100
AcDbEntity
8
1
62
256
6
ByLayer
370
13
48
1
60
0
100
AcDbLine
10
0.747179
20
6.555246
30
0
11
0.747179
21
-6.555246
31
0
39
0
210
0
220
0
230
1
0
LINE
5
81
100
AcDbEntity
8
1
62
256
6
ByLayer
370
18
48
1
60
0
100
AcDbLine
10
0
20
-7
30
0
11
0
21
7
31
0
39
0
210
0
220
0
230
1
0
LINE
5
82
100
AcDbEntity
8
1
62
256
6
ByLayer
370
18
48
1
60
0
100
AcDbLine
10
133.909617
20
-3.149537
30
0
11
136.050554
21
-1.430735
31
0
39
0
210
0
220
0
230
1
0
LINE
5
83
100
AcDbEntity
8
1
62
256
6
ByLayer
370
18
48
1
60
0
100
AcDbLine
10
136.050554
20
-1.430735
30
0
11
136.052892
21
-1.415449
31
0
39
0
210
0
220
0
230
1
0
LINE
5
84
100
AcDbEntity
8
80
62
256
6
ByLayer
370
18
48
1
60
0
100
AcDbLine
10
0
20
0
30
0
11
-5
21
0
31
0
39
0
210
0
220
0
230
1
0
LINE
5
85
100
AcDbEntity
8
4
62
256
6
ByLayer
370
18
48
0.05
60
0
100
AcDbLine
10
137
20
0
30
0
11
0
21
0
31
0
39
0
210
0
220
0
230
1
0
LINE
5
87
100
AcDbEntity
8
SK4
62
256
6
ByLayer
370
18
48
0.05
60
0
100
AcDbLine
10
142
20
0
30
0
11
-50
21
0
31
0
39
0
210
0
220
0
230
1
0
LINE
5
89
100
AcDbEntity
8
SK1
62
256
6
ByLayer
370
18
48
1
60
0
100
AcDbLine
10
-45
20
-3.5
30
0
11
-42.979274
21
-7
31
0
39
0
210
0
220
0
230
1
0
LINE
5
8A
100
AcDbEntity
8
SK1
62
256
6
ByLayer
370
18
48
1
60
0
100
AcDbLine
10
-42.979274
20
7
30
0
11
-45
21
3.5
31
0
39
0
210
0
220
0
230
1
0
LINE
5
8B
100
AcDbEntity
8
SK1
62
256
6
ByLayer
370
18
48
1
60
0
100
AcDbLine
10
-42.979274
20
-7
30
0
11
0
21
-7
31
0
39
0
210
0
220
0
230
1
0
LINE
5
8C
100
AcDbEntity
8
SK1
62
256
6
ByLayer
370
18
48
1
60
0
100
AcDbLine
10
0
20
7
30
0
11
-42.979274
21
7
31
0
39
0
210
0
220
0
230
1
0
LINE
5
8D
100
AcDbEntity
8
1
62
256
6
ByLayer
370
18
48
1
60
0
100
AcDbLine
10
1.495887
20
-6.110493
30
0
11
5.235312
21
-6.117224
31
0
39
0
210
0
220
0
230
1
0
LINE
5
8E
100
AcDbEntity
8
1
62
256
6
ByLayer
370
18
48
1
60
0
100
AcDbLine
10
22.225039
20
-6.147805
30
0
11
23.375285
21
-6.149876
31
0
39
0
210
0
220
0
230
1
0
LINE
5
8F
100
AcDbEntity
8
1
62
256
6
ByLayer
370
18
48
1
60
0
100
AcDbLine
10
60.344217
20
-6.21642
30
0
11
61.474716
21
-6.218455
31
0
39
0
210
0
220
0
230
1
0
LINE
5
90
100
AcDbEntity
8
1
62
256
6
ByLayer
370
18
48
1
60
0
100
AcDbLine
10
98.463821
20
-6.285035
30
0
11
99.573999
21
-6.287033
31
0
39
0
210
0
220
0
230
1
0
LINE
5
91
100
AcDbEntity
8
1
62
256
6
ByLayer
370
18
48
1
60
0
100
AcDbLine
10
99.573999
20
6.287033
30
0
11
98.463821
21
6.285035
31
0
39
0
210
0
220
0
230
1
0
LINE
5
92
100
AcDbEntity
8
1
62
256
6
ByLayer
370
18
48
1
60
0
100
AcDbLine
10
61.474716
20
6.218455
30
0
11
60.344217
21
6.21642
31
0
39
0
210
0
220
0
230
1
0
LINE
5
93
100
AcDbEntity
8
1
62
256
6
ByLayer
370
18
48
1
60
0
100
AcDbLine
10
23.375285
20
6.149876
30
0
11
22.225039
21
6.147805
31
0
39
0
210
0
220
0
230
1
0
LINE
5
94
100
AcDbEntity
8
1
62
256
6
ByLayer
370
18
48
1
60
0
100
AcDbLine
10
5.235312
20
6.117224
30
0
11
1.495887
21
6.110493
31
0
39
0
210
0
220
0
230
1
0
LINE
5
95
100
AcDbEntity
8
81
62
256
6
ByLayer
370
18
48
1
60
0
100
AcDbLine
10
137
20
0
30
0
11
142
21
0
31
0
39
0
210
0
220
0
230
1
0
LINE
5
96
100
AcDbEntity
8
SK2
62
256
6
ByLayer
370
13
48
1
60
0
100
AcDbLine
10
-53.625163
20
-7
30
0
11
-53.625163
21
38.225706
31
0
39
0
210
0
220
0
230
1
0
LINE
5
98
100
AcDbEntity
8
SK2
62
256
6
ByLayer
370
13
48
1
60
0
100
AcDbLine
10
-46.5875
20
7
30
0
11
-55.625163
21
7
31
0
39
0
210
0
220
0
230
1
0
LINE
5
99
100
AcDbEntity
8
SK2
62
256
6
ByLayer
370
13
48
1
60
0
100
AcDbLine
10
-46.5875
20
-7
30
0
11
-55.625163
21
-7
31
0
39
0
210
0
220
0
230
1
0
LINE
5
9A
100
AcDbEntity
8
1
62
256
6
ByLayer
370
18
48
1
60
1
100
AcDbLine
10
-53.625163
20
7
30
0
11
-53.164379
21
3.500002
31
0
39
0
210
0
220
0
230
1
0
LINE
5
9B
100
AcDbEntity
8
1
62
256
6
ByLayer
370
18
48
1
60
1
100
AcDbLine
10
-53.164379
20
3.500002
30
0
11
-54.085946
21
3.499998
31
0
39
0
210
0
220
0
230
1
0
LINE
5
9C
100
AcDbEntity
8
1
62
256
6
ByLayer
370
18
48
1
60
1
100
AcDbLine
10
-54.085946
20
3.499998
30
0
11
-53.625163
21
7
31
0
39
0
210
0
220
0
230
1
0
LINE
5
9D
100
AcDbEntity
8
1
62
256
6
ByLayer
370
18
48
1
60
1
100
AcDbLine
10
-53.625163
20
-7
30
0
11
-54.085946
21
-3.500002
31
0
39
0
210
0
220
0
230
1
0
LINE
5
9E
100
AcDbEntity
8
1
62
256
6
ByLayer
370
18
48
1
60
1
100
AcDbLine
10
-54.085946
20
-3.500002
30
0
11
-53.164379
21
-3.499998
31
0
39
0
210
0
220
0
230
1
0
LINE
5
9F
100
AcDbEntity
8
1
62
256
6
ByLayer
370
18
48
1
60
1
100
AcDbLine
10
-53.164379
20
-3.499998
30
0
11
-53.625163
21
-7
31
0
39
0
210
0
220
0
230
1
0
LINE
5
A0
100
AcDbEntity
8
2
62
256
6
ByLayer
370
13
48
1
60
0
100
AcDbLine
10
149.083343
20
-6.35
30
0
11
149.083343
21
35.800259
31
0
39
0
210
0
220
0
230
1
0
LINE
5
A2
100
AcDbEntity
8
2
62
256
6
ByLayer
370
13
48
1
60
0
100
AcDbLine
10
136.1429
20
6.35
30
0
11
151.083343
21
6.35
31
0
39
0
210
0
220
0
230
1
0
LINE
5
A3
100
AcDbEntity
8
2
62
256
6
ByLayer
370
13
48
1
60
0
100
AcDbLine
10
136.1429
20
-6.35
30
0
11
151.083343
21
-6.35
31
0
39
0
210
0
220
0
230
1
0
LINE
5
A4
100
AcDbEntity
8
1
62
256
6
ByLayer
370
18
48
1
60
1
100
AcDbLine
10
149.083343
20
6.35
30
0
11
149.544126
21
2.850002
31
0
39
0
210
0
220
0
230
1
0
LINE
5
A5
100
AcDbEntity
8
1
62
256
6
ByLayer
370
18
48
1
60
1
100
AcDbLine
10
149.544126
20
2.850002
30
0
11
148.622559
21
2.849998
31
0
39
0
210
0
220
0
230
1
0
LINE
5
A6
100
AcDbEntity
8
1
62
256
6
ByLayer
370
18
48
1
60
1
100
AcDbLine
10
148.622559
20
2.849998
30
0
11
149.083343
21
6.35
31
0
39
0
210
0
220
0
230
1
0
LINE
5
A7
100
AcDbEntity
8
1
62
256
6
ByLayer
370
18
48
1
60
1
100
AcDbLine
10
149.083343
20
-6.35
30
0
11
148.622559
21
-2.850002
31
0
39
0
210
0
220
0
230
1
0
LINE
5
A8
100
AcDbEntity
8
1
62
256
6
ByLayer
370
18
48
1
60
1
100
AcDbLine
10
148.622559
20
-2.850002
30
0
11
149.544126
21
-2.849998
31
0
39
0
210
0
220
0
230
1
0
LINE
5
A9
100
AcDbEntity
8
1
62
256
6
ByLayer
370
18
48
1
60
1
100
AcDbLine
10
149.544126
20
-2.849998
30
0
11
149.083343
21
-6.35
31
0
39
0
210
0
220
0
230
1
0
LINE
5
10D
100
AcDbEntity
8
1
62
256
6
ByLayer
370
18
48
1
60
1
100
AcDbLine
10
-53.625163
20
7
30
0
11
-53.164379
21
3.500002
31
0
39
0
210
0
220
0
230
1
0
LINE
5
10E
100
AcDbEntity
8
1
62
256
6
ByLayer
370
18
48
1
60
1
100
AcDbLine
10
-53.164379
20
3.500002
30
0
11
-54.085946
21
3.499998
31
0
39
0
210
0
220
0
230
1
0
LINE
5
10F
100
AcDbEntity
8
1
62
256
6
ByLayer
370
18
48
1
60
1
100
AcDbLine
10
-54.085946
20
3.499998
30
0
11
-53.625163
21
7
31
0
39
0
210
0
220
0
230
1
0
LINE
5
111
100
AcDbEntity
8
1
62
256
6
ByLayer
370
18
48
1
60
1
100
AcDbLine
10
-53.625163
20
-7
30
0
11
-54.085946
21
-3.500002
31
0
39
0
210
0
220
0
230
1
0
LINE
5
112
100
AcDbEntity
8
1
62
256
6
ByLayer
370
18
48
1
60
1
100
AcDbLine
10
-54.085946
20
-3.500002
30
0
11
-53.164379
21
-3.499998
31
0
39
0
210
0
220
0
230
1
0
LINE
5
113
100
AcDbEntity
8
1
62
256
6
ByLayer
370
18
48
1
60
1
100
AcDbLine
10
-53.164379
20
-3.499998
30
0
11
-53.625163
21
-7
31
0
39
0
210
0
220
0
230
1
0
LINE
5
117
100
AcDbEntity
8
1
62
256
6
ByLayer
370
18
48
1
60
1
100
AcDbLine
10
149.083343
20
6.35
30
0
11
149.544126
21
2.850002
31
0
39
0
210
0
220
0
230
1
0
LINE
5
118
100
AcDbEntity
8
1
62
256
6
ByLayer
370
18
48
1
60
1
100
AcDbLine
10
149.544126
20
2.850002
30
0
11
148.622559
21
2.849998
31
0
39
0
210
0
220
0
230
1
0
LINE
5
119
100
AcDbEntity
8
1
62
256
6
ByLayer
370
18
48
1
60
1
100
AcDbLine
10
148.622559
20
2.849998
30
0
11
149.083343
21
6.35
31
0
39
0
210
0
220
0
230
1
0
LINE
5
11B
100
AcDbEntity
8
1
62
256
6
ByLayer
370
18
48
1
60
1
100
AcDbLine
10
149.083343
20
-6.35
30
0
11
148.622559
21
-2.850002
31
0
39
0
210
0
220
0
230
1
0
LINE
5
11C
100
AcDbEntity
8
1
62
256
6
ByLayer
370
18
48
1
60
1
100
AcDbLine
10
148.622559
20
-2.850002
30
0
11
149.544126
21
-2.849998
31
0
39
0
210
0
220
0
230
1
0
LINE
5
11D
100
AcDbEntity
8
1
62
256
6
ByLayer
370
18
48
1
60
1
100
AcDbLine
10
149.544126
20
-2.849998
30
0
11
149.083343
21
-6.35
31
0
39
0
210
0
220
0
230
1
0
MTEXT
5
107
100
AcDbEntity
8
SK6
62
256
6
ByLayer
370
13
48
1
60
0
100
AcDbMText
10
19.203273
20
38.890328
30
0
210
0
220
0
230
1
1
\W0.7067;860.1-1270-115A1-PM P1BM
40
3.5
41
0
44
1.084337
50
0
71
7
72
5
7
iso_b_vert
0
MTEXT
5
10B
100
AcDbEntity
8
SK2
62
256
6
ByLayer
370
18
48
1
60
0
100
AcDbMText
10
-55.189796
20
20.409024
30
0
210
0
220
0
230
1
1
%%c
40
3.5
41
0
44
1.084337
50
90
71
7
72
5
7
iso_b_vert
0
MTEXT
5
10C
100
AcDbEntity
8
SK2
62
256
6
ByLayer
370
18
48
1
60
0
100
AcDbMText
10
-55.189796
20
25.63168
30
0
210
0
220
0
230
1
1
\W0.7145;14,000
40
3.5
41
0
44
1.084337
50
90
71
7
72
5
7
iso_b_vert
0
MTEXT
5
115
100
AcDbEntity
8
2
62
256
6
ByLayer
370
18
48
1
60
0
100
AcDbMText
10
147.518709
20
18.35211
30
0
210
0
220
0
230
1
1
%%c
40
3.5
41
0
44
1.084337
50
90
71
7
72
5
7
iso_b_vert
0
MTEXT
5
116
100
AcDbEntity
8
2
62
256
6
ByLayer
370
18
48
1
60
0
100
AcDbMText
10
147.518709
20
23.574766
30
0
210
0
220
0
230
1
1
\W0.6930;12,700
40
3.5
41
0
44
1.084337
50
90
71
7
72
5
7
iso_b_vert
0
HATCH
5
110
100
AcDbEntity
8
SK2
62
256
6
ByLayer
370
13
48
1
60
0
100
AcDbHatch
10
0
20
0
30
0
210
0
220
0
230
1
2
ANSI31
70
0
71
0
91
1
92
5
93
3
72
1
10
-53.6251625675374
20
7
11
-53.1643788259847
21
3.50000169255318
72
1
10
-53.1643788259847
20
3.50000169255318
11
-54.0859463090902
21
3.49999830744682
72
1
10
-54.0859463090902
20
3.49999830744682
11
-53.6251625675374
21
7
97
0
75
0
76
1
52
0
41
0.0062
77
0
78
1
53
45
43
0
44
0
45
-0.0139193969876572
46
0.0139193969876572
79
0
47
0
98
1
10
0
20
0
0
HATCH
5
114
100
AcDbEntity
8
SK2
62
256
6
ByLayer
370
13
48
1
60
0
100
AcDbHatch
10
0
20
0
30
0
210
0
220
0
230
1
2
ANSI31
70
0
71
0
91
1
92
5
93
3
72
1
10
-53.6251625675374
20
-7
11
-54.0859463090902
21
-3.50000169255318
72
1
10
-54.0859463090902
20
-3.50000169255318
11
-53.1643788259847
21
-3.49999830744682
72
1
10
-53.1643788259847
20
-3.49999830744682
11
-53.6251625675374
21
-7
97
0
75
0
76
1
52
0
41
0.0062
77
0
78
1
53
45
43
0
44
0
45
-0.0139193969876572
46
0.0139193969876572
79
0
47
0
98
1
10
0
20
0
0
HATCH
5
11A
100
AcDbEntity
8
2
62
256
6
ByLayer
370
13
48
1
60
0
100
AcDbHatch
10
0
20
0
30
0
210
0
220
0
230
1
2
ANSI31
70
0
71
0
91
1
92
5
93
3
72
1
10
149.083342615295
20
6.34999999999999
11
149.544126356848
21
2.85000169255318
72
1
10
149.544126356848
20
2.85000169255318
11
148.622558873742
21
2.84999830744681
72
1
10
148.622558873742
20
2.84999830744681
11
149.083342615295
21
6.34999999999999
97
0
75
0
76
1
52
0
41
0.0062
77
0
78
1
53
45
43
0
44
0
45
-0.0139193969876572
46
0.0139193969876572
79
0
47
0
98
1
10
0
20
0
0
HATCH
5
11E
100
AcDbEntity
8
2
62
256
6
ByLayer
370
13
48
1
60
0
100
AcDbHatch
10
0
20
0
30
0
210
0
220
0
230
1
2
ANSI31
70
0
71
0
91
1
92
5
93
3
72
1
10
149.083342615295
20
-6.34999999999999
11
148.622558873742
21
-2.85000169255318
72
1
10
148.622558873742
20
-2.85000169255318
11
149.544126356848
21
-2.84999830744681
72
1
10
149.544126356848
20
-2.84999830744681
11
149.083342615295
21
-6.34999999999999
97
0
75
0
76
1
52
0
41
0.0062
77
0
78
1
53
45
43
0
44
0
45
-0.0139193969876572
46
0.0139193969876572
79
0
47
0
98
1
10
0
20
0
0
DIMENSION
5
120
100
AcDbEntity
8
2
62
256
6
ByLayer
370
13
48
1
60
0
100
AcDbDimension
2
_U0
10
134.5554
20
-16.563398
30
0
11
67.2777
21
-16.563398
31
0
70
32
71
1
72
1
41
1
210
0
220
0
230
1
3
Standard
100
AcDbAlignedDimension
13
0
23
0
33
0
14
134.5554
24
-6.35
34
0
50
0
100
AcDbRotatedDimension
1001
ACAD
1000
DSTYLE
1002
{
1070
   371
1070
    13
1070
   372
1070
    13
1070
   170
1070
     0
1070
   144
1040
1.0
1070
   277
1070
     2
1070
   278
1070
    44
1070
   146
1040
1.0
1070
   345
1005
16
1070
   347
1005
16
1070
   346
1005
16
1070
   344
1005
0
1070
   343
1005
0
1070
   172
1070
     1
1070
    76
1070
     0
1070
    75
1070
     0
1070
   282
1070
     0
1070
   281
1070
     0
1070
    71
1070
     0
1070
    74
1070
     0
1070
   279
1070
     0
1070
   173
1070
     1
1070
   340
1005
108
1070
   271
1070
     2
1070
   272
1070
     2
1070
    77
1070
     1
1070
    73
1070
     1
1070
   171
1070
     3
1070
   274
1070
     4
1070
   177
1070
    35
1070
   176
1070
    35
1070
   178
1070
    35
1070
    48
1040
-0.1
1070
    41
1040
3.5
1070
   147
1040
1.75
1070
    42
1040
1.5875
1070
    44
1040
2.0
1070
   140
1040
3.5
1002
}
1001
ACAD_DSTYLE_DIM_LINETYPE
1070
   380
1005
16
1001
ACAD_DSTYLE_DIM_EXT1_LINETYPE
1070
   381
1005
16
1001
ACAD_DSTYLE_DIM_EXT2_LINETYPE
1070
   382
1005
16
0
DIMENSION
5
139
100
AcDbEntity
8
SK2
62
256
6
ByLayer
370
13
48
1
60
0
100
AcDbDimension
2
_U1
10
137
20
-35.692985
30
0
11
46
21
-35.692985
31
0
70
32
71
1
72
1
41
1
210
0
220
0
230
1
3
Standard
100
AcDbAlignedDimension
13
-45
23
-7
33
0
14
137
24
0
34
0
50
0
100
AcDbRotatedDimension
1001
ACAD
1000
DSTYLE
1002
{
1070
   371
1070
    13
1070
   372
1070
    13
1070
   170
1070
     0
1070
   144
1040
1.0
1070
   277
1070
     2
1070
   278
1070
    44
1070
   146
1040
1.0
1070
   345
1005
16
1070
   347
1005
16
1070
   346
1005
16
1070
   344
1005
0
1070
   343
1005
0
1070
   172
1070
     1
1070
    76
1070
     0
1070
    75
1070
     0
1070
   282
1070
     0
1070
   281
1070
     0
1070
    71
1070
     0
1070
    74
1070
     0
1070
   279
1070
     0
1070
   173
1070
     1
1070
   340
1005
108
1070
   271
1070
     2
1070
   272
1070
     2
1070
    77
1070
     1
1070
    73
1070
     1
1070
   171
1070
     3
1070
   274
1070
     4
1070
   177
1070
    35
1070
   176
1070
    35
1070
   178
1070
    35
1070
    48
1040
-0.1
1070
    41
1040
3.5
1070
   147
1040
1.75
1070
    42
1040
1.5875
1070
    44
1040
2.0
1070
   140
1040
3.5
1002
}
1001
ACAD_DSTYLE_DIM_LINETYPE
1070
   380
1005
16
1001
ACAD_DSTYLE_DIM_EXT1_LINETYPE
1070
   381
1005
16
1001
ACAD_DSTYLE_DIM_EXT2_LINETYPE
1070
   382
1005
16
0
DIMENSION
5
151
100
AcDbEntity
8
SK2
62
256
6
ByLayer
370
13
48
1
60
0
100
AcDbDimension
2
_U2
10
137
20
17.959119
30
0
11
84.98
21
17.959119
31
0
70
32
71
1
72
1
41
1
210
0
220
0
230
1
3
Standard
100
AcDbAlignedDimension
13
32.96
23
6.35
33
0
14
137
24
0
34
0
50
0
100
AcDbRotatedDimension
1001
ACAD
1000
DSTYLE
1002
{
1070
   371
1070
    13
1070
   372
1070
    13
1070
   170
1070
     0
1070
   144
1040
1.0
1070
   277
1070
     2
1070
   278
1070
    44
1070
   146
1040
1.0
1070
   345
1005
16
1070
   347
1005
16
1070
   346
1005
16
1070
   344
1005
0
1070
   343
1005
0
1070
   172
1070
     1
1070
    76
1070
     0
1070
    75
1070
     0
1070
   282
1070
     0
1070
   281
1070
     0
1070
    71
1070
     0
1070
    74
1070
     0
1070
   279
1070
     0
1070
   173
1070
     1
1070
   340
1005
108
1070
   271
1070
     2
1070
   272
1070
     2
1070
    77
1070
     1
1070
    73
1070
     1
1070
   171
1070
     3
1070
   274
1070
     4
1070
   177
1070
    35
1070
   176
1070
    35
1070
   178
1070
    35
1070
    48
1040
-0.1
1070
    41
1040
3.5
1070
   147
1040
1.75
1070
    42
1040
1.5875
1070
    44
1040
2.0
1070
   140
1040
3.5
1002
}
1001
ACAD_DSTYLE_DIM_LINETYPE
1070
   380
1005
16
1001
ACAD_DSTYLE_DIM_EXT1_LINETYPE
1070
   381
1005
16
1001
ACAD_DSTYLE_DIM_EXT2_LINETYPE
1070
   382
1005
16
0
DIMENSION
5
169
100
AcDbEntity
8
SK2
62
256
6
ByLayer
370
13
48
1
60
0
100
AcDbDimension
2
_U3
10
134.5554
20
-19.152503
30
0
11
154.666667
21
-19.152503
31
0
70
32
71
1
72
1
41
1
210
0
220
0
230
1
3
Standard
100
AcDbAlignedDimension
13
137
23
0
33
0
14
134.5554
24
-6.35
34
0
50
0
100
AcDbRotatedDimension
1001
ACAD
1000
DSTYLE
1002
{
1070
   371
1070
    13
1070
   372
1070
    13
1070
   170
1070
     0
1070
   144
1040
1.0
1070
   277
1070
     2
1070
   278
1070
    44
1070
   146
1040
1.0
1070
   345
1005
16
1070
   347
1005
16
1070
   346
1005
16
1070
   344
1005
0
1070
   343
1005
0
1070
   172
1070
     1
1070
    76
1070
     0
1070
    75
1070
     0
1070
   282
1070
     0
1070
   281
1070
     0
1070
    71
1070
     0
1070
    74
1070
     0
1070
   279
1070
     0
1070
   173
1070
     1
1070
   340
1005
108
1070
   271
1070
     2
1070
   272
1070
     2
1070
    77
1070
     1
1070
    73
1070
     1
1070
   171
1070
     3
1070
   274
1070
     4
1070
   177
1070
    35
1070
   176
1070
    35
1070
   178
1070
    35
1070
    48
1040
-0.1
1070
    41
1040
3.5
1070
   147
1040
1.75
1070
    42
1040
1.5875
1070
    44
1040
2.0
1070
   140
1040
3.5
1002
}
1001
ACAD_DSTYLE_DIM_LINETYPE
1070
   380
1005
16
1001
ACAD_DSTYLE_DIM_EXT1_LINETYPE
1070
   381
1005
16
1001
ACAD_DSTYLE_DIM_EXT2_LINETYPE
1070
   382
1005
16
0
DIMENSION
5
183
100
AcDbEntity
8
SK2
62
256
6
ByLayer
370
13
48
1
60
0
100
AcDbDimension
2
_U4
10
134.5554
20
-25.343428
30
0
11
44.7777
21
-25.343428
31
0
70
32
71
1
72
1
41
1
210
0
220
0
230
1
3
Standard
100
AcDbAlignedDimension
13
-45
23
-7
33
0
14
134.5554
24
-6.35
34
0
50
0
100
AcDbRotatedDimension
1001
ACAD
1000
DSTYLE
1002
{
1070
   371
1070
    13
1070
   372
1070
    13
1070
   170
1070
     0
1070
   144
1040
1.0
1070
   277
1070
     2
1070
   278
1070
    44
1070
   146
1040
1.0
1070
   345
1005
16
1070
   347
1005
16
1070
   346
1005
16
1070
   344
1005
0
1070
   343
1005
0
1070
   172
1070
     1
1070
    76
1070
     0
1070
    75
1070
     0
1070
   282
1070
     0
1070
   281
1070
     0
1070
    71
1070
     0
1070
    74
1070
     0
1070
   279
1070
     0
1070
   173
1070
     1
1070
   340
1005
108
1070
   271
1070
     2
1070
   272
1070
     2
1070
    77
1070
     1
1070
    73
1070
     1
1070
   171
1070
     3
1070
   274
1070
     4
1070
   177
1070
    35
1070
   176
1070
    35
1070
   178
1070
    35
1070
    48
1040
-0.1
1070
    41
1040
3.5
1070
   147
1040
1.75
1070
    42
1040
1.5875
1070
    44
1040
2.0
1070
   140
1040
3.5
1002
}
1001
ACAD_DSTYLE_DIM_LINETYPE
1070
   380
1005
16
1001
ACAD_DSTYLE_DIM_EXT1_LINETYPE
1070
   381
1005
16
1001
ACAD_DSTYLE_DIM_EXT2_LINETYPE
1070
   382
1005
16
0
ENDSEC
0
SECTION
2
OBJECTS
0
DICTIONARY
5
20b
330
0
100
AcDbDictionary
280
0
281
1
3
ACAD_GROUP
350
20c
3
ACAD_MLINESTYLE
350
20d
0
DICTIONARY
5
20c
330
0
100
AcDbDictionary
280
0
281
1
0
DICTIONARY
5
20d
330
0
100
AcDbDictionary
280
0
281
1
3
Standard
350
18
0
MLINESTYLE
5
18
330
20d
100
AcDbMlineStyle
2
Standard
70
0
3

62
256
51
90
52
90
71
2
49
-0.5
62
256
6
ByLayer
49
0.5
62
256
6
ByLayer
0
RASTERVARIABLES
5
1f9
330

100
AcDbRasterVariables
90
0
70
1
71
1
72
1
0
ENDSEC
0
EOF
