0
SECTION
2
HEADER
9
$ACADVER
1
AC1015
9
$DWGCODEPAGE
3
ANSI_1252
9
$HANDSEED
5
1ff
9
$ANGBASE
50
0
9
$ANGDIR
70
0
9
$ATTMODE
70
1
9
$AUNITS
70
0
9
$AUPREC
70
0
9
$CECOLOR
62
256
9
$CELTSCALE
40
1
9
$CELTYPE
6
ByLayer
9
$CELWEIGHT
370
18
9
$CLAYER
8
0
9
$CMLJUST
70
0
9
$CMLSCALE
40
1
9
$CMLSTYLE
2
Standard
9
$DIMSTYLE
2
Standard
9
$TEXTSIZE
40
0.2
9
$TEXTSTYLE
7
Standard
9
$LUNITS
70
2
9
$LUPREC
70
4
9
$EXTNAMES
290
1
9
$INSUNITS
70
4
9
$LTSCALE
40
1
9
$LWDISPLAY
290
1
9
$PDMODE
70
0
9
$PDSIZE
40
0
9
$PLINEGEN
70
0
0
ENDSEC
0
SECTION
2
CLASSES
0
CLASS
1
RASTERVARIABLES
2
AcDbRasterVariables
3
ISM
90
0
280
0
281
0
0
ENDSEC
0
SECTION
2
TABLES
0
TABLE
2
VPORT
5
1f5
100
AcDbSymbolTable
0
VPORT
5
1
100
AcDbSymbolTableRecord
100
AcDbViewportTableRecord
2
*Active
70
0
10
0
20
0
11
1
21
1
12
-1
22
1
13
0
23
0
14
0.5
24
0.5
15
10
25
10
16
0
26
0
36
1
17
0
27
0
37
0
0
ENDTAB
0
TABLE
2
LTYPE
5
1f6
100
AcDbSymbolTable
0
LTYPE
5
14
100
AcDbSymbolTableRecord
100
AcDbLinetypeTableRecord
70
0
2
ByBlock
3

72
65
73
0
40
0
0
LTYPE
5
15
100
AcDbSymbolTableRecord
100
AcDbLinetypeTableRecord
70
0
2
ByLayer
3

72
65
73
0
40
0
0
LTYPE
5
16
100
AcDbSymbolTableRecord
100
AcDbLinetypeTableRecord
70
0
2
Continuous
3
Solid line
72
65
73
0
40
0
0
LTYPE
5
6E
100
AcDbSymbolTableRecord
100
AcDbLinetypeTableRecord
70
0
2
CENTER
3
____ _ ____ _ ____ _ ____
72
65
73
4
40
47.5
49
22
74
0
49
-8.5
74
0
49
8.5
74
0
49
-8.5
74
0
0
LTYPE
5
6F
100
AcDbSymbolTableRecord
100
AcDbLinetypeTableRecord
70
0
2
DASHED
3
__ __ __ __ __ __ __ __ __
72
65
73
2
40
25.72
49
12.86
74
0
49
-12.86
74
0
0
ENDTAB
0
TABLE
2
LAYER
5
1f7
100
AcDbSymbolTable
0
LAYER
5
10
100
AcDbSymbolTableRecord
100
AcDbLayerTableRecord
2
0
70
0
62
7
6
Continuous
290
1
370
-3
390
0
0
LAYER
5
71
100
AcDbSymbolTableRecord
100
AcDbLayerTableRecord
2
80
70
0
62
-6
6
Continuous
290
1
370
-3
390
0
0
LAYER
5
73
100
AcDbSymbolTableRecord
100
AcDbLayerTableRecord
2
81
70
0
62
-3
6
Continuous
290
1
370
-3
390
0
0
LAYER
5
75
100
AcDbSymbolTableRecord
100
AcDbLayerTableRecord
2
1
70
0
62
4
6
Continuous
290
1
370
-3
390
0
0
LAYER
5
86
100
AcDbSymbolTableRecord
100
AcDbLayerTableRecord
2
4
70
0
62
-2
6
CENTER
290
1
370
-3
390
0
0
LAYER
5
9D
100
AcDbSymbolTableRecord
100
AcDbLayerTableRecord
2
2
70
0
62
7
6
Continuous
290
1
370
-3
390
0
0
LAYER
5
10A
100
AcDbSymbolTableRecord
100
AcDbLayerTableRecord
2
Defpoints
70
0
62
7
6
Continuous
290
0
370
-3
390
0
0
LAYER
5
1e1
100
AcDbSymbolTableRecord
100
AcDbLayerTableRecord
2
SK1
70
0
62
4
6
Continuous
290
1
370
-3
390
0
0
LAYER
5
1e2
100
AcDbSymbolTableRecord
100
AcDbLayerTableRecord
2
SK4
70
0
62
2
6
CENTER
290
1
370
-3
390
0
0
LAYER
5
1e3
100
AcDbSymbolTableRecord
100
AcDbLayerTableRecord
2
SK2
70
0
62
7
6
Continuous
290
1
370
-3
390
0
0
LAYER
5
1e4
100
AcDbSymbolTableRecord
100
AcDbLayerTableRecord
2
SK6
70
0
62
5
6
Continuous
290
1
370
-3
390
0
0
ENDTAB
0
TABLE
2
STYLE
5
1f8
100
AcDbSymbolTable
0
STYLE
5
11
100
AcDbSymbolTableRecord
100
AcDbTextStyleTableRecord
2
Standard
3
txt
70
0
71
0
40
0
41
1
42
0
50
0
0
STYLE
5
EF
100
AcDbSymbolTableRecord
100
AcDbTextStyleTableRecord
2
iso_b_vert
3
simplex.shx
70
0
71
0
40
0
41
1
42
0
50
0
0
STYLE
5
F0
100
AcDbSymbolTableRecord
100
AcDbTextStyleTableRecord
2
DWGDirectTextStyle
3
simplex
70
0
71
0
40
0
41
1
42
0
50
0
0
ENDTAB
0
TABLE
2
DIMSTYLE
5
1f9
100
AcDbSymbolTable
100
AcDbDimStyleTable
0
DIMSTYLE
105
27
100
AcDbSymbolTableRecord
100
AcDbDimStyleTableRecord
2
Standard
70
0
3
<>
41
0.18
42
0.0625
44
0.18
140
0.18
147
0.09
73
0
74
0
77
1
271
2
275
0
278
52
280
0
340
11
0
ENDTAB
0
TABLE
2
VIEW
5
1fa
100
AcDbSymbolTable
0
ENDTAB
0
TABLE
2
UCS
5
1fb
100
AcDbSymbolTable
0
ENDTAB
0
TABLE
2
APPID
5
1fc
100
AcDbSymbolTable
0
APPID
5
12
100
AcDbSymbolTableRecord
100
AcDbRegAppTableRecord
2
ACAD
70
0
0
APPID
5
106
100
AcDbSymbolTableRecord
100
AcDbRegAppTableRecord
2
ACAD_DSTYLE_DIMBREAK
70
0
0
APPID
5
1A0
100
AcDbSymbolTableRecord
100
AcDbRegAppTableRecord
2
ACAD_DSTYLE_DIM_LINETYPE
70
0
0
APPID
5
1A1
100
AcDbSymbolTableRecord
100
AcDbRegAppTableRecord
2
ACAD_DSTYLE_DIM_EXT1_LINETYPE
70
0
0
APPID
5
1A2
100
AcDbSymbolTableRecord
100
AcDbRegAppTableRecord
2
ACAD_DSTYLE_DIM_EXT2_LINETYPE
70
0
0
APPID
5
1DD
100
AcDbSymbolTableRecord
100
AcDbRegAppTableRecord
2
ACAD_MLEADERVER
70
0
0
ENDTAB
0
TABLE
2
BLOCK_RECORD
5
1fd
100
AcDbSymbolTable
0
BLOCK_RECORD
5
1F
100
AcDbSymbolTableRecord
100
AcDbBlockTableRecord
2
*Model_Space
340
0
70
0
0
BLOCK_RECORD
5
1B
100
AcDbSymbolTableRecord
100
AcDbBlockTableRecord
2
*Paper_Space
340
0
70
0
0
BLOCK_RECORD
5
23
100
AcDbSymbolTableRecord
100
AcDbBlockTableRecord
2
*Paper_Space0
340
0
70
0
0
BLOCK_RECORD
5
10B
100
AcDbSymbolTableRecord
100
AcDbBlockTableRecord
2
*D1
340
0
70
0
0
BLOCK_RECORD
5
117
100
AcDbSymbolTableRecord
100
AcDbBlockTableRecord
2
_U0
340
0
70
0
0
BLOCK_RECORD
5
123
100
AcDbSymbolTableRecord
100
AcDbBlockTableRecord
2
*D3
340
0
70
0
0
BLOCK_RECORD
5
12F
100
AcDbSymbolTableRecord
100
AcDbBlockTableRecord
2
_U1
340
0
70
0
0
BLOCK_RECORD
5
13B
100
AcDbSymbolTableRecord
100
AcDbBlockTableRecord
2
*D5
340
0
70
0
0
BLOCK_RECORD
5
147
100
AcDbSymbolTableRecord
100
AcDbBlockTableRecord
2
_U2
340
0
70
0
0
BLOCK_RECORD
5
153
100
AcDbSymbolTableRecord
100
AcDbBlockTableRecord
2
*D7
340
0
70
0
0
BLOCK_RECORD
5
161
100
AcDbSymbolTableRecord
100
AcDbBlockTableRecord
2
_U3
340
0
70
0
0
BLOCK_RECORD
5
16D
100
AcDbSymbolTableRecord
100
AcDbBlockTableRecord
2
*D9
340
0
70
0
0
BLOCK_RECORD
5
179
100
AcDbSymbolTableRecord
100
AcDbBlockTableRecord
2
_U4
340
0
70
0
0
ENDTAB
0
ENDSEC
0
SECTION
2
BLOCKS
0
BLOCK
5
20
100
AcDbEntity
8
0
100
AcDbBlockBegin
2
*Model_Space
70
0
10
0
20
0
30
0
3
*Model_Space
0
ENDBLK
5
21
100
AcDbEntity
8
0
100
AcDbBlockEnd
0
BLOCK
5
1C
100
AcDbEntity
8
0
100
AcDbBlockBegin
2
*Paper_Space
70
0
10
0
20
0
30
0
3
*Paper_Space
0
ENDBLK
5
1D
100
AcDbEntity
8
0
100
AcDbBlockEnd
0
BLOCK
5
24
100
AcDbEntity
8
0
100
AcDbBlockBegin
2
*Paper_Space0
70
0
10
0
20
0
30
0
3
*Paper_Space0
0
ENDBLK
5
25
100
AcDbEntity
8
0
100
AcDbBlockEnd
0
BLOCK
5
10C
100
AcDbEntity
8
0
100
AcDbBlockBegin
2
*D1
70
1
10
0
20
0
30
0
3
*D1
0
LINE
5
10E
100
AcDbEntity
8
0
62
256
6
ByLayer
370
-2
48
1
60
0
100
AcDbLine
10
0
20
-1.5875
30
0
11
0
21
-18.563398
31
0
39
0
210
0
220
0
230
1
0
LINE
5
10F
100
AcDbEntity
8
0
62
256
6
ByLayer
370
-2
48
1
60
0
100
AcDbLine
10
59.5554
20
-7.9375
30
0
11
59.5554
21
-18.563398
31
0
39
0
210
0
220
0
230
1
0
LINE
5
110
100
AcDbEntity
8
0
62
256
6
ByLayer
370
-2
48
1
60
0
100
AcDbLine
10
3.5
20
-16.563398
30
0
11
56.0554
21
-16.563398
31
0
39
0
210
0
220
0
230
1
0
SOLID
5
111
100
AcDbEntity
8
0
62
256
6
ByLayer
370
-1
48
1
60
0
100
AcDbTrace
10
3.5
20
-15.980065
30
0
11
3.5
21
-17.146732
31
0
12
0
22
-16.563398
32
0
13
0
23
-16.563398
33
0
39
0
210
0
220
0
230
1
0
SOLID
5
112
100
AcDbEntity
8
0
62
256
6
ByLayer
370
-1
48
1
60
0
100
AcDbTrace
10
56.0554
20
-17.146732
30
0
11
56.0554
21
-15.980065
31
0
12
59.5554
22
-16.563398
32
0
13
59.5554
23
-16.563398
33
0
39
0
210
0
220
0
230
1
0
MTEXT
5
113
100
AcDbEntity
8
0
62
256
6
ByLayer
370
18
48
1
60
0
100
AcDbMText
10
29.7777
20
-9.563398
30
0
210
0
220
0
230
1
1
\A1;59.56
40
3.5
41
0
44
1
50
0
71
5
72
5
7
iso_b_vert
0
POINT
5
114
100
AcDbEntity
8
Defpoints
62
0
6
ByLayer
370
-1
48
1
60
0
100
AcDbPoint
10
0
20
0
30
0
39
0
210
0
220
0
230
1
50
360
0
POINT
5
115
100
AcDbEntity
8
Defpoints
62
0
6
ByLayer
370
-1
48
1
60
0
100
AcDbPoint
10
59.5554
20
-6.35
30
0
39
0
210
0
220
0
230
1
50
360
0
POINT
5
116
100
AcDbEntity
8
Defpoints
62
0
6
ByLayer
370
-1
48
1
60
0
100
AcDbPoint
10
59.5554
20
-16.563398
30
0
39
0
210
0
220
0
230
1
50
360
0
ENDBLK
5
10D
100
AcDbEntity
8
0
100
AcDbBlockEnd
0
BLOCK
5
11E
100
AcDbEntity
8
0
100
AcDbBlockBegin
2
_U0
70
0
10
0
20
0
30
0
3
_U0
0
MTEXT
5
118
100
AcDbEntity
8
2
62
256
6
ByLayer
370
13
48
1
60
0
100
AcDbMText
10
24.640401
20
-15.530765
30
0
210
0
220
0
230
1
1
\W0.7317;59,56
40
3.5
41
0
44
1.084337
50
0
71
7
72
5
7
iso_b_vert
0
LINE
5
119
100
AcDbEntity
8
2
62
256
6
ByLayer
370
13
48
1
60
0
100
AcDbLine
10
0
20
-1.5875
30
0
11
0
21
-18.563398
31
0
39
0
210
0
220
0
230
1
0
LINE
5
11A
100
AcDbEntity
8
2
62
256
6
ByLayer
370
13
48
1
60
0
100
AcDbLine
10
59.5554
20
-7.9375
30
0
11
59.5554
21
-18.563398
31
0
39
0
210
0
220
0
230
1
0
LINE
5
11B
100
AcDbEntity
8
2
62
256
6
ByLayer
370
13
48
1
60
0
100
AcDbLine
10
0
20
-16.563398
30
0
11
59.5554
21
-16.563398
31
0
39
0
210
0
220
0
230
1
0
SOLID
5
11C
100
AcDbEntity
8
2
62
256
6
ByLayer
370
18
48
1
60
0
100
AcDbTrace
10
0
20
-16.563398
30
0
11
3.499998
21
-16.102615
31
0
12
3.500002
22
-17.024182
32
0
13
3.500002
23
-17.024182
33
0
39
0
210
0
220
0
230
1
0
SOLID
5
11D
100
AcDbEntity
8
2
62
256
6
ByLayer
370
18
48
1
60
0
100
AcDbTrace
10
59.5554
20
-16.563398
30
0
11
56.055402
21
-17.024182
31
0
12
56.055398
22
-16.102615
32
0
13
56.055398
23
-16.102615
33
0
39
0
210
0
220
0
230
1
0
ENDBLK
5
11F
100
AcDbEntity
8
0
100
AcDbBlockEnd
0
BLOCK
5
124
100
AcDbEntity
8
0
100
AcDbBlockBegin
2
*D3
70
1
10
0
20
0
30
0
3
*D3
0
LINE
5
126
100
AcDbEntity
8
0
62
256
6
ByLayer
370
-2
48
1
60
0
100
AcDbLine
10
-45
20
-8.5875
30
0
11
-45
21
-37.692985
31
0
39
0
210
0
220
0
230
1
0
LINE
5
127
100
AcDbEntity
8
0
62
256
6
ByLayer
370
-2
48
1
60
0
100
AcDbLine
10
62
20
-1.5875
30
0
11
62
21
-37.692985
31
0
39
0
210
0
220
0
230
1
0
LINE
5
128
100
AcDbEntity
8
0
62
256
6
ByLayer
370
-2
48
1
60
0
100
AcDbLine
10
-41.5
20
-35.692985
30
0
11
58.5
21
-35.692985
31
0
39
0
210
0
220
0
230
1
0
SOLID
5
129
100
AcDbEntity
8
0
62
256
6
ByLayer
370
-1
48
1
60
0
100
AcDbTrace
10
-41.5
20
-35.109652
30
0
11
-41.5
21
-36.276319
31
0
12
-45
22
-35.692985
32
0
13
-45
23
-35.692985
33
0
39
0
210
0
220
0
230
1
0
SOLID
5
12A
100
AcDbEntity
8
0
62
256
6
ByLayer
370
-1
48
1
60
0
100
AcDbTrace
10
58.5
20
-36.276319
30
0
11
58.5
21
-35.109652
31
0
12
62
22
-35.692985
32
0
13
62
23
-35.692985
33
0
39
0
210
0
220
0
230
1
0
MTEXT
5
12B
100
AcDbEntity
8
0
62
256
6
ByLayer
370
18
48
1
60
0
100
AcDbMText
10
8.5
20
-28.692985
30
0
210
0
220
0
230
1
1
\A1;107.00
40
3.5
41
0
44
1
50
0
71
5
72
5
7
iso_b_vert
0
POINT
5
12C
100
AcDbEntity
8
Defpoints
62
0
6
ByLayer
370
-1
48
1
60
0
100
AcDbPoint
10
-45
20
-7
30
0
39
0
210
0
220
0
230
1
50
360
0
POINT
5
12D
100
AcDbEntity
8
Defpoints
62
0
6
ByLayer
370
-1
48
1
60
0
100
AcDbPoint
10
62
20
0
30
0
39
0
210
0
220
0
230
1
50
360
0
POINT
5
12E
100
AcDbEntity
8
Defpoints
62
0
6
ByLayer
370
-1
48
1
60
0
100
AcDbPoint
10
62
20
-35.692985
30
0
39
0
210
0
220
0
230
1
50
360
0
ENDBLK
5
125
100
AcDbEntity
8
0
100
AcDbBlockEnd
0
BLOCK
5
136
100
AcDbEntity
8
0
100
AcDbBlockBegin
2
_U1
70
0
10
0
20
0
30
0
3
_U1
0
MTEXT
5
130
100
AcDbEntity
8
SK2
62
256
6
ByLayer
370
13
48
1
60
0
100
AcDbMText
10
2.492401
20
-34.660352
30
0
210
0
220
0
230
1
1
\W0.6930;107,00
40
3.5
41
0
44
1.084337
50
0
71
7
72
5
7
iso_b_vert
0
LINE
5
131
100
AcDbEntity
8
SK2
62
256
6
ByLayer
370
13
48
1
60
0
100
AcDbLine
10
-45
20
-8.5875
30
0
11
-45
21
-37.692985
31
0
39
0
210
0
220
0
230
1
0
LINE
5
132
100
AcDbEntity
8
SK2
62
256
6
ByLayer
370
13
48
1
60
0
100
AcDbLine
10
62
20
-1.5875
30
0
11
62
21
-37.692985
31
0
39
0
210
0
220
0
230
1
0
LINE
5
133
100
AcDbEntity
8
SK2
62
256
6
ByLayer
370
13
48
1
60
0
100
AcDbLine
10
-45
20
-35.692985
30
0
11
62
21
-35.692985
31
0
39
0
210
0
220
0
230
1
0
SOLID
5
134
100
AcDbEntity
8
SK2
62
256
6
ByLayer
370
18
48
1
60
0
100
AcDbTrace
10
-45
20
-35.692985
30
0
11
-41.500002
21
-35.232202
31
0
12
-41.499998
22
-36.153769
32
0
13
-41.499998
23
-36.153769
33
0
39
0
210
0
220
0
230
1
0
SOLID
5
135
100
AcDbEntity
8
SK2
62
256
6
ByLayer
370
18
48
1
60
0
100
AcDbTrace
10
62
20
-35.692985
30
0
11
58.500002
21
-36.153769
31
0
12
58.499998
22
-35.232202
32
0
13
58.499998
23
-35.232202
33
0
39
0
210
0
220
0
230
1
0
ENDBLK
5
137
100
AcDbEntity
8
0
100
AcDbBlockEnd
0
BLOCK
5
13C
100
AcDbEntity
8
0
100
AcDbBlockBegin
2
*D5
70
1
10
0
20
0
30
0
3
*D5
0
LINE
5
13E
100
AcDbEntity
8
0
62
256
6
ByLayer
370
-2
48
1
60
0
100
AcDbLine
10
21.46
20
7.9375
30
0
11
21.46
21
19.959119
31
0
39
0
210
0
220
0
230
1
0
LINE
5
13F
100
AcDbEntity
8
0
62
256
6
ByLayer
370
-2
48
1
60
0
100
AcDbLine
10
62
20
1.5875
30
0
11
62
21
19.959119
31
0
39
0
210
0
220
0
230
1
0
LINE
5
140
100
AcDbEntity
8
0
62
256
6
ByLayer
370
-2
48
1
60
0
100
AcDbLine
10
24.96
20
17.959119
30
0
11
58.5
21
17.959119
31
0
39
0
210
0
220
0
230
1
0
SOLID
5
141
100
AcDbEntity
8
0
62
256
6
ByLayer
370
-1
48
1
60
0
100
AcDbTrace
10
24.96
20
18.542453
30
0
11
24.96
21
17.375786
31
0
12
21.46
22
17.959119
32
0
13
21.46
23
17.959119
33
0
39
0
210
0
220
0
230
1
0
SOLID
5
142
100
AcDbEntity
8
0
62
256
6
ByLayer
370
-1
48
1
60
0
100
AcDbTrace
10
58.5
20
17.375786
30
0
11
58.5
21
18.542453
31
0
12
62
22
17.959119
32
0
13
62
23
17.959119
33
0
39
0
210
0
220
0
230
1
0
MTEXT
5
143
100
AcDbEntity
8
0
62
256
6
ByLayer
370
18
48
1
60
0
100
AcDbMText
10
41.73
20
24.959119
30
0
210
0
220
0
230
1
1
\A1;40.54
40
3.5
41
0
44
1
50
0
71
5
72
5
7
iso_b_vert
0
POINT
5
144
100
AcDbEntity
8
Defpoints
62
0
6
ByLayer
370
-1
48
1
60
0
100
AcDbPoint
10
21.46
20
6.35
30
0
39
0
210
0
220
0
230
1
50
360
0
POINT
5
145
100
AcDbEntity
8
Defpoints
62
0
6
ByLayer
370
-1
48
1
60
0
100
AcDbPoint
10
62
20
0
30
0
39
0
210
0
220
0
230
1
50
360
0
POINT
5
146
100
AcDbEntity
8
Defpoints
62
0
6
ByLayer
370
-1
48
1
60
0
100
AcDbPoint
10
62
20
17.959119
30
0
39
0
210
0
220
0
230
1
50
360
0
ENDBLK
5
13D
100
AcDbEntity
8
0
100
AcDbBlockEnd
0
BLOCK
5
14E
100
AcDbEntity
8
0
100
AcDbBlockBegin
2
_U2
70
0
10
0
20
0
30
0
3
_U2
0
MTEXT
5
148
100
AcDbEntity
8
SK2
62
256
6
ByLayer
370
13
48
1
60
0
100
AcDbMText
10
36.224168
20
18.991753
30
0
210
0
220
0
230
1
1
\W0.7756;40,54
40
3.5
41
0
44
1.084337
50
0
71
7
72
5
7
iso_b_vert
0
LINE
5
149
100
AcDbEntity
8
SK2
62
256
6
ByLayer
370
13
48
1
60
0
100
AcDbLine
10
21.46
20
7.9375
30
0
11
21.46
21
19.959119
31
0
39
0
210
0
220
0
230
1
0
LINE
5
14A
100
AcDbEntity
8
SK2
62
256
6
ByLayer
370
13
48
1
60
0
100
AcDbLine
10
62
20
1.5875
30
0
11
62
21
19.959119
31
0
39
0
210
0
220
0
230
1
0
LINE
5
14B
100
AcDbEntity
8
SK2
62
256
6
ByLayer
370
13
48
1
60
0
100
AcDbLine
10
21.46
20
17.959119
30
0
11
62
21
17.959119
31
0
39
0
210
0
220
0
230
1
0
SOLID
5
14C
100
AcDbEntity
8
SK2
62
256
6
ByLayer
370
18
48
1
60
0
100
AcDbTrace
10
21.46
20
17.959119
30
0
11
24.959998
21
18.419903
31
0
12
24.960002
22
17.498335
32
0
13
24.960002
23
17.498335
33
0
39
0
210
0
220
0
230
1
0
SOLID
5
14D
100
AcDbEntity
8
SK2
62
256
6
ByLayer
370
18
48
1
60
0
100
AcDbTrace
10
62
20
17.959119
30
0
11
58.500002
21
17.498335
31
0
12
58.499998
22
18.419903
32
0
13
58.499998
23
18.419903
33
0
39
0
210
0
220
0
230
1
0
ENDBLK
5
14F
100
AcDbEntity
8
0
100
AcDbBlockEnd
0
BLOCK
5
154
100
AcDbEntity
8
0
100
AcDbBlockBegin
2
*D7
70
1
10
0
20
0
30
0
3
*D7
0
LINE
5
156
100
AcDbEntity
8
0
62
256
6
ByLayer
370
-2
48
1
60
0
100
AcDbLine
10
62
20
-1.5875
30
0
11
62
21
-21.152503
31
0
39
0
210
0
220
0
230
1
0
LINE
5
157
100
AcDbEntity
8
0
62
256
6
ByLayer
370
-2
48
1
60
0
100
AcDbLine
10
59.5554
20
-7.9375
30
0
11
59.5554
21
-21.152503
31
0
39
0
210
0
220
0
230
1
0
LINE
5
158
100
AcDbEntity
8
0
62
256
6
ByLayer
370
-2
48
1
60
0
100
AcDbLine
10
62
20
-19.152503
30
0
11
90.333333
21
-19.152503
31
0
39
0
210
0
220
0
230
1
0
LINE
5
159
100
AcDbEntity
8
0
62
256
6
ByLayer
370
-2
48
1
60
0
100
AcDbLine
10
65.5
20
-19.152503
30
0
11
69
21
-19.152503
31
0
39
0
210
0
220
0
230
1
0
LINE
5
15A
100
AcDbEntity
8
0
62
256
6
ByLayer
370
-2
48
1
60
0
100
AcDbLine
10
56.0554
20
-19.152503
30
0
11
52.5554
21
-19.152503
31
0
39
0
210
0
220
0
230
1
0
SOLID
5
15B
100
AcDbEntity
8
0
62
256
6
ByLayer
370
-1
48
1
60
0
100
AcDbTrace
10
65.5
20
-18.56917
30
0
11
65.5
21
-19.735837
31
0
12
62
22
-19.152503
32
0
13
62
23
-19.152503
33
0
39
0
210
0
220
0
230
1
0
SOLID
5
15C
100
AcDbEntity
8
0
62
256
6
ByLayer
370
-1
48
1
60
0
100
AcDbTrace
10
56.0554
20
-19.735837
30
0
11
56.0554
21
-18.56917
31
0
12
59.5554
22
-19.152503
32
0
13
59.5554
23
-19.152503
33
0
39
0
210
0
220
0
230
1
0
MTEXT
5
15D
100
AcDbEntity
8
0
62
256
6
ByLayer
370
18
48
1
60
0
100
AcDbMText
10
79.666667
20
-12.152503
30
0
210
0
220
0
230
1
1
\A1;2.44
40
3.5
41
0
44
1
50
0
71
5
72
5
7
iso_b_vert
0
POINT
5
15E
100
AcDbEntity
8
Defpoints
62
0
6
ByLayer
370
-1
48
1
60
0
100
AcDbPoint
10
62
20
0
30
0
39
0
210
0
220
0
230
1
50
360
0
POINT
5
15F
100
AcDbEntity
8
Defpoints
62
0
6
ByLayer
370
-1
48
1
60
0
100
AcDbPoint
10
59.5554
20
-6.35
30
0
39
0
210
0
220
0
230
1
50
360
0
POINT
5
160
100
AcDbEntity
8
Defpoints
62
0
6
ByLayer
370
-1
48
1
60
0
100
AcDbPoint
10
59.5554
20
-19.152503
30
0
39
0
210
0
220
0
230
1
50
360
0
ENDBLK
5
155
100
AcDbEntity
8
0
100
AcDbBlockEnd
0
BLOCK
5
168
100
AcDbEntity
8
0
100
AcDbBlockBegin
2
_U3
70
0
10
0
20
0
30
0
3
_U3
0
MTEXT
5
162
100
AcDbEntity
8
SK2
62
256
6
ByLayer
370
13
48
1
60
0
100
AcDbMText
10
67.783326
20
-18.11987
30
0
210
0
220
0
230
1
1
\W0.7721;2,44
40
3.5
41
0
44
1.084337
50
0
71
7
72
5
7
iso_b_vert
0
LINE
5
163
100
AcDbEntity
8
SK2
62
256
6
ByLayer
370
13
48
1
60
0
100
AcDbLine
10
62
20
-1.5875
30
0
11
62
21
-21.152503
31
0
39
0
210
0
220
0
230
1
0
LINE
5
164
100
AcDbEntity
8
SK2
62
256
6
ByLayer
370
13
48
1
60
0
100
AcDbLine
10
59.5554
20
-7.9375
30
0
11
59.5554
21
-21.152503
31
0
39
0
210
0
220
0
230
1
0
LINE
5
165
100
AcDbEntity
8
SK2
62
256
6
ByLayer
370
13
48
1
60
0
100
AcDbLine
10
50.8054
20
-19.152503
30
0
11
76.365024
21
-19.152503
31
0
39
0
210
0
220
0
230
1
0
SOLID
5
166
100
AcDbEntity
8
SK2
62
256
6
ByLayer
370
18
48
1
60
0
100
AcDbTrace
10
62
20
-19.152503
30
0
11
65.499998
21
-18.691719
31
0
12
65.500002
22
-19.613287
32
0
13
65.500002
23
-19.613287
33
0
39
0
210
0
220
0
230
1
0
SOLID
5
167
100
AcDbEntity
8
SK2
62
256
6
ByLayer
370
18
48
1
60
0
100
AcDbTrace
10
59.5554
20
-19.152503
30
0
11
56.055402
21
-19.613287
31
0
12
56.055398
22
-18.691719
32
0
13
56.055398
23
-18.691719
33
0
39
0
210
0
220
0
230
1
0
ENDBLK
5
169
100
AcDbEntity
8
0
100
AcDbBlockEnd
0
BLOCK
5
16E
100
AcDbEntity
8
0
100
AcDbBlockBegin
2
*D9
70
1
10
0
20
0
30
0
3
*D9
0
LINE
5
170
100
AcDbEntity
8
0
62
256
6
ByLayer
370
-2
48
1
60
0
100
AcDbLine
10
-45
20
-8.5875
30
0
11
-45
21
-27.343428
31
0
39
0
210
0
220
0
230
1
0
LINE
5
171
100
AcDbEntity
8
0
62
256
6
ByLayer
370
-2
48
1
60
0
100
AcDbLine
10
59.5554
20
-7.9375
30
0
11
59.5554
21
-27.343428
31
0
39
0
210
0
220
0
230
1
0
LINE
5
172
100
AcDbEntity
8
0
62
256
6
ByLayer
370
-2
48
1
60
0
100
AcDbLine
10
-41.5
20
-25.343428
30
0
11
56.0554
21
-25.343428
31
0
39
0
210
0
220
0
230
1
0
SOLID
5
173
100
AcDbEntity
8
0
62
256
6
ByLayer
370
-1
48
1
60
0
100
AcDbTrace
10
-41.5
20
-24.760095
30
0
11
-41.5
21
-25.926762
31
0
12
-45
22
-25.343428
32
0
13
-45
23
-25.343428
33
0
39
0
210
0
220
0
230
1
0
SOLID
5
174
100
AcDbEntity
8
0
62
256
6
ByLayer
370
-1
48
1
60
0
100
AcDbTrace
10
56.0554
20
-25.926762
30
0
11
56.0554
21
-24.760095
31
0
12
59.5554
22
-25.343428
32
0
13
59.5554
23
-25.343428
33
0
39
0
210
0
220
0
230
1
0
MTEXT
5
175
100
AcDbEntity
8
0
62
256
6
ByLayer
370
18
48
1
60
0
100
AcDbMText
10
7.2777
20
-18.343428
30
0
210
0
220
0
230
1
1
\A1;104.56
40
3.5
41
0
44
1
50
0
71
5
72
5
7
iso_b_vert
0
POINT
5
176
100
AcDbEntity
8
Defpoints
62
0
6
ByLayer
370
-1
48
1
60
0
100
AcDbPoint
10
-45
20
-7
30
0
39
0
210
0
220
0
230
1
50
360
0
POINT
5
177
100
AcDbEntity
8
Defpoints
62
0
6
ByLayer
370
-1
48
1
60
0
100
AcDbPoint
10
59.5554
20
-6.35
30
0
39
0
210
0
220
0
230
1
50
360
0
POINT
5
178
100
AcDbEntity
8
Defpoints
62
0
6
ByLayer
370
-1
48
1
60
0
100
AcDbPoint
10
59.5554
20
-25.343428
30
0
39
0
210
0
220
0
230
1
50
360
0
ENDBLK
5
16F
100
AcDbEntity
8
0
100
AcDbBlockEnd
0
BLOCK
5
180
100
AcDbEntity
8
0
100
AcDbBlockBegin
2
_U4
70
0
10
0
20
0
30
0
3
_U4
0
MTEXT
5
17A
100
AcDbEntity
8
SK2
62
256
6
ByLayer
370
13
48
1
60
0
100
AcDbMText
10
1.085835
20
-24.310795
30
0
210
0
220
0
230
1
1
\W0.7145;104,56
40
3.5
41
0
44
1.084337
50
0
71
7
72
5
7
iso_b_vert
0
LINE
5
17B
100
AcDbEntity
8
SK2
62
256
6
ByLayer
370
13
48
1
60
0
100
AcDbLine
10
-45
20
-8.5875
30
0
11
-45
21
-27.343428
31
0
39
0
210
0
220
0
230
1
0
LINE
5
17C
100
AcDbEntity
8
SK2
62
256
6
ByLayer
370
13
48
1
60
0
100
AcDbLine
10
59.5554
20
-7.9375
30
0
11
59.5554
21
-27.343428
31
0
39
0
210
0
220
0
230
1
0
LINE
5
17D
100
AcDbEntity
8
SK2
62
256
6
ByLayer
370
13
48
1
60
0
100
AcDbLine
10
-45
20
-25.343428
30
0
11
59.5554
21
-25.343428
31
0
39
0
210
0
220
0
230
1
0
SOLID
5
17E
100
AcDbEntity
8
SK2
62
256
6
ByLayer
370
18
48
1
60
0
100
AcDbTrace
10
-45
20
-25.343428
30
0
11
-41.500002
21
-24.882645
31
0
12
-41.499998
22
-25.804212
32
0
13
-41.499998
23
-25.804212
33
0
39
0
210
0
220
0
230
1
0
SOLID
5
17F
100
AcDbEntity
8
SK2
62
256
6
ByLayer
370
18
48
1
60
0
100
AcDbTrace
10
59.5554
20
-25.343428
30
0
11
56.055402
21
-25.804212
31
0
12
56.055398
22
-24.882645
32
0
13
56.055398
23
-24.882645
33
0
39
0
210
0
220
0
230
1
0
ENDBLK
5
181
100
AcDbEntity
8
0
100
AcDbBlockEnd
0
ENDSEC
0
SECTION
2
ENTITIES
0
ARC
5
A6
100
AcDbEntity
8
1
62
256
6
ByLayer
370
18
48
1
60
0
100
AcDbCircle
39
0
10
1.412913
20
7.095345
30
0
40
0.849999999999998
210
0
220
0
230
1
100
AcDbArc
50
213.785496
51
270.103132
0
ARC
5
A7
100
AcDbEntity
8
1
62
256
6
ByLayer
370
18
48
1
60
0
100
AcDbCircle
39
0
10
1.412913
20
-7.095345
30
0
40
0.849999999999998
210
0
220
0
230
1
100
AcDbArc
50
89.896868
51
146.214504
0
ARC
5
A8
100
AcDbEntity
8
1
62
256
6
ByLayer
370
18
48
1
60
0
100
AcDbCircle
39
0
10
0
20
-6.15
30
0
40
0.849999999999998
210
0
220
0
230
1
100
AcDbArc
50
270
51
326.214504
0
ARC
5
A9
100
AcDbEntity
8
1
62
256
6
ByLayer
370
18
48
1
60
0
100
AcDbCircle
39
0
10
0
20
6.15
30
0
40
0.849999999999998
210
0
220
0
230
1
100
AcDbArc
50
33.785496
51
90
0
ELLIPSE
5
AA
100
AcDbEntity
8
1
62
256
6
ByLayer
370
13
48
1
60
0
100
AcDbEllipse
10
106.194174
20
41.339538
30
0
11
-59.8999999999999
21
7.33539205939603E-15
31
0
210
0
220
0
230
1
40
0.99863
41
0.699390983150978
42
0.728020495080443
0
ELLIPSE
5
AB
100
AcDbEntity
8
1
62
256
6
ByLayer
370
13
48
1
60
0
100
AcDbEllipse
10
17.07957
20
-69.37908
30
0
11
39.2216138992295
21
62.7713482658496
31
0
210
0
220
0
230
1
40
0.779107
41
0.821732775698765
42
0.855918089794409
0
ELLIPSE
5
AC
100
AcDbEntity
8
1
62
256
6
ByLayer
370
13
48
1
60
0
100
AcDbEllipse
10
5.432838
20
0.347462
30
0
11
-0.142644528653951
21
-0.26391767361261
31
0
210
0
220
0
230
1
40
0.406616
41
-1.30200971090988
42
-0.975150807523153
0
ELLIPSE
5
AD
100
AcDbEntity
8
1
62
256
6
ByLayer
370
13
48
1
60
0
100
AcDbEllipse
10
19.294803
20
70.763232
30
0
11
-39.2216138992293
21
62.7713482658497
31
0
210
0
220
0
230
1
40
0.779107
41
2.36466545893002
42
2.46564170060851
0
ELLIPSE
5
AE
100
AcDbEntity
8
1
62
256
6
ByLayer
370
13
48
1
60
0
100
AcDbEllipse
10
5.763917
20
0.171858
30
0
11
0.139988711097259
21
0.265335939452853
31
0
210
0
220
0
230
1
40
0.014123
41
-2.63311897038776
42
-1.59363012081549
0
ELLIPSE
5
AF
100
AcDbEntity
8
1
62
256
6
ByLayer
370
18
48
1
60
0
100
AcDbEllipse
10
5.762633
20
7.101509
30
0
11
-1
21
1.22460635382238E-16
31
0
210
0
220
0
230
1
40
0.999998
41
1.02645640468889
42
1.57616092701248
0
ELLIPSE
5
B0
100
AcDbEntity
8
1
62
256
6
ByLayer
370
18
48
1
60
0
100
AcDbEllipse
10
5.762633
20
-7.101509
30
0
11
-1
21
1.22460635382238E-16
31
0
210
0
220
0
230
1
40
0.999998
41
-1.56864895262491
42
-1.02795903858466
0
POINT
5
70
100
AcDbEntity
8
80
62
256
6
ByLayer
370
18
48
1
60
0
100
AcDbPoint
10
0
20
0
30
0
39
0
210
0
220
0
230
1
50
360
0
POINT
5
72
100
AcDbEntity
8
81
62
256
6
ByLayer
370
18
48
1
60
0
100
AcDbPoint
10
62
20
0
30
0
39
0
210
0
220
0
230
1
50
360
0
POINT
5
74
100
AcDbEntity
8
1
62
256
6
ByLayer
370
18
48
1
60
1
100
AcDbPoint
10
59.5554
20
-6.35
30
0
39
0
210
0
220
0
230
1
50
360
0
POINT
5
76
100
AcDbEntity
8
1
62
256
6
ByLayer
370
18
48
1
60
1
100
AcDbPoint
10
-45
20
-7
30
0
39
0
210
0
220
0
230
1
50
360
0
POINT
5
77
100
AcDbEntity
8
1
62
256
6
ByLayer
370
18
48
1
60
1
100
AcDbPoint
10
21.46
20
6.35
30
0
39
0
210
0
220
0
230
1
50
360
0
POINT
5
78
100
AcDbEntity
8
1
62
256
6
ByLayer
370
18
48
1
60
1
100
AcDbPoint
10
59.5554
20
-6.35
30
0
39
0
210
0
220
0
230
1
50
360
0
POINT
5
79
100
AcDbEntity
8
1
62
256
6
ByLayer
370
18
48
1
60
1
100
AcDbPoint
10
-45
20
-7
30
0
39
0
210
0
220
0
230
1
50
360
0
POINT
5
7A
100
AcDbEntity
8
1
62
256
6
ByLayer
370
18
48
1
60
1
100
AcDbPoint
10
59.5554
20
-6.35
30
0
39
0
210
0
220
0
230
1
50
360
0
SPLINE
5
B1
100
AcDbEntity
8
1
62
256
6
ByLayer
370
18
48
1
60
0
100
AcDbSpline
70
4
71
3
72
34
73
30
40
0
40
0
40
0
40
0
40
0.1505882505378
40
0.1505882505378
40
0.193058838010911
40
0.193058838010911
40
0.235529425484021
40
0.235529425484021
40
0.320470600430241
40
0.320470600430241
40
0.362941187903351
40
0.362941187903351
40
0.405411775376461
40
0.405411775376461
40
0.490352950322681
40
0.490352950322681
40
0.575294125268901
40
0.575294125268901
40
0.617764712742011
40
0.617764712742011
40
0.660235300215121
40
0.660235300215121
40
0.830117650107561
40
0.830117650107561
40
0.872588237580671
40
0.872588237580671
40
0.91505882505378
40
0.91505882505378
40
1
40
1
40
1
40
1
41
1
10
5.23471168181473
20
6.25222211556812
30
0
41
1
10
5.23453876332709
20
6.25079700602799
30
0
41
1
10
5.23437013418257
20
6.19599360959921
30
0
41
1
10
5.23418170511297
20
6.05645914385866
30
0
41
1
10
5.23414193818158
20
6.02134377964916
30
0
41
1
10
5.23406742502766
20
5.94338613419063
30
0
41
1
10
5.23403252051767
20
5.90044206277966
30
0
41
1
10
5.23393527118284
20
5.75992984093159
30
0
41
1
10
5.23388042613516
20
5.65072846327701
30
0
41
1
10
5.23381407854805
20
5.46362625674601
30
0
41
1
10
5.23379460693701
20
5.3973638085553
30
0
41
1
10
5.23376100018197
20
5.25690133663127
30
0
41
1
10
5.23374683325829
20
5.18241068019111
30
0
41
1
10
5.23371265926784
20
4.94956330599399
30
0
41
1
10
5.2337008383883
20
4.78167405479698
30
0
41
1
10
5.23369536971236
20
4.42134516890715
30
0
41
1
10
5.23370173308257
20
4.22890431236806
30
0
41
1
10
5.23372134988492
20
3.92148150724594
30
0
41
1
10
5.23372958079776
20
3.81562138930741
30
0
41
1
10
5.23374855630078
20
3.59856596028715
30
0
41
1
10
5.23375923475828
20
3.48802430186095
30
0
41
1
10
5.23381622053296
20
2.92549395520052
30
0
41
1
10
5.23387387468694
20
2.44451992189082
30
0
41
1
10
5.23391925118557
20
1.80364308436714
30
0
41
1
10
5.23392688752779
20
1.67413982889965
30
0
41
1
10
5.23393811524761
20
1.41430988228595
30
0
41
1
10
5.23394172747066
20
1.28370595191956
30
0
41
1
10
5.23394500143573
20
0.889850083439001
30
0
41
1
10
5.23393712452065
20
0.624562513681497
30
0
41
1
10
5.23391485969321
20
0.356517032962841
30
0
0
SPLINE
5
B2
100
AcDbEntity
8
1
62
256
6
ByLayer
370
13
48
1
60
0
100
AcDbSpline
70
4
71
3
72
10
73
6
40
0
40
0
40
0
40
0
40
0.5
40
0.5
40
1
40
1
40
1
40
1
41
1
10
5.76446752958648
20
0.163823752181827
30
0
41
1
10
5.68216898903586
20
0.19279110369061
30
0
41
1
10
5.60143128103465
20
0.221194226585169
30
0
41
1
10
5.44323858368534
20
0.2776173993866
30
0
41
1
10
5.36516524967422
20
0.305868557525429
30
0
41
1
10
5.29149699192044
20
0.333294471163583
30
0
0
SPLINE
5
B3
100
AcDbEntity
8
1
62
256
6
ByLayer
370
18
48
1
60
0
100
AcDbSpline
70
4
71
3
72
12
73
8
40
0
40
0
40
0
40
0
40
0.25
40
0.25
40
0.5
40
0.5
40
1
40
1
40
1
40
1
41
1
10
5.26397575332015
20
0.247405670208622
30
0
41
1
10
5.28384050492403
20
0.210483902207415
30
0
41
1
10
5.30983486846117
20
0.178485929024333
30
0
41
1
10
5.3678706407679
20
0.119347283550468
30
0
41
1
10
5.39988695228391
20
0.0926024608919249
30
0
41
1
10
5.49896555195926
20
0.0188793017531168
30
0
41
1
10
5.56990840019446
20
-0.0229509257810605
30
0
41
1
10
5.6434631309674
20
-0.0608720119288364
30
0
0
SPLINE
5
B4
100
AcDbEntity
8
1
62
256
6
ByLayer
370
18
48
1
60
0
100
AcDbSpline
70
4
71
3
72
8
73
4
40
0
40
0
40
0
40
0
40
1
40
1
40
1
40
1
41
1
10
61.479242330727
20
-1.53710483928788
30
0
41
1
10
61.1580668990544
20
-2.46700170605354
30
0
41
1
10
60.8394765979561
20
-3.39777977148134
30
0
41
1
10
60.5234861959796
20
-4.32944406975588
30
0
0
SPLINE
5
B5
100
AcDbEntity
8
1
62
256
6
ByLayer
370
18
48
1
60
0
100
AcDbSpline
70
4
71
3
72
8
73
4
40
0
40
0
40
0
40
0
40
1
40
1
40
1
40
1
41
1
10
59.7425068347204
20
-6.27725319091115
30
0
41
1
10
59.7148597262875
20
-6.24649815501806
30
0
41
1
10
59.6900347493247
20
-6.20607262164501
30
0
41
1
10
59.6678187852232
20
-6.15604219176103
30
0
0
SPLINE
5
B6
100
AcDbEntity
8
1
62
256
6
ByLayer
370
18
48
1
60
0
100
AcDbSpline
70
4
71
3
72
34
73
30
40
0
40
0
40
0
40
0
40
0.0312500000000009
40
0.0312500000000009
40
0.0625000000000017
40
0.0625000000000017
40
0.0937500000000025
40
0.0937500000000025
40
0.125000000000003
40
0.125000000000003
40
0.187500000000002
40
0.187500000000002
40
0.250000000000002
40
0.250000000000002
40
0.375
40
0.375
40
0.437500000000001
40
0.437500000000001
40
0.500000000000001
40
0.500000000000001
40
0.625000000000002
40
0.625000000000002
40
0.750000000000003
40
0.750000000000003
40
0.812500000000002
40
0.812500000000002
40
0.875000000000002
40
0.875000000000002
40
1
40
1
40
1
40
1
41
1
10
5.85815344465698
20
-5.1544137900033
30
0
41
1
10
5.88912242660189
20
-5.1120911945026
30
0
41
1
10
5.92785230718334
20
-5.07052571605709
30
0
41
1
10
6.01774426829201
20
-4.98971423273417
30
0
41
1
10
6.0679035615008
20
-4.95128824567695
30
0
41
1
10
6.17623821178987
20
-4.8776655684178
30
0
41
1
10
6.23443361507279
20
-4.84247524873382
30
0
41
1
10
6.35739983015151
20
-4.77490702644295
30
0
41
1
10
6.42190750728196
20
-4.74270537880767
30
0
41
1
10
6.61979407075506
20
-4.65152255190333
30
0
41
1
10
6.75868181837131
20
-4.59720997425626
30
0
41
1
10
7.04622940002898
20
-4.49848412185511
30
0
41
1
10
7.19570880608845
20
-4.45394523773996
30
0
41
1
10
7.64870576308368
20
-4.33508791886555
30
0
41
1
10
7.9574925703231
20
-4.27469997535903
30
0
41
1
10
8.42788825548874
20
-4.20635541671197
30
0
41
1
10
8.58592825093606
20
-4.18736583587156
30
0
41
1
10
8.90430493844977
20
-4.1566419015995
30
0
41
1
10
9.06514305103275
20
-4.14489381179342
30
0
41
1
10
9.54629784605964
20
-4.12058321169133
30
0
41
1
10
9.86554175724319
20
-4.11875328065477
30
0
41
1
10
10.5012043723349
20
-4.14182577813136
30
0
41
1
10
10.8176179971714
20
-4.16677470883579
30
0
41
1
10
11.2900810949364
20
-4.2237709001185
30
0
41
1
10
11.4472076176723
20
-4.24603762408887
30
0
41
1
10
11.7607165574921
20
-4.29704656158552
30
0
41
1
10
11.9175187720972
20
-4.32589120861886
30
0
41
1
10
12.380909815729
20
-4.42073315235504
30
0
41
1
10
12.6819937103866
20
-4.49523973257811
30
0
41
1
10
12.9753098297234
20
-4.57895267513817
30
0
0
SPLINE
5
B7
100
AcDbEntity
8
1
62
256
6
ByLayer
370
18
48
1
60
0
100
AcDbSpline
70
4
71
3
72
8
73
4
40
0
40
0
40
0
40
0
40
1
40
1
40
1
40
1
41
1
10
60.3586069488159
20
2.78457942316569
30
0
41
1
10
60.3576227417994
20
2.80025078675328
30
0
41
1
10
60.3569580093061
20
2.81594874919671
30
0
41
1
10
60.3566341719053
20
2.83165334278408
30
0
0
SPLINE
5
B8
100
AcDbEntity
8
1
62
256
6
ByLayer
370
13
48
1
60
0
100
AcDbSpline
70
4
71
3
72
72
73
68
40
0
40
0
40
0
40
0
40
0.0124885794917793
40
0.0242318670453864
40
0.0359751545989942
40
0.0594617297062077
40
0.0712050172598144
40
0.0829483048134218
40
0.106434879920636
40
0.118178167474243
40
0.12992145502785
40
0.153408030135064
40
0.165151317688672
40
0.176894605242279
40
0.200381180349493
40
0.2121244679031
40
0.223867755456707
40
0.247354330563921
40
0.259097618117528
40
0.270840905671135
40
0.294327480778349
40
0.306070768331956
40
0.317814055885564
40
0.341300630992778
40
0.353043918546385
40
0.364787206099992
40
0.388273781207206
40
0.400017068760813
40
0.41176035631442
40
0.435246931421634
40
0.446990218975241
40
0.458733506528849
40
0.482220081636063
40
0.49396336918967
40
0.505706656743277
40
0.529193231850491
40
0.540936519404098
40
0.552679806957706
40
0.57616638206492
40
0.587909669618526
40
0.599652957172134
40
0.623139532279348
40
0.634882819832955
40
0.646626107386562
40
0.670112682493776
40
0.681855970047383
40
0.69359925760099
40
0.717085832708205
40
0.728829120261812
40
0.740572407815419
40
0.764058982922633
40
0.77580227047624
40
0.787545558029847
40
0.811032133137061
40
0.822775420690668
40
0.834518708244275
40
0.85800528335149
40
0.869748570905097
40
0.881491858458704
40
0.904978433565918
40
0.916721721119525
40
0.928465008673132
40
0.951951583780346
40
0.963694871333953
40
0.975438158887561
40
0.998924733994775
40
1
40
1
40
1
40
1
41
1
10
47.4495566009875
20
-2.50822086806446
30
0
41
1
10
47.3470875904752
20
-2.51849177875019
30
0
41
1
10
47.1482564771115
20
-2.53790723871069
30
0
41
1
10
46.8530445250344
20
-2.56523859753838
30
0
41
1
10
46.4676724395235
20
-2.59887242275374
30
0
41
1
10
46.0822546767445
20
-2.62961493825765
30
0
41
1
10
45.6967939061735
20
-2.65743619813796
30
0
41
1
10
45.3114225019873
20
-2.68310644656069
30
0
41
1
10
44.9260053616878
20
-2.70580648991444
30
0
41
1
10
44.540544896253
20
-2.72551403710895
30
0
41
1
10
44.1551736386833
20
-2.74298711816834
30
0
41
1
10
43.7697564699167
20
-2.75743418895803
30
0
41
1
10
43.3842959057198
20
-2.76884810538871
30
0
41
1
10
42.9989243877077
20
-2.77796438686826
30
0
41
1
10
42.6135065939338
20
-2.78402290605109
30
0
41
1
10
42.2280450660063
20
-2.78702498118761
30
0
41
1
10
41.8426728683353
20
-2.78768533018237
30
0
41
1
10
41.4572549570225
20
-2.78528852324212
30
0
41
1
10
41.0717940397544
20
-2.77985876029166
30
0
41
1
10
40.6864224891684
20
-2.77207223614397
30
0
41
1
10
40.3010052312121
20
-2.76126170843028
30
0
41
1
10
39.9155447366917
20
-2.74746020071106
30
0
41
1
10
39.530173507605
20
-2.73130354459596
30
0
41
1
10
39.1447564279626
20
-2.71217804184985
30
0
41
1
10
38.7592959753492
20
-2.69012865558176
30
0
41
1
10
38.3739245796511
20
-2.66574485327257
30
0
41
1
10
37.9885069022626
20
-2.63846960831984
30
0
41
1
10
37.6030454191876
20
-2.60835690814676
30
0
41
1
10
37.2176731977536
20
-2.57595102893453
30
0
41
1
10
36.8322551851259
20
-2.54076219444434
30
0
41
1
10
36.4467941474264
20
-2.50286450948698
30
0
41
1
10
36.0614225072646
20
-2.46274271883692
30
0
41
1
10
35.6760052195045
20
-2.41997689975142
30
0
41
1
10
35.2905447783656
20
-2.37464985710039
30
0
41
1
10
34.9051736192124
20
-2.32718457295053
30
0
41
1
10
34.5197566161846
20
-2.27723330810738
30
0
41
1
10
34.1342962348794
20
-2.22488736006952
30
0
41
1
10
33.7489249406343
20
-2.17050576525779
30
0
41
1
10
33.3635073815423
20
-2.11381504563306
30
0
41
1
10
32.9780459442074
20
-2.05491477752588
30
0
41
1
10
32.5926736635987
20
-1.99409992107508
30
0
41
1
10
32.2072554694473
20
-1.93117666001064
30
0
41
1
10
31.8217942088943
20
-1.86625767300168
30
0
41
1
10
31.4364223900143
20
-1.79956646789566
30
0
41
1
10
31.0510050003518
20
-1.73099026718648
30
0
41
1
10
30.6655445521693
20
-1.66064907034615
30
0
41
1
10
30.2801733970401
20
-1.58869298913669
30
0
41
1
10
29.8947564034107
20
-1.51509020990321
30
0
41
1
10
29.5092960440626
20
-1.43996603598558
30
0
41
1
10
29.1239248322569
20
-1.36339776625167
30
0
41
1
10
28.7385074181889
20
-1.28543531588411
30
0
41
1
10
28.3530460950468
20
-1.20621034395586
30
0
41
1
10
27.9676738315315
20
-1.12572531277291
30
0
41
1
10
27.5822555403469
20
-1.04411027884643
30
0
41
1
10
27.1967941391519
20
-0.961499588146381
30
0
41
1
10
26.8114222227259
20
-0.877823103328382
30
0
41
1
10
26.426004802658
20
-0.793290992230567
30
0
41
1
10
26.0405443985429
20
-0.708042503738511
30
0
41
1
10
25.6551732904845
20
-0.621933909250231
30
0
41
1
10
25.2697563376157
20
-0.535253878279889
30
0
41
1
10
24.8842960185051
20
-0.448144295841757
30
0
41
1
10
24.4989248935069
20
-0.360389824027635
30
0
41
1
10
24.1135076097889
20
-0.272356985847353
30
0
41
1
10
23.7280463749573
20
-0.184191219153831
30
0
41
1
10
23.3426741052503
20
-0.0956015897175746
30
0
41
1
10
23.0447876570134
20
-0.0271402883547296
30
0
41
1
10
22.8432400772994
20
0.0191226510062563
30
0
41
1
10
22.8344167272197
20
0.0211478717927491
30
0
0
SPLINE
5
B9
100
AcDbEntity
8
1
62
256
6
ByLayer
370
18
48
1
60
0
100
AcDbSpline
70
4
71
4
72
10
73
5
40
0
40
0
40
0
40
0
40
0
40
1
40
1
40
1
40
1
40
1
41
1
10
20.551592557008
20
6.09958636322185
30
0
41
1
10
20.2373952099502
20
5.24377589037428
30
0
41
1
10
19.9231978628924
20
4.38796541752671
30
0
41
1
10
19.6090005158347
20
3.53215494467918
30
0
41
1
10
19.2948031687768
20
2.67634447183161
30
0
0
SPLINE
5
BA
100
AcDbEntity
8
1
62
256
6
ByLayer
370
18
48
1
60
0
100
AcDbSpline
70
4
71
3
72
8
73
4
40
0
40
0
40
0
40
0
40
1
40
1
40
1
40
1
41
1
10
59.6947539355998
20
-6.00783874430425
30
0
41
1
10
59.6847311716019
20
-5.97117546886614
30
0
41
1
10
59.6682386556669
20
-5.94603544376449
30
0
41
1
10
59.6487426340669
20
-5.92914415809125
30
0
0
SPLINE
5
BB
100
AcDbEntity
8
1
62
256
6
ByLayer
370
18
48
1
60
0
100
AcDbSpline
70
4
71
3
72
56
73
52
40
0
40
0
40
0
40
0
40
0.0143283051848086
40
0.0143283051848086
40
0.0383690782290816
40
0.0383690782290816
40
0.134532170406174
40
0.134532170406174
40
0.158572943450448
40
0.158572943450448
40
0.182613716494722
40
0.182613716494722
40
0.230695262583269
40
0.230695262583269
40
0.254736035627542
40
0.254736035627542
40
0.278776808671815
40
0.278776808671815
40
0.32685835476036
40
0.32685835476036
40
0.374939900848905
40
0.374939900848905
40
0.398980673893178
40
0.398980673893178
40
0.42302144693745
40
0.42302144693745
40
0.471102993025995
40
0.471102993025995
40
0.495143766070268
40
0.495143766070268
40
0.51918453911454
40
0.51918453911454
40
0.615347631291632
40
0.615347631291632
40
0.663429177380178
40
0.663429177380178
40
0.711510723468724
40
0.711510723468724
40
0.75959226955727
40
0.75959226955727
40
0.807673815645816
40
0.807673815645816
40
0.855755361734362
40
0.855755361734362
40
0.903836907822908
40
0.903836907822908
40
0.951918453911454
40
0.951918453911454
40
0.975959226955727
40
0.975959226955727
40
1
40
1
40
1
40
1
41
1
10
24.5787225331544
20
6.28704143061381
30
0
41
1
10
24.7465088141479
20
6.28731734982762
30
0
41
1
10
24.9143765209048
20
6.28578799159834
30
0
41
1
10
25.3642164922297
20
6.27684882217096
30
0
41
1
10
25.6464950253717
20
6.26614158867275
30
0
41
1
10
27.0552061729961
20
6.18736137486951
30
0
41
1
10
28.1773639851046
20
6.04343050789589
30
0
41
1
10
29.5860153571314
20
5.76786596796907
30
0
41
1
10
29.8681971545735
20
5.70791535850833
30
0
41
1
10
30.4315603279414
20
5.57902486904243
30
0
41
1
10
30.7129206244432
20
5.51004305289999
30
0
41
1
10
31.5566053353785
20
5.29006545569473
30
0
41
1
10
32.1185148802972
20
5.12603068826814
30
0
41
1
10
32.9621251522826
20
4.85560841458658
30
0
41
1
10
33.2434549438327
20
4.76140713980857
30
0
41
1
10
33.806661474823
20
4.56520733314204
30
0
41
1
10
34.0887497517164
20
4.46311206415206
30
0
41
1
10
34.9337420761348
20
4.14671287989898
30
0
41
1
10
35.4958448166037
20
3.92205652971813
30
0
41
1
10
36.6198708261832
20
3.44881827607688
30
0
41
1
10
37.1817712902658
20
3.20019684300817
30
0
41
1
10
38.0262644468498
20
2.81212439713599
30
0
41
1
10
38.3082747537051
20
2.68012407804795
30
0
41
1
10
38.8715500633811
20
2.41229015588311
30
0
41
1
10
39.1528691007273
20
2.27643587287591
30
0
41
1
10
39.9963327471191
20
1.86391565512062
30
0
41
1
10
40.5578985464699
20
1.58213548044276
30
0
41
1
10
41.4009141109282
20
1.15261543276046
30
0
41
1
10
41.6820364289005
20
1.00831222597588
30
0
41
1
10
42.2448061230104
20
0.717989957951147
30
0
41
1
10
42.5266926309975
20
0.571836443250447
30
0
41
1
10
43.9347422258067
20
-0.1600015760622
30
0
41
1
10
45.0558050581535
20
-0.748963255513615
30
0
41
1
10
46.7435762570794
20
-1.61026419427395
30
0
41
1
10
47.3073587299161
20
-1.89398053986653
30
0
41
1
10
48.4314853333285
20
-2.44584028923549
30
0
41
1
10
48.9928046580715
20
-2.71446013337391
30
0
41
1
10
50.1161658507055
20
-3.23321279687869
30
0
41
1
10
50.6786173886711
20
-3.48357803546227
30
0
41
1
10
51.8047852441641
20
-3.96081828888217
30
0
41
1
10
52.3664161383629
20
-4.1868850451925
30
0
41
1
10
53.4890865486287
20
-4.61071817690788
30
0
41
1
10
54.0501453942159
20
-4.80846027247887
30
0
41
1
10
55.1739385868952
20
-5.17259098726618
30
0
41
1
10
55.7376044437246
20
-5.33913429493933
30
0
41
1
10
56.8615282195942
20
-5.63596091322734
30
0
41
1
10
57.4224859839964
20
-5.76642458052282
30
0
41
1
10
58.2640268879444
20
-5.93396037401445
30
0
41
1
10
58.5445556664558
20
-5.98511371545217
30
0
41
1
10
59.1059023489278
20
-6.07782814540687
30
0
41
1
10
59.3865903921032
20
-6.11945088403311
30
0
41
1
10
59.6678187852231
20
-6.15604219176103
30
0
0
SPLINE
5
BC
100
AcDbEntity
8
1
62
256
6
ByLayer
370
18
48
1
60
0
100
AcDbSpline
70
4
71
3
72
8
73
4
40
0
40
0
40
0
40
0
40
1
40
1
40
1
40
1
41
1
10
61.9997848176955
20
0.0987206784689079
30
0
41
1
10
61.8197959103755
20
0.572093496664962
30
0
41
1
10
61.646867448459
20
1.05178106791953
30
0
41
1
10
61.4792423307273
20
1.5371048392872
30
0
0
SPLINE
5
BD
100
AcDbEntity
8
1
62
256
6
ByLayer
370
18
48
1
60
0
100
AcDbSpline
70
4
71
3
72
12
73
8
40
0
40
0
40
0
40
0
40
0.420866065289152
40
0.420866065289152
40
0.841732130578305
40
0.841732130578305
40
1
40
1
40
1
40
1
41
1
10
20.551592557008
20
-6.09958636322193
30
0
41
1
10
20.9637078464469
20
-6.1511987985493
30
0
41
1
10
21.3746444243375
20
-6.1918312132687
30
0
41
1
10
22.1938551906024
20
-6.25185639554076
30
0
41
1
10
22.6022477728549
20
-6.27116630108719
30
0
41
1
10
23.1632544316896
20
-6.28306115969062
30
0
41
1
10
23.3164740062656
20
-6.28480494055896
30
0
41
1
10
23.4696196997952
20
-6.28504651608102
30
0
0
SPLINE
5
BE
100
AcDbEntity
8
1
62
256
6
ByLayer
370
18
48
1
60
0
100
AcDbSpline
70
4
71
3
72
18
73
14
40
0
40
0
40
0
40
0
40
0.421169325482463
40
0.421169325482463
40
0.565876994111847
40
0.565876994111847
40
0.638230828426539
40
0.638230828426539
40
0.710584662741231
40
0.710584662741231
40
0.855292331370616
40
0.855292331370616
40
1
40
1
40
1
40
1
41
1
10
51.2740152617809
20
4.18216474742735
30
0
41
1
10
52.455290444543
20
4.64683699191619
30
0
41
1
10
53.634487614977
20
5.05203920754064
30
0
41
1
10
55.2312096367316
20
5.49534026568051
30
0
41
1
10
55.6403292336514
20
5.60013406771529
30
0
41
1
10
56.2565433054268
20
5.74290914363948
30
0
41
1
10
56.462340087994
20
5.78829211334724
30
0
41
1
10
56.8733864051923
20
5.87371326457856
30
0
41
1
10
57.0788038639983
20
5.91380697944186
30
0
41
1
10
57.6943375160785
20
6.02656913580904
30
0
41
1
10
58.1041444807413
20
6.09142773741056
30
0
41
1
10
58.9232501160738
20
6.20023408316345
30
0
41
1
10
59.3328460237991
20
6.24405624335927
30
0
41
1
10
59.7425068347204
20
6.27725319091115
30
0
0
SPLINE
5
BF
100
AcDbEntity
8
1
62
256
6
ByLayer
370
18
48
1
60
0
100
AcDbSpline
70
4
71
3
72
8
73
4
40
0
40
0
40
0
40
0
40
1
40
1
40
1
40
1
41
1
10
12.3252960827548
20
4.41223550305006
30
0
41
1
10
12.5460666880034
20
4.46244618601716
30
0
41
1
10
12.7627283319378
20
4.51828153727607
30
0
41
1
10
12.9753098297234
20
4.57895267513817
30
0
0
SPLINE
5
C0
100
AcDbEntity
8
1
62
256
6
ByLayer
370
18
48
1
60
0
100
AcDbSpline
70
4
71
3
72
10
73
6
40
0
40
0
40
0
40
0
40
0.498778213798132
40
0.498778213798132
40
1
40
1
40
1
40
1
41
1
10
18.8008923437698
20
1.70231318446574
30
0
41
1
10
18.8957372797077
20
1.83918924507924
30
0
41
1
10
18.9856414922847
20
1.99103767232444
30
0
41
1
10
19.1516811209483
20
2.31823321786473
30
0
41
1
10
19.2277403997204
20
2.49367895719851
30
0
41
1
10
19.2948031687768
20
2.67634447183161
30
0
0
SPLINE
5
C1
100
AcDbEntity
8
1
62
256
6
ByLayer
370
18
48
1
60
0
100
AcDbSpline
70
4
71
3
72
18
73
14
40
0
40
0
40
0
40
0
40
0.25
40
0.25
40
0.375
40
0.375
40
0.5
40
0.5
40
0.75
40
0.75
40
0.875
40
0.875
40
1
40
1
40
1
40
1
41
1
10
59.0677918327295
20
0.63315930860395
30
0
41
1
10
59.0015318449639
20
0.309296311107403
30
0
41
1
10
58.948123554975
20
-0.015242701091239
30
0
41
1
10
58.8873345491547
20
-0.503067654916777
30
0
41
1
10
58.8703066004224
20
-0.66584614053366
30
0
41
1
10
58.8429132034274
20
-0.991753567275168
30
0
41
1
10
58.8325215355192
20
-1.15571390289568
30
0
41
1
10
58.8120797638465
20
-1.64113090921509
30
0
41
1
10
58.8125469233597
20
-1.95548322507767
30
0
41
1
10
58.8337840937222
20
-2.41352130068916
30
0
41
1
10
58.8443024310955
20
-2.56394139302989
30
0
41
1
10
58.8723136522304
20
-2.86019999255197
30
0
41
1
10
58.8898723201465
20
-3.00637798041197
30
0
41
1
10
58.9107708805915
20
-3.14861014077474
30
0
0
SPLINE
5
C2
100
AcDbEntity
8
1
62
256
6
ByLayer
370
18
48
1
60
0
100
AcDbSpline
70
4
71
3
72
8
73
4
40
0
40
0
40
0
40
0
40
1
40
1
40
1
40
1
41
1
10
5.65741692855846
20
-5.46993750435325
30
0
41
1
10
5.52009243067261
20
-5.4353733355367
30
0
41
1
10
5.38276169837485
20
-5.39970874624558
30
0
41
1
10
5.24542536113461
20
-5.36293171069991
30
0
0
SPLINE
5
C3
100
AcDbEntity
8
1
62
256
6
ByLayer
370
18
48
1
60
0
100
AcDbSpline
70
4
71
3
72
8
73
4
40
0
40
0
40
0
40
0
40
1
40
1
40
1
40
1
41
1
10
61.9997848176955
20
-0.0987206784689079
30
0
41
1
10
61.819356160627
20
-0.573250043370365
30
0
41
1
10
61.6464638149985
20
-1.05294970491107
30
0
41
1
10
61.4792423307272
20
-1.53710483928739
30
0
0
SPLINE
5
C4
100
AcDbEntity
8
1
62
256
6
ByLayer
370
18
48
1
60
0
100
AcDbSpline
70
4
71
3
72
16
73
12
40
0
40
0
40
0
40
0
40
0.25
40
0.25
40
0.5
40
0.5
40
0.625
40
0.625
40
0.75
40
0.75
40
1
40
1
40
1
40
1
41
1
10
12.9753098297313
20
4.57895267514044
30
0
41
1
10
13.6050894646891
20
4.75869290396275
30
0
41
1
10
14.2357807436796
20
4.92512855593836
30
0
41
1
10
15.4984574587265
20
5.23258767865406
30
0
41
1
10
16.1304449727419
20
5.37360331387825
30
0
41
1
10
17.0792231762096
20
5.56553254859153
30
0
41
1
10
17.3956174765343
20
5.62622933600153
30
0
41
1
10
18.0286714745875
20
5.74080159786661
30
0
41
1
10
18.3455875951868
20
5.79471731498882
30
0
41
1
10
19.294812044687
20
5.94534313621051
30
0
41
1
10
19.9247706378254
20
6.0309046363339
30
0
41
1
10
20.5515925570081
20
6.09958636322193
30
0
0
SPLINE
5
C5
100
AcDbEntity
8
1
62
256
6
ByLayer
370
18
48
1
60
0
100
AcDbSpline
70
4
71
3
72
20
73
16
40
0
40
0
40
0
40
0
40
0.0591413975319816
40
0.0591413975319816
40
0.118282795063963
40
0.118282795063963
40
0.236565590127927
40
0.236565590127927
40
0.473131180255853
40
0.473131180255853
40
0.70969677038378
40
0.70969677038378
40
0.946262360511707
40
0.946262360511707
40
1
40
1
40
1
40
1
41
1
10
5.24542536115061
20
-5.36293171070042
30
0
41
1
10
5.24047146856756
20
-5.39732163146013
30
0
41
1
10
5.23744193210305
20
-5.43083875153513
30
0
41
1
10
5.23499729699833
20
-5.49610278912616
30
0
41
1
10
5.23559623126562
20
-5.5278488402312
30
0
41
1
10
5.23556935527151
20
-5.6201949277322
30
0
41
1
10
5.23554695641943
20
-5.67809523920607
30
0
41
1
10
5.23546833877754
20
-5.83951499567334
30
0
41
1
10
5.23540120908496
20
-5.93012631026417
30
0
41
1
10
5.23524721186999
20
-6.0785552556554
30
0
41
1
10
5.23516031859702
20
-6.1363697531155
30
0
41
1
10
5.23497520175872
20
-6.21876266318253
30
0
41
1
10
5.23487631804588
20
-6.24323709293427
30
0
41
1
10
5.2347560614806
20
-6.25171111754949
30
0
41
1
10
5.23473383484776
20
-6.25240477386768
30
0
41
1
10
5.23471167863718
20
-6.25222208937092
30
0
0
SPLINE
5
C6
100
AcDbEntity
8
1
62
256
6
ByLayer
370
13
48
1
60
0
100
AcDbSpline
70
4
71
3
72
67
73
63
40
0
40
0
40
0
40
0
40
0.001183010698439
40
0.0267937027318122
40
0.0395990487484987
40
0.0524043947651855
40
0.0780150867985589
40
0.0908204328152455
40
0.103625778831932
40
0.129236470865306
40
0.142041816881992
40
0.154847162898679
40
0.180457854932052
40
0.193263200948739
40
0.206068546965426
40
0.231679238998799
40
0.244484585015486
40
0.257289931032173
40
0.282900623065546
40
0.295705969082232
40
0.308511315098919
40
0.334122007132293
40
0.34692735314898
40
0.359732699165666
40
0.385343391199039
40
0.398148737215726
40
0.410954083232412
40
0.436564775265786
40
0.449370121282473
40
0.462175467299159
40
0.487786159332533
40
0.500591505349219
40
0.513396851365906
40
0.539007543399279
40
0.551812889415966
40
0.564618235432653
40
0.590228927466026
40
0.603034273482713
40
0.615839619499399
40
0.641450311532773
40
0.654255657549459
40
0.667061003566146
40
0.69267169559952
40
0.705477041616206
40
0.718282387632893
40
0.743893079666266
40
0.756698425682953
40
0.76950377169964
40
0.795114463733013
40
0.8079198097497
40
0.820725155766386
40
0.84633584779976
40
0.859141193816447
40
0.871946539833133
40
0.897557231866506
40
0.910362577883193
40
0.92316792389988
40
0.935973269916566
40
0.948778615933253
40
0.96158396194994
40
0.974389307966627
40
1
40
1
40
1
40
1
41
0.999999999999999
10
41.8683173655887
20
-0.0228685126251378
30
0
41
0.999999999999999
10
41.8594150208194
20
-0.0208256261145152
30
0
41
0.999999999999999
10
41.6577885919271
20
0.0254449165121287
30
0
41
0.999999999999999
10
41.3598248154085
20
0.0939109557222367
30
0
41
0.999999999999999
10
40.9744519026978
20
0.182489470456972
30
0
41
0.999999999999999
10
40.5889899979109
20
0.27063323069342
30
0
41
0.999999999999999
10
40.2035743412171
20
0.358642135895366
30
0
41
0.999999999999999
10
39.8182024584672
20
0.446385199847555
30
0
41
0.999999999999999
10
39.4327413790601
20
0.533478898077448
30
0
41
0.999999999999999
10
39.04732605753
20
0.620148568565555
30
0
41
0.999999999999999
10
38.6619537296918
20
0.706255620892734
30
0
41
0.999999999999999
10
38.2764920693285
20
0.791497316429116
30
0
41
0.999999999999999
10
37.8910760232744
20
0.87602405478296
30
0
41
0.999999999999999
10
37.505703099128
20
0.959701472076575
30
0
41
0.999999999999999
10
37.1202409579391
20
1.04230870723089
30
0
41
0.999999999999999
10
36.7348246272311
20
1.12392125797504
30
0
41
0.999999999999999
10
36.3494516432323
20
1.20440980904633
30
0
41
0.999999999999999
10
35.9639896370355
20
1.28363575274204
30
0
41
0.999999999999999
10
35.5785738621084
20
1.36159999975726
30
0
41
0.999999999999999
10
35.1932019336549
20
1.43817886571489
30
0
41
0.999999999999999
10
34.8077409134063
20
1.51331451730062
30
0
41
0.999999999999999
10
34.4223257733219
20
1.58693069411606
30
0
41
0.999999999999999
10
34.0369536682387
20
1.65890483320135
30
0
41
0.999999999999999
10
33.6514921865198
20
1.72926423367875
30
0
41
0.999999999999999
10
33.2660762423328
20
1.79785635536823
30
0
41
0.999999999999999
10
32.8807033252324
20
1.86456522360521
30
0
41
0.999999999999999
10
32.4952411800189
20
1.92950328702719
30
0
41
0.999999999999999
10
32.1098248399045
20
1.99244411555685
30
0
41
0.999999999999999
10
31.7244518339461
20
2.05328073157276
30
0
41
0.999999999999999
10
31.3389897453437
20
2.11220802302285
30
0
41
0.999999999999999
10
30.9535738254677
20
2.16892724252992
30
0
41
0.999999999999999
10
30.5682017828901
20
2.22333897561228
30
0
41
0.999999999999999
10
30.1827407455657
20
2.2757201550607
30
0
41
0.999999999999999
10
29.7973257024709
20
2.32570380986835
30
0
41
0.999999999999999
10
29.4119537379599
20
2.37320173025529
30
0
41
0.999999999999999
10
29.0264923537409
20
2.41856764566527
30
0
41
0.999999999999999
10
28.6410764399471
20
2.46136840462401
30
0
41
0.999999999999999
10
28.2557034787999
20
2.50152380610635
30
0
41
0.999999999999999
10
27.870241286532
20
2.53946283503706
30
0
41
0.999999999999999
10
27.4848249056633
20
2.57468966988899
30
0
41
0.999999999999999
10
27.0994518594718
20
2.60713442207356
30
0
41
0.999999999999999
10
26.7139896840958
20
2.63729726787992
30
0
41
0.999999999999999
10
26.3285736339371
20
2.66462233524129
30
0
41
0.999999999999999
10
25.9432015031085
20
2.6890481863104
30
0
41
0.999999999999999
10
25.5577404719884
20
2.71114730655833
30
0
41
0.999999999999999
10
25.1723255453114
20
2.73031470015715
30
0
41
0.999999999999999
10
24.7869537451551
20
2.74650968815431
30
0
41
0.999999999999999
10
24.4014925011209
20
2.76036181114916
30
0
41
0.999999999999999
10
24.0160766850755
20
2.77121985039873
30
0
41
0.999999999999999
10
23.63070375272
20
2.77905144834381
30
0
41
0.999999999999999
10
23.245241561461
20
2.78454007627016
30
0
41
0.999999999999999
10
22.8598251509306
20
2.78699183733844
30
0
41
0.999999999999999
10
22.4744520473621
20
2.78638359859352
30
0
41
0.999999999999999
10
22.0889897724246
20
2.78344875178817
30
0
41
0.999999999999999
10
21.7035735754073
20
2.77745401394739
30
0
41
0.999999999999999
10
21.318201340948
20
2.76838443087502
30
0
41
0.999999999999999
10
21.0291406071001
20
2.75993420488664
30
0
41
0.999999999999999
10
20.7400801853157
20
2.74991441771016
30
0
41
0.999999999999999
10
20.4510172036196
20
2.73832876727807
30
0
41
0.999999999999999
10
20.1619539407127
20
2.72518910673051
30
0
41
0.999999999999999
10
19.7764930881474
20
2.70553883298814
30
0
41
0.999999999999999
10
19.487466939956
20
2.68861238892851
30
0
41
0.999999999999999
10
19.2948031687769
20
2.67634447183161
30
0
0
SPLINE
5
C7
100
AcDbEntity
8
1
62
256
6
ByLayer
370
18
48
1
60
0
100
AcDbSpline
70
4
71
3
72
16
73
12
40
0
40
0
40
0
40
0
40
0.25
40
0.25
40
0.5
40
0.5
40
0.625
40
0.625
40
0.75
40
0.75
40
1
40
1
40
1
40
1
41
1
10
12.9753098297313
20
-4.57895267514044
30
0
41
1
10
13.6050894646891
20
-4.75869290396275
30
0
41
1
10
14.2357807436796
20
-4.92512855593836
30
0
41
1
10
15.4984574587265
20
-5.23258767865406
30
0
41
1
10
16.1304449727419
20
-5.37360331387825
30
0
41
1
10
17.0792231762096
20
-5.56553254859153
30
0
41
1
10
17.3956174765343
20
-5.62622933600153
30
0
41
1
10
18.0286714745875
20
-5.74080159786661
30
0
41
1
10
18.3455875951868
20
-5.79471731498884
30
0
41
1
10
19.294812044687
20
-5.94534313621051
30
0
41
1
10
19.9247706378254
20
-6.0309046363339
30
0
41
1
10
20.551592557008
20
-6.09958636322193
30
0
0
SPLINE
5
C8
100
AcDbEntity
8
1
62
256
6
ByLayer
370
18
48
1
60
0
100
AcDbSpline
70
4
71
3
72
8
73
4
40
0
40
0
40
0
40
0
40
1
40
1
40
1
40
1
41
1
10
61.4792423307271
20
1.53710483928768
30
0
41
1
10
61.1580682213738
20
2.46699787755227
30
0
41
1
10
60.8394779014114
20
3.39777592838115
30
0
41
1
10
60.5234861959796
20
4.3294440697558
30
0
0
SPLINE
5
C9
100
AcDbEntity
8
1
62
256
6
ByLayer
370
13
48
1
60
0
100
AcDbSpline
70
4
71
3
72
38
73
34
40
0
40
0
40
0
40
0
40
0.16510859135156
40
0.16510859135156
40
0.20638573918945
40
0.20638573918945
40
0.24766288702734
40
0.24766288702734
40
0.330217182703121
40
0.330217182703121
40
0.412771478378901
40
0.412771478378901
40
0.495325774054681
40
0.495325774054681
40
0.536602921892571
40
0.536602921892571
40
0.577880069730461
40
0.577880069730461
40
0.660434365406241
40
0.660434365406241
40
0.701711513244131
40
0.701711513244131
40
0.742988661082021
40
0.742988661082021
40
0.825542956757801
40
0.825542956757801
40
0.908097252433582
40
0.908097252433582
40
0.949374400271472
40
0.949374400271472
40
0.990651548109362
40
0.990651548109362
40
1
40
1
40
1
40
1
41
1
10
5.76446752958645
20
0.163823752181827
30
0
41
1
10
5.76442110263042
20
0.686683092230368
30
0
41
1
10
5.76436166519534
20
1.19596421765144
30
0
41
1
10
5.76428485551983
20
1.81622922795
30
0
41
1
10
5.76426935931693
20
1.93945278755334
30
0
41
1
10
5.76423842172113
20
2.18420587995692
30
0
41
1
10
5.76422293203473
20
2.30611872048715
30
0
41
1
10
5.76417764008778
20
2.66443311034095
30
0
41
1
10
5.76414888253109
20
2.89457097089272
30
0
41
1
10
5.76409637002311
20
3.33787360588107
30
0
41
1
10
5.76407260952391
20
3.5510376982252
30
0
41
1
10
5.76403198665994
20
3.96005894158151
30
0
41
1
10
5.76401513569735
20
4.15628258676219
30
0
41
1
10
5.76399665841453
20
4.43107591326805
30
0
41
1
10
5.76399159919555
20
4.51968152659262
30
0
41
1
10
5.76398378755567
20
4.69088206914532
30
0
41
1
10
5.76398103840759
20
4.77355669251276
30
0
41
1
10
5.76397640263809
20
5.01039606884405
30
0
41
1
10
5.76397809031093
20
5.15415804443506
30
0
41
1
10
5.76398764556717
20
5.34882749215905
30
0
41
1
10
5.76399199954716
20
5.41021104974297
30
0
41
1
10
5.76400299952741
20
5.5258730457368
30
0
41
1
10
5.76400966485866
20
5.58020531939752
30
0
41
1
10
5.76403265825178
20
5.73043122456718
30
0
41
1
10
5.76405204049161
20
5.81438347923293
30
0
41
1
10
5.76409729882516
20
5.95090300115939
30
0
41
1
10
5.76412317928518
20
6.00346835073026
30
0
41
1
10
5.76416552698393
20
6.05837871149612
30
0
41
1
10
5.76418022888365
20
6.07268084295623
30
0
41
1
10
5.7642105499186
20
6.09306490790811
30
0
41
1
10
5.76422612826815
20
6.09909536433722
30
0
41
1
10
5.76424540069024
20
6.10133658233178
30
0
41
1
10
5.76424896832302
20
6.1015362573923
30
0
41
1
10
5.7642525428875
20
6.1015217413111
30
0
0
SPLINE
5
CA
100
AcDbEntity
8
1
62
256
6
ByLayer
370
18
48
1
60
0
100
AcDbSpline
70
4
71
3
72
84
73
80
40
0
40
0
40
0
40
0
40
0.0381250353455747
40
0.0381250353455747
40
0.0762500706911493
40
0.0762500706911493
40
0.0953125883639366
40
0.0953125883639366
40
0.114375106036724
40
0.114375106036724
40
0.152500141382299
40
0.152500141382299
40
0.171562659055086
40
0.171562659055086
40
0.190625176727873
40
0.190625176727873
40
0.228750212073449
40
0.228750212073449
40
0.247812729746236
40
0.247812729746236
40
0.266875247419024
40
0.266875247419024
40
0.305000282764598
40
0.305000282764598
40
0.343125318110173
40
0.343125318110173
40
0.362187835782961
40
0.362187835782961
40
0.381250353455748
40
0.381250353455748
40
0.400312871128536
40
0.400312871128536
40
0.419375388801324
40
0.419375388801324
40
0.4575004241469
40
0.4575004241469
40
0.495625459492475
40
0.495625459492475
40
0.533750494838051
40
0.533750494838051
40
0.552813012510839
40
0.552813012510839
40
0.571875530183627
40
0.571875530183627
40
0.590938047856414
40
0.590938047856414
40
0.610000565529202
40
0.610000565529202
40
0.62906308320199
40
0.62906308320199
40
0.648125600874778
40
0.648125600874778
40
0.667188118547565
40
0.667188118547565
40
0.686250636220353
40
0.686250636220353
40
0.724375671565928
40
0.724375671565928
40
0.762500706911502
40
0.762500706911502
40
0.78156322458429
40
0.78156322458429
40
0.800625742257077
40
0.800625742257077
40
0.838750777602652
40
0.838750777602652
40
0.857813295275439
40
0.857813295275439
40
0.876875812948226
40
0.876875812948226
40
0.915000848293801
40
0.915000848293801
40
0.953125883639376
40
0.953125883639376
40
0.972188401312164
40
0.972188401312164
40
0.991250918984951
40
0.991250918984951
40
1
40
1
40
1
40
1
41
1
10
15.8808982912067
20
3.0591944445859
30
0
41
1
10
16.3326313124989
20
2.86296393378441
30
0
41
1
10
16.7828806883977
20
2.65996258515347
30
0
41
1
10
17.6830999168947
20
2.24366498039126
30
0
41
1
10
18.1330453991667
20
2.03071357843808
30
0
41
1
10
18.8079566604341
20
1.70519046932537
30
0
41
1
10
19.0329070912214
20
1.59561933801737
30
0
41
1
10
19.4832040584012
20
1.37544843793268
30
0
41
1
10
19.7083305778806
20
1.26452600091875
30
0
41
1
10
20.3842485925382
20
0.928928925991983
30
0
41
1
10
20.8358447855178
20
0.702675053516117
30
0
41
1
10
21.5111443145666
20
0.362171836752168
30
0
41
1
10
21.7362508692774
20
0.248761132482485
30
0
41
1
10
22.1861145016274
20
0.0214039218607809
30
0
41
1
10
22.4108829433727
20
-0.0925190612348956
30
0
41
1
10
23.0856444944697
20
-0.433155699497007
30
0
41
1
10
23.5352412430892
20
-0.660436931289354
30
0
41
1
10
24.2108302376863
20
-0.998516534227434
30
0
41
1
10
24.4360844694702
20
-1.11102088657103
30
0
41
1
10
24.8868182641575
20
-1.33544943273589
30
0
41
1
10
25.112373639659
20
-1.44670086030965
30
0
41
1
10
25.7879059703576
20
-1.77721439140791
30
0
41
1
10
26.2376005072441
20
-1.99387382365185
30
0
41
1
10
27.1366257605167
20
-2.4187149770845
30
0
41
1
10
27.5861679877323
20
-2.62649113406604
30
0
41
1
10
28.2604413585975
20
-2.93203019069154
30
0
41
1
10
28.485404582145
20
-3.03221165779254
30
0
41
1
10
28.935884555172
20
-3.22841602695431
30
0
41
1
10
29.161386653239
20
-3.32511840621282
30
0
41
1
10
29.6120231092529
20
-3.51477482700585
30
0
41
1
10
29.8372814532739
20
-3.60754691863497
30
0
41
1
10
30.2872994515323
20
-3.78974338104709
30
0
41
1
10
30.51207312566
20
-3.87911947013288
30
0
41
1
10
31.1866067448092
20
-4.14104939378643
30
0
41
1
10
31.6355928660357
20
-4.30987437625529
30
0
41
1
10
32.5350537579863
20
-4.62333771805902
30
0
41
1
10
32.9850126406125
20
-4.77060805313701
30
0
41
1
10
33.8868272917697
20
-5.04600259614145
30
0
41
1
10
34.3371568503014
20
-5.17404305575838
30
0
41
1
10
35.0116248509283
20
-5.35081916175466
30
0
41
1
10
35.2362901040346
20
-5.40701678840503
30
0
41
1
10
35.6858461771543
20
-5.51290911477341
30
0
41
1
10
35.9105679724024
20
-5.56281867426904
30
0
41
1
10
36.3598980591354
20
-5.65804392635923
30
0
41
1
10
36.5846781048412
20
-5.70299300926428
30
0
41
1
10
37.0345271441217
20
-5.78573794084667
30
0
41
1
10
37.2595113212298
20
-5.8238619384928
30
0
41
1
10
37.7099745826926
20
-5.89398067343166
30
0
41
1
10
37.9356746992297
20
-5.92592739088943
30
0
41
1
10
38.3862778511945
20
-5.98397607819138
30
0
41
1
10
38.6112866496189
20
-6.01008824715251
30
0
41
1
10
39.0613413521812
20
-6.05627587463164
30
0
41
1
10
39.2862332334501
20
-6.07628989997892
30
0
41
1
10
39.735666697228
20
-6.11139667827666
30
0
41
1
10
39.9603015187254
20
-6.12645343015652
30
0
41
1
10
40.6345461079643
20
-6.15875270332751
30
0
41
1
10
41.0840833307769
20
-6.16565728667953
30
0
41
1
10
41.9845299653674
20
-6.1557004954679
30
0
41
1
10
42.435793856424
20
-6.13825663512301
30
0
41
1
10
43.1108753722476
20
-6.09518250847768
30
0
41
1
10
43.3356739209474
20
-6.07807016181371
30
0
41
1
10
43.7853525815626
20
-6.03619738532518
30
0
41
1
10
44.0100644986532
20
-6.01165163550246
30
0
41
1
10
44.6839953785331
20
-5.92893007195528
30
0
41
1
10
45.1334432814314
20
-5.86161368107545
30
0
41
1
10
45.8081406768
20
-5.74246933593545
30
0
41
1
10
46.0332673698955
20
-5.7001153526092
30
0
41
1
10
46.483579836643
20
-5.60981413615301
30
0
41
1
10
46.7089082381199
20
-5.56168209712794
30
0
41
1
10
47.3843528668244
20
-5.40807681680101
30
0
41
1
10
47.8336606594875
20
-5.29315122635842
30
0
41
1
10
48.7323483131669
20
-5.04337872144447
30
0
41
1
10
49.1813459575611
20
-4.90804004474734
30
0
41
1
10
49.8553423142917
20
-4.6912471491261
30
0
41
1
10
50.0799584365798
20
-4.61640325368995
30
0
41
1
10
50.529823463031
20
-4.46183311232298
30
0
41
1
10
50.7550707265404
20
-4.38202630781569
30
0
41
1
10
51.0836382548596
20
-4.26210822835691
30
0
41
1
10
51.1869572849404
20
-4.22394682685749
30
0
41
1
10
51.2902362086484
20
-4.18534510086107
30
0
0
SPLINE
5
CB
100
AcDbEntity
8
1
62
256
6
ByLayer
370
13
48
1
60
0
100
AcDbSpline
70
4
71
3
72
20
73
16
40
0
40
0
40
0
40
0
40
0.103772381620624
40
0.103772381620624
40
0.23949253253014
40
0.23949253253014
40
0.510932834349172
40
0.510932834349172
40
0.782373136168204
40
0.782373136168204
40
0.91809328707772
40
0.91809328707772
40
0.985953362532478
40
0.985953362532478
40
1
40
1
40
1
40
1
41
1
10
5.76425296500918
20
-6.10151903172834
30
0
41
1
10
5.76426503471009
20
-6.10141310036619
30
0
41
1
10
5.76427718257182
20
-6.09886589315016
30
0
41
1
10
5.76430523137418
20
-6.08735261626509
30
0
41
1
10
5.76432117312385
20
-6.07661424472187
30
0
41
1
10
5.76436825035302
20
-6.03198663413025
30
0
41
1
10
5.76439848655741
20
-5.98596948694765
30
0
41
1
10
5.76445410109758
20
-5.86252353596024
30
0
41
1
10
5.76447948641257
20
-5.78509199859624
30
0
41
1
10
5.76451193546023
20
-5.64505600259884
30
0
41
1
10
5.76452181225375
20
-5.59438414249377
30
0
41
1
10
5.76453494803303
20
-5.51223258448232
30
0
41
1
10
5.76453904051675
20
-5.48385591815156
30
0
41
1
10
5.76454359796062
20
-5.44850118764927
30
0
41
1
10
5.76454436613451
20
-5.44239782992886
30
0
41
1
10
5.76454512073937
20
-5.43625428924855
30
0
0
SPLINE
5
CC
100
AcDbEntity
8
1
62
256
6
ByLayer
370
18
48
1
60
0
100
AcDbSpline
70
4
71
3
72
22
73
18
40
0
40
0
40
0
40
0
40
0.107595913631356
40
0.107595913631356
40
0.286076730905084
40
0.286076730905084
40
0.375317139541948
40
0.375317139541948
40
0.464557548178813
40
0.464557548178813
40
0.64303836545254
40
0.64303836545254
40
0.821519182726268
40
0.821519182726268
40
0.910759591363134
40
0.910759591363134
40
1
40
1
40
1
40
1
41
1
10
59.3346485251127
20
0.52777090921461
30
0
41
1
10
59.366870772268
20
0.561093632675608
30
0
41
1
10
59.4020711087393
20
0.60096585421303
30
0
41
1
10
59.5032263782713
20
0.725080033918829
30
0
41
1
10
59.5717544396953
20
0.818274820368998
30
0
41
1
10
59.6805689613841
20
0.98095937440209
30
0
41
1
10
59.717919791717
20
1.03914241638879
30
0
41
1
10
59.7940860441454
20
1.16314308260465
30
0
41
1
10
59.8323256007016
20
1.22801385651084
30
0
41
1
10
59.946761599772
20
1.43109414854393
30
0
41
1
10
60.0230742144801
20
1.57792922868481
30
0
41
1
10
60.1674131547819
20
1.89532785005781
30
0
41
1
10
60.2336288673516
20
2.06065172414873
30
0
41
1
10
60.3093615887425
20
2.32201498376747
30
0
41
1
10
60.3305585312305
20
2.41140691119651
30
0
41
1
10
60.3583617833081
20
2.59650680124071
30
0
41
1
10
60.3645242921056
20
2.69035855640078
30
0
41
1
10
60.3586069488159
20
2.78457942316569
30
0
0
SPLINE
5
CD
100
AcDbEntity
8
1
62
256
6
ByLayer
370
18
48
1
60
0
100
AcDbSpline
70
4
71
1
72
4
73
2
40
0
40
0
40
1
40
1
41
1
10
59.6947539355972
20
-6.00783874430343
30
0
41
1
10
61.050553854467
20
-1.43073492582403
30
0
0
SPLINE
5
CE
100
AcDbEntity
8
1
62
256
6
ByLayer
370
18
48
1
60
0
100
AcDbSpline
70
4
71
3
72
8
73
4
40
0
40
0
40
0
40
0
40
1
40
1
40
1
40
1
41
1
10
5.88401119756881
20
-5.39246509788433
30
0
41
1
10
5.80808017530507
20
-5.41864079835526
30
0
41
1
10
5.73254829907029
20
-5.44446633959507
30
0
41
1
10
5.65741692855897
20
-5.46993750436593
30
0
0
SPLINE
5
CF
100
AcDbEntity
8
1
62
256
6
ByLayer
370
13
48
1
60
0
100
AcDbSpline
70
4
71
3
72
21
73
17
40
0
40
0
40
0
40
0
40
0.0033632478432181
40
0.117765920085594
40
0.174967256206781
40
0.23216859232797
40
0.346571264570345
40
0.403772600691533
40
0.46097393681272
40
0.575376609055096
40
0.632577945176285
40
0.689779281297472
40
0.804181953539848
40
0.861383289661037
40
0.918584625782224
40
1
40
1
40
1
40
1
41
0.999999999999999
10
60.3586069479501
20
2.78457942315794
30
0
41
0.999999999999999
10
60.3529411929655
20
2.78452867194705
30
0
41
0.999999999999999
10
60.1545521159619
20
2.78272047559793
30
0
41
0.999999999999999
10
59.8598256770997
20
2.77842884103231
30
0
41
0.999999999999999
10
59.47445409869
20
2.76975767768136
30
0
41
0.999999999999999
10
59.0889931796174
20
2.758804630768
30
0
41
0.999999999999999
10
58.7035778289502
20
2.74481719088178
30
0
41
0.999999999999999
10
58.318205356208
20
2.72780293331639
30
0
41
0.999999999999999
10
57.9327434656654
20
2.70857094024103
30
0
41
0.999999999999999
10
57.5473271413919
20
2.68634514966297
30
0
41
0.999999999999999
10
57.1619539043126
20
2.66113977276621
30
0
41
0.999999999999999
10
56.7764913722782
20
2.63379300584288
30
0
41
0.999999999999999
10
56.3910747248779
20
2.60350870156524
30
0
41
0.999999999999999
10
56.0057018411758
20
2.57030834191286
30
0
41
0.999999999999999
10
55.6758128375633
20
2.54014312109996
30
0
41
0.999999999999999
10
55.442311880838
20
2.51739666044728
30
0
41
0.999999999999999
10
55.3051744958745
20
2.5035619038776
30
0
0
SPLINE
5
D0
100
AcDbEntity
8
1
62
256
6
ByLayer
370
18
48
1
60
0
100
AcDbSpline
70
4
71
3
72
8
73
4
40
0
40
0
40
0
40
0
40
1
40
1
40
1
40
1
41
1
10
25.6022320443128
20
-6.13231784928155
30
0
41
1
10
24.6243418878636
20
-6.14954214623569
30
0
41
1
10
23.6454836908942
20
-6.106716168041
30
0
41
1
10
22.6598321418011
20
-6.00388841752735
30
0
0
SPLINE
5
D1
100
AcDbEntity
8
1
62
256
6
ByLayer
370
13
48
1
60
0
100
AcDbSpline
70
4
71
3
72
20
73
16
40
0
40
0
40
0
40
0
40
0.0030904281385545
40
0.0030904281385545
40
0.102781385324699
40
0.102781385324699
40
0.202472342510843
40
0.202472342510843
40
0.401854256883133
40
0.401854256883133
40
0.501545214069277
40
0.501545214069277
40
0.601236171255422
40
0.601236171255422
40
1
40
1
40
1
40
1
41
1
10
22.6598321417854
20
-6.00388841752579
30
0
41
1
10
22.6423669620217
20
-6.00206636880168
30
0
41
1
10
22.6248996492944
20
-6.00022548083746
30
0
41
1
10
22.0439001632965
20
-5.93837472680607
30
0
41
1
10
21.4769937591628
20
-5.85849631341995
30
0
41
1
10
20.3505371624822
20
-5.66235256904753
30
0
41
1
10
19.7893851380381
20
-5.54587112253896
30
0
41
1
10
18.1091564122254
20
-5.14563033178095
30
0
41
1
10
16.992982398928
20
-4.81111296106525
30
0
41
1
10
15.3121447546198
20
-4.2219265835374
30
0
41
1
10
14.7507135358678
20
-4.01109400034505
30
0
41
1
10
13.6234543871186
20
-3.56333308769567
30
0
41
1
10
13.0562912175951
20
-3.32577575697067
30
0
41
1
10
10.2380941910828
20
-2.09619507866526
30
0
41
1
10
8.01831260962226
20
-0.969664951999903
30
0
41
1
10
5.76446752958648
20
0.163823752181827
30
0
0
SPLINE
5
D2
100
AcDbEntity
8
1
62
256
6
ByLayer
370
13
48
1
60
0
100
AcDbSpline
70
4
71
3
72
38
73
34
40
0
40
0
40
0
40
0
40
0.114458454490595
40
0.114458454490595
40
0.228916908981189
40
0.228916908981189
40
0.286146136226487
40
0.286146136226487
40
0.314760749849136
40
0.314760749849136
40
0.343375363471785
40
0.343375363471785
40
0.457833817962383
40
0.457833817962383
40
0.572292272452982
40
0.572292272452982
40
0.600906886075631
40
0.600906886075631
40
0.62952149969828
40
0.62952149969828
40
0.686750726943578
40
0.686750726943578
40
0.743979954188876
40
0.743979954188876
40
0.772594567811525
40
0.772594567811525
40
0.801209181434174
40
0.801209181434174
40
0.915667635924771
40
0.915667635924771
40
0.97289686317007
40
0.97289686317007
40
1
40
1
40
1
40
1
41
1
10
59.6487426340669
20
-5.92914415809122
30
0
41
1
10
58.5217645160899
20
-5.75936172540969
30
0
41
1
10
57.4052257626026
20
-5.51460699947745
30
0
41
1
10
55.176464184793
20
-4.89474116166352
30
0
41
1
10
54.06379523642
20
-4.519791369019
30
0
41
1
10
52.3850911689247
20
-3.8751454797949
30
0
41
1
10
51.8238464968884
20
-3.64661049907798
30
0
41
1
10
50.9777538537982
20
-3.28574168155308
30
0
41
1
10
50.6951326114605
20
-3.1624553947907
30
0
41
1
10
50.1321246306069
20
-2.91205751969935
30
0
41
1
10
49.8512450439021
20
-2.78475066684888
30
0
41
1
10
48.4493727256384
20
-2.13883874784756
30
0
41
1
10
47.3361257015027
20
-1.59176817841319
30
0
41
1
10
45.1078152171846
20
-0.47297795033569
30
0
41
1
10
43.9933297330367
20
0.0998529656394282
30
0
41
1
10
42.5883170262416
20
0.809767988526659
30
0
41
1
10
42.306753807986
20
0.951507983726742
30
0
41
1
10
41.7421953754525
20
1.23388663511059
30
0
41
1
10
41.4594951361715
20
1.37438216028465
30
0
41
1
10
40.613233383519
20
1.79122263971877
30
0
41
1
10
40.0501413429184
20
2.06349127269874
30
0
41
1
10
38.9236823415193
20
2.59241053698736
30
0
41
1
10
38.3604744212312
20
2.84939756160568
30
0
41
1
10
37.5139113204717
20
3.22036960317598
30
0
41
1
10
37.2311835090461
20
3.34173007311676
30
0
41
1
10
36.666266003012
20
3.57848428841837
30
0
41
1
10
36.3841424634244
20
3.69383042400025
30
0
41
1
10
34.9745904540116
20
4.25455286854535
30
0
41
1
10
33.8503331436289
20
4.65191362424991
30
0
41
1
10
32.1555310778958
20
5.15272877697353
30
0
41
1
10
31.5899738507612
20
5.30328429534882
30
0
41
1
10
30.7571247320174
20
5.49889231902458
30
0
41
1
10
30.4892961931546
20
5.5578350594526
30
0
41
1
10
30.2217110289035
20
5.61263917455642
30
0
0
SPLINE
5
D3
100
AcDbEntity
8
1
62
256
6
ByLayer
370
18
48
1
60
0
100
AcDbSpline
70
4
71
3
72
34
73
30
40
0
40
0
40
0
40
0
40
0.0787278484006258
40
0.0787278484006258
40
0.157455696801252
40
0.157455696801252
40
0.314911393602503
40
0.314911393602503
40
0.393639242003129
40
0.393639242003129
40
0.472367090403756
40
0.472367090403756
40
0.551094938804382
40
0.551094938804382
40
0.629822787205009
40
0.629822787205009
40
0.708550635605636
40
0.708550635605636
40
0.74791455980595
40
0.74791455980595
40
0.787278484006264
40
0.787278484006264
40
0.866006332406894
40
0.866006332406894
40
0.905370256607209
40
0.905370256607209
40
0.944734180807524
40
0.944734180807524
40
1
40
1
40
1
40
1
41
1
10
5.64346313095297
20
-0.0608720119213615
30
0
41
1
10
6.20837864217799
20
-0.352113779000831
30
0
41
1
10
6.77295082137073
20
-0.643358390093454
30
0
41
1
10
7.90171092686242
20
-1.2195003939579
30
0
41
1
10
8.46689643487167
20
-1.50484623487782
30
0
41
1
10
10.1581862299265
20
-2.34237616004862
30
0
41
1
10
11.2817468685165
20
-2.87611355968397
30
0
41
1
10
12.9749046342766
20
-3.61513794423655
30
0
41
1
10
13.538785264442
20
-3.85053475696839
30
0
41
1
10
14.6646544602924
20
-4.29422704745338
30
0
41
1
10
15.2271406521747
20
-4.5028200500719
30
0
41
1
10
16.3533889108875
20
-4.89039468143221
30
0
41
1
10
16.9182795528475
20
-5.06943311726732
30
0
41
1
10
18.0455306163377
20
-5.39307290056155
30
0
41
1
10
18.6080097191201
20
-5.5377823112577
30
0
41
1
10
19.7331755052651
20
-5.79069732221328
30
0
41
1
10
20.2959489065386
20
-5.89885545824336
30
0
41
1
10
21.1418101950781
20
-6.03241879155189
30
0
41
1
10
21.4240940541999
20
-6.07214053848767
30
0
41
1
10
21.9876188469355
20
-6.14155625299585
30
0
41
1
10
22.2691012773436
20
-6.17129218412549
30
0
41
1
10
23.1131669100804
20
-6.24546602685706
30
0
41
1
10
23.6753547271419
20
-6.27487860873953
30
0
41
1
10
24.5194666163133
20
-6.28856169201015
30
0
41
1
10
24.8009974091816
20
-6.28804702904395
30
0
41
1
10
25.3647217709052
20
-6.27683279029952
30
0
41
1
10
25.6470072995885
20
-6.26611915598463
30
0
41
1
10
26.3243239725275
20
-6.22822620630188
30
0
41
1
10
26.719299034319
20
-6.19612809307915
30
0
41
1
10
27.1140955744482
20
-6.15425183533867
30
0
0
SPLINE
5
D4
100
AcDbEntity
8
1
62
256
6
ByLayer
370
18
48
1
60
0
100
AcDbSpline
70
4
71
3
72
46
73
42
40
0
40
0
40
0
40
0
40
0.0757172654661543
40
0.0757172654661543
40
0.151434530932309
40
0.151434530932309
40
0.189293163665385
40
0.189293163665385
40
0.227151796398461
40
0.227151796398461
40
0.265010429131537
40
0.265010429131537
40
0.302869061864613
40
0.302869061864613
40
0.378586327330764
40
0.378586327330764
40
0.454303592796915
40
0.454303592796915
40
0.49216222552999
40
0.49216222552999
40
0.530020858263065
40
0.530020858263065
40
0.605738123729218
40
0.605738123729218
40
0.68145538919537
40
0.68145538919537
40
0.719314021928446
40
0.719314021928446
40
0.757172654661523
40
0.757172654661523
40
0.832889920127677
40
0.832889920127677
40
0.870748552860755
40
0.870748552860755
40
0.908607185593833
40
0.908607185593833
40
0.946465818326911
40
0.946465818326911
40
0.984324451059989
40
0.984324451059989
40
1
40
1
40
1
40
1
41
1
10
59.0677918327295
20
0.633159308603922
30
0
41
1
10
58.6189684179856
20
0.861400250017795
30
0
41
1
10
58.1703686399148
20
1.08762676970323
30
0
41
1
10
57.2730148201611
20
1.53487680046996
30
0
41
1
10
56.8243624624088
20
1.75605190529558
30
0
41
1
10
56.15038987606
20
2.08177856691466
30
0
41
1
10
55.9256369275183
20
2.18948138267507
30
0
41
1
10
55.4758034295644
20
2.40281610790908
30
0
41
1
10
55.2504055940881
20
2.50836969822404
30
0
41
1
10
54.8002268199649
20
2.71592059744964
30
0
41
1
10
54.5756221071024
20
2.81805469522538
30
0
41
1
10
54.1262627984552
20
3.01932289598989
30
0
41
1
10
53.9015346154772
20
3.11832790382525
30
0
41
1
10
53.2278568317889
20
3.41127693638538
30
0
41
1
10
52.7787568991673
20
3.60006806923633
30
0
41
1
10
51.8804802076057
20
3.96268084632993
30
0
41
1
10
51.4308422974589
20
4.1353858371204
30
0
41
1
10
50.7552649350643
20
4.38195667552509
30
0
41
1
10
50.5299180543381
20
4.46180027995109
30
0
41
1
10
50.0799617939998
20
4.61640243156504
30
0
41
1
10
49.8553100065402
20
4.69125797688957
30
0
41
1
10
49.1812332049229
20
4.9080754400286
30
0
41
1
10
48.7322156154345
20
5.04341747023383
30
0
41
1
10
47.8335586519742
20
5.29317770877407
30
0
41
1
10
47.3843013856523
20
5.40808779830405
30
0
41
1
10
46.7089933045947
20
5.56166311481593
30
0
41
1
10
46.483703800791
20
5.60978900911715
30
0
41
1
10
46.0332065644599
20
5.70012781438274
30
0
41
1
10
45.8080011311235
20
5.74249562588332
30
0
41
1
10
45.1331079082823
20
5.86166960678889
30
0
41
1
10
44.6835887787748
20
5.92898748129082
30
0
41
1
10
44.0096392431478
20
6.01170007753919
30
0
41
1
10
43.7849354251841
20
6.03624041280773
30
0
41
1
10
43.3353074756151
20
6.07810009376016
30
0
41
1
10
43.1105529719134
20
6.09520530534473
30
0
41
1
10
42.6606119912717
20
6.12390970220872
30
0
41
1
10
42.4353776670757
20
6.13543797194905
30
0
41
1
10
41.9845947262834
20
6.15258536091082
30
0
41
1
10
41.7591922980536
20
6.1581951550005
30
0
41
1
10
41.4407350763313
20
6.16171233969538
30
0
41
1
10
41.3475191608551
20
6.16223241371932
30
0
41
1
10
41.2543304405841
20
6.16221842301402
30
0
0
SPLINE
5
D5
100
AcDbEntity
8
1
62
256
6
ByLayer
370
18
48
1
60
0
100
AcDbSpline
70
4
71
3
72
30
73
26
40
0
40
0
40
0
40
0
40
0.0491209071318401
40
0.0491209071318401
40
0.0887408693346795
40
0.0887408693346795
40
0.128360831537519
40
0.128360831537519
40
0.207600755943199
40
0.207600755943199
40
0.286840680348879
40
0.286840680348879
40
0.366080604754559
40
0.366080604754559
40
0.52456045356592
40
0.52456045356592
40
0.6038003779716
40
0.6038003779716
40
0.68304030237728
40
0.68304030237728
40
0.76228022678296
40
0.76228022678296
40
0.84152015118864
40
0.84152015118864
40
1
40
1
40
1
40
1
41
1
10
6.46337172530639
20
6.10255205521727
30
0
41
1
10
6.56255017621783
20
6.10274746413572
30
0
41
1
10
6.66972124550551
20
6.09656401300819
30
0
41
1
10
6.87558015387148
20
6.07590706923946
30
0
41
1
10
6.97232185806755
20
6.06315229642539
30
0
41
1
10
7.17111462778144
20
6.03196945919319
30
0
41
1
10
7.27335479449815
20
6.0135423652016
30
0
41
1
10
7.58751540267454
20
5.95105297194655
30
0
41
1
10
7.80675404782082
20
5.89992195202711
30
0
41
1
10
8.26052177999847
20
5.78385385838777
30
0
41
1
10
8.49547227932914
20
5.71844695479558
30
0
41
1
10
8.97931440525889
20
5.57560196860553
30
0
41
1
10
9.22573631775921
20
5.49897562565738
30
0
41
1
10
9.97342218002149
20
5.25832799298914
30
0
41
1
10
10.4842965233528
20
5.08329869869098
30
0
41
1
10
11.2644630227517
20
4.8075425613421
30
0
41
1
10
11.5266874167284
20
4.71367999331721
30
0
41
1
10
12.0560257651034
20
4.52101466760843
30
0
41
1
10
12.3230601761095
20
4.42235840022465
30
0
41
1
10
12.8612717106773
20
4.22144248784693
30
0
41
1
10
13.1327213757016
20
4.11907588931507
30
0
41
1
10
13.6773015980792
20
3.91216110271313
30
0
41
1
10
13.9506006510665
20
3.80754787610036
30
0
41
1
10
14.7732396530459
20
3.49117992819197
30
0
41
1
10
15.325365228727
20
3.27670901852773
30
0
41
1
10
15.8808982912067
20
3.05919444458584
30
0
0
SPLINE
5
D6
100
AcDbEntity
8
1
62
256
6
ByLayer
370
18
48
1
60
0
100
AcDbSpline
70
4
71
3
72
22
73
18
40
0
40
0
40
0
40
0
40
0.249999999999996
40
0.249999999999996
40
0.374999999999996
40
0.374999999999996
40
0.437499999999996
40
0.437499999999996
40
0.499999999999997
40
0.499999999999997
40
0.749999999999998
40
0.749999999999998
40
0.812499999999999
40
0.812499999999999
40
0.874999999999999
40
0.874999999999999
40
1
40
1
40
1
40
1
41
1
10
59.6487426340669
20
-5.92914415809122
30
0
41
1
10
59.5234838987166
20
-5.82062042308016
30
0
41
1
10
59.4122301583768
20
-5.6804891397619
30
0
41
1
10
59.267090693784
20
-5.42122512698455
30
0
41
1
10
59.2223555884913
20
-5.32657811387583
30
0
41
1
10
59.1610348867966
20
-5.17155843131275
30
0
41
1
10
59.1415240584688
20
-5.11757367683452
30
0
41
1
10
59.1048991370255
20
-5.00635188750312
30
0
41
1
10
59.0877350097358
20
-4.94900877437181
30
0
41
1
10
59.0076117288086
20
-4.6536989588619
30
0
41
1
10
58.9615935814983
20
-4.39017737568352
30
0
41
1
10
58.9274616037861
20
-4.02549138211285
30
0
41
1
10
58.9218143902609
20
-3.95077543098529
30
0
41
1
10
58.9129391482593
20
-3.79769427765484
30
0
41
1
10
58.9097174956946
20
-3.71926833928376
30
0
41
1
10
58.9038181649887
20
-3.48092835170871
30
0
41
1
10
58.9048405716641
20
-3.31717568173994
30
0
41
1
10
58.9107708805915
20
-3.14861014077471
30
0
0
SPLINE
5
D7
100
AcDbEntity
8
1
62
256
6
ByLayer
370
18
48
1
60
0
100
AcDbSpline
70
4
71
3
72
10
73
6
40
0
40
0
40
0
40
0
40
0.5
40
0.5
40
1
40
1
40
1
40
1
41
1
10
59.7425068347204
20
-6.27725319091115
30
0
41
1
10
59.8705976264362
20
-5.96540850982811
30
0
41
1
10
60.0003688432089
20
-5.64760623414779
30
0
41
1
10
60.2613546984684
20
-4.99872027637153
30
0
41
1
10
60.3926147822794
20
-4.66782194141047
30
0
41
1
10
60.5234861959796
20
-4.32944406975588
30
0
0
SPLINE
5
D8
100
AcDbEntity
8
1
62
256
6
ByLayer
370
18
48
1
60
0
100
AcDbSpline
70
4
71
3
72
8
73
4
40
0
40
0
40
0
40
0
40
1
40
1
40
1
40
1
41
1
10
5.23391485969321
20
0.356517032962841
30
0
41
1
10
5.23391166120479
20
0.318010542370558
30
0
41
1
10
5.24579359103197
20
0.281200081090049
30
0
41
1
10
5.26397575331967
20
0.247405670209076
30
0
0
SPLINE
5
D9
100
AcDbEntity
8
1
62
256
6
ByLayer
370
18
48
1
60
0
100
AcDbSpline
70
4
71
3
72
58
73
54
40
0
40
0
40
0
40
0
40
0.0312500000000002
40
0.0312500000000002
40
0.0625000000000004
40
0.0625000000000004
40
0.125
40
0.125
40
0.187499999999999
40
0.187499999999999
40
0.21875
40
0.21875
40
0.234375
40
0.234375
40
0.25
40
0.25
40
0.3125
40
0.3125
40
0.343750000000001
40
0.343750000000001
40
0.375000000000001
40
0.375000000000001
40
0.406250000000002
40
0.406250000000002
40
0.437500000000003
40
0.437500000000003
40
0.468750000000003
40
0.468750000000003
40
0.500000000000004
40
0.500000000000004
40
0.625000000000006
40
0.625000000000006
40
0.656250000000006
40
0.656250000000006
40
0.671875000000006
40
0.671875000000006
40
0.687500000000006
40
0.687500000000006
40
0.718750000000006
40
0.718750000000006
40
0.750000000000005
40
0.750000000000005
40
0.875000000000003
40
0.875000000000003
40
0.906250000000003
40
0.906250000000003
40
0.921875000000002
40
0.921875000000002
40
0.937500000000002
40
0.937500000000002
40
0.968750000000001
40
0.968750000000001
40
1
40
1
40
1
40
1
41
1
10
20.551592557008
20
6.09958636322193
30
0
41
1
10
20.9636555377331
20
6.15119224751811
30
0
41
1
10
21.3745401511071
20
6.19182087484134
30
0
41
1
10
22.1936475228931
20
6.25184387641525
30
0
41
1
10
22.6019887713268
20
6.27115539547285
30
0
41
1
10
23.8249123588372
20
6.29710091940802
30
0
41
1
10
24.6375254865965
20
6.27178577938284
30
0
41
1
10
26.2635824088658
20
6.13733944450385
30
0
41
1
10
27.077098347737
20
6.02815905804977
30
0
41
1
10
28.3035890466203
20
5.80320717001047
30
0
41
1
10
28.7133051597319
20
5.71791025987247
30
0
41
1
10
29.3302522164985
20
5.57506005586535
30
0
41
1
10
29.5365362580211
20
5.52489644766709
30
0
41
1
10
29.9478786586837
20
5.41984597964239
30
0
41
1
10
30.1532083552814
20
5.36508282693907
30
0
41
1
10
31.1785070786567
20
5.0805993915049
30
0
41
1
10
31.9931030392167
20
4.8173047722353
30
0
41
1
10
33.2133670103775
20
4.37831157229482
30
0
41
1
10
33.6194347329254
20
4.22407048605137
30
0
41
1
10
34.4321045843859
20
3.90253847462057
30
0
41
1
10
34.8382412253943
20
3.73455237376732
30
0
41
1
10
35.651743980852
20
3.38661806103806
30
0
41
1
10
36.0588436192555
20
3.20624456376811
30
0
41
1
10
36.8748792392998
20
2.83445262646646
30
0
41
1
10
37.2838398540967
20
2.64309208203576
30
0
41
1
10
38.1041739972516
20
2.25014185335601
30
0
41
1
10
38.5168427383894
20
2.04863830965829
30
0
41
1
10
39.3378422607846
20
1.64012061552978
30
0
41
1
10
39.7471775526072
20
1.43386508366532
30
0
41
1
10
41.7875151519628
20
0.391557159720435
30
0
41
1
10
43.4050211239535
20
-0.466665338718741
30
0
41
1
10
45.4408502067199
20
-1.50627773186213
30
0
41
1
10
45.8488319701174
20
-1.71231023483949
30
0
41
1
10
46.4625009571118
20
-2.01759575204258
30
0
41
1
10
46.6674486848163
20
-2.1185187814678
30
0
41
1
10
47.077870783879
20
-2.319184433717
30
0
41
1
10
47.2835430788832
20
-2.41902807205693
30
0
41
1
10
47.9006695580181
20
-2.71470802426123
30
0
41
1
10
48.3104454376347
20
-2.90688770276736
30
0
41
1
10
49.1278722730179
20
-3.2795412049164
30
0
41
1
10
49.5353298464644
20
-3.46035052406313
30
0
41
1
10
51.5698212186809
20
-4.33140410031328
30
0
41
1
10
53.1854967617417
20
-4.92713290767435
30
0
41
1
10
55.2267982350124
20
-5.49417812299578
30
0
41
1
10
55.6358533043141
20
-5.59902790955155
30
0
41
1
10
56.2519766828331
20
-5.7418850498054
30
0
41
1
10
56.4577328624902
20
-5.78729636095935
30
0
41
1
10
56.8688425501559
20
-5.8728064516238
30
0
41
1
10
57.0743458438192
20
-5.91295600323321
30
0
41
1
10
57.6903087716989
20
-6.02589860990921
30
0
41
1
10
58.1006091948893
20
-6.09091097410319
30
0
41
1
10
58.921154314373
20
-6.20000251536192
30
0
41
1
10
59.3316853151421
20
-6.24396218509602
30
0
41
1
10
59.7425068347204
20
-6.27725319091115
30
0
0
SPLINE
5
DA
100
AcDbEntity
8
1
62
256
6
ByLayer
370
18
48
1
60
0
100
AcDbSpline
70
4
71
3
72
8
73
4
40
0
40
0
40
0
40
0
40
1
40
1
40
1
40
1
41
1
10
59.0677918327295
20
0.63315930860395
30
0
41
1
10
59.381040653884
20
0.504703302882149
30
0
41
1
10
59.6963933691159
20
0.387239034188099
30
0
41
1
10
60.0140751706147
20
0.281943012951246
30
0
0
SPLINE
5
DB
100
AcDbEntity
8
1
62
256
6
ByLayer
370
18
48
1
60
0
100
AcDbSpline
70
4
71
3
72
20
73
16
40
0
40
0
40
0
40
0
40
0.25
40
0.25
40
0.375
40
0.375
40
0.5
40
0.5
40
0.625
40
0.625
40
0.75
40
0.75
40
0.875
40
0.875
40
1
40
1
40
1
40
1
41
1
10
61.0545740791619
20
-1.41716287463799
30
0
41
1
10
61.1223569091721
20
-1.37490014704412
30
0
41
1
10
61.1946219666983
20
-1.30695382214319
30
0
41
1
10
61.3102850159854
20
-1.16889710262967
30
0
41
1
10
61.3503212705854
20
-1.11636572890069
30
0
41
1
10
61.430752654376
20
-1.00205266262208
30
0
41
1
10
61.4713325671221
20
-0.940106137897033
30
0
41
1
10
61.5532215878491
20
-0.807114604106943
30
0
41
1
10
61.5945306508158
20
-0.73606741287162
30
0
41
1
10
61.6778626317103
20
-0.584938002515059
30
0
41
1
10
61.7192559517999
20
-0.505983719908357
30
0
41
1
10
61.8010091954984
20
-0.342675421466936
30
0
41
1
10
61.8414507348162
20
-0.258170358149272
30
0
41
1
10
61.9214158258686
20
-0.0836584786787284
30
0
41
1
10
61.9611281557195
20
0.0068095195014735
30
0
41
1
10
61.9997848176955
20
0.0987206784689079
30
0
0
SPLINE
5
DC
100
AcDbEntity
8
1
62
256
6
ByLayer
370
13
48
1
60
0
100
AcDbSpline
70
4
71
3
72
8
73
4
40
0
40
0
40
0
40
0
40
1
40
1
40
1
40
1
41
1
10
5.23391485969316
20
0.356517032962643
30
0
41
1
10
5.25254235986762
20
0.348403078920768
30
0
41
1
10
5.27172404565792
20
0.340655730043665
30
0
41
1
10
5.29149699192044
20
0.333294471163612
30
0
0
SPLINE
5
DD
100
AcDbEntity
8
1
62
256
6
ByLayer
370
18
48
1
60
0
100
AcDbSpline
70
4
71
3
72
10
73
6
40
0
40
0
40
0
40
0
40
0.5
40
0.5
40
1
40
1
40
1
40
1
41
1
10
59.7425068347204
20
6.27725319091115
30
0
41
1
10
59.8705829085395
20
5.96544434142635
30
0
41
1
10
60.0003462048034
20
5.64766195632421
30
0
41
1
10
60.2613317273659
20
4.99877795246144
30
0
41
1
10
60.3925992247638
20
4.66786216653568
30
0
41
1
10
60.5234861959796
20
4.32944406975577
30
0
0
SPLINE
5
DE
100
AcDbEntity
8
1
62
256
6
ByLayer
370
18
48
1
60
0
100
AcDbSpline
70
4
71
1
72
4
73
2
40
0
40
0
40
1
40
1
41
1
10
61.0505538544629
20
-1.4307349258228
30
0
41
1
10
61.0545740791819
20
-1.41716287462549
30
0
0
SPLINE
5
DF
100
AcDbEntity
8
1
62
256
6
ByLayer
370
18
48
1
60
0
100
AcDbSpline
70
4
71
3
72
10
73
6
40
0
40
0
40
0
40
0
40
0.5
40
0.5
40
1
40
1
40
1
40
1
41
1
10
5.65741692858143
20
-5.46993750435615
30
0
41
1
10
5.68346065799318
20
-5.42031434843545
30
0
41
1
10
5.71375194350259
20
-5.36852106099431
30
0
41
1
10
5.7809932832088
20
-5.26308793983534
30
0
41
1
10
5.81802390008349
20
-5.2092553242079
30
0
41
1
10
5.85815344465701
20
-5.1544137900033
30
0
0
SPLINE
5
E0
100
AcDbEntity
8
1
62
256
6
ByLayer
370
18
48
1
60
0
100
AcDbSpline
70
4
71
3
72
10
73
6
40
0
40
0
40
0
40
0
40
0.5
40
0.5
40
1
40
1
40
1
40
1
41
1
10
59.6678187852231
20
-6.15604219176106
30
0
41
1
10
59.6752454530014
20
-6.12770711481488
30
0
41
1
10
59.681393272749
20
-6.10012042853364
30
0
41
1
10
59.690456986178
20
-6.04979065696554
30
0
41
1
10
59.6933499180491
20
-6.02733202814355
30
0
41
1
10
59.6947539356017
20
-6.00783874427802
30
0
0
SPLINE
5
E1
100
AcDbEntity
8
1
62
256
6
ByLayer
370
18
48
1
60
0
100
AcDbSpline
70
4
71
3
72
8
73
4
40
0
40
0
40
0
40
0
40
1
40
1
40
1
40
1
41
1
10
61.9997848176955
20
0.0987206784689079
30
0
41
1
10
62.0000717274248
20
0.0329068928229788
30
0
41
1
10
62.0000717274248
20
-0.0329068928229788
30
0
41
1
10
61.9997848176955
20
-0.0987206784689079
30
0
0
SPLINE
5
E2
100
AcDbEntity
8
1
62
256
6
ByLayer
370
18
48
1
60
0
100
AcDbSpline
70
4
71
3
72
8
73
4
40
0
40
0
40
0
40
0
40
1
40
1
40
1
40
1
41
1
10
61.0528921586466
20
-1.41544920476298
30
0
41
1
10
61.0534527875254
20
-1.41602043914054
30
0
41
1
10
61.054013427707
20
-1.4165916624253
30
0
41
1
10
61.0545740791908
20
-1.41716287461671
30
0
0
SPLINE
5
E3
100
AcDbEntity
8
1
62
256
6
ByLayer
370
18
48
1
60
0
100
AcDbSpline
70
4
71
3
72
40
73
36
40
0
40
0
40
0
40
0
40
0.0554900253834981
40
0.0554900253834981
40
0.141354568530453
40
0.141354568530453
40
0.227219111677408
40
0.227219111677408
40
0.313083654824363
40
0.313083654824363
40
0.398948197971318
40
0.398948197971318
40
0.441880469544796
40
0.441880469544796
40
0.484812741118273
40
0.484812741118273
40
0.570677284265229
40
0.570677284265229
40
0.656541827412184
40
0.656541827412184
40
0.69947409898566
40
0.69947409898566
40
0.742406370559137
40
0.742406370559137
40
0.785338642132614
40
0.785338642132614
40
0.828270913706091
40
0.828270913706091
40
0.871203185279568
40
0.871203185279568
40
0.892669321066307
40
0.892669321066307
40
0.914135456853045
40
0.914135456853045
40
1
40
1
40
1
40
1
41
1
10
12.3253088970517
20
-4.42116535246154
30
0
41
1
10
12.1532199506391
20
-4.48493940655703
30
0
41
1
10
11.9817844356088
20
-4.54798712056962
30
0
41
1
10
11.5468814131451
20
-4.70639954410115
30
0
41
1
10
11.2844662395408
20
-4.80040165867987
30
0
41
1
10
10.7628414657295
20
-4.98491031071549
30
0
41
1
10
10.5037328805725
20
-5.07514964545922
30
0
41
1
10
9.98945949533561
20
-5.25030163925999
30
0
41
1
10
9.73365037796219
20
-5.33544369816755
30
0
41
1
10
9.23144269462995
20
-5.49719374378117
30
0
41
1
10
8.98472620680866
20
-5.57394010149562
30
0
41
1
10
8.62256719672334
20
-5.68095555818488
30
0
41
1
10
8.50317423669696
20
-5.71526622949818
30
0
41
1
10
8.26734267955845
20
-5.78073465461526
30
0
41
1
10
8.1507208062817
20
-5.81191817608956
30
0
41
1
10
7.80771625608659
20
-5.89971785687936
30
0
41
1
10
7.58755373989547
20
-5.95104532806329
30
0
41
1
10
7.16859774973818
20
-6.03437950943064
30
0
41
1
10
6.96980114074069
20
-6.06639161377345
30
0
41
1
10
6.69267020905502
20
-6.09429127498524
30
0
41
1
10
6.60452747079495
20
-6.10011237077711
30
0
41
1
10
6.43903341728048
20
-6.10371532644612
30
0
41
1
10
6.36147396048634
20
-6.10152216073766
30
0
41
1
10
6.21814001218308
20
-6.08787320506929
30
0
41
1
10
6.15222765188372
20
-6.07638660875202
30
0
41
1
10
6.03467852165429
20
-6.04258158451
30
0
41
1
10
5.98400937072986
20
-6.0205537667178
30
0
41
1
10
5.89975148055368
20
-5.96553234745863
30
0
41
1
10
5.86615818219713
20
-5.93254170387397
30
0
41
1
10
5.82954022347758
20
-5.874105779037
30
0
41
1
10
5.81963325206908
20
-5.85313320735972
30
0
41
1
10
5.80463151167126
20
-5.8080457909914
30
0
41
1
10
5.79953330769584
20
-5.78380643614986
30
0
41
1
10
5.78681654290597
20
-5.65621193571019
30
0
41
1
10
5.81670708571326
20
-5.53387942924695
30
0
41
1
10
5.88401119756878
20
-5.39246509788433
30
0
0
SPLINE
5
E4
100
AcDbEntity
8
1
62
256
6
ByLayer
370
18
48
1
60
0
100
AcDbSpline
70
4
71
3
72
10
73
6
40
0
40
0
40
0
40
0
40
0.5
40
0.5
40
1
40
1
40
1
40
1
41
1
10
60.3566341719055
20
2.83165334278411
30
0
41
1
10
60.3513584953142
20
3.08749888916702
30
0
41
1
10
60.3711777018963
20
3.33863122347677
30
0
41
1
10
60.4326031296801
20
3.83680394954226
30
0
41
1
10
60.4749320520577
20
4.08370860669891
30
0
41
1
10
60.5234861959796
20
4.3294440697558
30
0
0
SPLINE
5
E5
100
AcDbEntity
8
1
62
256
6
ByLayer
370
18
48
1
60
0
100
AcDbSpline
70
4
71
3
72
18
73
14
40
0
40
0
40
0
40
0
40
0.125
40
0.125
40
0.250000000000001
40
0.250000000000001
40
0.500000000000001
40
0.500000000000001
40
0.750000000000002
40
0.750000000000002
40
0.875000000000001
40
0.875000000000001
40
1
40
1
40
1
40
1
41
1
10
61.0528921586466
20
-1.41544920476298
30
0
41
1
10
60.987334889863
20
-1.42229093511619
30
0
41
1
10
60.9245136428813
20
-1.4144783920772
30
0
41
1
10
60.8034810659886
20
-1.37416235324008
30
0
41
1
10
60.7452714880091
20
-1.3416066868152
30
0
41
1
10
60.577037621981
20
-1.20994563422326
30
0
41
1
10
60.4787282250569
20
-1.08203771069881
30
0
41
1
10
60.3038772176673
20
-0.765612113892217
30
0
41
1
10
60.2304328734392
20
-0.582486624188022
30
0
41
1
10
60.1367353350521
20
-0.278452714489362
30
0
41
1
10
60.1083039400253
20
-0.172116833638881
30
0
41
1
10
60.0567901617557
20
0.0500862033221665
30
0
41
1
10
60.0340051354988
20
0.164725925643467
30
0
41
1
10
60.0140751706147
20
0.281943012951246
30
0
0
SPLINE
5
E6
100
AcDbEntity
8
1
62
256
6
ByLayer
370
18
48
1
60
0
100
AcDbSpline
70
4
71
2
72
6
73
3
40
0
40
0
40
0
40
1
40
1
40
1
41
1
10
22.8477949795004
20
0.0180771016866288
30
0
41
1
10
21.6475094121848
20
0.293524942865758
30
0
41
1
10
20.4622162562575
20
0.893400584871245
30
0
0
SPLINE
5
E7
100
AcDbEntity
8
1
62
256
6
ByLayer
370
18
48
1
60
0
100
AcDbSpline
70
4
71
2
72
6
73
3
40
0
40
0
40
0
40
1
40
1
40
1
41
1
10
59.9751722656523
20
0.312631475873985
30
0
41
1
10
59.7329256193677
20
0.385217398873777
30
0
41
1
10
59.496573046554
20
0.472580882311206
30
0
0
SPLINE
5
E8
100
AcDbEntity
8
1
62
256
6
ByLayer
370
18
48
1
60
0
100
AcDbSpline
70
4
71
2
72
6
73
3
40
0
40
0
40
0
40
1
40
1
40
1
41
1
10
59.4394144873347
20
0.493957186844341
30
0
41
1
10
58.9557153613612
20
0.676962945604117
30
0
41
1
10
58.4968517156272
20
0.92223596520671
30
0
0
SPLINE
5
E9
100
AcDbEntity
8
1
62
256
6
ByLayer
370
18
48
1
60
0
100
AcDbSpline
70
4
71
2
72
6
73
3
40
0
40
0
40
0
40
1
40
1
40
1
41
1
10
6.46036193636701
20
6.10249022412842
30
0
41
1
10
6.11226216993953
20
6.10196183146559
30
0
41
1
10
5.76421786314344
20
6.10142266697343
30
0
0
SPLINE
5
EA
100
AcDbEntity
8
1
62
256
6
ByLayer
370
18
48
1
60
0
100
AcDbSpline
70
4
71
3
72
26
73
22
40
0
40
0
40
0
40
0
40
0.0667178178854528
40
0.129800660845079
40
0.182582998918503
40
0.224095346553073
40
0.253842346249842
40
0.278236259676855
40
0.314218084415441
40
0.362328743752841
40
0.411123413236489
40
0.462588514508939
40
0.505760316851371
40
0.544715835982037
40
0.597939268443016
40
0.657501426152488
40
0.710157601395081
40
0.781549101979724
40
0.859814641963597
40
0.930518896531595
40
1
40
1
40
1
40
1
41
1
10
25.1208002714557
20
-6.13585263761902
30
0
41
1
10
25.478489550425
20
-6.13625270450629
30
0
41
1
10
26.1748000359844
20
-6.13722090926967
30
0
41
1
10
27.1596605222912
20
-6.13744901356031
30
0
41
1
10
28.0027136500883
20
-6.14066302830278
30
0
41
1
10
28.6655827338786
20
-6.14211378632928
30
0
41
1
10
29.1814643331682
20
-6.14234082332953
30
0
41
1
10
29.6650042775452
20
-6.14313675079805
30
0
41
1
10
30.2489476984898
20
-6.14367927969673
30
0
41
1
10
30.9637519483651
20
-6.14440655052175
30
0
41
1
10
31.7627272726352
20
-6.14817184737356
30
0
41
1
10
32.5340461542253
20
-6.14847809328515
30
0
41
1
10
33.2527122690284
20
-6.1484565571327
30
0
41
1
10
33.9806812201206
20
-6.14901012097869
30
0
41
1
10
34.7976369538728
20
-6.15138498857877
30
0
41
1
10
35.6881632047245
20
-6.15334975650111
30
0
41
1
10
36.6765407155754
20
-6.1565018266075
30
0
41
1
10
37.7655814271172
20
-6.15663993626379
30
0
41
1
10
38.9517812592565
20
-6.15575924105667
30
0
41
1
10
40.1276881552024
20
-6.1628776155961
30
0
41
1
10
40.8823006436462
20
-6.16265222578707
30
0
41
1
10
41.2563149694327
20
-6.16215522941914
30
0
0
SPLINE
5
EB
100
AcDbEntity
8
1
62
256
6
ByLayer
370
18
48
1
60
0
100
AcDbSpline
70
4
71
3
72
25
73
21
40
0
40
0
40
0
40
0
40
0.0792702700359715
40
0.159914506901991
40
0.249183035132315
40
0.330611134736023
40
0.38776667691037
40
0.452194786838942
40
0.512092765053516
40
0.555984781440026
40
0.600806425595693
40
0.654867521484691
40
0.716410717688152
40
0.779694240890619
40
0.817671819088064
40
0.844370149130214
40
0.870380086034977
40
0.906626299306941
40
0.953247181478147
40
1
40
1
40
1
40
1
41
1
10
41.2566142979605
20
6.16215535136479
30
0
41
1
10
40.8825001958255
20
6.16265256770103
30
0
41
1
10
40.127787874799
20
6.1628766883367
30
0
41
1
10
38.9517814690768
20
6.15576430297094
30
0
41
1
10
37.7655805878318
20
6.15661990717786
30
0
41
1
10
36.6902452756306
20
6.15656236493453
30
0
41
1
10
35.7321156961968
20
6.1533521008202
30
0
41
1
10
34.8756910200821
20
6.15176365331922
30
0
41
1
10
34.0815385415273
20
6.14913160137178
30
0
41
1
10
33.3809909384345
20
6.14855983891809
30
0
41
1
10
32.7068122821861
20
6.14837824047444
30
0
41
1
10
31.9514064045845
20
6.14866624863348
30
0
41
1
10
31.1064646161241
20
6.14483344210487
30
0
41
1
10
30.3387283736772
20
6.14374774420088
30
0
41
1
10
29.734863994056
20
6.14317954118758
30
0
41
1
10
29.3081460058144
20
6.14259546847399
30
0
41
1
10
28.8879135474822
20
6.14208066725755
30
0
41
1
10
28.3751120139402
20
6.14187811687765
30
0
41
1
10
27.7698252078023
20
6.13949267612441
30
0
41
1
10
27.3293976783016
20
6.13832855063228
30
0
41
1
10
27.1087180099463
20
6.13793107318986
30
0
0
SPLINE
5
EC
100
AcDbEntity
8
1
62
256
6
ByLayer
370
18
48
1
60
0
100
AcDbSpline
70
4
71
3
72
11
73
7
40
0
40
0
40
0
40
0
40
0.207174760158247
40
0.446135708164326
40
0.717163459952858
40
1
40
1
40
1
40
1
41
1
10
41.8492116896483
20
-0.0184840553265246
30
0
41
1
10
42.0243714975355
20
-0.0587244971934524
30
0
41
1
10
42.4007476336046
20
-0.156298437214474
30
0
41
1
10
43.0026790909081
20
-0.35151747465801
30
0
41
1
10
43.6651581499332
20
-0.613751498229306
30
0
41
1
10
44.1256911831126
20
-0.833282828057094
30
0
41
1
10
44.3602771161403
20
-0.954768435258131
30
0
0
SPLINE
5
ED
100
AcDbEntity
8
1
62
256
6
ByLayer
370
18
48
1
60
0
100
AcDbSpline
70
4
71
2
72
6
73
3
40
0
40
0
40
0
40
1
40
1
40
1
41
1
10
5.76421458667571
20
-6.10141442921386
30
0
41
1
10
6.10867878380591
20
-6.10215027709728
30
0
41
1
10
6.4513379632115
20
-6.10241005752684
30
0
0
LINE
5
7B
100
AcDbEntity
8
SK1
62
256
6
ByLayer
370
18
48
1
60
0
100
AcDbLine
10
-42.979274
20
7
30
0
11
-42.979274
21
-7
31
0
39
0
210
0
220
0
230
1
0
LINE
5
7D
100
AcDbEntity
8
SK1
62
256
6
ByLayer
370
18
48
1
60
0
100
AcDbLine
10
-45
20
3.5
30
0
11
-45
21
-3.5
31
0
39
0
210
0
220
0
230
1
0
LINE
5
7E
100
AcDbEntity
8
SK1
62
256
6
ByLayer
370
18
48
1
60
0
100
AcDbLine
10
0
20
-7
30
0
11
0
21
7
31
0
39
0
210
0
220
0
230
1
0
LINE
5
7F
100
AcDbEntity
8
1
62
256
6
ByLayer
370
18
48
1
60
0
100
AcDbLine
10
61.050554
20
-1.430735
30
0
11
61.052892
21
-1.415449
31
0
39
0
210
0
220
0
230
1
0
LINE
5
80
100
AcDbEntity
8
1
62
256
6
ByLayer
370
13
48
1
60
0
100
AcDbLine
10
1.414443
20
6.245346
30
0
11
1.414443
21
-6.245346
31
0
39
0
210
0
220
0
230
1
0
LINE
5
81
100
AcDbEntity
8
1
62
256
6
ByLayer
370
18
48
1
60
0
100
AcDbLine
10
58.910771
20
-3.14861
30
0
11
61.050554
21
-1.430735
31
0
39
0
210
0
220
0
230
1
0
LINE
5
82
100
AcDbEntity
8
1
62
256
6
ByLayer
370
18
48
1
60
0
100
AcDbLine
10
0
20
-7
30
0
11
0
21
7
31
0
39
0
210
0
220
0
230
1
0
LINE
5
83
100
AcDbEntity
8
1
62
256
6
ByLayer
370
13
48
1
60
0
100
AcDbLine
10
0.706456
20
6.622672
30
0
11
0.706456
21
-6.622672
31
0
39
0
210
0
220
0
230
1
0
LINE
5
84
100
AcDbEntity
8
80
62
256
6
ByLayer
370
18
48
1
60
0
100
AcDbLine
10
0
20
0
30
0
11
-5
21
0
31
0
39
0
210
0
220
0
230
1
0
LINE
5
85
100
AcDbEntity
8
4
62
256
6
ByLayer
370
18
48
0.05
60
0
100
AcDbLine
10
62
20
0
30
0
11
0
21
0
31
0
39
0
210
0
220
0
230
1
0
LINE
5
87
100
AcDbEntity
8
SK4
62
256
6
ByLayer
370
18
48
0.05
60
0
100
AcDbLine
10
67
20
0
30
0
11
-50
21
0
31
0
39
0
210
0
220
0
230
1
0
LINE
5
89
100
AcDbEntity
8
SK1
62
256
6
ByLayer
370
18
48
1
60
0
100
AcDbLine
10
-45
20
-3.5
30
0
11
-42.979274
21
-7
31
0
39
0
210
0
220
0
230
1
0
LINE
5
8A
100
AcDbEntity
8
SK1
62
256
6
ByLayer
370
18
48
1
60
0
100
AcDbLine
10
-42.979274
20
7
30
0
11
-45
21
3.5
31
0
39
0
210
0
220
0
230
1
0
LINE
5
8B
100
AcDbEntity
8
SK1
62
256
6
ByLayer
370
18
48
1
60
0
100
AcDbLine
10
-42.979274
20
-7
30
0
11
0
21
-7
31
0
39
0
210
0
220
0
230
1
0
LINE
5
8C
100
AcDbEntity
8
SK1
62
256
6
ByLayer
370
18
48
1
60
0
100
AcDbLine
10
0
20
7
30
0
11
-42.979274
21
7
31
0
39
0
210
0
220
0
230
1
0
LINE
5
8D
100
AcDbEntity
8
1
62
256
6
ByLayer
370
18
48
1
60
0
100
AcDbLine
10
1.414443
20
-6.245346
30
0
11
5.234681
21
-6.252223
31
0
39
0
210
0
220
0
230
1
0
LINE
5
8E
100
AcDbEntity
8
1
62
256
6
ByLayer
370
18
48
1
60
0
100
AcDbLine
10
23.463947
20
-6.285035
30
0
11
24.575098
21
-6.287035
31
0
39
0
210
0
220
0
230
1
0
LINE
5
8F
100
AcDbEntity
8
1
62
256
6
ByLayer
370
18
48
1
60
0
100
AcDbLine
10
24.575098
20
6.287035
30
0
11
23.463947
21
6.285035
31
0
39
0
210
0
220
0
230
1
0
LINE
5
90
100
AcDbEntity
8
1
62
256
6
ByLayer
370
18
48
1
60
0
100
AcDbLine
10
5.234681
20
6.252223
30
0
11
1.414443
21
6.245346
31
0
39
0
210
0
220
0
230
1
0
LINE
5
91
100
AcDbEntity
8
81
62
256
6
ByLayer
370
18
48
1
60
0
100
AcDbLine
10
62
20
0
30
0
11
67
21
0
31
0
39
0
210
0
220
0
230
1
0
LINE
5
92
100
AcDbEntity
8
SK2
62
256
6
ByLayer
370
13
48
1
60
0
100
AcDbLine
10
-53.625163
20
-7
30
0
11
-53.625163
21
38.225706
31
0
39
0
210
0
220
0
230
1
0
LINE
5
94
100
AcDbEntity
8
SK2
62
256
6
ByLayer
370
13
48
1
60
0
100
AcDbLine
10
-46.5875
20
7
30
0
11
-55.625163
21
7
31
0
39
0
210
0
220
0
230
1
0
LINE
5
95
100
AcDbEntity
8
SK2
62
256
6
ByLayer
370
13
48
1
60
0
100
AcDbLine
10
-46.5875
20
-7
30
0
11
-55.625163
21
-7
31
0
39
0
210
0
220
0
230
1
0
LINE
5
96
100
AcDbEntity
8
1
62
256
6
ByLayer
370
18
48
1
60
1
100
AcDbLine
10
-53.625163
20
7
30
0
11
-53.164379
21
3.500002
31
0
39
0
210
0
220
0
230
1
0
LINE
5
97
100
AcDbEntity
8
1
62
256
6
ByLayer
370
18
48
1
60
1
100
AcDbLine
10
-53.164379
20
3.500002
30
0
11
-54.085946
21
3.499998
31
0
39
0
210
0
220
0
230
1
0
LINE
5
98
100
AcDbEntity
8
1
62
256
6
ByLayer
370
18
48
1
60
1
100
AcDbLine
10
-54.085946
20
3.499998
30
0
11
-53.625163
21
7
31
0
39
0
210
0
220
0
230
1
0
LINE
5
99
100
AcDbEntity
8
1
62
256
6
ByLayer
370
18
48
1
60
1
100
AcDbLine
10
-53.625163
20
-7
30
0
11
-54.085946
21
-3.500002
31
0
39
0
210
0
220
0
230
1
0
LINE
5
9A
100
AcDbEntity
8
1
62
256
6
ByLayer
370
18
48
1
60
1
100
AcDbLine
10
-54.085946
20
-3.500002
30
0
11
-53.164379
21
-3.499998
31
0
39
0
210
0
220
0
230
1
0
LINE
5
9B
100
AcDbEntity
8
1
62
256
6
ByLayer
370
18
48
1
60
1
100
AcDbLine
10
-53.164379
20
-3.499998
30
0
11
-53.625163
21
-7
31
0
39
0
210
0
220
0
230
1
0
LINE
5
9C
100
AcDbEntity
8
2
62
256
6
ByLayer
370
13
48
1
60
0
100
AcDbLine
10
74.083343
20
-6.35
30
0
11
74.083343
21
35.800259
31
0
39
0
210
0
220
0
230
1
0
LINE
5
9E
100
AcDbEntity
8
2
62
256
6
ByLayer
370
13
48
1
60
0
100
AcDbLine
10
61.1429
20
6.35
30
0
11
76.083343
21
6.35
31
0
39
0
210
0
220
0
230
1
0
LINE
5
9F
100
AcDbEntity
8
2
62
256
6
ByLayer
370
13
48
1
60
0
100
AcDbLine
10
61.1429
20
-6.35
30
0
11
76.083343
21
-6.35
31
0
39
0
210
0
220
0
230
1
0
LINE
5
A0
100
AcDbEntity
8
1
62
256
6
ByLayer
370
18
48
1
60
1
100
AcDbLine
10
74.083343
20
6.35
30
0
11
74.544126
21
2.850002
31
0
39
0
210
0
220
0
230
1
0
LINE
5
A1
100
AcDbEntity
8
1
62
256
6
ByLayer
370
18
48
1
60
1
100
AcDbLine
10
74.544126
20
2.850002
30
0
11
73.622559
21
2.849998
31
0
39
0
210
0
220
0
230
1
0
LINE
5
A2
100
AcDbEntity
8
1
62
256
6
ByLayer
370
18
48
1
60
1
100
AcDbLine
10
73.622559
20
2.849998
30
0
11
74.083343
21
6.35
31
0
39
0
210
0
220
0
230
1
0
LINE
5
A3
100
AcDbEntity
8
1
62
256
6
ByLayer
370
18
48
1
60
1
100
AcDbLine
10
74.083343
20
-6.35
30
0
11
73.622559
21
-2.850002
31
0
39
0
210
0
220
0
230
1
0
LINE
5
A4
100
AcDbEntity
8
1
62
256
6
ByLayer
370
18
48
1
60
1
100
AcDbLine
10
73.622559
20
-2.850002
30
0
11
74.544126
21
-2.849998
31
0
39
0
210
0
220
0
230
1
0
LINE
5
A5
100
AcDbEntity
8
1
62
256
6
ByLayer
370
18
48
1
60
1
100
AcDbLine
10
74.544126
20
-2.849998
30
0
11
74.083343
21
-6.35
31
0
39
0
210
0
220
0
230
1
0
LINE
5
F4
100
AcDbEntity
8
1
62
256
6
ByLayer
370
18
48
1
60
1
100
AcDbLine
10
-53.625163
20
7
30
0
11
-53.164379
21
3.500002
31
0
39
0
210
0
220
0
230
1
0
LINE
5
F5
100
AcDbEntity
8
1
62
256
6
ByLayer
370
18
48
1
60
1
100
AcDbLine
10
-53.164379
20
3.500002
30
0
11
-54.085946
21
3.499998
31
0
39
0
210
0
220
0
230
1
0
LINE
5
F6
100
AcDbEntity
8
1
62
256
6
ByLayer
370
18
48
1
60
1
100
AcDbLine
10
-54.085946
20
3.499998
30
0
11
-53.625163
21
7
31
0
39
0
210
0
220
0
230
1
0
LINE
5
F8
100
AcDbEntity
8
1
62
256
6
ByLayer
370
18
48
1
60
1
100
AcDbLine
10
-53.625163
20
-7
30
0
11
-54.085946
21
-3.500002
31
0
39
0
210
0
220
0
230
1
0
LINE
5
F9
100
AcDbEntity
8
1
62
256
6
ByLayer
370
18
48
1
60
1
100
AcDbLine
10
-54.085946
20
-3.500002
30
0
11
-53.164379
21
-3.499998
31
0
39
0
210
0
220
0
230
1
0
LINE
5
FA
100
AcDbEntity
8
1
62
256
6
ByLayer
370
18
48
1
60
1
100
AcDbLine
10
-53.164379
20
-3.499998
30
0
11
-53.625163
21
-7
31
0
39
0
210
0
220
0
230
1
0
LINE
5
FE
100
AcDbEntity
8
1
62
256
6
ByLayer
370
18
48
1
60
1
100
AcDbLine
10
74.083343
20
6.35
30
0
11
74.544126
21
2.850002
31
0
39
0
210
0
220
0
230
1
0
LINE
5
FF
100
AcDbEntity
8
1
62
256
6
ByLayer
370
18
48
1
60
1
100
AcDbLine
10
74.544126
20
2.850002
30
0
11
73.622559
21
2.849998
31
0
39
0
210
0
220
0
230
1
0
LINE
5
100
100
AcDbEntity
8
1
62
256
6
ByLayer
370
18
48
1
60
1
100
AcDbLine
10
73.622559
20
2.849998
30
0
11
74.083343
21
6.35
31
0
39
0
210
0
220
0
230
1
0
LINE
5
102
100
AcDbEntity
8
1
62
256
6
ByLayer
370
18
48
1
60
1
100
AcDbLine
10
74.083343
20
-6.35
30
0
11
73.622559
21
-2.850002
31
0
39
0
210
0
220
0
230
1
0
LINE
5
103
100
AcDbEntity
8
1
62
256
6
ByLayer
370
18
48
1
60
1
100
AcDbLine
10
73.622559
20
-2.850002
30
0
11
74.544126
21
-2.849998
31
0
39
0
210
0
220
0
230
1
0
LINE
5
104
100
AcDbEntity
8
1
62
256
6
ByLayer
370
18
48
1
60
1
100
AcDbLine
10
74.544126
20
-2.849998
30
0
11
74.083343
21
-6.35
31
0
39
0
210
0
220
0
230
1
0
MTEXT
5
EE
100
AcDbEntity
8
SK6
62
256
6
ByLayer
370
13
48
1
60
0
100
AcDbMText
10
-19.793293
20
38.890328
30
0
210
0
220
0
230
1
1
\W0.7433;860.1-1270-040A0-PM P1BM
40
3.5
41
0
44
1.084337
50
0
71
7
72
5
7
iso_b_vert
0
MTEXT
5
F2
100
AcDbEntity
8
SK2
62
256
6
ByLayer
370
18
48
1
60
0
100
AcDbMText
10
-55.189796
20
20.409024
30
0
210
0
220
0
230
1
1
%%c
40
3.5
41
0
44
1.084337
50
90
71
7
72
5
7
iso_b_vert
0
MTEXT
5
F3
100
AcDbEntity
8
SK2
62
256
6
ByLayer
370
18
48
1
60
0
100
AcDbMText
10
-55.189796
20
25.63168
30
0
210
0
220
0
230
1
1
\W0.7145;14,000
40
3.5
41
0
44
1.084337
50
90
71
7
72
5
7
iso_b_vert
0
MTEXT
5
FC
100
AcDbEntity
8
2
62
256
6
ByLayer
370
18
48
1
60
0
100
AcDbMText
10
72.518709
20
18.35211
30
0
210
0
220
0
230
1
1
%%c
40
3.5
41
0
44
1.084337
50
90
71
7
72
5
7
iso_b_vert
0
MTEXT
5
FD
100
AcDbEntity
8
2
62
256
6
ByLayer
370
18
48
1
60
0
100
AcDbMText
10
72.518709
20
23.574766
30
0
210
0
220
0
230
1
1
\W0.6930;12,700
40
3.5
41
0
44
1.084337
50
90
71
7
72
5
7
iso_b_vert
0
HATCH
5
F7
100
AcDbEntity
8
SK2
62
256
6
ByLayer
370
13
48
1
60
0
100
AcDbHatch
10
0
20
0
30
0
210
0
220
0
230
1
2
ANSI31
70
0
71
0
91
1
92
5
93
3
72
1
10
-53.6251625675374
20
7
11
-53.1643788259847
21
3.50000169255318
72
1
10
-53.1643788259847
20
3.50000169255318
11
-54.0859463090902
21
3.49999830744682
72
1
10
-54.0859463090902
20
3.49999830744682
11
-53.6251625675374
21
7
97
0
75
0
76
1
52
0
41
0.0062
77
0
78
1
53
45
43
0
44
0
45
-0.0139193969876572
46
0.0139193969876572
79
0
47
0
98
1
10
0
20
0
0
HATCH
5
FB
100
AcDbEntity
8
SK2
62
256
6
ByLayer
370
13
48
1
60
0
100
AcDbHatch
10
0
20
0
30
0
210
0
220
0
230
1
2
ANSI31
70
0
71
0
91
1
92
5
93
3
72
1
10
-53.6251625675374
20
-7
11
-54.0859463090902
21
-3.50000169255318
72
1
10
-54.0859463090902
20
-3.50000169255318
11
-53.1643788259847
21
-3.49999830744682
72
1
10
-53.1643788259847
20
-3.49999830744682
11
-53.6251625675374
21
-7
97
0
75
0
76
1
52
0
41
0.0062
77
0
78
1
53
45
43
0
44
0
45
-0.0139193969876572
46
0.0139193969876572
79
0
47
0
98
1
10
0
20
0
0
HATCH
5
101
100
AcDbEntity
8
2
62
256
6
ByLayer
370
13
48
1
60
0
100
AcDbHatch
10
0
20
0
30
0
210
0
220
0
230
1
2
ANSI31
70
0
71
0
91
1
92
5
93
3
72
1
10
74.083342615295
20
6.35000000000002
11
74.5441263568477
21
2.85000169255321
72
1
10
74.5441263568477
20
2.85000169255321
11
73.6225588737422
21
2.84999830744684
72
1
10
73.6225588737422
20
2.84999830744684
11
74.083342615295
21
6.35000000000002
97
0
75
0
76
1
52
0
41
0.0062
77
0
78
1
53
45
43
0
44
0
45
-0.0139193969876572
46
0.0139193969876572
79
0
47
0
98
1
10
0
20
0
0
HATCH
5
105
100
AcDbEntity
8
2
62
256
6
ByLayer
370
13
48
1
60
0
100
AcDbHatch
10
0
20
0
30
0
210
0
220
0
230
1
2
ANSI31
70
0
71
0
91
1
92
5
93
3
72
1
10
74.083342615295
20
-6.34999999999999
11
73.6225588737422
21
-2.85000169255318
72
1
10
73.6225588737422
20
-2.85000169255318
11
74.5441263568477
21
-2.84999830744681
72
1
10
74.5441263568477
20
-2.84999830744681
11
74.083342615295
21
-6.34999999999999
97
0
75
0
76
1
52
0
41
0.0062
77
0
78
1
53
45
43
0
44
0
45
-0.0139193969876572
46
0.0139193969876572
79
0
47
0
98
1
10
0
20
0
0
DIMENSION
5
107
100
AcDbEntity
8
2
62
256
6
ByLayer
370
13
48
1
60
0
100
AcDbDimension
2
_U0
10
59.5554
20
-16.563398
30
0
11
29.7777
21
-16.563398
31
0
70
32
71
1
72
1
41
1
210
0
220
0
230
1
3
Standard
100
AcDbAlignedDimension
13
0
23
0
33
0
14
59.5554
24
-6.35
34
0
50
0
100
AcDbRotatedDimension
1001
ACAD
1000
DSTYLE
1002
{
1070
   371
1070
    13
1070
   372
1070
    13
1070
   170
1070
     0
1070
   144
1040
1.0
1070
   277
1070
     2
1070
   278
1070
    44
1070
   146
1040
1.0
1070
   345
1005
16
1070
   347
1005
16
1070
   346
1005
16
1070
   344
1005
0
1070
   343
1005
0
1070
   172
1070
     1
1070
    76
1070
     0
1070
    75
1070
     0
1070
   282
1070
     0
1070
   281
1070
     0
1070
    71
1070
     0
1070
    74
1070
     0
1070
   279
1070
     0
1070
   173
1070
     1
1070
   340
1005
EF
1070
   271
1070
     2
1070
   272
1070
     2
1070
    77
1070
     1
1070
    73
1070
     1
1070
   171
1070
     3
1070
   274
1070
     4
1070
   177
1070
    35
1070
   176
1070
    35
1070
   178
1070
    35
1070
    48
1040
-0.1
1070
    41
1040
3.5
1070
   147
1040
1.75
1070
    42
1040
1.5875
1070
    44
1040
2.0
1070
   140
1040
3.5
1002
}
1001
ACAD_DSTYLE_DIM_LINETYPE
1070
   380
1005
16
1001
ACAD_DSTYLE_DIM_EXT1_LINETYPE
1070
   381
1005
16
1001
ACAD_DSTYLE_DIM_EXT2_LINETYPE
1070
   382
1005
16
0
DIMENSION
5
120
100
AcDbEntity
8
SK2
62
256
6
ByLayer
370
13
48
1
60
0
100
AcDbDimension
2
_U1
10
62
20
-35.692985
30
0
11
8.5
21
-35.692985
31
0
70
32
71
1
72
1
41
1
210
0
220
0
230
1
3
Standard
100
AcDbAlignedDimension
13
-45
23
-7
33
0
14
62
24
0
34
0
50
0
100
AcDbRotatedDimension
1001
ACAD
1000
DSTYLE
1002
{
1070
   371
1070
    13
1070
   372
1070
    13
1070
   170
1070
     0
1070
   144
1040
1.0
1070
   277
1070
     2
1070
   278
1070
    44
1070
   146
1040
1.0
1070
   345
1005
16
1070
   347
1005
16
1070
   346
1005
16
1070
   344
1005
0
1070
   343
1005
0
1070
   172
1070
     1
1070
    76
1070
     0
1070
    75
1070
     0
1070
   282
1070
     0
1070
   281
1070
     0
1070
    71
1070
     0
1070
    74
1070
     0
1070
   279
1070
     0
1070
   173
1070
     1
1070
   340
1005
EF
1070
   271
1070
     2
1070
   272
1070
     2
1070
    77
1070
     1
1070
    73
1070
     1
1070
   171
1070
     3
1070
   274
1070
     4
1070
   177
1070
    35
1070
   176
1070
    35
1070
   178
1070
    35
1070
    48
1040
-0.1
1070
    41
1040
3.5
1070
   147
1040
1.75
1070
    42
1040
1.5875
1070
    44
1040
2.0
1070
   140
1040
3.5
1002
}
1001
ACAD_DSTYLE_DIM_LINETYPE
1070
   380
1005
16
1001
ACAD_DSTYLE_DIM_EXT1_LINETYPE
1070
   381
1005
16
1001
ACAD_DSTYLE_DIM_EXT2_LINETYPE
1070
   382
1005
16
0
DIMENSION
5
138
100
AcDbEntity
8
SK2
62
256
6
ByLayer
370
13
48
1
60
0
100
AcDbDimension
2
_U2
10
62
20
17.959119
30
0
11
41.73
21
17.959119
31
0
70
32
71
1
72
1
41
1
210
0
220
0
230
1
3
Standard
100
AcDbAlignedDimension
13
21.46
23
6.35
33
0
14
62
24
0
34
0
50
0
100
AcDbRotatedDimension
1001
ACAD
1000
DSTYLE
1002
{
1070
   371
1070
    13
1070
   372
1070
    13
1070
   170
1070
     0
1070
   144
1040
1.0
1070
   277
1070
     2
1070
   278
1070
    44
1070
   146
1040
1.0
1070
   345
1005
16
1070
   347
1005
16
1070
   346
1005
16
1070
   344
1005
0
1070
   343
1005
0
1070
   172
1070
     1
1070
    76
1070
     0
1070
    75
1070
     0
1070
   282
1070
     0
1070
   281
1070
     0
1070
    71
1070
     0
1070
    74
1070
     0
1070
   279
1070
     0
1070
   173
1070
     1
1070
   340
1005
EF
1070
   271
1070
     2
1070
   272
1070
     2
1070
    77
1070
     1
1070
    73
1070
     1
1070
   171
1070
     3
1070
   274
1070
     4
1070
   177
1070
    35
1070
   176
1070
    35
1070
   178
1070
    35
1070
    48
1040
-0.1
1070
    41
1040
3.5
1070
   147
1040
1.75
1070
    42
1040
1.5875
1070
    44
1040
2.0
1070
   140
1040
3.5
1002
}
1001
ACAD_DSTYLE_DIM_LINETYPE
1070
   380
1005
16
1001
ACAD_DSTYLE_DIM_EXT1_LINETYPE
1070
   381
1005
16
1001
ACAD_DSTYLE_DIM_EXT2_LINETYPE
1070
   382
1005
16
0
DIMENSION
5
150
100
AcDbEntity
8
SK2
62
256
6
ByLayer
370
13
48
1
60
0
100
AcDbDimension
2
_U3
10
59.5554
20
-19.152503
30
0
11
79.666667
21
-19.152503
31
0
70
32
71
1
72
1
41
1
210
0
220
0
230
1
3
Standard
100
AcDbAlignedDimension
13
62
23
0
33
0
14
59.5554
24
-6.35
34
0
50
0
100
AcDbRotatedDimension
1001
ACAD
1000
DSTYLE
1002
{
1070
   371
1070
    13
1070
   372
1070
    13
1070
   170
1070
     0
1070
   144
1040
1.0
1070
   277
1070
     2
1070
   278
1070
    44
1070
   146
1040
1.0
1070
   345
1005
16
1070
   347
1005
16
1070
   346
1005
16
1070
   344
1005
0
1070
   343
1005
0
1070
   172
1070
     1
1070
    76
1070
     0
1070
    75
1070
     0
1070
   282
1070
     0
1070
   281
1070
     0
1070
    71
1070
     0
1070
    74
1070
     0
1070
   279
1070
     0
1070
   173
1070
     1
1070
   340
1005
EF
1070
   271
1070
     2
1070
   272
1070
     2
1070
    77
1070
     1
1070
    73
1070
     1
1070
   171
1070
     3
1070
   274
1070
     4
1070
   177
1070
    35
1070
   176
1070
    35
1070
   178
1070
    35
1070
    48
1040
-0.1
1070
    41
1040
3.5
1070
   147
1040
1.75
1070
    42
1040
1.5875
1070
    44
1040
2.0
1070
   140
1040
3.5
1002
}
1001
ACAD_DSTYLE_DIM_LINETYPE
1070
   380
1005
16
1001
ACAD_DSTYLE_DIM_EXT1_LINETYPE
1070
   381
1005
16
1001
ACAD_DSTYLE_DIM_EXT2_LINETYPE
1070
   382
1005
16
0
DIMENSION
5
16A
100
AcDbEntity
8
SK2
62
256
6
ByLayer
370
13
48
1
60
0
100
AcDbDimension
2
_U4
10
59.5554
20
-25.343428
30
0
11
7.2777
21
-25.343428
31
0
70
32
71
1
72
1
41
1
210
0
220
0
230
1
3
Standard
100
AcDbAlignedDimension
13
-45
23
-7
33
0
14
59.5554
24
-6.35
34
0
50
0
100
AcDbRotatedDimension
1001
ACAD
1000
DSTYLE
1002
{
1070
   371
1070
    13
1070
   372
1070
    13
1070
   170
1070
     0
1070
   144
1040
1.0
1070
   277
1070
     2
1070
   278
1070
    44
1070
   146
1040
1.0
1070
   345
1005
16
1070
   347
1005
16
1070
   346
1005
16
1070
   344
1005
0
1070
   343
1005
0
1070
   172
1070
     1
1070
    76
1070
     0
1070
    75
1070
     0
1070
   282
1070
     0
1070
   281
1070
     0
1070
    71
1070
     0
1070
    74
1070
     0
1070
   279
1070
     0
1070
   173
1070
     1
1070
   340
1005
EF
1070
   271
1070
     2
1070
   272
1070
     2
1070
    77
1070
     1
1070
    73
1070
     1
1070
   171
1070
     3
1070
   274
1070
     4
1070
   177
1070
    35
1070
   176
1070
    35
1070
   178
1070
    35
1070
    48
1040
-0.1
1070
    41
1040
3.5
1070
   147
1040
1.75
1070
    42
1040
1.5875
1070
    44
1040
2.0
1070
   140
1040
3.5
1002
}
1001
ACAD_DSTYLE_DIM_LINETYPE
1070
   380
1005
16
1001
ACAD_DSTYLE_DIM_EXT1_LINETYPE
1070
   381
1005
16
1001
ACAD_DSTYLE_DIM_EXT2_LINETYPE
1070
   382
1005
16
0
ENDSEC
0
SECTION
2
OBJECTS
0
DICTIONARY
5
1f2
330
0
100
AcDbDictionary
280
0
281
1
3
ACAD_GROUP
350
1f3
3
ACAD_MLINESTYLE
350
1f4
0
DICTIONARY
5
1f3
330
0
100
AcDbDictionary
280
0
281
1
0
DICTIONARY
5
1f4
330
0
100
AcDbDictionary
280
0
281
1
3
Standard
350
18
0
MLINESTYLE
5
18
330
1f4
100
AcDbMlineStyle
2
Standard
70
0
3

62
256
51
90
52
90
71
2
49
-0.5
62
256
6
ByLayer
49
0.5
62
256
6
ByLayer
0
RASTERVARIABLES
5
1e0
330

100
AcDbRasterVariables
90
0
70
1
71
1
72
1
0
ENDSEC
0
EOF
