0
SECTION
2
HEADER
9
$ACADVER
1
AC1015
9
$DWGCODEPAGE
3
ANSI_1252
9
$HANDSEED
5
21a
9
$ANGBASE
50
0
9
$ANGDIR
70
0
9
$ATTMODE
70
1
9
$AUNITS
70
0
9
$AUPREC
70
0
9
$CECOLOR
62
256
9
$CELTSCALE
40
1
9
$CELTYPE
6
ByLayer
9
$CELWEIGHT
370
18
9
$CLAYER
8
0
9
$CMLJUST
70
0
9
$CMLSCALE
40
1
9
$CMLSTYLE
2
Standard
9
$DIMSTYLE
2
Standard
9
$TEXTSIZE
40
0.2
9
$TEXTSTYLE
7
Standard
9
$LUNITS
70
2
9
$LUPREC
70
4
9
$EXTNAMES
290
1
9
$INSUNITS
70
4
9
$LTSCALE
40
1
9
$LWDISPLAY
290
1
9
$PDMODE
70
0
9
$PDSIZE
40
0
9
$PLINEGEN
70
0
0
ENDSEC
0
SECTION
2
CLASSES
0
CLASS
1
RASTERVARIABLES
2
AcDbRasterVariables
3
ISM
90
0
280
0
281
0
0
ENDSEC
0
SECTION
2
TABLES
0
TABLE
2
VPORT
5
210
100
AcDbSymbolTable
0
VPORT
5
1
100
AcDbSymbolTableRecord
100
AcDbViewportTableRecord
2
*Active
70
0
10
0
20
0
11
1
21
1
12
-1
22
1
13
0
23
0
14
0.5
24
0.5
15
10
25
10
16
0
26
0
36
1
17
0
27
0
37
0
0
ENDTAB
0
TABLE
2
LTYPE
5
211
100
AcDbSymbolTable
0
LTYPE
5
14
100
AcDbSymbolTableRecord
100
AcDbLinetypeTableRecord
70
0
2
ByBlock
3

72
65
73
0
40
0
0
LTYPE
5
15
100
AcDbSymbolTableRecord
100
AcDbLinetypeTableRecord
70
0
2
ByLayer
3

72
65
73
0
40
0
0
LTYPE
5
16
100
AcDbSymbolTableRecord
100
AcDbLinetypeTableRecord
70
0
2
Continuous
3
Solid line
72
65
73
0
40
0
0
LTYPE
5
6E
100
AcDbSymbolTableRecord
100
AcDbLinetypeTableRecord
70
0
2
CENTER
3
____ _ ____ _ ____ _ ____
72
65
73
4
40
47.5
49
22
74
0
49
-8.5
74
0
49
8.5
74
0
49
-8.5
74
0
0
LTYPE
5
6F
100
AcDbSymbolTableRecord
100
AcDbLinetypeTableRecord
70
0
2
DASHED
3
__ __ __ __ __ __ __ __ __
72
65
73
2
40
25.72
49
12.86
74
0
49
-12.86
74
0
0
ENDTAB
0
TABLE
2
LAYER
5
212
100
AcDbSymbolTable
0
LAYER
5
10
100
AcDbSymbolTableRecord
100
AcDbLayerTableRecord
2
0
70
0
62
7
6
Continuous
290
1
370
-3
390
0
0
LAYER
5
71
100
AcDbSymbolTableRecord
100
AcDbLayerTableRecord
2
80
70
0
62
-6
6
Continuous
290
1
370
-3
390
0
0
LAYER
5
73
100
AcDbSymbolTableRecord
100
AcDbLayerTableRecord
2
81
70
0
62
-3
6
Continuous
290
1
370
-3
390
0
0
LAYER
5
75
100
AcDbSymbolTableRecord
100
AcDbLayerTableRecord
2
1
70
0
62
4
6
Continuous
290
1
370
-3
390
0
0
LAYER
5
87
100
AcDbSymbolTableRecord
100
AcDbLayerTableRecord
2
4
70
0
62
-2
6
CENTER
290
1
370
-3
390
0
0
LAYER
5
A2
100
AcDbSymbolTableRecord
100
AcDbLayerTableRecord
2
2
70
0
62
7
6
Continuous
290
1
370
-3
390
0
0
LAYER
5
125
100
AcDbSymbolTableRecord
100
AcDbLayerTableRecord
2
Defpoints
70
0
62
7
6
Continuous
290
0
370
-3
390
0
0
LAYER
5
1fc
100
AcDbSymbolTableRecord
100
AcDbLayerTableRecord
2
SK1
70
0
62
4
6
Continuous
290
1
370
-3
390
0
0
LAYER
5
1fd
100
AcDbSymbolTableRecord
100
AcDbLayerTableRecord
2
SK4
70
0
62
2
6
CENTER
290
1
370
-3
390
0
0
LAYER
5
1fe
100
AcDbSymbolTableRecord
100
AcDbLayerTableRecord
2
SK2
70
0
62
7
6
Continuous
290
1
370
-3
390
0
0
LAYER
5
1ff
100
AcDbSymbolTableRecord
100
AcDbLayerTableRecord
2
SK6
70
0
62
5
6
Continuous
290
1
370
-3
390
0
0
ENDTAB
0
TABLE
2
STYLE
5
213
100
AcDbSymbolTable
0
STYLE
5
11
100
AcDbSymbolTableRecord
100
AcDbTextStyleTableRecord
2
Standard
3
txt
70
0
71
0
40
0
41
1
42
0
50
0
0
STYLE
5
10A
100
AcDbSymbolTableRecord
100
AcDbTextStyleTableRecord
2
iso_b_vert
3
simplex.shx
70
0
71
0
40
0
41
1
42
0
50
0
0
STYLE
5
10B
100
AcDbSymbolTableRecord
100
AcDbTextStyleTableRecord
2
DWGDirectTextStyle
3
simplex
70
0
71
0
40
0
41
1
42
0
50
0
0
ENDTAB
0
TABLE
2
DIMSTYLE
5
214
100
AcDbSymbolTable
100
AcDbDimStyleTable
0
DIMSTYLE
105
27
100
AcDbSymbolTableRecord
100
AcDbDimStyleTableRecord
2
Standard
70
0
3
<>
41
0.18
42
0.0625
44
0.18
140
0.18
147
0.09
73
0
74
0
77
1
271
2
275
0
278
52
280
0
340
11
0
ENDTAB
0
TABLE
2
VIEW
5
215
100
AcDbSymbolTable
0
ENDTAB
0
TABLE
2
UCS
5
216
100
AcDbSymbolTable
0
ENDTAB
0
TABLE
2
APPID
5
217
100
AcDbSymbolTable
0
APPID
5
12
100
AcDbSymbolTableRecord
100
AcDbRegAppTableRecord
2
ACAD
70
0
0
APPID
5
121
100
AcDbSymbolTableRecord
100
AcDbRegAppTableRecord
2
ACAD_DSTYLE_DIMBREAK
70
0
0
APPID
5
1BB
100
AcDbSymbolTableRecord
100
AcDbRegAppTableRecord
2
ACAD_DSTYLE_DIM_LINETYPE
70
0
0
APPID
5
1BC
100
AcDbSymbolTableRecord
100
AcDbRegAppTableRecord
2
ACAD_DSTYLE_DIM_EXT1_LINETYPE
70
0
0
APPID
5
1BD
100
AcDbSymbolTableRecord
100
AcDbRegAppTableRecord
2
ACAD_DSTYLE_DIM_EXT2_LINETYPE
70
0
0
APPID
5
1F8
100
AcDbSymbolTableRecord
100
AcDbRegAppTableRecord
2
ACAD_MLEADERVER
70
0
0
ENDTAB
0
TABLE
2
BLOCK_RECORD
5
218
100
AcDbSymbolTable
0
BLOCK_RECORD
5
1F
100
AcDbSymbolTableRecord
100
AcDbBlockTableRecord
2
*Model_Space
340
0
70
0
0
BLOCK_RECORD
5
1B
100
AcDbSymbolTableRecord
100
AcDbBlockTableRecord
2
*Paper_Space
340
0
70
0
0
BLOCK_RECORD
5
23
100
AcDbSymbolTableRecord
100
AcDbBlockTableRecord
2
*Paper_Space0
340
0
70
0
0
BLOCK_RECORD
5
126
100
AcDbSymbolTableRecord
100
AcDbBlockTableRecord
2
*D1
340
0
70
0
0
BLOCK_RECORD
5
132
100
AcDbSymbolTableRecord
100
AcDbBlockTableRecord
2
_U0
340
0
70
0
0
BLOCK_RECORD
5
13E
100
AcDbSymbolTableRecord
100
AcDbBlockTableRecord
2
*D3
340
0
70
0
0
BLOCK_RECORD
5
14A
100
AcDbSymbolTableRecord
100
AcDbBlockTableRecord
2
_U1
340
0
70
0
0
BLOCK_RECORD
5
156
100
AcDbSymbolTableRecord
100
AcDbBlockTableRecord
2
*D5
340
0
70
0
0
BLOCK_RECORD
5
162
100
AcDbSymbolTableRecord
100
AcDbBlockTableRecord
2
_U2
340
0
70
0
0
BLOCK_RECORD
5
16E
100
AcDbSymbolTableRecord
100
AcDbBlockTableRecord
2
*D7
340
0
70
0
0
BLOCK_RECORD
5
17C
100
AcDbSymbolTableRecord
100
AcDbBlockTableRecord
2
_U3
340
0
70
0
0
BLOCK_RECORD
5
188
100
AcDbSymbolTableRecord
100
AcDbBlockTableRecord
2
*D9
340
0
70
0
0
BLOCK_RECORD
5
194
100
AcDbSymbolTableRecord
100
AcDbBlockTableRecord
2
_U4
340
0
70
0
0
ENDTAB
0
ENDSEC
0
SECTION
2
BLOCKS
0
BLOCK
5
20
100
AcDbEntity
8
0
100
AcDbBlockBegin
2
*Model_Space
70
0
10
0
20
0
30
0
3
*Model_Space
0
ENDBLK
5
21
100
AcDbEntity
8
0
100
AcDbBlockEnd
0
BLOCK
5
1C
100
AcDbEntity
8
0
100
AcDbBlockBegin
2
*Paper_Space
70
0
10
0
20
0
30
0
3
*Paper_Space
0
ENDBLK
5
1D
100
AcDbEntity
8
0
100
AcDbBlockEnd
0
BLOCK
5
24
100
AcDbEntity
8
0
100
AcDbBlockBegin
2
*Paper_Space0
70
0
10
0
20
0
30
0
3
*Paper_Space0
0
ENDBLK
5
25
100
AcDbEntity
8
0
100
AcDbBlockEnd
0
BLOCK
5
127
100
AcDbEntity
8
0
100
AcDbBlockBegin
2
*D1
70
1
10
0
20
0
30
0
3
*D1
0
LINE
5
129
100
AcDbEntity
8
0
62
256
6
ByLayer
370
-2
48
1
60
0
100
AcDbLine
10
0
20
-1.5875
30
0
11
0
21
-18.613398
31
0
39
0
210
0
220
0
230
1
0
LINE
5
12A
100
AcDbEntity
8
0
62
256
6
ByLayer
370
-2
48
1
60
0
100
AcDbLine
10
134.5382
20
-7.9875
30
0
11
134.5382
21
-18.613398
31
0
39
0
210
0
220
0
230
1
0
LINE
5
12B
100
AcDbEntity
8
0
62
256
6
ByLayer
370
-2
48
1
60
0
100
AcDbLine
10
3.5
20
-16.613398
30
0
11
131.0382
21
-16.613398
31
0
39
0
210
0
220
0
230
1
0
SOLID
5
12C
100
AcDbEntity
8
0
62
256
6
ByLayer
370
-1
48
1
60
0
100
AcDbTrace
10
3.5
20
-16.030065
30
0
11
3.5
21
-17.196732
31
0
12
0
22
-16.613398
32
0
13
0
23
-16.613398
33
0
39
0
210
0
220
0
230
1
0
SOLID
5
12D
100
AcDbEntity
8
0
62
256
6
ByLayer
370
-1
48
1
60
0
100
AcDbTrace
10
131.0382
20
-17.196732
30
0
11
131.0382
21
-16.030065
31
0
12
134.5382
22
-16.613398
32
0
13
134.5382
23
-16.613398
33
0
39
0
210
0
220
0
230
1
0
MTEXT
5
12E
100
AcDbEntity
8
0
62
256
6
ByLayer
370
18
48
1
60
0
100
AcDbMText
10
67.2691
20
-9.613398
30
0
210
0
220
0
230
1
1
\A1;134.54
40
3.5
41
0
44
1
50
0
71
5
72
5
7
iso_b_vert
0
POINT
5
12F
100
AcDbEntity
8
Defpoints
62
0
6
ByLayer
370
-1
48
1
60
0
100
AcDbPoint
10
0
20
0
30
0
39
0
210
0
220
0
230
1
50
360
0
POINT
5
130
100
AcDbEntity
8
Defpoints
62
0
6
ByLayer
370
-1
48
1
60
0
100
AcDbPoint
10
134.5382
20
-6.4
30
0
39
0
210
0
220
0
230
1
50
360
0
POINT
5
131
100
AcDbEntity
8
Defpoints
62
0
6
ByLayer
370
-1
48
1
60
0
100
AcDbPoint
10
134.5382
20
-16.613398
30
0
39
0
210
0
220
0
230
1
50
360
0
ENDBLK
5
128
100
AcDbEntity
8
0
100
AcDbBlockEnd
0
BLOCK
5
139
100
AcDbEntity
8
0
100
AcDbBlockBegin
2
_U0
70
0
10
0
20
0
30
0
3
_U0
0
MTEXT
5
133
100
AcDbEntity
8
2
62
256
6
ByLayer
370
13
48
1
60
0
100
AcDbMText
10
60.892968
20
-15.580765
30
0
210
0
220
0
230
1
1
\W0.7261;134,54
40
3.5
41
0
44
1.084337
50
0
71
7
72
5
7
iso_b_vert
0
LINE
5
134
100
AcDbEntity
8
2
62
256
6
ByLayer
370
13
48
1
60
0
100
AcDbLine
10
0
20
-1.5875
30
0
11
0
21
-18.613398
31
0
39
0
210
0
220
0
230
1
0
LINE
5
135
100
AcDbEntity
8
2
62
256
6
ByLayer
370
13
48
1
60
0
100
AcDbLine
10
134.5382
20
-7.9875
30
0
11
134.5382
21
-18.613398
31
0
39
0
210
0
220
0
230
1
0
LINE
5
136
100
AcDbEntity
8
2
62
256
6
ByLayer
370
13
48
1
60
0
100
AcDbLine
10
0
20
-16.613398
30
0
11
134.5382
21
-16.613398
31
0
39
0
210
0
220
0
230
1
0
SOLID
5
137
100
AcDbEntity
8
2
62
256
6
ByLayer
370
18
48
1
60
0
100
AcDbTrace
10
0
20
-16.613398
30
0
11
3.499998
21
-16.152615
31
0
12
3.500002
22
-17.074182
32
0
13
3.500002
23
-17.074182
33
0
39
0
210
0
220
0
230
1
0
SOLID
5
138
100
AcDbEntity
8
2
62
256
6
ByLayer
370
18
48
1
60
0
100
AcDbTrace
10
134.5382
20
-16.613398
30
0
11
131.038202
21
-17.074182
31
0
12
131.038198
22
-16.152615
32
0
13
131.038198
23
-16.152615
33
0
39
0
210
0
220
0
230
1
0
ENDBLK
5
13A
100
AcDbEntity
8
0
100
AcDbBlockEnd
0
BLOCK
5
13F
100
AcDbEntity
8
0
100
AcDbBlockBegin
2
*D3
70
1
10
0
20
0
30
0
3
*D3
0
LINE
5
141
100
AcDbEntity
8
0
62
256
6
ByLayer
370
-2
48
1
60
0
100
AcDbLine
10
-45
20
-8.5875
30
0
11
-45
21
-37.692985
31
0
39
0
210
0
220
0
230
1
0
LINE
5
142
100
AcDbEntity
8
0
62
256
6
ByLayer
370
-2
48
1
60
0
100
AcDbLine
10
137
20
-1.5875
30
0
11
137
21
-37.692985
31
0
39
0
210
0
220
0
230
1
0
LINE
5
143
100
AcDbEntity
8
0
62
256
6
ByLayer
370
-2
48
1
60
0
100
AcDbLine
10
-41.5
20
-35.692985
30
0
11
133.5
21
-35.692985
31
0
39
0
210
0
220
0
230
1
0
SOLID
5
144
100
AcDbEntity
8
0
62
256
6
ByLayer
370
-1
48
1
60
0
100
AcDbTrace
10
-41.5
20
-35.109652
30
0
11
-41.5
21
-36.276319
31
0
12
-45
22
-35.692985
32
0
13
-45
23
-35.692985
33
0
39
0
210
0
220
0
230
1
0
SOLID
5
145
100
AcDbEntity
8
0
62
256
6
ByLayer
370
-1
48
1
60
0
100
AcDbTrace
10
133.5
20
-36.276319
30
0
11
133.5
21
-35.109652
31
0
12
137
22
-35.692985
32
0
13
137
23
-35.692985
33
0
39
0
210
0
220
0
230
1
0
MTEXT
5
146
100
AcDbEntity
8
0
62
256
6
ByLayer
370
18
48
1
60
0
100
AcDbMText
10
46
20
-28.692985
30
0
210
0
220
0
230
1
1
\A1;182.00
40
3.5
41
0
44
1
50
0
71
5
72
5
7
iso_b_vert
0
POINT
5
147
100
AcDbEntity
8
Defpoints
62
0
6
ByLayer
370
-1
48
1
60
0
100
AcDbPoint
10
-45
20
-7
30
0
39
0
210
0
220
0
230
1
50
360
0
POINT
5
148
100
AcDbEntity
8
Defpoints
62
0
6
ByLayer
370
-1
48
1
60
0
100
AcDbPoint
10
137
20
0
30
0
39
0
210
0
220
0
230
1
50
360
0
POINT
5
149
100
AcDbEntity
8
Defpoints
62
0
6
ByLayer
370
-1
48
1
60
0
100
AcDbPoint
10
137
20
-35.692985
30
0
39
0
210
0
220
0
230
1
50
360
0
ENDBLK
5
140
100
AcDbEntity
8
0
100
AcDbBlockEnd
0
BLOCK
5
151
100
AcDbEntity
8
0
100
AcDbBlockBegin
2
_U1
70
0
10
0
20
0
30
0
3
_U1
0
MTEXT
5
14B
100
AcDbEntity
8
SK2
62
256
6
ByLayer
370
13
48
1
60
0
100
AcDbMText
10
39.992401
20
-34.660352
30
0
210
0
220
0
230
1
1
\W0.6930;182,00
40
3.5
41
0
44
1.084337
50
0
71
7
72
5
7
iso_b_vert
0
LINE
5
14C
100
AcDbEntity
8
SK2
62
256
6
ByLayer
370
13
48
1
60
0
100
AcDbLine
10
-45
20
-8.5875
30
0
11
-45
21
-37.692985
31
0
39
0
210
0
220
0
230
1
0
LINE
5
14D
100
AcDbEntity
8
SK2
62
256
6
ByLayer
370
13
48
1
60
0
100
AcDbLine
10
137
20
-1.5875
30
0
11
137
21
-37.692985
31
0
39
0
210
0
220
0
230
1
0
LINE
5
14E
100
AcDbEntity
8
SK2
62
256
6
ByLayer
370
13
48
1
60
0
100
AcDbLine
10
-45
20
-35.692985
30
0
11
137
21
-35.692985
31
0
39
0
210
0
220
0
230
1
0
SOLID
5
14F
100
AcDbEntity
8
SK2
62
256
6
ByLayer
370
18
48
1
60
0
100
AcDbTrace
10
-45
20
-35.692985
30
0
11
-41.500002
21
-35.232202
31
0
12
-41.499998
22
-36.153769
32
0
13
-41.499998
23
-36.153769
33
0
39
0
210
0
220
0
230
1
0
SOLID
5
150
100
AcDbEntity
8
SK2
62
256
6
ByLayer
370
18
48
1
60
0
100
AcDbTrace
10
137
20
-35.692985
30
0
11
133.500002
21
-36.153769
31
0
12
133.499998
22
-35.232202
32
0
13
133.499998
23
-35.232202
33
0
39
0
210
0
220
0
230
1
0
ENDBLK
5
152
100
AcDbEntity
8
0
100
AcDbBlockEnd
0
BLOCK
5
157
100
AcDbEntity
8
0
100
AcDbBlockBegin
2
*D5
70
1
10
0
20
0
30
0
3
*D5
0
LINE
5
159
100
AcDbEntity
8
0
62
256
6
ByLayer
370
-2
48
1
60
0
100
AcDbLine
10
32.14
20
7.9875
30
0
11
32.14
21
20.009119
31
0
39
0
210
0
220
0
230
1
0
LINE
5
15A
100
AcDbEntity
8
0
62
256
6
ByLayer
370
-2
48
1
60
0
100
AcDbLine
10
137
20
1.5875
30
0
11
137
21
20.009119
31
0
39
0
210
0
220
0
230
1
0
LINE
5
15B
100
AcDbEntity
8
0
62
256
6
ByLayer
370
-2
48
1
60
0
100
AcDbLine
10
35.64
20
18.009119
30
0
11
133.5
21
18.009119
31
0
39
0
210
0
220
0
230
1
0
SOLID
5
15C
100
AcDbEntity
8
0
62
256
6
ByLayer
370
-1
48
1
60
0
100
AcDbTrace
10
35.64
20
18.592453
30
0
11
35.64
21
17.425786
31
0
12
32.14
22
18.009119
32
0
13
32.14
23
18.009119
33
0
39
0
210
0
220
0
230
1
0
SOLID
5
15D
100
AcDbEntity
8
0
62
256
6
ByLayer
370
-1
48
1
60
0
100
AcDbTrace
10
133.5
20
17.425786
30
0
11
133.5
21
18.592453
31
0
12
137
22
18.009119
32
0
13
137
23
18.009119
33
0
39
0
210
0
220
0
230
1
0
MTEXT
5
15E
100
AcDbEntity
8
0
62
256
6
ByLayer
370
18
48
1
60
0
100
AcDbMText
10
84.57
20
25.009119
30
0
210
0
220
0
230
1
1
\A1;104.86
40
3.5
41
0
44
1
50
0
71
5
72
5
7
iso_b_vert
0
POINT
5
15F
100
AcDbEntity
8
Defpoints
62
0
6
ByLayer
370
-1
48
1
60
0
100
AcDbPoint
10
32.14
20
6.4
30
0
39
0
210
0
220
0
230
1
50
360
0
POINT
5
160
100
AcDbEntity
8
Defpoints
62
0
6
ByLayer
370
-1
48
1
60
0
100
AcDbPoint
10
137
20
0
30
0
39
0
210
0
220
0
230
1
50
360
0
POINT
5
161
100
AcDbEntity
8
Defpoints
62
0
6
ByLayer
370
-1
48
1
60
0
100
AcDbPoint
10
137
20
18.009119
30
0
39
0
210
0
220
0
230
1
50
360
0
ENDBLK
5
158
100
AcDbEntity
8
0
100
AcDbBlockEnd
0
BLOCK
5
169
100
AcDbEntity
8
0
100
AcDbBlockBegin
2
_U2
70
0
10
0
20
0
30
0
3
_U2
0
MTEXT
5
163
100
AcDbEntity
8
SK2
62
256
6
ByLayer
370
13
48
1
60
0
100
AcDbMText
10
78.378135
20
19.041753
30
0
210
0
220
0
230
1
1
\W0.7145;104,86
40
3.5
41
0
44
1.084337
50
0
71
7
72
5
7
iso_b_vert
0
LINE
5
164
100
AcDbEntity
8
SK2
62
256
6
ByLayer
370
13
48
1
60
0
100
AcDbLine
10
32.14
20
7.9875
30
0
11
32.14
21
20.009119
31
0
39
0
210
0
220
0
230
1
0
LINE
5
165
100
AcDbEntity
8
SK2
62
256
6
ByLayer
370
13
48
1
60
0
100
AcDbLine
10
137
20
1.5875
30
0
11
137
21
20.009119
31
0
39
0
210
0
220
0
230
1
0
LINE
5
166
100
AcDbEntity
8
SK2
62
256
6
ByLayer
370
13
48
1
60
0
100
AcDbLine
10
32.14
20
18.009119
30
0
11
137
21
18.009119
31
0
39
0
210
0
220
0
230
1
0
SOLID
5
167
100
AcDbEntity
8
SK2
62
256
6
ByLayer
370
18
48
1
60
0
100
AcDbTrace
10
32.14
20
18.009119
30
0
11
35.639998
21
18.469903
31
0
12
35.640002
22
17.548335
32
0
13
35.640002
23
17.548335
33
0
39
0
210
0
220
0
230
1
0
SOLID
5
168
100
AcDbEntity
8
SK2
62
256
6
ByLayer
370
18
48
1
60
0
100
AcDbTrace
10
137
20
18.009119
30
0
11
133.500002
21
17.548335
31
0
12
133.499998
22
18.469903
32
0
13
133.499998
23
18.469903
33
0
39
0
210
0
220
0
230
1
0
ENDBLK
5
16A
100
AcDbEntity
8
0
100
AcDbBlockEnd
0
BLOCK
5
16F
100
AcDbEntity
8
0
100
AcDbBlockBegin
2
*D7
70
1
10
0
20
0
30
0
3
*D7
0
LINE
5
171
100
AcDbEntity
8
0
62
256
6
ByLayer
370
-2
48
1
60
0
100
AcDbLine
10
137
20
-1.5875
30
0
11
137
21
-21.202503
31
0
39
0
210
0
220
0
230
1
0
LINE
5
172
100
AcDbEntity
8
0
62
256
6
ByLayer
370
-2
48
1
60
0
100
AcDbLine
10
134.5382
20
-7.9875
30
0
11
134.5382
21
-21.202503
31
0
39
0
210
0
220
0
230
1
0
LINE
5
173
100
AcDbEntity
8
0
62
256
6
ByLayer
370
-2
48
1
60
0
100
AcDbLine
10
137
20
-19.202503
30
0
11
165.166667
21
-19.202503
31
0
39
0
210
0
220
0
230
1
0
LINE
5
174
100
AcDbEntity
8
0
62
256
6
ByLayer
370
-2
48
1
60
0
100
AcDbLine
10
140.5
20
-19.202503
30
0
11
144
21
-19.202503
31
0
39
0
210
0
220
0
230
1
0
LINE
5
175
100
AcDbEntity
8
0
62
256
6
ByLayer
370
-2
48
1
60
0
100
AcDbLine
10
131.0382
20
-19.202503
30
0
11
127.5382
21
-19.202503
31
0
39
0
210
0
220
0
230
1
0
SOLID
5
176
100
AcDbEntity
8
0
62
256
6
ByLayer
370
-1
48
1
60
0
100
AcDbTrace
10
140.5
20
-18.61917
30
0
11
140.5
21
-19.785837
31
0
12
137
22
-19.202503
32
0
13
137
23
-19.202503
33
0
39
0
210
0
220
0
230
1
0
SOLID
5
177
100
AcDbEntity
8
0
62
256
6
ByLayer
370
-1
48
1
60
0
100
AcDbTrace
10
131.0382
20
-19.785837
30
0
11
131.0382
21
-18.61917
31
0
12
134.5382
22
-19.202503
32
0
13
134.5382
23
-19.202503
33
0
39
0
210
0
220
0
230
1
0
MTEXT
5
178
100
AcDbEntity
8
0
62
256
6
ByLayer
370
18
48
1
60
0
100
AcDbMText
10
154.583333
20
-12.202503
30
0
210
0
220
0
230
1
1
\A1;2.46
40
3.5
41
0
44
1
50
0
71
5
72
5
7
iso_b_vert
0
POINT
5
179
100
AcDbEntity
8
Defpoints
62
0
6
ByLayer
370
-1
48
1
60
0
100
AcDbPoint
10
137
20
0
30
0
39
0
210
0
220
0
230
1
50
360
0
POINT
5
17A
100
AcDbEntity
8
Defpoints
62
0
6
ByLayer
370
-1
48
1
60
0
100
AcDbPoint
10
134.5382
20
-6.4
30
0
39
0
210
0
220
0
230
1
50
360
0
POINT
5
17B
100
AcDbEntity
8
Defpoints
62
0
6
ByLayer
370
-1
48
1
60
0
100
AcDbPoint
10
134.5382
20
-19.202503
30
0
39
0
210
0
220
0
230
1
50
360
0
ENDBLK
5
170
100
AcDbEntity
8
0
100
AcDbBlockEnd
0
BLOCK
5
183
100
AcDbEntity
8
0
100
AcDbBlockBegin
2
_U3
70
0
10
0
20
0
30
0
3
_U3
0
MTEXT
5
17D
100
AcDbEntity
8
SK2
62
256
6
ByLayer
370
13
48
1
60
0
100
AcDbMText
10
142.967593
20
-18.16987
30
0
210
0
220
0
230
1
1
\W0.7493;2,46
40
3.5
41
0
44
1.084337
50
0
71
7
72
5
7
iso_b_vert
0
LINE
5
17E
100
AcDbEntity
8
SK2
62
256
6
ByLayer
370
13
48
1
60
0
100
AcDbLine
10
137
20
-1.5875
30
0
11
137
21
-21.202503
31
0
39
0
210
0
220
0
230
1
0
LINE
5
17F
100
AcDbEntity
8
SK2
62
256
6
ByLayer
370
13
48
1
60
0
100
AcDbLine
10
134.5382
20
-7.9875
30
0
11
134.5382
21
-21.202503
31
0
39
0
210
0
220
0
230
1
0
LINE
5
180
100
AcDbEntity
8
SK2
62
256
6
ByLayer
370
13
48
1
60
0
100
AcDbLine
10
125.7882
20
-19.202503
30
0
11
151.180758
21
-19.202503
31
0
39
0
210
0
220
0
230
1
0
SOLID
5
181
100
AcDbEntity
8
SK2
62
256
6
ByLayer
370
18
48
1
60
0
100
AcDbTrace
10
137
20
-19.202503
30
0
11
140.499998
21
-18.741719
31
0
12
140.500002
22
-19.663287
32
0
13
140.500002
23
-19.663287
33
0
39
0
210
0
220
0
230
1
0
SOLID
5
182
100
AcDbEntity
8
SK2
62
256
6
ByLayer
370
18
48
1
60
0
100
AcDbTrace
10
134.5382
20
-19.202503
30
0
11
131.038202
21
-19.663287
31
0
12
131.038198
22
-18.741719
32
0
13
131.038198
23
-18.741719
33
0
39
0
210
0
220
0
230
1
0
ENDBLK
5
184
100
AcDbEntity
8
0
100
AcDbBlockEnd
0
BLOCK
5
189
100
AcDbEntity
8
0
100
AcDbBlockBegin
2
*D9
70
1
10
0
20
0
30
0
3
*D9
0
LINE
5
18B
100
AcDbEntity
8
0
62
256
6
ByLayer
370
-2
48
1
60
0
100
AcDbLine
10
-45
20
-8.5875
30
0
11
-45
21
-27.343428
31
0
39
0
210
0
220
0
230
1
0
LINE
5
18C
100
AcDbEntity
8
0
62
256
6
ByLayer
370
-2
48
1
60
0
100
AcDbLine
10
134.5382
20
-7.9875
30
0
11
134.5382
21
-27.343428
31
0
39
0
210
0
220
0
230
1
0
LINE
5
18D
100
AcDbEntity
8
0
62
256
6
ByLayer
370
-2
48
1
60
0
100
AcDbLine
10
-41.5
20
-25.343428
30
0
11
131.0382
21
-25.343428
31
0
39
0
210
0
220
0
230
1
0
SOLID
5
18E
100
AcDbEntity
8
0
62
256
6
ByLayer
370
-1
48
1
60
0
100
AcDbTrace
10
-41.5
20
-24.760095
30
0
11
-41.5
21
-25.926762
31
0
12
-45
22
-25.343428
32
0
13
-45
23
-25.343428
33
0
39
0
210
0
220
0
230
1
0
SOLID
5
18F
100
AcDbEntity
8
0
62
256
6
ByLayer
370
-1
48
1
60
0
100
AcDbTrace
10
131.0382
20
-25.926762
30
0
11
131.0382
21
-24.760095
31
0
12
134.5382
22
-25.343428
32
0
13
134.5382
23
-25.343428
33
0
39
0
210
0
220
0
230
1
0
MTEXT
5
190
100
AcDbEntity
8
0
62
256
6
ByLayer
370
18
48
1
60
0
100
AcDbMText
10
44.7691
20
-18.343428
30
0
210
0
220
0
230
1
1
\A1;179.54
40
3.5
41
0
44
1
50
0
71
5
72
5
7
iso_b_vert
0
POINT
5
191
100
AcDbEntity
8
Defpoints
62
0
6
ByLayer
370
-1
48
1
60
0
100
AcDbPoint
10
-45
20
-7
30
0
39
0
210
0
220
0
230
1
50
360
0
POINT
5
192
100
AcDbEntity
8
Defpoints
62
0
6
ByLayer
370
-1
48
1
60
0
100
AcDbPoint
10
134.5382
20
-6.4
30
0
39
0
210
0
220
0
230
1
50
360
0
POINT
5
193
100
AcDbEntity
8
Defpoints
62
0
6
ByLayer
370
-1
48
1
60
0
100
AcDbPoint
10
134.5382
20
-25.343428
30
0
39
0
210
0
220
0
230
1
50
360
0
ENDBLK
5
18A
100
AcDbEntity
8
0
100
AcDbBlockEnd
0
BLOCK
5
19B
100
AcDbEntity
8
0
100
AcDbBlockBegin
2
_U4
70
0
10
0
20
0
30
0
3
_U4
0
MTEXT
5
195
100
AcDbEntity
8
SK2
62
256
6
ByLayer
370
13
48
1
60
0
100
AcDbMText
10
38.577235
20
-24.310795
30
0
210
0
220
0
230
1
1
\W0.7079;179,54
40
3.5
41
0
44
1.084337
50
0
71
7
72
5
7
iso_b_vert
0
LINE
5
196
100
AcDbEntity
8
SK2
62
256
6
ByLayer
370
13
48
1
60
0
100
AcDbLine
10
-45
20
-8.5875
30
0
11
-45
21
-27.343428
31
0
39
0
210
0
220
0
230
1
0
LINE
5
197
100
AcDbEntity
8
SK2
62
256
6
ByLayer
370
13
48
1
60
0
100
AcDbLine
10
134.5382
20
-7.9875
30
0
11
134.5382
21
-27.343428
31
0
39
0
210
0
220
0
230
1
0
LINE
5
198
100
AcDbEntity
8
SK2
62
256
6
ByLayer
370
13
48
1
60
0
100
AcDbLine
10
-45
20
-25.343428
30
0
11
134.5382
21
-25.343428
31
0
39
0
210
0
220
0
230
1
0
SOLID
5
199
100
AcDbEntity
8
SK2
62
256
6
ByLayer
370
18
48
1
60
0
100
AcDbTrace
10
-45
20
-25.343428
30
0
11
-41.500002
21
-24.882645
31
0
12
-41.499998
22
-25.804212
32
0
13
-41.499998
23
-25.804212
33
0
39
0
210
0
220
0
230
1
0
SOLID
5
19A
100
AcDbEntity
8
SK2
62
256
6
ByLayer
370
18
48
1
60
0
100
AcDbTrace
10
134.5382
20
-25.343428
30
0
11
131.038202
21
-25.804212
31
0
12
131.038198
22
-24.882645
32
0
13
131.038198
23
-24.882645
33
0
39
0
210
0
220
0
230
1
0
ENDBLK
5
19C
100
AcDbEntity
8
0
100
AcDbBlockEnd
0
ENDSEC
0
SECTION
2
ENTITIES
0
ARC
5
AB
100
AcDbEntity
8
1
62
256
6
ByLayer
370
18
48
1
60
0
100
AcDbCircle
39
0
10
1.466147
20
-7.010472
30
0
40
0.850000000000002
210
0
220
0
230
1
100
AcDbArc
50
89.896868
51
149.591626
0
ARC
5
AC
100
AcDbEntity
8
1
62
256
6
ByLayer
370
18
48
1
60
0
100
AcDbCircle
39
0
10
1.466147
20
7.010472
30
0
40
0.850000000000002
210
0
220
0
230
1
100
AcDbArc
50
210.408374
51
270.103132
0
ARC
5
AD
100
AcDbEntity
8
1
62
256
6
ByLayer
370
18
48
1
60
0
100
AcDbCircle
39
0
10
0
20
-6.15
30
0
40
0.849999999999997
210
0
220
0
230
1
100
AcDbArc
50
270
51
329.591626
0
ARC
5
AE
100
AcDbEntity
8
1
62
256
6
ByLayer
370
18
48
1
60
0
100
AcDbCircle
39
0
10
0
20
6.15
30
0
40
0.849999999999997
210
0
220
0
230
1
100
AcDbArc
50
30.408374
51
90
0
ELLIPSE
5
AF
100
AcDbEntity
8
1
62
256
6
ByLayer
370
13
48
1
60
0
100
AcDbEllipse
10
5.678042
20
-0.415318
30
0
11
0.138323173494743
21
0.266208000770719
31
0
210
0
220
0
230
1
40
0.028706
41
1.51143527239888
42
2.55421069777352
0
ELLIPSE
5
B0
100
AcDbEntity
8
1
62
256
6
ByLayer
370
13
48
1
60
0
100
AcDbEllipse
10
181.194174
20
41.339538
30
0
11
-59.8999999999999
21
7.33539205939603E-15
31
0
210
0
220
0
230
1
40
0.99863
41
0.697841831758264
42
0.728029992803363
0
ELLIPSE
5
B1
100
AcDbEntity
8
1
62
256
6
ByLayer
370
13
48
1
60
0
100
AcDbEllipse
10
5.350403
20
-0.251554
30
0
11
-0.130727653780749
21
-0.270019037360295
31
0
210
0
220
0
230
1
40
0.441293
41
-1.39819633494906
42
-1.04455104603573
0
ELLIPSE
5
B2
100
AcDbEntity
8
1
62
256
6
ByLayer
370
13
48
1
60
0
100
AcDbEllipse
10
19.299309
20
67.539154
30
0
11
-45.0521887179641
21
58.7271440791544
31
0
210
0
220
0
230
1
40
0.740535
41
2.24007012502524
42
2.33854696277975
0
ELLIPSE
5
B3
100
AcDbEntity
8
1
62
256
6
ByLayer
370
13
48
1
60
0
100
AcDbEllipse
10
17.077607
20
-65.834789
30
0
11
45.0521887179643
21
58.7271440791544
31
0
210
0
220
0
230
1
40
0.740535
41
0.959607259235718
42
0.980283109529993
0
ELLIPSE
5
B4
100
AcDbEntity
8
1
62
256
6
ByLayer
370
18
48
1
60
0
100
AcDbEllipse
10
5.676694
20
7.015688
30
0
11
1
21
0
31
0
210
0
220
0
230
1
40
0.999998
41
-2.12597256015686
42
-1.56433389635758
0
ELLIPSE
5
B5
100
AcDbEntity
8
1
62
256
6
ByLayer
370
18
48
1
60
0
100
AcDbEllipse
10
5.676694
20
-7.015688
30
0
11
1
21
0
31
0
210
0
220
0
230
1
40
0.999998
41
1.57237333771836
42
2.12536392727659
0
POINT
5
70
100
AcDbEntity
8
80
62
256
6
ByLayer
370
18
48
1
60
0
100
AcDbPoint
10
0
20
0
30
0
39
0
210
0
220
0
230
1
50
360
0
POINT
5
72
100
AcDbEntity
8
81
62
256
6
ByLayer
370
18
48
1
60
0
100
AcDbPoint
10
137
20
0
30
0
39
0
210
0
220
0
230
1
50
360
0
POINT
5
74
100
AcDbEntity
8
1
62
256
6
ByLayer
370
18
48
1
60
1
100
AcDbPoint
10
134.5382
20
-6.4
30
0
39
0
210
0
220
0
230
1
50
360
0
POINT
5
76
100
AcDbEntity
8
1
62
256
6
ByLayer
370
18
48
1
60
1
100
AcDbPoint
10
-45
20
-7
30
0
39
0
210
0
220
0
230
1
50
360
0
POINT
5
77
100
AcDbEntity
8
1
62
256
6
ByLayer
370
18
48
1
60
1
100
AcDbPoint
10
32.14
20
6.4
30
0
39
0
210
0
220
0
230
1
50
360
0
POINT
5
78
100
AcDbEntity
8
1
62
256
6
ByLayer
370
18
48
1
60
1
100
AcDbPoint
10
134.5382
20
-6.4
30
0
39
0
210
0
220
0
230
1
50
360
0
POINT
5
79
100
AcDbEntity
8
1
62
256
6
ByLayer
370
18
48
1
60
1
100
AcDbPoint
10
-45
20
-7
30
0
39
0
210
0
220
0
230
1
50
360
0
POINT
5
7A
100
AcDbEntity
8
1
62
256
6
ByLayer
370
18
48
1
60
1
100
AcDbPoint
10
134.5382
20
-6.4
30
0
39
0
210
0
220
0
230
1
50
360
0
SPLINE
5
B6
100
AcDbEntity
8
1
62
256
6
ByLayer
370
18
48
1
60
0
100
AcDbSpline
70
4
71
3
72
8
73
4
40
0
40
0
40
0
40
0
40
1
40
1
40
1
40
1
41
1
10
134.042085534328
20
0.633895788885297
30
0
41
1
10
134.364215287884
20
0.503139253541349
30
0
41
1
10
134.688540209246
20
0.383904369764395
30
0
41
1
10
135.015300104294
20
0.277449792944196
30
0
0
SPLINE
5
B7
100
AcDbEntity
8
1
62
256
6
ByLayer
370
18
48
1
60
0
100
AcDbSpline
70
4
71
3
72
10
73
6
40
0
40
0
40
0
40
0
40
0.5
40
0.5
40
1
40
1
40
1
40
1
41
1
10
5.8282943721056
20
-5.70255989963445
30
0
41
1
10
5.85411464664946
20
-5.66031656679723
30
0
41
1
10
5.88501961801077
20
-5.61528644518904
30
0
41
1
10
5.95523610685478
20
-5.52173308027369
30
0
41
1
10
5.99444560046325
20
-5.47328906546764
30
0
41
1
10
6.03733867242298
20
-5.42335425219909
30
0
0
SPLINE
5
B8
100
AcDbEntity
8
1
62
256
6
ByLayer
370
18
48
1
60
0
100
AcDbSpline
70
4
71
3
72
34
73
30
40
0
40
0
40
0
40
0
40
0.163378409654323
40
0.163378409654323
40
0.267956108447532
40
0.267956108447532
40
0.372533807240741
40
0.372533807240741
40
0.424822656637346
40
0.424822656637346
40
0.477111506033951
40
0.477111506033951
40
0.58168920482716
40
0.58168920482716
40
0.633978054223765
40
0.633978054223765
40
0.686266903620371
40
0.686266903620371
40
0.790844602413581
40
0.790844602413581
40
0.816989027111884
40
0.816989027111884
40
0.843133451810186
40
0.843133451810186
40
0.895422301206791
40
0.895422301206791
40
0.947711150603395
40
0.947711150603395
40
1
40
1
40
1
40
1
41
1
10
10.8437614995239
20
-4.55315348806613
30
0
41
1
10
10.4506413322014
20
-4.70978674419902
30
0
41
1
10
10.0624374716288
20
-4.86217798896556
30
0
41
1
10
9.43515283099325
20
-5.10290561108937
30
0
41
1
10
9.19245395643486
20
-5.19456308602173
30
0
41
1
10
8.7141277577399
20
-5.37074824056199
30
0
41
1
10
8.48092839449987
20
-5.45439469062703
30
0
41
1
10
8.1417667969834
20
-5.57131085569924
30
0
41
1
10
8.03049294997976
20
-5.60884963972376
30
0
41
1
10
7.81190845363119
20
-5.68061630640526
30
0
41
1
10
7.70437186862432
20
-5.71491341469394
30
0
41
1
10
7.39018803624106
20
-5.81144547729289
30
0
41
1
10
7.19272228819605
20
-5.86716621909378
30
0
41
1
10
6.91900554109918
20
-5.93360194666158
30
0
41
1
10
6.83153539401053
20
-5.95287040077048
30
0
41
1
10
6.66528452398302
20
-5.98460156064974
30
0
41
1
10
6.58611362101755
20
-5.99710511480004
30
0
41
1
10
6.36722501352864
20
-6.02192542624323
30
0
41
1
10
6.24619185007899
20
-6.02185011178329
30
0
41
1
10
6.13381993589144
20
-5.99482308974308
30
0
41
1
10
6.11324496430919
20
-5.98801763434912
30
0
41
1
10
6.07677823190915
20
-5.97168656212062
30
0
41
1
10
6.06085207050518
20
-5.96217124946111
30
0
41
1
10
6.02003217827758
20
-5.92952867300005
30
0
41
1
10
6.0020844429074
20
-5.90231123129692
30
0
41
1
10
5.98520246940328
20
-5.83656829738823
30
0
41
1
10
5.986285080757
20
-5.79796774191198
30
0
41
1
10
6.00829766341809
20
-5.70915580268161
30
0
41
1
10
6.02900683228415
20
-5.65971275383791
30
0
41
1
10
6.05892573610714
20
-5.60547370854016
30
0
0
SPLINE
5
B9
100
AcDbEntity
8
1
62
256
6
ByLayer
370
18
48
1
60
0
100
AcDbSpline
70
4
71
3
72
18
73
14
40
0
40
0
40
0
40
0
40
0.249999999999998
40
0.249999999999998
40
0.374999999999999
40
0.374999999999999
40
0.499999999999999
40
0.499999999999999
40
0.75
40
0.75
40
0.875
40
0.875
40
1
40
1
40
1
40
1
41
1
10
134.042085534328
20
0.633895788885326
30
0
41
1
10
133.975457399176
20
0.308084447929417
30
0
41
1
10
133.921769323645
20
-0.0183937177137352
30
0
41
1
10
133.86067784105
20
-0.509112777056203
30
0
41
1
10
133.843568747835
20
-0.67285351918585
30
0
41
1
10
133.816051234212
20
-1.00068030123964
30
0
41
1
10
133.805616381158
20
-1.16560022898051
30
0
41
1
10
133.78510081328
20
-1.65391341947679
30
0
41
1
10
133.785596882747
20
-1.970130149959
30
0
41
1
10
133.80697697171
20
-2.43087751459132
30
0
41
1
10
133.817559626046
20
-2.58218607417726
30
0
41
1
10
133.845730545956
20
-2.88019375470887
30
0
41
1
10
133.863385264066
20
-3.0272397095321
30
0
41
1
10
133.884395970682
20
-3.17033146587295
30
0
0
SPLINE
5
BA
100
AcDbEntity
8
1
62
256
6
ByLayer
370
18
48
1
60
0
100
AcDbSpline
70
4
71
3
72
18
73
14
40
0
40
0
40
0
40
0
40
0.125
40
0.125
40
0.25
40
0.25
40
0.5
40
0.5
40
0.75
40
0.75
40
0.875
40
0.875
40
1
40
1
40
1
40
1
41
1
10
136.050635138218
20
-1.41633769281344
30
0
41
1
10
135.985330589821
20
-1.42273740737619
30
0
41
1
10
135.922759657492
20
-1.41460394888404
30
0
41
1
10
135.802223601299
20
-1.37385041425966
30
0
41
1
10
135.744267157213
20
-1.34118419238959
30
0
41
1
10
135.576741787763
20
-1.20945807310048
30
0
41
1
10
135.478830614258
20
-1.08188117453452
30
0
41
1
10
135.304505815587
20
-0.766254739205237
30
0
41
1
10
135.231272848601
20
-0.583725384508625
30
0
41
1
10
135.137811707449
20
-0.280852227855121
30
0
41
1
10
135.109445410787
20
-0.174948565721536
30
0
41
1
10
135.058030925949
20
0.0462951156633835
30
0
41
1
10
135.035233001944
20
0.160643256678725
30
0
41
1
10
135.015300104294
20
0.277449792944196
30
0
0
SPLINE
5
BB
100
AcDbEntity
8
1
62
256
6
ByLayer
370
18
48
1
60
0
100
AcDbSpline
70
4
71
1
72
4
73
2
40
0
40
0
40
1
40
1
41
1
10
136.048040432558
20
-1.43329957525015
30
0
41
1
10
136.052501399516
20
-1.41823960319138
30
0
0
SPLINE
5
BC
100
AcDbEntity
8
1
62
256
6
ByLayer
370
18
48
1
60
0
100
AcDbSpline
70
4
71
3
72
22
73
18
40
0
40
0
40
0
40
0
40
0.250000000000012
40
0.250000000000012
40
0.375000000000016
40
0.375000000000016
40
0.437500000000016
40
0.437500000000016
40
0.500000000000016
40
0.500000000000016
40
0.750000000000007
40
0.750000000000007
40
0.812500000000005
40
0.812500000000005
40
0.875000000000003
40
0.875000000000003
40
1
40
1
40
1
40
1
41
1
10
134.629373588797
20
-5.97613289283265
30
0
41
1
10
134.502897870727
20
-5.86660932002133
30
0
41
1
10
134.390570965635
20
-5.72524187051127
30
0
41
1
10
134.244047234766
20
-5.46375173940066
30
0
41
1
10
134.198888264772
20
-5.36830089205966
30
0
41
1
10
134.136989714225
20
-5.21198110170602
30
0
41
1
10
134.117286433054
20
-5.15752345509227
30
0
41
1
10
134.080282941019
20
-5.04526263898381
30
0
41
1
10
134.062943409401
20
-4.98738596389614
30
0
41
1
10
133.982010094473
20
-4.68934146497807
30
0
41
1
10
133.935556453817
20
-4.42341998840848
30
0
41
1
10
133.901125868431
20
-4.05550354196461
30
0
41
1
10
133.895431334616
20
-3.98012985791752
30
0
41
1
10
133.886486213891
20
-3.82571037570244
30
0
41
1
10
133.883238897013
20
-3.74654036378052
30
0
41
1
10
133.877307629858
20
-3.5058788223194
30
0
41
1
10
133.878368354041
20
-3.34053371131927
30
0
41
1
10
133.884395970682
20
-3.17033146587295
30
0
0
SPLINE
5
BD
100
AcDbEntity
8
1
62
256
6
ByLayer
370
18
48
1
60
0
100
AcDbSpline
70
4
71
3
72
34
73
30
40
0
40
0
40
0
40
0
40
0.0039471206722685
40
0.0039471206722685
40
0.0223925443635232
40
0.0223925443635232
40
0.0408379680547779
40
0.0408379680547779
40
0.114619662819798
40
0.114619662819798
40
0.151510510202307
40
0.151510510202307
40
0.188401357584816
40
0.188401357584816
40
0.262183052349835
40
0.262183052349835
40
0.335964747114854
40
0.335964747114854
40
0.372855594497363
40
0.372855594497363
40
0.409746441879871
40
0.409746441879871
40
0.704873220939935
40
0.704873220939935
40
0.852436610469968
40
0.852436610469968
40
0.926218305234984
40
0.926218305234984
40
1
40
1
40
1
40
1
41
1
10
6.28883388240772
20
6.01650621172536
30
0
41
1
10
6.29501640049315
20
6.01672107210118
30
0
41
1
10
6.30128503306713
20
6.0168808310369
30
0
41
1
10
6.33733227683871
20
6.01747775223103
30
0
41
1
10
6.36900488430524
20
6.01676737197366
30
0
41
1
10
6.43526630186187
20
6.01310279514669
30
0
41
1
10
6.46986296339827
20
6.01015837309868
30
0
41
1
10
6.64960489122444
20
5.99036102399978
30
0
41
1
10
6.81477621834543
20
5.9584860425623
30
0
41
1
10
7.08732851621664
20
5.89293155983219
30
0
41
1
10
7.18269779855274
20
5.86798766676216
30
0
41
1
10
7.37932267658664
20
5.81328642730105
30
0
41
1
10
7.4802871497244
20
5.78362500598411
30
0
41
1
10
7.79008107148275
20
5.68882527550642
30
0
41
1
10
8.00575443746101
20
5.61793020535754
30
0
41
1
10
8.45168268330659
20
5.46471385387727
30
0
41
1
10
8.68197533641603
20
5.38235391787671
30
0
41
1
10
9.03672448837753
20
5.25201829042049
30
0
41
1
10
9.15674563834267
20
5.20735007675742
30
0
41
1
10
9.39816278474632
20
5.11655037625181
30
0
41
1
10
9.51965690128756
20
5.07038537829192
30
0
41
1
10
10.6195383184893
20
4.64900099507034
30
0
41
1
10
11.6414638352844
20
4.23491175676131
30
0
41
1
10
13.218138290466
20
3.58827676439151
30
0
41
1
10
13.751924239341
20
3.36787152206696
30
0
41
1
10
14.5564893775377
20
3.03598745256284
30
0
41
1
10
14.8255492242186
20
2.92491262796727
30
0
41
1
10
15.3655623058733
20
2.70114028327936
30
0
41
1
10
15.6364309937719
20
2.588747278314
30
0
41
1
10
15.9080928352395
20
2.47601385632657
30
0
0
SPLINE
5
BE
100
AcDbEntity
8
1
62
256
6
ByLayer
370
18
48
1
60
0
100
AcDbSpline
70
4
71
3
72
38
73
34
40
0
40
0
40
0
40
0
40
0.0014909744132411
40
0.0014909744132411
40
0.0414313354367114
40
0.0414313354367114
40
0.201192779530593
40
0.201192779530593
40
0.241133140554063
40
0.241133140554063
40
0.281073501577534
40
0.281073501577534
40
0.360954223624474
40
0.360954223624474
40
0.400894584647945
40
0.400894584647945
40
0.440834945671416
40
0.440834945671416
40
0.520715667718356
40
0.520715667718356
40
0.600596389765297
40
0.600596389765297
40
0.640536750788767
40
0.640536750788767
40
0.680477111812237
40
0.680477111812237
40
0.840238555906119
40
0.840238555906119
40
0.880178916929589
40
0.880178916929589
40
0.920119277953059
40
0.920119277953059
40
1
40
1
40
1
40
1
41
1
10
5.14766275981367
20
6.16709666246791
30
0
41
1
10
5.14766066962784
20
6.16709488470462
30
0
41
1
10
5.14765857745147
20
6.16708712843266
30
0
41
1
10
5.14760038547234
20
6.16670531111745
30
0
41
1
10
5.14754325006291
20
6.1620267720055
30
0
41
1
10
5.14725754963217
20
6.11767129454762
30
0
41
1
10
5.1470280732407
20
6.01613142652809
30
0
41
1
10
5.14678111296021
20
5.80557293101552
30
0
41
1
10
5.14673364481106
20
5.7591383610897
30
0
41
1
10
5.14664464762782
20
5.65909554593011
30
0
41
1
10
5.14660293132928
20
5.60534608550108
30
0
41
1
10
5.14648671893517
20
5.43311924231219
30
0
41
1
10
5.14642120691821
20
5.30370731370175
30
0
41
1
10
5.1463423078076
20
5.08770038534271
30
0
41
1
10
5.1463192240754
20
5.01203892317591
30
0
41
1
10
5.14627958157931
20
4.85326127798172
30
0
41
1
10
5.14626298451827
20
4.76982019541009
30
0
41
1
10
5.14622337842866
20
4.51106021436678
30
0
41
1
10
5.14621041650221
20
4.32723952224347
30
0
41
1
10
5.14620688455219
20
3.93766627498897
30
0
41
1
10
5.14621632792668
20
3.73191252338231
30
0
41
1
10
5.14624290176647
20
3.40653126395085
30
0
41
1
10
5.1462538405525
20
3.29504950800032
30
0
41
1
10
5.14627881562143
20
3.06729373944734
30
0
41
1
10
5.14629275584059
20
2.95180232477693
30
0
41
1
10
5.14636676150525
20
2.3664784509042
30
0
41
1
10
5.14644051494679
20
1.87343010830438
30
0
41
1
10
5.14649787373824
20
1.22539515803959
30
0
41
1
10
5.14650747634542
20
1.09476114986603
30
0
41
1
10
5.14652142454159
20
0.833565383169088
30
0
41
1
10
5.14652580022573
20
0.702684459599425
30
0
41
1
10
5.14652913176329
20
0.309202090555402
30
0
41
1
10
5.14651832516796
20
0.0457645112318801
30
0
41
1
10
5.14648890593446
20
-0.218805430770544
30
0
0
SPLINE
5
BF
100
AcDbEntity
8
1
62
256
6
ByLayer
370
18
48
1
60
0
100
AcDbSpline
70
4
71
3
72
8
73
4
40
0
40
0
40
0
40
0
40
1
40
1
40
1
40
1
41
1
10
136.479620884017
20
-1.53668073307648
30
0
41
1
10
136.147936396449
20
-2.49738463801899
30
0
41
1
10
135.818989860382
20
-3.45902138574337
30
0
41
1
10
135.49279730502
20
-4.42159643753314
30
0
0
SPLINE
5
C0
100
AcDbEntity
8
1
62
256
6
ByLayer
370
18
48
1
60
0
100
AcDbSpline
70
4
71
3
72
8
73
4
40
0
40
0
40
0
40
0
40
1
40
1
40
1
40
1
41
1
10
136.479620884017
20
1.53668073307617
30
0
41
1
10
136.147937791258
20
2.49738059804227
30
0
41
1
10
135.818991234778
20
3.45901732998007
30
0
41
1
10
135.49279730502
20
4.42159643753305
30
0
0
SPLINE
5
C1
100
AcDbEntity
8
1
62
256
6
ByLayer
370
18
48
1
60
0
100
AcDbSpline
70
4
71
3
72
68
73
64
40
0
40
0
40
0
40
0
40
0.0271076140620056
40
0.0271076140620056
40
0.0542152281240111
40
0.0542152281240111
40
0.0813228421860167
40
0.0813228421860167
40
0.108430456248022
40
0.108430456248022
40
0.162645684372033
40
0.162645684372033
40
0.216860912496045
40
0.216860912496045
40
0.24396852655805
40
0.24396852655805
40
0.271076140620055
40
0.271076140620055
40
0.29818375468206
40
0.29818375468206
40
0.325291368744065
40
0.325291368744065
40
0.35239898280607
40
0.35239898280607
40
0.379506596868075
40
0.379506596868075
40
0.40661421093008
40
0.40661421093008
40
0.433721824992085
40
0.433721824992085
40
0.46082943905409
40
0.46082943905409
40
0.487937053116095
40
0.487937053116095
40
0.542152281240107
40
0.542152281240107
40
0.596367509364118
40
0.596367509364118
40
0.650582737488129
40
0.650582737488129
40
0.70479796561214
40
0.70479796561214
40
0.731905579674146
40
0.731905579674146
40
0.759013193736151
40
0.759013193736151
40
0.786120807798157
40
0.786120807798157
40
0.813228421860162
40
0.813228421860162
40
0.840336035922168
40
0.840336035922168
40
0.867443649984173
40
0.867443649984173
40
0.894551264046179
40
0.894551264046179
40
0.921658878108185
40
0.921658878108185
40
0.94876649217019
40
0.94876649217019
40
0.975874106232196
40
0.975874106232196
40
1
40
1
40
1
40
1
41
1
10
15.9080928352394
20
2.4760138563266
30
0
41
1
10
16.2196873034808
20
2.33514976863765
30
0
41
1
10
16.5302500453544
20
2.19192469025219
30
0
41
1
10
17.1497069190147
20
1.9015669674547
30
0
41
1
10
17.459011238531
20
1.75526678259843
30
0
41
1
10
18.0761921877059
20
1.45927228093549
30
0
41
1
10
18.3842991480765
20
1.31005987151667
30
0
41
1
10
18.9997485085971
20
1.00953731333641
30
0
41
1
10
19.3069978593279
20
0.857986615256323
30
0
41
1
10
20.2286610416016
20
0.40246324573863
30
0
41
1
10
20.8422834319127
20
0.0961232634098224
30
0
41
1
10
22.070588795774
20
-0.516401590896265
30
0
41
1
10
22.6853778024101
20
-0.822315691411774
30
0
41
1
10
23.610957209357
20
-1.27583664574325
30
0
41
1
10
23.9198718933364
20
-1.42646519029523
30
0
41
1
10
24.5391394854585
20
-1.72520913403261
30
0
41
1
10
24.8493912426697
20
-1.87357535895927
30
0
41
1
10
25.4719623463731
20
-2.16659531330663
30
0
41
1
10
25.7826738360713
20
-2.31052420235315
30
0
41
1
10
26.4022783079471
20
-2.59428231190034
30
0
41
1
10
26.7114894020386
20
-2.73321120642223
30
0
41
1
10
27.3285633711334
20
-3.00496965456335
30
0
41
1
10
27.6365673448447
20
-3.13754465795725
30
0
41
1
10
28.2519450648803
20
-3.39694021839114
30
0
41
1
10
28.559115355688
20
-3.52400221521731
30
0
41
1
10
29.1734000502605
20
-3.76946622339315
30
0
41
1
10
29.4802827580078
20
-3.88846136243168
30
0
41
1
10
30.0940589341418
20
-4.11921085450368
30
0
41
1
10
30.4009706102832
20
-4.23137550107748
30
0
41
1
10
31.0149284474336
20
-4.4467064990022
30
0
41
1
10
31.3222434686885
20
-4.54969104747849
30
0
41
1
10
31.937340584473
20
-4.74741865696362
30
0
41
1
10
32.2450924511406
20
-4.84266640953243
30
0
41
1
10
33.1701479335895
20
-5.11359668423566
30
0
41
1
10
33.7890389857557
20
-5.27435599308683
30
0
41
1
10
35.0331039848105
20
-5.55817846986986
30
0
41
1
10
35.652459131251
20
-5.67586342318708
30
0
41
1
10
36.885787632356
20
-5.87010241833354
30
0
41
1
10
37.5000933173072
20
-5.94235085056019
30
0
41
1
10
38.7275233346379
20
-6.04421058124214
30
0
41
1
10
39.3404407341307
20
-6.07093850827334
30
0
41
1
10
40.2604291591221
20
-6.07768924795653
30
0
41
1
10
40.5673297558879
20
-6.07411033494327
30
0
41
1
10
41.1817494827233
20
-6.05456783337223
30
0
41
1
10
41.4892314565434
20
-6.03882463615193
30
0
41
1
10
42.1052870447319
20
-5.99641803629507
30
0
41
1
10
42.4136246801679
20
-5.9694839186327
30
0
41
1
10
43.0320674888503
20
-5.90317459724952
30
0
41
1
10
43.3420019175977
20
-5.86387977012976
30
0
41
1
10
43.963353323687
20
-5.77422481574473
30
0
41
1
10
44.2741523488289
20
-5.72403930253631
30
0
41
1
10
44.8931483244702
20
-5.61210219858518
30
0
41
1
10
45.2019725085653
20
-5.55045572268349
30
0
41
1
10
45.8184636356081
20
-5.41713231987663
30
0
41
1
10
46.1260776662039
20
-5.34548134796796
30
0
41
1
10
46.7407447083244
20
-5.19209821355972
30
0
41
1
10
47.0475469278603
20
-5.10996363962599
30
0
41
1
10
47.6610083087174
20
-4.93659722716939
30
0
41
1
10
47.9675263855543
20
-4.84539401501323
30
0
41
1
10
48.5803411082695
20
-4.653586345761
30
0
41
1
10
48.8868949914183
20
-4.55305811435858
30
0
41
1
10
49.4662807967347
20
-4.35458438067821
30
0
41
1
10
49.7392130534734
20
-4.25815152148894
30
0
41
1
10
50.0123942789352
20
-4.15829538672114
30
0
0
SPLINE
5
C2
100
AcDbEntity
8
1
62
256
6
ByLayer
370
18
48
1
60
0
100
AcDbSpline
70
4
71
3
72
98
73
94
40
0
40
0
40
0
40
0
40
0.0128732015894285
40
0.0128732015894285
40
0.0511872681742935
40
0.0511872681742935
40
0.0895013347591585
40
0.0895013347591585
40
0.127815401344023
40
0.127815401344023
40
0.146972434636457
40
0.146972434636457
40
0.16612946792889
40
0.16612946792889
40
0.185286501221323
40
0.185286501221323
40
0.204443534513756
40
0.204443534513756
40
0.223600567806189
40
0.223600567806189
40
0.242757601098622
40
0.242757601098622
40
0.261914634391055
40
0.261914634391055
40
0.281071667683488
40
0.281071667683488
40
0.300228700975921
40
0.300228700975921
40
0.319385734268354
40
0.319385734268354
40
0.338542767560787
40
0.338542767560787
40
0.35769980085322
40
0.35769980085322
40
0.376856834145653
40
0.376856834145653
40
0.396013867438086
40
0.396013867438086
40
0.415170900730519
40
0.415170900730519
40
0.434327934022952
40
0.434327934022952
40
0.453484967315385
40
0.453484967315385
40
0.472642000607819
40
0.472642000607819
40
0.491799033900252
40
0.491799033900252
40
0.510956067192685
40
0.510956067192685
40
0.530113100485118
40
0.530113100485118
40
0.549270133777552
40
0.549270133777552
40
0.568427167069985
40
0.568427167069985
40
0.587584200362419
40
0.587584200362419
40
0.606741233654852
40
0.606741233654852
40
0.625898266947285
40
0.625898266947285
40
0.645055300239718
40
0.645055300239718
40
0.664212333532152
40
0.664212333532152
40
0.70252640011702
40
0.70252640011702
40
0.721683433409453
40
0.721683433409453
40
0.740840466701887
40
0.740840466701887
40
0.759997499994321
40
0.759997499994321
40
0.779154533286755
40
0.779154533286755
40
0.798311566579189
40
0.798311566579189
40
0.817468599871623
40
0.817468599871623
40
0.855782666456492
40
0.855782666456492
40
0.874939699748926
40
0.874939699748926
40
0.89409673304136
40
0.89409673304136
40
0.932410799626227
40
0.932410799626227
40
0.970724866211095
40
0.970724866211095
40
0.989881899503529
40
0.989881899503529
40
1
40
1
40
1
40
1
41
1
10
78.1607967680139
20
6.14496736225252
30
0
41
1
10
78.3671290373226
20
6.14525180239301
30
0
41
1
10
78.5732272187705
20
6.14271732014291
30
0
41
1
10
79.3923907286912
20
6.12222433737773
30
0
41
1
10
80.0041374056779
20
6.08477109520675
30
0
41
1
10
81.2276416274284
20
5.96083213442967
30
0
41
1
10
81.8393755068322
20
5.87710258299197
30
0
41
1
10
83.0664272292263
20
5.66190498699308
30
0
41
1
10
83.6811213651562
20
5.53314969813414
30
0
41
1
10
84.607720754293
20
5.30547378487259
30
0
41
1
10
84.9178858507687
20
5.22421100530852
30
0
41
1
10
85.5377597061728
20
5.0518402730485
30
0
41
1
10
85.8468574029151
20
4.960930401995
30
0
41
1
10
86.4636533715259
20
4.76947560083292
30
0
41
1
10
86.7712449313933
20
4.66893713520753
30
0
41
1
10
87.3857339946357
20
4.46036438209396
30
0
41
1
10
87.692350989961
20
4.35184155241106
30
0
41
1
10
88.3050572196705
20
4.12647294994846
30
0
41
1
10
88.6111692363968
20
4.00972151763079
30
0
41
1
10
89.2228311898843
20
3.76889656550091
30
0
41
1
10
89.5286385647061
20
3.64526257780946
30
0
41
1
10
90.1400792795095
20
3.39048842336436
30
0
41
1
10
90.4458636743965
20
3.25948730961261
30
0
41
1
10
91.057923406187
20
2.99164435818005
30
0
41
1
10
91.3639702944866
20
2.85453952624454
30
0
41
1
10
91.9771405488656
20
2.57517663430633
30
0
41
1
10
92.2840761284696
20
2.43236568227204
30
0
41
1
10
92.8990772591635
20
2.14188856096052
30
0
41
1
10
93.2071002913692
20
1.99462843350679
30
0
41
1
10
93.8245457761196
20
1.69472846617387
30
0
41
1
10
94.1347076725115
20
1.54243346287703
30
0
41
1
10
94.7545517788874
20
1.23499264122356
30
0
41
1
10
95.0640361021183
20
1.08007894385344
30
0
41
1
10
95.6826524209511
20
0.768799267243594
30
0
41
1
10
95.9916111238137
20
0.612011055709786
30
0
41
1
10
96.6097887721727
20
0.298236123719391
30
0
41
1
10
96.9187498516243
20
0.140743931299312
30
0
41
1
10
97.5368116952463
20
-0.174647719411041
30
0
41
1
10
97.8461968053598
20
-0.332088985662267
30
0
41
1
10
98.4653909598234
20
-0.646915323989617
30
0
41
1
10
98.7758118170156
20
-0.803992611335644
30
0
41
1
10
99.3946061373169
20
-1.11627915135398
30
0
41
1
10
99.7031045576537
20
-1.27116338925379
30
0
41
1
10
100.318928066515
20
-1.57654814339998
30
0
41
1
10
100.62608129557
20
-1.72792251659772
30
0
41
1
10
101.239803757869
20
-2.02678112656921
30
0
41
1
10
101.546129859201
20
-2.17478008650843
30
0
41
1
10
102.158210313645
20
-2.46466828335446
30
0
41
1
10
102.46414277759
20
-2.60687359495518
30
0
41
1
10
103.07546589761
20
-2.88718981137293
30
0
41
1
10
103.381106539528
20
-3.02472749408363
30
0
41
1
10
103.992527653678
20
-3.29345255424741
30
0
41
1
10
104.298278929358
20
-3.42479878275051
30
0
41
1
10
104.910409113113
20
-3.68138790662079
30
0
41
1
10
105.216433034118
20
-3.80749793735456
30
0
41
1
10
105.829696924548
20
-4.05149781016814
30
0
41
1
10
106.136949541991
20
-4.1689642922245
30
0
41
1
10
106.752528648
20
-4.39663196318139
30
0
41
1
10
107.061127842449
20
-4.50624099444113
30
0
41
1
10
107.679674107376
20
-4.71745219207847
30
0
41
1
10
107.99003671924
20
-4.81883329475551
30
0
41
1
10
108.60810749899
20
-5.01209224873571
30
0
41
1
10
108.916289349783
20
-5.10434894628071
30
0
41
1
10
109.531666286155
20
-5.279084305233
30
0
41
1
10
109.838545812457
20
-5.36055987190039
30
0
41
1
10
110.758279565335
20
-5.5879476666542
30
0
41
1
10
111.369810181708
20
-5.71842773258555
30
0
41
1
10
112.286531865423
20
-5.88081714007171
30
0
41
1
10
112.592079822792
20
-5.92945599419818
30
0
41
1
10
113.203344570956
20
-6.01633747152172
30
0
41
1
10
113.508930772195
20
-6.05428283956581
30
0
41
1
10
114.121104743944
20
-6.11733104957077
30
0
41
1
10
114.427406658522
20
-6.14288496031688
30
0
41
1
10
115.040947583719
20
-6.18301956822143
30
0
41
1
10
115.348255123117
20
-6.19733061740382
30
0
41
1
10
115.964054670947
20
-6.21317846813204
30
0
41
1
10
116.272816681528
20
-6.21480959061446
30
0
41
1
10
116.891535475447
20
-6.20726705156312
30
0
41
1
10
117.2013620014
20
-6.19785550206322
30
0
41
1
10
118.126877275305
20
-6.14950432860596
30
0
41
1
10
118.740637297038
20
-6.09248326346588
30
0
41
1
10
119.658961214946
20
-5.97400435444007
30
0
41
1
10
119.964789648026
20
-5.9288447240221
30
0
41
1
10
120.575684900341
20
-5.8276222085355
30
0
41
1
10
120.881000501729
20
-5.77219260396876
30
0
41
1
10
121.796533958234
20
-5.58827847082654
30
0
41
1
10
122.406784276257
20
-5.44133085263121
30
0
41
1
10
123.630067294442
20
-5.10899181438677
30
0
41
1
10
124.242842703592
20
-4.92281734011652
30
0
41
1
10
125.165587259145
20
-4.61517960549173
30
0
41
1
10
125.473960559713
20
-4.50775192978253
30
0
41
1
10
125.946605911597
20
-4.33597488829042
30
0
41
1
10
126.110009624256
20
-4.2753376549143
30
0
41
1
10
126.273255369848
20
-4.21362695029748
30
0
0
SPLINE
5
C3
100
AcDbEntity
8
1
62
256
6
ByLayer
370
18
48
1
60
0
100
AcDbSpline
70
4
71
3
72
14
73
10
40
0
40
0
40
0
40
0
40
0.0588995544583623
40
0.0588995544583623
40
0.372599702972241
40
0.372599702972241
40
0.686299851486121
40
0.686299851486121
40
1
40
1
40
1
40
1
41
1
10
18.4447427871066
20
1.27051292201807
30
0
41
1
10
18.4642792437566
20
1.29129976509788
30
0
41
1
10
18.4837425855747
20
1.31269420454709
30
0
41
1
10
18.6062988271663
20
1.45177826691204
30
0
41
1
10
18.706921140567
20
1.58564853746705
30
0
41
1
10
18.8981944213588
20
1.88048072983474
30
0
41
1
10
18.9888378909504
20
2.04143109440002
30
0
41
1
10
19.1557692811568
20
2.38264221155976
30
0
41
1
10
19.2320506581598
20
2.56288958888038
30
0
41
1
10
19.2993092550312
20
2.74843463211593
30
0
0
SPLINE
5
C4
100
AcDbEntity
8
1
62
256
6
ByLayer
370
18
48
1
60
0
100
AcDbSpline
70
4
71
3
72
14
73
10
40
0
40
0
40
0
40
0
40
0.25
40
0.25
40
0.5
40
0.5
40
0.75
40
0.75
40
1
40
1
40
1
40
1
41
1
10
13.1428319220194
20
-4.93840810110794
30
0
41
1
10
13.757026863432
20
-5.09392664705794
30
0
41
1
10
14.3728540253585
20
-5.23572519581327
30
0
41
1
10
15.6072577111463
20
-5.49276748010709
30
0
41
1
10
16.2268644316992
20
-5.60815621816454
30
0
41
1
10
17.4621706165018
20
-5.81037054610559
30
0
41
1
10
18.0780183040704
20
-5.89728459538932
30
0
41
1
10
19.3057543310213
20
-6.04065061097123
30
0
41
1
10
19.9176434278027
20
-6.09712275740239
30
0
41
1
10
20.5273673557122
20
-6.13625572838916
30
0
0
SPLINE
5
C5
100
AcDbEntity
8
1
62
256
6
ByLayer
370
13
48
1
60
0
100
AcDbSpline
70
4
71
3
72
14
73
10
40
0
40
0
40
0
40
0
40
0.0569380505521539
40
0.0569380505521539
40
0.444152663896596
40
0.444152663896596
40
0.831367277241038
40
0.831367277241038
40
1
40
1
40
1
40
1
41
1
10
5.67916100757611
20
-6.01570635004586
30
0
41
1
10
5.67916684447167
20
-6.01569479886876
30
0
41
1
10
5.67917260964904
20
-6.01533348095222
30
0
41
1
10
5.67921696947647
20
-6.00977986921967
30
0
41
1
10
5.67925208361049
20
-5.98844102849205
30
0
41
1
10
5.67930896161664
20
-5.91327563397007
30
0
41
1
10
5.67933096812644
20
-5.85932099993155
30
0
41
1
10
5.67934985274724
20
-5.75907912892035
30
0
41
1
10
5.67935390374461
20
-5.72570535785752
30
0
41
1
10
5.67935611522517
20
-5.68937778031506
30
0
0
SPLINE
5
C6
100
AcDbEntity
8
1
62
256
6
ByLayer
370
18
48
1
60
0
100
AcDbSpline
70
4
71
3
72
8
73
4
40
0
40
0
40
0
40
0
40
1
40
1
40
1
40
1
41
1
10
6.05892573610717
20
-5.60547370854013
30
0
41
1
10
5.98164522551446
20
-5.63812045807904
30
0
41
1
10
5.90476813160214
20
-5.67048324156224
30
0
41
1
10
5.82829437208551
20
-5.70255989964426
30
0
0
SPLINE
5
C7
100
AcDbEntity
8
1
62
256
6
ByLayer
370
18
48
1
60
0
100
AcDbSpline
70
4
71
3
72
12
73
8
40
0
40
0
40
0
40
0
40
0.261194216447893
40
0.261194216447893
40
0.675788375751267
40
0.675788375751267
40
1
40
1
40
1
40
1
41
1
10
100.124995502378
20
-6.18421334509128
30
0
41
1
10
99.9124925976936
20
-6.1839031388696
30
0
41
1
10
99.6998631860428
20
-6.18073712382338
30
0
41
1
10
99.149238849614
20
-6.16513578153632
30
0
41
1
10
98.8112722968915
20
-6.14836608415931
30
0
41
1
10
98.2113467683669
20
-6.10601768314839
30
0
41
1
10
97.948579815668
20
-6.08313239230904
30
0
41
1
10
97.6862020628262
20
-6.05603668953529
30
0
0
SPLINE
5
C8
100
AcDbEntity
8
1
62
256
6
ByLayer
370
13
48
1
60
0
100
AcDbSpline
70
4
71
3
72
36
73
32
40
0
40
0
40
0
40
0
40
0.107102417354237
40
0.107102417354237
40
0.173666952083852
40
0.173666952083852
40
0.206949219448658
40
0.206949219448658
40
0.240231486813464
40
0.240231486813464
40
0.373360556272692
40
0.373360556272692
40
0.506489625731919
40
0.506489625731919
40
0.539771893096728
40
0.539771893096728
40
0.573054160461536
40
0.573054160461536
40
0.639618695191155
40
0.639618695191155
40
0.772747764650393
40
0.772747764650393
40
0.806030032015204
40
0.806030032015204
40
0.839312299380014
40
0.839312299380014
40
0.905876834109634
40
0.905876834109634
40
0.972441368839253
40
0.972441368839253
40
1
40
1
40
1
40
1
41
1
10
97.6862020637069
20
-6.05603668962618
30
0
41
1
10
96.6064899499621
20
-5.94453501622533
30
0
41
1
10
95.5333685826562
20
-5.76173383704301
30
0
41
1
10
93.791513985681
20
-5.35999635075447
30
0
41
1
10
93.1233846938204
20
-5.18086481874454
30
0
41
1
10
92.11788274777
20
-4.87713899964717
30
0
41
1
10
91.7821268661163
20
-4.77005076054309
30
0
41
1
10
91.1089632723034
20
-4.54462918894777
30
0
41
1
10
90.7712413876686
20
-4.42616179481988
30
0
41
1
10
89.0812257360877
20
-3.80833200177213
30
0
41
1
10
87.7448518887059
20
-3.24038418770309
30
0
41
1
10
85.0739159581802
20
-2.01086901313857
30
0
41
1
10
83.7391783465185
20
-1.34944334384443
30
0
41
1
10
82.0533991442645
20
-0.498738566545029
30
0
41
1
10
81.7146660995525
20
-0.327112666183695
30
0
41
1
10
81.0392754491282
20
0.0153395384466819
30
0
41
1
10
80.7025265360955
20
0.186281486798521
30
0
41
1
10
79.6943249898078
20
0.696653203373415
30
0
41
1
10
79.0248785850038
20
1.03351401793321
30
0
41
1
10
77.0193427292455
20
2.02392626471126
30
0
41
1
10
75.6857726882906
20
2.65651698287971
30
0
41
1
10
74.0049656350641
20
3.37819649448724
30
0
41
1
10
73.6680779384934
20
3.51900807413205
30
0
41
1
10
72.9924368189664
20
3.7928281400489
30
0
41
1
10
72.6535798009308
20
3.92591292511108
30
0
41
1
10
71.6388986857142
20
4.31002433064518
30
0
41
1
10
70.9631783620482
20
4.54662384832778
30
0
41
1
10
69.6094814785851
20
4.97593525141832
30
0
41
1
10
68.9325736448423
20
5.16807386574507
30
0
41
1
10
67.9752526535621
20
5.40440042280048
30
0
41
1
10
67.6947828453769
20
5.46928722901529
30
0
41
1
10
67.4149899439491
20
5.52961086805198
30
0
0
SPLINE
5
C9
100
AcDbEntity
8
1
62
256
6
ByLayer
370
18
48
1
60
0
100
AcDbSpline
70
4
71
3
72
12
73
8
40
0
40
0
40
0
40
0
40
0.112124220854482
40
0.112124220854482
40
0.864564053110966
40
0.864564053110966
40
1
40
1
40
1
40
1
41
1
10
24.170395349986
20
-6.04629752545841
30
0
41
1
10
24.069294922086
20
-6.04711310683763
30
0
41
1
10
23.968221913382
20
-6.04730045746115
30
0
41
1
10
23.1896257812065
20
-6.04390040864521
30
0
41
1
10
22.5156445196065
20
-6.01256997711693
30
0
41
1
10
21.7224681251406
20
-5.94358915396884
30
0
41
1
10
21.6015349299981
20
-5.93218169777083
30
0
41
1
10
21.4806487767989
20
-5.91989656117326
30
0
0
SPLINE
5
CA
100
AcDbEntity
8
1
62
256
6
ByLayer
370
13
48
1
60
0
100
AcDbSpline
70
4
71
3
72
22
73
18
40
0
40
0
40
0
40
0
40
0.23273704157053
40
0.23273704157053
40
0.360614201308775
40
0.360614201308775
40
0.424552781177898
40
0.424552781177898
40
0.488491361047021
40
0.488491361047021
40
0.744245680523509
40
0.744245680523509
40
0.872122840261755
40
0.872122840261755
40
0.936061420130876
40
0.936061420130876
40
1
40
1
40
1
40
1
41
1
10
21.4806497711858
20
-5.91989666222844
30
0
41
1
10
20.2583241471978
20
-5.79567704778296
30
0
41
1
10
19.0408080929857
20
-5.58172341324138
30
0
41
1
10
17.1452308818368
20
-5.12317161356961
30
0
41
1
10
16.471224908135
20
-4.93595073559902
30
0
41
1
10
15.4546348243258
20
-4.62027302175028
30
0
41
1
10
15.1144524768984
20
-4.50907133538931
30
0
41
1
10
14.4370692947813
20
-4.27731343721803
30
0
41
1
10
14.0992546525758
20
-4.15662713018926
30
0
41
1
10
12.4134815867226
20
-3.53119512307134
30
0
41
1
10
11.0747933403239
20
-2.96088074899575
30
0
41
1
10
9.06082020264452
20
-2.03803805290178
30
0
41
1
10
8.38843507130122
20
-1.71934131802416
30
0
41
1
10
7.37556555553721
20
-1.22979136886209
30
0
41
1
10
7.03722196454294
20
-1.06470340760743
30
0
41
1
10
6.35858356678622
20
-0.731651737616403
30
0
41
1
10
6.01838290432954
20
-0.563723849541901
30
0
41
1
10
5.67862008088662
20
-0.395561624428467
30
0
0
SPLINE
5
CB
100
AcDbEntity
8
1
62
256
6
ByLayer
370
18
48
1
60
0
100
AcDbSpline
70
4
71
3
72
8
73
4
40
0
40
0
40
0
40
0
40
1
40
1
40
1
40
1
41
1
10
136.999786432679
20
-0.0987594858350178
30
0
41
1
10
136.819493288031
20
-0.573138593587345
30
0
41
1
10
136.646722065242
20
-1.05268234502813
30
0
41
1
10
136.479620884017
20
-1.53668073307603
30
0
0
SPLINE
5
CC
100
AcDbEntity
8
1
62
256
6
ByLayer
370
18
48
1
60
0
100
AcDbSpline
70
4
71
3
72
8
73
4
40
0
40
0
40
0
40
0
40
1
40
1
40
1
40
1
41
1
10
135.301700167304
20
2.79057353162474
30
0
41
1
10
135.298359579164
20
2.82782924686654
30
0
41
1
10
135.296691921077
20
2.86516945607019
30
0
41
1
10
135.296952788058
20
2.90261149399976
30
0
0
SPLINE
5
CD
100
AcDbEntity
8
1
62
256
6
ByLayer
370
18
48
1
60
0
100
AcDbSpline
70
4
71
3
72
20
73
16
40
0
40
0
40
0
40
0
40
0.112408818195258
40
0.112408818195258
40
0.289927054556205
40
0.289927054556205
40
0.467445290917152
40
0.467445290917152
40
0.644963527278099
40
0.644963527278099
40
0.822481763639046
40
0.822481763639046
40
0.911240881819523
40
0.911240881819523
40
1
40
1
40
1
40
1
41
1
10
134.320837166447
20
0.52652611289929
30
0
41
1
10
134.353462061523
20
0.560924159070822
30
0
41
1
10
134.38934315938
20
0.602483671804038
30
0
41
1
10
134.489823698378
20
0.728926554225723
30
0
41
1
10
134.556805281154
20
0.822174831206041
30
0
41
1
10
134.698298913715
20
1.03894713954659
30
0
41
1
10
134.773683784012
20
1.16403459853211
30
0
41
1
10
134.921883654977
20
1.43491197228172
30
0
41
1
10
134.995599742746
20
1.5815535290192
30
0
41
1
10
135.134000724425
20
1.89972950089299
30
0
41
1
10
135.196940989436
20
2.06596901629609
30
0
41
1
10
135.26622627739
20
2.32978808414089
30
0
41
1
10
135.285030448418
20
2.42096652388725
30
0
41
1
10
135.306897629336
20
2.60451727132801
30
0
41
1
10
135.310081511293
20
2.69710107951397
30
0
41
1
10
135.301700167304
20
2.79057353162474
30
0
0
SPLINE
5
CE
100
AcDbEntity
8
1
62
256
6
ByLayer
370
18
48
1
60
0
100
AcDbSpline
70
4
71
3
72
8
73
4
40
0
40
0
40
0
40
0
40
1
40
1
40
1
40
1
41
1
10
134.726565557587
20
-6.32760406558992
30
0
41
1
10
134.698400269945
20
-6.296537992895
30
0
41
1
10
134.673090293273
20
-6.2554951474784
30
0
41
1
10
134.650478733586
20
-6.2046126206975
30
0
0
SPLINE
5
CF
100
AcDbEntity
8
1
62
256
6
ByLayer
370
18
48
1
60
0
100
AcDbSpline
70
4
71
3
72
18
73
14
40
0
40
0
40
0
40
0
40
0.0718007924786502
40
0.0718007924786502
40
0.1436015849573
40
0.1436015849573
40
0.2872031699146
40
0.2872031699146
40
0.5744063398292
40
0.5744063398292
40
0.861609509743799
40
0.861609509743799
40
1
40
1
40
1
40
1
41
1
10
5.15817432330425
20
-5.56205787492263
30
0
41
1
10
5.15327294002157
20
-5.59055057851501
30
0
41
1
10
5.15026083872513
20
-5.61812867369747
30
0
41
1
10
5.14778646898333
20
-5.67143204298057
30
0
41
1
10
5.14837607986919
20
-5.69715730143434
30
0
41
1
10
5.14835486607123
20
-5.77135651248514
30
0
41
1
10
5.1483348507694
20
-5.81700082674337
30
0
41
1
10
5.14825952518586
20
-5.94150795059531
30
0
41
1
10
5.14818951138022
20
-6.00741115581204
30
0
41
1
10
5.14802237519876
20
-6.10624587791062
30
0
41
1
10
5.14792521999874
20
-6.13917412425619
30
0
41
1
10
5.14776918502804
20
-6.16322094071953
30
0
41
1
10
5.14771654795453
20
-6.1671510063801
30
0
41
1
10
5.14766258486844
20
-6.16709649971611
30
0
0
SPLINE
5
D0
100
AcDbEntity
8
1
62
256
6
ByLayer
370
13
48
1
60
0
100
AcDbSpline
70
4
71
3
72
10
73
6
40
0
40
0
40
0
40
0
40
0.5
40
0.5
40
1
40
1
40
1
40
1
41
1
10
5.67862008088659
20
-0.395561624428439
30
0
41
1
10
5.59723490182921
20
-0.367363702443498
30
0
41
1
10
5.51737625334121
20
-0.340601750467869
30
0
41
1
10
5.36086271607149
20
-0.289173925328896
30
0
41
1
10
5.2835926209668
20
-0.264319113239253
30
0
41
1
10
5.21056444391715
20
-0.241096519032936
30
0
0
SPLINE
5
D1
100
AcDbEntity
8
1
62
256
6
ByLayer
370
13
48
1
60
0
100
AcDbSpline
70
4
71
3
72
92
73
88
40
0
40
0
40
0
40
0
40
0.0176609836745331
40
0.0235702986336754
40
0.0353889285519601
40
0.0472075584702452
40
0.0649355033476722
40
0.0708448183068145
40
0.0826634482250991
40
0.0944820781433838
40
0.112210023020811
40
0.118119337979953
40
0.129937967898238
40
0.141756597816522
40
0.159484542693949
40
0.165393857653092
40
0.177212487571376
40
0.189031117489661
40
0.206759062367088
40
0.21266837732623
40
0.224487007244515
40
0.2363056371628
40
0.254033582040226
40
0.259942896999369
40
0.271761526917653
40
0.283580156835938
40
0.301308101713365
40
0.307217416672507
40
0.319036046590792
40
0.330854676509077
40
0.348582621386503
40
0.354491936345646
40
0.36631056626393
40
0.378129196182216
40
0.395857141059643
40
0.401766456018785
40
0.41358508593707
40
0.425403715855354
40
0.443131660732781
40
0.449040975691924
40
0.460859605610208
40
0.472678235528493
40
0.49040618040592
40
0.496315495365062
40
0.508134125283347
40
0.519952755201631
40
0.537680700079058
40
0.543590015038201
40
0.555408644956485
40
0.56722727487477
40
0.584955219752197
40
0.590864534711339
40
0.602683164629624
40
0.614501794547908
40
0.632229739425335
40
0.638139054384478
40
0.649957684302762
40
0.661776314221047
40
0.679504259098474
40
0.685413574057616
40
0.697232203975901
40
0.709050833894186
40
0.726778778771613
40
0.732688093730755
40
0.74450672364904
40
0.756325353567325
40
0.774053298444752
40
0.779962613403894
40
0.791781243322179
40
0.803599873240463
40
0.82132781811789
40
0.827237133077032
40
0.839055762995317
40
0.850874392913602
40
0.868602337791029
40
0.874511652750171
40
0.886330282668456
40
0.89814891258674
40
0.915876857464167
40
0.92178617242331
40
0.933604802341594
40
0.945423432259879
40
0.963151377137306
40
0.969060692096448
40
0.980879322014733
40
0.992697951933017
40
1
40
1
40
1
40
1
41
1
10
122.423661751035
20
-2.51580881749226
30
0
41
1
10
122.278703682293
20
-2.53030181371275
30
0
41
1
10
122.085229025297
20
-2.54893908888096
30
0
41
1
10
121.794749259451
20
-2.57547934691493
30
0
41
1
10
121.552253081733
20
-2.59668011699307
30
0
41
1
10
121.21275275421
20
-2.62460523993332
30
0
41
1
10
120.921716919996
20
-2.64670465027987
30
0
41
1
10
120.630687995528
20
-2.66729839237394
30
0
41
1
10
120.388192157207
20
-2.68345684768306
30
0
41
1
10
120.048692207304
20
-2.70426007538507
30
0
41
1
10
119.757656509292
20
-2.72020238056757
30
0
41
1
10
119.46662748947
20
-2.73459040029695
30
0
41
1
10
119.22413134408
20
-2.74553798167162
30
0
41
1
10
118.884630644291
20
-2.75899868497635
30
0
41
1
10
118.593594155573
20
-2.76861651142565
30
0
41
1
10
118.302564444714
20
-2.77665621386487
30
0
41
1
10
118.060067884672
20
-2.78229173786715
30
0
41
1
10
117.720566886187
20
-2.78829525297817
30
0
41
1
10
117.429530355712
20
-2.79151286551726
30
0
41
1
10
117.138500679808
20
-2.79314017273057
30
0
41
1
10
116.8960041633
20
-2.79341680450153
30
0
41
1
10
116.556503271898
20
-2.79191126657321
30
0
41
1
10
116.265466920654
20
-2.78870062230183
30
0
41
1
10
115.97443753664
20
-2.78390416071943
30
0
41
1
10
115.731941348763
20
-2.77882428524717
30
0
41
1
10
115.39244100526
20
-2.7698318699469
30
0
41
1
10
115.101405133635
20
-2.76022881093263
30
0
41
1
10
114.810376145317
20
-2.74905552417388
30
0
41
1
10
114.567880126847
20
-2.73866540592286
30
0
41
1
10
114.22837971246
20
-2.72226496186448
30
0
41
1
10
113.937343551439
20
-2.70635330127547
30
0
41
1
10
113.646314190499
20
-2.68890316713967
30
0
41
1
10
113.403817898865
20
-2.67329776127201
30
0
41
1
10
113.064317175393
20
-2.64964074448591
30
0
41
1
10
112.773280745733
20
-2.62756696199119
30
0
41
1
10
112.482251018725
20
-2.60399795051592
30
0
41
1
10
112.23975442361
20
-2.58331653970248
30
0
41
1
10
111.900253439114
20
-2.55261318288007
30
0
41
1
10
111.609217031327
20
-2.52457526219521
30
0
41
1
10
111.318187630122
20
-2.49510345804001
30
0
41
1
10
111.0756914264
20
-2.46953900442918
30
0
41
1
10
110.736191037534
20
-2.43207934720667
30
0
41
1
10
110.445155118484
20
-2.39834334134076
30
0
41
1
10
110.154126088247
20
-2.36324631831386
30
0
41
1
10
109.911630064189
20
-2.33303774254242
30
0
41
1
10
109.572129709479
20
-2.28916915416761
30
0
41
1
10
109.281093656447
20
-2.2500457068665
30
0
41
1
10
108.990064436945
20
-2.20964567057001
30
0
41
1
10
108.74756825415
20
-2.17506989869926
30
0
41
1
10
108.408067627787
20
-2.12519361259129
30
0
41
1
10
108.117031215281
20
-2.08103936508198
30
0
41
1
10
107.826001437469
20
-2.03570339447054
30
0
41
1
10
107.583504777412
20
-1.99707388523049
30
0
41
1
10
107.244003695875
20
-1.9416422846422
30
0
41
1
10
106.95296720829
20
-1.89285945376511
30
0
41
1
10
106.661937747789
20
-1.84300375141962
30
0
41
1
10
106.419441490626
20
-1.80067732413465
30
0
41
1
10
106.079941009917
20
-1.74020513228532
30
0
41
1
10
105.78890500937
20
-1.68724836797972
30
0
41
1
10
105.497875908777
20
-1.63333742713533
30
0
41
1
10
105.255379854554
20
-1.58770810643307
30
0
41
1
10
104.915879519209
20
-1.52275717822957
30
0
41
1
10
104.624843534405
20
-1.46611669960254
30
0
41
1
10
104.333814411522
20
-1.40864735721271
30
0
41
1
10
104.091318312075
20
-1.36013411975526
30
0
41
1
10
103.751817784914
20
-1.29129897713801
30
0
41
1
10
103.460781429576
20
-1.23149230360238
30
0
41
1
10
103.169751672997
20
-1.1709901622587
30
0
41
1
10
102.927255011179
20
-1.12003738309349
30
0
41
1
10
102.587753906144
20
-1.04794958247646
30
0
41
1
10
102.29671738496
20
-0.985526165993804
30
0
41
1
10
102.005687892426
20
-0.922547249903744
30
0
41
1
10
101.763191607065
20
-0.869623037261903
30
0
41
1
10
101.423691087793
20
-0.794945006022516
30
0
41
1
10
101.13265506545
20
-0.730479331008752
30
0
41
1
10
100.841625963103
20
-0.665604734467308
30
0
41
1
10
100.599129927304
20
-0.611198606325445
30
0
41
1
10
100.259629649283
20
-0.53462208214151
30
0
41
1
10
99.9685937350982
20
-0.468710943484154
30
0
41
1
10
99.6775646860223
20
-0.402539272798378
30
0
41
1
10
99.4350686484323
20
-0.347151641643109
30
0
41
1
10
99.0955681998219
20
-0.269379617853104
30
0
41
1
10
98.8045318922999
20
-0.202628442643885
30
0
41
1
10
98.5135021558758
20
-0.135769908289717
30
0
41
1
10
98.2710054825621
20
-0.0799135543305169
30
0
41
1
10
98.0170739151543
20
-0.0213890092638565
30
0
41
1
10
97.8601302534805
20
0.0147463646629262
30
0
41
1
10
97.8001937265124
20
0.0285422364088106
30
0
0
SPLINE
5
D2
100
AcDbEntity
8
1
62
256
6
ByLayer
370
13
48
1
60
0
100
AcDbSpline
70
4
71
3
72
93
73
89
40
0
40
0
40
0
40
0
40
0.003501307772225
40
0.0153024088168602
40
0.0271035098614969
40
0.0448051614284505
40
0.0507057119507683
40
0.062506812995404
40
0.0743079140400397
40
0.0920095656069932
40
0.097910116129311
40
0.109711217173947
40
0.121512318218583
40
0.139213969785536
40
0.145114520307854
40
0.156915621352489
40
0.168716722397126
40
0.186418373964079
40
0.192318924486397
40
0.204120025531032
40
0.215921126575668
40
0.233622778142621
40
0.239523328664939
40
0.251324429709575
40
0.263125530754211
40
0.280827182321165
40
0.286727732843482
40
0.298528833888118
40
0.310329934932754
40
0.328031586499707
40
0.333932137022025
40
0.345733238066661
40
0.357534339111297
40
0.37523599067825
40
0.381136541200568
40
0.392937642245204
40
0.404738743289839
40
0.422440394856793
40
0.428340945379111
40
0.440142046423747
40
0.451943147468382
40
0.469644799035336
40
0.475545349557653
40
0.487346450602289
40
0.499147551646925
40
0.516849203213879
40
0.522749753736196
40
0.534550854780832
40
0.546351955825467
40
0.564053607392421
40
0.569954157914739
40
0.581755258959375
40
0.59355636000401
40
0.611258011570964
40
0.617158562093282
40
0.628959663137918
40
0.640760764182553
40
0.658462415749506
40
0.664362966271824
40
0.67616406731646
40
0.687965168361096
40
0.705666819928049
40
0.711567370450367
40
0.723368471495003
40
0.735169572539639
40
0.752871224106592
40
0.75877177462891
40
0.770572875673546
40
0.782373976718182
40
0.800075628285135
40
0.805976178807453
40
0.817777279852089
40
0.829578380896724
40
0.847280032463678
40
0.853180582985996
40
0.864981684030631
40
0.876782785075267
40
0.894484436642221
40
0.900384987164538
40
0.912186088209174
40
0.92398718925381
40
0.941688840820763
40
0.947589391343081
40
0.959390492387717
40
0.971191593432352
40
0.988893244999306
40
0.994793795521624
40
1
40
1
40
1
40
1
41
1
10
46.2655408622586
20
-2.51170548773484
30
0
41
1
10
46.2367587899264
20
-2.51460658167187
30
0
41
1
10
46.1109686476924
20
-2.52719248823132
30
0
41
1
10
45.8881925062315
20
-2.54874006308231
30
0
41
1
10
45.5486914158877
20
-2.57985008521297
30
0
41
1
10
45.2576548382735
20
-2.60470433948811
30
0
41
1
10
44.9666251814108
20
-2.62807683717605
30
0
41
1
10
44.7241287942504
20
-2.64657040364588
30
0
41
1
10
44.3846282984719
20
-2.67067038849294
30
0
41
1
10
44.0935924395811
20
-2.68946254420112
30
0
41
1
10
43.802563593635
20
-2.70672394447345
30
0
41
1
10
43.5600678203045
20
-2.72008508037726
30
0
41
1
10
43.2205678896308
20
-2.73694642639643
30
0
41
1
10
42.9295321384884
20
-2.74949124534785
30
0
41
1
10
42.6385030062934
20
-2.76046478283075
30
0
41
1
10
42.3960067392936
20
-2.76855201622524
30
0
41
1
10
42.0565058587462
20
-2.77799276935156
30
0
41
1
10
41.7654692362934
20
-2.7841571458728
30
0
41
1
10
41.4744394534233
20
-2.78873588982773
30
0
41
1
10
41.2319428324737
20
-2.79147873416738
30
0
41
1
10
40.8924417288385
20
-2.79342852350845
30
0
41
1
10
40.6014051282533
20
-2.79317564539531
30
0
41
1
10
40.3103754340785
20
-2.79133476114436
30
0
41
1
10
40.0678789987489
20
-2.78871928558809
30
0
41
1
10
39.7283784047559
20
-2.78317108879466
30
0
41
1
10
39.4373424387002
20
-2.77650828943644
30
0
41
1
10
39.1463134764923
20
-2.76826735005295
30
0
41
1
10
38.9038176193396
20
-2.760318494286
30
0
41
1
10
38.5643176201617
20
-2.74732138979249
30
0
41
1
10
38.2732818678445
20
-2.73430416595613
30
0
41
1
10
37.9822527920056
20
-2.71972904711598
30
0
41
1
10
37.7397565854261
20
-2.70650890588899
30
0
41
1
10
37.4002557803632
20
-2.68616566398748
30
0
41
1
10
37.1092192072815
20
-2.66690195706073
30
0
41
1
10
36.8181894487779
20
-2.6461218458102
30
0
41
1
10
36.5756928481429
20
-2.62775333245784
30
0
41
1
10
36.2361917846847
20
-2.60025951411089
30
0
41
1
10
35.9451552207724
20
-2.57493709152476
30
0
41
1
10
35.6541255568206
20
-2.54815190186014
30
0
41
1
10
35.411629129013
20
-2.52480923758691
30
0
41
1
10
35.0721285072669
20
-2.4904223421789
30
0
41
1
10
34.7810924856126
20
-2.45927623354584
30
0
41
1
10
34.4900634495792
20
-2.42673433710971
30
0
41
1
10
34.2475675406206
20
-2.39863404955705
30
0
41
1
10
33.9080675131913
20
-2.35767238469421
30
0
41
1
10
33.6170317876494
20
-2.32098942291373
30
0
41
1
10
33.3260027894949
20
-2.2829884160731
30
0
41
1
10
33.0835066553618
20
-2.25038601539299
30
0
41
1
10
32.7440059307843
20
-2.20322072386506
30
0
41
1
10
32.452969399182
20
-2.16133338706848
30
0
41
1
10
32.1619396477729
20
-2.11821954274828
30
0
41
1
10
31.9194430479983
20
-2.08141370043873
30
0
41
1
10
31.5799419890681
20
-2.02847881232978
30
0
41
1
10
31.2889054224894
20
-1.98177346184511
30
0
41
1
10
30.9978757429711
20
-1.93394382617777
30
0
41
1
10
30.7553792792732
20
-1.89327280385356
30
0
41
1
10
30.4158785613499
20
-1.83505438198946
30
0
41
1
10
30.1248424212442
20
-1.78396036109143
30
0
41
1
10
29.8338132498357
20
-1.73185610824336
30
0
41
1
10
29.5913172386933
20
-1.68769616777578
30
0
41
1
10
29.2518171165917
20
-1.62473430917422
30
0
41
1
10
28.9607813689223
20
-1.56972663929946
30
0
41
1
10
28.6697524098259
20
-1.51383229905687
30
0
41
1
10
28.4272563268546
20
-1.46659395326384
30
0
41
1
10
28.0877556752779
20
-1.39947269520783
30
0
41
1
10
27.796719200099
20
-1.34105930018433
30
0
41
1
10
27.5056894855887
20
-1.28188790535654
30
0
41
1
10
27.2631929178165
20
-1.23200273214795
30
0
41
1
10
26.9236919140885
20
-1.16133306069622
30
0
41
1
10
26.6326553939579
20
-1.10004465650144
30
0
41
1
10
26.3416257495204
20
-1.03813471820871
30
0
41
1
10
26.0991292950467
20
-0.986057565605392
30
0
41
1
10
25.759628550302
20
-0.912485535326766
30
0
41
1
10
25.4685923554293
20
-0.848884450356849
30
0
41
1
10
25.1775631136974
20
-0.784805899752229
30
0
41
1
10
24.9350670500896
20
-0.731017419643393
30
0
41
1
10
24.5955668877598
20
-0.655224479908213
30
0
41
1
10
24.3045311473047
20
-0.589902490086672
30
0
41
1
10
24.013502239957
20
-0.524253816142902
30
0
41
1
10
23.771006214702
20
-0.469257734910116
30
0
41
1
10
23.4315056453267
20
-0.391953324559637
30
0
41
1
10
23.1404692338836
20
-0.325518507368713
30
0
41
1
10
22.8494395643021
20
-0.258904532015009
30
0
41
1
10
22.6069430289259
20
-0.203203011051528
30
0
41
1
10
22.2674420622367
20
-0.125087853643777
30
0
41
1
10
21.9764055542647
20
-0.0581402226268324
30
0
41
1
10
21.7395886478388
20
-0.0036409712369618
30
0
41
1
10
21.648293237346
20
0.0173911459829981
30
0
41
1
10
21.605499976296
20
0.0272517193509714
30
0
0
SPLINE
5
D3
100
AcDbEntity
8
1
62
256
6
ByLayer
370
18
48
1
60
0
100
AcDbSpline
70
4
71
3
72
14
73
10
40
0
40
0
40
0
40
0
40
0.25
40
0.25
40
0.5
40
0.5
40
0.75
40
0.75
40
1
40
1
40
1
40
1
41
1
10
13.1428319220194
20
4.93840810110794
30
0
41
1
10
13.757026863432
20
5.09392664705794
30
0
41
1
10
14.3728540253585
20
5.23572519581327
30
0
41
1
10
15.6072577111463
20
5.49276748010709
30
0
41
1
10
16.2268644316992
20
5.60815621816451
30
0
41
1
10
17.4621706165018
20
5.81037054610556
30
0
41
1
10
18.0780183040704
20
5.89728459538929
30
0
41
1
10
19.3057543310213
20
6.04065061097123
30
0
41
1
10
19.9176434278027
20
6.09712275740239
30
0
41
1
10
20.5273673557122
20
6.13625572838916
30
0
0
SPLINE
5
D4
100
AcDbEntity
8
1
62
256
6
ByLayer
370
18
48
1
60
0
100
AcDbSpline
70
4
71
3
72
8
73
4
40
0
40
0
40
0
40
0
40
1
40
1
40
1
40
1
41
1
10
5.82829437208483
20
-5.70255989963249
30
0
41
1
10
5.60502433435619
20
-5.65874687394705
30
0
41
1
10
5.38166776977198
20
-5.61191616118373
30
0
41
1
10
5.15817432332159
20
-5.56205787492314
30
0
0
SPLINE
5
D5
100
AcDbEntity
8
1
62
256
6
ByLayer
370
18
48
1
60
0
100
AcDbSpline
70
4
71
3
72
8
73
4
40
0
40
0
40
0
40
0
40
1
40
1
40
1
40
1
41
1
10
136.999786432677
20
0.0987594858399632
30
0
41
1
10
136.819934940943
20
0.571976536568229
30
0
41
1
10
136.64712748401
20
1.05150807427333
30
0
41
1
10
136.479620884017
20
1.53668073307594
30
0
0
SPLINE
5
D6
100
AcDbEntity
8
1
62
256
6
ByLayer
370
18
48
1
60
0
100
AcDbSpline
70
4
71
3
72
8
73
4
40
0
40
0
40
0
40
0
40
1
40
1
40
1
40
1
41
1
10
136.999786432677
20
0.09875948584002
30
0
41
1
10
137.000071189109
20
0.0329198286172812
30
0
41
1
10
137.000071189109
20
-0.0329198286054861
30
0
41
1
10
136.999786432677
20
-0.0987594858282534
30
0
0
SPLINE
5
D7
100
AcDbEntity
8
1
62
256
6
ByLayer
370
18
48
1
60
0
100
AcDbSpline
70
4
71
3
72
8
73
4
40
0
40
0
40
0
40
0
40
1
40
1
40
1
40
1
41
1
10
134.726565557587
20
6.32760406558992
30
0
41
1
10
134.977808002709
20
5.71710423811365
30
0
41
1
10
135.235747392816
20
5.08358193528559
30
0
41
1
10
135.49279730502
20
4.42159643753305
30
0
0
SPLINE
5
D8
100
AcDbEntity
8
1
62
256
6
ByLayer
370
13
48
1
60
0
100
AcDbSpline
70
4
71
3
72
36
73
32
40
0
40
0
40
0
40
0
40
0.0778175359270985
40
0.0778175359270985
40
0.116726303890648
40
0.116726303890648
40
0.155635071854197
40
0.155635071854197
40
0.311270143708394
40
0.311270143708394
40
0.389087679635493
40
0.389087679635493
40
0.427996447599042
40
0.427996447599042
40
0.466905215562591
40
0.466905215562591
40
0.622540287416788
40
0.622540287416788
40
0.661449055380338
40
0.661449055380338
40
0.700357823343887
40
0.700357823343887
40
0.778175359270986
40
0.778175359270986
40
0.817084127234535
40
0.817084127234535
40
0.855992895198085
40
0.855992895198085
40
0.933810431125183
40
0.933810431125183
40
1
40
1
40
1
40
1
41
1
10
5.67862008088659
20
-0.395561624428439
30
0
41
1
10
5.67862499295859
20
-0.138652915404862
30
0
41
1
10
5.67862351684821
20
0.117336698946673
30
0
41
1
10
5.67861518444843
20
0.499972832528272
30
0
41
1
10
5.67861138295171
20
0.627292791035359
30
0
41
1
10
5.67860227319542
20
0.881478582572328
30
0
41
1
10
5.67859694881889
20
1.00868038052428
30
0
41
1
10
5.67856807921618
20
1.63942477231686
30
0
41
1
10
5.67853850856443
20
2.12181097759506
30
0
41
1
10
5.67850788973058
20
2.81281096900608
30
0
41
1
10
5.678499905694
20
3.03864695869353
30
0
41
1
10
5.67849384160127
20
3.36240150138636
30
0
41
1
10
5.67849278579172
20
3.46801222741342
30
0
41
1
10
5.67849289439573
20
3.67461333264805
30
0
41
1
10
5.67849406737525
20
3.77587868535539
30
0
41
1
10
5.67850600777189
20
4.26658252218954
30
0
41
1
10
5.67853523447681
20
4.60940769837916
30
0
41
1
10
5.67859768532986
20
4.97748252546998
30
0
41
1
10
5.67861144791004
20
5.0480286066913
30
0
41
1
10
5.67864145568214
20
5.18283768378478
30
0
41
1
10
5.67865774204219
20
5.24719880445775
30
0
41
1
10
5.67870943516499
20
5.42822222779043
30
0
41
1
10
5.67874785555278
20
5.53374177652643
30
0
41
1
10
5.67880965606099
20
5.66958112112604
30
0
41
1
10
5.67883094701347
20
5.71110947228229
30
0
41
1
10
5.67887455647906
20
5.78657592074399
30
0
41
1
10
5.67889694942789
20
5.82060303033904
30
0
41
1
10
5.67896439000745
20
5.91018530427553
30
0
41
1
10
5.67900970908264
20
5.95344899841868
30
0
41
1
10
5.67909077481613
20
6.004006604284
30
0
41
1
10
5.67912694741136
20
6.01570793790589
30
0
41
1
10
5.67916072399942
20
6.01570663605267
30
0
0
SPLINE
5
D9
100
AcDbEntity
8
1
62
256
6
ByLayer
370
18
48
1
60
0
100
AcDbSpline
70
4
71
3
72
10
73
6
40
0
40
0
40
0
40
0
40
0.53590637669596
40
0.53590637669596
40
1
40
1
40
1
40
1
41
1
10
20.5273673557123
20
-6.13625572838905
30
0
41
1
10
20.8284136159455
20
-6.15794005250302
30
0
41
1
10
21.1287704907571
20
-6.17381771318509
30
0
41
1
10
21.6882566020564
20
-6.19284486430999
30
0
41
1
10
21.9472053186954
20
-6.19743742550779
30
0
41
1
10
22.2058440910374
20
-6.19779877363263
30
0
0
SPLINE
5
DA
100
AcDbEntity
8
1
62
256
6
ByLayer
370
18
48
1
60
0
100
AcDbSpline
70
4
71
3
72
54
73
50
40
0
40
0
40
0
40
0
40
0.0552544174164043
40
0.0552544174164043
40
0.129025093491876
40
0.129025093491876
40
0.147467762510744
40
0.147467762510744
40
0.165910431529612
40
0.165910431529612
40
0.202795769567348
40
0.202795769567348
40
0.276566445642822
40
0.276566445642822
40
0.313451783680558
40
0.313451783680558
40
0.331894452699425
40
0.331894452699425
40
0.350337121718293
40
0.350337121718293
40
0.387222459756028
40
0.387222459756028
40
0.424107797793764
40
0.424107797793764
40
0.497878473869235
40
0.497878473869235
40
0.516321142888102
40
0.516321142888102
40
0.534763811906969
40
0.534763811906969
40
0.571649149944703
40
0.571649149944703
40
0.645419826020172
40
0.645419826020172
40
0.682305164057906
40
0.682305164057906
40
0.700747833076774
40
0.700747833076774
40
0.719190502095641
40
0.719190502095641
40
0.866731854246586
40
0.866731854246586
40
0.885174523265453
40
0.885174523265453
40
0.903617192284321
40
0.903617192284321
40
0.940502530322058
40
0.940502530322058
40
1
40
1
40
1
40
1
41
1
10
50.0563959115331
20
4.14429135496275
30
0
41
1
10
50.9474000669405
20
4.48868546727829
30
0
41
1
10
51.8346670959459
20
4.79859961032739
30
0
41
1
10
53.9090428683123
20
5.42728237463155
30
0
41
1
10
55.0958948496431
20
5.71544603188792
30
0
41
1
10
56.595334825802
20
5.96942111099509
30
0
41
1
10
56.8962374502705
20
6.01505847648755
30
0
41
1
10
57.4957614936564
20
6.09476388002048
30
0
41
1
10
57.7947982870122
20
6.12896730719567
30
0
41
1
10
58.6898345356045
20
6.21477720080318
30
0
41
1
10
59.2842293209089
20
6.24937602419126
30
0
41
1
10
61.0645587953955
20
6.28579108502456
30
0
41
1
10
62.2467612511757
20
6.22001930837706
30
0
41
1
10
64.0302761237165
20
5.98888187720939
30
0
41
1
10
64.6262050215969
20
5.88965648239198
30
0
41
1
10
65.5246238024228
20
5.70821465189795
30
0
41
1
10
65.82550767583
20
5.64227233884498
30
0
41
1
10
66.4249880640319
20
5.50027289693836
30
0
41
1
10
66.7240440365163
20
5.42444481836395
30
0
41
1
10
67.6192263112709
20
5.1827393713809
30
0
41
1
10
68.2134066797868
20
5.00264202630245
30
0
41
1
10
69.3997046003286
20
4.60874562127284
30
0
41
1
10
69.9918309174767
20
4.3949874726969
30
0
41
1
10
71.7684876973573
20
3.70805879637695
30
0
41
1
10
72.9538055321707
20
3.18993272840993
30
0
41
1
10
74.4494506508028
20
2.48600366820062
30
0
41
1
10
74.7498820796594
20
2.34221576456056
30
0
41
1
10
75.3495876603652
20
2.05137708713414
30
0
41
1
10
75.6484677422305
20
1.90398711926215
30
0
41
1
10
76.5436397214426
20
1.4587559635514
30
0
41
1
10
77.137870907026
20
1.1566899643405
30
0
41
1
10
78.9164223977198
20
0.241665943077834
30
0
41
1
10
80.0979863363025
20
-0.377389600696006
30
0
41
1
10
81.8780585158811
20
-1.29207772892798
30
0
41
1
10
82.4729547047231
20
-1.59416273315378
30
0
41
1
10
83.3696783301436
20
-2.03898873205409
30
0
41
1
10
83.6696272539477
20
-2.18639530323063
30
0
41
1
10
84.2692554418475
20
-2.47646364399293
30
0
41
1
10
84.568299590459
20
-2.61888797778312
30
0
41
1
10
87.252848777929
20
-3.87751136268446
30
0
41
1
10
89.5982233836318
20
-4.81595747084256
30
0
41
1
10
92.2852707790806
20
-5.5302439441017
30
0
41
1
10
92.5849666791859
20
-5.60479403775685
30
0
41
1
10
93.1844328919033
20
-5.74392142893564
30
0
41
1
10
93.4834185443442
20
-5.80801933885252
30
0
41
1
10
94.3783159918714
20
-5.98408066440751
30
0
41
1
10
94.972091600474
20
-6.07981865740229
30
0
41
1
10
96.5203999538548
20
-6.2719619762068
30
0
41
1
10
97.4728021859527
20
-6.33287664085017
30
0
41
1
10
98.4273818252547
20
-6.33499218580852
30
0
0
SPLINE
5
DB
100
AcDbEntity
8
1
62
256
6
ByLayer
370
18
48
1
60
0
100
AcDbSpline
70
4
71
3
72
16
73
12
40
0
40
0
40
0
40
0
40
0.162479268120764
40
0.162479268120764
40
0.267169359605668
40
0.267169359605668
40
0.371859451090573
40
0.371859451090573
40
0.581239634060382
40
0.581239634060382
40
1
40
1
40
1
40
1
41
1
10
126.222385739163
20
4.20558119250217
30
0
41
1
10
126.681892830595
20
4.38810324405347
30
0
41
1
10
127.142359543185
20
4.56202198555815
30
0
41
1
10
127.902197261434
20
4.83204622077611
30
0
41
1
10
128.200495345127
20
4.93398986968066
30
0
41
1
10
128.799065417303
20
5.12891574028271
30
0
41
1
10
129.097756989583
20
5.22181647519139
30
0
41
1
10
129.99162892533
20
5.48514185621914
30
0
41
1
10
130.585053779793
20
5.6407343403369
30
0
41
1
10
132.361356446446
20
6.04533609577632
30
0
41
1
10
133.541134663198
20
6.23143555273893
30
0
41
1
10
134.726565557587
20
6.32760406558992
30
0
0
SPLINE
5
DC
100
AcDbEntity
8
1
62
256
6
ByLayer
370
18
48
1
60
0
100
AcDbSpline
70
4
71
3
72
10
73
6
40
0
40
0
40
0
40
0
40
0.5
40
0.5
40
1
40
1
40
1
40
1
41
1
10
135.296952788058
20
2.90261149399996
30
0
41
1
10
135.298758399404
20
3.16176950689839
30
0
41
1
10
135.323839306553
20
3.41640317658346
30
0
41
1
10
135.394494307464
20
3.92168697002779
30
0
41
1
10
135.440710376994
20
4.17221230402143
30
0
41
1
10
135.49279730502
20
4.42159643753305
30
0
0
SPLINE
5
DD
100
AcDbEntity
8
1
62
256
6
ByLayer
370
18
48
1
60
0
100
AcDbSpline
70
4
71
3
72
12
73
8
40
0
40
0
40
0
40
0
40
0.25
40
0.25
40
0.5
40
0.5
40
1
40
1
40
1
40
1
41
1
10
5.18170457676504
20
-0.337298433393386
30
0
41
1
10
5.20238208494607
20
-0.372802274035536
30
0
41
1
10
5.22855735506476
20
-0.403641205540708
30
0
41
1
10
5.28647127386617
20
-0.460598484169367
30
0
41
1
10
5.31821140379537
20
-0.486405850267687
30
0
41
1
10
5.41627589413918
20
-0.557616348977149
30
0
41
1
10
5.48622998316597
20
-0.598065362418197
30
0
41
1
10
5.55866779603957
20
-0.634707982314296
30
0
0
SPLINE
5
DE
100
AcDbEntity
8
1
62
256
6
ByLayer
370
18
48
1
60
0
100
AcDbSpline
70
4
71
1
72
4
73
2
40
0
40
0
40
1
40
1
41
1
10
134.67719229196
20
-6.06120533887164
30
0
41
1
10
136.048040432558
20
-1.43329957525003
30
0
0
SPLINE
5
DF
100
AcDbEntity
8
1
62
256
6
ByLayer
370
18
48
1
60
0
100
AcDbSpline
70
4
71
3
72
34
73
30
40
0
40
0
40
0
40
0
40
0.0312500000000001
40
0.0312500000000001
40
0.0625000000000002
40
0.0625000000000002
40
0.125
40
0.125
40
0.156250000000001
40
0.156250000000001
40
0.187500000000003
40
0.187500000000003
40
0.250000000000003
40
0.250000000000003
40
0.312500000000002
40
0.312500000000002
40
0.375000000000002
40
0.375000000000002
40
0.500000000000002
40
0.500000000000002
40
0.625000000000001
40
0.625000000000001
40
0.750000000000001
40
0.750000000000001
40
0.875000000000001
40
0.875000000000001
40
0.9375
40
0.9375
40
1
40
1
40
1
40
1
41
1
10
6.037338672423
20
-5.42335425219909
30
0
41
1
10
6.06822312133838
20
-5.38739951361245
30
0
41
1
10
6.10647472215786
20
-5.35243276328382
30
0
41
1
10
6.19474351361498
20
-5.28430885506364
30
0
41
1
10
6.24517497728237
20
-5.25093140892892
30
0
41
1
10
6.4083916541997
20
-5.15509516860919
30
0
41
1
10
6.53132532647376
20
-5.0973815695456
30
0
41
1
10
6.7291596355457
20
-5.01759079416905
30
0
41
1
10
6.79767968919506
20
-4.99206938618477
30
0
41
1
10
6.93676440997177
20
-4.94378559036178
30
0
41
1
10
7.0074670981937
20
-4.92095461602636
30
0
41
1
10
7.22247859657594
20
-4.85590730299148
30
0
41
1
10
7.36965928984455
20
-4.81710816071219
30
0
41
1
10
7.66992718081301
20
-4.74720963554833
30
0
41
1
10
7.8231781482458
20
-4.71610420193196
30
0
41
1
10
8.13412875049642
20
-4.66107868485472
30
0
41
1
10
8.29026897908642
20
-4.63742925626943
30
0
41
1
10
8.76038627980424
20
-4.57689558606978
30
0
41
1
10
9.0760394211265
20
-4.55034624732133
30
0
41
1
10
9.71117103537719
20
-4.52239923165587
30
0
41
1
10
10.0308113901808
20
-4.52107255616622
30
0
41
1
10
10.6732893606271
20
-4.54342567106036
30
0
41
1
10
10.9908748266893
20
-4.56693998412879
30
0
41
1
10
11.6189254573661
20
-4.6366882837311
30
0
41
1
10
11.929382666312
20
-4.68295546068811
30
0
41
1
10
12.3895614962989
20
-4.76788928447613
30
0
41
1
10
12.5420342668171
20
-4.79878546284075
30
0
41
1
10
12.8450924796156
20
-4.86540084376207
30
0
41
1
10
12.9954157588429
20
-4.90108127569644
30
0
41
1
10
13.1428319220194
20
-4.93840810110794
30
0
0
SPLINE
5
E0
100
AcDbEntity
8
1
62
256
6
ByLayer
370
18
48
1
60
0
100
AcDbSpline
70
4
71
3
72
8
73
4
40
0
40
0
40
0
40
0
40
1
40
1
40
1
40
1
41
1
10
5.14648890593443
20
-0.218805430770516
30
0
41
1
10
5.14648421730499
20
-0.260970717815866
30
0
41
1
10
5.16059525136288
20
-0.301053150909553
30
0
41
1
10
5.18170457676348
20
-0.337298433393528
30
0
0
SPLINE
5
E1
100
AcDbEntity
8
1
62
256
6
ByLayer
370
18
48
1
60
0
100
AcDbSpline
70
4
71
3
72
8
73
4
40
0
40
0
40
0
40
0
40
1
40
1
40
1
40
1
41
1
10
136.050635138218
20
-1.41633769281341
30
0
41
1
10
136.051257211397
20
-1.41697167659839
30
0
41
1
10
136.051879298496
20
-1.41760564672507
30
0
41
1
10
136.052501399515
20
-1.41823960319255
30
0
0
SPLINE
5
E2
100
AcDbEntity
8
1
62
256
6
ByLayer
370
18
48
1
60
0
100
AcDbSpline
70
4
71
3
72
58
73
54
40
0
40
0
40
0
40
0
40
0.0101604338424683
40
0.0101604338424683
40
0.0349423589952639
40
0.0349423589952639
40
0.0597242841480596
40
0.0597242841480596
40
0.10928813445365
40
0.10928813445365
40
0.158851984759241
40
0.158851984759241
40
0.257979685370421
40
0.257979685370421
40
0.307543535676011
40
0.307543535676011
40
0.357107385981602
40
0.357107385981602
40
0.381889311134397
40
0.381889311134397
40
0.406671236287192
40
0.406671236287192
40
0.456235086592782
40
0.456235086592782
40
0.481017011745577
40
0.481017011745577
40
0.505798936898372
40
0.505798936898372
40
0.555362787203963
40
0.555362787203963
40
0.604926637509554
40
0.604926637509554
40
0.654490487815145
40
0.654490487815145
40
0.704054338120736
40
0.704054338120736
40
0.753618188426327
40
0.753618188426327
40
0.778400113579122
40
0.778400113579122
40
0.803182038731918
40
0.803182038731918
40
0.85274588903751
40
0.85274588903751
40
0.877527814190305
40
0.877527814190305
40
0.902309739343101
40
0.902309739343101
40
0.951873589648693
40
0.951873589648693
40
0.976655514801489
40
0.976655514801489
40
1
40
1
40
1
40
1
41
1
10
23.3620980523826
20
6.1998826538599
30
0
41
1
10
23.5001685175803
20
6.2001018646894
30
0
41
1
10
23.6382405589691
20
6.19911587809762
30
0
41
1
10
24.1131377454285
20
6.19157829306215
30
0
41
1
10
24.4500770231232
20
6.17906164339394
30
0
41
1
10
25.1246463001259
20
6.13968483277563
30
0
41
1
10
25.4626101657661
20
6.11278195988359
30
0
41
1
10
26.4749283033145
20
6.01096675594843
30
0
41
1
10
27.1480705442632
20
5.91497240892562
30
0
41
1
10
28.4947980657556
20
5.66918219922511
30
0
41
1
10
29.1688698827448
20
5.51922603738308
30
0
41
1
10
31.1943317760544
20
4.99360033080953
30
0
41
1
10
32.5367295352859
20
4.54523781594358
30
0
41
1
10
34.5619164918389
20
3.7550944724569
30
0
41
1
10
35.2355633148799
20
3.47334437145557
30
0
41
1
10
36.5816295111039
20
2.88080439343329
30
0
41
1
10
37.2543805983837
20
2.56975579893887
30
0
41
1
10
38.2660533238843
20
2.08608591136863
30
0
41
1
10
38.6037212260267
20
1.92197403042454
30
0
41
1
10
39.2776103432134
20
1.59022583320876
30
0
41
1
10
39.6141918556685
20
1.42245812193954
30
0
41
1
10
40.6236033996544
20
0.914928893909746
30
0
41
1
10
41.2959971177021
20
0.570740224411423
30
0
41
1
10
42.3068294087974
20
0.0516178384914099
30
0
41
1
10
42.6444571177573
20
-0.122099089829874
30
0
41
1
10
43.3185592998709
20
-0.468418496780885
30
0
41
1
10
43.6551886737467
20
-0.641054744056021
30
0
41
1
10
44.664565083901
20
-1.1559409345432
30
0
41
1
10
45.3366929499512
20
-1.49537342450043
30
0
41
1
10
46.6834651079221
20
-2.15872385901534
30
0
41
1
10
47.358626061776
20
-2.48306630140144
30
0
41
1
10
48.7045280937433
20
-3.10388115371299
30
0
41
1
10
49.3764233699291
20
-3.40124876912105
30
0
41
1
10
50.7223187380387
20
-3.96282816345979
30
0
41
1
10
51.3973926921066
20
-4.22760067399219
30
0
41
1
10
52.7434791192904
20
-4.7142904133928
30
0
41
1
10
53.4152892410811
20
-4.9367012780281
30
0
41
1
10
54.4241270884049
20
-5.23523821655803
30
0
41
1
10
54.760611422297
20
-5.32888848519155
30
0
41
1
10
55.4343777620401
20
-5.50398327174241
30
0
41
1
10
55.7716606690375
20
-5.58538552143514
30
0
41
1
10
56.7814357391499
20
-5.80946016477341
30
0
41
1
10
57.4531826280397
20
-5.93242598336846
30
0
41
1
10
58.461513620698
20
-6.07539687823527
30
0
41
1
10
58.7977579157065
20
-6.11613454524195
30
0
41
1
10
59.4709674572419
20
-6.18349595243021
30
0
41
1
10
59.808275801274
20
-6.21012053411891
30
0
41
1
10
60.8183917487214
20
-6.26824607551652
30
0
41
1
10
61.4900970367202
20
-6.2781057721927
30
0
41
1
10
62.4980557411328
20
-6.24961924533537
30
0
41
1
10
62.8340912378373
20
-6.23291005690331
30
0
41
1
10
63.4872967374872
20
-6.18649575822926
30
0
41
1
10
63.8046717973917
20
-6.15757090881087
30
0
41
1
10
64.121993476337
20
-6.12235398871718
30
0
0
SPLINE
5
E3
100
AcDbEntity
8
1
62
256
6
ByLayer
370
18
48
1
60
0
100
AcDbSpline
70
4
71
3
72
50
73
46
40
0
40
0
40
0
40
0
40
0.0830421480839085
40
0.0830421480839085
40
0.197661879573429
40
0.197661879573429
40
0.226316812445809
40
0.226316812445809
40
0.254971745318189
40
0.254971745318189
40
0.312281611062947
40
0.312281611062947
40
0.340936543935325
40
0.340936543935325
40
0.369591476807704
40
0.369591476807704
40
0.426901342552459
40
0.426901342552459
40
0.455556275424837
40
0.455556275424837
40
0.484211208297213
40
0.484211208297213
40
0.541521074041965
40
0.541521074041965
40
0.598830939786717
40
0.598830939786717
40
0.656140805531469
40
0.656140805531469
40
0.684795738403846
40
0.684795738403846
40
0.713450671276223
40
0.713450671276223
40
0.770760537020979
40
0.770760537020979
40
0.799415469893357
40
0.799415469893357
40
0.828070402765735
40
0.828070402765735
40
0.88538026851049
40
0.88538026851049
40
0.942690134255246
40
0.942690134255246
40
0.971345067127623
40
0.971345067127623
40
1
40
1
40
1
40
1
41
1
10
99.5552525124148
20
6.33701199806418
30
0
41
1
10
100.52706423097
20
6.33877964995639
30
0
41
1
10
101.497160376201
20
6.27951997636703
30
0
41
1
10
103.81646125708
20
5.99483499388731
30
0
41
1
10
105.15296255966
20
5.71677008299324
30
0
41
1
10
106.832520168854
20
5.24319733779484
30
0
41
1
10
107.168706031733
20
5.14221301605704
30
0
41
1
10
107.839690214615
20
4.92901175068482
30
0
41
1
10
108.174817756777
20
4.81669679222975
30
0
41
1
10
109.17987656175
20
4.46360314853587
30
0
41
1
10
109.849551207467
20
4.20676444174038
30
0
41
1
10
110.856373770514
20
3.79317004564967
30
0
41
1
10
111.192634301412
20
3.6504555002756
30
0
41
1
10
111.863805997491
20
3.35743919751198
30
0
41
1
10
112.198972438803
20
3.20703480443501
30
0
41
1
10
113.204013747618
20
2.7454960586843
30
0
41
1
10
113.873403985358
20
2.42399186722818
30
0
41
1
10
114.879439060159
20
1.92602673765595
30
0
41
1
10
115.215444792759
20
1.75726393321787
30
0
41
1
10
115.886908488388
20
1.41627247044218
30
0
41
1
10
116.222161424087
20
1.24413917662059
30
0
41
1
10
117.227228956732
20
0.724242026456892
30
0
41
1
10
117.896393919199
20
0.373059336406925
30
0
41
1
10
119.236851832316
20
-0.331072172513387
30
0
41
1
10
119.909170054885
20
-0.684600693273637
30
0
41
1
10
121.249383630126
20
-1.38024325299062
30
0
41
1
10
121.918376630877
20
-1.72286667799438
30
0
41
1
10
122.923089868758
20
-2.22363917217928
30
0
41
1
10
123.258200845756
20
-2.38836485905284
30
0
41
1
10
123.929343272595
20
-2.7124840398113
30
0
41
1
10
124.265150062433
20
-2.87176334604544
30
0
41
1
10
125.270558841838
20
-3.33835448405878
30
0
41
1
10
125.939412294736
20
-3.63510983159262
30
0
41
1
10
126.943587309385
20
-4.05398695651377
30
0
41
1
10
127.278463327519
20
-4.18923524143935
30
0
41
1
10
127.949018782244
20
-4.45019715805299
30
0
41
1
10
128.28492689143
20
-4.57599000441255
30
0
41
1
10
129.290842008068
20
-4.9366483877948
30
0
41
1
10
129.960081133738
20
-5.15521903179945
30
0
41
1
10
131.29984429479
20
-5.54396323555122
30
0
41
1
10
131.971453556163
20
-5.71435362129276
30
0
41
1
10
132.976531121779
20
-5.92898997677418
30
0
41
1
10
133.311316769574
20
-5.99378657359992
30
0
41
1
10
133.980827610795
20
-6.10960902450501
30
0
41
1
10
134.315396841188
20
-6.16070712847375
30
0
41
1
10
134.650478733586
20
-6.20461262069747
30
0
0
SPLINE
5
E4
100
AcDbEntity
8
1
62
256
6
ByLayer
370
18
48
1
60
0
100
AcDbSpline
70
4
71
3
72
50
73
46
40
0
40
0
40
0
40
0
40
0.0224729520680712
40
0.0224729520680712
40
0.0449459041361423
40
0.0449459041361423
40
0.0898918082722846
40
0.0898918082722846
40
0.179783616544568
40
0.179783616544568
40
0.22472952068071
40
0.22472952068071
40
0.247202472748781
40
0.247202472748781
40
0.269675424816851
40
0.269675424816851
40
0.359567233089133
40
0.359567233089133
40
0.449459041361414
40
0.449459041361414
40
0.471931993429484
40
0.471931993429484
40
0.494404945497554
40
0.494404945497554
40
0.539350849633694
40
0.539350849633694
40
0.629242657905975
40
0.629242657905975
40
0.674188562042116
40
0.674188562042116
40
0.696661514110186
40
0.696661514110186
40
0.719134466178255
40
0.719134466178255
40
0.809026274450534
40
0.809026274450534
40
0.898918082722811
40
0.898918082722811
40
0.921391034790881
40
0.921391034790881
40
0.94386398685895
40
0.94386398685895
40
0.988809890995089
40
0.988809890995089
40
1
40
1
40
1
40
1
41
1
10
20.5273673557123
20
6.13625572838913
30
0
41
1
10
20.8283699468665
20
6.15793690702486
30
0
41
1
10
21.1286833112277
20
6.17381311191303
30
0
41
1
10
21.7282610618392
20
6.19420698225699
30
0
41
1
10
22.0271098806937
20
6.19875477284623
30
0
41
1
10
22.9226609480691
20
6.19548113038832
30
0
41
1
10
23.5177142395843
20
6.17083547650412
30
0
41
1
10
25.3001577304322
20
6.0306763695836
30
0
41
1
10
26.4861547577229
20
5.84939688603356
30
0
41
1
10
28.2757103088727
20
5.45220576177439
30
0
41
1
10
28.8742314411027
20
5.29911169910062
30
0
41
1
10
29.7770467812339
20
5.03974501555564
30
0
41
1
10
30.0775582076087
20
4.94847546355328
30
0
41
1
10
30.6768214904339
20
4.75777047397563
30
0
41
1
10
30.9758255616813
20
4.65826465463567
30
0
41
1
10
32.4676831676395
20
4.14009383564044
30
0
41
1
10
33.6533247080326
20
3.66265137507702
30
0
41
1
10
36.0279583493788
20
2.61302683096324
30
0
41
1
10
37.2177410640786
20
2.04217871319605
30
0
41
1
10
38.7205823792507
20
1.29227549987203
30
0
41
1
10
39.0214295380164
20
1.14111314440498
30
0
41
1
10
39.6204970836615
20
0.837412198211723
30
0
41
1
10
39.9194163190411
20
0.68518887596727
30
0
41
1
10
40.8144457089635
20
0.227598130477873
30
0
41
1
10
41.4088188648695
20
-0.0786993830705569
30
0
41
1
10
43.1896547647461
20
-0.99203834159448
30
0
41
1
10
44.3734236350614
20
-1.59434262191027
30
0
41
1
10
46.1597888470698
20
-2.45665107230175
30
0
41
1
10
46.75710698139
20
-2.73708902861014
30
0
41
1
10
47.657511534
20
-3.14402476442927
30
0
41
1
10
47.9584676702083
20
-3.27725701145931
30
0
41
1
10
48.557875736518
20
-3.53618962394103
30
0
41
1
10
48.8566747489891
20
-3.66252586407754
30
0
41
1
10
50.348547869615
20
-4.27477013682588
30
0
41
1
10
51.5325081078653
20
-4.70683245178063
30
0
41
1
10
53.904220002668
20
-5.42601154239225
30
0
41
1
10
55.0908846213568
20
-5.71434575024134
30
0
41
1
10
56.5900623207109
20
-5.9685902836155
30
0
41
1
10
56.8909246420941
20
-6.01428490528312
30
0
41
1
10
57.4903773956319
20
-6.09411413168132
30
0
41
1
10
57.7893818465715
20
-6.12837909008323
30
0
41
1
10
58.6843084127494
20
-6.21438337387812
30
0
41
1
10
59.2786263752281
20
-6.24911769801949
30
0
41
1
10
60.0197199454281
20
-6.26445475993481
30
0
41
1
10
60.1673760244971
20
-6.26611697989316
30
0
41
1
10
60.3149813600979
20
-6.26638748071011
30
0
0
SPLINE
5
E5
100
AcDbEntity
8
1
62
256
6
ByLayer
370
18
48
1
60
0
100
AcDbSpline
70
4
71
3
72
52
73
48
40
0
40
0
40
0
40
0
40
0.0827075009037813
40
0.0827075009037813
40
0.101817761301617
40
0.101817761301617
40
0.120928021699453
40
0.120928021699453
40
0.159148542495127
40
0.159148542495127
40
0.235589584086475
40
0.235589584086475
40
0.273810104882149
40
0.273810104882149
40
0.292920365279987
40
0.292920365279987
40
0.312030625677825
40
0.312030625677825
40
0.388471667269176
40
0.388471667269176
40
0.464912708860528
40
0.464912708860528
40
0.484022969258366
40
0.484022969258366
40
0.503133229656203
40
0.503133229656203
40
0.541353750451879
40
0.541353750451879
40
0.617794792043232
40
0.617794792043232
40
0.656015312838909
40
0.656015312838909
40
0.675125573236747
40
0.675125573236747
40
0.694235833634585
40
0.694235833634585
40
0.770676875225938
40
0.770676875225938
40
0.847117916817291
40
0.847117916817291
40
0.866228177215129
40
0.866228177215129
40
0.885338437612968
40
0.885338437612968
40
0.923558958408646
40
0.923558958408646
40
1
40
1
40
1
40
1
41
1
10
88.1250917435815
20
4.16961001888774
30
0
41
1
10
89.4051225422362
20
4.67152997984408
30
0
41
1
10
90.6844359372473
20
5.10419337659954
30
0
41
1
10
92.2748159677579
20
5.5275795204623
30
0
41
1
10
92.5744246028584
20
5.60222343038348
30
0
41
1
10
93.173843671345
20
5.7415834729828
30
0
41
1
10
93.4727982461458
20
5.80580432515671
30
0
41
1
10
94.3676218926924
20
5.9822212841263
30
0
41
1
10
94.9613361534522
20
6.07821093542822
30
0
41
1
10
96.7387079428768
20
6.29959229969035
30
0
41
1
10
97.9184331862814
20
6.35850799961284
30
0
41
1
10
99.6960133724487
20
6.31072934509083
30
0
41
1
10
100.28996507994
20
6.27215503880598
30
0
41
1
10
101.184762222675
20
6.17997815329375
30
0
41
1
10
101.483763671104
20
6.14350249999936
30
0
41
1
10
102.083274186794
20
6.05929287869759
30
0
41
1
10
102.38201773448
20
6.01162105322527
30
0
41
1
10
103.872971136785
20
5.74722394203658
30
0
41
1
10
105.054539382337
20
5.45075790762706
30
0
41
1
10
107.418225460765
20
4.71320906618203
30
0
41
1
10
108.599496356417
20
4.27110129779481
30
0
41
1
10
110.089978101884
20
3.6446413903725
30
0
41
1
10
110.38865364775
20
3.51547573937845
30
0
41
1
10
110.987760664952
20
3.25024072879219
30
0
41
1
10
111.286686816526
20
3.11501406475605
30
0
41
1
10
112.180767604995
20
2.70143301702708
30
0
41
1
10
112.774154962455
20
2.41625065942415
30
0
41
1
10
114.550442774898
20
1.54018324524489
30
0
41
1
10
115.728447393424
20
0.926819787521111
30
0
41
1
10
117.504045062497
20
-0.0030488523898953
30
0
41
1
10
118.097038241602
20
-0.315229308667995
30
0
41
1
10
118.990460595437
20
-0.782526047936699
30
0
41
1
10
119.289089604972
20
-0.937788435597554
30
0
41
1
10
119.887704159584
20
-1.24793024332271
30
0
41
1
10
120.186534139438
20
-1.40171739032885
30
0
41
1
10
121.67658071578
20
-2.16104568277589
30
0
41
1
10
122.857023769792
20
-2.74166790266452
30
0
41
1
10
125.218287346659
20
-3.80886644697478
30
0
41
1
10
126.398185994404
20
-4.29700429250022
30
0
41
1
10
127.886588064851
20
-4.82663463960731
30
0
41
1
10
128.18481063409
20
-4.92871669774206
30
0
41
1
10
128.78323344487
20
-5.12391693824557
30
0
41
1
10
129.082041425108
20
-5.21701093007138
30
0
41
1
10
129.976467528063
20
-5.48101387274576
30
0
41
1
10
130.570706826108
20
-5.63717255865583
30
0
41
1
10
132.350833262198
20
-6.04351728516124
30
0
41
1
10
133.534885865378
20
-6.23092861674112
30
0
41
1
10
134.726565557587
20
-6.32760406558992
30
0
0
SPLINE
5
E6
100
AcDbEntity
8
1
62
256
6
ByLayer
370
18
48
1
60
0
100
AcDbSpline
70
4
71
3
72
8
73
4
40
0
40
0
40
0
40
0
40
1
40
1
40
1
40
1
41
1
10
134.726565557587
20
-6.32760406558992
30
0
41
1
10
134.9778364408
20
-5.71703513573866
30
0
41
1
10
135.235777484352
20
-5.08350443998435
30
0
41
1
10
135.492797305019
20
-4.42159643753314
30
0
0
SPLINE
5
E7
100
AcDbEntity
8
1
62
256
6
ByLayer
370
13
48
1
60
0
100
AcDbSpline
70
4
71
3
72
25
73
21
40
0
40
0
40
0
40
0
40
0.0353813400405198
40
0.122043970107641
40
0.150931513463347
40
0.20870660017476
40
0.266481686886173
40
0.353144316953291
40
0.382031860309
40
0.439806947020413
40
0.497582033731825
40
0.584244663798944
40
0.61313220715465
40
0.670907293866066
40
0.728682380577478
40
0.815345010644597
40
0.844232554000303
40
0.902007640711718
40
0.959782727423131
40
1
40
1
40
1
40
1
41
1
10
135.301700166159
20
2.79057353161465
30
0
41
1
10
135.24229160317
20
2.79004921402946
30
0
41
1
10
135.037371512599
20
2.78789984063323
30
0
41
1
10
134.783973678439
20
2.78382098041942
30
0
41
1
10
134.492972328786
20
2.77752418486952
30
0
41
1
10
134.250442981972
20
2.77121824294454
30
0
41
1
10
133.910907582721
20
2.76054196740838
30
0
41
1
10
133.619912717058
20
2.74947504111623
30
0
41
1
10
133.328910810255
20
2.73681809511308
30
0
41
1
10
133.086380936573
20
2.72523741170567
30
0
41
1
10
132.746844819287
20
2.70720994761751
30
0
41
1
10
132.45584943129
20
2.68986794987444
30
0
41
1
10
132.164847179665
20
2.67096782840605
30
0
41
1
10
131.92231708652
20
2.65421599844427
30
0
41
1
10
131.582780788598
20
2.62899271572578
30
0
41
1
10
131.291785461993
20
2.60551931644616
30
0
41
1
10
131.000783524044
20
2.58052842186532
30
0
41
1
10
130.758253936829
20
2.55873812336244
30
0
41
1
10
130.496705000334
20
2.53392099977864
30
0
41
1
10
130.332179902208
20
2.51762117454959
30
0
41
1
10
130.264657759403
20
2.51081518839012
30
0
0
SPLINE
5
E8
100
AcDbEntity
8
1
62
256
6
ByLayer
370
13
48
1
60
0
100
AcDbSpline
70
4
71
3
72
93
73
89
40
0
40
0
40
0
40
0
40
0.0027394760883275
40
0.0145070640315106
40
0.026274651974692
40
0.0439260338894658
40
0.0498098278610581
40
0.0615774158042411
40
0.0733450037474216
40
0.0909963856621959
40
0.0968801796337887
40
0.108647767576971
40
0.120415355520154
40
0.138066737434926
40
0.143950531406519
40
0.155718119349702
40
0.167485707292884
40
0.185137089207659
40
0.19102088317925
40
0.202788471122432
40
0.214556059065616
40
0.232207440980388
40
0.23809123495198
40
0.249858822895163
40
0.261626410838345
40
0.279277792753119
40
0.285161586724711
40
0.296929174667893
40
0.308696762611075
40
0.32634814452585
40
0.332231938497441
40
0.343999526440622
40
0.355767114383806
40
0.373418496298581
40
0.379302290270171
40
0.391069878213354
40
0.402837466156537
40
0.420488848071311
40
0.426372642042902
40
0.438140229986085
40
0.449907817929267
40
0.467559199844042
40
0.473442993815633
40
0.485210581758815
40
0.496978169701997
40
0.514629551616772
40
0.520513345588363
40
0.532280933531546
40
0.544048521474728
40
0.561699903389502
40
0.567583697361094
40
0.579351285304276
40
0.591118873247458
40
0.608770255162232
40
0.614654049133824
40
0.626421637077007
40
0.638189225020189
40
0.655840606934964
40
0.661724400906554
40
0.673491988849737
40
0.68525957679292
40
0.702910958707693
40
0.708794752679285
40
0.720562340622468
40
0.73232992856565
40
0.749981310480425
40
0.755865104452015
40
0.767632692395198
40
0.779400280338381
40
0.797051662253155
40
0.802935456224746
40
0.814703044167929
40
0.826470632111111
40
0.844122014025885
40
0.850005807997477
40
0.861773395940659
40
0.873540983883841
40
0.891192365798616
40
0.897076159770207
40
0.90884374771339
40
0.920611335656574
40
0.938262717571346
40
0.944146511542938
40
0.95591409948612
40
0.967681687429302
40
0.985333069344077
40
0.991216863315668
40
1
40
1
40
1
40
1
41
1
10
78.7342169275869
20
-0.0287762250401044
30
0
41
1
10
78.7116350803937
20
-0.0235733026795515
30
0
41
1
10
78.5920502149202
20
0.0039765150138749
30
0
41
1
10
78.375441878572
20
0.053810560528916
30
0
41
1
10
78.0359055886536
20
0.131876848803415
30
0
41
1
10
77.744910291493
20
0.198813724989037
30
0
41
1
10
77.4539083968995
20
0.265643147140309
30
0
41
1
10
77.2113788361477
20
0.32114942556629
30
0
41
1
10
76.8718435562137
20
0.398632796519336
30
0
41
1
10
76.5808491504633
20
0.464885818883942
30
0
41
1
10
76.2898478952483
20
0.53087364133384
30
0
41
1
10
76.0473185929719
20
0.58557471584865
30
0
41
1
10
75.7077831817851
20
0.661749550968806
30
0
41
1
10
75.4167882307218
20
0.726693442865581
30
0
41
1
10
75.1257861784697
20
0.791218119499177
30
0
41
1
10
74.8832561786975
20
0.844600469981145
30
0
41
1
10
74.5437199119242
20
0.9187548634047
30
0
41
1
10
74.2527244227634
20
0.981786225065831
30
0
41
1
10
73.9617220954399
20
1.04425116143861
30
0
41
1
10
73.7191919509416
20
1.09582317763917
30
0
41
1
10
73.3796555988284
20
1.16727764709446
30
0
41
1
10
73.088660246554
20
1.22782217031775
30
0
41
1
10
72.7976583017174
20
1.28766036184666
30
0
41
1
10
72.5551287135664
20
1.33695507908339
30
0
41
1
10
72.2155934278374
20
1.40506289619387
30
0
41
1
10
71.9245990453035
20
1.46257095593003
30
0
41
1
10
71.6335978292071
20
1.51923555692858
30
0
41
1
10
71.3910685718587
20
1.56579979319161
30
0
41
1
10
71.0515332451849
20
1.62993129420559
30
0
41
1
10
70.7605383835339
20
1.6838689615742
30
0
41
1
10
70.4695364290953
20
1.73683392793381
30
0
41
1
10
70.2270064978786
20
1.78023572920892
30
0
41
1
10
69.8874702869625
20
1.83979648827895
30
0
41
1
10
69.5964748070643
20
1.8896643412011
30
0
41
1
10
69.3054724594186
20
1.93843961912844
30
0
41
1
10
69.0629422898072
20
1.97827773073936
30
0
41
1
10
68.7234059005248
20
2.03271751042106
30
0
41
1
10
68.4324105158551
20
2.07805496447082
30
0
41
1
10
68.1414085422599
20
2.12218975855597
30
0
41
1
10
67.8988789290885
20
2.15809563110164
30
0
41
1
10
67.5593436011436
20
2.20691112947466
30
0
41
1
10
67.2683491743687
20
2.24730056329022
30
0
41
1
10
66.9773479047749
20
2.28639096087897
30
0
41
1
10
66.7348186152416
20
2.31803802231388
30
0
41
1
10
66.3952832846335
20
2.36078775184299
30
0
41
1
10
66.1042884595236
20
2.3958651022194
30
0
41
1
10
65.8132865749371
20
2.42955797628374
30
0
41
1
10
65.5707566898911
20
2.45665943865336
30
0
41
1
10
65.2312204886502
20
2.49295395950247
30
0
41
1
10
64.9402249647838
20
2.52239715982534
30
0
41
1
10
64.6492225311829
20
2.55038074383492
30
0
41
1
10
64.406692289276
20
2.57268422729311
30
0
41
1
10
64.0671558268491
20
2.60218243374379
30
0
41
1
10
63.776160408881
20
2.62571122260726
30
0
41
1
10
63.4851584306929
20
2.64771602945626
30
0
41
1
10
63.2426288151171
20
2.66500462832059
30
0
41
1
10
62.9030934670742
20
2.68741942909489
30
0
41
1
10
62.6120990063452
20
2.70480873043405
30
0
41
1
10
62.3210976850531
20
2.72063251627278
30
0
41
1
10
62.0785683706556
20
2.7327538622043
30
0
41
1
10
61.7390330684537
20
2.74789640477186
30
0
41
1
10
61.4480383289907
20
2.75900524770281
30
0
41
1
10
61.1570365802763
20
2.76851941700224
30
0
41
1
10
60.9145068001363
20
2.77537379309157
30
0
41
1
10
60.5749706870208
20
2.78311656011746
30
0
41
1
10
60.2839751794078
20
2.78784740360419
30
0
41
1
10
59.9929727094549
20
2.79096426786833
30
0
41
1
10
59.7504424317571
20
2.79248534091033
30
0
41
1
10
59.4109059374494
20
2.79274674316107
30
0
41
1
10
59.1199105066273
20
2.79104114284018
30
0
41
1
10
58.8289085274952
20
2.78771243350382
30
0
41
1
10
58.5863789020284
20
2.78386704269474
30
0
41
1
10
58.2468435089499
20
2.77661853580613
30
0
41
1
10
57.9558489817616
20
2.7684768825986
30
0
41
1
10
57.6648475734429
20
2.75873124647736
30
0
41
1
10
57.4223181977009
20
2.74956298883518
30
0
41
1
10
57.0827828566106
20
2.73489494670161
30
0
41
1
10
56.7917881326363
20
2.72041888013814
30
0
41
1
10
56.5007864435158
20
2.70436991687918
30
0
41
1
10
56.2582567117756
20
2.68997973468012
30
0
41
1
10
55.9187206316223
20
2.66804384882295
30
0
41
1
10
55.6277251175455
20
2.6473736542398
30
0
41
1
10
55.3367226098409
20
2.62516997116498
30
0
41
1
10
55.0941922957352
20
2.60568709287116
30
0
41
1
10
54.7546557562997
20
2.57667346924719
30
0
41
1
10
54.4636602899971
20
2.54998165817639
30
0
41
1
10
54.1972592211984
20
2.52418608486118
30
0
41
1
10
54.0763475692544
20
2.51209071113274
30
0
41
1
10
54.0039402093771
20
2.50471302995254
30
0
0
SPLINE
5
E9
100
AcDbEntity
8
1
62
256
6
ByLayer
370
13
48
1
60
0
100
AcDbSpline
70
4
71
3
72
93
73
89
40
0
40
0
40
0
40
0
40
0.0010512804987933
40
0.0128690325998539
40
0.0305956607514488
40
0.0365045368019799
40
0.0483222889030426
40
0.0601400410041059
40
0.0778666691556976
40
0.0837755452062287
40
0.0955932973072893
40
0.107411049408352
40
0.125137677559945
40
0.131046553610478
40
0.14286430571154
40
0.154682057812603
40
0.172408685964196
40
0.178317562014727
40
0.190135314115789
40
0.201953066216851
40
0.219679694368446
40
0.225588570418976
40
0.237406322520037
40
0.249224074621101
40
0.266950702772693
40
0.272859578823225
40
0.284677330924287
40
0.296495083025349
40
0.31422171117694
40
0.320130587227474
40
0.331948339328536
40
0.343766091429598
40
0.36149271958119
40
0.367401595631722
40
0.379219347732785
40
0.391037099833845
40
0.408763727985439
40
0.414672604035971
40
0.426490356137033
40
0.438308108238096
40
0.456034736389688
40
0.46194361244022
40
0.473761364541283
40
0.485579116642345
40
0.503305744793939
40
0.509214620844469
40
0.521032372945531
40
0.532850125046595
40
0.550576753198186
40
0.556485629248719
40
0.568303381349781
40
0.580121133450843
40
0.597847761602436
40
0.603756637652967
40
0.61557438975403
40
0.627392141855092
40
0.645118770006685
40
0.651027646057216
40
0.662845398158277
40
0.67466315025934
40
0.692389778410935
40
0.698298654461465
40
0.710116406562527
40
0.721934158663589
40
0.739660786815183
40
0.745569662865714
40
0.757387414966776
40
0.769205167067838
40
0.786931795219432
40
0.792840671269963
40
0.804658423371025
40
0.816476175472087
40
0.834202803623681
40
0.840111679674212
40
0.851929431775274
40
0.863747183876336
40
0.88147381202793
40
0.887382688078461
40
0.899200440179522
40
0.911018192280585
40
0.928744820432179
40
0.93465369648271
40
0.946471448583772
40
0.958289200684834
40
0.976015828836427
40
0.981924704886959
40
0.993742456988021
40
1
40
1
40
1
40
1
41
1
10
84.3281418692743
20
-2.51548483085657
30
0
41
1
10
84.3195130225355
20
-2.51634820930892
30
0
41
1
10
84.2138847701355
20
-2.52689333618204
30
0
41
1
10
83.9627549911315
20
-2.5512736873782
30
0
41
1
10
83.6717182040859
20
-2.57772450589704
30
0
41
1
10
83.3806883304155
20
-2.60270584150433
30
0
41
1
10
83.1381917229726
20
-2.62255068126228
30
0
41
1
10
82.7986908413856
20
-2.64855716524926
30
0
41
1
10
82.5076546333235
20
-2.66899613436965
30
0
41
1
10
82.2166254946104
20
-2.68791725104438
30
0
41
1
10
81.9741294957774
20
-2.70267220068496
30
0
41
1
10
81.6346293226243
20
-2.72150032972849
30
0
41
1
10
81.3435935230204
20
-2.73574491107445
30
0
41
1
10
81.0525645572739
20
-2.74843245144012
30
0
41
1
10
80.8100686256631
20
-2.75795951679874
30
0
41
1
10
80.4705684282144
20
-2.76942737832732
30
0
41
1
10
80.1795323999415
20
-2.77733282700962
30
0
41
1
10
79.8885029589139
20
-2.78365102926534
30
0
41
1
10
79.6460064378578
20
-2.78784324877103
30
0
41
1
10
79.3065052369847
20
-2.79181787058903
30
0
41
1
10
79.0154683819835
20
-2.79329393692205
30
0
41
1
10
78.724438403818
20
-2.79317974737819
30
0
41
1
10
78.481941703442
20
-2.79200397465428
30
0
41
1
10
78.1424407045364
20
-2.78846837264243
30
0
41
1
10
77.8514044160146
20
-2.78352485799755
30
0
41
1
10
77.5603752236526
20
-2.77700049165881
30
0
41
1
10
77.3178791943984
20
-2.77048216979276
30
0
41
1
10
76.9783789953564
20
-2.75948369531827
30
0
41
1
10
76.6873431866194
20
-2.74817277592143
30
0
41
1
10
76.3963142144448
20
-2.73530018347225
30
0
41
1
10
76.1538182902241
20
-2.72349800618136
30
0
41
1
10
75.814318134296
20
-2.70513096938831
30
0
41
1
10
75.5232821671142
20
-2.68754554905482
30
0
41
1
10
75.2322528020801
20
-2.66842804773583
30
0
41
1
10
74.9897563328154
20
-2.65143550538241
30
0
41
1
10
74.6502551665272
20
-2.62584739780181
30
0
41
1
10
74.3592183075967
20
-2.60213517156893
30
0
41
1
10
74.0681883029341
20
-2.57694364421468
30
0
41
1
10
73.8256915750946
20
-2.554919829185
30
0
41
1
10
73.4861905401264
20
-2.52235884313427
30
0
41
1
10
73.1951542267497
20
-2.49275408755145
30
0
41
1
10
72.904125019477
20
-2.46173531342853
30
0
41
1
10
72.6616289894309
20
-2.43489347774036
30
0
41
1
10
72.3221288103835
20
-2.39567036966847
30
0
41
1
10
72.0310930352819
20
-2.36045102062772
30
0
41
1
10
71.7400641031304
20
-2.32389261675618
30
0
41
1
10
71.4975682178221
20
-2.2924795954456
30
0
41
1
10
71.1580681241124
20
-2.24695188404357
30
0
41
1
10
70.8670322120684
20
-2.20643609606626
30
0
41
1
10
70.5760028973034
20
-2.16466664629269
30
0
41
1
10
70.3335064554553
20
-2.12896380290155
30
0
41
1
10
69.9940052949734
20
-2.07753925742216
30
0
41
1
10
69.7029684128236
20
-2.0320919051218
30
0
41
1
10
69.4119383690303
20
-1.98549156234412
30
0
41
1
10
69.1694415962454
20
-1.945826855939
30
0
41
1
10
68.8299404767266
20
-1.88898186408406
30
0
41
1
10
68.538904073895
20
-1.83902646573694
30
0
41
1
10
68.2478747687613
20
-1.78802942861037
30
0
41
1
10
68.0053786701274
20
-1.74477187055834
30
0
41
1
10
67.6658784351985
20
-1.6830341766177
30
0
41
1
10
67.3748426508329
20
-1.62903339881791
30
0
41
1
10
67.0838137390155
20
-1.57411110857461
30
0
41
1
10
66.8413178788324
20
-1.52766015783544
30
0
41
1
10
66.5018178223071
20
-1.46159953792124
30
0
41
1
10
66.2107819426711
20
-1.40405176101677
30
0
41
1
10
65.9197526566774
20
-1.34571156217763
30
0
41
1
10
65.6772562398623
20
-1.29649660697433
30
0
41
1
10
65.3377551216199
20
-1.22672318153755
30
0
41
1
10
65.0467182837361
20
-1.16615826362877
30
0
41
1
10
64.7556882934684
20
-1.1049347042503
30
0
41
1
10
64.513191552883
20
-1.05340485515831
30
0
41
1
10
64.1736904372939
20
-0.980553347299718
30
0
41
1
10
63.8826539978938
20
-0.917521545762412
30
0
41
1
10
63.5916246228632
20
-0.853972059059629
30
0
41
1
10
63.3491284780289
20
-0.800597552869164
30
0
41
1
10
63.0096282334154
20
-0.725334867432679
30
0
41
1
10
62.7185924930385
20
-0.660415626964266
30
0
41
1
10
62.4275636672187
20
-0.595126592481677
30
0
41
1
10
62.1850678793651
20
-0.540401355064915
30
0
41
1
10
61.8455678960147
20
-0.463426814423201
30
0
41
1
10
61.554532049687
20
-0.397226540008347
30
0
41
1
10
61.2635027682828
20
-0.330810537411907
30
0
41
1
10
61.0210063538711
20
-0.275249741065323
30
0
41
1
10
60.6815052557382
20
-0.197287363278178
30
0
41
1
10
60.3904684518304
20
-0.130424028824336
30
0
41
1
10
60.0994385132942
20
-0.0634923780300767
30
0
41
1
10
59.9025793242943
20
-0.018119666307058
30
0
41
1
10
59.754217559467
20
0.0160753164044252
30
0
41
1
10
59.7028549237596
20
0.0279106161724201
30
0
0
SPLINE
5
EA
100
AcDbEntity
8
1
62
256
6
ByLayer
370
18
48
1
60
0
100
AcDbSpline
70
4
71
3
72
14
73
10
40
0
40
0
40
0
40
0
40
0.208822952010431
40
0.208822952010431
40
0.604411476005215
40
0.604411476005215
40
0.802205738002607
40
0.802205738002607
40
1
40
1
40
1
40
1
41
1
10
10.8046079379821
20
4.55622644350746
30
0
41
1
10
10.9723732210848
20
4.5681609493372
30
0
41
1
10
11.1391327110295
20
4.58340479577021
30
0
41
1
10
11.6189254573661
20
4.63668828373108
30
0
41
1
10
11.929382666312
20
4.68295546068811
30
0
41
1
10
12.3895614962989
20
4.7678892844761
30
0
41
1
10
12.5420342668171
20
4.79878546284075
30
0
41
1
10
12.8450924796157
20
4.86540084376207
30
0
41
1
10
12.9954157588429
20
4.90108127569644
30
0
41
1
10
13.1428319220194
20
4.93840810110794
30
0
0
SPLINE
5
EB
100
AcDbEntity
8
1
62
256
6
ByLayer
370
13
48
1
60
0
100
AcDbSpline
70
4
71
3
72
93
73
89
40
0
40
0
40
0
40
0
40
0.0016461562540177
40
0.0134379434110115
40
0.0311256241465021
40
0.037021517724999
40
0.0488133048819927
40
0.060605092038987
40
0.0782927727744776
40
0.0841886663529745
40
0.0959804535099683
40
0.107772240666963
40
0.125459921402453
40
0.13135581498095
40
0.143147602137944
40
0.154939389294938
40
0.172627070030429
40
0.178522963608926
40
0.190314750765919
40
0.202106537922913
40
0.219794218658404
40
0.225690112236901
40
0.237481899393895
40
0.249273686550889
40
0.26696136728638
40
0.272857260864877
40
0.284649048021871
40
0.296440835178864
40
0.314128515914355
40
0.320024409492852
40
0.331816196649846
40
0.34360798380684
40
0.36129566454233
40
0.367191558120827
40
0.378983345277822
40
0.390775132434815
40
0.408462813170306
40
0.414358706748803
40
0.426150493905797
40
0.437942281062791
40
0.455629961798282
40
0.461525855376778
40
0.473317642533772
40
0.485109429690766
40
0.502797110426257
40
0.508693004004754
40
0.520484791161748
40
0.532276578318742
40
0.549964259054233
40
0.55586015263273
40
0.567651939789723
40
0.579443726946717
40
0.597131407682208
40
0.603027301260705
40
0.614819088417699
40
0.626610875574693
40
0.644298556310184
40
0.650194449888681
40
0.661986237045675
40
0.673778024202668
40
0.691465704938159
40
0.697361598516656
40
0.70915338567365
40
0.720945172830644
40
0.738632853566134
40
0.744528747144631
40
0.756320534301626
40
0.768112321458619
40
0.78580000219411
40
0.791695895772607
40
0.803487682929601
40
0.815279470086595
40
0.832967150822086
40
0.838863044400582
40
0.850654831557576
40
0.862446618714571
40
0.880134299450061
40
0.886030193028558
40
0.897821980185552
40
0.909613767342546
40
0.927301448078037
40
0.933197341656534
40
0.944989128813524
40
0.956780915970522
40
0.974468596706013
40
0.980364490284509
40
0.992156277441503
40
1
40
1
40
1
40
1
41
1
10
116.830134755299
20
-0.0278498562842628
30
0
41
1
10
116.816591800913
20
-0.0247340765112653
30
0
41
1
10
116.706037571494
20
0.0007003468611799
30
0
41
1
10
116.449969010273
20
0.0596117471935997
30
0
41
1
10
116.158973906914
20
0.126637024001354
30
0
41
1
10
115.867972008241
20
0.193592164587216
30
0
41
1
10
115.625442269922
20
0.249227399321086
30
0
41
1
10
115.285906547315
20
0.326935296922414
30
0
41
1
10
114.994911712418
20
0.393428555683101
30
0
41
1
10
114.703910179608
20
0.459699237568571
30
0
41
1
10
114.46138074462
20
0.514664367361803
30
0
41
1
10
114.121845282936
20
0.591258535805934
30
0
41
1
10
113.830850426215
20
0.656613357736347
30
0
41
1
10
113.539848567791
20
0.721591147243145
30
0
41
1
10
113.29731874161
20
0.775378218149285
30
0
41
1
10
112.957782684579
20
0.850146790985718
30
0
41
1
10
112.666787339344
20
0.91375389364478
30
0
41
1
10
112.37578511013
20
0.976834425970991
30
0
41
1
10
112.133255104383
20
1.02894466640362
30
0
41
1
10
111.79371901323
20
1.10119661367247
30
0
41
1
10
111.502723801924
20
1.16247000613705
30
0
41
1
10
111.211721761876
20
1.22307293287864
30
0
41
1
10
110.969191914768
20
1.27302730357863
30
0
41
1
10
110.629656095096
20
1.34209942460191
30
0
41
1
10
110.338661243051
20
1.40047801523084
30
0
41
1
10
110.047659761016
20
1.45804977978335
30
0
41
1
10
109.805130390938
20
1.50539301716068
30
0
41
1
10
109.465595026252
20
1.57065638534672
30
0
41
1
10
109.174600249299
20
1.62560767991431
30
0
41
1
10
108.883598450154
20
1.67962057930876
30
0
41
1
10
108.641068677403
20
1.72391656442036
30
0
41
1
10
108.301532712186
20
1.78476677955149
30
0
41
1
10
108.010537448417
20
1.83577957255286
30
0
41
1
10
107.719535289527
20
1.88573061339275
30
0
41
1
10
107.477005313926
20
1.92656687323347
30
0
41
1
10
107.13746920341
20
1.98243813269232
30
0
41
1
10
106.846473923899
20
2.02903968053289
30
0
41
1
10
106.555471787271
20
2.07446808676494
30
0
41
1
10
106.312941856851
20
2.11146944451073
30
0
41
1
10
105.973405938018
20
2.1618503291574
30
0
41
1
10
105.68241102883
20
2.20361507317955
30
0
41
1
10
105.391409525569
20
2.24410555842772
30
0
41
1
10
105.148880157248
20
2.27693332676838
30
0
41
1
10
104.809344816048
20
2.32136229706819
30
0
41
1
10
104.518350072681
20
2.35790756430757
30
0
41
1
10
104.227348305558
20
2.39308955190751
30
0
41
1
10
103.984818560996
20
2.42144347210086
30
0
41
1
10
103.64528263433
20
2.45951360883285
30
0
41
1
10
103.354287392349
20
2.49050334339787
30
0
41
1
10
103.06328523521
20
2.52005128430804
30
0
41
1
10
102.820755241188
20
2.54366757808273
30
0
41
1
10
102.481219073365
20
2.57502350623483
30
0
41
1
10
102.190223723257
20
2.60016857336825
30
0
41
1
10
101.899221512849
20
2.62380868818763
30
0
41
1
10
101.656691520595
20
2.6424701334646
30
0
41
1
10
101.317155523246
20
2.66682483222252
30
0
41
1
10
101.026160566263
20
2.68589481263129
30
0
41
1
10
100.73515904286
20
2.7034080713976
30
0
41
1
10
100.492629686033
20
2.71693979630638
30
0
41
1
10
100.153094410968
20
2.73406374535906
30
0
41
1
10
99.8620997643105
20
2.74688007713072
30
0
41
1
10
99.5710981116748
20
2.75810666702227
30
0
41
1
10
99.328568463995
20
2.7663885493819
30
0
41
1
10
98.9890326576068
20
2.77613352388766
30
0
41
1
10
98.6980374912251
20
2.7825867678076
30
0
41
1
10
98.4070353728612
20
2.7874287110971
30
0
41
1
10
98.1645053891577
20
2.79038633659297
30
0
41
1
10
97.8249692086543
20
2.79266191547341
30
0
41
1
10
97.5339738284364
20
2.79269025648762
30
0
41
1
10
97.2429715860862
20
2.79110118784311
30
0
41
1
10
97.0004415573438
20
2.7887066473894
30
0
41
1
10
96.6609054878738
20
2.78349062296789
30
0
41
1
10
96.3699104581754
20
2.77709044949375
30
0
41
1
10
96.0789088636324
20
2.76907748919359
30
0
41
1
10
95.8363794692674
20
2.76134353068738
30
0
41
1
10
95.4968441933287
20
2.74866971916725
30
0
41
1
10
95.2058495899052
20
2.73589124962154
30
0
41
1
10
94.9148480066307
20
2.72152794733023
30
0
41
1
10
94.6723184164885
20
2.70853199221071
30
0
41
1
10
94.3327826668646
20
2.68853300244072
30
0
41
1
10
94.0417875170977
20
2.66951031206332
30
0
41
1
10
93.7507853783766
20
2.64894159548405
30
0
41
1
10
93.5082553623569
20
2.63081032465044
30
0
41
1
10
93.1687191280651
20
2.60367494634627
30
0
41
1
10
92.8777237014848
20
2.57858311448242
30
0
41
1
10
92.5867214265626
20
2.5519968461769
30
0
41
1
10
92.3766724243759
20
2.53198929120972
30
0
41
1
10
92.2151317919608
20
2.51593460958978
30
0
41
1
10
92.1506033024469
20
2.50941608841881
30
0
0
SPLINE
5
EC
100
AcDbEntity
8
1
62
256
6
ByLayer
370
13
48
1
60
0
100
AcDbSpline
70
4
71
3
72
80
73
76
40
0
40
0
40
0
40
0
40
0.0112647084879475
40
0.0180835725673409
40
0.0317213007261277
40
0.0453590288849151
40
0.0658156211230953
40
0.0726344852024887
40
0.0862722133612755
40
0.0999099415200629
40
0.120366533758243
40
0.127185397837636
40
0.140823125996424
40
0.154460854155211
40
0.174917446393391
40
0.181736310472784
40
0.195374038631571
40
0.209011766790358
40
0.229468359028539
40
0.236287223107932
40
0.249924951266719
40
0.263562679425506
40
0.284019271663687
40
0.290838135743079
40
0.304475863901867
40
0.318113592060653
40
0.338570184298834
40
0.345389048378228
40
0.359026776537014
40
0.372664504695801
40
0.393121096933982
40
0.399939961013375
40
0.413577689172162
40
0.427215417330948
40
0.447672009569129
40
0.454490873648523
40
0.46812860180731
40
0.481766329966097
40
0.502222922204277
40
0.50904178628367
40
0.522679514442457
40
0.536317242601244
40
0.556773834839425
40
0.563592698918818
40
0.577230427077605
40
0.590868155236392
40
0.611324747474572
40
0.618143611553966
40
0.631781339712753
40
0.64541906787154
40
0.66587566010972
40
0.672694524189114
40
0.686332252347901
40
0.699969980506687
40
0.720426572744868
40
0.727245436824262
40
0.740883164983048
40
0.754520893141835
40
0.774977485380015
40
0.781796349459409
40
0.795434077618196
40
0.809071805776983
40
0.829528398015163
40
0.836347262094557
40
0.849984990253344
40
0.863622718412131
40
0.884079310650311
40
0.890898174729704
40
0.904535902888491
40
0.918173631047279
40
0.938630223285459
40
0.945449087364852
40
0.952267951444246
40
0.972724543682426
40
1
40
1
40
1
40
1
41
1
10
40.6382747692871
20
-0.0297833901194053
30
0
41
1
10
40.5581523280888
20
-0.0113278177594225
30
0
41
1
10
40.4295317090253
20
0.0183124677843693
30
0
41
1
10
40.2039084069699
20
0.0703083974938465
30
0
41
1
10
39.9613785836633
20
0.126083111645357
30
0
41
1
10
39.6218429426754
20
0.204071408676441
30
0
41
1
10
39.3308482512077
20
0.270891271242106
30
0
41
1
10
39.0398467499475
20
0.337558146450192
30
0
41
1
10
38.7973173205221
20
0.392898460058546
30
0
41
1
10
38.4577819377957
20
0.47009716137606
30
0
41
1
10
38.166787237126
20
0.536053186041442
30
0
41
1
10
37.8757856413046
20
0.601701832305309
30
0
41
1
10
37.6332560390832
20
0.656093247058066
30
0
41
1
10
37.2937202147862
20
0.731787541450955
30
0
41
1
10
37.0027249720678
20
0.796271050055537
30
0
41
1
10
36.7117227485967
20
0.860295950837496
30
0
41
1
10
36.4691926277588
20
0.913236653128393
30
0
41
1
10
36.1296562094274
20
0.986728571319701
30
0
41
1
10
35.8386606707635
20
1.04914612492641
30
0
41
1
10
35.5476584094833
20
1.11095987589732
30
0
41
1
10
35.3051285137678
20
1.16196546358321
30
0
41
1
10
34.965592792332
20
1.23258373722942
30
0
41
1
10
34.6745980593995
20
1.29236514039192
30
0
41
1
10
34.3835965510406
20
1.35140138336447
30
0
41
1
10
34.1410671207491
20
1.40000323321601
30
0
41
1
10
33.8015317334916
20
1.46709764347727
30
0
41
1
10
33.5105370354869
20
1.52369193201696
30
0
41
1
10
33.2195354552293
20
1.57940735117353
30
0
41
1
10
32.977005888887
20
1.62515888711277
30
0
41
1
10
32.637470160731
20
1.68811341315441
30
0
41
1
10
32.3464750364162
20
1.74100059736534
30
0
41
1
10
32.0554729482627
20
1.79288190934372
30
0
41
1
10
31.8129429295656
20
1.83536052257031
30
0
41
1
10
31.4734066058708
20
1.89359198248635
30
0
41
1
10
31.1824110893322
20
1.94228083727842
30
0
41
1
10
30.8914087890205
20
1.98984570011146
30
0
41
1
10
30.6488788421719
20
2.02865622804958
30
0
41
1
10
30.3093430477697
20
2.08162349581335
30
0
41
1
10
30.0183482584346
20
2.12566337855378
30
0
41
1
10
29.7273467131847
20
2.16847439816044
30
0
41
1
10
29.4848172508969
20
2.20326220217674
30
0
41
1
10
29.1452818084528
20
2.25048429923723
30
0
41
1
10
28.8542870640156
20
2.28947706938618
30
0
41
1
10
28.563285448692
20
2.32714688967323
30
0
41
1
10
28.3207558731308
20
2.3575965667811
30
0
41
1
10
27.9812201717867
20
2.3986438208193
30
0
41
1
10
27.690225102216
20
2.43223276853354
30
0
41
1
10
27.3992230843541
20
2.46441493311118
30
0
41
1
10
27.1566931180986
20
2.49024518506036
30
0
41
1
10
26.8171568346154
20
2.5247358784631
30
0
41
1
10
26.5261613108683
20
2.55260571624984
30
0
41
1
10
26.2351589588356
20
2.57899551291387
30
0
41
1
10
25.9926289542992
20
2.59995991269233
30
0
41
1
10
25.6530930777329
20
2.6275642749089
30
0
41
1
10
25.3620982246874
20
2.64945088316938
30
0
41
1
10
25.0710966345225
20
2.66980389311484
30
0
41
1
10
24.8285671398477
20
2.68571293900456
30
0
41
1
10
24.4890316603743
20
2.70618751538509
30
0
41
1
10
24.1980369037814
20
2.72190128680032
30
0
41
1
10
23.9070353025197
20
2.73604009969651
30
0
41
1
10
23.6645057643436
20
2.74675349192918
30
0
41
1
10
23.3249701543842
20
2.75991523134709
30
0
41
1
10
23.0339751866225
20
2.76931372742575
30
0
41
1
10
22.7429732690022
20
2.77710960267333
30
0
41
1
10
22.50044337552
20
2.78252965061068
30
0
41
1
10
22.160907153567
20
2.78825708963413
30
0
41
1
10
21.8699116245299
20
2.79125056737729
30
0
41
1
10
21.5789092017087
20
2.79262466347279
30
0
41
1
10
21.3363790965204
20
2.79269279525263
30
0
41
1
10
20.9968430453104
20
2.79091903406069
30
0
41
1
10
20.7058480495134
20
2.78746908508006
30
0
41
1
10
20.4633615955908
20
2.78327958044795
30
0
41
1
10
20.2208160656999
20
2.77829526588178
30
0
41
1
10
19.8327283980011
20
2.76815702937605
30
0
41
1
10
19.4932758238881
20
2.7562739426034
30
0
41
1
10
19.2993092550312
20
2.74843463211593
30
0
0
SPLINE
5
ED
100
AcDbEntity
8
1
62
256
6
ByLayer
370
18
48
1
60
0
100
AcDbSpline
70
4
71
3
72
20
73
16
40
0
40
0
40
0
40
0
40
0.25
40
0.25
40
0.375
40
0.375
40
0.5
40
0.5
40
0.625
40
0.625
40
0.75
40
0.75
40
0.875
40
0.875
40
1
40
1
40
1
40
1
41
1
10
136.052501390638
20
-1.41823960865969
30
0
41
1
10
136.12036642383
20
-1.37643678018947
30
0
41
1
10
136.192753761008
20
-1.30879257959339
30
0
41
1
10
136.308666216626
20
-1.17093640588934
30
0
41
1
10
136.348792654588
20
-1.11843386890729
30
0
41
1
10
136.429398784043
20
-1.00412591022814
30
0
41
1
10
136.470072524949
20
-0.942144241570986
30
0
41
1
10
136.552162363366
20
-0.809006648257053
30
0
41
1
10
136.593578417872
20
-0.737848553049275
30
0
41
1
10
136.67713835335
20
-0.586416378507721
30
0
41
1
10
136.718602691691
20
-0.507363959676752
30
0
41
1
10
136.800544380162
20
-0.343727734310505
30
0
41
1
10
136.84108240587
20
-0.259030714200605
30
0
41
1
10
136.921244451689
20
-0.0840778308950405
30
0
41
1
10
136.961059879019
20
0.0066476730633838
30
0
41
1
10
136.999786432677
20
0.0987594858399348
30
0
0
SPLINE
5
EE
100
AcDbEntity
8
1
62
256
6
ByLayer
370
18
48
1
60
0
100
AcDbSpline
70
4
71
3
72
10
73
6
40
0
40
0
40
0
40
0
40
0.5
40
0.5
40
1
40
1
40
1
40
1
41
1
10
134.650478733586
20
-6.2046126206975
30
0
41
1
10
134.657603941445
20
-6.17750597999625
30
0
41
1
10
134.663579010103
20
-6.15099698438877
30
0
41
1
10
134.672553566802
20
-6.10245862466621
30
0
41
1
10
134.67557105944
20
-6.08043886705795
30
0
41
1
10
134.677192292836
20
-6.06120532847069
30
0
0
SPLINE
5
EF
100
AcDbEntity
8
1
62
256
6
ByLayer
370
18
48
1
60
0
100
AcDbSpline
70
4
71
4
72
10
73
5
40
0
40
0
40
0
40
0
40
0
40
1
40
1
40
1
40
1
40
1
41
1
10
20.5273673557123
20
6.13625572838916
30
0
41
1
10
20.220352830542
20
5.28930045432085
30
0
41
1
10
19.9133383053718
20
4.44234518025254
30
0
41
1
10
19.6063237802015
20
3.59538990618424
30
0
41
1
10
19.2993092550312
20
2.74843463211593
30
0
0
SPLINE
5
F0
100
AcDbEntity
8
1
62
256
6
ByLayer
370
13
48
1
60
0
100
AcDbSpline
70
4
71
3
72
34
73
30
40
0
40
0
40
0
40
0
40
0.0688420934837455
40
0.0688420934837455
40
0.103263140225618
40
0.103263140225618
40
0.137684186967491
40
0.137684186967491
40
0.275368373934984
40
0.275368373934984
40
0.413052560902478
40
0.413052560902478
40
0.44747360764435
40
0.44747360764435
40
0.481894654386222
40
0.481894654386222
40
0.550736747869967
40
0.550736747869967
40
0.688420934837456
40
0.688420934837456
40
0.757263028321199
40
0.757263028321199
40
0.791684075063072
40
0.791684075063072
40
0.826105121804944
40
0.826105121804944
40
0.96378930877244
40
0.96378930877244
40
1
40
1
40
1
40
1
41
1
10
134.629373588797
20
-5.97613289283265
30
0
41
1
10
133.955126598785
20
-5.87372121599702
30
0
41
1
10
133.281696968748
20
-5.74392602675874
30
0
41
1
10
132.270259849765
20
-5.51010250821136
30
0
41
1
10
131.932631513227
20
-5.4255598186264
30
0
41
1
10
131.260301545227
20
-5.24497142592267
30
0
41
1
10
130.925143457183
20
-5.14883290688238
30
0
41
1
10
129.253230495402
20
-4.64065965215102
30
0
41
1
10
127.928001661197
20
-4.14626222640163
30
0
41
1
10
125.272811222011
20
-3.02738932092336
30
0
41
1
10
123.94280821197
20
-2.40286597755531
30
0
41
1
10
122.25872805777
20
-1.57182599648692
30
0
41
1
10
121.920789412078
20
-1.40308826476445
30
0
41
1
10
121.248456810587
20
-1.06460805616922
30
0
41
1
10
120.913275823628
20
-0.89450765824958
30
0
41
1
10
119.909969215453
20
-0.383037569734938
30
0
41
1
10
119.244096709286
20
-0.0404697193022514
30
0
41
1
10
117.249846086967
20
0.980706285018584
30
0
41
1
10
115.924936339359
20
1.65296758680293
30
0
41
1
10
113.922417597531
20
2.60509677282633
30
0
41
1
10
113.252378801307
20
2.91307175978562
30
0
41
1
10
112.240673198369
20
3.35540610448396
30
0
41
1
10
111.902798870843
20
3.49939915476472
30
0
41
1
10
111.230052477025
20
3.7775887581129
30
0
41
1
10
110.894511450988
20
3.91209511774309
30
0
41
1
10
109.219814795814
20
4.56009202986405
30
0
41
1
10
107.889632298147
20
4.99987712857757
30
0
41
1
10
106.202809090409
20
5.43367019174758
30
0
41
1
10
105.851177189036
20
5.51728302452585
30
0
41
1
10
105.498910108263
20
5.59393331426466
30
0
0
SPLINE
5
F1
100
AcDbEntity
8
1
62
256
6
ByLayer
370
18
48
1
60
0
100
AcDbSpline
70
4
71
3
72
10
73
6
40
0
40
0
40
0
40
0
40
0.720478607586859
40
0.720478607586859
40
1
40
1
40
1
40
1
41
1
10
61.9507263959235
20
-6.11523075560737
30
0
41
1
10
61.3665629549691
20
-6.11240869730909
30
0
41
1
10
60.7812088377675
20
-6.08827046547947
30
0
41
1
10
59.9653363056401
20
-6.02498117141587
30
0
41
1
10
59.7366479141036
20
-6.00401836213706
30
0
41
1
10
59.5078785693353
20
-5.97986532104684
30
0
0
SPLINE
5
F2
100
AcDbEntity
8
1
62
256
6
ByLayer
370
13
48
1
60
0
100
AcDbSpline
70
4
71
3
72
32
73
28
40
0
40
0
40
0
40
0
40
0.0110847960303675
40
0.0110847960303675
40
0.0452796517791347
40
0.0452796517791347
40
0.182059074774206
40
0.182059074774206
40
0.250448786271741
40
0.250448786271741
40
0.284643642020508
40
0.284643642020508
40
0.318838497769275
40
0.318838497769275
40
0.455617920764348
40
0.455617920764348
40
0.592397343759421
40
0.592397343759421
40
0.729176766754494
40
0.729176766754494
40
0.865956189749566
40
0.865956189749566
40
0.900151045498334
40
0.900151045498334
40
0.934345901247103
40
0.934345901247103
40
1
40
1
40
1
40
1
41
1
10
59.507879564387
20
-5.97986542610261
30
0
41
1
10
59.3981499541477
20
-5.96828038276891
30
0
41
1
10
59.2884017191556
20
-5.95596137625307
30
0
41
1
10
58.8402708782446
20
-5.90267894653024
30
0
41
1
10
58.5027633105838
20
-5.85562955593147
30
0
41
1
10
56.8185824889858
20
-5.58744678528586
30
0
41
1
10
55.4821160373531
20
-5.26729957143135
30
0
41
1
10
53.4715649954063
20
-4.65229480422599
30
0
41
1
10
52.8004545018097
20
-4.42483566614538
30
0
41
1
10
51.789520406524
20
-4.05329662725131
30
0
41
1
10
51.451846624962
20
-3.92437777789615
30
0
41
1
10
50.7746367842474
20
-3.65699165906398
30
0
41
1
10
50.4356793292865
20
-3.51877978027926
30
0
41
1
10
48.7478389046005
20
-2.81111596122753
30
0
41
1
10
47.4106793708511
20
-2.18830729052098
30
0
41
1
10
44.7328655836795
20
-0.886735091518659
30
0
41
1
10
43.3924358196469
20
-0.207328638774357
30
0
41
1
10
40.6789735536485
20
1.14845368585307
30
0
41
1
10
39.338385711071
20
1.80867036154413
30
0
41
1
10
36.659394225466
20
3.03678840927503
30
0
41
1
10
35.3213160261475
20
3.60533612905141
30
0
41
1
10
33.631946874734
20
4.22569032138679
30
0
41
1
10
33.2926990328799
20
4.34549920616789
30
0
41
1
10
32.6147827083702
20
4.57429282216157
30
0
41
1
10
32.2767567764793
20
4.6830415964038
30
0
41
1
10
31.2918648984837
20
4.98373936430772
30
0
41
1
10
30.6469710162851
20
5.1600955226796
30
0
41
1
10
30.0030680619322
20
5.31358032432146
30
0
0
SPLINE
5
F3
100
AcDbEntity
8
1
62
256
6
ByLayer
370
18
48
1
60
0
100
AcDbSpline
70
4
71
3
72
34
73
30
40
0
40
0
40
0
40
0
40
0.0993739409841971
40
0.0993739409841971
40
0.149060911476296
40
0.149060911476296
40
0.198747881968395
40
0.198747881968395
40
0.298121822952594
40
0.298121822952594
40
0.397495763936792
40
0.397495763936792
40
0.496869704920991
40
0.496869704920991
40
0.59624364590519
40
0.59624364590519
40
0.695617586889387
40
0.695617586889387
40
0.745304557381485
40
0.745304557381485
40
0.794991527873583
40
0.794991527873583
40
0.89436546885778
40
0.89436546885778
40
0.944052439349877
40
0.944052439349877
40
0.993739409841975
40
0.993739409841975
40
1
40
1
40
1
40
1
41
1
10
5.5586677960396
20
-0.634707982314296
30
0
41
1
10
6.23513661415245
20
-0.976899288074975
30
0
41
1
10
6.91106945078909
20
-1.31615632921608
30
0
41
1
10
7.92478877313974
20
-1.8139787660312
30
0
41
1
10
8.26305075167275
20
-1.97819392436159
30
0
41
1
10
8.93862396395284
20
-2.30127032951091
30
0
41
1
10
9.27596021041049
20
-2.46018488142616
30
0
41
1
10
10.2873989420735
20
-2.92767239777817
30
0
41
1
10
10.9610540689066
20
-3.22677626772833
30
0
41
1
10
12.3105973788514
20
-3.79382440756092
30
0
41
1
10
12.9871871367617
20
-4.06203318798691
30
0
41
1
10
14.3358332974304
20
-4.55694567781813
30
0
41
1
10
15.0092933652902
20
-4.78396833708646
30
0
41
1
10
16.3579990916486
20
-5.19263827473722
30
0
41
1
10
17.034418674774
20
-5.37457411632985
30
0
41
1
10
18.3832504117813
20
-5.68610248683464
30
0
41
1
10
19.0565440423536
20
-5.81587904851563
30
0
41
1
10
20.0674825117064
20
-5.96969961194398
30
0
41
1
10
20.404616040896
20
-6.01417112841474
30
0
41
1
10
21.079684718165
20
-6.08916692408224
30
0
41
1
10
21.4176835942998
20
-6.11968148911873
30
0
41
1
10
22.4295985400375
20
-6.18961875052477
30
0
41
1
10
23.1028105727307
20
-6.20761709851672
30
0
41
1
10
24.1132402788998
20
-6.19157523701094
30
0
41
1
10
24.4501814703447
20
-6.1790570500682
30
0
41
1
10
25.1247546267924
20
-6.13967700532066
30
0
41
1
10
25.4627204292739
20
-6.11277243318392
30
0
41
1
10
25.84267938435
20
-6.07455581016848
30
0
41
1
10
25.8851902941235
20
-6.07016772966261
30
0
41
1
10
25.9276948015012
20
-6.06566835273813
30
0
0
SPLINE
5
F4
100
AcDbEntity
8
1
62
256
6
ByLayer
370
18
48
1
60
0
100
AcDbSpline
70
4
71
3
72
60
73
56
40
0
40
0
40
0
40
0
40
0.0172579454051287
40
0.0172579454051287
40
0.0420533773633394
40
0.0420533773633394
40
0.0668488093215504
40
0.0668488093215504
40
0.116439673237971
40
0.116439673237971
40
0.166030537154392
40
0.166030537154392
40
0.215621401070813
40
0.215621401070813
40
0.265212264987234
40
0.265212264987234
40
0.290007696945445
40
0.290007696945445
40
0.314803128903656
40
0.314803128903656
40
0.364393992820078
40
0.364393992820078
40
0.389189424778289
40
0.389189424778289
40
0.4139848567365
40
0.4139848567365
40
0.463575720652923
40
0.463575720652923
40
0.488371152611134
40
0.488371152611134
40
0.513166584569346
40
0.513166584569346
40
0.562757448485769
40
0.562757448485769
40
0.612348312402193
40
0.612348312402193
40
0.661939176318616
40
0.661939176318616
40
0.686734608276828
40
0.686734608276828
40
0.711530040235039
40
0.711530040235039
40
0.761120904151463
40
0.761120904151463
40
0.785916336109673
40
0.785916336109673
40
0.810711768067884
40
0.810711768067884
40
0.860302631984304
40
0.860302631984304
40
0.885098063942513
40
0.885098063942513
40
0.909893495900723
40
0.909893495900723
40
1
40
1
40
1
40
1
41
1
10
61.4608394885698
20
6.26845836195395
30
0
41
1
10
61.6947099786078
20
6.26883611124444
30
0
41
1
10
61.9285297250699
20
6.26571807055836
30
0
41
1
10
62.4983699857766
20
6.2496058936041
30
0
41
1
10
62.834407461123
20
6.23289210722791
30
0
41
1
10
63.5071270281098
20
6.18508216896416
30
0
41
1
10
63.8440814174459
20
6.15395243317084
30
0
41
1
10
64.8546405370412
20
6.0393157217157
30
0
41
1
10
65.526362583376
20
5.93473773005422
30
0
41
1
10
66.8698455364818
20
5.67196500829078
30
0
41
1
10
67.5416485415716
20
5.51381311913056
30
0
41
1
10
68.8891614745841
20
5.14679406197055
30
0
41
1
10
69.5612439907043
20
4.93898062362317
30
0
41
1
10
70.904430350912
20
4.47992827123269
30
0
41
1
10
71.5758345026251
20
4.22871227621346
30
0
41
1
10
72.5854949849895
20
3.82306275721578
30
0
41
1
10
72.9224142311179
20
3.68306552172689
30
0
41
1
10
73.5948836306567
20
3.39547029160724
30
0
41
1
10
73.9307658988231
20
3.24771690898939
30
0
41
1
10
74.9380026334623
20
2.79368662558807
30
0
41
1
10
75.6090887521721
20
2.47687773094978
30
0
41
1
10
76.6178869934979
20
1.98524650199067
30
0
41
1
10
76.954829721597
20
1.81849823755653
30
0
41
1
10
77.6275098876993
20
1.48179235083111
30
0
41
1
10
77.9634337914603
20
1.31170593037939
30
0
41
1
10
78.9706119409747
20
0.797498394347343
30
0
41
1
10
79.6414317498342
20
0.449732373034408
30
0
41
1
10
80.6494535590439
20
-0.0741021549965808
30
0
41
1
10
80.986074648933
20
-0.249202072243065
30
0
41
1
10
81.6590255137011
20
-0.598253091708727
30
0
41
1
10
81.9950230093729
20
-0.772083284177569
30
0
41
1
10
83.0022538775964
20
-1.29021246327429
30
0
41
1
10
83.672851452751
20
-1.63090922358964
30
0
41
1
10
85.0159445643151
20
-2.29591160248444
30
0
41
1
10
85.6897095141785
20
-2.62042905866409
30
0
41
1
10
87.0327939775707
20
-3.24098837071745
30
0
41
1
10
87.703244049041
20
-3.53726642740415
30
0
41
1
10
88.7099630213758
20
-3.95631375237383
30
0
41
1
10
89.0457441887242
20
-4.0917134922413
30
0
41
1
10
89.7182265166678
20
-4.35314884708231
30
0
41
1
10
90.0547825251404
20
-4.47916721661764
30
0
41
1
10
91.0623120702084
20
-4.84071847351541
30
0
41
1
10
91.732661923535
20
-5.06009570278826
30
0
41
1
10
92.7388561246679
20
-5.35353498628032
30
0
41
1
10
93.0743940978192
20
-5.44537634593024
30
0
41
1
10
93.7462957808871
20
-5.61651411919675
30
0
41
1
10
94.0829328225833
20
-5.69588045447705
30
0
41
1
10
95.0907936966498
20
-5.91372055595102
30
0
41
1
10
95.7610958247707
20
-6.03205577122384
30
0
41
1
10
96.766915712775
20
-6.16762108965864
30
0
41
1
10
97.1022568558794
20
-6.20581370508555
30
0
41
1
10
97.7736317526244
20
-6.26792291187931
30
0
41
1
10
98.1099791136026
20
-6.29185801427454
30
0
41
1
10
99.6674168025245
20
-6.369023769113
30
0
41
1
10
100.882475905208
20
-6.33316612304998
30
0
41
1
10
102.103094868162
20
-6.20228706924399
30
0
0
SPLINE
5
F5
100
AcDbEntity
8
1
62
256
6
ByLayer
370
18
48
1
60
0
100
AcDbSpline
70
4
71
3
72
8
73
4
40
0
40
0
40
0
40
0
40
1
40
1
40
1
40
1
41
1
10
134.67719229196
20
-6.06120533887153
30
0
41
1
10
134.667362690044
20
-6.02101336608041
30
0
41
1
10
134.650016893825
20
-5.99400927697533
30
0
41
1
10
134.629373588793
20
-5.97613289282873
30
0
0
SPLINE
5
F6
100
AcDbEntity
8
1
62
256
6
ByLayer
370
13
48
1
60
0
100
AcDbSpline
70
4
71
3
72
8
73
4
40
0
40
0
40
0
40
0
40
1
40
1
40
1
40
1
41
1
10
5.1464889059344
20
-0.2188054307708
30
0
41
1
10
5.16715346272849
20
-0.226641065308655
30
0
41
1
10
5.18849540335026
20
-0.234078674766295
30
0
41
1
10
5.21056444391715
20
-0.241096519032908
30
0
0
SPLINE
5
F7
100
AcDbEntity
8
1
62
256
6
ByLayer
370
18
48
1
60
0
100
AcDbSpline
70
4
71
3
72
32
73
28
40
0
40
0
40
0
40
0
40
0.103306245617644
40
0.103306245617644
40
0.206612491235289
40
0.206612491235289
40
0.309918736852933
40
0.309918736852933
40
0.413224982470577
40
0.413224982470577
40
0.464878105279398
40
0.464878105279398
40
0.516531228088218
40
0.516531228088218
40
0.619837473705859
40
0.619837473705859
40
0.723143719323499
40
0.723143719323499
40
0.774796842132322
40
0.774796842132322
40
0.826449964941144
40
0.826449964941144
40
0.929756210558792
40
0.929756210558792
40
0.981409333367616
40
0.981409333367616
40
1
40
1
40
1
40
1
41
1
10
134.042085534328
20
0.633895788885326
30
0
41
1
10
133.42994112884
20
0.947681502538813
30
0
41
1
10
132.820169741043
20
1.25709165489744
30
0
41
1
10
131.603613216816
20
1.86307865918943
30
0
41
1
10
130.996926371745
20
2.15942794398276
30
0
41
1
10
129.783283970241
20
2.73287163847777
30
0
41
1
10
129.176401237096
20
3.01028484615566
30
0
41
1
10
127.960198715533
20
3.54160786171852
30
0
41
1
10
127.350646389175
20
3.79562493807731
30
0
41
1
10
126.431930769506
20
4.15454653520791
30
0
41
1
10
126.125087615664
20
4.27075215747911
30
0
41
1
10
125.509521675049
20
4.49514615085576
30
0
41
1
10
125.200517646788
20
4.60317403101774
30
0
41
1
10
124.271910845669
20
4.91379152661241
30
0
41
1
10
123.656078732253
20
5.10141236915433
30
0
41
1
10
122.428222337681
20
5.43599989867357
30
0
41
1
10
121.816457428295
20
5.58375946341442
30
0
41
1
10
120.90003692507
20
5.76861483417721
30
0
41
1
10
120.594632019681
20
5.82425823161364
30
0
41
1
10
119.983926567743
20
5.92588476095801
30
0
41
1
10
119.678390679396
20
5.97124720748363
30
0
41
1
10
118.761519602798
20
6.09026624312372
30
0
41
1
10
118.149526785212
20
6.14758822494846
30
0
41
1
10
117.227963165785
20
6.1968100284416
30
0
41
1
10
116.920208042362
20
6.20654266249096
30
0
41
1
10
116.500705547002
20
6.21214313056845
30
0
41
1
10
116.389526240338
20
6.2129318736352
30
0
41
1
10
116.27824789763
20
6.21298036146658
30
0
0
SPLINE
5
F8
100
AcDbEntity
8
1
62
256
6
ByLayer
370
18
48
1
60
0
100
AcDbSpline
70
4
71
3
72
102
73
98
40
0
40
0
40
0
40
0
40
0.0031497267288186
40
0.0031497267288186
40
0.0223568604989104
40
0.0223568604989104
40
0.0415639942690023
40
0.0415639942690023
40
0.0607711280390941
40
0.0607711280390941
40
0.079978261809186
40
0.079978261809186
40
0.11839252934937
40
0.11839252934937
40
0.156806796889553
40
0.156806796889553
40
0.176013930659646
40
0.176013930659646
40
0.195221064429738
40
0.195221064429738
40
0.214428198199831
40
0.214428198199831
40
0.233635331969924
40
0.233635331969924
40
0.252842465740016
40
0.252842465740016
40
0.272049599510108
40
0.272049599510108
40
0.291256733280201
40
0.291256733280201
40
0.310463867050294
40
0.310463867050294
40
0.329671000820386
40
0.329671000820386
40
0.348878134590479
40
0.348878134590479
40
0.368085268360572
40
0.368085268360572
40
0.387292402130664
40
0.387292402130664
40
0.425706669670849
40
0.425706669670849
40
0.464120937211033
40
0.464120937211033
40
0.483328070981125
40
0.483328070981125
40
0.502535204751217
40
0.502535204751217
40
0.521742338521309
40
0.521742338521309
40
0.540949472291401
40
0.540949472291401
40
0.560156606061493
40
0.560156606061493
40
0.579363739831584
40
0.579363739831584
40
0.598570873601676
40
0.598570873601676
40
0.617778007371768
40
0.617778007371768
40
0.63698514114186
40
0.63698514114186
40
0.656192274911952
40
0.656192274911952
40
0.675399408682044
40
0.675399408682044
40
0.694606542452135
40
0.694606542452135
40
0.713813676222227
40
0.713813676222227
40
0.733020809992319
40
0.733020809992319
40
0.752227943762411
40
0.752227943762411
40
0.771435077532503
40
0.771435077532503
40
0.790642211302594
40
0.790642211302594
40
0.809849345072686
40
0.809849345072686
40
0.829056478842778
40
0.829056478842778
40
0.84826361261287
40
0.84826361261287
40
0.867470746382962
40
0.867470746382962
40
0.886677880153054
40
0.886677880153054
40
0.905885013923146
40
0.905885013923146
40
0.925092147693237
40
0.925092147693237
40
0.944299281463329
40
0.944299281463329
40
0.963506415233421
40
0.963506415233421
40
1
40
1
40
1
40
1
41
1
10
88.1905262920884
20
-4.16806434588742
30
0
41
1
10
88.1397127489491
20
-4.18704051768219
30
0
41
1
10
88.0889206779095
20
-4.20589528088107
30
0
41
1
10
87.728631542099
20
-4.33881724512776
30
0
41
1
10
87.420097985774
20
-4.44837327443494
30
0
41
1
10
86.8038921428848
20
-4.65814928072271
30
0
41
1
10
86.496467205858
20
-4.75890061806098
30
0
41
1
10
85.8823592556255
20
-4.95025898516326
30
0
41
1
10
85.5757898622747
20
-5.04078516887333
30
0
41
1
10
84.9632790678326
20
-5.21200703728942
30
0
41
1
10
84.6570953140894
20
-5.29270337302253
30
0
41
1
10
83.739279559084
20
-5.51998535904514
30
0
41
1
10
83.1277423926263
20
-5.64957983844852
30
0
41
1
10
81.9022006269788
20
-5.86750450950851
30
0
41
1
10
81.2884521638003
20
-5.95317915289777
30
0
41
1
10
80.3642421517197
20
-6.04894136896232
30
0
41
1
10
80.0554057090452
20
-6.07503590704201
30
0
41
1
10
79.436305563274
20
-6.1144805453975
30
0
41
1
10
79.1255847444989
20
-6.12841173966987
30
0
41
1
10
78.505350153618
20
-6.14484885935255
30
0
41
1
10
78.1957349987473
20
-6.14714131134909
30
0
41
1
10
77.5766045915249
20
-6.13867639195632
30
0
41
1
10
77.2673042547626
20
-6.12821991961286
30
0
41
1
10
76.6484712436232
20
-6.09659868818318
30
0
41
1
10
76.3389687762939
20
-6.07499314268748
30
0
41
1
10
75.7198063614872
20
-6.01898009014673
30
0
41
1
10
75.4098598381121
20
-5.98454746355768
30
0
41
1
10
74.7894572715516
20
-5.90535520472619
30
0
41
1
10
74.4788156615883
20
-5.86010697260707
30
0
41
1
10
73.8599281992462
20
-5.75798673395369
30
0
41
1
10
73.5514983219039
20
-5.70062077764413
30
0
41
1
10
72.9352375159156
20
-5.57675542660647
30
0
41
1
10
72.6277042667598
20
-5.50981204282866
30
0
41
1
10
72.0134336779886
20
-5.36512372630659
30
0
41
1
10
71.7066730955724
20
-5.28723736981692
30
0
41
1
10
71.0937407367848
20
-5.1218601861662
30
0
41
1
10
70.7872804260954
20
-5.03498484387464
30
0
41
1
10
70.1747509959138
20
-4.85097661380237
30
0
41
1
10
69.8685595697791
20
-4.75391486467021
30
0
41
1
10
68.9492758467492
20
-4.44941759654279
30
0
41
1
10
68.3359975985205
20
-4.23037042652751
30
0
41
1
10
67.1053635019135
20
-3.75592845245356
30
0
41
1
10
66.4879916802356
20
-3.50428022666986
30
0
41
1
10
65.5568219852305
20
-3.1035540521421
30
0
41
1
10
65.2464671593811
20
-2.96678712982305
30
0
41
1
10
64.6276374090591
20
-2.68958909023374
30
0
41
1
10
64.3189886564402
20
-2.54861896639335
30
0
41
1
10
63.7028667588722
20
-2.26200826008883
30
0
41
1
10
63.3954101585657
20
-2.11648208862863
30
0
41
1
10
62.7810420550963
20
-1.82265862997218
30
0
41
1
10
62.4740735514957
20
-1.67439305469949
30
0
41
1
10
61.8609390089569
20
-1.3741101600385
30
0
41
1
10
61.5544491783952
20
-1.22279376979472
30
0
41
1
10
60.9415477692924
20
-0.918242635924571
30
0
41
1
10
60.6351604045563
20
-0.764950373311649
30
0
41
1
10
60.0218550140301
20
-0.457324091070319
30
0
41
1
10
59.7151797657202
20
-0.30247752165107
30
0
41
1
10
59.1008745603829
20
0.0070269348626368
30
0
41
1
10
58.7933863671291
20
0.161994526232917
30
0
41
1
10
58.1774823431738
20
0.472061491388956
30
0
41
1
10
57.8688206809327
20
0.626831085090487
30
0
41
1
10
57.2504346336825
20
0.935941464426861
30
0
41
1
10
56.9404798617452
20
1.08982182087183
30
0
41
1
10
56.3189224135218
20
1.39614474980417
30
0
41
1
10
56.0091103049039
20
1.54778037479787
30
0
41
1
10
55.3908077555598
20
1.84621804038974
30
0
41
1
10
55.0823638948783
20
1.99378559580501
30
0
41
1
10
54.4663009528391
20
2.28395682036842
30
0
41
1
10
54.1588380106093
20
2.426642994736
30
0
41
1
10
53.5449109235686
20
2.70630002418884
30
0
41
1
10
53.238056435296
20
2.84338903892626
30
0
41
1
10
52.6249792490901
20
3.11254291592584
30
0
41
1
10
52.318543485389
20
3.24422360219393
30
0
41
1
10
51.7058230660949
20
3.49989706402081
30
0
41
1
10
51.3995716814955
20
3.62466131458558
30
0
41
1
10
50.7863731307557
20
3.86732300263981
30
0
41
1
10
50.4797139807128
20
3.98554415155766
30
0
41
1
10
49.8655586846892
20
4.21311831987384
30
0
41
1
10
49.5580647832833
20
4.32257245178906
30
0
41
1
10
48.9422389309959
20
4.53457353865994
30
0
41
1
10
48.6336637248101
20
4.63634827799444
30
0
41
1
10
48.0153440513961
20
4.83089266875658
30
0
41
1
10
47.7054282120254
20
4.92361603664221
30
0
41
1
10
47.0838095603381
20
5.1000915660097
30
0
41
1
10
46.7736268431581
20
5.18351763433128
30
0
41
1
10
46.1548706754663
20
5.33863599842721
30
0
41
1
10
45.8463192377547
20
5.41077860925265
30
0
41
1
10
45.2300225952927
20
5.54469056347941
30
0
41
1
10
44.9223059286146
20
5.60641116621127
30
0
41
1
10
44.3078728200469
20
5.71831893267162
30
0
41
1
10
44.0008900653811
20
5.76830178056085
30
0
41
1
10
43.3874812496096
20
5.85776013797454
30
0
41
1
10
43.0809061939135
20
5.89722497696323
30
0
41
1
10
42.4676769410976
20
5.96429117932254
30
0
41
1
10
42.1612394004187
20
5.99180410104725
30
0
41
1
10
41.271574204312
20
6.05506748457296
30
0
41
1
10
40.6880708952009
20
6.07666536050297
30
0
41
1
10
40.1028277499759
20
6.07606818613868
30
0
0
SPLINE
5
F9
100
AcDbEntity
8
1
62
256
6
ByLayer
370
18
48
1
60
0
100
AcDbSpline
70
4
71
3
72
14
73
10
40
0
40
0
40
0
40
0
40
0.23937752325809
40
0.418928009152123
40
0.538464861067517
40
0.622828286553128
40
0.740906440101417
40
0.892816417992942
40
1
40
1
40
1
40
1
41
1
10
21.6144456126988
20
0.025190466019211
30
0
41
1
10
21.4291243770072
20
0.0679290869671263
30
0
41
1
10
21.1052120437819
20
0.152771982466305
30
0
41
1
10
20.6894970376487
20
0.284639296540036
30
0
41
1
10
20.3942956959621
20
0.38977994374082
30
0
41
1
10
20.1467993870493
20
0.484409379170302
30
0
41
1
10
19.8742904655317
20
0.596029965009649
30
0
41
1
10
19.584482649854
20
0.723484886528041
30
0
41
1
10
19.3857190944584
20
0.820501076590375
30
0
41
1
10
19.3035378256075
20
0.862016765198774
30
0
0
SPLINE
5
FA
100
AcDbEntity
8
1
62
256
6
ByLayer
370
18
48
1
60
0
100
AcDbSpline
70
4
71
3
72
11
73
7
40
0
40
0
40
0
40
0
40
0.209685687627472
40
0.451762314989563
40
0.726465225868501
40
1
40
1
40
1
40
1
41
1
10
97.814872740378
20
0.0251634149591666
30
0
41
1
10
97.6454085111193
20
0.0642126395941318
30
0
41
1
10
97.280834972481
20
0.158603982079512
30
0
41
1
10
96.6965464462561
20
0.346446206745014
30
0
41
1
10
96.0629099607562
20
0.593863561912826
30
0
41
1
10
95.625101502646
20
0.799550804233945
30
0
41
1
10
95.40707529137
20
0.910456510848519
30
0
0
SPLINE
5
FB
100
AcDbEntity
8
1
62
256
6
ByLayer
370
18
48
1
60
0
100
AcDbSpline
70
4
71
3
72
14
73
10
40
0
40
0
40
0
40
0
40
0.230037003198329
40
0.402613677675918
40
0.517540157431007
40
0.598647294279365
40
0.712169613525706
40
0.85822377101467
40
1
40
1
40
1
40
1
41
1
10
78.721744588024
20
-0.0259026224546233
30
0
41
1
10
78.9153588797901
20
-0.0705458630394276
30
0
41
1
10
79.2538082830794
20
-0.159649083993656
30
0
41
1
10
79.6881989323345
20
-0.299083048735468
30
0
41
1
10
79.9967920736059
20
-0.410681979373379
30
0
41
1
10
80.2555650440453
20
-0.511382031013795
30
0
41
1
10
80.540402760146
20
-0.630148004550392
30
0
41
1
10
80.8756114772974
20
-0.781495207368977
30
0
41
1
10
81.1155973125281
20
-0.901261788075857
30
0
41
1
10
81.2337180026238
20
-0.962804615662947
30
0
0
SPLINE
5
FC
100
AcDbEntity
8
1
62
256
6
ByLayer
370
18
48
1
60
0
100
AcDbSpline
70
4
71
3
72
28
73
24
40
0
40
0
40
0
40
0
40
0.0171451434996626
40
0.0584378031233869
40
0.0992683149455562
40
0.139257637468372
40
0.181232354371937
40
0.226551360410276
40
0.274242415896409
40
0.311395911269314
40
0.370385770048582
40
0.455099474189607
40
0.53183238580397
40
0.625155760559183
40
0.700541988979952
40
0.755933456887931
40
0.80783340234685
40
0.857229280886584
40
0.914546014967433
40
0.939745355928119
40
0.962982000403982
40
0.984619944348806
40
1
40
1
40
1
40
1
41
1
10
116.227468266881
20
6.21301732000771
30
0
41
1
10
116.146751883101
20
6.21289503055115
30
0
41
1
10
115.871636793088
20
6.21246642391964
30
0
41
1
10
115.404298436027
20
6.21205841585811
30
0
41
1
10
114.829414845345
20
6.21048839260561
30
0
41
1
10
114.251320758286
20
6.20939451839354
30
0
41
1
10
113.652093776199
20
6.20887645370206
30
0
41
1
10
113.016608987327
20
6.20673200880518
30
0
41
1
10
112.403834181976
20
6.20503848998447
30
0
41
1
10
111.726659716885
20
6.20443571845814
30
0
41
1
10
110.875408442802
20
6.20288438125996
30
0
41
1
10
109.837445168812
20
6.20279332739648
30
0
41
1
10
108.638933104005
20
6.19703204093523
30
0
41
1
10
107.483160685964
20
6.19654953015311
30
0
41
1
10
106.428216638931
20
6.19582754554685
30
0
41
1
10
105.568184516768
20
6.19467726226449
30
0
41
1
10
104.830555332114
20
6.19174487403987
30
0
41
1
10
104.083838009932
20
6.19099764975081
30
0
41
1
10
103.462833291885
20
6.19010946586036
30
0
41
1
10
102.964988241131
20
6.1891751572812
30
0
41
1
10
102.635095711952
20
6.18861346943453
30
0
41
1
10
102.351417860375
20
6.18816398934462
30
0
41
1
10
102.177161227124
20
6.18790454968342
30
0
41
1
10
102.104804441297
20
6.18778852506864
30
0
0
SPLINE
5
FD
100
AcDbEntity
8
1
62
256
6
ByLayer
370
18
48
1
60
0
100
AcDbSpline
70
4
71
3
72
8
73
4
40
0
40
0
40
0
40
0
40
1
40
1
40
1
40
1
41
1
10
134.926768117986
20
0.311102527645545
30
0
41
1
10
134.917115310894
20
0.314126560244603
30
0
41
1
10
134.907460426143
20
0.317173612400268
30
0
41
1
10
134.897803045734
20
0.320245993329536
30
0
0
SPLINE
5
FE
100
AcDbEntity
8
1
62
256
6
ByLayer
370
18
48
1
60
0
100
AcDbSpline
70
4
71
3
72
9
73
5
40
0
40
0
40
0
40
0
40
0.408794568334753
40
1
40
1
40
1
40
1
41
1
10
134.66549319951
20
0.399605858496784
30
0
41
1
10
134.497321264753
20
0.46102884563652
30
0
41
1
10
134.083770029452
20
0.631719663969477
30
0
41
1
10
133.670087807168
20
0.823852020044654
30
0
41
1
10
133.424727973966
20
0.949040014136955
30
0
0
SPLINE
5
FF
100
AcDbEntity
8
1
62
256
6
ByLayer
370
18
48
1
60
0
100
AcDbSpline
70
4
71
3
72
14
73
10
40
0
40
0
40
0
40
0
40
0.225766109967368
40
0.39509653895145
40
0.507813052258521
40
0.587315500352207
40
0.698571991655664
40
0.841703181391834
40
1
40
1
40
1
40
1
41
1
10
116.821111869116
20
-0.0257739993889174
30
0
41
1
10
117.015103706866
20
-0.070444340945528
30
0
41
1
10
117.354101904055
20
-0.159636356255703
30
0
41
1
10
117.789052931082
20
-0.29932704847846
30
0
41
1
10
118.097750245874
20
-0.411057254941596
30
0
41
1
10
118.356153423996
20
-0.511708003363793
30
0
41
1
10
118.640453088164
20
-0.630251589334648
30
0
41
1
10
118.991392886426
20
-0.78900319363558
30
0
41
1
10
119.247278680808
20
-0.916511916511439
30
0
41
1
10
119.381541113128
20
-0.986574805384578
30
0
0
SPLINE
5
100
100
AcDbEntity
8
1
62
256
6
ByLayer
370
18
48
1
60
0
100
AcDbSpline
70
4
71
2
72
6
73
3
40
0
40
0
40
0
40
1
40
1
40
1
41
1
10
6.29433800538376
20
6.01628949971607
30
0
41
1
10
5.98592905770363
20
6.0159671113249
30
0
41
1
10
5.67912808975299
20
6.01525644727778
30
0
0
SPLINE
5
101
100
AcDbEntity
8
1
62
256
6
ByLayer
370
18
48
1
60
0
100
AcDbSpline
70
4
71
3
72
25
73
21
40
0
40
0
40
0
40
0
40
0.0416403704221895
40
0.0979970004126394
40
0.144159647998491
40
0.189760733970557
40
0.248994896451872
40
0.318759918259447
40
0.398745925869729
40
0.487082060497778
40
0.547977258691767
40
0.597199399789981
40
0.648507003237925
40
0.70657876250089
40
0.769221315056139
40
0.833803822170594
40
0.889931606741825
40
0.943559729140623
40
0.989750604924758
40
1
40
1
40
1
40
1
41
1
10
78.1510301268358
20
6.14483740707524
30
0
41
1
10
77.9560666164534
20
6.14435172112783
30
0
41
1
10
77.4972369126239
20
6.14333314264996
30
0
41
1
10
76.8222678482257
20
6.14200463010582
30
0
41
1
10
76.1287585353546
20
6.14159041760996
30
0
41
1
10
75.4217736884922
20
6.13916472718216
30
0
41
1
10
74.6042853590864
20
6.13853810940748
30
0
41
1
10
73.6258051206443
20
6.13631482678232
30
0
41
1
10
72.5110602113391
20
6.13485097005895
30
0
41
1
10
71.4378474133694
20
6.13206130662167
30
0
41
1
10
70.508669789618
20
6.13124551181949
30
0
41
1
10
69.7528643158824
20
6.12961411785594
30
0
41
1
10
69.0102818460268
20
6.12796577582392
30
0
41
1
10
68.2048511425347
20
6.12743582161829
30
0
41
1
10
67.3373128050513
20
6.12486707907831
30
0
41
1
10
66.4787201583788
20
6.12400159475231
30
0
41
1
10
65.6631650669272
20
6.12197960946938
30
0
41
1
10
64.931196949444
20
6.1209199663619
30
0
41
1
10
64.4232197826398
20
6.11988209703074
30
0
41
1
10
64.1622391805152
20
6.11845533765435
30
0
41
1
10
64.1148168960562
20
6.11818148815013
30
0
0
SPLINE
5
102
100
AcDbEntity
8
1
62
256
6
ByLayer
370
18
48
1
60
0
100
AcDbSpline
70
4
71
3
72
29
73
25
40
0
40
0
40
0
40
0
40
0.0198753331985842
40
0.0428755249753093
40
0.0660019373123611
40
0.10801592932065
40
0.147720523981831
40
0.184263797470882
40
0.223315926965991
40
0.259110164489708
40
0.303056933110748
40
0.351540880095897
40
0.40746868050153
40
0.474211897948965
40
0.546388775375832
40
0.620779717221885
40
0.688387026961466
40
0.746789411122796
40
0.801368206940891
40
0.856165492237272
40
0.910680160184384
40
0.955687133353383
40
0.996403516173861
40
1
40
1
40
1
40
1
41
1
10
23.8453680423749
20
-6.04617494095734
30
0
41
1
10
23.9305348872244
20
-6.04554070265945
30
0
41
1
10
24.1249588301276
20
-6.04397704266967
30
0
41
1
10
24.4688140886629
20
-6.03746789542737
30
0
41
1
10
24.9548743018005
20
-6.03709052319854
30
0
41
1
10
25.5060520751029
20
-6.04731110722366
30
0
41
1
10
26.1368813504459
20
-6.05085599008464
30
0
41
1
10
26.7554738088942
20
-6.05279553806844
30
0
41
1
10
27.36171997243
20
-6.05324736706638
30
0
41
1
10
28.0078083416972
20
-6.05448988491662
30
0
41
1
10
28.7054742099038
20
-6.05634680312681
30
0
41
1
10
29.5131332240107
20
-6.05727853427513
30
0
41
1
10
30.4445795258105
20
-6.05936870279754
30
0
41
1
10
31.5052513537804
20
-6.06069281373138
30
0
41
1
10
32.6660631813812
20
-6.06377878632239
30
0
41
1
10
33.8318985102931
20
-6.06456080601797
30
0
41
1
10
34.9226990008231
20
-6.06792302410685
30
0
41
1
10
35.9056721752335
20
-6.06832005723106
30
0
41
1
10
36.8189123927804
20
-6.07134954527618
30
0
41
1
10
37.7109994696168
20
-6.07113009057952
30
0
41
1
10
38.5509780813588
20
-6.07380841684139
30
0
41
1
10
39.3143208492246
20
-6.07434045566751
30
0
41
1
10
39.8004947619975
20
-6.07543960283178
30
0
41
1
10
40.0416902029265
20
-6.07593033693732
30
0
41
1
10
40.0612658879437
20
-6.07597059317521
30
0
0
SPLINE
5
103
100
AcDbEntity
8
1
62
256
6
ByLayer
370
18
48
1
60
0
100
AcDbSpline
70
4
71
3
72
30
73
26
40
0
40
0
40
0
40
0
40
0.0447895480270464
40
0.083922926474477
40
0.114198660333315
40
0.137686495830528
40
0.156594138895548
40
0.198048502003906
40
0.242654304543487
40
0.288614077037088
40
0.335787556306464
40
0.386577716001294
40
0.432976497343739
40
0.485158529359666
40
0.546313019600458
40
0.594260868944451
40
0.638710153193776
40
0.695247972441124
40
0.727296662785321
40
0.77997080002346
40
0.840050589748389
40
0.893797728937255
40
0.946487135663401
40
0.998977920399297
40
1
40
1
40
1
40
1
41
1
10
100.101650739593
20
-6.18412821374085
30
0
41
1
10
100.341552724318
20
-6.18433293946597
30
0
41
1
10
100.791331073505
20
-6.18489692718998
30
0
41
1
10
101.406302909081
20
-6.18631558556174
30
0
41
1
10
101.903787219178
20
-6.18750308361794
30
0
41
1
10
102.294492072198
20
-6.18807540669903
30
0
41
1
10
102.745384274814
20
-6.18878179357685
30
0
41
1
10
103.309796832858
20
-6.1898411781932
30
0
41
1
10
104.019664731031
20
-6.19095241340213
30
0
41
1
10
104.760319400653
20
-6.19157190319456
30
0
41
1
10
105.534192521874
20
-6.19455950927454
30
0
41
1
10
106.310460713952
20
-6.19567456078065
30
0
41
1
10
107.1136475666
20
-6.19638381359241
30
0
41
1
10
107.972532401018
20
-6.19661475666155
30
0
41
1
10
108.839964888741
20
-6.19797796802709
30
0
41
1
10
109.665000323449
20
-6.20215167717461
30
0
41
1
10
110.465990389719
20
-6.20238229018523
30
0
41
1
10
111.180745854157
20
-6.20357905864864
30
0
41
1
10
111.940412193233
20
-6.20464528445447
30
0
41
1
10
112.719009108213
20
-6.20543531416331
30
0
41
1
10
113.614320857449
20
-6.20909826809347
30
0
41
1
10
114.509708758262
20
-6.20948173800073
30
0
41
1
10
115.364288192527
20
-6.21226838599094
30
0
41
1
10
115.935358732737
20
-6.21224446360483
30
0
41
1
10
116.22310677142
20
-6.21294388644191
30
0
41
1
10
116.228602672254
20
-6.21295728888933
30
0
0
SPLINE
5
104
100
AcDbEntity
8
1
62
256
6
ByLayer
370
18
48
1
60
0
100
AcDbSpline
70
4
71
3
72
32
73
28
40
0
40
0
40
0
40
0
40
0.026224098822339
40
0.0539370022031067
40
0.0792452819414418
40
0.110231056807342
40
0.14013560447111
40
0.168194068706874
40
0.194496846226748
40
0.233162849267669
40
0.270221000799617
40
0.298708332259213
40
0.331385989617945
40
0.365767275121858
40
0.394489454937757
40
0.421734320683525
40
0.487157235262855
40
0.528364111078572
40
0.582778077807911
40
0.641761783003495
40
0.700591165838593
40
0.750335363649012
40
0.799683570589077
40
0.841921843938443
40
0.887040785157607
40
0.948132311786082
40
1
40
1
40
1
40
1
41
1
10
61.9547272374517
20
-6.11472166895069
30
0
41
1
10
62.0784903066581
20
-6.11422598338587
30
0
41
1
10
62.3413333943948
20
-6.11270782089858
30
0
41
1
10
62.7531754459144
20
-6.10578236319228
30
0
41
1
10
63.2146244978746
20
-6.10333658231028
30
0
41
1
10
63.6720500946054
20
-6.11225888297486
30
0
41
1
10
64.1329574053498
20
-6.11818306371018
30
0
41
1
10
64.5804376341704
20
-6.12031610722681
30
0
41
1
10
65.0795662485831
20
-6.12109798761975
30
0
41
1
10
65.6342127621244
20
-6.1215991846382
30
0
41
1
10
66.2008267948399
20
-6.12315567162804
30
0
41
1
10
66.7336802507297
20
-6.12426276354933
30
0
41
1
10
67.2532334380359
20
-6.12485530131508
30
0
41
1
10
67.7739475932942
20
-6.12625230009988
30
0
41
1
10
68.2651789269939
20
-6.12728140378073
30
0
41
1
10
68.9251717528551
20
-6.12811083655703
30
0
41
1
10
69.6530574973474
20
-6.12933767547355
30
0
41
1
10
70.528639024485
20
-6.13131464309211
30
0
41
1
10
71.3692725678306
20
-6.13188518390942
30
0
41
1
10
72.3054801604547
20
-6.13482237793951
30
0
41
1
10
73.2162401071759
20
-6.13481566867165
30
0
41
1
10
74.0749352460809
20
-6.13788877195151
30
0
41
1
10
74.8430351207616
20
-6.13841359667012
30
0
41
1
10
75.5863308542575
20
-6.13979285820898
30
0
41
1
10
76.3934398171764
20
-6.14206568936803
30
0
41
1
10
77.2529127442255
20
-6.14240599798802
30
0
41
1
10
77.8670720782029
20
-6.14405825959784
30
0
41
1
10
78.14907707548
20
-6.14489276272019
30
0
0
SPLINE
5
105
100
AcDbEntity
8
1
62
256
6
ByLayer
370
18
48
1
60
0
100
AcDbSpline
70
4
71
3
72
24
73
20
40
0
40
0
40
0
40
0
40
0.0025562126449823
40
0.0507345787171265
40
0.0910925624776521
40
0.140263809289795
40
0.191306508529335
40
0.241519316474675
40
0.292178665660168
40
0.378170161629589
40
0.48118050095265
40
0.587334750069566
40
0.684773044523061
40
0.769273380879526
40
0.828730724235485
40
0.884013448275268
40
0.943289626059862
40
0.993568847686374
40
1
40
1
40
1
40
1
41
1
10
40.0623287974512
20
6.07597939091195
30
0
41
1
10
40.0502678514305
20
6.07595525255874
30
0
41
1
10
39.8108873956692
20
6.07547913912668
30
0
41
1
10
39.3810832306394
20
6.07445645954303
30
0
41
1
10
38.7313175803181
20
6.07395068713873
30
0
41
1
10
38.0680439998428
20
6.07233116889478
30
0
41
1
10
37.3582673069183
20
6.07097686169467
30
0
41
1
10
36.6414693901376
20
6.07098095704933
30
0
41
1
10
35.7597707509448
20
6.06798830008825
30
0
41
1
10
34.6289694152044
20
6.06737935227517
30
0
41
1
10
33.2362088069303
20
6.06429547178698
30
0
41
1
10
31.7898848184029
20
6.06107459094738
30
0
41
1
10
30.4303839427171
20
6.05926673460866
30
0
41
1
10
29.2916608018406
20
6.05715665956211
30
0
41
1
10
28.3511613542893
20
6.05549197427527
30
0
41
1
10
27.5316110919814
20
6.05335747092906
30
0
41
1
10
26.7523139649322
20
6.0528917388742
30
0
41
1
10
26.2132180092053
20
6.05113799908355
30
0
41
1
10
25.9512905738985
20
6.04956604556949
30
0
41
1
10
25.9216053830145
20
6.04937758240328
30
0
0
SPLINE
5
106
100
AcDbEntity
8
1
62
256
6
ByLayer
370
18
48
1
60
0
100
AcDbSpline
70
4
71
3
72
13
73
9
40
0
40
0
40
0
40
0
40
0.23394090281738
40
0.409520345236856
40
0.526535254135601
40
0.6439155930268
40
0.819801560698379
40
1
40
1
40
1
40
1
41
1
10
40.621943589083
20
-0.0260215172961011
30
0
41
1
10
40.8152939109777
20
-0.0705933984732212
30
0
41
1
10
41.1535257369056
20
-0.159616715563089
30
0
41
1
10
41.5877730017402
20
-0.298895370965255
30
0
41
1
10
41.9257324621387
20
-0.421032160223291
30
0
41
1
10
42.2631640837038
20
-0.554202742264692
30
0
41
1
10
42.6515307244467
20
-0.722307975937781
30
0
41
1
10
42.9428422057599
20
-0.86557078062097
30
0
41
1
10
43.0900499807978
20
-0.942070810116462
30
0
0
SPLINE
5
107
100
AcDbEntity
8
1
62
256
6
ByLayer
370
18
48
1
60
0
100
AcDbSpline
70
4
71
3
72
13
73
9
40
0
40
0
40
0
40
0
40
0.234101393752744
40
0.409761730616437
40
0.52678775081
40
0.644214327970248
40
0.820214442031735
40
1
40
1
40
1
40
1
41
1
10
59.7142254515642
20
0.0252905009513427
30
0
41
1
10
59.5291382820475
20
0.0679717214764537
30
0
41
1
10
59.2054351308454
20
0.152740803379601
30
0
41
1
10
58.7898586130159
20
0.284473304855567
30
0
41
1
10
58.4666893916916
20
0.399473407626374
30
0
41
1
10
58.1438260948821
20
0.524622718109839
30
0
41
1
10
57.7721979204043
20
0.682252967957169
30
0
41
1
10
57.4934422593943
20
0.816307217253751
30
0
41
1
10
57.3527395643412
20
0.887730390219531
30
0
0
SPLINE
5
108
100
AcDbEntity
8
1
62
256
6
ByLayer
370
18
48
1
60
0
100
AcDbSpline
70
4
71
2
72
6
73
3
40
0
40
0
40
0
40
1
40
1
40
1
41
1
10
5.67911223638515
20
-6.01568227072005
30
0
41
1
10
5.99612239317858
20
-6.01653344538707
30
0
41
1
10
6.31298697719694
20
-6.01705267129572
30
0
0
LINE
5
7B
100
AcDbEntity
8
SK1
62
256
6
ByLayer
370
18
48
1
60
0
100
AcDbLine
10
-45
20
3.5
30
0
11
-45
21
-3.5
31
0
39
0
210
0
220
0
230
1
0
LINE
5
7D
100
AcDbEntity
8
SK1
62
256
6
ByLayer
370
18
48
1
60
0
100
AcDbLine
10
-42.979274
20
7
30
0
11
-42.979274
21
-7
31
0
39
0
210
0
220
0
230
1
0
LINE
5
7E
100
AcDbEntity
8
SK1
62
256
6
ByLayer
370
18
48
1
60
0
100
AcDbLine
10
0
20
-7
30
0
11
0
21
7
31
0
39
0
210
0
220
0
230
1
0
LINE
5
7F
100
AcDbEntity
8
1
62
256
6
ByLayer
370
18
48
1
60
0
100
AcDbLine
10
133.884396
20
-3.170331
30
0
11
136.04804
21
-1.4333
31
0
39
0
210
0
220
0
230
1
0
LINE
5
80
100
AcDbEntity
8
1
62
256
6
ByLayer
370
13
48
1
60
0
100
AcDbLine
10
0.733074
20
6.580236
30
0
11
0.733074
21
-6.580236
31
0
39
0
210
0
220
0
230
1
0
LINE
5
81
100
AcDbEntity
8
1
62
256
6
ByLayer
370
18
48
1
60
0
100
AcDbLine
10
5.679161
20
6.015707
30
0
11
5.67917
21
6.015435
31
0
39
0
210
0
220
0
230
1
0
LINE
5
82
100
AcDbEntity
8
1
62
256
6
ByLayer
370
13
48
1
60
0
100
AcDbLine
10
1.467677
20
6.160473
30
0
11
1.467677
21
-6.160473
31
0
39
0
210
0
220
0
230
1
0
LINE
5
83
100
AcDbEntity
8
1
62
256
6
ByLayer
370
18
48
1
60
0
100
AcDbLine
10
136.04804
20
-1.4333
30
0
11
136.050635
21
-1.416338
31
0
39
0
210
0
220
0
230
1
0
LINE
5
84
100
AcDbEntity
8
1
62
256
6
ByLayer
370
18
48
1
60
0
100
AcDbLine
10
0
20
-7
30
0
11
0
21
7
31
0
39
0
210
0
220
0
230
1
0
LINE
5
85
100
AcDbEntity
8
80
62
256
6
ByLayer
370
18
48
1
60
0
100
AcDbLine
10
0
20
0
30
0
11
-5
21
0
31
0
39
0
210
0
220
0
230
1
0
LINE
5
86
100
AcDbEntity
8
4
62
256
6
ByLayer
370
18
48
0.05
60
0
100
AcDbLine
10
137
20
0
30
0
11
0
21
0
31
0
39
0
210
0
220
0
230
1
0
LINE
5
88
100
AcDbEntity
8
SK4
62
256
6
ByLayer
370
18
48
0.05
60
0
100
AcDbLine
10
142
20
0
30
0
11
-50
21
0
31
0
39
0
210
0
220
0
230
1
0
LINE
5
8A
100
AcDbEntity
8
SK1
62
256
6
ByLayer
370
18
48
1
60
0
100
AcDbLine
10
-45
20
-3.5
30
0
11
-42.979274
21
-7
31
0
39
0
210
0
220
0
230
1
0
LINE
5
8B
100
AcDbEntity
8
SK1
62
256
6
ByLayer
370
18
48
1
60
0
100
AcDbLine
10
-42.979274
20
7
30
0
11
-45
21
3.5
31
0
39
0
210
0
220
0
230
1
0
LINE
5
8C
100
AcDbEntity
8
SK1
62
256
6
ByLayer
370
18
48
1
60
0
100
AcDbLine
10
-42.979274
20
-7
30
0
11
0
21
-7
31
0
39
0
210
0
220
0
230
1
0
LINE
5
8D
100
AcDbEntity
8
SK1
62
256
6
ByLayer
370
18
48
1
60
0
100
AcDbLine
10
0
20
7
30
0
11
-42.979274
21
7
31
0
39
0
210
0
220
0
230
1
0
LINE
5
8E
100
AcDbEntity
8
1
62
256
6
ByLayer
370
18
48
1
60
0
100
AcDbLine
10
1.467677
20
-6.160473
30
0
11
5.147653
21
-6.167097
31
0
39
0
210
0
220
0
230
1
0
LINE
5
8F
100
AcDbEntity
8
1
62
256
6
ByLayer
370
18
48
1
60
0
100
AcDbLine
10
22.196633
20
-6.197785
30
0
11
23.356796
21
-6.199873
31
0
39
0
210
0
220
0
230
1
0
LINE
5
90
100
AcDbEntity
8
1
62
256
6
ByLayer
370
18
48
1
60
0
100
AcDbLine
10
60.316572
20
-6.266401
30
0
11
61.456706
21
-6.268453
31
0
39
0
210
0
220
0
230
1
0
LINE
5
91
100
AcDbEntity
8
1
62
256
6
ByLayer
370
18
48
1
60
0
100
AcDbLine
10
98.436713
20
-6.335017
30
0
11
99.556236
21
-6.337032
31
0
39
0
210
0
220
0
230
1
0
LINE
5
92
100
AcDbEntity
8
1
62
256
6
ByLayer
370
18
48
1
60
0
100
AcDbLine
10
99.556236
20
6.337032
30
0
11
98.436713
21
6.335017
31
0
39
0
210
0
220
0
230
1
0
LINE
5
93
100
AcDbEntity
8
1
62
256
6
ByLayer
370
18
48
1
60
0
100
AcDbLine
10
61.456706
20
6.268453
30
0
11
60.316572
21
6.266401
31
0
39
0
210
0
220
0
230
1
0
LINE
5
94
100
AcDbEntity
8
1
62
256
6
ByLayer
370
18
48
1
60
0
100
AcDbLine
10
23.356796
20
6.199873
30
0
11
22.196633
21
6.197785
31
0
39
0
210
0
220
0
230
1
0
LINE
5
95
100
AcDbEntity
8
1
62
256
6
ByLayer
370
18
48
1
60
0
100
AcDbLine
10
5.147653
20
6.167097
30
0
11
1.467677
21
6.160473
31
0
39
0
210
0
220
0
230
1
0
LINE
5
96
100
AcDbEntity
8
81
62
256
6
ByLayer
370
18
48
1
60
0
100
AcDbLine
10
137
20
0
30
0
11
142
21
0
31
0
39
0
210
0
220
0
230
1
0
LINE
5
97
100
AcDbEntity
8
SK2
62
256
6
ByLayer
370
13
48
1
60
0
100
AcDbLine
10
-53.625163
20
-7
30
0
11
-53.625163
21
38.225706
31
0
39
0
210
0
220
0
230
1
0
LINE
5
99
100
AcDbEntity
8
SK2
62
256
6
ByLayer
370
13
48
1
60
0
100
AcDbLine
10
-46.5875
20
7
30
0
11
-55.625163
21
7
31
0
39
0
210
0
220
0
230
1
0
LINE
5
9A
100
AcDbEntity
8
SK2
62
256
6
ByLayer
370
13
48
1
60
0
100
AcDbLine
10
-46.5875
20
-7
30
0
11
-55.625163
21
-7
31
0
39
0
210
0
220
0
230
1
0
LINE
5
9B
100
AcDbEntity
8
1
62
256
6
ByLayer
370
18
48
1
60
1
100
AcDbLine
10
-53.625163
20
7
30
0
11
-53.164379
21
3.500002
31
0
39
0
210
0
220
0
230
1
0
LINE
5
9C
100
AcDbEntity
8
1
62
256
6
ByLayer
370
18
48
1
60
1
100
AcDbLine
10
-53.164379
20
3.500002
30
0
11
-54.085946
21
3.499998
31
0
39
0
210
0
220
0
230
1
0
LINE
5
9D
100
AcDbEntity
8
1
62
256
6
ByLayer
370
18
48
1
60
1
100
AcDbLine
10
-54.085946
20
3.499998
30
0
11
-53.625163
21
7
31
0
39
0
210
0
220
0
230
1
0
LINE
5
9E
100
AcDbEntity
8
1
62
256
6
ByLayer
370
18
48
1
60
1
100
AcDbLine
10
-53.625163
20
-7
30
0
11
-54.085946
21
-3.500002
31
0
39
0
210
0
220
0
230
1
0
LINE
5
9F
100
AcDbEntity
8
1
62
256
6
ByLayer
370
18
48
1
60
1
100
AcDbLine
10
-54.085946
20
-3.500002
30
0
11
-53.164379
21
-3.499998
31
0
39
0
210
0
220
0
230
1
0
LINE
5
A0
100
AcDbEntity
8
1
62
256
6
ByLayer
370
18
48
1
60
1
100
AcDbLine
10
-53.164379
20
-3.499998
30
0
11
-53.625163
21
-7
31
0
39
0
210
0
220
0
230
1
0
LINE
5
A1
100
AcDbEntity
8
2
62
256
6
ByLayer
370
13
48
1
60
0
100
AcDbLine
10
149.083343
20
-6.4
30
0
11
149.083343
21
35.850259
31
0
39
0
210
0
220
0
230
1
0
LINE
5
A3
100
AcDbEntity
8
2
62
256
6
ByLayer
370
13
48
1
60
0
100
AcDbLine
10
136.1257
20
6.4
30
0
11
151.083343
21
6.4
31
0
39
0
210
0
220
0
230
1
0
LINE
5
A4
100
AcDbEntity
8
2
62
256
6
ByLayer
370
13
48
1
60
0
100
AcDbLine
10
136.1257
20
-6.4
30
0
11
151.083343
21
-6.4
31
0
39
0
210
0
220
0
230
1
0
LINE
5
A5
100
AcDbEntity
8
1
62
256
6
ByLayer
370
18
48
1
60
1
100
AcDbLine
10
149.083343
20
6.4
30
0
11
149.544126
21
2.900002
31
0
39
0
210
0
220
0
230
1
0
LINE
5
A6
100
AcDbEntity
8
1
62
256
6
ByLayer
370
18
48
1
60
1
100
AcDbLine
10
149.544126
20
2.900002
30
0
11
148.622559
21
2.899998
31
0
39
0
210
0
220
0
230
1
0
LINE
5
A7
100
AcDbEntity
8
1
62
256
6
ByLayer
370
18
48
1
60
1
100
AcDbLine
10
148.622559
20
2.899998
30
0
11
149.083343
21
6.4
31
0
39
0
210
0
220
0
230
1
0
LINE
5
A8
100
AcDbEntity
8
1
62
256
6
ByLayer
370
18
48
1
60
1
100
AcDbLine
10
149.083343
20
-6.4
30
0
11
148.622559
21
-2.900002
31
0
39
0
210
0
220
0
230
1
0
LINE
5
A9
100
AcDbEntity
8
1
62
256
6
ByLayer
370
18
48
1
60
1
100
AcDbLine
10
148.622559
20
-2.900002
30
0
11
149.544126
21
-2.899998
31
0
39
0
210
0
220
0
230
1
0
LINE
5
AA
100
AcDbEntity
8
1
62
256
6
ByLayer
370
18
48
1
60
1
100
AcDbLine
10
149.544126
20
-2.899998
30
0
11
149.083343
21
-6.4
31
0
39
0
210
0
220
0
230
1
0
LINE
5
10F
100
AcDbEntity
8
1
62
256
6
ByLayer
370
18
48
1
60
1
100
AcDbLine
10
-53.625163
20
7
30
0
11
-53.164379
21
3.500002
31
0
39
0
210
0
220
0
230
1
0
LINE
5
110
100
AcDbEntity
8
1
62
256
6
ByLayer
370
18
48
1
60
1
100
AcDbLine
10
-53.164379
20
3.500002
30
0
11
-54.085946
21
3.499998
31
0
39
0
210
0
220
0
230
1
0
LINE
5
111
100
AcDbEntity
8
1
62
256
6
ByLayer
370
18
48
1
60
1
100
AcDbLine
10
-54.085946
20
3.499998
30
0
11
-53.625163
21
7
31
0
39
0
210
0
220
0
230
1
0
LINE
5
113
100
AcDbEntity
8
1
62
256
6
ByLayer
370
18
48
1
60
1
100
AcDbLine
10
-53.625163
20
-7
30
0
11
-54.085946
21
-3.500002
31
0
39
0
210
0
220
0
230
1
0
LINE
5
114
100
AcDbEntity
8
1
62
256
6
ByLayer
370
18
48
1
60
1
100
AcDbLine
10
-54.085946
20
-3.500002
30
0
11
-53.164379
21
-3.499998
31
0
39
0
210
0
220
0
230
1
0
LINE
5
115
100
AcDbEntity
8
1
62
256
6
ByLayer
370
18
48
1
60
1
100
AcDbLine
10
-53.164379
20
-3.499998
30
0
11
-53.625163
21
-7
31
0
39
0
210
0
220
0
230
1
0
LINE
5
119
100
AcDbEntity
8
1
62
256
6
ByLayer
370
18
48
1
60
1
100
AcDbLine
10
149.083343
20
6.4
30
0
11
149.544126
21
2.900002
31
0
39
0
210
0
220
0
230
1
0
LINE
5
11A
100
AcDbEntity
8
1
62
256
6
ByLayer
370
18
48
1
60
1
100
AcDbLine
10
149.544126
20
2.900002
30
0
11
148.622559
21
2.899998
31
0
39
0
210
0
220
0
230
1
0
LINE
5
11B
100
AcDbEntity
8
1
62
256
6
ByLayer
370
18
48
1
60
1
100
AcDbLine
10
148.622559
20
2.899998
30
0
11
149.083343
21
6.4
31
0
39
0
210
0
220
0
230
1
0
LINE
5
11D
100
AcDbEntity
8
1
62
256
6
ByLayer
370
18
48
1
60
1
100
AcDbLine
10
149.083343
20
-6.4
30
0
11
148.622559
21
-2.900002
31
0
39
0
210
0
220
0
230
1
0
LINE
5
11E
100
AcDbEntity
8
1
62
256
6
ByLayer
370
18
48
1
60
1
100
AcDbLine
10
148.622559
20
-2.900002
30
0
11
149.544126
21
-2.899998
31
0
39
0
210
0
220
0
230
1
0
LINE
5
11F
100
AcDbEntity
8
1
62
256
6
ByLayer
370
18
48
1
60
1
100
AcDbLine
10
149.544126
20
-2.899998
30
0
11
149.083343
21
-6.4
31
0
39
0
210
0
220
0
230
1
0
MTEXT
5
109
100
AcDbEntity
8
SK6
62
256
6
ByLayer
370
13
48
1
60
0
100
AcDbMText
10
19.203273
20
38.940328
30
0
210
0
220
0
230
1
1
\W0.7067;860.1-1280-115A1-PM P1BM
40
3.5
41
0
44
1.084337
50
0
71
7
72
5
7
iso_b_vert
0
MTEXT
5
10D
100
AcDbEntity
8
SK2
62
256
6
ByLayer
370
18
48
1
60
0
100
AcDbMText
10
-55.189796
20
20.409024
30
0
210
0
220
0
230
1
1
%%c
40
3.5
41
0
44
1.084337
50
90
71
7
72
5
7
iso_b_vert
0
MTEXT
5
10E
100
AcDbEntity
8
SK2
62
256
6
ByLayer
370
18
48
1
60
0
100
AcDbMText
10
-55.189796
20
25.63168
30
0
210
0
220
0
230
1
1
\W0.7145;14,000
40
3.5
41
0
44
1.084337
50
90
71
7
72
5
7
iso_b_vert
0
MTEXT
5
117
100
AcDbEntity
8
2
62
256
6
ByLayer
370
18
48
1
60
0
100
AcDbMText
10
147.518709
20
18.40211
30
0
210
0
220
0
230
1
1
%%c
40
3.5
41
0
44
1.084337
50
90
71
7
72
5
7
iso_b_vert
0
MTEXT
5
118
100
AcDbEntity
8
2
62
256
6
ByLayer
370
18
48
1
60
0
100
AcDbMText
10
147.518709
20
23.624766
30
0
210
0
220
0
230
1
1
\W0.6930;12,800
40
3.5
41
0
44
1.084337
50
90
71
7
72
5
7
iso_b_vert
0
HATCH
5
112
100
AcDbEntity
8
SK2
62
256
6
ByLayer
370
13
48
1
60
0
100
AcDbHatch
10
0
20
0
30
0
210
0
220
0
230
1
2
ANSI31
70
0
71
0
91
1
92
5
93
3
72
1
10
-53.6251625675374
20
7
11
-53.1643788259847
21
3.50000169255318
72
1
10
-53.1643788259847
20
3.50000169255318
11
-54.0859463090902
21
3.49999830744682
72
1
10
-54.0859463090902
20
3.49999830744682
11
-53.6251625675374
21
7
97
0
75
0
76
1
52
0
41
0.0062
77
0
78
1
53
45
43
0
44
0
45
-0.0139193969876572
46
0.0139193969876572
79
0
47
0
98
1
10
0
20
0
0
HATCH
5
116
100
AcDbEntity
8
SK2
62
256
6
ByLayer
370
13
48
1
60
0
100
AcDbHatch
10
0
20
0
30
0
210
0
220
0
230
1
2
ANSI31
70
0
71
0
91
1
92
5
93
3
72
1
10
-53.6251625675374
20
-7
11
-54.0859463090902
21
-3.50000169255318
72
1
10
-54.0859463090902
20
-3.50000169255318
11
-53.1643788259847
21
-3.49999830744682
72
1
10
-53.1643788259847
20
-3.49999830744682
11
-53.6251625675374
21
-7
97
0
75
0
76
1
52
0
41
0.0062
77
0
78
1
53
45
43
0
44
0
45
-0.0139193969876572
46
0.0139193969876572
79
0
47
0
98
1
10
0
20
0
0
HATCH
5
11C
100
AcDbEntity
8
2
62
256
6
ByLayer
370
13
48
1
60
0
100
AcDbHatch
10
0
20
0
30
0
210
0
220
0
230
1
2
ANSI31
70
0
71
0
91
1
92
5
93
3
72
1
10
149.083342615295
20
6.40000000000001
11
149.544126356848
21
2.90000169255319
72
1
10
149.544126356848
20
2.90000169255319
11
148.622558873742
21
2.89999830744682
72
1
10
148.622558873742
20
2.89999830744682
11
149.083342615295
21
6.40000000000001
97
0
75
0
76
1
52
0
41
0.0062
77
0
78
1
53
45
43
0
44
0
45
-0.0139193969876572
46
0.0139193969876572
79
0
47
0
98
1
10
0
20
0
0
HATCH
5
120
100
AcDbEntity
8
2
62
256
6
ByLayer
370
13
48
1
60
0
100
AcDbHatch
10
0
20
0
30
0
210
0
220
0
230
1
2
ANSI31
70
0
71
0
91
1
92
5
93
3
72
1
10
149.083342615295
20
-6.40000000000001
11
148.622558873742
21
-2.90000169255319
72
1
10
148.622558873742
20
-2.90000169255319
11
149.544126356848
21
-2.89999830744682
72
1
10
149.544126356848
20
-2.89999830744682
11
149.083342615295
21
-6.40000000000001
97
0
75
0
76
1
52
0
41
0.0062
77
0
78
1
53
45
43
0
44
0
45
-0.0139193969876572
46
0.0139193969876572
79
0
47
0
98
1
10
0
20
0
0
DIMENSION
5
122
100
AcDbEntity
8
2
62
256
6
ByLayer
370
13
48
1
60
0
100
AcDbDimension
2
_U0
10
134.5382
20
-16.613398
30
0
11
67.2691
21
-16.613398
31
0
70
32
71
1
72
1
41
1
210
0
220
0
230
1
3
Standard
100
AcDbAlignedDimension
13
0
23
0
33
0
14
134.5382
24
-6.4
34
0
50
0
100
AcDbRotatedDimension
1001
ACAD
1000
DSTYLE
1002
{
1070
   371
1070
    13
1070
   372
1070
    13
1070
   170
1070
     0
1070
   144
1040
1.0
1070
   277
1070
     2
1070
   278
1070
    44
1070
   146
1040
1.0
1070
   345
1005
16
1070
   347
1005
16
1070
   346
1005
16
1070
   344
1005
0
1070
   343
1005
0
1070
   172
1070
     1
1070
    76
1070
     0
1070
    75
1070
     0
1070
   282
1070
     0
1070
   281
1070
     0
1070
    71
1070
     0
1070
    74
1070
     0
1070
   279
1070
     0
1070
   173
1070
     1
1070
   340
1005
10A
1070
   271
1070
     2
1070
   272
1070
     2
1070
    77
1070
     1
1070
    73
1070
     1
1070
   171
1070
     3
1070
   274
1070
     4
1070
   177
1070
    35
1070
   176
1070
    35
1070
   178
1070
    35
1070
    48
1040
-0.1
1070
    41
1040
3.5
1070
   147
1040
1.75
1070
    42
1040
1.5875
1070
    44
1040
2.0
1070
   140
1040
3.5
1002
}
1001
ACAD_DSTYLE_DIM_LINETYPE
1070
   380
1005
16
1001
ACAD_DSTYLE_DIM_EXT1_LINETYPE
1070
   381
1005
16
1001
ACAD_DSTYLE_DIM_EXT2_LINETYPE
1070
   382
1005
16
0
DIMENSION
5
13B
100
AcDbEntity
8
SK2
62
256
6
ByLayer
370
13
48
1
60
0
100
AcDbDimension
2
_U1
10
137
20
-35.692985
30
0
11
46
21
-35.692985
31
0
70
32
71
1
72
1
41
1
210
0
220
0
230
1
3
Standard
100
AcDbAlignedDimension
13
-45
23
-7
33
0
14
137
24
0
34
0
50
0
100
AcDbRotatedDimension
1001
ACAD
1000
DSTYLE
1002
{
1070
   371
1070
    13
1070
   372
1070
    13
1070
   170
1070
     0
1070
   144
1040
1.0
1070
   277
1070
     2
1070
   278
1070
    44
1070
   146
1040
1.0
1070
   345
1005
16
1070
   347
1005
16
1070
   346
1005
16
1070
   344
1005
0
1070
   343
1005
0
1070
   172
1070
     1
1070
    76
1070
     0
1070
    75
1070
     0
1070
   282
1070
     0
1070
   281
1070
     0
1070
    71
1070
     0
1070
    74
1070
     0
1070
   279
1070
     0
1070
   173
1070
     1
1070
   340
1005
10A
1070
   271
1070
     2
1070
   272
1070
     2
1070
    77
1070
     1
1070
    73
1070
     1
1070
   171
1070
     3
1070
   274
1070
     4
1070
   177
1070
    35
1070
   176
1070
    35
1070
   178
1070
    35
1070
    48
1040
-0.1
1070
    41
1040
3.5
1070
   147
1040
1.75
1070
    42
1040
1.5875
1070
    44
1040
2.0
1070
   140
1040
3.5
1002
}
1001
ACAD_DSTYLE_DIM_LINETYPE
1070
   380
1005
16
1001
ACAD_DSTYLE_DIM_EXT1_LINETYPE
1070
   381
1005
16
1001
ACAD_DSTYLE_DIM_EXT2_LINETYPE
1070
   382
1005
16
0
DIMENSION
5
153
100
AcDbEntity
8
SK2
62
256
6
ByLayer
370
13
48
1
60
0
100
AcDbDimension
2
_U2
10
137
20
18.009119
30
0
11
84.57
21
18.009119
31
0
70
32
71
1
72
1
41
1
210
0
220
0
230
1
3
Standard
100
AcDbAlignedDimension
13
32.14
23
6.4
33
0
14
137
24
0
34
0
50
0
100
AcDbRotatedDimension
1001
ACAD
1000
DSTYLE
1002
{
1070
   371
1070
    13
1070
   372
1070
    13
1070
   170
1070
     0
1070
   144
1040
1.0
1070
   277
1070
     2
1070
   278
1070
    44
1070
   146
1040
1.0
1070
   345
1005
16
1070
   347
1005
16
1070
   346
1005
16
1070
   344
1005
0
1070
   343
1005
0
1070
   172
1070
     1
1070
    76
1070
     0
1070
    75
1070
     0
1070
   282
1070
     0
1070
   281
1070
     0
1070
    71
1070
     0
1070
    74
1070
     0
1070
   279
1070
     0
1070
   173
1070
     1
1070
   340
1005
10A
1070
   271
1070
     2
1070
   272
1070
     2
1070
    77
1070
     1
1070
    73
1070
     1
1070
   171
1070
     3
1070
   274
1070
     4
1070
   177
1070
    35
1070
   176
1070
    35
1070
   178
1070
    35
1070
    48
1040
-0.1
1070
    41
1040
3.5
1070
   147
1040
1.75
1070
    42
1040
1.5875
1070
    44
1040
2.0
1070
   140
1040
3.5
1002
}
1001
ACAD_DSTYLE_DIM_LINETYPE
1070
   380
1005
16
1001
ACAD_DSTYLE_DIM_EXT1_LINETYPE
1070
   381
1005
16
1001
ACAD_DSTYLE_DIM_EXT2_LINETYPE
1070
   382
1005
16
0
DIMENSION
5
16B
100
AcDbEntity
8
SK2
62
256
6
ByLayer
370
13
48
1
60
0
100
AcDbDimension
2
_U3
10
134.5382
20
-19.202503
30
0
11
154.583333
21
-19.202503
31
0
70
32
71
1
72
1
41
1
210
0
220
0
230
1
3
Standard
100
AcDbAlignedDimension
13
137
23
0
33
0
14
134.5382
24
-6.4
34
0
50
0
100
AcDbRotatedDimension
1001
ACAD
1000
DSTYLE
1002
{
1070
   371
1070
    13
1070
   372
1070
    13
1070
   170
1070
     0
1070
   144
1040
1.0
1070
   277
1070
     2
1070
   278
1070
    44
1070
   146
1040
1.0
1070
   345
1005
16
1070
   347
1005
16
1070
   346
1005
16
1070
   344
1005
0
1070
   343
1005
0
1070
   172
1070
     1
1070
    76
1070
     0
1070
    75
1070
     0
1070
   282
1070
     0
1070
   281
1070
     0
1070
    71
1070
     0
1070
    74
1070
     0
1070
   279
1070
     0
1070
   173
1070
     1
1070
   340
1005
10A
1070
   271
1070
     2
1070
   272
1070
     2
1070
    77
1070
     1
1070
    73
1070
     1
1070
   171
1070
     3
1070
   274
1070
     4
1070
   177
1070
    35
1070
   176
1070
    35
1070
   178
1070
    35
1070
    48
1040
-0.1
1070
    41
1040
3.5
1070
   147
1040
1.75
1070
    42
1040
1.5875
1070
    44
1040
2.0
1070
   140
1040
3.5
1002
}
1001
ACAD_DSTYLE_DIM_LINETYPE
1070
   380
1005
16
1001
ACAD_DSTYLE_DIM_EXT1_LINETYPE
1070
   381
1005
16
1001
ACAD_DSTYLE_DIM_EXT2_LINETYPE
1070
   382
1005
16
0
DIMENSION
5
185
100
AcDbEntity
8
SK2
62
256
6
ByLayer
370
13
48
1
60
0
100
AcDbDimension
2
_U4
10
134.5382
20
-25.343428
30
0
11
44.7691
21
-25.343428
31
0
70
32
71
1
72
1
41
1
210
0
220
0
230
1
3
Standard
100
AcDbAlignedDimension
13
-45
23
-7
33
0
14
134.5382
24
-6.4
34
0
50
0
100
AcDbRotatedDimension
1001
ACAD
1000
DSTYLE
1002
{
1070
   371
1070
    13
1070
   372
1070
    13
1070
   170
1070
     0
1070
   144
1040
1.0
1070
   277
1070
     2
1070
   278
1070
    44
1070
   146
1040
1.0
1070
   345
1005
16
1070
   347
1005
16
1070
   346
1005
16
1070
   344
1005
0
1070
   343
1005
0
1070
   172
1070
     1
1070
    76
1070
     0
1070
    75
1070
     0
1070
   282
1070
     0
1070
   281
1070
     0
1070
    71
1070
     0
1070
    74
1070
     0
1070
   279
1070
     0
1070
   173
1070
     1
1070
   340
1005
10A
1070
   271
1070
     2
1070
   272
1070
     2
1070
    77
1070
     1
1070
    73
1070
     1
1070
   171
1070
     3
1070
   274
1070
     4
1070
   177
1070
    35
1070
   176
1070
    35
1070
   178
1070
    35
1070
    48
1040
-0.1
1070
    41
1040
3.5
1070
   147
1040
1.75
1070
    42
1040
1.5875
1070
    44
1040
2.0
1070
   140
1040
3.5
1002
}
1001
ACAD_DSTYLE_DIM_LINETYPE
1070
   380
1005
16
1001
ACAD_DSTYLE_DIM_EXT1_LINETYPE
1070
   381
1005
16
1001
ACAD_DSTYLE_DIM_EXT2_LINETYPE
1070
   382
1005
16
0
ENDSEC
0
SECTION
2
OBJECTS
0
DICTIONARY
5
20d
330
0
100
AcDbDictionary
280
0
281
1
3
ACAD_GROUP
350
20e
3
ACAD_MLINESTYLE
350
20f
0
DICTIONARY
5
20e
330
0
100
AcDbDictionary
280
0
281
1
0
DICTIONARY
5
20f
330
0
100
AcDbDictionary
280
0
281
1
3
Standard
350
18
0
MLINESTYLE
5
18
330
20f
100
AcDbMlineStyle
2
Standard
70
0
3

62
256
51
90
52
90
71
2
49
-0.5
62
256
6
ByLayer
49
0.5
62
256
6
ByLayer
0
RASTERVARIABLES
5
1fb
330

100
AcDbRasterVariables
90
0
70
1
71
1
72
1
0
ENDSEC
0
EOF
