0
SECTION
2
HEADER
9
$ACADVER
1
AC1015
9
$DWGCODEPAGE
3
ANSI_1252
9
$HANDSEED
5
21a
9
$ANGBASE
50
0
9
$ANGDIR
70
0
9
$ATTMODE
70
1
9
$AUNITS
70
0
9
$AUPREC
70
0
9
$CECOLOR
62
256
9
$CELTSCALE
40
1
9
$CELTYPE
6
ByLayer
9
$CELWEIGHT
370
18
9
$CLAYER
8
0
9
$CMLJUST
70
0
9
$CMLSCALE
40
1
9
$CMLSTYLE
2
Standard
9
$DIMSTYLE
2
Standard
9
$TEXTSIZE
40
0.2
9
$TEXTSTYLE
7
Standard
9
$LUNITS
70
2
9
$LUPREC
70
4
9
$EXTNAMES
290
1
9
$INSUNITS
70
4
9
$LTSCALE
40
1
9
$LWDISPLAY
290
1
9
$PDMODE
70
0
9
$PDSIZE
40
0
9
$PLINEGEN
70
0
0
ENDSEC
0
SECTION
2
CLASSES
0
CLASS
1
RASTERVARIABLES
2
AcDbRasterVariables
3
ISM
90
0
280
0
281
0
0
ENDSEC
0
SECTION
2
TABLES
0
TABLE
2
VPORT
5
210
100
AcDbSymbolTable
0
VPORT
5
1
100
AcDbSymbolTableRecord
100
AcDbViewportTableRecord
2
*Active
70
0
10
0
20
0
11
1
21
1
12
-1
22
1
13
0
23
0
14
0.5
24
0.5
15
10
25
10
16
0
26
0
36
1
17
0
27
0
37
0
0
ENDTAB
0
TABLE
2
LTYPE
5
211
100
AcDbSymbolTable
0
LTYPE
5
14
100
AcDbSymbolTableRecord
100
AcDbLinetypeTableRecord
70
0
2
ByBlock
3

72
65
73
0
40
0
0
LTYPE
5
15
100
AcDbSymbolTableRecord
100
AcDbLinetypeTableRecord
70
0
2
ByLayer
3

72
65
73
0
40
0
0
LTYPE
5
16
100
AcDbSymbolTableRecord
100
AcDbLinetypeTableRecord
70
0
2
Continuous
3
Solid line
72
65
73
0
40
0
0
LTYPE
5
6E
100
AcDbSymbolTableRecord
100
AcDbLinetypeTableRecord
70
0
2
CENTER
3
____ _ ____ _ ____ _ ____
72
65
73
4
40
47.5
49
22
74
0
49
-8.5
74
0
49
8.5
74
0
49
-8.5
74
0
0
LTYPE
5
6F
100
AcDbSymbolTableRecord
100
AcDbLinetypeTableRecord
70
0
2
DASHED
3
__ __ __ __ __ __ __ __ __
72
65
73
2
40
25.72
49
12.86
74
0
49
-12.86
74
0
0
ENDTAB
0
TABLE
2
LAYER
5
212
100
AcDbSymbolTable
0
LAYER
5
10
100
AcDbSymbolTableRecord
100
AcDbLayerTableRecord
2
0
70
0
62
7
6
Continuous
290
1
370
-3
390
0
0
LAYER
5
71
100
AcDbSymbolTableRecord
100
AcDbLayerTableRecord
2
80
70
0
62
-6
6
Continuous
290
1
370
-3
390
0
0
LAYER
5
73
100
AcDbSymbolTableRecord
100
AcDbLayerTableRecord
2
81
70
0
62
-3
6
Continuous
290
1
370
-3
390
0
0
LAYER
5
75
100
AcDbSymbolTableRecord
100
AcDbLayerTableRecord
2
1
70
0
62
4
6
Continuous
290
1
370
-3
390
0
0
LAYER
5
88
100
AcDbSymbolTableRecord
100
AcDbLayerTableRecord
2
4
70
0
62
-2
6
CENTER
290
1
370
-3
390
0
0
LAYER
5
A3
100
AcDbSymbolTableRecord
100
AcDbLayerTableRecord
2
2
70
0
62
7
6
Continuous
290
1
370
-3
390
0
0
LAYER
5
125
100
AcDbSymbolTableRecord
100
AcDbLayerTableRecord
2
Defpoints
70
0
62
7
6
Continuous
290
0
370
-3
390
0
0
LAYER
5
1fc
100
AcDbSymbolTableRecord
100
AcDbLayerTableRecord
2
SK1
70
0
62
4
6
Continuous
290
1
370
-3
390
0
0
LAYER
5
1fd
100
AcDbSymbolTableRecord
100
AcDbLayerTableRecord
2
SK4
70
0
62
2
6
CENTER
290
1
370
-3
390
0
0
LAYER
5
1fe
100
AcDbSymbolTableRecord
100
AcDbLayerTableRecord
2
SK2
70
0
62
7
6
Continuous
290
1
370
-3
390
0
0
LAYER
5
1ff
100
AcDbSymbolTableRecord
100
AcDbLayerTableRecord
2
SK6
70
0
62
5
6
Continuous
290
1
370
-3
390
0
0
ENDTAB
0
TABLE
2
STYLE
5
213
100
AcDbSymbolTable
0
STYLE
5
11
100
AcDbSymbolTableRecord
100
AcDbTextStyleTableRecord
2
Standard
3
txt
70
0
71
0
40
0
41
1
42
0
50
0
0
STYLE
5
10A
100
AcDbSymbolTableRecord
100
AcDbTextStyleTableRecord
2
iso_b_vert
3
simplex.shx
70
0
71
0
40
0
41
1
42
0
50
0
0
STYLE
5
10B
100
AcDbSymbolTableRecord
100
AcDbTextStyleTableRecord
2
DWGDirectTextStyle
3
simplex
70
0
71
0
40
0
41
1
42
0
50
0
0
ENDTAB
0
TABLE
2
DIMSTYLE
5
214
100
AcDbSymbolTable
100
AcDbDimStyleTable
0
DIMSTYLE
105
27
100
AcDbSymbolTableRecord
100
AcDbDimStyleTableRecord
2
Standard
70
0
3
<>
41
0.18
42
0.0625
44
0.18
140
0.18
147
0.09
73
0
74
0
77
1
271
2
275
0
278
52
280
0
340
11
0
ENDTAB
0
TABLE
2
VIEW
5
215
100
AcDbSymbolTable
0
ENDTAB
0
TABLE
2
UCS
5
216
100
AcDbSymbolTable
0
ENDTAB
0
TABLE
2
APPID
5
217
100
AcDbSymbolTable
0
APPID
5
12
100
AcDbSymbolTableRecord
100
AcDbRegAppTableRecord
2
ACAD
70
0
0
APPID
5
121
100
AcDbSymbolTableRecord
100
AcDbRegAppTableRecord
2
ACAD_DSTYLE_DIMBREAK
70
0
0
APPID
5
1BB
100
AcDbSymbolTableRecord
100
AcDbRegAppTableRecord
2
ACAD_DSTYLE_DIM_LINETYPE
70
0
0
APPID
5
1BC
100
AcDbSymbolTableRecord
100
AcDbRegAppTableRecord
2
ACAD_DSTYLE_DIM_EXT1_LINETYPE
70
0
0
APPID
5
1BD
100
AcDbSymbolTableRecord
100
AcDbRegAppTableRecord
2
ACAD_DSTYLE_DIM_EXT2_LINETYPE
70
0
0
APPID
5
1F8
100
AcDbSymbolTableRecord
100
AcDbRegAppTableRecord
2
ACAD_MLEADERVER
70
0
0
ENDTAB
0
TABLE
2
BLOCK_RECORD
5
218
100
AcDbSymbolTable
0
BLOCK_RECORD
5
1F
100
AcDbSymbolTableRecord
100
AcDbBlockTableRecord
2
*Model_Space
340
0
70
0
0
BLOCK_RECORD
5
1B
100
AcDbSymbolTableRecord
100
AcDbBlockTableRecord
2
*Paper_Space
340
0
70
0
0
BLOCK_RECORD
5
23
100
AcDbSymbolTableRecord
100
AcDbBlockTableRecord
2
*Paper_Space0
340
0
70
0
0
BLOCK_RECORD
5
126
100
AcDbSymbolTableRecord
100
AcDbBlockTableRecord
2
*D1
340
0
70
0
0
BLOCK_RECORD
5
132
100
AcDbSymbolTableRecord
100
AcDbBlockTableRecord
2
_U0
340
0
70
0
0
BLOCK_RECORD
5
13E
100
AcDbSymbolTableRecord
100
AcDbBlockTableRecord
2
*D3
340
0
70
0
0
BLOCK_RECORD
5
14A
100
AcDbSymbolTableRecord
100
AcDbBlockTableRecord
2
_U1
340
0
70
0
0
BLOCK_RECORD
5
156
100
AcDbSymbolTableRecord
100
AcDbBlockTableRecord
2
*D5
340
0
70
0
0
BLOCK_RECORD
5
162
100
AcDbSymbolTableRecord
100
AcDbBlockTableRecord
2
_U2
340
0
70
0
0
BLOCK_RECORD
5
16E
100
AcDbSymbolTableRecord
100
AcDbBlockTableRecord
2
*D7
340
0
70
0
0
BLOCK_RECORD
5
17C
100
AcDbSymbolTableRecord
100
AcDbBlockTableRecord
2
_U3
340
0
70
0
0
BLOCK_RECORD
5
188
100
AcDbSymbolTableRecord
100
AcDbBlockTableRecord
2
*D9
340
0
70
0
0
BLOCK_RECORD
5
194
100
AcDbSymbolTableRecord
100
AcDbBlockTableRecord
2
_U4
340
0
70
0
0
ENDTAB
0
ENDSEC
0
SECTION
2
BLOCKS
0
BLOCK
5
20
100
AcDbEntity
8
0
100
AcDbBlockBegin
2
*Model_Space
70
0
10
0
20
0
30
0
3
*Model_Space
0
ENDBLK
5
21
100
AcDbEntity
8
0
100
AcDbBlockEnd
0
BLOCK
5
1C
100
AcDbEntity
8
0
100
AcDbBlockBegin
2
*Paper_Space
70
0
10
0
20
0
30
0
3
*Paper_Space
0
ENDBLK
5
1D
100
AcDbEntity
8
0
100
AcDbBlockEnd
0
BLOCK
5
24
100
AcDbEntity
8
0
100
AcDbBlockBegin
2
*Paper_Space0
70
0
10
0
20
0
30
0
3
*Paper_Space0
0
ENDBLK
5
25
100
AcDbEntity
8
0
100
AcDbBlockEnd
0
BLOCK
5
127
100
AcDbEntity
8
0
100
AcDbBlockBegin
2
*D1
70
1
10
0
20
0
30
0
3
*D1
0
LINE
5
129
100
AcDbEntity
8
0
62
256
6
ByLayer
370
-2
48
1
60
0
100
AcDbLine
10
0
20
-1.5875
30
0
11
0
21
-18.413398
31
0
39
0
210
0
220
0
230
1
0
LINE
5
12A
100
AcDbEntity
8
0
62
256
6
ByLayer
370
-2
48
1
60
0
100
AcDbLine
10
134.6071
20
-7.7875
30
0
11
134.6071
21
-18.413398
31
0
39
0
210
0
220
0
230
1
0
LINE
5
12B
100
AcDbEntity
8
0
62
256
6
ByLayer
370
-2
48
1
60
0
100
AcDbLine
10
3.5
20
-16.413398
30
0
11
131.1071
21
-16.413398
31
0
39
0
210
0
220
0
230
1
0
SOLID
5
12C
100
AcDbEntity
8
0
62
256
6
ByLayer
370
-1
48
1
60
0
100
AcDbTrace
10
3.5
20
-15.830065
30
0
11
3.5
21
-16.996732
31
0
12
0
22
-16.413398
32
0
13
0
23
-16.413398
33
0
39
0
210
0
220
0
230
1
0
SOLID
5
12D
100
AcDbEntity
8
0
62
256
6
ByLayer
370
-1
48
1
60
0
100
AcDbTrace
10
131.1071
20
-16.996732
30
0
11
131.1071
21
-15.830065
31
0
12
134.6071
22
-16.413398
32
0
13
134.6071
23
-16.413398
33
0
39
0
210
0
220
0
230
1
0
MTEXT
5
12E
100
AcDbEntity
8
0
62
256
6
ByLayer
370
18
48
1
60
0
100
AcDbMText
10
67.30355
20
-9.413398
30
0
210
0
220
0
230
1
1
\A1;134.61
40
3.5
41
0
44
1
50
0
71
5
72
5
7
iso_b_vert
0
POINT
5
12F
100
AcDbEntity
8
Defpoints
62
0
6
ByLayer
370
-1
48
1
60
0
100
AcDbPoint
10
0
20
0
30
0
39
0
210
0
220
0
230
1
50
360
0
POINT
5
130
100
AcDbEntity
8
Defpoints
62
0
6
ByLayer
370
-1
48
1
60
0
100
AcDbPoint
10
134.6071
20
-6.2
30
0
39
0
210
0
220
0
230
1
50
360
0
POINT
5
131
100
AcDbEntity
8
Defpoints
62
0
6
ByLayer
370
-1
48
1
60
0
100
AcDbPoint
10
134.6071
20
-16.413398
30
0
39
0
210
0
220
0
230
1
50
360
0
ENDBLK
5
128
100
AcDbEntity
8
0
100
AcDbBlockEnd
0
BLOCK
5
139
100
AcDbEntity
8
0
100
AcDbBlockBegin
2
_U0
70
0
10
0
20
0
30
0
3
_U0
0
MTEXT
5
133
100
AcDbEntity
8
2
62
256
6
ByLayer
370
13
48
1
60
0
100
AcDbMText
10
61.549118
20
-15.380765
30
0
210
0
220
0
230
1
1
\W0.7050;134,61
40
3.5
41
0
44
1.084337
50
0
71
7
72
5
7
iso_b_vert
0
LINE
5
134
100
AcDbEntity
8
2
62
256
6
ByLayer
370
13
48
1
60
0
100
AcDbLine
10
0
20
-1.5875
30
0
11
0
21
-18.413398
31
0
39
0
210
0
220
0
230
1
0
LINE
5
135
100
AcDbEntity
8
2
62
256
6
ByLayer
370
13
48
1
60
0
100
AcDbLine
10
134.6071
20
-7.7875
30
0
11
134.6071
21
-18.413398
31
0
39
0
210
0
220
0
230
1
0
LINE
5
136
100
AcDbEntity
8
2
62
256
6
ByLayer
370
13
48
1
60
0
100
AcDbLine
10
0
20
-16.413398
30
0
11
134.6071
21
-16.413398
31
0
39
0
210
0
220
0
230
1
0
SOLID
5
137
100
AcDbEntity
8
2
62
256
6
ByLayer
370
18
48
1
60
0
100
AcDbTrace
10
0
20
-16.413398
30
0
11
3.499998
21
-15.952615
31
0
12
3.500002
22
-16.874182
32
0
13
3.500002
23
-16.874182
33
0
39
0
210
0
220
0
230
1
0
SOLID
5
138
100
AcDbEntity
8
2
62
256
6
ByLayer
370
18
48
1
60
0
100
AcDbTrace
10
134.6071
20
-16.413398
30
0
11
131.107102
21
-16.874182
31
0
12
131.107098
22
-15.952615
32
0
13
131.107098
23
-15.952615
33
0
39
0
210
0
220
0
230
1
0
ENDBLK
5
13A
100
AcDbEntity
8
0
100
AcDbBlockEnd
0
BLOCK
5
13F
100
AcDbEntity
8
0
100
AcDbBlockBegin
2
*D3
70
1
10
0
20
0
30
0
3
*D3
0
LINE
5
141
100
AcDbEntity
8
0
62
256
6
ByLayer
370
-2
48
1
60
0
100
AcDbLine
10
-45
20
-8.5875
30
0
11
-45
21
-37.692985
31
0
39
0
210
0
220
0
230
1
0
LINE
5
142
100
AcDbEntity
8
0
62
256
6
ByLayer
370
-2
48
1
60
0
100
AcDbLine
10
137
20
-1.5875
30
0
11
137
21
-37.692985
31
0
39
0
210
0
220
0
230
1
0
LINE
5
143
100
AcDbEntity
8
0
62
256
6
ByLayer
370
-2
48
1
60
0
100
AcDbLine
10
-41.5
20
-35.692985
30
0
11
133.5
21
-35.692985
31
0
39
0
210
0
220
0
230
1
0
SOLID
5
144
100
AcDbEntity
8
0
62
256
6
ByLayer
370
-1
48
1
60
0
100
AcDbTrace
10
-41.5
20
-35.109652
30
0
11
-41.5
21
-36.276319
31
0
12
-45
22
-35.692985
32
0
13
-45
23
-35.692985
33
0
39
0
210
0
220
0
230
1
0
SOLID
5
145
100
AcDbEntity
8
0
62
256
6
ByLayer
370
-1
48
1
60
0
100
AcDbTrace
10
133.5
20
-36.276319
30
0
11
133.5
21
-35.109652
31
0
12
137
22
-35.692985
32
0
13
137
23
-35.692985
33
0
39
0
210
0
220
0
230
1
0
MTEXT
5
146
100
AcDbEntity
8
0
62
256
6
ByLayer
370
18
48
1
60
0
100
AcDbMText
10
46
20
-28.692985
30
0
210
0
220
0
230
1
1
\A1;182.00
40
3.5
41
0
44
1
50
0
71
5
72
5
7
iso_b_vert
0
POINT
5
147
100
AcDbEntity
8
Defpoints
62
0
6
ByLayer
370
-1
48
1
60
0
100
AcDbPoint
10
-45
20
-7
30
0
39
0
210
0
220
0
230
1
50
360
0
POINT
5
148
100
AcDbEntity
8
Defpoints
62
0
6
ByLayer
370
-1
48
1
60
0
100
AcDbPoint
10
137
20
0
30
0
39
0
210
0
220
0
230
1
50
360
0
POINT
5
149
100
AcDbEntity
8
Defpoints
62
0
6
ByLayer
370
-1
48
1
60
0
100
AcDbPoint
10
137
20
-35.692985
30
0
39
0
210
0
220
0
230
1
50
360
0
ENDBLK
5
140
100
AcDbEntity
8
0
100
AcDbBlockEnd
0
BLOCK
5
151
100
AcDbEntity
8
0
100
AcDbBlockBegin
2
_U1
70
0
10
0
20
0
30
0
3
_U1
0
MTEXT
5
14B
100
AcDbEntity
8
SK2
62
256
6
ByLayer
370
13
48
1
60
0
100
AcDbMText
10
39.992401
20
-34.660352
30
0
210
0
220
0
230
1
1
\W0.6930;182,00
40
3.5
41
0
44
1.084337
50
0
71
7
72
5
7
iso_b_vert
0
LINE
5
14C
100
AcDbEntity
8
SK2
62
256
6
ByLayer
370
13
48
1
60
0
100
AcDbLine
10
-45
20
-8.5875
30
0
11
-45
21
-37.692985
31
0
39
0
210
0
220
0
230
1
0
LINE
5
14D
100
AcDbEntity
8
SK2
62
256
6
ByLayer
370
13
48
1
60
0
100
AcDbLine
10
137
20
-1.5875
30
0
11
137
21
-37.692985
31
0
39
0
210
0
220
0
230
1
0
LINE
5
14E
100
AcDbEntity
8
SK2
62
256
6
ByLayer
370
13
48
1
60
0
100
AcDbLine
10
-45
20
-35.692985
30
0
11
137
21
-35.692985
31
0
39
0
210
0
220
0
230
1
0
SOLID
5
14F
100
AcDbEntity
8
SK2
62
256
6
ByLayer
370
18
48
1
60
0
100
AcDbTrace
10
-45
20
-35.692985
30
0
11
-41.500002
21
-35.232202
31
0
12
-41.499998
22
-36.153769
32
0
13
-41.499998
23
-36.153769
33
0
39
0
210
0
220
0
230
1
0
SOLID
5
150
100
AcDbEntity
8
SK2
62
256
6
ByLayer
370
18
48
1
60
0
100
AcDbTrace
10
137
20
-35.692985
30
0
11
133.500002
21
-36.153769
31
0
12
133.499998
22
-35.232202
32
0
13
133.499998
23
-35.232202
33
0
39
0
210
0
220
0
230
1
0
ENDBLK
5
152
100
AcDbEntity
8
0
100
AcDbBlockEnd
0
BLOCK
5
157
100
AcDbEntity
8
0
100
AcDbBlockBegin
2
*D5
70
1
10
0
20
0
30
0
3
*D5
0
LINE
5
159
100
AcDbEntity
8
0
62
256
6
ByLayer
370
-2
48
1
60
0
100
AcDbLine
10
35.41
20
7.7875
30
0
11
35.41
21
19.809119
31
0
39
0
210
0
220
0
230
1
0
LINE
5
15A
100
AcDbEntity
8
0
62
256
6
ByLayer
370
-2
48
1
60
0
100
AcDbLine
10
137
20
1.5875
30
0
11
137
21
19.809119
31
0
39
0
210
0
220
0
230
1
0
LINE
5
15B
100
AcDbEntity
8
0
62
256
6
ByLayer
370
-2
48
1
60
0
100
AcDbLine
10
38.91
20
17.809119
30
0
11
133.5
21
17.809119
31
0
39
0
210
0
220
0
230
1
0
SOLID
5
15C
100
AcDbEntity
8
0
62
256
6
ByLayer
370
-1
48
1
60
0
100
AcDbTrace
10
38.91
20
18.392453
30
0
11
38.91
21
17.225786
31
0
12
35.41
22
17.809119
32
0
13
35.41
23
17.809119
33
0
39
0
210
0
220
0
230
1
0
SOLID
5
15D
100
AcDbEntity
8
0
62
256
6
ByLayer
370
-1
48
1
60
0
100
AcDbTrace
10
133.5
20
17.225786
30
0
11
133.5
21
18.392453
31
0
12
137
22
17.809119
32
0
13
137
23
17.809119
33
0
39
0
210
0
220
0
230
1
0
MTEXT
5
15E
100
AcDbEntity
8
0
62
256
6
ByLayer
370
18
48
1
60
0
100
AcDbMText
10
86.205
20
24.809119
30
0
210
0
220
0
230
1
1
\A1;101.59
40
3.5
41
0
44
1
50
0
71
5
72
5
7
iso_b_vert
0
POINT
5
15F
100
AcDbEntity
8
Defpoints
62
0
6
ByLayer
370
-1
48
1
60
0
100
AcDbPoint
10
35.41
20
6.2
30
0
39
0
210
0
220
0
230
1
50
360
0
POINT
5
160
100
AcDbEntity
8
Defpoints
62
0
6
ByLayer
370
-1
48
1
60
0
100
AcDbPoint
10
137
20
0
30
0
39
0
210
0
220
0
230
1
50
360
0
POINT
5
161
100
AcDbEntity
8
Defpoints
62
0
6
ByLayer
370
-1
48
1
60
0
100
AcDbPoint
10
137
20
17.809119
30
0
39
0
210
0
220
0
230
1
50
360
0
ENDBLK
5
158
100
AcDbEntity
8
0
100
AcDbBlockEnd
0
BLOCK
5
169
100
AcDbEntity
8
0
100
AcDbBlockBegin
2
_U2
70
0
10
0
20
0
30
0
3
_U2
0
MTEXT
5
163
100
AcDbEntity
8
SK2
62
256
6
ByLayer
370
13
48
1
60
0
100
AcDbMText
10
80.634835
20
18.841753
30
0
210
0
220
0
230
1
1
\W0.6501;101,59
40
3.5
41
0
44
1.084337
50
0
71
7
72
5
7
iso_b_vert
0
LINE
5
164
100
AcDbEntity
8
SK2
62
256
6
ByLayer
370
13
48
1
60
0
100
AcDbLine
10
35.41
20
7.7875
30
0
11
35.41
21
19.809119
31
0
39
0
210
0
220
0
230
1
0
LINE
5
165
100
AcDbEntity
8
SK2
62
256
6
ByLayer
370
13
48
1
60
0
100
AcDbLine
10
137
20
1.5875
30
0
11
137
21
19.809119
31
0
39
0
210
0
220
0
230
1
0
LINE
5
166
100
AcDbEntity
8
SK2
62
256
6
ByLayer
370
13
48
1
60
0
100
AcDbLine
10
35.41
20
17.809119
30
0
11
137
21
17.809119
31
0
39
0
210
0
220
0
230
1
0
SOLID
5
167
100
AcDbEntity
8
SK2
62
256
6
ByLayer
370
18
48
1
60
0
100
AcDbTrace
10
35.41
20
17.809119
30
0
11
38.909998
21
18.269903
31
0
12
38.910002
22
17.348335
32
0
13
38.910002
23
17.348335
33
0
39
0
210
0
220
0
230
1
0
SOLID
5
168
100
AcDbEntity
8
SK2
62
256
6
ByLayer
370
18
48
1
60
0
100
AcDbTrace
10
137
20
17.809119
30
0
11
133.500002
21
17.348335
31
0
12
133.499998
22
18.269903
32
0
13
133.499998
23
18.269903
33
0
39
0
210
0
220
0
230
1
0
ENDBLK
5
16A
100
AcDbEntity
8
0
100
AcDbBlockEnd
0
BLOCK
5
16F
100
AcDbEntity
8
0
100
AcDbBlockBegin
2
*D7
70
1
10
0
20
0
30
0
3
*D7
0
LINE
5
171
100
AcDbEntity
8
0
62
256
6
ByLayer
370
-2
48
1
60
0
100
AcDbLine
10
137
20
-1.5875
30
0
11
137
21
-21.002503
31
0
39
0
210
0
220
0
230
1
0
LINE
5
172
100
AcDbEntity
8
0
62
256
6
ByLayer
370
-2
48
1
60
0
100
AcDbLine
10
134.6071
20
-7.7875
30
0
11
134.6071
21
-21.002503
31
0
39
0
210
0
220
0
230
1
0
LINE
5
173
100
AcDbEntity
8
0
62
256
6
ByLayer
370
-2
48
1
60
0
100
AcDbLine
10
137
20
-19.002503
30
0
11
165
21
-19.002503
31
0
39
0
210
0
220
0
230
1
0
LINE
5
174
100
AcDbEntity
8
0
62
256
6
ByLayer
370
-2
48
1
60
0
100
AcDbLine
10
140.5
20
-19.002503
30
0
11
144
21
-19.002503
31
0
39
0
210
0
220
0
230
1
0
LINE
5
175
100
AcDbEntity
8
0
62
256
6
ByLayer
370
-2
48
1
60
0
100
AcDbLine
10
131.1071
20
-19.002503
30
0
11
127.6071
21
-19.002503
31
0
39
0
210
0
220
0
230
1
0
SOLID
5
176
100
AcDbEntity
8
0
62
256
6
ByLayer
370
-1
48
1
60
0
100
AcDbTrace
10
140.5
20
-18.41917
30
0
11
140.5
21
-19.585837
31
0
12
137
22
-19.002503
32
0
13
137
23
-19.002503
33
0
39
0
210
0
220
0
230
1
0
SOLID
5
177
100
AcDbEntity
8
0
62
256
6
ByLayer
370
-1
48
1
60
0
100
AcDbTrace
10
131.1071
20
-19.585837
30
0
11
131.1071
21
-18.41917
31
0
12
134.6071
22
-19.002503
32
0
13
134.6071
23
-19.002503
33
0
39
0
210
0
220
0
230
1
0
MTEXT
5
178
100
AcDbEntity
8
0
62
256
6
ByLayer
370
18
48
1
60
0
100
AcDbMText
10
154.5
20
-12.002503
30
0
210
0
220
0
230
1
1
\A1;2.39
40
3.5
41
0
44
1
50
0
71
5
72
5
7
iso_b_vert
0
POINT
5
179
100
AcDbEntity
8
Defpoints
62
0
6
ByLayer
370
-1
48
1
60
0
100
AcDbPoint
10
137
20
0
30
0
39
0
210
0
220
0
230
1
50
360
0
POINT
5
17A
100
AcDbEntity
8
Defpoints
62
0
6
ByLayer
370
-1
48
1
60
0
100
AcDbPoint
10
134.6071
20
-6.2
30
0
39
0
210
0
220
0
230
1
50
360
0
POINT
5
17B
100
AcDbEntity
8
Defpoints
62
0
6
ByLayer
370
-1
48
1
60
0
100
AcDbPoint
10
134.6071
20
-19.002503
30
0
39
0
210
0
220
0
230
1
50
360
0
ENDBLK
5
170
100
AcDbEntity
8
0
100
AcDbBlockEnd
0
BLOCK
5
183
100
AcDbEntity
8
0
100
AcDbBlockBegin
2
_U3
70
0
10
0
20
0
30
0
3
_U3
0
MTEXT
5
17D
100
AcDbEntity
8
SK2
62
256
6
ByLayer
370
13
48
1
60
0
100
AcDbMText
10
143.15186
20
-17.96987
30
0
210
0
220
0
230
1
1
\W0.7259;2,39
40
3.5
41
0
44
1.084337
50
0
71
7
72
5
7
iso_b_vert
0
LINE
5
17E
100
AcDbEntity
8
SK2
62
256
6
ByLayer
370
13
48
1
60
0
100
AcDbLine
10
137
20
-1.5875
30
0
11
137
21
-21.002503
31
0
39
0
210
0
220
0
230
1
0
LINE
5
17F
100
AcDbEntity
8
SK2
62
256
6
ByLayer
370
13
48
1
60
0
100
AcDbLine
10
134.6071
20
-7.7875
30
0
11
134.6071
21
-21.002503
31
0
39
0
210
0
220
0
230
1
0
LINE
5
180
100
AcDbEntity
8
SK2
62
256
6
ByLayer
370
13
48
1
60
0
100
AcDbLine
10
125.8571
20
-19.002503
30
0
11
150.996491
21
-19.002503
31
0
39
0
210
0
220
0
230
1
0
SOLID
5
181
100
AcDbEntity
8
SK2
62
256
6
ByLayer
370
18
48
1
60
0
100
AcDbTrace
10
137
20
-19.002503
30
0
11
140.499998
21
-18.541719
31
0
12
140.500002
22
-19.463287
32
0
13
140.500002
23
-19.463287
33
0
39
0
210
0
220
0
230
1
0
SOLID
5
182
100
AcDbEntity
8
SK2
62
256
6
ByLayer
370
18
48
1
60
0
100
AcDbTrace
10
134.6071
20
-19.002503
30
0
11
131.107102
21
-19.463287
31
0
12
131.107098
22
-18.541719
32
0
13
131.107098
23
-18.541719
33
0
39
0
210
0
220
0
230
1
0
ENDBLK
5
184
100
AcDbEntity
8
0
100
AcDbBlockEnd
0
BLOCK
5
189
100
AcDbEntity
8
0
100
AcDbBlockBegin
2
*D9
70
1
10
0
20
0
30
0
3
*D9
0
LINE
5
18B
100
AcDbEntity
8
0
62
256
6
ByLayer
370
-2
48
1
60
0
100
AcDbLine
10
-45
20
-8.5875
30
0
11
-45
21
-27.343428
31
0
39
0
210
0
220
0
230
1
0
LINE
5
18C
100
AcDbEntity
8
0
62
256
6
ByLayer
370
-2
48
1
60
0
100
AcDbLine
10
134.6071
20
-7.7875
30
0
11
134.6071
21
-27.343428
31
0
39
0
210
0
220
0
230
1
0
LINE
5
18D
100
AcDbEntity
8
0
62
256
6
ByLayer
370
-2
48
1
60
0
100
AcDbLine
10
-41.5
20
-25.343428
30
0
11
131.1071
21
-25.343428
31
0
39
0
210
0
220
0
230
1
0
SOLID
5
18E
100
AcDbEntity
8
0
62
256
6
ByLayer
370
-1
48
1
60
0
100
AcDbTrace
10
-41.5
20
-24.760095
30
0
11
-41.5
21
-25.926762
31
0
12
-45
22
-25.343428
32
0
13
-45
23
-25.343428
33
0
39
0
210
0
220
0
230
1
0
SOLID
5
18F
100
AcDbEntity
8
0
62
256
6
ByLayer
370
-1
48
1
60
0
100
AcDbTrace
10
131.1071
20
-25.926762
30
0
11
131.1071
21
-24.760095
31
0
12
134.6071
22
-25.343428
32
0
13
134.6071
23
-25.343428
33
0
39
0
210
0
220
0
230
1
0
MTEXT
5
190
100
AcDbEntity
8
0
62
256
6
ByLayer
370
18
48
1
60
0
100
AcDbMText
10
44.80355
20
-18.343428
30
0
210
0
220
0
230
1
1
\A1;179.61
40
3.5
41
0
44
1
50
0
71
5
72
5
7
iso_b_vert
0
POINT
5
191
100
AcDbEntity
8
Defpoints
62
0
6
ByLayer
370
-1
48
1
60
0
100
AcDbPoint
10
-45
20
-7
30
0
39
0
210
0
220
0
230
1
50
360
0
POINT
5
192
100
AcDbEntity
8
Defpoints
62
0
6
ByLayer
370
-1
48
1
60
0
100
AcDbPoint
10
134.6071
20
-6.2
30
0
39
0
210
0
220
0
230
1
50
360
0
POINT
5
193
100
AcDbEntity
8
Defpoints
62
0
6
ByLayer
370
-1
48
1
60
0
100
AcDbPoint
10
134.6071
20
-25.343428
30
0
39
0
210
0
220
0
230
1
50
360
0
ENDBLK
5
18A
100
AcDbEntity
8
0
100
AcDbBlockEnd
0
BLOCK
5
19B
100
AcDbEntity
8
0
100
AcDbBlockBegin
2
_U4
70
0
10
0
20
0
30
0
3
_U4
0
MTEXT
5
195
100
AcDbEntity
8
SK2
62
256
6
ByLayer
370
13
48
1
60
0
100
AcDbMText
10
39.233385
20
-24.310795
30
0
210
0
220
0
230
1
1
\W0.6822;179,61
40
3.5
41
0
44
1.084337
50
0
71
7
72
5
7
iso_b_vert
0
LINE
5
196
100
AcDbEntity
8
SK2
62
256
6
ByLayer
370
13
48
1
60
0
100
AcDbLine
10
-45
20
-8.5875
30
0
11
-45
21
-27.343428
31
0
39
0
210
0
220
0
230
1
0
LINE
5
197
100
AcDbEntity
8
SK2
62
256
6
ByLayer
370
13
48
1
60
0
100
AcDbLine
10
134.6071
20
-7.7875
30
0
11
134.6071
21
-27.343428
31
0
39
0
210
0
220
0
230
1
0
LINE
5
198
100
AcDbEntity
8
SK2
62
256
6
ByLayer
370
13
48
1
60
0
100
AcDbLine
10
-45
20
-25.343428
30
0
11
134.6071
21
-25.343428
31
0
39
0
210
0
220
0
230
1
0
SOLID
5
199
100
AcDbEntity
8
SK2
62
256
6
ByLayer
370
18
48
1
60
0
100
AcDbTrace
10
-45
20
-25.343428
30
0
11
-41.500002
21
-24.882645
31
0
12
-41.499998
22
-25.804212
32
0
13
-41.499998
23
-25.804212
33
0
39
0
210
0
220
0
230
1
0
SOLID
5
19A
100
AcDbEntity
8
SK2
62
256
6
ByLayer
370
18
48
1
60
0
100
AcDbTrace
10
134.6071
20
-25.343428
30
0
11
131.107102
21
-25.804212
31
0
12
131.107098
22
-24.882645
32
0
13
131.107098
23
-24.882645
33
0
39
0
210
0
220
0
230
1
0
ENDBLK
5
19C
100
AcDbEntity
8
0
100
AcDbBlockEnd
0
ENDSEC
0
SECTION
2
ENTITIES
0
ARC
5
AC
100
AcDbEntity
8
1
62
256
6
ByLayer
370
18
48
1
60
0
100
AcDbCircle
39
0
10
1.56643
20
-6.810528
30
0
40
0.850000000000001
210
0
220
0
230
1
100
AcDbArc
50
89.896868
51
157.135944
0
ARC
5
AD
100
AcDbEntity
8
1
62
256
6
ByLayer
370
18
48
1
60
0
100
AcDbCircle
39
0
10
1.56643
20
6.810528
30
0
40
0.850000000000001
210
0
220
0
230
1
100
AcDbArc
50
202.864056
51
270.103132
0
ARC
5
AE
100
AcDbEntity
8
1
62
256
6
ByLayer
370
18
48
1
60
0
100
AcDbCircle
39
0
10
0
20
-6.15
30
0
40
0.850000000000001
210
0
220
0
230
1
100
AcDbArc
50
270
51
337.135944
0
ARC
5
AF
100
AcDbEntity
8
1
62
256
6
ByLayer
370
18
48
1
60
0
100
AcDbCircle
39
0
10
0
20
6.15
30
0
40
0.850000000000001
210
0
220
0
230
1
100
AcDbArc
50
22.864056
51
90
0
ELLIPSE
5
B0
100
AcDbEntity
8
1
62
256
6
ByLayer
370
13
48
1
60
0
100
AcDbEllipse
10
19.28054
20
67.879053
30
0
11
-44.9930360900483
21
58.7724753891856
31
0
210
0
220
0
230
1
40
0.748423
41
2.25029135472186
42
2.34488482763862
0
ELLIPSE
5
B1
100
AcDbEntity
8
1
62
256
6
ByLayer
370
13
48
1
60
0
100
AcDbEllipse
10
5.702237
20
-0.361216
30
0
11
-0.124936519819096
21
-0.272746890019836
31
0
210
0
220
0
230
1
40
0.439436
41
-1.42829747450511
42
-1.05635579731072
0
ELLIPSE
5
B2
100
AcDbEntity
8
1
62
256
6
ByLayer
370
13
48
1
60
0
100
AcDbEllipse
10
17.086226
20
-66.199205
30
0
11
44.9930360900485
21
58.7724753891856
31
0
210
0
220
0
230
1
40
0.748423
41
0.949115178660883
42
0.971383615977057
0
ELLIPSE
5
B3
100
AcDbEntity
8
1
62
256
6
ByLayer
370
13
48
1
60
0
100
AcDbEllipse
10
6.02183
20
-0.514241
30
0
11
0.134784043872232
21
0.26801727839348
31
0
210
0
220
0
230
1
40
0.036179
41
1.49464559204849
42
2.52143786298166
0
ELLIPSE
5
B4
100
AcDbEntity
8
1
62
256
6
ByLayer
370
13
48
1
60
0
100
AcDbEllipse
10
181.194174
20
41.339538
30
0
11
-59.8999999999999
21
7.33539205939603E-15
31
0
210
0
220
0
230
1
40
0.99863
41
0.703946910132246
42
0.727991051178334
0
ELLIPSE
5
B5
100
AcDbEntity
8
1
62
256
6
ByLayer
370
18
48
1
60
0
100
AcDbEllipse
10
6.020464
20
6.820111
30
0
11
1
21
0
31
0
210
0
220
0
230
1
40
0.999946
41
-2.11624155832027
42
-1.56491030699006
0
ELLIPSE
5
B6
100
AcDbEntity
8
1
62
256
6
ByLayer
370
18
48
1
60
0
100
AcDbEllipse
10
6.020464
20
-6.820111
30
0
11
1
21
0
31
0
210
0
220
0
230
1
40
0.999946
41
1.57158638027307
42
2.11546688126781
0
POINT
5
70
100
AcDbEntity
8
80
62
256
6
ByLayer
370
18
48
1
60
0
100
AcDbPoint
10
0
20
0
30
0
39
0
210
0
220
0
230
1
50
360
0
POINT
5
72
100
AcDbEntity
8
81
62
256
6
ByLayer
370
18
48
1
60
0
100
AcDbPoint
10
137
20
0
30
0
39
0
210
0
220
0
230
1
50
360
0
POINT
5
74
100
AcDbEntity
8
1
62
256
6
ByLayer
370
18
48
1
60
1
100
AcDbPoint
10
134.6071
20
-6.2
30
0
39
0
210
0
220
0
230
1
50
360
0
POINT
5
76
100
AcDbEntity
8
1
62
256
6
ByLayer
370
18
48
1
60
1
100
AcDbPoint
10
-45
20
-7
30
0
39
0
210
0
220
0
230
1
50
360
0
POINT
5
77
100
AcDbEntity
8
1
62
256
6
ByLayer
370
18
48
1
60
1
100
AcDbPoint
10
35.41
20
6.2
30
0
39
0
210
0
220
0
230
1
50
360
0
POINT
5
78
100
AcDbEntity
8
1
62
256
6
ByLayer
370
18
48
1
60
1
100
AcDbPoint
10
134.6071
20
-6.2
30
0
39
0
210
0
220
0
230
1
50
360
0
POINT
5
79
100
AcDbEntity
8
1
62
256
6
ByLayer
370
18
48
1
60
1
100
AcDbPoint
10
-45
20
-7
30
0
39
0
210
0
220
0
230
1
50
360
0
POINT
5
7A
100
AcDbEntity
8
1
62
256
6
ByLayer
370
18
48
1
60
1
100
AcDbPoint
10
134.6071
20
-6.2
30
0
39
0
210
0
220
0
230
1
50
360
0
SPLINE
5
B7
100
AcDbEntity
8
1
62
256
6
ByLayer
370
13
48
1
60
0
100
AcDbSpline
70
4
71
3
72
16
73
12
40
0
40
0
40
0
40
0
40
0.0029530872212288
40
0.0029530872212288
40
0.385917366737426
40
0.385917366737426
40
0.768881646253623
40
0.768881646253623
40
0.960363786011723
40
0.960363786011723
40
1
40
1
40
1
40
1
41
1
10
6.02304317986645
20
-5.82048404228341
30
0
41
1
10
6.02304346395139
20
-5.82048308295992
30
0
41
1
10
6.0230437015083
20
-5.82048130993226
30
0
41
1
10
6.0230768939789
20
-5.82012060474312
30
0
41
1
10
6.02310568063319
20
-5.80413676496579
30
0
41
1
10
6.02315117394733
20
-5.74135101768744
30
0
41
1
10
6.02316789222772
20
-5.6945516992898
30
0
41
1
10
6.02318067059088
20
-5.60042962770271
30
0
41
1
10
6.02318285523324
20
-5.5650833615199
30
0
41
1
10
6.02318268120038
20
-5.51795063714937
30
0
41
1
10
6.02318255202505
20
-5.50970582098478
30
0
41
1
10
6.02318232153419
20
-5.5012992749048
30
0
0
SPLINE
5
B8
100
AcDbEntity
8
1
62
256
6
ByLayer
370
18
48
1
60
0
100
AcDbSpline
70
4
71
3
72
8
73
4
40
0
40
0
40
0
40
0
40
1
40
1
40
1
40
1
41
1
10
136.999779822847
20
0.0986006959307701
30
0
41
1
10
137.000073392385
20
0.0328668986475407
30
0
41
1
10
137.000073392385
20
-0.0328668986358025
30
0
41
1
10
136.999779822847
20
-0.098600695919032
30
0
0
SPLINE
5
B9
100
AcDbEntity
8
1
62
256
6
ByLayer
370
18
48
1
60
0
100
AcDbSpline
70
4
71
3
72
8
73
4
40
0
40
0
40
0
40
0
40
1
40
1
40
1
40
1
41
1
10
6.18344426534651
20
-5.42638554270107
30
0
41
1
10
6.10584538058379
20
-5.45824025228936
30
0
41
1
10
6.02863406751845
20
-5.48981152700156
30
0
41
1
10
5.95181073093821
20
-5.52109678484305
30
0
0
SPLINE
5
BA
100
AcDbEntity
8
1
62
256
6
ByLayer
370
18
48
1
60
0
100
AcDbSpline
70
4
71
3
72
8
73
4
40
0
40
0
40
0
40
0
40
1
40
1
40
1
40
1
41
1
10
136.478068802859
20
-1.53841963427684
30
0
41
1
10
136.190682376368
20
-2.36946905783168
30
0
41
1
10
135.905410046123
20
-3.201240190325
30
0
41
1
10
135.622262875891
20
-4.03373680869976
30
0
0
SPLINE
5
BB
100
AcDbEntity
8
1
62
256
6
ByLayer
370
13
48
1
60
0
100
AcDbSpline
70
4
71
3
72
30
73
26
40
0
40
0
40
0
40
0
40
0.139791065930642
40
0.139791065930642
40
0.279582131861284
40
0.279582131861284
40
0.314529898343945
40
0.314529898343945
40
0.349477664826606
40
0.349477664826606
40
0.419373197791924
40
0.419373197791924
40
0.559164263722559
40
0.559164263722559
40
0.629059796687876
40
0.629059796687876
40
0.664007563170534
40
0.664007563170534
40
0.698955329653192
40
0.698955329653192
40
0.838746395583827
40
0.838746395583827
40
0.978537461514463
40
0.978537461514463
40
1
40
1
40
1
40
1
41
1
10
134.698901939296
20
-5.78120150958415
30
0
41
1
10
133.355192267958
20
-5.58087542869902
30
0
41
1
10
132.027101804975
20
-5.27673684833994
30
0
41
1
10
129.374678950974
20
-4.49482205805842
30
0
41
1
10
128.050250651364
20
-4.01699934368358
30
0
41
1
10
126.379583533779
20
-3.33476921387401
30
0
41
1
10
126.044688673788
20
-3.19408058137893
30
0
41
1
10
125.37289648528
20
-2.90491067529479
30
0
41
1
10
125.035585435318
20
-2.75625054213251
30
0
41
1
10
124.028195182252
20
-2.3034580219917
30
0
41
1
10
123.360193385384
20
-1.99142799522139
30
0
41
1
10
121.361612220233
20
-1.03568634532513
30
0
41
1
10
120.036407798962
20
-0.372383586536159
30
0
41
1
10
118.038352287335
20
0.618560738377624
30
0
41
1
10
117.370644185409
20
0.948249048676303
30
0
41
1
10
116.363831445394
20
1.43621581990934
30
0
41
1
10
116.026712657134
20
1.59811026581423
30
0
41
1
10
115.353669918884
20
1.91712119532804
30
0
41
1
10
115.018107445393
20
2.07407553994747
30
0
41
1
10
113.343987262
20
2.84422471355106
30
0
41
1
10
112.016406121782
20
3.41318475891825
30
0
41
1
10
109.356643343101
20
4.41020556074582
30
0
41
1
10
108.024576190925
20
4.83824325356159
30
0
41
1
10
106.46900414316
20
5.22563832892877
30
0
41
1
10
106.262274970885
20
5.27482502850805
30
0
41
1
10
106.05583652629
20
5.32161692412808
30
0
0
SPLINE
5
BC
100
AcDbEntity
8
1
62
256
6
ByLayer
370
18
48
1
60
0
100
AcDbSpline
70
4
71
3
72
10
73
6
40
0
40
0
40
0
40
0
40
0.679073062273392
40
0.679073062273392
40
1
40
1
40
1
40
1
41
1
10
62.0636058090803
20
-5.91939105197849
30
0
41
1
10
61.5124663229317
20
-5.91659445636489
30
0
41
1
10
60.9602806348228
20
-5.8954349350816
30
0
41
1
10
60.1441004998699
20
-5.83706708586394
30
0
41
1
10
59.8814212616171
20
-5.81416530509705
30
0
41
1
10
59.6186435518555
20
-5.78718819513682
30
0
0
SPLINE
5
BD
100
AcDbEntity
8
1
62
256
6
ByLayer
370
13
48
1
60
0
100
AcDbSpline
70
4
71
3
72
38
73
34
40
0
40
0
40
0
40
0
40
0.007569191321261
40
0.007569191321261
40
0.0416475790595048
40
0.0416475790595048
40
0.17796113001248
40
0.17796113001248
40
0.246117905488967
40
0.246117905488967
40
0.280196293227211
40
0.280196293227211
40
0.314274680965456
40
0.314274680965456
40
0.450588231918431
40
0.450588231918431
40
0.586901782871407
40
0.586901782871407
40
0.620980170609651
40
0.620980170609651
40
0.655058558347895
40
0.655058558347895
40
0.723215333824382
40
0.723215333824382
40
0.859528884777357
40
0.859528884777357
40
0.893607272515601
40
0.893607272515601
40
0.927685660253845
40
0.927685660253845
40
0.995842435730333
40
0.995842435730333
40
1
40
1
40
1
40
1
41
1
10
59.6186435522305
20
-5.78718819517527
30
0
41
1
10
59.5436124299017
20
-5.77948540014353
30
0
41
1
10
59.4685732794052
20
-5.77145035239971
30
0
41
1
10
59.0557277959046
20
-5.7254234992968
30
0
41
1
10
58.7187929349987
20
-5.68117272757164
30
0
41
1
10
57.0373574579133
20
-5.4280308188236
30
0
41
1
10
55.702706700783
20
-5.12324171204415
30
0
41
1
10
53.6955334465343
20
-4.53538253426453
30
0
41
1
10
53.0256586024452
20
-4.31766276473107
30
0
41
1
10
52.0169001980108
20
-3.96170049227922
30
0
41
1
10
51.6800066566992
20
-3.83813423418624
30
0
41
1
10
51.0044930261469
20
-3.5817672008684
30
0
41
1
10
50.6660214212775
20
-3.44904516473628
30
0
41
1
10
48.9808773191704
20
-2.76924521609359
30
0
41
1
10
47.6458151789817
20
-2.16986213172135
30
0
41
1
10
44.9737659569217
20
-0.915955884825593
30
0
41
1
10
43.6370832838392
20
-0.260865243068423
30
0
41
1
10
41.9477295101183
20
0.55672474252836
30
0
41
1
10
41.6090244183272
20
0.720177068383123
30
0
41
1
10
40.9345691894985
20
1.04353625774093
30
0
41
1
10
40.5981486886463
20
1.20371709125428
30
0
41
1
10
39.590676032361
20
1.67852029503536
30
0
41
1
10
38.9214709847142
20
1.9875324617289
30
0
41
1
10
36.915769713472
20
2.88156996693527
30
0
41
1
10
35.5814593798708
20
3.4340873042369
30
0
41
1
10
33.8997205069245
20
4.03821459328776
30
0
41
1
10
33.5627128078325
20
4.15478321902111
30
0
41
1
10
32.8868519982075
20
4.37845865121923
30
0
41
1
10
32.5478581244336
20
4.48554850007932
30
0
41
1
10
31.5353439643311
20
4.78941580422651
30
0
41
1
10
30.8637006912003
20
4.9695895621654
30
0
41
1
10
30.1527081799488
20
5.13526664101016
30
0
41
1
10
30.1118370686439
20
5.14470265897384
30
0
41
1
10
30.0709715083296
20
5.15404915590105
30
0
0
SPLINE
5
BE
100
AcDbEntity
8
1
62
256
6
ByLayer
370
18
48
1
60
0
100
AcDbSpline
70
4
71
3
72
22
73
18
40
0
40
0
40
0
40
0
40
0.250000000000001
40
0.250000000000001
40
0.375000000000002
40
0.375000000000002
40
0.437500000000002
40
0.437500000000002
40
0.500000000000002
40
0.500000000000002
40
0.750000000000001
40
0.750000000000001
40
0.812500000000001
40
0.812500000000001
40
0.875000000000001
40
0.875000000000001
40
1
40
1
40
1
40
1
41
1
10
134.698901939296
20
-5.78120150958415
30
0
41
1
10
134.578218158262
20
-5.67472621963202
30
0
41
1
10
134.471001357642
20
-5.53800719186117
30
0
41
1
10
134.331086664378
20
-5.28596846373091
30
0
41
1
10
134.287953341405
20
-5.19408433758088
30
0
41
1
10
134.22880858374
20
-5.04378238782817
30
0
41
1
10
134.209977148862
20
-4.99144776304098
30
0
41
1
10
134.174594709477
20
-4.88359623488185
30
0
41
1
10
134.158008260983
20
-4.82801432982356
30
0
41
1
10
134.080554806561
20
-4.54189166012807
30
0
41
1
10
134.035981999615
20
-4.28692457928582
30
0
41
1
10
134.002695849491
20
-3.934591564306
30
0
41
1
10
133.99716917747
20
-3.86243016383477
30
0
41
1
10
133.988432737889
20
-3.7146341365592
30
0
41
1
10
133.985223179773
20
-3.63883625539768
30
0
41
1
10
133.97921242568
20
-3.4083246800285
30
0
41
1
10
133.979969968876
20
-3.24998262943646
30
0
41
1
10
133.985444659061
20
-3.08701950863843
30
0
0
SPLINE
5
BF
100
AcDbEntity
8
1
62
256
6
ByLayer
370
18
48
1
60
0
100
AcDbSpline
70
4
71
3
72
36
73
32
40
0
40
0
40
0
40
0
40
0.0745024865053207
40
0.0745024865053207
40
0.177335543560285
40
0.177335543560285
40
0.28016860061525
40
0.28016860061525
40
0.383001657670215
40
0.383001657670215
40
0.485834714725179
40
0.485834714725179
40
0.588667771780144
40
0.588667771780144
40
0.640084300307626
40
0.640084300307626
40
0.691500828835108
40
0.691500828835108
40
0.742917357362591
40
0.742917357362591
40
0.768625621626331
40
0.768625621626331
40
0.794333885890072
40
0.794333885890072
40
0.897166942945036
40
0.897166942945036
40
0.922875207208777
40
0.922875207208777
40
0.948583471472518
40
0.948583471472518
40
1
40
1
40
1
40
1
41
1
10
11.117922715223
20
-4.37218730201204
30
0
41
1
10
10.9365785490572
20
-4.44272733363289
30
0
41
1
10
10.7561160245918
20
-4.51242011436435
30
0
41
1
10
10.3287868844964
20
-4.67606943421265
30
0
41
1
10
10.0821128662743
20
-4.76946779935281
30
0
41
1
10
9.59638504308685
20
-4.95028780848708
30
0
41
1
10
9.35747874834303
20
-5.03765097148951
30
0
41
1
10
8.88899630661652
20
-5.20451891043231
30
0
41
1
10
8.65919865517776
20
-5.28412260155625
30
0
41
1
10
8.21163126812343
20
-5.432829656769
30
0
41
1
10
7.99573314265049
20
-5.50132703793983
30
0
41
1
10
7.58318997936237
20
-5.62304438630977
30
0
41
1
10
7.38648809393371
20
-5.67631933465699
30
0
41
1
10
7.11020410402352
20
-5.74042049294334
30
0
41
1
10
7.02104233644656
20
-5.75915263567643
30
0
41
1
10
6.85282726169945
20
-5.78972744583976
30
0
41
1
10
6.77345829397933
20
-5.80165600691595
30
0
41
1
10
6.62540940271123
20
-5.81776818655018
30
0
41
1
10
6.55672239154202
20
-5.82195733392845
30
0
41
1
10
6.46296366408552
20
-5.82139001695893
30
0
41
1
10
6.43317445741184
20
-5.82004240160055
30
0
41
1
10
6.37763561582679
20
-5.81491244162967
30
0
41
1
10
6.35182464896596
20
-5.8111379271418
30
0
41
1
10
6.23283684847229
20
-5.7859992980155
30
0
41
1
10
6.16953911302727
20
-5.74603251509367
30
0
41
1
10
6.13750317847956
20
-5.66605467615381
30
0
41
1
10
6.13350645617828
20
-5.64854249958256
30
0
41
1
10
6.1304749601164
20
-5.61105142639866
30
0
41
1
10
6.1314060901318
20
-5.59100527699724
30
0
41
1
10
6.14141857379337
20
-5.52701704698467
30
0
41
1
10
6.15770616219538
20
-5.47923078648205
30
0
41
1
10
6.18344426534651
20
-5.4263855427011
30
0
0
SPLINE
5
C0
100
AcDbEntity
8
1
62
256
6
ByLayer
370
18
48
1
60
0
100
AcDbSpline
70
4
71
3
72
8
73
4
40
0
40
0
40
0
40
0
40
1
40
1
40
1
40
1
41
1
10
135.532789149906
20
2.62350742143278
30
0
41
1
10
135.540921571322
20
2.67057866508498
30
0
41
1
10
135.543131057422
20
2.71924765365844
30
0
41
1
10
135.539835817097
20
2.76746194543216
30
0
0
SPLINE
5
C1
100
AcDbEntity
8
1
62
256
6
ByLayer
370
18
48
1
60
0
100
AcDbSpline
70
4
71
3
72
8
73
4
40
0
40
0
40
0
40
0
40
1
40
1
40
1
40
1
41
1
10
136.999779822847
20
0.0986006959307133
30
0
41
1
10
136.819365094632
20
0.57245573428915
30
0
41
1
10
136.646061497099
20
1.05262692160525
30
0
41
1
10
136.478068802859
20
1.53841963427641
30
0
0
SPLINE
5
C2
100
AcDbEntity
8
1
62
256
6
ByLayer
370
18
48
1
60
0
100
AcDbSpline
70
4
71
4
72
10
73
5
40
0
40
0
40
0
40
0
40
0
40
1
40
1
40
1
40
1
40
1
41
1
10
20.4288623517357
20
5.9224708989463
30
0
41
1
10
20.1417817029519
20
5.12049003376998
30
0
41
1
10
19.854701054168
20
4.31850916859369
30
0
41
1
10
19.5676204053842
20
3.5165283034174
30
0
41
1
10
19.2805397566003
20
2.71454743824111
30
0
0
SPLINE
5
C3
100
AcDbEntity
8
1
62
256
6
ByLayer
370
18
48
1
60
0
100
AcDbSpline
70
4
71
3
72
8
73
4
40
0
40
0
40
0
40
0
40
1
40
1
40
1
40
1
41
1
10
5.49673824437582
20
-0.322968932982462
30
0
41
1
10
5.49672919737597
20
-0.367679509576277
30
0
41
1
10
5.51283406747075
20
-0.409944420739834
30
0
41
1
10
5.53641997806315
20
-0.447625384338266
30
0
0
SPLINE
5
C4
100
AcDbEntity
8
1
62
256
6
ByLayer
370
18
48
1
60
0
100
AcDbSpline
70
4
71
3
72
10
73
6
40
0
40
0
40
0
40
0
40
0.5
40
0.5
40
1
40
1
40
1
40
1
41
1
10
134.717537444406
20
-6.00507724489043
30
0
41
1
10
134.724759740903
20
-5.97730713626675
30
0
41
1
10
134.730735333107
20
-5.95034851185034
30
0
41
1
10
134.739603247005
20
-5.90102725637837
30
0
41
1
10
134.742469456508
20
-5.87893314508105
30
0
41
1
10
134.74389303982
20
-5.85970946311144
30
0
0
SPLINE
5
C5
100
AcDbEntity
8
1
62
256
6
ByLayer
370
18
48
1
60
0
100
AcDbSpline
70
4
71
3
72
30
73
26
40
0
40
0
40
0
40
0
40
0.0312499999999986
40
0.0312499999999986
40
0.0624999999999972
40
0.0624999999999972
40
0.0937499999999957
40
0.0937499999999957
40
0.124999999999994
40
0.124999999999994
40
0.187499999999994
40
0.187499999999994
40
0.249999999999993
40
0.249999999999993
40
0.374999999999994
40
0.374999999999994
40
0.499999999999995
40
0.499999999999995
40
0.624999999999997
40
0.624999999999997
40
0.749999999999998
40
0.749999999999998
40
0.874999999999999
40
0.874999999999999
40
1
40
1
40
1
40
1
41
1
10
6.15105259405377
20
-5.23890103279484
30
0
41
1
10
6.18129580855046
20
-5.20239028866663
30
0
41
1
10
6.21952828185718
20
-5.16657980161753
30
0
41
1
10
6.30925517055331
20
-5.09637761057098
30
0
41
1
10
6.36026566074605
20
-5.06242398233826
30
0
41
1
10
6.4697602706843
20
-4.9978075964012
30
0
41
1
10
6.5285782043112
20
-4.96690180794982
30
0
41
1
10
6.65271594451639
20
-4.90751989269484
30
0
41
1
10
6.71829229501421
20
-4.87896535597221
30
0
41
1
10
6.91935733296225
20
-4.79807909155249
30
0
41
1
10
7.06016194049968
20
-4.74987491632743
30
0
41
1
10
7.35103617302917
20
-4.66222225547699
30
0
41
1
10
7.50167425675764
20
-4.62270907785123
30
0
41
1
10
7.96132485553454
20
-4.51648622915573
30
0
41
1
10
8.27370763869243
20
-4.46266048811182
30
0
41
1
10
8.90676076953207
20
-4.38196662150568
30
0
41
1
10
9.22752517036903
20
-4.3553027141478
30
0
41
1
10
9.8765495858496
20
-4.32783149147019
30
0
41
1
10
10.2000187846741
20
-4.32731620718499
30
0
41
1
10
10.8419126366396
20
-4.35072246532133
30
0
41
1
10
11.1608686248954
20
-4.37466629324541
30
0
41
1
10
11.7947885293359
20
-4.44575186419576
30
0
41
1
10
12.1097487565371
20
-4.49292719057189
30
0
41
1
10
12.7354513914814
20
-4.60898306446524
30
0
41
1
10
13.0407048699964
20
-4.67687754571708
30
0
41
1
10
13.3373853402198
20
-4.75188300879358
30
0
0
SPLINE
5
C6
100
AcDbEntity
8
1
62
256
6
ByLayer
370
18
48
1
60
0
100
AcDbSpline
70
4
71
3
72
12
73
8
40
0
40
0
40
0
40
0
40
0.16296157816534
40
0.16296157816534
40
0.58148078908267
40
0.58148078908267
40
1
40
1
40
1
40
1
41
1
10
11.1066706517009
20
4.37400407657765
30
0
41
1
10
11.2306923867661
20
4.38428858809624
30
0
41
1
10
11.3544117955639
20
4.39636955054038
30
0
41
1
10
11.794788529336
20
4.44575186419576
30
0
41
1
10
12.1097487565371
20
4.49292719057186
30
0
41
1
10
12.7354513914815
20
4.60898306446524
30
0
41
1
10
13.0407048699964
20
4.67687754571708
30
0
41
1
10
13.3373853402199
20
4.75188300879358
30
0
0
SPLINE
5
C7
100
AcDbEntity
8
1
62
256
6
ByLayer
370
13
48
1
60
0
100
AcDbSpline
70
4
71
3
72
8
73
4
40
0
40
0
40
0
40
0
40
1
40
1
40
1
40
1
41
1
10
5.49673824437582
20
-0.322968932982775
30
0
41
1
10
5.51899181373847
20
-0.33097141938768
30
0
41
1
10
5.54201044183984
20
-0.33852552171868
30
0
41
1
10
5.56585339624948
20
-0.345606027968444
30
0
0
SPLINE
5
C8
100
AcDbEntity
8
1
62
256
6
ByLayer
370
18
48
1
60
0
100
AcDbSpline
70
4
71
3
72
70
73
66
40
0
40
0
40
0
40
0
40
0.0270797216568401
40
0.0270797216568401
40
0.0541594433136802
40
0.0541594433136802
40
0.0812391649705203
40
0.0812391649705203
40
0.10831888662736
40
0.10831888662736
40
0.162478329941041
40
0.162478329941041
40
0.189558051597881
40
0.189558051597881
40
0.216637773254722
40
0.216637773254722
40
0.243717494911562
40
0.243717494911562
40
0.270797216568403
40
0.270797216568403
40
0.297876938225243
40
0.297876938225243
40
0.324956659882084
40
0.324956659882084
40
0.352036381538925
40
0.352036381538925
40
0.379116103195765
40
0.379116103195765
40
0.406195824852606
40
0.406195824852606
40
0.433275546509446
40
0.433275546509446
40
0.487434989823127
40
0.487434989823127
40
0.541594433136808
40
0.541594433136808
40
0.568674154793649
40
0.568674154793649
40
0.59575387645049
40
0.59575387645049
40
0.62283359810733
40
0.62283359810733
40
0.649913319764171
40
0.649913319764171
40
0.676993041421011
40
0.676993041421011
40
0.704072763077852
40
0.704072763077852
40
0.731152484734693
40
0.731152484734693
40
0.758232206391533
40
0.758232206391533
40
0.785311928048374
40
0.785311928048374
40
0.812391649705214
40
0.812391649705214
40
0.839471371362055
40
0.839471371362055
40
0.866551093018895
40
0.866551093018895
40
0.920710536332577
40
0.920710536332577
40
0.974869979646259
40
0.974869979646259
40
1
40
1
40
1
40
1
41
1
10
15.9938967823611
20
2.413744207299
30
0
41
1
10
16.3054493780799
20
2.27768887814426
30
0
41
1
10
16.6159966984852
20
2.139296838978
30
0
41
1
10
17.2354649329241
20
1.85865761916546
30
0
41
1
10
17.5447776999254
20
1.71723468962119
30
0
41
1
10
18.1620170747962
20
1.43105982733491
30
0
41
1
10
18.4701669323505
20
1.28678076375687
30
0
41
1
10
19.0857154141702
20
0.996243932650827
30
0
41
1
10
19.3929912149318
20
0.849675190056558
30
0
41
1
10
20.3147020629765
20
0.409066996917204
30
0
41
1
10
20.9283236563392
20
0.112719234924413
30
0
41
1
10
21.8493797517003
20
-0.331722549265834
30
0
41
1
10
22.156674589204
20
-0.479488675682575
30
0
41
1
10
22.7715385241367
20
-0.774833098613215
30
0
41
1
10
23.0792507761916
20
-0.922112062566271
30
0
41
1
10
23.6958125741714
20
-1.2147055756611
30
0
41
1
10
24.0044770384172
20
-1.36040497295548
30
0
41
1
10
24.6231829323929
20
-1.64924320989417
30
0
41
1
10
24.9329691318529
20
-1.7929310668429
30
0
41
1
10
25.5545294787129
20
-2.07654106031649
30
0
41
1
10
25.8661090112995
20
-2.21634688485329
30
0
41
1
10
26.4864565080084
20
-2.49140393735286
30
0
41
1
10
26.7960488718841
20
-2.6263835319661
30
0
41
1
10
27.4137712207927
20
-2.89027431341069
30
0
41
1
10
27.7220475996111
20
-3.01905149192771
30
0
41
1
10
28.3378881036675
20
-3.27042764650466
30
0
41
1
10
28.6452726925733
20
-3.3937923170858
30
0
41
1
10
29.2598215434901
20
-3.63225339402373
30
0
41
1
10
29.5667687801725
20
-3.74788269007357
30
0
41
1
10
30.1805860236213
20
-3.97162607703285
30
0
41
1
10
30.4874863530305
20
-4.08024973828458
30
0
41
1
10
31.4080347598295
20
-4.39428537675482
30
0
41
1
10
32.02240560168
20
-4.58576709617657
30
0
41
1
10
33.2539479144098
20
-4.93716204796348
30
0
41
1
10
33.8716011979625
20
-5.09297676099689
30
0
41
1
10
34.8020580977219
20
-5.30006036829224
30
0
41
1
10
35.1136816299809
20
-5.36390746674897
30
0
41
1
10
35.7345580273584
20
-5.48010941494277
30
0
41
1
10
36.0443043635826
20
-5.53248569377934
30
0
41
1
10
36.6624473880455
20
-5.62756335706501
30
0
41
1
10
36.9708422983142
20
-5.66971645816989
30
0
41
1
10
37.5868137136862
20
-5.74167901496398
30
0
41
1
10
37.8941954579785
20
-5.77196062833653
30
0
41
1
10
38.5086681194824
20
-5.82209301672142
30
0
41
1
10
38.8155388153602
20
-5.84201491738853
30
0
41
1
10
39.4290163079086
20
-5.86920403508736
30
0
41
1
10
39.7357797177626
20
-5.87692169631509
30
0
41
1
10
40.3490341456845
20
-5.88205803398665
30
0
41
1
10
40.6557682704512
20
-5.87922361549906
30
0
41
1
10
41.269588387205
20
-5.86146367757325
30
0
41
1
10
41.5766599832625
20
-5.84666004396698
30
0
41
1
10
42.1916474631964
20
-5.80654144433569
30
0
41
1
10
42.4993141393223
20
-5.78109299815992
30
0
41
1
10
43.1160586969126
20
-5.71836845804529
30
0
41
1
10
43.4250040760515
20
-5.68099541479177
30
0
41
1
10
44.0441274480892
20
-5.5954485578491
30
0
41
1
10
44.3547100534445
20
-5.54748567453845
30
0
41
1
10
44.9763453465711
20
-5.43996578578225
30
0
41
1
10
45.2863428892536
20
-5.38064587377548
30
0
41
1
10
46.2142184826021
20
-5.18771965349603
30
0
41
1
10
46.8299485830617
20
-5.03948762383951
30
0
41
1
10
48.0588900096682
20
-4.70482529652105
30
0
41
1
10
48.6719496718171
20
-4.51984498439049
30
0
41
1
10
49.56923653698
20
-4.22324468263937
30
0
41
1
10
49.853643831311
20
-4.12595400935228
30
0
41
1
10
50.1381355849747
20
-4.02538168797787
30
0
0
SPLINE
5
C9
100
AcDbEntity
8
1
62
256
6
ByLayer
370
18
48
1
60
0
100
AcDbSpline
70
4
71
3
72
98
73
94
40
0
40
0
40
0
40
0
40
0.0121064201930897
40
0.0121064201930897
40
0.0504191334018148
40
0.0504191334018148
40
0.08873184661054
40
0.08873184661054
40
0.127044559819265
40
0.127044559819265
40
0.146200916423628
40
0.146200916423628
40
0.165357273027991
40
0.165357273027991
40
0.184513629632354
40
0.184513629632354
40
0.203669986236716
40
0.203669986236716
40
0.222826342841079
40
0.222826342841079
40
0.241982699445442
40
0.241982699445442
40
0.261139056049804
40
0.261139056049804
40
0.280295412654167
40
0.280295412654167
40
0.29945176925853
40
0.29945176925853
40
0.318608125862893
40
0.318608125862893
40
0.337764482467255
40
0.337764482467255
40
0.356920839071618
40
0.356920839071618
40
0.376077195675981
40
0.376077195675981
40
0.395233552280344
40
0.395233552280344
40
0.414389908884706
40
0.414389908884706
40
0.433546265489069
40
0.433546265489069
40
0.452702622093432
40
0.452702622093432
40
0.471858978697794
40
0.471858978697794
40
0.491015335302157
40
0.491015335302157
40
0.51017169190652
40
0.51017169190652
40
0.529328048510883
40
0.529328048510883
40
0.548484405115245
40
0.548484405115245
40
0.567640761719608
40
0.567640761719608
40
0.586797118323971
40
0.586797118323971
40
0.625109831532698
40
0.625109831532698
40
0.64426618813706
40
0.64426618813706
40
0.663422544741423
40
0.663422544741423
40
0.701735257950148
40
0.701735257950148
40
0.720891614554511
40
0.720891614554511
40
0.740047971158875
40
0.740047971158875
40
0.759204327763238
40
0.759204327763238
40
0.778360684367601
40
0.778360684367601
40
0.797517040971964
40
0.797517040971964
40
0.816673397576328
40
0.816673397576328
40
0.835829754180691
40
0.835829754180691
40
0.854986110785054
40
0.854986110785054
40
0.874142467389418
40
0.874142467389418
40
0.893298823993781
40
0.893298823993781
40
0.931611537202506
40
0.931611537202506
40
0.950767893806869
40
0.950767893806869
40
0.969924250411232
40
0.969924250411232
40
1
40
1
40
1
40
1
41
1
10
78.2711313684309
20
5.94913231695358
30
0
41
1
10
78.4664728975275
20
5.94958671746798
30
0
41
1
10
78.6614816184224
20
5.9475904324031
30
0
41
1
10
79.4727591976339
20
5.92964500494551
30
0
41
1
10
80.0866711966592
20
5.89435944292163
30
0
41
1
10
81.3117190923142
20
5.77609237027565
30
0
41
1
10
81.9230124994967
20
5.69610768995665
30
0
41
1
10
83.1461326219707
20
5.4910830388406
30
0
41
1
10
83.7575882514774
20
5.36820545329849
30
0
41
1
10
84.6769329735409
20
5.15148536236163
30
0
41
1
10
84.9839091466521
20
5.07419893560655
30
0
41
1
10
85.5985463532934
20
4.91007116026012
30
0
41
1
10
85.9063716139177
20
4.82321641543155
30
0
41
1
10
86.5236301145035
20
4.63922353400329
30
0
41
1
10
86.8330539603996
20
4.54194564173426
30
0
41
1
10
87.4531320474507
20
4.33931181988368
30
0
41
1
10
87.762627674641
20
4.23384506162338
30
0
41
1
10
88.3812029759648
20
4.01463290151366
30
0
41
1
10
88.6903291935456
20
3.90092876263242
30
0
41
1
10
89.3081564500128
20
3.66611074687384
30
0
41
1
10
89.6171119634558
20
3.54549828822582
30
0
41
1
10
90.2349754851834
20
3.29683244256046
30
0
41
1
10
90.5440441333602
20
3.16889293220291
30
0
41
1
10
91.1628029989931
20
2.90706473891748
30
0
41
1
10
91.472479943377
20
2.7728751714983
30
0
41
1
10
92.0921464816711
20
2.49975347727235
30
0
41
1
10
92.4010029448571
20
2.36064821205326
30
0
41
1
10
93.0174760874005
20
2.07887607175797
30
0
41
1
10
93.3251783341534
20
1.93645327693864
30
0
41
1
10
93.9392590666795
20
1.64779835474505
30
0
41
1
10
94.2459127500838
20
1.50207621007553
30
0
41
1
10
94.8584056507519
20
1.20802277436493
30
0
41
1
10
95.1643186075206
20
1.05985306177266
30
0
41
1
10
95.7758987404826
20
0.762036115650204
30
0
41
1
10
96.0814161120286
20
0.611955718476111
30
0
41
1
10
96.6928079924829
20
0.311557390375242
30
0
41
1
10
96.998447290448
20
0.160758373730943
30
0
41
1
10
97.6099146349807
20
-0.141332932855875
30
0
41
1
10
97.9159940452814
20
-0.292222050723723
30
0
41
1
10
98.5286957816747
20
-0.593980053059795
30
0
41
1
10
98.8354998091253
20
-0.74440997951163
30
0
41
1
10
99.4498062376267
20
-1.04471905841129
30
0
41
1
10
99.7573428523511
20
-1.19455880828039
30
0
41
1
10
100.374411493995
20
-1.49130789519461
30
0
41
1
10
100.683824495219
20
-1.63918456571506
30
0
41
1
10
101.302963160159
20
-1.93151335287342
30
0
41
1
10
101.611704203731
20
-2.07616416440555
30
0
41
1
10
102.227544499766
20
-2.35941025380796
30
0
41
1
10
102.534907379692
20
-2.49801289609428
30
0
41
1
10
103.148389623007
20
-2.77094368047497
30
0
41
1
10
103.454717294442
20
-2.90475130514491
30
0
41
1
10
104.066618188076
20
-3.16593901502995
30
0
41
1
10
104.372163724887
20
-3.2934319292246
30
0
41
1
10
104.983138233788
20
-3.54217774084097
30
0
41
1
10
105.2882779244
20
-3.66418414876952
30
0
41
1
10
105.898744732203
20
-3.90053726389914
30
0
41
1
10
106.204065274365
20
-4.01412971301971
30
0
41
1
10
107.120322941912
20
-4.34403047932597
30
0
41
1
10
107.732170016598
20
-4.54757180059346
30
0
41
1
10
108.652682576934
20
-4.82856801877264
30
0
41
1
10
108.959850317615
20
-4.91838587412138
30
0
41
1
10
109.57558065768
20
-5.08943483344387
30
0
41
1
10
109.88408316794
20
-5.17000772010636
30
0
41
1
10
110.812758577824
20
-5.3951537909706
30
0
41
1
10
111.430500455061
20
-5.52439871807988
30
0
41
1
10
112.356089074637
20
-5.68546344418561
30
0
41
1
10
112.664552207272
20
-5.73368489829835
30
0
41
1
10
113.281604294817
20
-5.81997379517625
30
0
41
1
10
113.590046800036
20
-5.85773973719833
30
0
41
1
10
114.207854290377
20
-5.92049813278109
30
0
41
1
10
114.516966973627
20
-5.94598567803885
30
0
41
1
10
115.135934701885
20
-5.98619177104476
30
0
41
1
10
115.44464033934
20
-6.000554449345
30
0
41
1
10
116.060367366354
20
-6.01675697942659
30
0
41
1
10
116.367678224315
20
-6.0187214102875
30
0
41
1
10
116.981094336369
20
-6.01246583106825
30
0
41
1
10
117.287287533387
20
-6.00404595654948
30
0
41
1
10
117.899050860588
20
-5.97448896577043
30
0
41
1
10
118.204451890127
20
-5.95343058766775
30
0
41
1
10
118.815213637712
20
-5.9008281239627
30
0
41
1
10
119.12032565932
20
-5.86918196337987
30
0
41
1
10
119.730582468044
20
-5.79429111240884
30
0
41
1
10
120.035861142247
20
-5.75103357683858
30
0
41
1
10
120.646395746534
20
-5.65424033126067
30
0
41
1
10
120.951858220367
20
-5.6012360013612
30
0
41
1
10
121.86906471348
20
-5.42502343415262
30
0
41
1
10
122.482105970575
20
-5.28342587955555
30
0
41
1
10
123.40589871563
20
-5.0419003622267
30
0
41
1
10
123.714528620975
20
-4.95628910565895
30
0
41
1
10
124.333032881429
20
-4.77544462386706
30
0
41
1
10
124.641573268008
20
-4.68093226218292
30
0
41
1
10
125.432283524099
20
-4.42628688348711
30
0
41
1
10
125.913601453192
20
-4.25992230359742
30
0
41
1
10
126.393931360035
20
-4.08440211630187
30
0
0
SPLINE
5
CA
100
AcDbEntity
8
1
62
256
6
ByLayer
370
13
48
1
60
0
100
AcDbSpline
70
4
71
3
72
33
73
29
40
0
40
0
40
0
40
0
40
0.0774744866743295
40
0.0774744866743295
40
0.154948973348659
40
0.154948973348659
40
0.309897946697318
40
0.309897946697318
40
0.387372433371647
40
0.387372433371647
40
0.426109676708812
40
0.426109676708812
40
0.464846920045977
40
0.464846920045977
40
0.619795893394635
40
0.619795893394635
40
0.6585331367318
40
0.6585331367318
40
0.697270380068964
40
0.697270380068964
40
0.774744866743294
40
0.852219353417623
40
0.852219353417623
40
0.890956596754788
40
0.890956596754788
40
0.929693840091953
40
0.929693840091953
40
1
40
1
40
1
40
1
41
1
10
6.02241553000499
20
-0.488988510124074
30
0
41
1
10
6.02242749687503
20
-0.240857618800476
30
0
41
1
10
6.0224334310239
20
0.0066476131753745
30
0
41
1
10
6.02243744332503
20
0.500435218614655
30
0
41
1
10
6.0224355007125
20
0.747303817194222
30
0
41
1
10
6.02242374874638
20
1.48230020306116
30
0
41
1
10
6.02240864826624
20
1.95165057741653
30
0
41
1
10
6.02239653805057
20
2.62548217044272
30
0
41
1
10
6.02239420900898
20
2.84605042200332
30
0
41
1
10
6.02239545372493
20
3.1629132574453
30
0
41
1
10
6.02239664528489
20
3.26635012778655
30
0
41
1
10
6.02240084600666
20
3.46885407361773
30
0
41
1
10
6.02240386645994
20
3.56817026891971
30
0
41
1
10
6.02242394889672
20
4.05050065426423
30
0
41
1
10
6.02245611976224
20
4.38888090340473
30
0
41
1
10
6.02251784400974
20
4.75422862217903
30
0
41
1
10
6.0225312414322
20
4.82437283128266
30
0
41
1
10
6.02256008282762
20
4.95867441969406
30
0
41
1
10
6.02257556636971
20
5.02293445851123
30
0
41
1
10
6.02262421069693
20
5.20397391674095
30
0
41
1
10
6.02269528454161
20
5.41598657833302
30
0
41
1
10
6.02277456189927
20
5.57051022858641
30
0
41
1
10
6.02283504150347
20
5.66425313275576
30
0
41
1
10
6.02285536670087
20
5.69177322103548
30
0
41
1
10
6.02289551202003
20
5.73878213178881
30
0
41
1
10
6.02291538411274
20
5.75835791467895
30
0
41
1
10
6.02297012438621
20
5.80242115764005
30
0
41
1
10
6.02300410206544
20
5.81782960214161
30
0
41
1
10
6.02303470292344
20
5.82017022284802
30
0
0
SPLINE
5
CB
100
AcDbEntity
8
1
62
256
6
ByLayer
370
18
48
1
60
0
100
AcDbSpline
70
4
71
3
72
14
73
10
40
0
40
0
40
0
40
0
40
0.0228812910966456
40
0.0228812910966456
40
0.348587527397764
40
0.348587527397764
40
0.674293763698882
40
0.674293763698882
40
1
40
1
40
1
40
1
41
1
10
18.4726470218089
20
1.28071335554594
30
0
41
1
10
18.4798304064242
20
1.28870721445688
30
0
41
1
10
18.4870022218511
20
1.29678539582145
30
0
41
1
10
18.5960724806757
20
1.42112531548631
30
0
41
1
10
18.6954543629409
20
1.55421215254773
30
0
41
1
10
18.8843697041776
20
1.84778794260723
30
0
41
1
10
18.9738957577796
20
2.00826538760808
30
0
41
1
10
19.1387692854015
20
2.34886402454384
30
0
41
1
10
19.2141102964768
20
2.52897186521378
30
0
41
1
10
19.2805397566003
20
2.71454743824106
30
0
0
SPLINE
5
CC
100
AcDbEntity
8
1
62
256
6
ByLayer
370
18
48
1
60
0
100
AcDbSpline
70
4
71
3
72
8
73
4
40
0
40
0
40
0
40
0
40
1
40
1
40
1
40
1
41
1
10
134.790340363792
20
-6.1261615926129
30
0
41
1
10
134.763322660245
20
-6.09531022916019
30
0
41
1
10
134.739161433632
20
-6.05497325040528
30
0
41
1
10
134.717537444406
20
-6.0050772448904
30
0
0
SPLINE
5
CD
100
AcDbEntity
8
1
62
256
6
ByLayer
370
18
48
1
60
0
100
AcDbSpline
70
4
71
3
72
12
73
8
40
0
40
0
40
0
40
0
40
0.25
40
0.25
40
0.5
40
0.5
40
1
40
1
40
1
40
1
41
1
10
5.5364199780683
20
-0.447625384336504
30
0
41
1
10
5.55749604692457
20
-0.481296612770393
30
0
41
1
10
5.58348023954446
20
-0.51057561188972
30
0
41
1
10
5.6405245322932
20
-0.564591776351733
30
0
41
1
10
5.67163854477133
20
-0.589107992430513
30
0
41
1
10
5.76761786489004
20
-0.656706490716459
30
0
41
1
10
5.83586546019211
20
-0.695008905970923
30
0
41
1
10
5.90650904179253
20
-0.729516154745568
30
0
0
SPLINE
5
CE
100
AcDbEntity
8
1
62
256
6
ByLayer
370
18
48
1
60
0
100
AcDbSpline
70
4
71
3
72
26
73
22
40
0
40
0
40
0
40
0
40
0.0810477199839496
40
0.0810477199839496
40
0.172942947985561
40
0.172942947985561
40
0.264838175987172
40
0.264838175987172
40
0.356733403988783
40
0.356733403988783
40
0.448628631990394
40
0.448628631990394
40
0.632419087993604
40
0.632419087993604
40
0.724314315995203
40
0.724314315995203
40
0.816209543996802
40
0.816209543996802
40
0.908104771998401
40
0.908104771998401
40
1
40
1
40
1
40
1
41
1
10
134.377082939905
20
0.529965447787163
30
0
41
1
10
134.402356173077
20
0.55476576690458
30
0
41
1
10
134.429178401761
20
0.5829393989533
30
0
41
1
10
134.489653735565
20
0.650410496038091
30
0
41
1
10
134.523435200696
20
0.690387568267738
30
0
41
1
10
134.593191320487
20
0.777380971152724
30
0
41
1
10
134.629294661269
20
0.824538633640486
30
0
41
1
10
134.703754335761
20
0.926128416999575
30
0
41
1
10
134.742112065006
20
0.980559859002881
30
0
41
1
10
134.820923893762
20
1.09690006802518
30
0
41
1
10
134.861012448572
20
1.15828622156749
30
0
41
1
10
134.981432935614
20
1.3496660677695
30
0
41
1
10
135.062628504741
20
1.48762579301791
30
0
41
1
10
135.182979851108
20
1.71111825862769
30
0
41
1
10
135.222579028054
20
1.78796594739973
30
0
41
1
10
135.298624747255
20
1.9442791501161
30
0
41
1
10
135.335276136791
20
2.02407288859931
30
0
41
1
10
135.404113747803
20
2.18751674498847
30
0
41
1
10
135.436360468828
20
2.27114432827713
30
0
41
1
10
135.492793724953
20
2.44360666290524
30
0
41
1
10
135.51710282422
20
2.53271344745645
30
0
41
1
10
135.532789149907
20
2.62350742143195
30
0
0
SPLINE
5
CF
100
AcDbEntity
8
1
62
256
6
ByLayer
370
18
48
1
60
0
100
AcDbSpline
70
4
71
3
72
18
73
14
40
0
40
0
40
0
40
0
40
0.249999999999999
40
0.249999999999999
40
0.374999999999999
40
0.374999999999999
40
0.5
40
0.5
40
0.75
40
0.75
40
0.875
40
0.875
40
1
40
1
40
1
40
1
41
1
10
134.139187261921
20
0.630525468881359
30
0
41
1
10
134.073658853846
20
0.312209547704583
30
0
41
1
10
134.020868333435
20
-0.0068527662784277
30
0
41
1
10
133.960833644656
20
-0.486568419953642
30
0
41
1
10
133.944028558619
20
-0.646661525456523
30
0
41
1
10
133.917025491197
20
-0.96723488820291
30
0
41
1
10
133.906803438118
20
-1.12854833839771
30
0
41
1
10
133.886797028802
20
-1.60565291402267
30
0
41
1
10
133.887418443334
20
-1.91462782214475
30
0
41
1
10
133.908714336537
20
-2.36482244771113
30
0
41
1
10
133.91922356513
20
-2.5126651947497
30
0
41
1
10
133.947166151469
20
-2.80383936722279
30
0
41
1
10
133.964657830646
20
-2.94742367531262
30
0
41
1
10
133.985444659061
20
-3.08701950863843
30
0
0
SPLINE
5
D0
100
AcDbEntity
8
1
62
256
6
ByLayer
370
18
48
1
60
0
100
AcDbSpline
70
4
71
1
72
4
73
2
40
0
40
0
40
1
40
1
41
1
10
134.743893039047
20
-5.85970947354929
30
0
41
1
10
136.058094171466
20
-1.42304080460232
30
0
0
SPLINE
5
D1
100
AcDbEntity
8
1
62
256
6
ByLayer
370
18
48
1
60
0
100
AcDbSpline
70
4
71
3
72
8
73
4
40
0
40
0
40
0
40
0
40
1
40
1
40
1
40
1
41
1
10
134.139187261921
20
0.630525468881388
30
0
41
1
10
134.427729321782
20
0.508564827065214
30
0
41
1
10
134.718134043683
20
0.396206694957726
30
0
41
1
10
135.010586280518
20
0.294404037540772
30
0
0
SPLINE
5
D2
100
AcDbEntity
8
1
62
256
6
ByLayer
370
13
48
1
60
0
100
AcDbSpline
70
4
71
3
72
10
73
6
40
0
40
0
40
0
40
0
40
0.5
40
0.5
40
1
40
1
40
1
40
1
41
1
10
6.02241553000499
20
-0.488988510124074
30
0
41
1
10
5.94315668899182
20
-0.462451785414345
30
0
41
1
10
5.86534681118508
20
-0.437437777526156
30
0
41
1
10
5.71275277218749
20
-0.389719235641849
30
0
41
1
10
5.63736872943613
20
-0.366843528778219
30
0
41
1
10
5.56585339624948
20
-0.345606027968472
30
0
0
SPLINE
5
D3
100
AcDbEntity
8
1
62
256
6
ByLayer
370
18
48
1
60
0
100
AcDbSpline
70
4
71
3
72
8
73
4
40
0
40
0
40
0
40
0
40
1
40
1
40
1
40
1
41
1
10
134.743893039047
20
-5.85970947354917
30
0
41
1
10
134.734167295324
20
-5.8231754729982
30
0
41
1
10
134.718055519088
20
-5.79810007660367
30
0
41
1
10
134.698901939296
20
-5.78120150958415
30
0
0
SPLINE
5
D4
100
AcDbEntity
8
1
62
256
6
ByLayer
370
18
48
1
60
0
100
AcDbSpline
70
4
71
3
72
10
73
6
40
0
40
0
40
0
40
0
40
0.5
40
0.5
40
1
40
1
40
1
40
1
41
1
10
135.539835817104
20
2.76746194543216
30
0
41
1
10
135.525086344957
20
2.98326877088536
30
0
41
1
10
135.531055074971
20
3.19561301418912
30
0
41
1
10
135.563137344212
20
3.61693474839961
30
0
41
1
10
135.589696730661
20
3.82583772595723
30
0
41
1
10
135.622262875891
20
4.0337368086995
30
0
0
SPLINE
5
D5
100
AcDbEntity
8
1
62
256
6
ByLayer
370
18
48
1
60
0
100
AcDbSpline
70
4
71
3
72
36
73
32
40
0
40
0
40
0
40
0
40
0.103498243894036
40
0.103498243894036
40
0.155247365841054
40
0.155247365841054
40
0.206996487788073
40
0.206996487788073
40
0.310494731682105
40
0.310494731682105
40
0.413992975576138
40
0.413992975576138
40
0.465742097523156
40
0.465742097523156
40
0.517491219470174
40
0.517491219470174
40
0.62098946336421
40
0.62098946336421
40
0.724487707258246
40
0.724487707258246
40
0.776236829205263
40
0.776236829205263
40
0.827985951152279
40
0.827985951152279
40
0.879735073099295
40
0.879735073099295
40
0.931484195046312
40
0.931484195046312
40
0.983233316993328
40
0.983233316993328
40
1
40
1
40
1
40
1
41
1
10
134.139187261921
20
0.630525468881359
30
0
41
1
10
133.526665601705
20
0.934534190838832
30
0
41
1
10
132.91633679911
20
1.23426565546924
30
0
41
1
10
132.002722793142
20
1.6747013159958
30
0
41
1
10
131.698581322506
20
1.82009646467679
30
0
41
1
10
131.090434779082
20
2.10632785964972
30
0
41
1
10
130.78667031206
20
2.24766213370216
30
0
41
1
10
129.874967584598
20
2.6643146548125
30
0
41
1
10
129.267017986847
20
2.93300473434945
30
0
41
1
10
128.048614938441
20
3.44741238514567
30
0
41
1
10
127.437957687598
20
3.69330541797294
30
0
41
1
10
126.517604329755
20
4.04025579886829
30
0
41
1
10
126.210213129471
20
4.15250800512013
30
0
41
1
10
125.593595381105
20
4.36923902510969
30
0
41
1
10
125.283674271268
20
4.47387285324896
30
0
41
1
10
124.357552510786
20
4.77291353848514
30
0
41
1
10
123.743673339903
20
4.95287733155487
30
0
41
1
10
122.51998457552
20
5.27419613405178
30
0
41
1
10
121.910520414293
20
5.41589174784906
30
0
41
1
10
120.99806354783
20
5.59288084922244
30
0
41
1
10
120.694058506067
20
5.64610933397432
30
0
41
1
10
120.086310861003
20
5.74352394901175
30
0
41
1
10
119.782348389059
20
5.78722794258704
30
0
41
1
10
119.174454175403
20
5.86313585957686
30
0
41
1
10
118.870471504453
20
5.89535456371698
30
0
41
1
10
118.26174324657
20
5.94908970370068
30
0
41
1
10
117.957258633957
20
5.97079017893824
30
0
41
1
10
117.347184988757
20
6.00188182607496
30
0
41
1
10
117.041698941864
20
6.01107009961905
30
0
41
1
10
116.636497199069
20
6.01613851484413
30
0
41
1
10
116.537265398151
20
6.01684735716731
30
0
41
1
10
116.437962380316
20
6.01699188680669
30
0
0
SPLINE
5
D6
100
AcDbEntity
8
1
62
256
6
ByLayer
370
18
48
1
60
0
100
AcDbSpline
70
4
71
3
72
108
73
104
40
0
40
0
40
0
40
0
40
0.003803664040001
40
0.003803664040001
40
0.0230137414722203
40
0.0230137414722203
40
0.0422238189044395
40
0.0422238189044395
40
0.0614338963366588
40
0.0614338963366588
40
0.0806439737688779
40
0.0806439737688779
40
0.119064128633315
40
0.119064128633315
40
0.138274206065534
40
0.138274206065534
40
0.157484283497752
40
0.157484283497752
40
0.176694360929971
40
0.176694360929971
40
0.195904438362189
40
0.195904438362189
40
0.215114515794406
40
0.215114515794406
40
0.234324593226624
40
0.234324593226624
40
0.253534670658842
40
0.253534670658842
40
0.27274474809106
40
0.27274474809106
40
0.291954825523278
40
0.291954825523278
40
0.311164902955495
40
0.311164902955495
40
0.330374980387713
40
0.330374980387713
40
0.349585057819931
40
0.349585057819931
40
0.368795135252149
40
0.368795135252149
40
0.388005212684366
40
0.388005212684366
40
0.407215290116584
40
0.407215290116584
40
0.426425367548802
40
0.426425367548802
40
0.44563544498102
40
0.44563544498102
40
0.464845522413237
40
0.464845522413237
40
0.484055599845455
40
0.484055599845455
40
0.503265677277673
40
0.503265677277673
40
0.522475754709891
40
0.522475754709891
40
0.541685832142109
40
0.541685832142109
40
0.560895909574327
40
0.560895909574327
40
0.580105987006545
40
0.580105987006545
40
0.599316064438763
40
0.599316064438763
40
0.618526141870981
40
0.618526141870981
40
0.637736219303198
40
0.637736219303198
40
0.656946296735417
40
0.656946296735417
40
0.676156374167635
40
0.676156374167635
40
0.695366451599853
40
0.695366451599853
40
0.71457652903207
40
0.71457652903207
40
0.733786606464288
40
0.733786606464288
40
0.752996683896506
40
0.752996683896506
40
0.772206761328723
40
0.772206761328723
40
0.791416838760941
40
0.791416838760941
40
0.810626916193159
40
0.810626916193159
40
0.829836993625377
40
0.829836993625377
40
0.849047071057594
40
0.849047071057594
40
0.88746722592203
40
0.88746722592203
40
0.906677303354249
40
0.906677303354249
40
0.925887380786467
40
0.925887380786467
40
0.945097458218685
40
0.945097458218685
40
0.964307535650903
40
0.964307535650903
40
0.983517613083122
40
0.983517613083122
40
1
40
1
40
1
40
1
41
1
10
88.3070155395106
20
-4.04013633752706
30
0
41
1
10
88.2463085986332
20
-4.06205868208551
30
0
41
1
10
88.1856144633608
20
-4.0838182777257
30
0
41
1
10
87.8184691456676
20
-4.21446539125421
30
0
41
1
10
87.5123955415274
20
-4.31933042105973
30
0
41
1
10
86.9000884153205
20
-4.52053968483085
30
0
41
1
10
86.5941194114509
20
-4.61734815465104
30
0
41
1
10
85.9818716165819
20
-4.8013909962493
30
0
41
1
10
85.6756616331203
20
-4.88856856306205
30
0
41
1
10
85.0628634775029
20
-5.05382021011548
30
0
41
1
10
84.756062450872
20
-5.13185065661608
30
0
41
1
10
83.834877577489
20
-5.35161327507586
30
0
41
1
10
83.2189706311706
20
-5.47724145340777
30
0
41
1
10
82.2904760038613
20
-5.63520498356701
30
0
41
1
10
81.9797286954987
20
-5.68253086856635
30
0
41
1
10
81.3600007832519
20
-5.76506994123861
30
0
41
1
10
81.0508580322846
20
-5.80071280351848
30
0
41
1
10
80.433885867447
20
-5.86132856047786
30
0
41
1
10
80.1259025082986
20
-5.88576942889048
30
0
41
1
10
79.5112520448486
20
-5.9222136600053
30
0
41
1
10
79.2042880346057
20
-5.93504057423033
30
0
41
1
10
78.5908103754927
20
-5.94962818525184
30
0
41
1
10
78.2845060200316
20
-5.95122130926259
30
0
41
1
10
77.6718959196855
20
-5.94198396547023
30
0
41
1
10
77.3657716801291
20
-5.93174792754294
30
0
41
1
10
76.7532939406612
20
-5.9008127154716
30
0
41
1
10
76.4469326432908
20
-5.87978912601119
30
0
41
1
10
75.8340144687313
20
-5.82549451068769
30
0
41
1
10
75.5271811494886
20
-5.7924029702402
30
0
41
1
10
74.912983505816
20
-5.71638872795305
30
0
41
1
10
74.6055161765345
20
-5.67295350128003
30
0
41
1
10
73.9892749927153
20
-5.57437754450282
30
0
41
1
10
73.680695771718
20
-5.51882008325487
30
0
41
1
10
73.0618798543599
20
-5.39850484415183
30
0
41
1
10
72.75133326924
20
-5.33303607425637
30
0
41
1
10
72.1307256468898
20
-5.19121432350036
30
0
41
1
10
71.8212692942644
20
-5.11488936343221
30
0
41
1
10
71.2037257110598
20
-4.95342827214884
30
0
41
1
10
70.8953959706233
20
-4.86858370400199
30
0
41
1
10
70.2800288087502
20
-4.68911200971749
30
0
41
1
10
69.9729201937467
20
-4.59445240085176
30
0
41
1
10
69.3590778337254
20
-4.39730602509249
30
0
41
1
10
69.0525213444772
20
-4.29504815455982
30
0
41
1
10
68.4395361742989
20
-4.08232936097679
30
0
41
1
10
68.133258976896
20
-3.9717268380941
30
0
41
1
10
67.5206920023797
20
-3.74273159967919
30
0
41
1
10
67.214230213928
20
-3.62523136036634
30
0
41
1
10
66.6012492095398
20
-3.38284252807151
30
0
41
1
10
66.2944671974773
20
-3.25815181071917
30
0
41
1
10
65.6803045116508
20
-3.00226139952497
30
0
41
1
10
65.3729275069916
20
-2.871124767044
30
0
41
1
10
64.7569259450857
20
-2.60407566094546
30
0
41
1
10
64.4485732028797
20
-2.46770898567792
30
0
41
1
10
63.8300952401365
20
-2.1890328505236
30
0
41
1
10
63.5201607201211
20
-2.04721822363183
30
0
41
1
10
62.8987404270205
20
-1.75949685517364
30
0
41
1
10
62.5882393376802
20
-1.6142309287516
30
0
41
1
10
61.9682763971044
20
-1.32015196384845
30
0
41
1
10
61.6584398159555
20
-1.17205072085778
30
0
41
1
10
61.0389678666377
20
-0.874058609619055
30
0
41
1
10
60.7293864513263
20
-0.72404621832635
30
0
41
1
10
60.1098525961288
20
-0.423086590985207
30
0
41
1
10
59.8001266506412
20
-0.271726700919004
30
0
41
1
10
59.1798848083803
20
0.0307322194624362
30
0
41
1
10
58.8695149290809
20
0.182133350542188
30
0
41
1
10
58.2479761168361
20
0.484955094141611
30
0
41
1
10
57.9379911839629
20
0.635301676298099
30
0
41
1
10
57.3194199557729
20
0.934376550154013
30
0
41
1
10
57.010616573046
20
1.08263029181919
30
0
41
1
10
56.3941882853649
20
1.37641847743655
30
0
41
1
10
56.0867406891878
20
1.52182171686576
30
0
41
1
10
55.4720538006748
20
1.80867401811889
30
0
41
1
10
55.1651033621006
20
1.9506679050518
30
0
41
1
10
54.551350004427
20
2.23010100854512
30
0
41
1
10
54.2447079613322
20
2.36746312559251
30
0
41
1
10
53.631508765824
20
2.63741837232772
30
0
41
1
10
53.3247187612415
20
2.769931021205
30
0
41
1
10
52.7111470718094
20
3.03018234612102
30
0
41
1
10
52.4041544834336
20
3.15741478933654
30
0
41
1
10
51.7894750104057
20
3.40494582507023
30
0
41
1
10
51.4819161264072
20
3.52608742300143
30
0
41
1
10
50.8655569867759
20
3.76150748220158
30
0
41
1
10
50.5570124162028
20
3.8761789975228
30
0
41
1
10
49.9382990670384
20
4.09682194951057
30
0
41
1
10
49.6282264723578
20
4.20342675037818
30
0
41
1
10
49.0066443721805
20
4.4094977159354
30
0
41
1
10
48.6960986137989
20
4.50783766386252
30
0
41
1
10
48.0772462976823
20
4.6949401479819
30
0
41
1
10
47.7684421049814
20
4.78376284811483
30
0
41
1
10
46.8434582232694
20
5.03611008904613
30
0
41
1
10
46.2292112054271
20
5.18415548202216
30
0
41
1
10
45.3086196133838
20
5.37622679601211
30
0
41
1
10
45.0018932981523
20
5.43517063978962
30
0
41
1
10
44.3887394754615
20
5.54194127678036
30
0
41
1
10
44.0820485777747
20
5.5897269591826
30
0
41
1
10
43.4686353618597
20
5.67538840278175
30
0
41
1
10
43.1617745081428
20
5.71308189715231
30
0
41
1
10
42.5473499935913
20
5.77675449413786
30
0
41
1
10
42.2399765613864
20
5.80278997946834
30
0
41
1
10
41.6239956991742
20
5.84408463060171
30
0
41
1
10
41.3156227612029
20
5.85952482723772
30
0
41
1
10
40.7413998546879
20
5.87719192286818
30
0
41
1
10
40.4756816729703
20
5.88085524030777
30
0
41
1
10
40.209450023894
20
5.88035011468861
30
0
0
SPLINE
5
D7
100
AcDbEntity
8
1
62
256
6
ByLayer
370
18
48
1
60
0
100
AcDbSpline
70
4
71
3
72
50
73
46
40
0
40
0
40
0
40
0
40
0.0223854381541033
40
0.0223854381541033
40
0.0447708763082065
40
0.0447708763082065
40
0.0895417526164139
40
0.0895417526164139
40
0.17908350523283
40
0.17908350523283
40
0.223854381541037
40
0.223854381541037
40
0.246239819695141
40
0.246239819695141
40
0.268625257849245
40
0.268625257849245
40
0.358167010465661
40
0.358167010465661
40
0.447708763082078
40
0.447708763082078
40
0.470094201236182
40
0.470094201236182
40
0.492479639390287
40
0.492479639390287
40
0.537250515698496
40
0.537250515698496
40
0.626792268314914
40
0.626792268314914
40
0.671563144623123
40
0.671563144623123
40
0.693948582777228
40
0.693948582777228
40
0.716334020931332
40
0.716334020931332
40
0.805875773547752
40
0.805875773547752
40
0.895417526164172
40
0.895417526164172
40
0.917802964318276
40
0.917802964318276
40
0.940188402472381
40
0.940188402472381
40
0.984959278780591
40
0.984959278780591
40
1
40
1
40
1
40
1
41
1
10
20.4288623517358
20
5.92247089894633
30
0
41
1
10
20.7302641244763
20
5.94609594034233
30
0
41
1
10
21.0309918491453
20
5.96409045484535
30
0
41
1
10
21.6314111233129
20
5.98905026868928
30
0
41
1
10
21.9307043542897
20
5.99606037802167
30
0
41
1
10
22.8275841926265
20
6.00063861073451
30
0
41
1
10
23.4235388227277
20
5.98186981098709
30
0
41
1
10
25.2085740768387
20
5.86112841111668
30
0
41
1
10
26.3961053595891
20
5.69511610506382
30
0
41
1
10
28.1869626081963
20
5.32403140637442
30
0
41
1
10
28.7857406292381
20
5.18016863671235
30
0
41
1
10
29.6885644065729
20
4.9354278241064
30
0
41
1
10
29.9901629389696
20
4.84881905604641
30
0
41
1
10
30.5909777663368
20
4.66770771233726
30
0
41
1
10
30.8907190518428
20
4.57304579915419
30
0
41
1
10
32.3861502056631
20
4.0794415081767
30
0
41
1
10
33.5740543550821
20
3.6224892886431
30
0
41
1
10
35.9512291226543
20
2.61527713703876
30
0
41
1
10
37.1412039837974
20
2.06622898374266
30
0
41
1
10
38.6423197119665
20
1.34418617613676
30
0
41
1
10
38.9439053625003
20
1.19800339507239
30
0
41
1
10
39.5453060339685
20
0.903720727514269
30
0
41
1
10
39.8453286396933
20
0.756184281446195
30
0
41
1
10
40.7433922020278
20
0.312401926900804
30
0
41
1
10
41.3395090249232
20
0.0151655907246209
30
0
41
1
10
43.1245375218384
20
-0.871511883779561
30
0
41
1
10
44.3096029886353
20
-1.45699770835063
30
0
41
1
10
46.0951528478847
20
-2.2955972548352
30
0
41
1
10
46.6916879263387
20
-2.56848550483761
30
0
41
1
10
47.5900565586442
20
-2.96472626788452
30
0
41
1
10
47.8901992296774
20
-3.09444787891095
30
0
41
1
10
48.4921551454723
20
-3.34858494580752
30
0
41
1
10
48.7927535033642
20
-3.47288247539763
30
0
41
1
10
50.2915983576384
20
-4.07476616051233
30
0
41
1
10
51.4792348545382
20
-4.50022398824274
30
0
41
1
10
53.8537735043886
20
-5.21029143125162
30
0
41
1
10
55.0395577183903
20
-5.49623748249431
30
0
41
1
10
56.5339893266452
20
-5.75143580205977
30
0
41
1
10
56.8333089934023
20
-5.79749865414979
30
0
41
1
10
57.4336426582638
20
-5.8789834845102
30
0
41
1
10
57.734991423376
20
-5.91450636717056
30
0
41
1
10
58.6353720904394
20
-6.00436901586963
30
0
41
1
10
59.2326850986386
20
-6.04211241504748
30
0
41
1
10
60.0284383206523
20
-6.06325349941454
30
0
41
1
10
60.2283387474827
20
-6.06609072981161
30
0
41
1
10
60.4280838821329
20
-6.06646144852039
30
0
0
SPLINE
5
D8
100
AcDbEntity
8
1
62
256
6
ByLayer
370
18
48
1
60
0
100
AcDbSpline
70
4
71
3
72
54
73
50
40
0
40
0
40
0
40
0
40
0.0033731444044624
40
0.0033731444044624
40
0.0800367486810456
40
0.0800367486810456
40
0.118368550819337
40
0.118368550819337
40
0.137534451888482
40
0.137534451888482
40
0.156700352957627
40
0.156700352957627
40
0.233363957234209
40
0.233363957234209
40
0.310027561510791
40
0.310027561510791
40
0.329193462579936
40
0.329193462579936
40
0.348359363649081
40
0.348359363649081
40
0.38669116578737
40
0.38669116578737
40
0.463354770063951
40
0.463354770063951
40
0.501686572202241
40
0.501686572202241
40
0.520852473271386
40
0.520852473271386
40
0.54001837434053
40
0.54001837434053
40
0.616681978617108
40
0.616681978617108
40
0.693345582893685
40
0.693345582893685
40
0.71251148396283
40
0.71251148396283
40
0.731677385031975
40
0.731677385031975
40
0.770009187170264
40
0.770009187170264
40
0.846672791446843
40
0.846672791446843
40
0.923336395723423
40
0.923336395723423
40
0.942502296792567
40
0.942502296792567
40
0.961668197861711
40
0.961668197861711
40
1
40
1
40
1
40
1
41
1
10
88.2592877608893
20
4.04576899961427
30
0
41
1
10
88.3115129391166
20
4.06558373107063
30
0
41
1
10
88.3637284747439
20
4.08528256912942
30
0
41
1
10
89.6024752753467
20
4.54990391717143
30
0
41
1
10
90.7845346321432
20
4.93439592078451
30
0
41
1
10
92.5655535132282
20
5.40093404451139
30
0
41
1
10
93.1606950192568
20
5.53794224099656
30
0
41
1
10
94.0572897701345
20
5.71356564849697
30
0
41
1
10
94.3568514948165
20
5.76718069784548
30
0
41
1
10
94.9574351922298
20
5.86376834262353
30
0
41
1
10
95.2567515079519
20
5.90668709144384
30
0
41
1
10
96.7504820912148
20
6.0935674677738
30
0
41
1
10
97.9345867972129
20
6.15530294017577
30
0
41
1
10
100.302507460416
20
6.10343998918881
30
0
41
1
10
101.485594344159
20
5.98969676110011
30
0
41
1
10
102.977233752075
20
5.74034689512223
30
0
41
1
10
103.276105577803
20
5.68506446884462
30
0
41
1
10
103.875435756375
20
5.56386597685415
30
0
41
1
10
104.175827347349
20
5.49806585189233
30
0
41
1
10
105.072749026257
20
5.28618125684517
30
0
41
1
10
105.667886817612
20
5.12581810403913
30
0
41
1
10
107.448861336181
20
4.59302513236392
30
0
41
1
10
108.62929855906
20
4.16751051139966
30
0
41
1
10
110.406551137478
20
3.44816070193764
30
0
41
1
10
110.999785341288
20
3.19444962067013
30
0
41
1
10
111.892976492948
20
2.79616430930494
30
0
41
1
10
112.191424239393
20
2.66075959711495
30
0
41
1
10
112.78947804164
20
2.38402927664381
30
0
41
1
10
113.089783312933
20
2.24276917434835
30
0
41
1
10
114.58658065801
20
1.52962701617554
30
0
41
1
10
115.771189301817
20
0.932934392320675
30
0
41
1
10
118.137358220906
20
-0.267277782476299
30
0
41
1
10
119.318143070403
20
-0.872358626729834
30
0
41
1
10
120.80470711667
20
-1.60781894693548
30
0
41
1
10
121.102421975006
20
-1.75412274170793
30
0
41
1
10
121.699505966967
20
-2.04343989399521
30
0
41
1
10
121.998955442931
20
-2.18714484049141
30
0
41
1
10
122.897782486105
20
-2.61164425548114
30
0
41
1
10
123.493815233993
20
-2.88450025157241
30
0
41
1
10
125.275642222469
20
-3.66764074235488
30
0
41
1
10
126.455911333547
20
-4.14112867876966
30
0
41
1
10
128.820636900827
20
-4.96166855964361
30
0
41
1
10
130.005872509756
20
-5.30773008399652
30
0
41
1
10
131.502784065713
20
-5.64313667438068
30
0
41
1
10
131.802428734435
20
-5.70509171232555
30
0
41
1
10
132.400630682129
20
-5.81831612824922
30
0
41
1
10
132.69931359793
20
-5.86973631392894
30
0
41
1
10
133.595543239527
20
-6.0075404746843
30
0
41
1
10
134.192543940059
20
-6.07795222456059
30
0
41
1
10
134.790340363792
20
-6.1261615926129
30
0
0
SPLINE
5
D9
100
AcDbEntity
8
1
62
256
6
ByLayer
370
18
48
1
60
0
100
AcDbSpline
70
4
71
3
72
10
73
6
40
0
40
0
40
0
40
0
40
0.5
40
0.5
40
1
40
1
40
1
40
1
41
1
10
5.95181073095452
20
-5.52109678483518
30
0
41
1
10
5.97523899694284
20
-5.47866199642823
30
0
41
1
10
6.00410040311488
20
-5.43329904417382
30
0
41
1
10
6.07113052233473
20
-5.33863278729257
30
0
41
1
10
6.10910074157667
20
-5.28954688433487
30
0
41
1
10
6.15105259405374
20
-5.23890103279481
30
0
0
SPLINE
5
DA
100
AcDbEntity
8
1
62
256
6
ByLayer
370
18
48
1
60
0
100
AcDbSpline
70
4
71
3
72
10
73
6
40
0
40
0
40
0
40
0
40
0.499999999999999
40
0.499999999999999
40
1
40
1
40
1
40
1
41
1
10
13.3373853402198
20
4.75188300879361
30
0
41
1
10
14.5161268129312
20
5.04988728909433
30
0
41
1
10
15.7001811089076
20
5.29779673219147
30
0
41
1
10
18.0757437725271
20
5.69333746204475
30
0
41
1
10
19.2564822592089
20
5.83926240091662
30
0
41
1
10
20.4288623517356
20
5.92247089894636
30
0
0
SPLINE
5
DB
100
AcDbEntity
8
1
62
256
6
ByLayer
370
18
48
1
60
0
100
AcDbSpline
70
4
71
3
72
10
73
6
40
0
40
0
40
0
40
0
40
0.500000000000001
40
0.500000000000001
40
1
40
1
40
1
40
1
41
1
10
13.3373853402198
20
-4.75188300879361
30
0
41
1
10
14.5161268129312
20
-5.04988728909433
30
0
41
1
10
15.7001811089075
20
-5.29779673219147
30
0
41
1
10
18.075743772527
20
-5.69333746204475
30
0
41
1
10
19.2564822592089
20
-5.83926240091662
30
0
41
1
10
20.4288623517356
20
-5.92247089894636
30
0
0
SPLINE
5
DC
100
AcDbEntity
8
1
62
256
6
ByLayer
370
13
48
1
60
0
100
AcDbSpline
70
4
71
3
72
93
73
89
40
0
40
0
40
0
40
0
40
0.0090530882891593
40
0.0208350145739075
40
0.0385079040010334
40
0.0443988671434083
40
0.0561807934281581
40
0.0679627197129091
40
0.0856356091400323
40
0.0915265722824072
40
0.103308498567155
40
0.115090424851905
40
0.132763314279029
40
0.138654277421406
40
0.150436203706155
40
0.162218129990906
40
0.17989101941803
40
0.185781982560404
40
0.197563908845154
40
0.209345835129903
40
0.22701872455703
40
0.232909687699403
40
0.244691613984152
40
0.256473540268903
40
0.274146429696026
40
0.280037392838401
40
0.291819319123151
40
0.303601245407901
40
0.321274134835023
40
0.3271650979774
40
0.338947024262151
40
0.350728950546899
40
0.368401839974022
40
0.374292803116399
40
0.386074729401148
40
0.397856655685896
40
0.415529545113021
40
0.421420508255397
40
0.433202434540147
40
0.444984360824897
40
0.462657250252019
40
0.468548213394396
40
0.480330139679145
40
0.492112065963895
40
0.50978495539102
40
0.515675918533395
40
0.527457844818143
40
0.539239771102894
40
0.556912660530017
40
0.562803623672393
40
0.574585549957143
40
0.586367476241892
40
0.604040365669016
40
0.609931328811391
40
0.621713255096141
40
0.633495181380891
40
0.651168070808016
40
0.65705903395039
40
0.668840960235139
40
0.680622886519889
40
0.698295775947015
40
0.704186739089389
40
0.715968665374139
40
0.727750591658888
40
0.745423481086013
40
0.751314444228387
40
0.763096370513138
40
0.774878296797886
40
0.792551186225012
40
0.798442149367386
40
0.810224075652136
40
0.822006001936885
40
0.83967889136401
40
0.845569854506384
40
0.857351780791134
40
0.869133707075883
40
0.886806596503008
40
0.892697559645383
40
0.904479485930133
40
0.916261412214882
40
0.933934301642007
40
0.939825264784382
40
0.951607191069132
40
0.963389117353881
40
0.981062006781006
40
0.98695296992338
40
0.99873489620813
40
1
40
1
40
1
40
1
41
1
10
84.5344761864617
20
-2.47434187130392
30
0
41
1
10
84.4599402198284
20
-2.48199661557516
30
0
41
1
10
84.2884088028238
20
-2.49928042987224
30
0
41
1
10
83.9713742490197
20
-2.52982163778404
30
0
41
1
10
83.6803372837036
20
-2.55607175983681
30
0
41
1
10
83.3893072943383
20
-2.58086479555354
30
0
41
1
10
83.1468108543544
20
-2.60055913308182
30
0
41
1
10
82.8073101472085
20
-2.62636967184636
30
0
41
1
10
82.5162737457185
20
-2.64665826067454
30
0
41
1
10
82.2252444727811
20
-2.66544166163399
30
0
41
1
10
81.9827486252558
20
-2.68008840746671
30
0
41
1
10
81.643248605164
20
-2.69878019130232
30
0
41
1
10
81.3522125969184
20
-2.71292592504622
30
0
41
1
10
81.0611834865733
20
-2.72552758918758
30
0
41
1
10
80.8186877005285
20
-2.73498982782022
30
0
41
1
10
80.4791876547949
20
-2.74638250400329
30
0
41
1
10
80.1881514260279
20
-2.75424202826937
30
0
41
1
10
79.8971218585535
20
-2.76052766050603
30
0
41
1
10
79.6546255038184
20
-2.76469971702974
30
0
41
1
10
79.3151244866524
20
-2.7686619838338
30
0
41
1
10
79.0240874550524
20
-2.77014608420231
30
0
41
1
10
78.7330573631907
20
-2.77005307480007
30
0
41
1
10
78.4905608321773
20
-2.76890175602648
30
0
41
1
10
78.1510600106991
20
-2.76541597913811
30
0
41
1
10
77.8600235313892
20
-2.76053349349311
30
0
41
1
10
77.5689942072384
20
-2.75408306758465
30
0
41
1
10
77.3264983308155
20
-2.74763304742623
30
0
41
1
10
76.9869982858281
20
-2.73674557599315
30
0
41
1
10
76.6959622682752
20
-2.72554788310393
30
0
41
1
10
76.4049331506794
20
-2.71280125508625
30
0
41
1
10
76.1624373710342
20
-2.70111066292648
30
0
41
1
10
75.8229373651339
20
-2.68291508031058
30
0
41
1
10
75.5319011958961
20
-2.66549451318289
30
0
41
1
10
75.2408717030033
20
-2.64655448583304
30
0
41
1
10
74.9983753992018
20
-2.6297164310879
30
0
41
1
10
74.658874416045
20
-2.60435956352549
30
0
41
1
10
74.3678373805061
20
-2.58086288204208
30
0
41
1
10
74.0768072623283
20
-2.55589887580422
30
0
41
1
10
73.8343107041342
20
-2.53407086232795
30
0
41
1
10
73.494809847186
20
-2.50179815067941
30
0
41
1
10
73.2037733436208
20
-2.47245689646059
30
0
41
1
10
72.912744005125
20
-2.44171291292406
30
0
41
1
10
72.6702481280552
20
-2.41510591414055
30
0
41
1
10
72.3307481024925
20
-2.37622497175963
30
0
41
1
10
72.0397121174356
20
-2.34131442785463
30
0
41
1
10
71.7486830383652
20
-2.30507548415764
30
0
41
1
10
71.5061872962075
20
-2.27393421185604
30
0
41
1
10
71.166687350427
20
-2.22879963092854
30
0
41
1
10
70.875651234641
20
-2.18863547115888
30
0
41
1
10
70.5846217906682
20
-2.14722769551233
30
0
41
1
10
70.3421255136825
20
-2.11183149112904
30
0
41
1
10
70.0026245365489
20
-2.06084810145631
30
0
41
1
10
69.7115874788677
20
-2.01579241195671
30
0
41
1
10
69.4205573231043
20
-1.9695927978633
30
0
41
1
10
69.1780607214836
20
-1.93026672920396
30
0
41
1
10
68.8385597824066
20
-1.87390649165607
30
0
41
1
10
68.5475231916474
20
-1.82437871432918
30
0
41
1
10
68.2564937575593
20
-1.77381733275243
30
0
41
1
10
68.013997813552
20
-1.73092698230528
30
0
41
1
10
67.6744977337586
20
-1.66971284604361
30
0
41
1
10
67.3834617401899
20
-1.61617153793676
30
0
41
1
10
67.0924326816983
20
-1.56171573803803
30
0
41
1
10
66.8499369644782
20
-1.51565717232123
30
0
41
1
10
66.5104370549408
20
-1.45015416766046
30
0
41
1
10
66.219400970183
20
-1.3930936274034
30
0
41
1
10
65.9283715532821
20
-1.33524665963884
30
0
41
1
10
65.6858753000905
20
-1.28644585213465
30
0
41
1
10
65.3463743640759
20
-1.21725925630923
30
0
41
1
10
65.0553373502282
20
-1.15720507201419
30
0
41
1
10
64.7643072478966
20
-1.09649707554979
30
0
41
1
10
64.5218106784796
20
-1.04539936923675
30
0
41
1
10
64.1823097433835
20
-0.973158477716936
30
0
41
1
10
63.8912731161738
20
-0.910656124238642
30
0
41
1
10
63.6002436123884
20
-0.847639700705088
30
0
41
1
10
63.3577476222829
20
-0.79471128962544
30
0
41
1
10
63.0182475327082
20
-0.720077304557321
30
0
41
1
10
62.727211582811
20
-0.655701287618882
30
0
41
1
10
62.4361826098327
20
-0.590957842728898
30
0
41
1
10
62.1936869642707
20
-0.536688487914375
30
0
41
1
10
61.854187126424
20
-0.460354849319543
30
0
41
1
10
61.5631510732809
20
-0.394706469816271
30
0
41
1
10
61.2721216590608
20
-0.328843430006145
30
0
41
1
10
61.0296254070179
20
-0.273743979195416
30
0
41
1
10
60.6901244903812
20
-0.196428644107954
30
0
41
1
10
60.3990875108489
20
-0.130120733273174
30
0
41
1
10
60.1080574612969
20
-0.0637443949115664
30
0
41
1
10
59.9521441485276
20
-0.0281064902853529
30
0
41
1
10
59.8447291282145
20
-0.0035539904045834
30
0
41
1
10
59.834313628498
20
-0.001173280462325
30
0
0
SPLINE
5
DD
100
AcDbEntity
8
1
62
256
6
ByLayer
370
18
48
1
60
0
100
AcDbSpline
70
4
71
3
72
18
73
14
40
0
40
0
40
0
40
0
40
0.0752682778935306
40
0.0752682778935306
40
0.150536555787061
40
0.150536555787061
40
0.301073111574122
40
0.301073111574122
40
0.602146223148243
40
0.602146223148243
40
0.903219334722364
40
0.903219334722364
40
1
40
1
40
1
40
1
41
1
10
5.50828876934509
20
-5.43316405561615
30
0
41
1
10
5.50353658669513
20
-5.45954205327649
30
0
41
1
10
5.50063369037406
20
-5.48503033368715
30
0
41
1
10
5.49831390234226
20
-5.53420306720574
30
0
41
1
10
5.4988968597907
20
-5.55788614118802
30
0
41
1
10
5.49888569691774
20
-5.62603520569439
30
0
41
1
10
5.49887250551706
20
-5.66775696728729
30
0
41
1
10
5.49881787981587
20
-5.78066548858664
30
0
41
1
10
5.49876175572038
20
-5.83941054125663
30
0
41
1
10
5.49862170356653
20
-5.92497855654145
30
0
41
1
10
5.49853774532366
20
-5.95179882217045
30
0
41
1
10
5.49841501351284
20
-5.96583826720169
30
0
41
1
10
5.49838416617783
20
-5.96754966640694
30
0
41
1
10
5.49835259829052
20
-5.9675625931599
30
0
0
SPLINE
5
DE
100
AcDbEntity
8
1
62
256
6
ByLayer
370
18
48
1
60
0
100
AcDbSpline
70
4
71
3
72
54
73
50
40
0
40
0
40
0
40
0
40
0.0149762352066875
40
0.0149762352066875
40
0.0397716792100636
40
0.0397716792100636
40
0.0645671232134397
40
0.0645671232134397
40
0.163748899226942
40
0.163748899226942
40
0.262930675240443
40
0.262930675240443
40
0.287726119243819
40
0.287726119243819
40
0.312521563247194
40
0.312521563247194
40
0.362112451253945
40
0.362112451253945
40
0.38690789525732
40
0.38690789525732
40
0.411703339260696
40
0.411703339260696
40
0.461294227267446
40
0.461294227267446
40
0.510885115274197
40
0.510885115274197
40
0.560476003280947
40
0.560476003280947
40
0.610066891287698
40
0.610066891287698
40
0.659657779294448
40
0.659657779294448
40
0.684453223297823
40
0.684453223297823
40
0.709248667301199
40
0.709248667301199
40
0.75883955530795
40
0.75883955530795
40
0.783634999311326
40
0.783634999311326
40
0.808430443314701
40
0.808430443314701
40
0.858021331321453
40
0.858021331321453
40
0.907612219328204
40
0.907612219328204
40
0.957203107334955
40
0.957203107334955
40
1
40
1
40
1
40
1
41
1
10
23.4770347410021
20
5.99996431460929
30
0
41
1
10
23.6800306520772
20
6.00026262390608
30
0
41
1
10
23.8830022922158
20
5.99803987698317
30
0
41
1
10
24.422085443973
20
5.98544314076335
30
0
41
1
10
24.7582632869026
20
5.97068421207959
30
0
41
1
10
25.4311975515811
20
5.92737726769948
30
0
41
1
10
25.7682401795538
20
5.89879508679988
30
0
41
1
10
27.4525731375989
20
5.7219326717053
30
0
41
1
10
28.7928024064591
20
5.47222077372666
30
0
41
1
10
31.4882054497011
20
4.77789656528469
30
0
41
1
10
32.8286149735248
20
4.33695055843339
30
0
41
1
10
34.5116038694736
20
3.69365413960571
30
0
41
1
10
34.8486312777615
20
3.56037705537023
30
0
41
1
10
35.5212944482055
20
3.28630498321965
30
0
41
1
10
35.857272675973
20
3.14541314209387
30
0
41
1
10
36.8649009196354
20
2.71250194400059
30
0
41
1
10
37.5361207622558
20
2.41002222349559
30
0
41
1
10
38.5450359264322
20
1.94067611646773
30
0
41
1
10
38.8820083137208
20
1.78146423933316
30
0
41
1
10
39.5549369683465
20
1.45959101963248
30
0
41
1
10
39.8909882945638
20
1.29693720181231
30
0
41
1
10
40.8986057484112
20
0.805226548227296
30
0
41
1
10
41.5695535099067
20
0.472254989132182
30
0
41
1
10
42.9137331877447
20
-0.196242920685961
30
0
41
1
10
43.5876334152788
20
-0.532359546605136
30
0
41
1
10
44.9312610837205
20
-1.19467710703961
30
0
41
1
10
45.6020215339518
20
-1.52167007317286
30
0
41
1
10
46.945310606321
20
-2.15969004089572
30
0
41
1
10
47.6189896358455
20
-2.47144499851231
30
0
41
1
10
48.9629067969002
20
-3.06789815095152
30
0
41
1
10
49.6335260123501
20
-3.35311881579489
30
0
41
1
10
50.6404442518424
20
-3.75634685920801
30
0
41
1
10
50.9762417040988
20
-3.88667197607813
30
0
41
1
10
51.6485306495488
20
-4.1385139854269
30
0
41
1
10
51.9852546605137
20
-4.26006211029355
30
0
41
1
10
52.9935234437095
20
-4.60887100232449
30
0
41
1
10
53.6641567078904
20
-4.82088186357871
30
0
41
1
10
54.6706183221372
20
-5.10464009891072
30
0
41
1
10
55.0062041436963
20
-5.19350663811852
30
0
41
1
10
55.6779400442525
20
-5.35935762738376
30
0
41
1
10
56.0144165555092
20
-5.43638449129892
30
0
41
1
10
57.0231077988552
20
-5.64821921796886
30
0
41
1
10
57.6937965501006
20
-5.76373610774289
30
0
41
1
10
59.0352689199772
20
-5.94117561896232
30
0
41
1
10
59.7060832928328
20
-6.00308111539445
30
0
41
1
10
61.051534598475
20
-6.07138715286968
30
0
41
1
10
61.7224358853596
20
-6.07758702170511
30
0
41
1
10
62.9717570863188
20
-6.03734937367676
30
0
41
1
10
63.5503192082265
20
-5.99800383067517
30
0
41
1
10
64.1299502344275
20
-5.9381884816959
30
0
0
SPLINE
5
DF
100
AcDbEntity
8
1
62
256
6
ByLayer
370
18
48
1
60
0
100
AcDbSpline
70
4
71
3
72
52
73
48
40
0
40
0
40
0
40
0
40
0.0265689284515084
40
0.0265689284515084
40
0.0838295797190669
40
0.0838295797190669
40
0.141090230986625
40
0.141090230986625
40
0.198350882254184
40
0.198350882254184
40
0.255611533521743
40
0.255611533521743
40
0.312872184789302
40
0.312872184789302
40
0.34150251042308
40
0.34150251042308
40
0.370132836056858
40
0.370132836056858
40
0.427393487324417
40
0.427393487324417
40
0.456023812958196
40
0.456023812958196
40
0.484654138591976
40
0.484654138591976
40
0.541914789859534
40
0.541914789859534
40
0.599175441127093
40
0.599175441127093
40
0.656436092394652
40
0.656436092394652
40
0.71369674366221
40
0.71369674366221
40
0.74232706929599
40
0.74232706929599
40
0.770957394929769
40
0.770957394929769
40
0.828218046197328
40
0.828218046197328
40
0.856848371831106
40
0.856848371831106
40
0.885478697464885
40
0.885478697464885
40
0.942739348732442
40
0.942739348732442
40
0.971369674366221
40
0.971369674366221
40
1
40
1
40
1
40
1
41
1
10
99.6802530179795
20
6.13712851436921
30
0
41
1
10
99.9912758799767
20
6.1375282156138
30
0
41
1
10
100.301975008282
20
6.13187449556989
30
0
41
1
10
101.281739011402
20
6.09504047198587
30
0
41
1
10
101.950319032151
20
6.0419243789031
30
0
41
1
10
103.289828036913
20
5.88076679084838
30
0
41
1
10
103.961368370962
20
5.77250559216304
30
0
41
1
10
105.299935964883
20
5.5047557520399
30
0
41
1
10
105.968330166225
20
5.34526964160605
30
0
41
1
10
107.306916671429
20
4.9783986029837
30
0
41
1
10
107.978292219726
20
4.77052442422632
30
0
41
1
10
109.317120435951
20
4.313947837455
30
0
41
1
10
109.985365257371
20
4.06523607644141
30
0
41
1
10
110.988684321263
20
3.66550464826682
30
0
41
1
10
111.323280853203
20
3.52781428269137
30
0
41
1
10
111.993262652744
20
3.24425077868432
30
0
41
1
10
112.328768578284
20
3.09831137728881
30
0
41
1
10
113.333244756085
20
2.65119656718179
30
0
41
1
10
114.001436267706
20
2.34015801339396
30
0
41
1
10
115.004282442129
20
1.85918475835936
30
0
41
1
10
115.338663244876
20
1.69646863756731
30
0
41
1
10
116.008093233343
20
1.36712482650364
30
0
41
1
10
116.34347056048
20
1.20031639755973
30
0
41
1
10
117.348371817872
20
0.69676654996465
30
0
41
1
10
118.016569416902
20
0.357050606598619
30
0
41
1
10
119.353221015061
20
-0.323049405513132
30
0
41
1
10
120.021840745332
20
-0.663457583348986
30
0
41
1
10
121.362422192626
20
-1.3374190015256
30
0
41
1
10
122.030694797807
20
-1.66898781782734
30
0
41
1
10
123.366989265263
20
-2.31417991450783
30
0
41
1
10
124.034982987652
20
-2.62785466079367
30
0
41
1
10
125.039626307389
20
-3.07963547951187
30
0
41
1
10
125.37473857504
20
-3.22702686314483
30
0
41
1
10
126.043641360577
20
-3.51367334223752
30
0
41
1
10
126.377746297042
20
-3.65306620897047
30
0
41
1
10
127.379768095768
20
-4.05828970135468
30
0
41
1
10
128.047428198125
20
-4.3111097029238
30
0
41
1
10
129.051107358635
20
-4.6602291886305
30
0
41
1
10
129.386371377064
20
-4.77168404321125
30
0
41
1
10
130.055075327892
20
-4.98292430141484
30
0
41
1
10
130.388793542557
20
-5.08281201896708
30
0
41
1
10
131.388754647052
20
-5.36461051119412
30
0
41
1
10
132.053801804216
20
-5.5286492614988
30
0
41
1
10
133.05179195332
20
-5.73648474877695
30
0
41
1
10
133.384521714211
20
-5.79939958122455
30
0
41
1
10
134.050522592238
20
-5.91214484113297
30
0
41
1
10
134.383644890904
20
-5.96205032814299
30
0
41
1
10
134.717537444406
20
-6.00507724489037
30
0
0
SPLINE
5
E0
100
AcDbEntity
8
1
62
256
6
ByLayer
370
13
48
1
60
0
100
AcDbSpline
70
4
71
3
72
93
73
89
40
0
40
0
40
0
40
0
40
0.0072821268231264
40
0.019034911056312
40
0.0366640874060904
40
0.0425404795226832
40
0.0542932637558693
40
0.0660460479890549
40
0.0836752243388333
40
0.0895516164554261
40
0.101304400688612
40
0.113057184921797
40
0.130686361271576
40
0.136562753388169
40
0.148315537621354
40
0.16006832185454
40
0.177697498204318
40
0.183573890320911
40
0.195326674554097
40
0.207079458787283
40
0.224708635137061
40
0.230585027253654
40
0.242337811486839
40
0.254090595720025
40
0.271719772069804
40
0.277596164186396
40
0.289348948419582
40
0.301101732652768
40
0.318730909002546
40
0.324607301119139
40
0.336360085352324
40
0.348112869585511
40
0.365742045935289
40
0.371618438051882
40
0.383371222285067
40
0.395124006518253
40
0.412753182868031
40
0.418629574984624
40
0.43038235921781
40
0.442135143450995
40
0.459764319800774
40
0.465640711917367
40
0.477393496150552
40
0.489146280383738
40
0.506775456733517
40
0.512651848850109
40
0.524404633083295
40
0.536157417316481
40
0.553786593666259
40
0.559662985782852
40
0.571415770016037
40
0.583168554249223
40
0.600797730599001
40
0.606674122715594
40
0.61842690694878
40
0.630179691181965
40
0.647808867531744
40
0.653685259648337
40
0.665438043881523
40
0.677190828114708
40
0.694820004464487
40
0.70069639658108
40
0.712449180814265
40
0.724201965047451
40
0.741831141397229
40
0.747707533513822
40
0.759460317747008
40
0.771213101980193
40
0.788842278329972
40
0.794718670446565
40
0.806471454679751
40
0.818224238912936
40
0.835853415262715
40
0.841729807379307
40
0.853482591612493
40
0.865235375845679
40
0.882864552195457
40
0.88874094431205
40
0.900493728545235
40
0.912246512778421
40
0.929875689128199
40
0.935752081244793
40
0.947504865477975
40
0.959257649711164
40
0.976886826060943
40
0.982763218177535
40
0.994516002410721
40
1
40
1
40
1
40
1
41
1
10
116.951061433234
20
-0.0003130720094759
30
0
41
1
10
116.890953823359
20
0.0134068941316627
30
0
41
1
10
116.733832854011
20
0.0492545371998006
30
0
41
1
10
116.431198718242
20
0.118273555452106
30
0
41
1
10
116.140203971462
20
0.184678142884735
30
0
41
1
10
115.849202345355
20
0.250980150536606
30
0
41
1
10
115.606672552057
20
0.306049547827456
30
0
41
1
10
115.267136765226
20
0.382928011031453
30
0
41
1
10
114.976142153181
20
0.448672071441365
30
0
41
1
10
114.685140711578
20
0.514161454702958
30
0
41
1
10
114.442611070818
20
0.568454206884155
30
0
41
1
10
114.103075381856
20
0.644070728679964
30
0
41
1
10
113.812080673167
20
0.708550834799212
30
0
41
1
10
113.521078907628
20
0.772623762189511
30
0
41
1
10
113.27854889987
20
0.825636936018554
30
0
41
1
10
112.939012656786
20
0.899288396569091
30
0
41
1
10
112.648017502806
20
0.961904045495771
30
0
41
1
10
112.357015411407
20
1.0239653262887
30
0
41
1
10
112.114485255413
20
1.07520790544851
30
0
41
1
10
111.774949005122
20
1.14621429566137
30
0
41
1
10
111.483953991789
20
1.20638910216923
30
0
41
1
10
111.192952083596
20
1.26586812998357
30
0
41
1
10
110.950422079887
20
1.31486927982897
30
0
41
1
10
110.610886094207
20
1.38257901463723
30
0
41
1
10
110.319891433265
20
1.43976197097271
30
0
41
1
10
110.028890072628
20
1.49611538880779
30
0
41
1
10
109.786360535715
20
1.54242842896943
30
0
41
1
10
109.446824992392
20
1.60622481243197
30
0
41
1
10
109.155830400781
20
1.65989421021644
30
0
41
1
10
108.864828725558
20
1.71260545616386
30
0
41
1
10
108.62229879295
20
1.75580380740519
30
0
41
1
10
108.282762664142
20
1.81509617237413
30
0
41
1
10
107.991767601646
20
1.86475288256497
30
0
41
1
10
107.700765581902
20
1.91333118929265
30
0
41
1
10
107.45823545576
20
1.95301264505161
30
0
41
1
10
107.118699187261
20
2.00724968601219
30
0
41
1
10
106.82770410749
20
2.05243351348898
30
0
41
1
10
106.536702104745
20
2.09643075983789
30
0
41
1
10
106.294172019527
20
2.13223075888681
30
0
41
1
10
105.954635937172
20
2.18091602509426
30
0
41
1
10
105.663641220884
20
2.22121434408407
30
0
41
1
10
105.372639840209
20
2.26022826345482
30
0
41
1
10
105.130110305467
20
2.2918190254405
30
0
41
1
10
104.79057478525
20
2.33450636573852
30
0
41
1
10
104.49958022615
20
2.36954984506011
30
0
41
1
10
104.208578581592
20
2.40322336845912
30
0
41
1
10
103.96604867596
20
2.4303160113852
30
0
41
1
10
103.626512584204
20
2.46661461658871
30
0
41
1
10
103.335517542762
20
2.49608116233387
30
0
41
1
10
103.044515524881
20
2.52410278836993
30
0
41
1
10
102.801985381102
20
2.5464452861529
30
0
41
1
10
102.462449057386
20
2.57601627347864
30
0
41
1
10
102.17145390946
20
2.5996308891896
30
0
41
1
10
101.880451835412
20
2.62174094014992
30
0
41
1
10
101.637921690336
20
2.63912778974014
30
0
41
1
10
101.298385531769
20
2.66170050147281
30
0
41
1
10
101.007390768872
20
2.6792467742182
30
0
41
1
10
100.71638936826
20
2.69524025046169
30
0
41
1
10
100.47385984441
20
2.70750829305726
30
0
41
1
10
100.134324388283
20
2.72286960102196
30
0
41
1
10
99.8433299232211
20
2.73418297146122
30
0
41
1
10
99.5523283901701
20
2.74391397753834
30
0
41
1
10
99.3097985787902
20
2.75095462917693
30
0
41
1
10
98.9702626036838
20
2.75897238461837
30
0
41
1
10
98.6792676352042
20
2.76395714471081
30
0
41
1
10
98.3882656543116
20
2.76734143775175
30
0
41
1
10
98.1457355201806
20
2.76909173707253
30
0
41
1
10
97.8061991842413
20
2.76969151484698
30
0
41
1
10
97.51520400771
20
2.76829946906813
30
0
41
1
10
97.2242019036999
20
2.76530416645426
30
0
41
1
10
96.9816717239287
20
2.76174733639084
30
0
41
1
10
96.642135495689
20
2.75492236274803
30
0
41
1
10
96.3511406618261
20
2.74716301611096
30
0
41
1
10
96.0601391912039
20
2.73780831708646
30
0
41
1
10
95.8176096302404
20
2.7289679867977
30
0
41
1
10
95.4780741730473
20
2.71476717180818
30
0
41
1
10
95.187079750469
20
2.70070341821653
30
0
41
1
10
94.8960782858708
20
2.68507519344695
30
0
41
1
10
94.6535485311426
20
2.67103879881691
30
0
41
1
10
94.3140126114932
20
2.64960841407191
30
0
41
1
10
94.0230176587381
20
2.62938577434161
30
0
41
1
10
93.7320156571047
20
2.60764031376217
30
0
41
1
10
93.4894854909782
20
2.58854397211661
30
0
41
1
10
93.1499491028435
20
2.56008591766531
30
0
41
1
10
92.858953882165
20
2.53389055625425
30
0
41
1
10
92.5679517480818
20
2.50622661659727
30
0
41
1
10
92.3771665576815
20
2.48736113695301
30
0
41
1
10
92.2348892541784
20
2.47278402337486
30
0
41
1
10
92.1896233671864
20
2.46809522528469
30
0
0
SPLINE
5
E1
100
AcDbEntity
8
1
62
256
6
ByLayer
370
13
48
1
60
0
100
AcDbSpline
70
4
71
3
72
80
73
76
40
0
40
0
40
0
40
0
40
0.0174554173063325
40
0.0242315868421508
40
0.0377839259137876
40
0.0513362649854243
40
0.07166477359288
40
0.0784409431286978
40
0.0919932822003351
40
0.105545621271972
40
0.125874129879427
40
0.132650299415245
40
0.146202638486883
40
0.159754977558519
40
0.180083486165974
40
0.186859655701792
40
0.200411994773429
40
0.213964333845066
40
0.234292842452521
40
0.24106901198834
40
0.254621351059977
40
0.268173690131613
40
0.288502198739069
40
0.295278368274887
40
0.308830707346524
40
0.32238304641816
40
0.342711555025616
40
0.349487724561434
40
0.363040063633071
40
0.376592402704707
40
0.396920911312163
40
0.403697080847981
40
0.417249419919618
40
0.430801758991254
40
0.451130267598709
40
0.457906437134528
40
0.471458776206165
40
0.485011115277802
40
0.505339623885257
40
0.512115793421075
40
0.525668132492712
40
0.539220471564349
40
0.559548980171804
40
0.566325149707623
40
0.57987748877926
40
0.593429827850896
40
0.613758336458351
40
0.62053450599417
40
0.634086845065807
40
0.647639184137443
40
0.667967692744899
40
0.674743862280717
40
0.688296201352354
40
0.70184854042399
40
0.722177049031446
40
0.728953218567264
40
0.742505557638901
40
0.756057896710538
40
0.776386405317993
40
0.783162574853811
40
0.796714913925448
40
0.810267252997085
40
0.83059576160454
40
0.837371931140358
40
0.850924270211995
40
0.864476609283632
40
0.884805117891087
40
0.891581287426905
40
0.905133626498542
40
0.91868596557018
40
0.939014474177635
40
0.945790643713453
40
0.952566813249271
40
0.972895321856727
40
1
40
1
40
1
40
1
41
1
10
40.7539512494163
20
-0.0010574703699149
30
0
41
1
10
40.6290103400832
20
0.0274715581180942
30
0
41
1
10
40.4555766804417
20
0.0671044032646932
30
0
41
1
10
40.1851387468354
20
0.128878674714372
30
0
41
1
10
39.9426087672645
20
0.184138035124875
30
0
41
1
10
39.6030729539453
20
0.261365899685671
30
0
41
1
10
39.312078445697
20
0.327494365044458
30
0
41
1
10
39.0210770616167
20
0.393437159653871
30
0
41
1
10
38.778547463825
20
0.44815250758117
30
0
41
1
10
38.4390119014193
20
0.524439381549428
30
0
41
1
10
38.148017385431
20
0.589576426353659
30
0
41
1
10
37.85701591156
20
0.654375241481176
30
0
41
1
10
37.6144861478072
20
0.708038115002523
30
0
41
1
10
37.2749501588362
20
0.782677828458958
30
0
41
1
10
36.9839551178539
20
0.846222406312904
30
0
41
1
10
36.6929530351545
20
0.909279593647597
30
0
41
1
10
36.4504227678575
20
0.961394905777894
30
0
41
1
10
36.110886201201
20
1.03369916630587
30
0
41
1
10
35.819890871064
20
1.09506636072857
30
0
41
1
10
35.5288887489087
20
1.15580319125414
30
0
41
1
10
35.2863586980342
20
1.20589386672901
30
0
41
1
10
34.9468228062805
20
1.2752019161523
30
0
41
1
10
34.655828258525
20
1.33383089947389
30
0
41
1
10
34.3648268691728
20
1.39169080524127
30
0
41
1
10
34.1222972717571
20
1.43929667512387
30
0
41
1
10
33.7827617056757
20
1.50497055768599
30
0
41
1
10
33.4917671919195
20
1.5603212178857
30
0
41
1
10
33.2007657319353
20
1.61477189433128
30
0
41
1
10
32.9582360020803
20
1.65945564073539
30
0
41
1
10
32.6187001059945
20
1.72089246143204
30
0
41
1
10
32.3277051804353
20
1.77245625981846
30
0
41
1
10
32.0367032303707
20
1.82299608826656
30
0
41
1
10
31.7941730631512
20
1.86434497548234
30
0
41
1
10
31.4546365887313
20
1.92097560558918
30
0
41
1
10
31.1636412794988
20
1.9682735613157
30
0
41
1
10
30.872639118119
20
2.01443256715243
30
0
41
1
10
30.6301090166599
20
2.05206181372509
30
0
41
1
10
30.2905730537217
20
2.10335979836756
30
0
41
1
10
29.9995784518542
20
2.1459539989919
30
0
41
1
10
29.7085770281314
20
2.18730767157419
30
0
41
1
10
29.4660474007801
20
2.22087347626913
30
0
41
1
10
29.1265117819156
20
2.26637315686372
30
0
41
1
10
28.8355172229639
20
2.30387872307395
30
0
41
1
10
28.5445157280847
20
2.34005305359048
30
0
41
1
10
28.3019859886053
20
2.36925118996626
30
0
41
1
10
27.9624501182422
20
2.40853864661125
30
0
41
1
10
27.6714552462183
20
2.44061249695042
30
0
41
1
10
27.3804533653994
20
2.47127478871525
30
0
41
1
10
27.1379232498506
20
2.49583551742884
30
0
41
1
10
26.798386814881
20
2.52854535451095
30
0
41
1
10
26.5073914983685
20
2.55488631150624
30
0
41
1
10
26.2163892859381
20
2.57974603364946
30
0
41
1
10
25.9738591278552
20
2.59943478725836
30
0
41
1
10
25.6343230848885
20
2.62525385188474
30
0
41
1
10
25.3433284215361
20
2.64561199229522
30
0
41
1
10
25.0523269550862
20
2.66443881800007
30
0
41
1
10
24.8097972970043
20
2.67907775410498
30
0
41
1
10
24.4702616427445
20
2.69777879488376
30
0
41
1
10
24.1792670719902
20
2.71197832355671
30
0
41
1
10
23.8882655902951
20
2.72460865968728
30
0
41
1
10
23.6457358866699
20
2.73406901036824
30
0
41
1
10
23.3062001046471
20
2.74548513766513
30
0
41
1
10
23.0152053314273
20
2.75339747308661
30
0
41
1
10
22.7242035482239
20
2.75971642443872
30
0
41
1
10
22.4816735036299
20
2.76391202625021
30
0
41
1
10
22.1421371287449
20
2.7679379011127
30
0
41
1
10
21.8511418073359
20
2.76948711507723
30
0
41
1
10
21.5601395263365
20
2.76942965828286
30
0
41
1
10
21.3176092709568
20
2.76831345683888
30
0
41
1
10
20.9780730597651
20
2.76489822209229
30
0
41
1
10
20.6870782595222
20
2.76005947773376
30
0
41
1
10
20.444592053919
20
2.75472570819812
30
0
41
1
10
20.2020462118352
20
2.74860484229708
30
0
41
1
10
19.813957899529
20
2.73667123595399
30
0
41
1
10
19.4745059262289
20
2.72325190799862
30
0
41
1
10
19.2805397566003
20
2.71454743824111
30
0
0
SPLINE
5
E2
100
AcDbEntity
8
1
62
256
6
ByLayer
370
18
48
1
60
0
100
AcDbSpline
70
4
71
3
72
8
73
4
40
0
40
0
40
0
40
0
40
1
40
1
40
1
40
1
41
1
10
136.478068802859
20
1.53841963427655
30
0
41
1
10
136.190683471304
20
2.36946589155298
30
0
41
1
10
135.905411126793
20
3.20123701298491
30
0
41
1
10
135.622262875891
20
4.03373680869947
30
0
0
SPLINE
5
E3
100
AcDbEntity
8
1
62
256
6
ByLayer
370
13
48
1
60
0
100
AcDbSpline
70
4
71
3
72
26
73
22
40
0
40
0
40
0
40
0
40
0.0275615362950177
40
0.0832259563508739
40
0.166722586434655
40
0.194554796462581
40
0.250219216518435
40
0.305883636574289
40
0.389380266658069
40
0.417212476685996
40
0.47287689674185
40
0.528541316797704
40
0.612037946881484
40
0.639870156909411
40
0.695534576965265
40
0.751198997021119
40
0.834695627104899
40
0.862527837132826
40
0.91819225718868
40
0.973856677244536
40
1
40
1
40
1
40
1
41
1
10
135.539835817082
20
2.76746194543202
30
0
41
1
10
135.491802594466
20
2.76704058230254
30
0
41
1
10
135.346757056274
20
2.76556482582814
30
0
41
1
10
135.056198214992
20
2.7614228995744
30
0
41
1
10
134.765203861424
20
2.75536228865354
30
0
41
1
10
134.474202628354
20
2.74770543885549
30
0
41
1
10
134.231673113557
20
2.74027723791463
30
0
41
1
10
133.892137536745
20
2.72805066820348
30
0
41
1
10
133.601142859447
20
2.71567745495267
30
0
41
1
10
133.310141080054
20
2.70173376381396
30
0
41
1
10
133.06761104947
20
2.68909392293506
30
0
41
1
10
132.728074772053
20
2.66960797862336
30
0
41
1
10
132.437079586745
20
2.65104195513251
30
0
41
1
10
132.146077473296
20
2.63094033862075
30
0
41
1
10
131.903547228742
20
2.61320237102368
30
0
41
1
10
131.56401076926
20
2.58662625124666
30
0
41
1
10
131.273015632308
20
2.56202288489433
30
0
41
1
10
130.982013807606
20
2.53592748770612
30
0
41
1
10
130.739484039013
20
2.51323381487754
30
0
41
1
10
130.499902022902
20
2.48963041288519
30
0
41
1
10
130.357340571912
20
2.4750775362555
30
0
41
1
10
130.311782821892
20
2.47037496492271
30
0
0
SPLINE
5
E4
100
AcDbEntity
8
1
62
256
6
ByLayer
370
13
48
1
60
0
100
AcDbSpline
70
4
71
3
72
94
73
90
40
0
40
0
40
0
40
0
40
0.0022454271214285
40
0.008113639588506
40
0.0198500645226573
40
0.0315864894568071
40
0.0491911268580328
40
0.0550593393251093
40
0.0667957642592606
40
0.0785321891934094
40
0.0961368265946361
40
0.102005039061713
40
0.113741463995863
40
0.125477888930015
40
0.143082526331239
40
0.148950738798316
40
0.160687163732467
40
0.172423588666618
40
0.190028226067845
40
0.19589643853492
40
0.20763286346907
40
0.219369288403222
40
0.236973925804447
40
0.242842138271523
40
0.254578563205675
40
0.266314988139825
40
0.283919625541051
40
0.289787838008126
40
0.301524262942278
40
0.313260687876428
40
0.330865325277655
40
0.33673353774473
40
0.34846996267888
40
0.360206387613031
40
0.377811025014259
40
0.383679237481333
40
0.395415662415484
40
0.407152087349635
40
0.424756724750861
40
0.430624937217936
40
0.442361362152088
40
0.454097787086238
40
0.471702424487466
40
0.47757063695454
40
0.489307061888691
40
0.501043486822841
40
0.518648124224069
40
0.524516336691144
40
0.536252761625294
40
0.547989186559445
40
0.565593823960671
40
0.571462036427747
40
0.583198461361897
40
0.594934886296049
40
0.612539523697275
40
0.61840773616435
40
0.630144161098501
40
0.641880586032652
40
0.659485223433879
40
0.665353435900954
40
0.677089860835104
40
0.688826285769255
40
0.706430923170481
40
0.712299135637557
40
0.724035560571708
40
0.735771985505859
40
0.753376622907085
40
0.75924483537416
40
0.770981260308311
40
0.782717685242462
40
0.800322322643688
40
0.806190535110764
40
0.817926960044915
40
0.829663384979066
40
0.847268022380292
40
0.853136234847368
40
0.864872659781518
40
0.876609084715669
40
0.894213722116895
40
0.900081934583971
40
0.911818359518122
40
0.923554784452274
40
0.941159421853498
40
0.947027634320574
40
0.958764059254725
40
0.970500484188875
40
0.988105121590102
40
0.993973334057177
40
1
40
1
40
1
40
1
41
1
10
78.8488778920292
20
0.0001561097307103
30
0
41
1
10
78.8303197635345
20
0.0043971526649216
30
0
41
1
10
78.7632616609668
20
0.0197222745993031
30
0
41
1
10
78.599202295199
20
0.0572167931358933
30
0
41
1
10
78.3566720450397
20
0.112529903155433
30
0
41
1
10
78.0171356051096
20
0.189878432397791
30
0
41
1
10
77.7261405099783
20
0.256159982355939
30
0
41
1
10
77.4351387432283
20
0.322300788219593
30
0
41
1
10
77.1926090170368
20
0.377211219846487
30
0
41
1
10
76.8530735539991
20
0.45382277538755
30
0
41
1
10
76.5620793248387
20
0.51929036502284
30
0
41
1
10
76.271078183128
20
0.584461341692787
30
0
41
1
10
76.0285487112302
20
0.638461004722927
30
0
41
1
10
75.6890131220484
20
0.713618603974055
30
0
41
1
10
75.3980183611496
20
0.777654920610445
30
0
41
1
10
75.1070164401027
20
0.841242706325318
30
0
41
1
10
74.864486287372
20
0.893824999960231
30
0
41
1
10
74.5249498671301
20
0.966826577601978
30
0
41
1
10
74.2339545878943
20
1.02883680000929
30
0
41
1
10
73.9429524074674
20
1.09025349990688
30
0
41
1
10
73.7004221198337
20
1.14093414651396
30
0
41
1
10
73.3608856198065
20
1.21111061902548
30
0
41
1
10
73.0698904712465
20
1.27052948719128
30
0
41
1
10
72.7788886556021
20
1.32921727249894
30
0
41
1
10
72.5363589026116
20
1.37753704575036
30
0
41
1
10
72.1968234335617
20
1.44425278959784
30
0
41
1
10
71.9058292265411
20
1.50054060631658
30
0
41
1
10
71.6148281224044
20
1.55596305685938
30
0
41
1
10
71.3722986939164
20
1.6014778149997
30
0
41
1
10
71.0327631868267
20
1.66411633137483
30
0
41
1
10
70.7417685130803
20
1.71675085064919
30
0
41
1
10
70.4507666875793
20
1.7683937737946
30
0
41
1
10
70.2082366017545
20
1.81068151973022
30
0
41
1
10
69.8687002357201
20
1.86866244546721
30
0
41
1
10
69.5777049649948
20
1.9171564120486
30
0
41
1
10
69.2867027640009
20
1.96454201206961
30
0
41
1
10
69.0441724514417
20
2.00321176650647
30
0
41
1
10
68.7046359151863
20
2.05599934554729
30
0
41
1
10
68.4136407356101
20
2.09990468594882
30
0
41
1
10
68.1226388929052
20
2.14259477187369
30
0
41
1
10
67.8801091161328
20
2.1772885555923
30
0
41
1
10
67.540573605987
20
2.22439442444227
30
0
41
1
10
67.2495793551575
20
2.26330649846759
30
0
41
1
10
66.9585781976171
20
2.30091033014582
30
0
41
1
10
66.7160487369401
20
2.33131268062377
30
0
41
1
10
66.3765132258649
20
2.37231109950983
30
0
41
1
10
66.0855185885423
20
2.40587950433294
30
0
41
1
10
65.7945168326941
20
2.43805770449336
30
0
41
1
10
65.5519867929382
20
2.46389334208743
30
0
41
1
10
65.2124504366757
20
2.4984110609401
30
0
41
1
10
64.9214551222997
20
2.52632768197114
30
0
41
1
10
64.6304528358347
20
2.55278249776501
30
0
41
1
10
64.387922451651
20
2.57381076014286
30
0
41
1
10
64.0483858437346
20
2.6015231379416
30
0
41
1
10
63.757390632553
20
2.62352188491664
30
0
41
1
10
63.4663887871631
20
2.64399804879955
30
0
41
1
10
63.2238590092401
20
2.66001391091305
30
0
41
1
10
62.8843234797275
20
2.68065047428985
30
0
41
1
10
62.5933291946046
20
2.69652042730215
30
0
41
1
10
62.3023279843179
20
2.7108297009205
30
0
41
1
10
62.0597984976475
20
2.72169235417252
30
0
41
1
10
61.7202630131576
20
2.73508028021462
30
0
41
1
10
61.4292684597008
20
2.74469410621012
30
0
41
1
10
61.1382668378351
20
2.75272152857545
30
0
41
1
10
60.8957369014308
20
2.75834263025161
30
0
41
1
10
60.5562006312701
20
2.76437034703252
30
0
41
1
10
60.2652053316066
20
2.76764419916458
30
0
41
1
10
59.9742030074362
20
2.76931580051959
30
0
41
1
10
59.7316725866503
20
2.76964046408526
30
0
41
1
10
59.3921359465766
20
2.76824242615024
30
0
41
1
10
59.1011407232716
20
2.76513162417768
30
0
41
1
10
58.8101388785717
20
2.76041289713748
30
0
41
1
10
58.567609092294
20
2.75541942038299
30
0
41
1
10
58.22807351965
20
2.74658295899002
30
0
41
1
10
57.9370791693411
20
2.73710116581958
30
0
41
1
10
57.6460778728151
20
2.72603356414723
30
0
41
1
10
57.4035483252508
20
2.71577588165687
30
0
41
1
10
57.0640128022614
20
2.69960536958402
30
0
41
1
10
56.7730182643431
20
2.68386587729657
30
0
41
1
10
56.4820167018756
20
2.66657455888995
30
0
41
1
10
56.2394868136824
20
2.65116321741402
30
0
41
1
10
55.8999505763085
20
2.62782375179117
30
0
41
1
10
55.6089552701067
20
2.6059783044102
30
0
41
1
10
55.3179529081622
20
2.58262330989581
30
0
41
1
10
55.0754224510826
20
2.56219704567113
30
0
41
1
10
54.7358857664674
20
2.53189200667325
30
0
41
1
10
54.4448905087064
20
2.50412445013865
30
0
41
1
10
54.2010793390477
20
2.47963736369459
30
0
41
1
10
54.1027613698856
20
2.46951153758468
30
0
41
1
10
54.0529466831874
20
2.46431803868759
30
0
0
SPLINE
5
E5
100
AcDbEntity
8
1
62
256
6
ByLayer
370
18
48
1
60
0
100
AcDbSpline
70
4
71
1
72
4
73
2
40
0
40
0
40
1
40
1
41
1
10
136.058094171466
20
-1.42304080460244
30
0
41
1
10
136.060820945422
20
-1.41383536999979
30
0
0
SPLINE
5
E6
100
AcDbEntity
8
1
62
256
6
ByLayer
370
18
48
1
60
0
100
AcDbSpline
70
4
71
3
72
10
73
6
40
0
40
0
40
0
40
0
40
0.5
40
0.5
40
1
40
1
40
1
40
1
41
1
10
134.790340363792
20
6.12616159261287
30
0
41
1
10
134.92690555947
20
5.79164944366622
30
0
41
1
10
135.065323980695
20
5.45050938907809
30
0
41
1
10
135.343494028509
20
4.75359710716751
30
0
41
1
10
135.483275090624
20
4.39791085063641
30
0
41
1
10
135.622262875891
20
4.0337368086995
30
0
0
SPLINE
5
E7
100
AcDbEntity
8
1
62
256
6
ByLayer
370
18
48
1
60
0
100
AcDbSpline
70
4
71
3
72
10
73
6
40
0
40
0
40
0
40
0
40
0.643005961377464
40
0.643005961377464
40
1
40
1
40
1
40
1
41
1
10
100.273585149369
20
-5.98827392959976
30
0
41
1
10
99.7363558487393
20
-5.98808253747342
30
0
41
1
10
99.1980428751119
20
-5.97028344415583
30
0
41
1
10
98.3577587784818
20
-5.91491031181843
30
0
41
1
10
98.0567572459873
20
-5.88954947448295
30
0
41
1
10
97.7556382408935
20
-5.85879613589589
30
0
0
SPLINE
5
E8
100
AcDbEntity
8
1
62
256
6
ByLayer
370
13
48
1
60
0
100
AcDbSpline
70
4
71
3
72
36
73
32
40
0
40
0
40
0
40
0
40
0.0368832349440584
40
0.0368832349440584
40
0.103571805755011
40
0.103571805755011
40
0.236948947376917
40
0.236948947376917
40
0.303637518187871
40
0.303637518187871
40
0.370326088998826
40
0.370326088998826
40
0.503703230620731
40
0.503703230620731
40
0.570391801431684
40
0.570391801431684
40
0.637080372242636
40
0.637080372242636
40
0.703768943053589
40
0.703768943053589
40
0.737113228459066
40
0.737113228459066
40
0.770457513864542
40
0.770457513864542
40
0.903834655486446
40
0.903834655486446
40
0.937178940891922
40
0.937178940891922
40
0.970523226297399
40
0.970523226297399
40
1
40
1
40
1
40
1
41
1
10
97.7556382411593
20
-5.858796135923
30
0
41
1
10
97.3830122436759
20
-5.82073977524195
30
0
41
1
10
97.0102063563882
20
-5.77442569320596
30
0
41
1
10
95.9676549167298
20
-5.62224931764104
30
0
41
1
10
95.2993469577031
20
-5.49838880228796
30
0
41
1
10
93.2982695971735
20
-5.05519518055254
30
0
41
1
10
91.9691033213318
20
-4.66383948944468
30
0
41
1
10
89.9621590651199
20
-3.95773463121915
30
0
41
1
10
89.2905521392413
20
-3.70246144591979
30
0
41
1
10
87.94070097586
20
-3.15743061262071
30
0
41
1
10
87.269599080984
20
-2.87080229235292
30
0
41
1
10
85.2627543043569
20
-1.97873358028056
30
0
41
1
10
83.9330799992898
20
-1.34165135779699
30
0
41
1
10
81.9304692683775
20
-0.363910383306802
30
0
41
1
10
81.261484303166
20
-0.0344897300590219
30
0
41
1
10
79.9173561745115
20
0.624593361462985
30
0
41
1
10
79.2407660922462
20
0.954626069734786
30
0
41
1
10
77.893212027208
20
1.59999763490038
30
0
41
1
10
77.2204638859101
20
1.9159097333457
30
0
41
1
10
76.2103384836268
20
2.374760241572
30
0
41
1
10
75.8734265649803
20
2.52512160732698
30
0
41
1
10
75.1987959238494
20
2.81991955619387
30
0
41
1
10
74.8607931149393
20
2.96453279646988
30
0
41
1
10
73.173894323372
20
3.66789974814691
30
0
41
1
10
71.8310851072557
20
4.16899528183657
30
0
41
1
10
70.1430920637133
20
4.69105267493691
30
0
41
1
10
69.8050452965114
20
4.79016877173103
30
0
41
1
10
69.1296204835037
20
4.97680988058067
30
0
41
1
10
68.7919998424662
20
5.06444858354405
30
0
41
1
10
68.1555751054944
20
5.21824233937085
30
0
41
1
10
67.8567493563787
20
5.2856902363078
30
0
41
1
10
67.5587151372024
20
5.34812576165947
30
0
0
SPLINE
5
E9
100
AcDbEntity
8
1
62
256
6
ByLayer
370
18
48
1
60
0
100
AcDbSpline
70
4
71
3
72
12
73
8
40
0
40
0
40
0
40
0
40
0.337255713009182
40
0.337255713009182
40
0.756719233112419
40
0.756719233112419
40
1
40
1
40
1
40
1
41
1
10
23.9604223675117
20
-5.85080464365902
30
0
41
1
10
23.6883655667827
20
-5.84932899595879
30
0
41
1
10
23.4158594388298
20
-5.84343867269416
30
0
41
1
10
22.8064946980172
20
-5.82036879827996
30
0
41
1
10
22.4695436077647
20
-5.80081060448094
30
0
41
1
10
21.9381698754472
20
-5.75956783976855
30
0
41
1
10
21.7433201384446
20
-5.74220027107924
30
0
41
1
10
21.548637083541
20
-5.72263830822678
30
0
0
SPLINE
5
EA
100
AcDbEntity
8
1
62
256
6
ByLayer
370
13
48
1
60
0
100
AcDbSpline
70
4
71
3
72
18
73
14
40
0
40
0
40
0
40
0
40
0.221790854752184
40
0.221790854752184
40
0.351492378960154
40
0.351492378960154
40
0.416343141064138
40
0.416343141064138
40
0.481193903168123
40
0.481193903168123
40
0.740596951584062
40
0.740596951584062
40
1
40
1
40
1
40
1
41
1
10
21.548637082982
20
-5.72263830817064
30
0
41
1
10
20.4006338162729
20
-5.60728570455615
30
0
41
1
10
19.2584264231409
20
-5.41562957932413
30
0
41
1
10
17.4442163011975
20
-5.00193422997717
30
0
41
1
10
16.7738551193409
20
-4.82569257623948
30
0
41
1
10
15.764296879049
20
-4.52816963475809
30
0
41
1
10
15.4271064401306
20
-4.42345440910103
30
0
41
1
10
14.7509969626007
20
-4.20336322903933
30
0
41
1
10
14.4115540263141
20
-4.08783710912743
30
0
41
1
10
12.7212914440807
20
-3.48954878340084
30
0
41
1
10
11.3831221406588
20
-2.94308049581102
30
0
41
1
10
8.70856743486581
20
-1.76527018502227
30
0
41
1
10
7.37199107193248
20
-1.13442574401356
30
0
41
1
10
6.02241553000505
20
-0.488988510124074
30
0
0
SPLINE
5
EB
100
AcDbEntity
8
1
62
256
6
ByLayer
370
18
48
1
60
0
100
AcDbSpline
70
4
71
3
72
36
73
32
40
0
40
0
40
0
40
0
40
0.0999100825631422
40
0.0999100825631422
40
0.149865123844714
40
0.149865123844714
40
0.199820165126285
40
0.199820165126285
40
0.299730247689429
40
0.299730247689429
40
0.399640330252573
40
0.399640330252573
40
0.499550412815716
40
0.499550412815716
40
0.549505454097288
40
0.549505454097288
40
0.59946049537886
40
0.59946049537886
40
0.699370577942004
40
0.699370577942004
40
0.749325619223576
40
0.749325619223576
40
0.799280660505148
40
0.799280660505148
40
0.899190743068291
40
0.899190743068291
40
0.949145784349864
40
0.949145784349864
40
0.999100825631437
40
0.999100825631437
40
1
40
1
40
1
40
1
41
1
10
5.9065090417765
20
-0.729516154737752
30
0
41
1
10
6.5814950074473
20
-1.05922634367658
30
0
41
1
10
7.25597302066714
20
-1.38560231380572
30
0
41
1
10
8.2675060645368
20
-1.86371301591018
30
0
41
1
10
8.60502153583894
20
-2.02128044598695
30
0
41
1
10
9.27919738862278
20
-2.33106634235136
30
0
41
1
10
9.61584845401154
20
-2.48332219103844
30
0
41
1
10
10.6252384066269
20
-2.93081801352307
30
0
41
1
10
11.2975349454757
20
-3.21657187552336
30
0
41
1
10
12.6441345657555
20
-3.75717452440702
30
0
41
1
10
13.3192551590983
20
-4.01231150039769
30
0
41
1
10
14.6652389682971
20
-4.4819675176546
30
0
41
1
10
15.337362388043
20
-4.69672313539948
30
0
41
1
10
16.3466782733422
20
-4.98560662604288
30
0
41
1
10
16.6832958942938
20
-5.07636837441947
30
0
41
1
10
17.3573501512111
20
-5.24622996693884
30
0
41
1
10
17.6945306266268
20
-5.32525767154669
30
0
41
1
10
18.7042346730932
20
-5.54324402284729
30
0
41
1
10
19.3762206794964
20
-5.66329234903253
30
0
41
1
10
20.3849644144409
20
-5.80377577898966
30
0
41
1
10
20.7213306579824
20
-5.84400853890949
30
0
41
1
10
21.3947667202374
20
-5.91097407713087
30
0
41
1
10
21.7320743139261
20
-5.93771362459839
30
0
41
1
10
22.7421731417327
20
-5.99708109699327
30
0
41
1
10
23.4141094281862
20
-6.00900471993467
30
0
41
1
10
24.4223919505897
20
-5.98543185556309
30
0
41
1
10
24.7585754824518
20
-5.97066844996354
30
0
41
1
10
25.4315212736356
20
-5.9273521009996
30
0
41
1
10
25.7685699775262
20
-5.89876495774789
30
0
41
1
10
26.1115054452492
20
-5.86275063138254
30
0
41
1
10
26.1175688822158
20
-5.86211165574591
30
0
41
1
10
26.123632173995
20
-5.86147048961763
30
0
0
SPLINE
5
EC
100
AcDbEntity
8
1
62
256
6
ByLayer
370
18
48
1
60
0
100
AcDbSpline
70
4
71
3
72
56
73
52
40
0
40
0
40
0
40
0
40
0.0200273368705974
40
0.0200273368705974
40
0.0696010265913292
40
0.0696010265913292
40
0.0943878714516952
40
0.0943878714516952
40
0.119174716312061
40
0.119174716312061
40
0.168748406032793
40
0.168748406032793
40
0.193535250893159
40
0.193535250893159
40
0.218322095753525
40
0.218322095753525
40
0.267895785474258
40
0.267895785474258
40
0.31746947519499
40
0.31746947519499
40
0.367043164915723
40
0.367043164915723
40
0.416616854636455
40
0.416616854636455
40
0.466190544357188
40
0.466190544357188
40
0.490977389217555
40
0.490977389217555
40
0.515764234077922
40
0.515764234077922
40
0.565337923798655
40
0.565337923798655
40
0.590124768659022
40
0.590124768659022
40
0.614911613519389
40
0.614911613519389
40
0.714058992960854
40
0.714058992960854
40
0.81320637240232
40
0.81320637240232
40
0.837993217262686
40
0.837993217262686
40
0.862780062123053
40
0.862780062123053
40
0.912353751843787
40
0.912353751843787
40
0.937140596704153
40
0.937140596704153
40
0.96192744156452
40
0.96192744156452
40
1
40
1
40
1
40
1
41
1
10
61.5809596995521
20
6.06854559642045
30
0
41
1
10
61.8520782650459
20
6.06889378810254
30
0
41
1
10
62.1230469201807
20
6.06469470540711
30
0
41
1
10
63.0645742050094
20
6.03433413326314
30
0
41
1
10
63.734964958979
20
5.98490664228885
30
0
41
1
10
64.743098765158
20
5.86961262580968
30
0
41
1
10
65.0794917975076
20
5.82430236684726
30
0
41
1
10
65.7509245903603
20
5.7205473831566
30
0
41
1
10
66.0862924325249
20
5.662069228131
30
0
41
1
10
67.0920494209286
20
5.46738441510806
30
0
41
1
10
67.7621394480221
20
5.31196295392957
30
0
41
1
10
68.7693212088906
20
5.04266007564903
30
0
41
1
10
69.1057007474898
20
4.94676080115056
30
0
41
1
10
69.7774085886332
20
4.74409794716837
30
0
41
1
10
70.1128505375777
20
4.63728582781116
30
0
41
1
10
71.1185962013474
20
4.30130502591217
30
0
41
1
10
71.7884099830636
20
4.05670980164749
30
0
41
1
10
73.1302247962484
20
3.53134189038553
30
0
41
1
10
73.8030008460913
20
3.25034891091866
30
0
41
1
10
75.1441069436559
20
2.66244985267238
30
0
41
1
10
75.8137382693251
20
2.35528628204762
30
0
41
1
10
77.1546368399922
20
1.72084709522912
30
0
41
1
10
77.8272445450748
20
1.39316178538013
30
0
41
1
10
79.1686177888579
20
0.729187508423593
30
0
41
1
10
79.8381280483052
20
0.392867059199574
30
0
41
1
10
80.8432385544022
20
-0.112916138993001
30
0
41
1
10
81.178436331764
20
-0.281687457819032
30
0
41
1
10
81.8496187116924
20
-0.618655512345441
30
0
41
1
10
82.1857503655924
20
-0.786976790145928
30
0
41
1
10
83.1920800470724
20
-1.28784624848888
30
0
41
1
10
83.8615376327982
20
-1.61668597085307
30
0
41
1
10
84.8661476768582
20
-2.09739495525184
30
0
41
1
10
85.2011187047745
20
-2.25548148936929
30
0
41
1
10
85.8717278757204
20
-2.56647068842736
30
0
41
1
10
86.2076662745814
20
-2.71956490637123
30
0
41
1
10
87.8855873913417
20
-3.46807743329782
30
0
41
1
10
89.2210750100619
20
-4.01132395086447
30
0
41
1
10
91.9072013540708
20
-4.93986536562122
30
0
41
1
10
93.2422818993157
20
-5.31916733363587
30
0
41
1
10
94.919496406308
20
-5.66692094042861
30
0
41
1
10
95.2552320131373
20
-5.73011608786538
30
0
41
1
10
95.9254228093396
20
-5.8429999903158
30
0
41
1
10
96.2601938690957
20
-5.89276761590048
30
0
41
1
10
97.2640908913685
20
-6.02177775858954
30
0
41
1
10
97.9329812592856
20
-6.08062924056779
30
0
41
1
10
98.9384030836493
20
-6.12703204848882
30
0
41
1
10
99.2741902425577
20
-6.13551129944901
30
0
41
1
10
99.9446174215543
20
-6.13835424052945
30
0
41
1
10
100.279441718435
20
-6.13274338524073
30
0
41
1
10
101.128047434888
20
-6.10078492935551
30
0
41
1
10
101.641642230123
20
-6.06493884439925
30
0
41
1
10
102.155679879129
20
-6.01282679183524
30
0
0
SPLINE
5
ED
100
AcDbEntity
8
1
62
256
6
ByLayer
370
18
48
1
60
0
100
AcDbSpline
70
4
71
3
72
8
73
4
40
0
40
0
40
0
40
0
40
1
40
1
40
1
40
1
41
1
10
5.95181073093781
20
-5.52109678483379
30
0
41
1
10
5.80398412655501
20
-5.49307299436387
30
0
41
1
10
5.65614763858309
20
-5.46376331731034
30
0
41
1
10
5.5082887693616
20
-5.4331640556166
30
0
0
SPLINE
5
EE
100
AcDbEntity
8
1
62
256
6
ByLayer
370
18
48
1
60
0
100
AcDbSpline
70
4
71
3
72
20
73
16
40
0
40
0
40
0
40
0
40
0.125
40
0.125
40
0.25
40
0.25
40
0.375
40
0.375
40
0.5
40
0.5
40
0.75
40
0.75
40
0.875
40
0.875
40
1
40
1
40
1
40
1
41
1
10
136.05968005147
20
-1.41267371124206
30
0
41
1
10
135.993389328106
20
-1.42085918560602
30
0
41
1
10
135.929838260435
20
-1.41403476584418
30
0
41
1
10
135.807352806929
20
-1.37509227142837
30
0
41
1
10
135.748337015969
20
-1.34285555971434
30
0
41
1
10
135.634923858073
20
-1.25539392951612
30
0
41
1
10
135.581808079303
20
-1.20122681645333
30
0
41
1
10
135.481658381513
20
-1.07521627937004
30
0
41
1
10
135.434506189234
20
-1.00310826453338
30
0
41
1
10
135.302194716712
20
-0.764130351384665
30
0
41
1
10
135.228117040957
20
-0.579312904247132
30
0
41
1
10
135.133704249161
20
-0.27194332735121
30
0
41
1
10
135.105046106742
20
-0.164236844102732
30
0
41
1
10
135.053285440667
20
0.0604850370521604
30
0
41
1
10
135.030516422374
20
0.176003855936273
30
0
41
1
10
135.010586280518
20
0.294404037540801
30
0
0
SPLINE
5
EF
100
AcDbEntity
8
1
62
256
6
ByLayer
370
13
48
1
60
0
100
AcDbSpline
70
4
71
3
72
93
73
89
40
0
40
0
40
0
40
0
40
0.0077445045682381
40
0.0254187027498759
40
0.0313101021437547
40
0.0430929009315133
40
0.0548756997192719
40
0.0725498979009092
40
0.0784412972947885
40
0.0902240960825466
40
0.102006894870305
40
0.119681093051942
40
0.125572492445822
40
0.13735529123358
40
0.149138090021338
40
0.166812288202976
40
0.172703687596856
40
0.184486486384614
40
0.196269285172372
40
0.21394348335401
40
0.219834882747889
40
0.231617681535647
40
0.243400480323406
40
0.261074678505043
40
0.266966077898922
40
0.278748876686681
40
0.290531675474439
40
0.308205873656077
40
0.314097273049956
40
0.325880071837714
40
0.337662870625473
40
0.35533706880711
40
0.361228468200989
40
0.373011266988748
40
0.384794065776506
40
0.402468263958144
40
0.408359663352023
40
0.420142462139781
40
0.43192526092754
40
0.449599459109177
40
0.455490858503056
40
0.467273657290814
40
0.479056456078573
40
0.49673065426021
40
0.50262205365409
40
0.514404852441848
40
0.526187651229606
40
0.543861849411244
40
0.549753248805123
40
0.561536047592882
40
0.57331884638064
40
0.590993044562278
40
0.596884443956157
40
0.608667242743915
40
0.620450041531673
40
0.638124239713311
40
0.64401563910719
40
0.655798437894949
40
0.667581236682707
40
0.685255434864345
40
0.691146834258224
40
0.702929633045982
40
0.71471243183374
40
0.732386630015378
40
0.738278029409257
40
0.750060828197016
40
0.761843626984774
40
0.779517825166412
40
0.785409224560291
40
0.797192023348049
40
0.808974822135808
40
0.826649020317445
40
0.832540419711324
40
0.844323218499082
40
0.856106017286841
40
0.873780215468478
40
0.879671614862358
40
0.891454413650116
40
0.903237212437874
40
0.920911410619512
40
0.926802810013391
40
0.938585608801149
40
0.950368407588908
40
0.968042605770545
40
0.973934005164425
40
0.985716803952183
40
0.997499602739941
40
1
40
1
40
1
40
1
41
1
10
122.62520084922
20
-2.47518460531
30
0
41
1
10
122.561445107544
20
-2.48171534966087
30
0
41
1
10
122.352185480796
20
-2.50281419469954
30
0
41
1
10
122.094397496783
20
-2.5274604606376
30
0
41
1
10
121.803367844648
20
-2.55384944269022
30
0
41
1
10
121.560871756049
20
-2.57488908476836
30
0
41
1
10
121.221371574705
20
-2.60260364536325
30
0
41
1
10
120.930335583478
20
-2.62453997880053
30
0
41
1
10
120.639306583305
20
-2.64498267277011
30
0
41
1
10
120.396810952511
20
-2.66102131418015
30
0
41
1
10
120.057311226552
20
-2.68167059023145
30
0
41
1
10
119.766275350086
20
-2.6974970789197
30
0
41
1
10
119.475246166176
20
-2.71178025988223
30
0
41
1
10
119.232750095971
20
-2.7226458564121
30
0
41
1
10
118.893249365592
20
-2.73600554616641
30
0
41
1
10
118.602212471214
20
-2.74555417591995
30
0
41
1
10
118.311182435119
20
-2.75353810360255
30
0
41
1
10
118.068685892093
20
-2.75913437046461
30
0
41
1
10
117.729184942703
20
-2.7651002227027
30
0
41
1
10
117.438148243509
20
-2.76830675518059
30
0
41
1
10
117.147118616474
20
-2.76993945895333
30
0
41
1
10
116.904622477623
20
-2.77022972062486
30
0
41
1
10
116.565122115604
20
-2.76876235094318
30
0
41
1
10
116.274085903282
20
-2.76560560416252
30
0
41
1
10
115.983056689454
20
-2.76087716776272
30
0
41
1
10
115.740560876665
20
-2.75586119309125
30
0
41
1
10
115.401060910588
20
-2.74697377060411
30
0
41
1
10
115.110024894099
20
-2.73747806157482
30
0
41
1
10
114.8189956763
20
-2.7264232027953
30
0
41
1
10
114.576499687921
20
-2.71613714378469
30
0
41
1
10
114.236999251916
20
-2.69989560881189
30
0
41
1
10
113.945962734191
20
-2.68413620483938
30
0
41
1
10
113.654933100585
20
-2.66684982620419
30
0
41
1
10
113.412436863896
20
-2.65138683569162
30
0
41
1
10
113.07293620462
20
-2.62794345096628
30
0
41
1
10
112.781899552078
20
-2.60606988568276
30
0
41
1
10
112.490869733876
20
-2.58271347670765
30
0
41
1
10
112.248373344585
20
-2.5622157837482
30
0
41
1
10
111.908872587428
20
-2.53178439452449
30
0
41
1
10
111.617836031612
20
-2.50399662480808
30
0
41
1
10
111.326806537526
20
-2.47478668690559
30
0
41
1
10
111.084310515417
20
-2.44944653275886
30
0
41
1
10
110.744810312636
20
-2.41231470130228
30
0
41
1
10
110.453774202309
20
-2.37887561997692
30
0
41
1
10
110.162745034236
20
-2.34408641895411
30
0
41
1
10
109.920249160441
20
-2.31414001236496
30
0
41
1
10
109.580748964887
20
-2.27065135726465
30
0
41
1
10
109.289712713854
20
-2.23186843154309
30
0
41
1
10
108.998683362479
20
-2.19181904203114
30
0
41
1
10
108.756187336306
20
-2.15754073069928
30
0
41
1
10
108.416686875973
20
-2.10809289493776
30
0
41
1
10
108.125650272342
20
-2.06431969168406
30
0
41
1
10
107.83462037312
20
-2.01937412628325
30
0
41
1
10
107.592123879923
20
-1.98107482818864
30
0
41
1
10
107.25262297705
20
-1.9261165591229
30
0
41
1
10
106.961586304103
20
-1.87775199131161
30
0
41
1
10
106.670556719666
20
-1.82832290102169
30
0
41
1
10
106.428060622379
20
-1.78635631052339
30
0
41
1
10
106.08856030528
20
-1.72639771209848
30
0
41
1
10
105.797524103433
20
-1.67389228472481
30
0
41
1
10
105.506494863671
20
-1.62043998525269
30
0
41
1
10
105.263998960005
20
-1.57519665374355
30
0
41
1
10
104.924498782659
20
-1.51079470924759
30
0
41
1
10
104.633462598088
20
-1.45463444279983
30
0
41
1
10
104.342433341304
20
-1.39765155945909
30
0
41
1
10
104.099937396675
20
-1.34954694843961
30
0
41
1
10
103.760437033057
20
-1.28129122776269
30
0
41
1
10
103.469400484797
20
-1.22198935610228
30
0
41
1
10
103.178370605619
20
-1.16199718192485
30
0
41
1
10
102.935874110248
20
-1.11147206383012
30
0
41
1
10
102.596373184257
20
-1.03998900606723
30
0
41
1
10
102.305336478784
20
-0.978090471467794
30
0
41
1
10
102.014306863672
20
-0.915640383784876
30
0
41
1
10
101.771810739401
20
-0.86315890809712
30
0
41
1
10
101.432310385239
20
-0.789105261531262
30
0
41
1
10
101.141274162329
20
-0.725179562896869
30
0
41
1
10
100.850244920702
20
-0.660847624663916
30
0
41
1
10
100.607749034676
20
-0.606895097991639
30
0
41
1
10
100.268248912564
20
-0.53095668501112
30
0
41
1
10
99.9772127961702
20
-0.465595552436497
30
0
41
1
10
99.686183610714
20
-0.399975350521004
30
0
41
1
10
99.4436877259652
20
-0.345048037849892
30
0
41
1
10
99.1041874385925
20
-0.267922069523991
30
0
41
1
10
98.813150936962
20
-0.201725964463805
30
0
41
1
10
98.522121077735
20
-0.135422700009485
30
0
41
1
10
98.2796245714701
20
-0.0800291702327911
30
0
41
1
10
98.0650398265108
20
-0.0309826179540664
30
0
41
1
10
97.947448320716
20
-0.0041254510917952
30
0
41
1
10
97.9268627306549
20
0.0005755970954624
30
0
0
SPLINE
5
F0
100
AcDbEntity
8
1
62
256
6
ByLayer
370
13
48
1
60
0
100
AcDbSpline
70
4
71
3
72
94
73
90
40
0
40
0
40
0
40
0
40
0.0052050779310849
40
0.0110886367095961
40
0.0228557542666184
40
0.0346228718236424
40
0.052273548159177
40
0.0581571069376887
40
0.0699242244947121
40
0.0816913420517356
40
0.0993420183872702
40
0.105225577165782
40
0.116992694722805
40
0.128759812279829
40
0.146410488615363
40
0.152294047393875
40
0.164061164950897
40
0.175828282507921
40
0.193478958843456
40
0.199362517621967
40
0.211129635178991
40
0.222896752736014
40
0.240547429071549
40
0.24643098785006
40
0.258198105407083
40
0.269965222964107
40
0.287615899299642
40
0.293499458078153
40
0.305266575635176
40
0.317033693192199
40
0.334684369527735
40
0.340567928306246
40
0.352335045863269
40
0.364102163420292
40
0.381752839755827
40
0.387636398534339
40
0.399403516091362
40
0.411170633648385
40
0.42882130998392
40
0.434704868762431
40
0.446471986319455
40
0.458239103876478
40
0.475889780212012
40
0.481773338990524
40
0.493540456547548
40
0.505307574104571
40
0.522958250440106
40
0.528841809218617
40
0.54060892677564
40
0.552376044332664
40
0.570026720668199
40
0.57591027944671
40
0.587677397003733
40
0.599444514560756
40
0.617095190896291
40
0.622978749674803
40
0.634745867231826
40
0.646512984788849
40
0.664163661124384
40
0.670047219902896
40
0.681814337459919
40
0.693581455016942
40
0.711232131352477
40
0.717115690130988
40
0.728882807688012
40
0.740649925245035
40
0.75830060158057
40
0.764184160359082
40
0.775951277916105
40
0.787718395473128
40
0.805369071808663
40
0.811252630587174
40
0.823019748144198
40
0.834786865701221
40
0.852437542036755
40
0.858321100815267
40
0.87008821837229
40
0.881855335929314
40
0.899506012264848
40
0.90538957104336
40
0.917156688600383
40
0.928923806157406
40
0.946574482492941
40
0.952458041271453
40
0.964225158828476
40
0.975992276385499
40
0.993642952721034
40
0.999526511499545
40
1
40
1
40
1
40
1
41
1
10
46.4620638242206
20
-2.47146945809584
30
0
41
1
10
46.4191519809506
20
-2.47589613913607
30
0
41
1
10
46.3277344912628
20
-2.48522899293235
30
0
41
1
10
46.1393080620014
20
-2.50403510235969
30
0
41
1
10
45.8968116180628
20
-2.52730936794308
30
0
41
1
10
45.5573107093613
20
-2.55818073630954
30
0
41
1
10
45.2662739468092
20
-2.58284757849052
30
0
41
1
10
44.9752441657317
20
-2.60604506658512
30
0
41
1
10
44.7327479374699
20
-2.62439921215167
30
0
41
1
10
44.3932476022864
20
-2.64831884121884
30
0
41
1
10
44.1022115381226
20
-2.66697410559448
30
0
41
1
10
43.8111825484986
20
-2.68411140604138
30
0
41
1
10
43.5686869195491
20
-2.6973757672383
30
0
41
1
10
43.2291871350699
20
-2.71411699593219
30
0
41
1
10
42.9381511748565
20
-2.7265771787084
30
0
41
1
10
42.6471219046181
20
-2.73747934271782
30
0
41
1
10
42.4046257947281
20
-2.7455140288821
30
0
41
1
10
42.0651250884717
20
-2.75489699846744
30
0
41
1
10
41.7740882849874
20
-2.76103041207915
30
0
41
1
10
41.4830583872269
20
-2.76559135710932
30
0
41
1
10
41.2405619364536
20
-2.76832618479338
30
0
41
1
10
40.9010610144352
20
-2.77028038201419
30
0
41
1
10
40.610024229934
20
-2.77004970017055
30
0
41
1
10
40.3189944135871
20
-2.7682440557198
30
0
41
1
10
40.0764981392421
20
-2.76566470471261
30
0
41
1
10
39.7369977089302
20
-2.76018261661059
30
0
41
1
10
39.445961540199
20
-2.75359476779914
30
0
41
1
10
39.1549324365427
20
-2.74544169701028
30
0
41
1
10
38.9124367254231
20
-2.73757276932139
30
0
41
1
10
38.5729368742279
20
-2.72470300537918
30
0
41
1
10
38.2819009135446
20
-2.71181309700756
30
0
41
1
10
37.990871699394
20
-2.69737814056242
30
0
41
1
10
37.7483756490973
20
-2.68428150489993
30
0
41
1
10
37.4088750163879
20
-2.66412642072956
30
0
41
1
10
37.1178382600653
20
-2.64504173515678
30
0
41
1
10
36.8268083843694
20
-2.62445297384269
30
0
41
1
10
36.5843119521245
20
-2.60625030632838
30
0
41
1
10
36.2448110683723
20
-2.57900327868498
30
0
41
1
10
35.953774319758
20
-2.55390938983473
30
0
41
1
10
35.6627445338436
20
-2.52736451526008
30
0
41
1
10
35.4202482675901
20
-2.50422822309122
30
0
41
1
10
35.08074781054
20
-2.47014422002559
30
0
41
1
10
34.789711587123
20
-2.43927394369558
30
0
41
1
10
34.4986824102976
20
-2.40701904616341
30
0
41
1
10
34.256186647814
20
-2.37916371715227
30
0
41
1
10
33.9166867687242
20
-2.33855826744613
30
0
41
1
10
33.6256508346243
20
-2.3021960082512
30
0
41
1
10
33.3346216973236
20
-2.26452627467114
30
0
41
1
10
33.0921257183671
20
-2.23220544259092
30
0
41
1
10
32.7526251641289
20
-2.18544685525134
30
0
41
1
10
32.4615884473275
20
-2.14392246892342
30
0
41
1
10
32.1705585768984
20
-2.10118127792504
30
0
41
1
10
31.9280621442715
20
-2.06469101157569
30
0
41
1
10
31.5885612641917
20
-2.01220938663204
30
0
41
1
10
31.2975245133445
20
-1.96590565130967
30
0
41
1
10
31.0064947135411
20
-1.91848643107457
30
0
41
1
10
30.7639984133795
20
-1.8781619902978
30
0
41
1
10
30.4244978634094
20
-1.82043915348672
30
0
41
1
10
30.1334615245225
20
-1.76978169251947
30
0
41
1
10
29.8424322150056
20
-1.71812178990808
30
0
41
1
10
29.5999363524024
20
-1.67433618020109
30
0
41
1
10
29.260436381041
20
-1.61190756078867
30
0
41
1
10
28.9694004260347
20
-1.55736730439492
30
0
41
1
10
28.6783713279847
20
-1.50194713992639
30
0
41
1
10
28.4358753996412
20
-1.45510745523717
30
0
41
1
10
28.0963749166211
20
-1.38855227342279
30
0
41
1
10
27.8053382539517
20
-1.3306329498356
30
0
41
1
10
27.5143084179002
20
-1.27196128712603
30
0
41
1
10
27.2718120152144
20
-1.22249549679583
30
0
41
1
10
26.9323111879324
20
-1.152419589815
30
0
41
1
10
26.641274482296
20
-1.09164741198887
30
0
41
1
10
26.3502447174026
20
-1.03025822031663
30
0
41
1
10
26.1077484268708
20
-0.978617373841672
30
0
41
1
10
25.768247851169
20
-0.905661415750785
30
0
41
1
10
25.4772114587243
20
-0.842594001821737
30
0
41
1
10
25.1861820799306
20
-0.779052399765078
30
0
41
1
10
24.943686165633
20
-0.725713073798914
30
0
41
1
10
24.604186154805
20
-0.650552698629383
30
0
41
1
10
24.3131502070844
20
-0.585776739440888
30
0
41
1
10
24.0221211601122
20
-0.520676082561891
30
0
41
1
10
23.7796252884206
20
-0.466137704434516
30
0
41
1
10
23.4401248854653
20
-0.389476331305502
30
0
41
1
10
23.1490882843054
20
-0.323594790420685
30
0
41
1
10
22.8580584909942
20
-0.257534888421645
30
0
41
1
10
22.6155621190472
20
-0.202295514849339
30
0
41
1
10
22.2760613271697
20
-0.124828193406103
30
0
41
1
10
21.9850246333386
20
-0.0584362446423654
30
0
41
1
10
21.7871012692999
20
-0.0132652899760615
30
0
41
1
10
21.7346950115364
20
-0.0012976060407652
30
0
41
1
10
21.7307916764486
20
-0.0004061878387347
30
0
0
SPLINE
5
F1
100
AcDbEntity
8
1
62
256
6
ByLayer
370
18
48
1
60
0
100
AcDbSpline
70
4
71
3
72
10
73
6
40
0
40
0
40
0
40
0
40
0.5
40
0.5
40
1
40
1
40
1
40
1
41
1
10
134.790340363792
20
-6.12616159261293
30
0
41
1
10
134.927435648714
20
-5.79035100674517
30
0
41
1
10
135.066136610987
20
-5.44849551509859
30
0
41
1
10
135.344319327601
20
-4.75150727076871
30
0
41
1
10
135.483832170359
20
-4.39645119734146
30
0
41
1
10
135.622262875891
20
-4.03373680869973
30
0
0
SPLINE
5
F2
100
AcDbEntity
8
1
62
256
6
ByLayer
370
18
48
1
60
0
100
AcDbSpline
70
4
71
3
72
8
73
4
40
0
40
0
40
0
40
0
40
1
40
1
40
1
40
1
41
1
10
136.05968005147
20
-1.41267371124204
30
0
41
1
10
136.060060344257
20
-1.41306093593172
30
0
41
1
10
136.060440642241
20
-1.41344815551804
30
0
41
1
10
136.060820945421
20
-1.41383537000087
30
0
0
SPLINE
5
F3
100
AcDbEntity
8
1
62
256
6
ByLayer
370
18
48
1
60
0
100
AcDbSpline
70
4
71
3
72
12
73
8
40
0
40
0
40
0
40
0
40
0.475736890659676
40
0.475736890659676
40
0.951473781319352
40
0.951473781319352
40
1
40
1
40
1
40
1
41
1
10
20.4288623517358
20
-5.92247089894639
30
0
41
1
10
20.7302769932556
20
-5.94609694904725
30
0
41
1
10
21.0310175408292
20
-5.96409198946265
30
0
41
1
10
21.6314623388976
20
-5.98905193109664
30
0
41
1
10
21.9307682470174
20
-5.99606163620908
30
0
41
1
10
22.2602367603856
20
-5.99774242124823
30
0
41
1
10
22.2907275209348
20
-5.99784123251399
30
0
41
1
10
22.321213304826
20
-5.99788332567402
30
0
0
SPLINE
5
F4
100
AcDbEntity
8
1
62
256
6
ByLayer
370
18
48
1
60
0
100
AcDbSpline
70
4
71
3
72
56
73
52
40
0
40
0
40
0
40
0
40
0.0517859707425571
40
0.0517859707425571
40
0.125660171667922
40
0.125660171667922
40
0.144128721899264
40
0.144128721899264
40
0.162597272130605
40
0.162597272130605
40
0.199534372593287
40
0.199534372593287
40
0.27340857351865
40
0.27340857351865
40
0.310345673981331
40
0.310345673981331
40
0.328814224212672
40
0.328814224212672
40
0.347282774444014
40
0.347282774444014
40
0.384219874906696
40
0.384219874906696
40
0.421156975369378
40
0.421156975369378
40
0.495031176294742
40
0.495031176294742
40
0.531968276757425
40
0.531968276757425
40
0.550436826988766
40
0.550436826988766
40
0.568905377220106
40
0.568905377220106
40
0.64277957814547
40
0.64277957814547
40
0.716653779070834
40
0.716653779070834
40
0.735122329302175
40
0.735122329302175
40
0.753590879533516
40
0.753590879533516
40
0.790527979996199
40
0.790527979996199
40
0.864402180921566
40
0.864402180921566
40
0.901339281384248
40
0.901339281384248
40
0.919807831615589
40
0.919807831615589
40
0.938276381846931
40
0.938276381846931
40
1
40
1
40
1
40
1
41
1
10
50.1665827189467
20
4.01022545405419
30
0
41
1
10
51.003067728271
20
4.32334962598145
30
0
41
1
10
51.8355592902429
20
4.60681466656663
30
0
41
1
10
53.8551925134524
20
5.21066203730686
30
0
41
1
10
55.0410302706102
20
5.49655940562567
30
0
41
1
10
56.5355354015814
20
5.75168214760117
30
0
41
1
10
56.8348696037628
20
5.79772941168136
30
0
41
1
10
57.4352348121423
20
5.8791805600851
30
0
41
1
10
57.7365957367254
20
5.9146860981048
30
0
41
1
10
58.6370072662305
20
6.00449283186694
30
0
41
1
10
59.234341899859
20
6.04219738294435
30
0
41
1
10
61.0213465296242
20
6.08955040138994
30
0
41
1
10
62.2053794707078
20
6.03325021935117
30
0
41
1
10
63.9866035955243
20
5.82097355579225
30
0
41
1
10
64.5809827079452
20
5.72883597047425
30
0
41
1
10
65.4757549104698
20
5.55946346742692
30
0
41
1
10
65.7746185902802
20
5.4978892982617
30
0
41
1
10
66.3734378053906
20
5.36423767438095
30
0
41
1
10
66.6739336219921
20
5.29232885595343
30
0
41
1
10
67.575812228988
20
5.06169384577959
30
0
41
1
10
68.1736827776605
20
4.88936862127292
30
0
41
1
10
69.3656967103532
20
4.51203840223891
30
0
41
1
10
69.9598121287992
20
4.30702668602217
30
0
41
1
10
71.7395121398147
20
3.64768745852697
30
0
41
1
10
72.9235304119439
20
3.15067982395573
30
0
41
1
10
74.7096916414325
20
2.34131207211055
30
0
41
1
10
75.3069821012505
20
2.0612715374221
30
0
41
1
10
76.2077194392542
20
1.62922772281172
30
0
41
1
10
76.5084289915898
20
1.48310586200182
30
0
41
1
10
77.1073898971043
20
1.18966583127212
30
0
41
1
10
77.406252787839
20
1.04225119674624
30
0
41
1
10
78.897101805681
20
0.30088550657922
30
0
41
1
10
80.0815063873171
20
-0.300082160655222
30
0
41
1
10
82.4517581128209
20
-1.48121913905609
30
0
41
1
10
83.6385796753399
20
-2.05941735532812
30
0
41
1
10
85.1359758167117
20
-2.74297172574771
30
0
41
1
10
85.436872276365
20
-2.87761899889182
30
0
41
1
10
86.0365150684685
20
-3.14125881568558
30
0
41
1
10
86.3356068124131
20
-3.26991497759897
30
0
41
1
10
87.2311285573626
20
-3.64582227303666
30
0
41
1
10
87.8255305257003
20
-3.88346797366663
30
0
41
1
10
89.605408135342
20
-4.55090499191584
30
0
41
1
10
90.7875137249569
20
-4.93530776538657
30
0
41
1
10
92.568626578491
20
-5.40167304602249
30
0
41
1
10
93.1638015470375
20
-5.53862008587544
30
0
41
1
10
94.0604451454208
20
-5.71414877219809
30
0
41
1
10
94.3600370995085
20
-5.76773053112359
30
0
41
1
10
94.9606345764305
20
-5.86424496116143
30
0
41
1
10
95.2599570783525
20
-5.90712714141742
30
0
41
1
10
96.5571786595262
20
-6.06925204572963
30
0
41
1
10
97.5480498685153
20
-6.13276405353764
30
0
41
1
10
98.53759795838
20
-6.13505912387441
30
0
0
SPLINE
5
F5
100
AcDbEntity
8
1
62
256
6
ByLayer
370
18
48
1
60
0
100
AcDbSpline
70
4
71
3
72
16
73
12
40
0
40
0
40
0
40
0
40
0.15433566126198
40
0.15433566126198
40
0.577167830630985
40
0.577167830630985
40
0.682875872973241
40
0.682875872973241
40
0.788583915315497
40
0.788583915315497
40
1
40
1
40
1
40
1
41
1
10
126.348422452574
20
4.079316804862
30
0
41
1
10
126.77992272418
20
4.24515312573865
30
0
41
1
10
127.211230983263
20
4.40327500895802
30
0
41
1
10
128.825231828495
20
4.96310631926508
30
0
41
1
10
130.010543211645
20
5.3089904770238
30
0
41
1
10
131.507560361127
20
5.64415288476087
30
0
41
1
10
131.80715125538
20
5.70603712982316
30
0
41
1
10
132.404992392109
20
5.81908933507807
30
0
41
1
10
132.703390049325
20
5.87040708918164
30
0
41
1
10
133.598434428448
20
6.00789624327805
30
0
41
1
10
134.194211178812
20
6.07808667924022
30
0
41
1
10
134.790340363792
20
6.1261615926129
30
0
0
SPLINE
5
F6
100
AcDbEntity
8
1
62
256
6
ByLayer
370
18
48
1
60
0
100
AcDbSpline
70
4
71
3
72
20
73
16
40
0
40
0
40
0
40
0
40
0.24999999999999
40
0.24999999999999
40
0.374999999999992
40
0.374999999999992
40
0.499999999999994
40
0.499999999999994
40
0.624999999999995
40
0.624999999999995
40
0.749999999999997
40
0.749999999999997
40
0.874999999999998
40
0.874999999999998
40
1
40
1
40
1
40
1
41
1
10
136.060820936017
20
-1.41383537607652
30
0
41
1
10
136.128349487852
20
-1.37020588754328
30
0
41
1
10
136.20024187046
20
-1.30136630227406
30
0
41
1
10
136.315151247574
20
-1.16272462568727
30
0
41
1
10
136.354913630594
20
-1.11011430711727
30
0
41
1
10
136.434818877185
20
-0.995794140977722
30
0
41
1
10
136.475116882954
20
-0.933956442649446
30
0
41
1
10
136.556403691994
20
-0.80140789841542
30
0
41
1
10
136.597392443886
20
-0.730694841041242
30
0
41
1
10
136.680043079706
20
-0.580473747519449
30
0
41
1
10
136.721216933847
20
-0.501827853162325
30
0
41
1
10
136.802407647323
20
-0.339502116190516
30
0
41
1
10
136.842561459593
20
-0.255571413074591
30
0
41
1
10
136.921939760372
20
-0.0823772538735739
30
0
41
1
10
136.961332437855
20
0.0072929462037905
30
0
41
1
10
136.999779822847
20
0.0986006959307417
30
0
0
SPLINE
5
F7
100
AcDbEntity
8
1
62
256
6
ByLayer
370
18
48
1
60
0
100
AcDbSpline
70
4
71
3
72
32
73
28
40
0
40
0
40
0
40
0
40
0.0170808655853926
40
0.0170808655853926
40
0.0356265096309502
40
0.0356265096309502
40
0.109809085813182
40
0.109809085813182
40
0.146900373904299
40
0.146900373904299
40
0.183991661995415
40
0.183991661995415
40
0.25817423817765
40
0.25817423817765
40
0.332356814359884
40
0.332356814359884
40
0.406539390542118
40
0.406539390542118
40
0.554904542906588
40
0.554904542906588
40
0.703269695271058
40
0.703269695271058
40
0.851634847635528
40
0.851634847635528
40
0.925817423817764
40
0.925817423817764
40
1
40
1
40
1
40
1
41
1
10
6.50107810833467
20
5.821602081707
30
0
41
1
10
6.53014435010246
20
5.82162166650946
30
0
41
1
10
6.56077578409932
20
5.82066545687803
30
0
41
1
10
6.627012899634
20
5.81678194914451
30
0
41
1
10
6.66286570821339
20
5.81369990600197
30
0
41
1
10
6.84844277709382
20
5.79346275970065
30
0
41
1
10
7.01686426721599
20
5.76202840726586
30
0
41
1
10
7.29245709958775
20
5.69815932306278
30
0
41
1
10
7.38848072142292
20
5.67396603952932
30
0
41
1
10
7.58617623936337
20
5.62097398899576
30
0
41
1
10
7.68743612495496
20
5.59229777807792
30
0
41
1
10
7.99748636542424
20
5.50078890540192
30
0
41
1
10
8.21249848799803
20
5.432528851527
30
0
41
1
10
8.65572526149384
20
5.28528925005153
30
0
41
1
10
8.88397528571124
20
5.2062719930509
30
0
41
1
10
9.35170575915407
20
5.03974178243169
30
0
41
1
10
9.59169330537543
20
4.95200893962499
30
0
41
1
10
10.3169695509749
20
4.68208859790406
30
0
41
1
10
10.8102684534642
20
4.49263418437212
30
0
41
1
10
11.8127474328429
20
4.10076195282889
30
0
41
1
10
12.3220895244888
20
3.89805990362925
30
0
41
1
10
13.3537767522437
20
3.48429465053576
30
0
41
1
10
13.8768422001056
20
3.27277940302261
30
0
41
1
10
14.6672718483084
20
2.95291048644418
30
0
41
1
10
14.931463170811
20
2.8460817731881
30
0
41
1
10
15.4615309678485
20
2.6307377004234
30
0
41
1
10
15.7273636769859
20
2.52240500069689
30
0
41
1
10
15.9938967823612
20
2.41374420729898
30
0
0
SPLINE
5
F8
100
AcDbEntity
8
1
62
256
6
ByLayer
370
18
48
1
60
0
100
AcDbSpline
70
4
71
3
72
8
73
4
40
0
40
0
40
0
40
0
40
1
40
1
40
1
40
1
41
1
10
136.999779822849
20
-0.0986006959257679
30
0
41
1
10
136.818931054673
20
-0.573595730028529
30
0
41
1
10
136.645663221028
20
-1.05377863605204
30
0
41
1
10
136.478068802859
20
-1.53841963427664
30
0
0
SPLINE
5
F9
100
AcDbEntity
8
1
62
256
6
ByLayer
370
18
48
1
60
0
100
AcDbSpline
70
4
71
3
72
34
73
30
40
0
40
0
40
0
40
0
40
0.0592211752966328
40
0.0592211752966328
40
0.216017646080527
40
0.216017646080527
40
0.255216763776501
40
0.255216763776501
40
0.294415881472474
40
0.294415881472474
40
0.372814116864421
40
0.372814116864421
40
0.412013234560395
40
0.412013234560395
40
0.451212352256369
40
0.451212352256369
40
0.529610587648315
40
0.529610587648315
40
0.608008823040263
40
0.608008823040263
40
0.647207940736236
40
0.647207940736236
40
0.68640705843221
40
0.68640705843221
40
0.843203529216105
40
0.843203529216105
40
0.921601764608053
40
0.921601764608053
40
1
40
1
40
1
40
1
41
1
10
5.49837510947549
20
5.96726208590167
30
0
41
1
10
5.49830177326021
20
5.96920136815015
30
0
41
1
10
5.4982240997532
20
5.96175440824183
30
0
41
1
10
5.49793780145325
20
5.90060472284111
30
0
41
1
10
5.49772342138394
20
5.79267099864933
30
0
41
1
10
5.49748508280558
20
5.57703333803676
30
0
41
1
10
5.49743888533419
20
5.52979448542757
30
0
41
1
10
5.49735130049109
20
5.42848844619692
30
0
41
1
10
5.49730973413034
20
5.37427097624675
30
0
41
1
10
5.49719227541215
20
5.20111345554426
30
0
41
1
10
5.49712367189591
20
5.07171032594846
30
0
41
1
10
5.49703662434493
20
4.85662864721388
30
0
41
1
10
5.49701023906098
20
4.78142809888539
30
0
41
1
10
5.49696279941372
20
4.62387760782187
30
0
41
1
10
5.49694169396133
20
4.54122463937048
30
0
41
1
10
5.49688696171052
20
4.28555004137556
30
0
41
1
10
5.49686170836469
20
4.10438197436341
30
0
41
1
10
5.49682955471167
20
3.72123769059692
30
0
41
1
10
5.49682266689038
20
3.51926058962917
30
0
41
1
10
5.49682197331367
20
3.20038063494783
30
0
41
1
10
5.49682334387808
20
3.09112710836075
30
0
41
1
10
5.49682837463979
20
2.86853320132096
30
0
41
1
10
5.49683201141931
20
2.75574064657448
30
0
41
1
10
5.49685308061805
20
2.18448070740462
30
0
41
1
10
5.49687994528853
20
1.70447862317266
30
0
41
1
10
5.49687597196464
20
0.94906905427581
30
0
41
1
10
5.49686700599082
20
0.695386560584723
30
0
41
1
10
5.49682398999462
20
0.187419978756367
30
0
41
1
10
5.49678996443939
20
-0.0673666450047676
30
0
41
1
10
5.49673824437588
20
-0.322968932982491
30
0
0
SPLINE
5
FA
100
AcDbEntity
8
1
62
256
6
ByLayer
370
18
48
1
60
0
100
AcDbSpline
70
4
71
3
72
13
73
9
40
0
40
0
40
0
40
0
40
0.229376272434319
40
0.401505310777959
40
0.516211342871668
40
0.631259210103114
40
0.803549791322401
40
1
40
1
40
1
40
1
41
1
10
97.9456296011557
20
-0.003710277225963
30
0
41
1
10
97.7721340960144
20
0.0359384121920527
30
0
41
1
10
97.4685748901875
20
0.114370074561464
30
0
41
1
10
97.0787897718303
20
0.235506329289791
30
0
41
1
10
96.7752339036696
20
0.341147139649195
30
0
41
1
10
96.4723025839276
20
0.455732053657471
30
0
41
1
10
96.1089797727208
20
0.606143166195039
30
0
41
1
10
95.832700634912
20
0.735072986082997
30
0
41
1
10
95.6857408767446
20
0.807633077508768
30
0
0
SPLINE
5
FB
100
AcDbEntity
8
1
62
256
6
ByLayer
370
18
48
1
60
0
100
AcDbSpline
70
4
71
3
72
26
73
22
40
0
40
0
40
0
40
0
40
0.0161183828236747
40
0.0710788008006128
40
0.119937134160861
40
0.18176399366415
40
0.238591464431629
40
0.293056632590307
40
0.346271892654602
40
0.408614770191525
40
0.480853159574374
40
0.5482918073037
40
0.604513314878425
40
0.660472536099186
40
0.715312682471039
40
0.764989944104726
40
0.823720814429435
40
0.878786168360559
40
0.937986971566424
40
0.987991354071898
40
1
40
1
40
1
40
1
41
1
10
40.1898242062182
20
5.8803282038734
30
0
41
1
10
40.1141389467899
20
5.88014834223628
30
0
41
1
10
39.7803811604841
20
5.87939293134556
30
0
41
1
10
39.2171860224849
20
5.87927588398077
30
0
41
1
10
38.4393631886963
20
5.87739336488303
30
0
41
1
10
37.6527701478642
20
5.87599582326413
30
0
41
1
10
36.8398485658007
20
5.87529806820046
30
0
41
1
10
36.0673689923386
20
5.87265223858685
30
0
41
1
10
35.2689890429156
20
5.87244958021756
30
0
41
1
10
34.3871485788485
20
5.8697546558802
30
0
41
1
10
33.4385351597406
20
5.86901879881268
30
0
41
1
10
32.5185934974447
20
5.8665765302789
30
0
41
1
10
31.6755939740025
20
5.86520476586671
30
0
41
1
10
30.8911386237708
20
5.86428580016303
30
0
41
1
10
30.1378589737121
20
5.86208797069602
30
0
41
1
10
29.3713936471884
20
5.86145553909168
30
0
41
1
10
28.6033102910899
20
5.85981559241645
30
0
41
1
10
27.7929671094078
20
5.85776166608025
30
0
41
1
10
27.0198872330986
20
5.85711545485512
30
0
41
1
10
26.4570743201218
20
5.85572460487367
30
0
41
1
10
26.171255414467
20
5.85427856983301
30
0
41
1
10
26.1159637791226
20
5.85396544792101
30
0
0
SPLINE
5
FC
100
AcDbEntity
8
1
62
256
6
ByLayer
370
18
48
1
60
0
100
AcDbSpline
70
4
71
3
72
11
73
7
40
0
40
0
40
0
40
0
40
0.206638671072837
40
0.445302676610284
40
0.716259169215742
40
1
40
1
40
1
40
1
41
1
10
116.936422122303
20
0.0030283282412427
30
0
41
1
10
117.102291714742
20
-0.0348825605992999
30
0
41
1
10
117.459371379887
20
-0.126637594247597
30
0
41
1
10
118.03245132798
20
-0.30955296565358
30
0
41
1
10
118.665621913676
20
-0.555246721634461
30
0
41
1
10
119.106840792812
20
-0.761130700357285
30
0
41
1
10
119.33217053317
20
-0.875255560399069
30
0
0
SPLINE
5
FD
100
AcDbEntity
8
1
62
256
6
ByLayer
370
18
48
1
60
0
100
AcDbSpline
70
4
71
2
72
6
73
3
40
0
40
0
40
0
40
1
40
1
40
1
41
1
10
6.50295312063397
20
5.82155475501631
30
0
41
1
10
6.2629621605966
20
5.82119310192567
30
0
41
1
10
6.02297871848154
20
5.82046833487271
30
0
0
SPLINE
5
FE
100
AcDbEntity
8
1
62
256
6
ByLayer
370
18
48
1
60
0
100
AcDbSpline
70
4
71
3
72
25
73
21
40
0
40
0
40
0
40
0
40
0.0387937292433208
40
0.0944268185675926
40
0.140067016329069
40
0.185468744778221
40
0.238025565035458
40
0.300187169978035
40
0.370558485735437
40
0.444739923225074
40
0.518563566972019
40
0.578540482899905
40
0.632966795757
40
0.699168467087741
40
0.75831008953977
40
0.824777529584659
40
0.879020747271214
40
0.92915586276044
40
0.973838989246422
40
1
40
1
40
1
40
1
41
1
10
78.2785800083564
20
5.9490305984807
30
0
41
1
10
78.0951150017666
20
5.94856318269058
30
0
41
1
10
77.6485475629257
20
5.94755057699646
30
0
41
1
10
76.9861338657775
20
5.94635341694752
30
0
41
1
10
76.2924744004905
20
5.94588711539348
30
0
41
1
10
75.6133602263519
20
5.94354365145878
30
0
41
1
10
74.8561153656035
20
5.94286728566766
30
0
41
1
10
73.9807844049919
20
5.94137817391785
30
0
41
1
10
73.0031829236953
20
5.93918872597465
30
0
41
1
10
71.9704242438938
20
5.9377915284077
30
0
41
1
10
70.9868272655502
20
5.93576029490634
30
0
41
1
10
70.0966531243636
20
5.93450861464009
30
0
41
1
10
69.2425321167058
20
5.9322796276042
30
0
41
1
10
68.3923413117535
20
5.93181918322068
30
0
41
1
10
67.4852709525907
20
5.92914331295037
30
0
41
1
10
66.6345375650703
20
5.92831442564827
30
0
41
1
10
65.8273959531003
20
5.92625487939921
30
0
41
1
10
65.1206826636626
20
5.92523363388389
30
0
41
1
10
64.5558494327291
20
5.92425492703379
30
0
41
1
10
64.2242367609955
20
5.92238951344757
30
0
41
1
10
64.1015073963695
20
5.92173687784179
30
0
0
SPLINE
5
FF
100
AcDbEntity
8
1
62
256
6
ByLayer
370
18
48
1
60
0
100
AcDbSpline
70
4
71
3
72
13
73
9
40
0
40
0
40
0
40
0
40
0.234670706705711
40
0.410745296201656
40
0.528048865331467
40
0.645773334047491
40
0.822220346615728
40
1
40
1
40
1
40
1
41
1
10
59.8450454766116
20
-0.0036263067457014
30
0
41
1
10
59.671638790712
20
0.036041065164568
30
0
41
1
10
59.368329183913
20
0.114451813861649
30
0
41
1
10
58.9788666163451
20
0.235558241953044
30
0
41
1
10
58.675904987144
20
0.340958219066294
30
0
41
1
10
58.3730444396025
20
0.455477192962292
30
0
41
1
10
58.0261917893607
20
0.59857519545136
30
0
41
1
10
57.766399829532
20
0.719932389594476
30
0
41
1
10
57.6361455315331
20
0.784074598391214
30
0
0
SPLINE
5
100
100
AcDbEntity
8
1
62
256
6
ByLayer
370
18
48
1
60
0
100
AcDbSpline
70
4
71
3
72
9
73
5
40
0
40
0
40
0
40
0
40
0.0210561346031641
40
1
40
1
40
1
40
1
41
1
10
134.356656645703
20
0.546123088465237
30
0
41
1
10
134.352151482616
20
0.548054720651862
30
0
41
1
10
134.138177390143
20
0.639915182272375
30
0
41
1
10
133.923629849816
20
0.737317345283373
30
0
41
1
10
133.711532588687
20
0.842143717231124
30
0
0
SPLINE
5
101
100
AcDbEntity
8
1
62
256
6
ByLayer
370
18
48
1
60
0
100
AcDbSpline
70
4
71
3
72
13
73
9
40
0
40
0
40
0
40
0
40
0.235861163863199
40
0.412857823599788
40
0.5307999061843
40
0.64909366905268
40
0.826314033325754
40
1
40
1
40
1
40
1
41
1
10
40.7360828509218
20
0.0030227515513275
30
0
41
1
10
40.9176775121526
20
-0.0384679587681944
30
0
41
1
10
41.235351355945
20
-0.120958803039883
30
0
41
1
10
41.643220680835
20
-0.249251537473811
30
0
41
1
10
41.9606599158279
20
-0.361426941253256
30
0
41
1
10
42.2775033131285
20
-0.483510452334372
30
0
41
1
10
42.6360955320711
20
-0.634526951580369
30
0
41
1
10
42.9036110230599
20
-0.762362815261042
30
0
41
1
10
43.0358418349449
20
-0.828971923151443
30
0
0
SPLINE
5
102
100
AcDbEntity
8
1
62
256
6
ByLayer
370
18
48
1
60
0
100
AcDbSpline
70
4
71
3
72
28
73
24
40
0
40
0
40
0
40
0
40
0.0227382829223063
40
0.0485255762918207
40
0.0872670555366782
40
0.125652240656512
40
0.161369324878771
40
0.194454661449452
40
0.224987630696301
40
0.253203622937912
40
0.320780572464285
40
0.399950889459462
40
0.453112402461039
40
0.506161599607361
40
0.565305521393459
40
0.634839447893573
40
0.695559919235517
40
0.746577131347952
40
0.805639612251121
40
0.873867723854334
40
0.930651029439546
40
0.990774512756459
40
1
40
1
40
1
40
1
41
1
10
23.9775498383479
20
-5.85044889053992
30
0
41
1
10
24.0862712096082
20
-5.85003838704191
30
0
41
1
10
24.3251067622124
20
-5.84904466666475
30
0
41
1
10
24.7861062238679
20
-5.84313802636817
30
0
41
1
10
25.355039788365
20
-5.84628834346944
30
0
41
1
10
25.9453021708544
20
-5.85372880384548
30
0
41
1
10
26.5199488032848
20
-5.8559176298354
30
0
41
1
10
27.0539424897481
20
-5.85704560523718
30
0
41
1
10
27.5525741330507
20
-5.85753087094599
30
0
41
1
10
28.2382768975773
20
-5.85880696040371
30
0
41
1
10
29.1877406144769
20
-5.86133614052281
30
0
41
1
10
30.2735783114107
20
-5.86230486637743
30
0
41
1
10
31.2800739091884
20
-5.86507693565741
30
0
41
1
10
32.1780351838037
20
-5.86547981622579
30
0
41
1
10
33.1646139538165
20
-5.86886613397564
30
0
41
1
10
34.1932567681584
20
-5.86911243820214
30
0
41
1
10
35.1776421054609
20
-5.87240186098182
30
0
41
1
10
36.1051915774665
20
-5.87263831661491
30
0
41
1
10
37.0735022170285
20
-5.87601625659147
30
0
41
1
10
38.0731361012498
20
-5.87612858772303
30
0
41
1
10
39.0785233814367
20
-5.87933725627292
30
0
41
1
10
39.7635005958493
20
-5.87941765873975
30
0
41
1
10
40.140099101439
20
-5.8801790529979
30
0
41
1
10
40.1901978936387
20
-5.88028149566046
30
0
0
SPLINE
5
103
100
AcDbEntity
8
1
62
256
6
ByLayer
370
18
48
1
60
0
100
AcDbSpline
70
4
71
3
72
29
73
25
40
0
40
0
40
0
40
0
40
0.0158138795060051
40
0.0571981173126143
40
0.0981823971350902
40
0.137977010353746
40
0.179626995196727
40
0.224609436593398
40
0.271979094874022
40
0.308922394588242
40
0.367619556723193
40
0.451687042218266
40
0.527889258747322
40
0.620533138327547
40
0.695448701876041
40
0.750547165760489
40
0.802134548351743
40
0.851330644203332
40
0.908317242527135
40
0.930385072729061
40
0.951103005967629
40
0.97046818001884
40
0.991268825538857
40
1
40
1
40
1
40
1
41
1
10
116.35799192076
20
6.01703180765776
30
0
41
1
10
116.283048479938
20
6.01691623998312
30
0
41
1
10
116.011981317627
20
6.01649157022482
30
0
41
1
10
115.54668550549
20
6.01615368210767
30
0
41
1
10
114.967744051696
20
6.01458812897351
30
0
41
1
10
114.387543866028
20
6.01340958059964
30
0
41
1
10
113.788394053195
20
6.01296428087744
30
0
41
1
10
113.153345542287
20
6.01092812419552
30
0
41
1
10
112.540616141459
20
6.00912431641032
30
0
41
1
10
111.86284897864
20
6.00852454082914
30
0
41
1
10
111.011402042644
20
6.00702728552221
30
0
41
1
10
109.973506141546
20
6.00683521470819
30
0
41
1
10
108.775849268585
20
6.00124498192213
30
0
41
1
10
107.620362140979
20
6.00067175643315
30
0
41
1
10
106.565249688302
20
5.99994578295696
30
0
41
1
10
105.704605988295
20
5.99878759085783
30
0
41
1
10
104.965894574171
20
5.9958970084686
30
0
41
1
10
104.218212258412
20
5.99509291631634
30
0
41
1
10
103.610434676005
20
5.99423392828672
30
0
41
1
10
103.137624073172
20
5.99336409060507
30
0
41
1
10
102.843086381999
20
5.99285921623456
30
0
41
1
10
102.554554122447
20
5.992400340724
30
0
41
1
10
102.322820871722
20
5.99204030068807
30
0
41
1
10
102.182947514623
20
5.99181557862835
30
0
41
1
10
102.141604836067
20
5.99174632319568
30
0
0
SPLINE
5
104
100
AcDbEntity
8
1
62
256
6
ByLayer
370
18
48
1
60
0
100
AcDbSpline
70
4
71
3
72
34
73
30
40
0
40
0
40
0
40
0
40
0.0378129064850146
40
0.0729115987533395
40
0.099948167797184
40
0.1225690023992
40
0.140954565533955
40
0.156935106831784
40
0.198672365154153
40
0.243281635836825
40
0.289343143640229
40
0.336519829097052
40
0.387349669114292
40
0.433758667404038
40
0.48588315114032
40
0.546968306742914
40
0.594880448866811
40
0.639219105283178
40
0.695772895401134
40
0.727852263875257
40
0.75922177927915
40
0.79962693167853
40
0.83826628998864
40
0.874145652043636
40
0.908119589424197
40
0.942945210002772
40
0.971056901428208
40
0.996801709155224
40
1
40
1
40
1
40
1
41
1
10
100.22284553883
20
-5.98823181004798
30
0
41
1
10
100.42555205347
20
-5.98847277751472
30
0
41
1
10
100.816639216096
20
-5.98904920326981
30
0
41
1
10
101.355308030156
20
-5.98986633696052
30
0
41
1
10
101.809573403311
20
-5.99117590389207
30
0
41
1
10
102.175162867741
20
-5.99180838666669
30
0
41
1
10
102.481698720433
20
-5.9922889752352
30
0
41
1
10
102.891140958736
20
-5.99292431868298
30
0
41
1
10
103.441632166547
20
-5.9939465699986
30
0
41
1
10
104.153944450566
20
-5.99504631859125
30
0
41
1
10
104.895554709534
20
-5.99572113874845
30
0
41
1
10
105.670594905626
20
-5.99867386627707
30
0
41
1
10
106.447539787953
20
-5.9997876346566
30
0
41
1
10
107.251092149662
20
-6.00051728411009
30
0
41
1
10
108.109779846054
20
-6.00074777995482
30
0
41
1
10
108.976781797229
20
-6.00217967998205
30
0
41
1
10
109.801057979899
20
-6.0062201070894
30
0
41
1
10
110.601749154763
20
-6.00648876932627
30
0
41
1
10
111.31648060947
20
-6.00769319818869
30
0
41
1
10
111.962160360113
20
-6.00858965071964
30
0
41
1
10
112.520864672773
20
-6.00912071596218
30
0
41
1
10
113.114881607552
20
-6.01076569814148
30
0
41
1
10
113.73315537298
20
-6.012861655026
30
0
41
1
10
114.316835552108
20
-6.01335458735124
30
0
41
1
10
114.879995062369
20
-6.01435677682335
30
0
41
1
10
115.401366199812
20
-6.01577610858018
30
0
41
1
10
115.8784662644
20
-6.01649884280786
30
0
41
1
10
116.185415221767
20
-6.01667825253315
30
0
41
1
10
116.341125883266
20
-6.01695720985327
30
0
41
1
10
116.358332332457
20
-6.0169888024615
30
0
0
SPLINE
5
105
100
AcDbEntity
8
1
62
256
6
ByLayer
370
18
48
1
60
0
100
AcDbSpline
70
4
71
3
72
11
73
7
40
0
40
0
40
0
40
0
40
0.219350520482575
40
0.472667707815487
40
0.760218660481466
40
1
40
1
40
1
40
1
41
1
10
21.7457480929739
20
-0.0038216445923354
30
0
41
1
10
21.5871401389488
20
0.0324356711869314
30
0
41
1
10
21.2457104711866
20
0.119691838044133
30
0
41
1
10
20.697821016195
20
0.292779200073028
30
0
41
1
10
20.1365113042264
20
0.505240660380707
30
0
41
1
10
19.758623470087
20
0.677963562942267
30
0
41
1
10
19.5870293309671
20
0.762077687366912
30
0
0
SPLINE
5
106
100
AcDbEntity
8
1
62
256
6
ByLayer
370
18
48
1
60
0
100
AcDbSpline
70
4
71
3
72
14
73
10
40
0
40
0
40
0
40
0
40
0.230841204497348
40
0.404022112488946
40
0.519363094677462
40
0.6007724619819
40
0.714699337335271
40
0.861247447981717
40
1
40
1
40
1
40
1
41
1
10
78.8366550791134
20
0.0029493777255141
30
0
41
1
10
79.0182603263528
20
-0.0385855638537294
30
0
41
1
10
79.3357827762196
20
-0.121091608072163
30
0
41
1
10
79.7434029266606
20
-0.249378994767
30
0
41
1
10
80.033150059828
20
-0.351800183152164
30
0
41
1
10
80.2762478603487
20
-0.444118999136748
30
0
41
1
10
80.5437731959687
20
-0.55283732063927
30
0
41
1
10
80.8558797782417
20
-0.689931981849611
30
0
41
1
10
81.078570399915
20
-0.79789601772822
30
0
41
1
10
81.1868003032235
20
-0.852601502132046
30
0
0
SPLINE
5
107
100
AcDbEntity
8
1
62
256
6
ByLayer
370
18
48
1
60
0
100
AcDbSpline
70
4
71
3
72
33
73
29
40
0
40
0
40
0
40
0
40
0.0272905239889052
40
0.0562326853354841
40
0.0825798227649842
40
0.127378026613394
40
0.168676161500512
40
0.206164410354718
40
0.241093104522553
40
0.274861250064954
40
0.303564962173305
40
0.336480310912685
40
0.370854681751938
40
0.399417135567391
40
0.426917998714739
40
0.492507419927114
40
0.533484731694227
40
0.588627178217855
40
0.64764026534932
40
0.70668176997656
40
0.74806098836026
40
0.789872879970873
40
0.826090269646716
40
0.857371648370109
40
0.899137289662333
40
0.95297244879647
40
0.997047554868929
40
1
40
1
40
1
40
1
41
1
10
62.0799155356051
20
-5.91901708700249
30
0
41
1
10
62.2133383647904
20
-5.91864043464605
30
0
41
1
10
62.4948609252446
20
-5.91746435400214
30
0
41
1
10
62.9284077727859
20
-5.91172620483249
30
0
41
1
10
63.4773468037085
20
-5.90981381248611
30
0
41
1
10
64.0673831670306
20
-5.92161396188817
30
0
41
1
10
64.7199765551406
20
-5.92476318398849
30
0
41
1
10
65.3328862337551
20
-5.92543670616891
30
0
41
1
10
65.9097906418388
20
-5.92619103383799
30
0
41
1
10
66.438414360306
20
-5.92764631460906
30
0
41
1
10
66.9555245688655
20
-5.92867081988811
30
0
41
1
10
67.4768847889526
20
-5.92928496598682
30
0
41
1
10
67.9973886031338
20
-5.93068617272041
30
0
41
1
10
68.4885282820376
20
-5.93169770014288
30
0
41
1
10
69.1491775304683
20
-5.9325131881084
30
0
41
1
10
69.8772580133798
20
-5.93382519221612
30
0
41
1
10
70.7554292602979
20
-5.93573080989887
30
0
41
1
10
71.5979554337264
20
-5.93635615896869
30
0
41
1
10
72.5382963492125
20
-5.93925908501913
30
0
41
1
10
73.4039080224834
20
-5.9392302006525
30
0
41
1
10
74.1763917692569
20
-5.94190415462285
30
0
41
1
10
74.8245761853154
20
-5.94279301893479
30
0
41
1
10
75.4181576314655
20
-5.94318693903998
30
0
41
1
10
76.0115409948224
20
-5.94506192889673
30
0
41
1
10
76.7005915582046
20
-5.94638619180526
30
0
41
1
10
77.4591203308812
20
-5.94661675913298
30
0
41
1
10
78.0068693394872
20
-5.94878525467843
30
0
41
1
10
78.2622591365819
20
-5.94912185522193
30
0
41
1
10
78.2782928097345
20
-5.94914247005676
30
0
0
SPLINE
5
108
100
AcDbEntity
8
1
62
256
6
ByLayer
370
18
48
1
60
0
100
AcDbSpline
70
4
71
2
72
6
73
3
40
0
40
0
40
0
40
1
40
1
40
1
41
1
10
6.02298952637489
20
-5.82045418851439
30
0
41
1
10
6.26468889005423
20
-5.82113504601298
30
0
41
1
10
6.50638897155088
20
-5.82159762928978
30
0
0
LINE
5
7B
100
AcDbEntity
8
SK1
62
256
6
ByLayer
370
18
48
1
60
0
100
AcDbLine
10
-45
20
3.5
30
0
11
-45
21
-3.5
31
0
39
0
210
0
220
0
230
1
0
LINE
5
7D
100
AcDbEntity
8
SK1
62
256
6
ByLayer
370
18
48
1
60
0
100
AcDbLine
10
-42.979274
20
7
30
0
11
-42.979274
21
-7
31
0
39
0
210
0
220
0
230
1
0
LINE
5
7E
100
AcDbEntity
8
SK1
62
256
6
ByLayer
370
18
48
1
60
0
100
AcDbLine
10
0
20
-7
30
0
11
0
21
7
31
0
39
0
210
0
220
0
230
1
0
LINE
5
7F
100
AcDbEntity
8
1
62
256
6
ByLayer
370
18
48
1
60
0
100
AcDbLine
10
6.023035
20
-5.82017
30
0
11
6.023043
21
-5.820484
31
0
39
0
210
0
220
0
230
1
0
LINE
5
80
100
AcDbEntity
8
1
62
256
6
ByLayer
370
18
48
1
60
0
100
AcDbLine
10
6.023035
20
5.82017
30
0
11
6.023044
21
5.820482
31
0
39
0
210
0
220
0
230
1
0
LINE
5
81
100
AcDbEntity
8
1
62
256
6
ByLayer
370
18
48
1
60
0
100
AcDbLine
10
0
20
-7
30
0
11
0
21
7
31
0
39
0
210
0
220
0
230
1
0
LINE
5
82
100
AcDbEntity
8
1
62
256
6
ByLayer
370
13
48
1
60
0
100
AcDbLine
10
0.783215
20
6.480264
30
0
11
0.783215
21
-6.480264
31
0
39
0
210
0
220
0
230
1
0
LINE
5
83
100
AcDbEntity
8
1
62
256
6
ByLayer
370
18
48
1
60
0
100
AcDbLine
10
136.058094
20
-1.423041
30
0
11
136.05968
21
-1.412674
31
0
39
0
210
0
220
0
230
1
0
LINE
5
84
100
AcDbEntity
8
1
62
256
6
ByLayer
370
18
48
1
60
0
100
AcDbLine
10
133.985445
20
-3.08702
30
0
11
136.058094
21
-1.423041
31
0
39
0
210
0
220
0
230
1
0
LINE
5
85
100
AcDbEntity
8
1
62
256
6
ByLayer
370
13
48
1
60
0
100
AcDbLine
10
1.56796
20
5.96053
30
0
11
1.56796
21
-5.96053
31
0
39
0
210
0
220
0
230
1
0
LINE
5
86
100
AcDbEntity
8
80
62
256
6
ByLayer
370
18
48
1
60
0
100
AcDbLine
10
0
20
0
30
0
11
-5
21
0
31
0
39
0
210
0
220
0
230
1
0
LINE
5
87
100
AcDbEntity
8
4
62
256
6
ByLayer
370
18
48
0.05
60
0
100
AcDbLine
10
137
20
0
30
0
11
0
21
0
31
0
39
0
210
0
220
0
230
1
0
LINE
5
89
100
AcDbEntity
8
SK4
62
256
6
ByLayer
370
18
48
0.05
60
0
100
AcDbLine
10
142
20
0
30
0
11
-50
21
0
31
0
39
0
210
0
220
0
230
1
0
LINE
5
8B
100
AcDbEntity
8
SK1
62
256
6
ByLayer
370
18
48
1
60
0
100
AcDbLine
10
-45
20
-3.5
30
0
11
-42.979274
21
-7
31
0
39
0
210
0
220
0
230
1
0
LINE
5
8C
100
AcDbEntity
8
SK1
62
256
6
ByLayer
370
18
48
1
60
0
100
AcDbLine
10
-42.979274
20
7
30
0
11
-45
21
3.5
31
0
39
0
210
0
220
0
230
1
0
LINE
5
8D
100
AcDbEntity
8
SK1
62
256
6
ByLayer
370
18
48
1
60
0
100
AcDbLine
10
-42.979274
20
-7
30
0
11
0
21
-7
31
0
39
0
210
0
220
0
230
1
0
LINE
5
8E
100
AcDbEntity
8
SK1
62
256
6
ByLayer
370
18
48
1
60
0
100
AcDbLine
10
0
20
7
30
0
11
-42.979274
21
7
31
0
39
0
210
0
220
0
230
1
0
LINE
5
8F
100
AcDbEntity
8
1
62
256
6
ByLayer
370
18
48
1
60
0
100
AcDbLine
10
1.56796
20
-5.96053
30
0
11
5.498326
21
-5.967604
31
0
39
0
210
0
220
0
230
1
0
LINE
5
90
100
AcDbEntity
8
1
62
256
6
ByLayer
370
18
48
1
60
0
100
AcDbLine
10
22.311563
20
-5.997868
30
0
11
23.469301
21
-5.999952
31
0
39
0
210
0
220
0
230
1
0
LINE
5
91
100
AcDbEntity
8
1
62
256
6
ByLayer
370
18
48
1
60
0
100
AcDbLine
10
60.429306
20
-6.06648
30
0
11
61.568094
21
-6.06853
31
0
39
0
210
0
220
0
230
1
0
LINE
5
92
100
AcDbEntity
8
1
62
256
6
ByLayer
370
18
48
1
60
0
100
AcDbLine
10
98.549689
20
-6.135097
30
0
11
99.667103
21
-6.137108
31
0
39
0
210
0
220
0
230
1
0
LINE
5
93
100
AcDbEntity
8
1
62
256
6
ByLayer
370
18
48
1
60
0
100
AcDbLine
10
99.667101
20
6.137108
30
0
11
98.549689
21
6.135097
31
0
39
0
210
0
220
0
230
1
0
LINE
5
94
100
AcDbEntity
8
1
62
256
6
ByLayer
370
18
48
1
60
0
100
AcDbLine
10
61.568111
20
6.06853
30
0
11
60.429306
21
6.06648
31
0
39
0
210
0
220
0
230
1
0
LINE
5
95
100
AcDbEntity
8
1
62
256
6
ByLayer
370
18
48
1
60
0
100
AcDbLine
10
23.469281
20
5.999952
30
0
11
22.311563
21
5.997868
31
0
39
0
210
0
220
0
230
1
0
LINE
5
96
100
AcDbEntity
8
1
62
256
6
ByLayer
370
18
48
1
60
0
100
AcDbLine
10
5.498326
20
5.967604
30
0
11
1.56796
21
5.96053
31
0
39
0
210
0
220
0
230
1
0
LINE
5
97
100
AcDbEntity
8
81
62
256
6
ByLayer
370
18
48
1
60
0
100
AcDbLine
10
137
20
0
30
0
11
142
21
0
31
0
39
0
210
0
220
0
230
1
0
LINE
5
98
100
AcDbEntity
8
SK2
62
256
6
ByLayer
370
13
48
1
60
0
100
AcDbLine
10
-53.625163
20
-7
30
0
11
-53.625163
21
38.225706
31
0
39
0
210
0
220
0
230
1
0
LINE
5
9A
100
AcDbEntity
8
SK2
62
256
6
ByLayer
370
13
48
1
60
0
100
AcDbLine
10
-46.5875
20
7
30
0
11
-55.625163
21
7
31
0
39
0
210
0
220
0
230
1
0
LINE
5
9B
100
AcDbEntity
8
SK2
62
256
6
ByLayer
370
13
48
1
60
0
100
AcDbLine
10
-46.5875
20
-7
30
0
11
-55.625163
21
-7
31
0
39
0
210
0
220
0
230
1
0
LINE
5
9C
100
AcDbEntity
8
1
62
256
6
ByLayer
370
18
48
1
60
1
100
AcDbLine
10
-53.625163
20
7
30
0
11
-53.164379
21
3.500002
31
0
39
0
210
0
220
0
230
1
0
LINE
5
9D
100
AcDbEntity
8
1
62
256
6
ByLayer
370
18
48
1
60
1
100
AcDbLine
10
-53.164379
20
3.500002
30
0
11
-54.085946
21
3.499998
31
0
39
0
210
0
220
0
230
1
0
LINE
5
9E
100
AcDbEntity
8
1
62
256
6
ByLayer
370
18
48
1
60
1
100
AcDbLine
10
-54.085946
20
3.499998
30
0
11
-53.625163
21
7
31
0
39
0
210
0
220
0
230
1
0
LINE
5
9F
100
AcDbEntity
8
1
62
256
6
ByLayer
370
18
48
1
60
1
100
AcDbLine
10
-53.625163
20
-7
30
0
11
-54.085946
21
-3.500002
31
0
39
0
210
0
220
0
230
1
0
LINE
5
A0
100
AcDbEntity
8
1
62
256
6
ByLayer
370
18
48
1
60
1
100
AcDbLine
10
-54.085946
20
-3.500002
30
0
11
-53.164379
21
-3.499998
31
0
39
0
210
0
220
0
230
1
0
LINE
5
A1
100
AcDbEntity
8
1
62
256
6
ByLayer
370
18
48
1
60
1
100
AcDbLine
10
-53.164379
20
-3.499998
30
0
11
-53.625163
21
-7
31
0
39
0
210
0
220
0
230
1
0
LINE
5
A2
100
AcDbEntity
8
2
62
256
6
ByLayer
370
13
48
1
60
0
100
AcDbLine
10
149.083343
20
-6.2
30
0
11
149.083343
21
36.018792
31
0
39
0
210
0
220
0
230
1
0
LINE
5
A4
100
AcDbEntity
8
2
62
256
6
ByLayer
370
13
48
1
60
0
100
AcDbLine
10
136.1946
20
6.2
30
0
11
151.083343
21
6.2
31
0
39
0
210
0
220
0
230
1
0
LINE
5
A5
100
AcDbEntity
8
2
62
256
6
ByLayer
370
13
48
1
60
0
100
AcDbLine
10
136.1946
20
-6.2
30
0
11
151.083343
21
-6.2
31
0
39
0
210
0
220
0
230
1
0
LINE
5
A6
100
AcDbEntity
8
1
62
256
6
ByLayer
370
18
48
1
60
1
100
AcDbLine
10
149.083343
20
6.2
30
0
11
149.544126
21
2.700002
31
0
39
0
210
0
220
0
230
1
0
LINE
5
A7
100
AcDbEntity
8
1
62
256
6
ByLayer
370
18
48
1
60
1
100
AcDbLine
10
149.544126
20
2.700002
30
0
11
148.622559
21
2.699998
31
0
39
0
210
0
220
0
230
1
0
LINE
5
A8
100
AcDbEntity
8
1
62
256
6
ByLayer
370
18
48
1
60
1
100
AcDbLine
10
148.622559
20
2.699998
30
0
11
149.083343
21
6.2
31
0
39
0
210
0
220
0
230
1
0
LINE
5
A9
100
AcDbEntity
8
1
62
256
6
ByLayer
370
18
48
1
60
1
100
AcDbLine
10
149.083343
20
-6.2
30
0
11
148.622559
21
-2.700002
31
0
39
0
210
0
220
0
230
1
0
LINE
5
AA
100
AcDbEntity
8
1
62
256
6
ByLayer
370
18
48
1
60
1
100
AcDbLine
10
148.622559
20
-2.700002
30
0
11
149.544126
21
-2.699998
31
0
39
0
210
0
220
0
230
1
0
LINE
5
AB
100
AcDbEntity
8
1
62
256
6
ByLayer
370
18
48
1
60
1
100
AcDbLine
10
149.544126
20
-2.699998
30
0
11
149.083343
21
-6.2
31
0
39
0
210
0
220
0
230
1
0
LINE
5
10F
100
AcDbEntity
8
1
62
256
6
ByLayer
370
18
48
1
60
1
100
AcDbLine
10
-53.625163
20
7
30
0
11
-53.164379
21
3.500002
31
0
39
0
210
0
220
0
230
1
0
LINE
5
110
100
AcDbEntity
8
1
62
256
6
ByLayer
370
18
48
1
60
1
100
AcDbLine
10
-53.164379
20
3.500002
30
0
11
-54.085946
21
3.499998
31
0
39
0
210
0
220
0
230
1
0
LINE
5
111
100
AcDbEntity
8
1
62
256
6
ByLayer
370
18
48
1
60
1
100
AcDbLine
10
-54.085946
20
3.499998
30
0
11
-53.625163
21
7
31
0
39
0
210
0
220
0
230
1
0
LINE
5
113
100
AcDbEntity
8
1
62
256
6
ByLayer
370
18
48
1
60
1
100
AcDbLine
10
-53.625163
20
-7
30
0
11
-54.085946
21
-3.500002
31
0
39
0
210
0
220
0
230
1
0
LINE
5
114
100
AcDbEntity
8
1
62
256
6
ByLayer
370
18
48
1
60
1
100
AcDbLine
10
-54.085946
20
-3.500002
30
0
11
-53.164379
21
-3.499998
31
0
39
0
210
0
220
0
230
1
0
LINE
5
115
100
AcDbEntity
8
1
62
256
6
ByLayer
370
18
48
1
60
1
100
AcDbLine
10
-53.164379
20
-3.499998
30
0
11
-53.625163
21
-7
31
0
39
0
210
0
220
0
230
1
0
LINE
5
119
100
AcDbEntity
8
1
62
256
6
ByLayer
370
18
48
1
60
1
100
AcDbLine
10
149.083343
20
6.2
30
0
11
149.544126
21
2.700002
31
0
39
0
210
0
220
0
230
1
0
LINE
5
11A
100
AcDbEntity
8
1
62
256
6
ByLayer
370
18
48
1
60
1
100
AcDbLine
10
149.544126
20
2.700002
30
0
11
148.622559
21
2.699998
31
0
39
0
210
0
220
0
230
1
0
LINE
5
11B
100
AcDbEntity
8
1
62
256
6
ByLayer
370
18
48
1
60
1
100
AcDbLine
10
148.622559
20
2.699998
30
0
11
149.083343
21
6.2
31
0
39
0
210
0
220
0
230
1
0
LINE
5
11D
100
AcDbEntity
8
1
62
256
6
ByLayer
370
18
48
1
60
1
100
AcDbLine
10
149.083343
20
-6.2
30
0
11
148.622559
21
-2.700002
31
0
39
0
210
0
220
0
230
1
0
LINE
5
11E
100
AcDbEntity
8
1
62
256
6
ByLayer
370
18
48
1
60
1
100
AcDbLine
10
148.622559
20
-2.700002
30
0
11
149.544126
21
-2.699998
31
0
39
0
210
0
220
0
230
1
0
LINE
5
11F
100
AcDbEntity
8
1
62
256
6
ByLayer
370
18
48
1
60
1
100
AcDbLine
10
149.544126
20
-2.699998
30
0
11
149.083343
21
-6.2
31
0
39
0
210
0
220
0
230
1
0
MTEXT
5
109
100
AcDbEntity
8
SK6
62
256
6
ByLayer
370
13
48
1
60
0
100
AcDbMText
10
19.019007
20
38.740328
30
0
210
0
220
0
230
1
1
\W0.7114;860.1-1240-115A1-PM P1BM
40
3.5
41
0
44
1.084337
50
0
71
7
72
5
7
iso_b_vert
0
MTEXT
5
10D
100
AcDbEntity
8
SK2
62
256
6
ByLayer
370
18
48
1
60
0
100
AcDbMText
10
-55.189796
20
20.409024
30
0
210
0
220
0
230
1
1
%%c
40
3.5
41
0
44
1.084337
50
90
71
7
72
5
7
iso_b_vert
0
MTEXT
5
10E
100
AcDbEntity
8
SK2
62
256
6
ByLayer
370
18
48
1
60
0
100
AcDbMText
10
-55.189796
20
25.63168
30
0
210
0
220
0
230
1
1
\W0.7145;14,000
40
3.5
41
0
44
1.084337
50
90
71
7
72
5
7
iso_b_vert
0
MTEXT
5
117
100
AcDbEntity
8
2
62
256
6
ByLayer
370
18
48
1
60
0
100
AcDbMText
10
147.518709
20
18.20211
30
0
210
0
220
0
230
1
1
%%c
40
3.5
41
0
44
1.084337
50
90
71
7
72
5
7
iso_b_vert
0
MTEXT
5
118
100
AcDbEntity
8
2
62
256
6
ByLayer
370
18
48
1
60
0
100
AcDbMText
10
147.518709
20
23.424766
30
0
210
0
220
0
230
1
1
\W0.7145;12,400
40
3.5
41
0
44
1.084337
50
90
71
7
72
5
7
iso_b_vert
0
HATCH
5
112
100
AcDbEntity
8
SK2
62
256
6
ByLayer
370
13
48
1
60
0
100
AcDbHatch
10
0
20
0
30
0
210
0
220
0
230
1
2
ANSI31
70
0
71
0
91
1
92
5
93
3
72
1
10
-53.6251625675374
20
7
11
-53.1643788259847
21
3.50000169255318
72
1
10
-53.1643788259847
20
3.50000169255318
11
-54.0859463090902
21
3.49999830744682
72
1
10
-54.0859463090902
20
3.49999830744682
11
-53.6251625675374
21
7
97
0
75
0
76
1
52
0
41
0.0062
77
0
78
1
53
45
43
0
44
0
45
-0.0139193969876572
46
0.0139193969876572
79
0
47
0
98
1
10
0
20
0
0
HATCH
5
116
100
AcDbEntity
8
SK2
62
256
6
ByLayer
370
13
48
1
60
0
100
AcDbHatch
10
0
20
0
30
0
210
0
220
0
230
1
2
ANSI31
70
0
71
0
91
1
92
5
93
3
72
1
10
-53.6251625675374
20
-7
11
-54.0859463090902
21
-3.50000169255318
72
1
10
-54.0859463090902
20
-3.50000169255318
11
-53.1643788259847
21
-3.49999830744682
72
1
10
-53.1643788259847
20
-3.49999830744682
11
-53.6251625675374
21
-7
97
0
75
0
76
1
52
0
41
0.0062
77
0
78
1
53
45
43
0
44
0
45
-0.0139193969876572
46
0.0139193969876572
79
0
47
0
98
1
10
0
20
0
0
HATCH
5
11C
100
AcDbEntity
8
2
62
256
6
ByLayer
370
13
48
1
60
0
100
AcDbHatch
10
0
20
0
30
0
210
0
220
0
230
1
2
ANSI31
70
0
71
0
91
1
92
5
93
3
72
1
10
149.083342615295
20
6.20000000000002
11
149.544126356848
21
2.7000016925532
72
1
10
149.544126356848
20
2.7000016925532
11
148.622558873742
21
2.69999830744683
72
1
10
148.622558873742
20
2.69999830744683
11
149.083342615295
21
6.20000000000002
97
0
75
0
76
1
52
0
41
0.0062
77
0
78
1
53
45
43
0
44
0
45
-0.0139193969876572
46
0.0139193969876572
79
0
47
0
98
1
10
0
20
0
0
HATCH
5
120
100
AcDbEntity
8
2
62
256
6
ByLayer
370
13
48
1
60
0
100
AcDbHatch
10
0
20
0
30
0
210
0
220
0
230
1
2
ANSI31
70
0
71
0
91
1
92
5
93
3
72
1
10
149.083342615295
20
-6.19999999999999
11
148.622558873742
21
-2.70000169255317
72
1
10
148.622558873742
20
-2.70000169255317
11
149.544126356848
21
-2.6999983074468
72
1
10
149.544126356848
20
-2.6999983074468
11
149.083342615295
21
-6.19999999999999
97
0
75
0
76
1
52
0
41
0.0062
77
0
78
1
53
45
43
0
44
0
45
-0.0139193969876572
46
0.0139193969876572
79
0
47
0
98
1
10
0
20
0
0
DIMENSION
5
122
100
AcDbEntity
8
2
62
256
6
ByLayer
370
13
48
1
60
0
100
AcDbDimension
2
_U0
10
134.6071
20
-16.413398
30
0
11
67.30355
21
-16.413398
31
0
70
32
71
1
72
1
41
1
210
0
220
0
230
1
3
Standard
100
AcDbAlignedDimension
13
0
23
0
33
0
14
134.6071
24
-6.2
34
0
50
0
100
AcDbRotatedDimension
1001
ACAD
1000
DSTYLE
1002
{
1070
   371
1070
    13
1070
   372
1070
    13
1070
   170
1070
     0
1070
   144
1040
1.0
1070
   277
1070
     2
1070
   278
1070
    44
1070
   146
1040
1.0
1070
   345
1005
16
1070
   347
1005
16
1070
   346
1005
16
1070
   344
1005
0
1070
   343
1005
0
1070
   172
1070
     1
1070
    76
1070
     0
1070
    75
1070
     0
1070
   282
1070
     0
1070
   281
1070
     0
1070
    71
1070
     0
1070
    74
1070
     0
1070
   279
1070
     0
1070
   173
1070
     1
1070
   340
1005
10A
1070
   271
1070
     2
1070
   272
1070
     2
1070
    77
1070
     1
1070
    73
1070
     1
1070
   171
1070
     3
1070
   274
1070
     4
1070
   177
1070
    35
1070
   176
1070
    35
1070
   178
1070
    35
1070
    48
1040
-0.1
1070
    41
1040
3.5
1070
   147
1040
1.75
1070
    42
1040
1.5875
1070
    44
1040
2.0
1070
   140
1040
3.5
1002
}
1001
ACAD_DSTYLE_DIM_LINETYPE
1070
   380
1005
16
1001
ACAD_DSTYLE_DIM_EXT1_LINETYPE
1070
   381
1005
16
1001
ACAD_DSTYLE_DIM_EXT2_LINETYPE
1070
   382
1005
16
0
DIMENSION
5
13B
100
AcDbEntity
8
SK2
62
256
6
ByLayer
370
13
48
1
60
0
100
AcDbDimension
2
_U1
10
137
20
-35.692985
30
0
11
46
21
-35.692985
31
0
70
32
71
1
72
1
41
1
210
0
220
0
230
1
3
Standard
100
AcDbAlignedDimension
13
-45
23
-7
33
0
14
137
24
0
34
0
50
0
100
AcDbRotatedDimension
1001
ACAD
1000
DSTYLE
1002
{
1070
   371
1070
    13
1070
   372
1070
    13
1070
   170
1070
     0
1070
   144
1040
1.0
1070
   277
1070
     2
1070
   278
1070
    44
1070
   146
1040
1.0
1070
   345
1005
16
1070
   347
1005
16
1070
   346
1005
16
1070
   344
1005
0
1070
   343
1005
0
1070
   172
1070
     1
1070
    76
1070
     0
1070
    75
1070
     0
1070
   282
1070
     0
1070
   281
1070
     0
1070
    71
1070
     0
1070
    74
1070
     0
1070
   279
1070
     0
1070
   173
1070
     1
1070
   340
1005
10A
1070
   271
1070
     2
1070
   272
1070
     2
1070
    77
1070
     1
1070
    73
1070
     1
1070
   171
1070
     3
1070
   274
1070
     4
1070
   177
1070
    35
1070
   176
1070
    35
1070
   178
1070
    35
1070
    48
1040
-0.1
1070
    41
1040
3.5
1070
   147
1040
1.75
1070
    42
1040
1.5875
1070
    44
1040
2.0
1070
   140
1040
3.5
1002
}
1001
ACAD_DSTYLE_DIM_LINETYPE
1070
   380
1005
16
1001
ACAD_DSTYLE_DIM_EXT1_LINETYPE
1070
   381
1005
16
1001
ACAD_DSTYLE_DIM_EXT2_LINETYPE
1070
   382
1005
16
0
DIMENSION
5
153
100
AcDbEntity
8
SK2
62
256
6
ByLayer
370
13
48
1
60
0
100
AcDbDimension
2
_U2
10
137
20
17.809119
30
0
11
86.205
21
17.809119
31
0
70
32
71
1
72
1
41
1
210
0
220
0
230
1
3
Standard
100
AcDbAlignedDimension
13
35.41
23
6.2
33
0
14
137
24
0
34
0
50
0
100
AcDbRotatedDimension
1001
ACAD
1000
DSTYLE
1002
{
1070
   371
1070
    13
1070
   372
1070
    13
1070
   170
1070
     0
1070
   144
1040
1.0
1070
   277
1070
     2
1070
   278
1070
    44
1070
   146
1040
1.0
1070
   345
1005
16
1070
   347
1005
16
1070
   346
1005
16
1070
   344
1005
0
1070
   343
1005
0
1070
   172
1070
     1
1070
    76
1070
     0
1070
    75
1070
     0
1070
   282
1070
     0
1070
   281
1070
     0
1070
    71
1070
     0
1070
    74
1070
     0
1070
   279
1070
     0
1070
   173
1070
     1
1070
   340
1005
10A
1070
   271
1070
     2
1070
   272
1070
     2
1070
    77
1070
     1
1070
    73
1070
     1
1070
   171
1070
     3
1070
   274
1070
     4
1070
   177
1070
    35
1070
   176
1070
    35
1070
   178
1070
    35
1070
    48
1040
-0.1
1070
    41
1040
3.5
1070
   147
1040
1.75
1070
    42
1040
1.5875
1070
    44
1040
2.0
1070
   140
1040
3.5
1002
}
1001
ACAD_DSTYLE_DIM_LINETYPE
1070
   380
1005
16
1001
ACAD_DSTYLE_DIM_EXT1_LINETYPE
1070
   381
1005
16
1001
ACAD_DSTYLE_DIM_EXT2_LINETYPE
1070
   382
1005
16
0
DIMENSION
5
16B
100
AcDbEntity
8
SK2
62
256
6
ByLayer
370
13
48
1
60
0
100
AcDbDimension
2
_U3
10
134.6071
20
-19.002503
30
0
11
154.5
21
-19.002503
31
0
70
32
71
1
72
1
41
1
210
0
220
0
230
1
3
Standard
100
AcDbAlignedDimension
13
137
23
0
33
0
14
134.6071
24
-6.2
34
0
50
0
100
AcDbRotatedDimension
1001
ACAD
1000
DSTYLE
1002
{
1070
   371
1070
    13
1070
   372
1070
    13
1070
   170
1070
     0
1070
   144
1040
1.0
1070
   277
1070
     2
1070
   278
1070
    44
1070
   146
1040
1.0
1070
   345
1005
16
1070
   347
1005
16
1070
   346
1005
16
1070
   344
1005
0
1070
   343
1005
0
1070
   172
1070
     1
1070
    76
1070
     0
1070
    75
1070
     0
1070
   282
1070
     0
1070
   281
1070
     0
1070
    71
1070
     0
1070
    74
1070
     0
1070
   279
1070
     0
1070
   173
1070
     1
1070
   340
1005
10A
1070
   271
1070
     2
1070
   272
1070
     2
1070
    77
1070
     1
1070
    73
1070
     1
1070
   171
1070
     3
1070
   274
1070
     4
1070
   177
1070
    35
1070
   176
1070
    35
1070
   178
1070
    35
1070
    48
1040
-0.1
1070
    41
1040
3.5
1070
   147
1040
1.75
1070
    42
1040
1.5875
1070
    44
1040
2.0
1070
   140
1040
3.5
1002
}
1001
ACAD_DSTYLE_DIM_LINETYPE
1070
   380
1005
16
1001
ACAD_DSTYLE_DIM_EXT1_LINETYPE
1070
   381
1005
16
1001
ACAD_DSTYLE_DIM_EXT2_LINETYPE
1070
   382
1005
16
0
DIMENSION
5
185
100
AcDbEntity
8
SK2
62
256
6
ByLayer
370
13
48
1
60
0
100
AcDbDimension
2
_U4
10
134.6071
20
-25.343428
30
0
11
44.80355
21
-25.343428
31
0
70
32
71
1
72
1
41
1
210
0
220
0
230
1
3
Standard
100
AcDbAlignedDimension
13
-45
23
-7
33
0
14
134.6071
24
-6.2
34
0
50
0
100
AcDbRotatedDimension
1001
ACAD
1000
DSTYLE
1002
{
1070
   371
1070
    13
1070
   372
1070
    13
1070
   170
1070
     0
1070
   144
1040
1.0
1070
   277
1070
     2
1070
   278
1070
    44
1070
   146
1040
1.0
1070
   345
1005
16
1070
   347
1005
16
1070
   346
1005
16
1070
   344
1005
0
1070
   343
1005
0
1070
   172
1070
     1
1070
    76
1070
     0
1070
    75
1070
     0
1070
   282
1070
     0
1070
   281
1070
     0
1070
    71
1070
     0
1070
    74
1070
     0
1070
   279
1070
     0
1070
   173
1070
     1
1070
   340
1005
10A
1070
   271
1070
     2
1070
   272
1070
     2
1070
    77
1070
     1
1070
    73
1070
     1
1070
   171
1070
     3
1070
   274
1070
     4
1070
   177
1070
    35
1070
   176
1070
    35
1070
   178
1070
    35
1070
    48
1040
-0.1
1070
    41
1040
3.5
1070
   147
1040
1.75
1070
    42
1040
1.5875
1070
    44
1040
2.0
1070
   140
1040
3.5
1002
}
1001
ACAD_DSTYLE_DIM_LINETYPE
1070
   380
1005
16
1001
ACAD_DSTYLE_DIM_EXT1_LINETYPE
1070
   381
1005
16
1001
ACAD_DSTYLE_DIM_EXT2_LINETYPE
1070
   382
1005
16
0
ENDSEC
0
SECTION
2
OBJECTS
0
DICTIONARY
5
20d
330
0
100
AcDbDictionary
280
0
281
1
3
ACAD_GROUP
350
20e
3
ACAD_MLINESTYLE
350
20f
0
DICTIONARY
5
20e
330
0
100
AcDbDictionary
280
0
281
1
0
DICTIONARY
5
20f
330
0
100
AcDbDictionary
280
0
281
1
3
Standard
350
18
0
MLINESTYLE
5
18
330
20f
100
AcDbMlineStyle
2
Standard
70
0
3

62
256
51
90
52
90
71
2
49
-0.5
62
256
6
ByLayer
49
0.5
62
256
6
ByLayer
0
RASTERVARIABLES
5
1fb
330

100
AcDbRasterVariables
90
0
70
1
71
1
72
1
0
ENDSEC
0
EOF
