0
SECTION
2
HEADER
9
$ACADVER
1
AC1015
9
$DWGCODEPAGE
3
ANSI_1252
9
$HANDSEED
5
218
9
$ANGBASE
50
0
9
$ANGDIR
70
0
9
$ATTMODE
70
1
9
$AUNITS
70
0
9
$AUPREC
70
0
9
$CECOLOR
62
256
9
$CELTSCALE
40
1
9
$CELTYPE
6
ByLayer
9
$CELWEIGHT
370
18
9
$CLAYER
8
0
9
$CMLJUST
70
0
9
$CMLSCALE
40
1
9
$CMLSTYLE
2
Standard
9
$DIMSTYLE
2
Standard
9
$TEXTSIZE
40
0.2
9
$TEXTSTYLE
7
Standard
9
$LUNITS
70
2
9
$LUPREC
70
4
9
$EXTNAMES
290
1
9
$INSUNITS
70
4
9
$LTSCALE
40
1
9
$LWDISPLAY
290
1
9
$PDMODE
70
0
9
$PDSIZE
40
0
9
$PLINEGEN
70
0
0
ENDSEC
0
SECTION
2
CLASSES
0
CLASS
1
RASTERVARIABLES
2
AcDbRasterVariables
3
ISM
90
0
280
0
281
0
0
ENDSEC
0
SECTION
2
TABLES
0
TABLE
2
VPORT
5
20e
100
AcDbSymbolTable
0
VPORT
5
1
100
AcDbSymbolTableRecord
100
AcDbViewportTableRecord
2
*Active
70
0
10
0
20
0
11
1
21
1
12
-1
22
1
13
0
23
0
14
0.5
24
0.5
15
10
25
10
16
0
26
0
36
1
17
0
27
0
37
0
0
ENDTAB
0
TABLE
2
LTYPE
5
20f
100
AcDbSymbolTable
0
LTYPE
5
14
100
AcDbSymbolTableRecord
100
AcDbLinetypeTableRecord
70
0
2
ByBlock
3

72
65
73
0
40
0
0
LTYPE
5
15
100
AcDbSymbolTableRecord
100
AcDbLinetypeTableRecord
70
0
2
ByLayer
3

72
65
73
0
40
0
0
LTYPE
5
16
100
AcDbSymbolTableRecord
100
AcDbLinetypeTableRecord
70
0
2
Continuous
3
Solid line
72
65
73
0
40
0
0
LTYPE
5
6E
100
AcDbSymbolTableRecord
100
AcDbLinetypeTableRecord
70
0
2
CENTER
3
____ _ ____ _ ____ _ ____
72
65
73
4
40
47.5
49
22
74
0
49
-8.5
74
0
49
8.5
74
0
49
-8.5
74
0
0
LTYPE
5
6F
100
AcDbSymbolTableRecord
100
AcDbLinetypeTableRecord
70
0
2
DASHED
3
__ __ __ __ __ __ __ __ __
72
65
73
2
40
25.72
49
12.86
74
0
49
-12.86
74
0
0
ENDTAB
0
TABLE
2
LAYER
5
210
100
AcDbSymbolTable
0
LAYER
5
10
100
AcDbSymbolTableRecord
100
AcDbLayerTableRecord
2
0
70
0
62
7
6
Continuous
290
1
370
-3
390
0
0
LAYER
5
71
100
AcDbSymbolTableRecord
100
AcDbLayerTableRecord
2
80
70
0
62
-6
6
Continuous
290
1
370
-3
390
0
0
LAYER
5
73
100
AcDbSymbolTableRecord
100
AcDbLayerTableRecord
2
81
70
0
62
-3
6
Continuous
290
1
370
-3
390
0
0
LAYER
5
75
100
AcDbSymbolTableRecord
100
AcDbLayerTableRecord
2
1
70
0
62
4
6
Continuous
290
1
370
-3
390
0
0
LAYER
5
86
100
AcDbSymbolTableRecord
100
AcDbLayerTableRecord
2
4
70
0
62
-2
6
CENTER
290
1
370
-3
390
0
0
LAYER
5
A1
100
AcDbSymbolTableRecord
100
AcDbLayerTableRecord
2
2
70
0
62
7
6
Continuous
290
1
370
-3
390
0
0
LAYER
5
123
100
AcDbSymbolTableRecord
100
AcDbLayerTableRecord
2
Defpoints
70
0
62
7
6
Continuous
290
0
370
-3
390
0
0
LAYER
5
1fa
100
AcDbSymbolTableRecord
100
AcDbLayerTableRecord
2
SK1
70
0
62
4
6
Continuous
290
1
370
-3
390
0
0
LAYER
5
1fb
100
AcDbSymbolTableRecord
100
AcDbLayerTableRecord
2
SK4
70
0
62
2
6
CENTER
290
1
370
-3
390
0
0
LAYER
5
1fc
100
AcDbSymbolTableRecord
100
AcDbLayerTableRecord
2
SK2
70
0
62
7
6
Continuous
290
1
370
-3
390
0
0
LAYER
5
1fd
100
AcDbSymbolTableRecord
100
AcDbLayerTableRecord
2
SK6
70
0
62
5
6
Continuous
290
1
370
-3
390
0
0
ENDTAB
0
TABLE
2
STYLE
5
211
100
AcDbSymbolTable
0
STYLE
5
11
100
AcDbSymbolTableRecord
100
AcDbTextStyleTableRecord
2
Standard
3
txt
70
0
71
0
40
0
41
1
42
0
50
0
0
STYLE
5
108
100
AcDbSymbolTableRecord
100
AcDbTextStyleTableRecord
2
iso_b_vert
3
simplex.shx
70
0
71
0
40
0
41
1
42
0
50
0
0
STYLE
5
109
100
AcDbSymbolTableRecord
100
AcDbTextStyleTableRecord
2
DWGDirectTextStyle
3
simplex
70
0
71
0
40
0
41
1
42
0
50
0
0
ENDTAB
0
TABLE
2
DIMSTYLE
5
212
100
AcDbSymbolTable
100
AcDbDimStyleTable
0
DIMSTYLE
105
27
100
AcDbSymbolTableRecord
100
AcDbDimStyleTableRecord
2
Standard
70
0
3
<>
41
0.18
42
0.0625
44
0.18
140
0.18
147
0.09
73
0
74
0
77
1
271
2
275
0
278
52
280
0
340
11
0
ENDTAB
0
TABLE
2
VIEW
5
213
100
AcDbSymbolTable
0
ENDTAB
0
TABLE
2
UCS
5
214
100
AcDbSymbolTable
0
ENDTAB
0
TABLE
2
APPID
5
215
100
AcDbSymbolTable
0
APPID
5
12
100
AcDbSymbolTableRecord
100
AcDbRegAppTableRecord
2
ACAD
70
0
0
APPID
5
11F
100
AcDbSymbolTableRecord
100
AcDbRegAppTableRecord
2
ACAD_DSTYLE_DIMBREAK
70
0
0
APPID
5
1B9
100
AcDbSymbolTableRecord
100
AcDbRegAppTableRecord
2
ACAD_DSTYLE_DIM_LINETYPE
70
0
0
APPID
5
1BA
100
AcDbSymbolTableRecord
100
AcDbRegAppTableRecord
2
ACAD_DSTYLE_DIM_EXT1_LINETYPE
70
0
0
APPID
5
1BB
100
AcDbSymbolTableRecord
100
AcDbRegAppTableRecord
2
ACAD_DSTYLE_DIM_EXT2_LINETYPE
70
0
0
APPID
5
1F6
100
AcDbSymbolTableRecord
100
AcDbRegAppTableRecord
2
ACAD_MLEADERVER
70
0
0
ENDTAB
0
TABLE
2
BLOCK_RECORD
5
216
100
AcDbSymbolTable
0
BLOCK_RECORD
5
1F
100
AcDbSymbolTableRecord
100
AcDbBlockTableRecord
2
*Model_Space
340
0
70
0
0
BLOCK_RECORD
5
1B
100
AcDbSymbolTableRecord
100
AcDbBlockTableRecord
2
*Paper_Space
340
0
70
0
0
BLOCK_RECORD
5
23
100
AcDbSymbolTableRecord
100
AcDbBlockTableRecord
2
*Paper_Space0
340
0
70
0
0
BLOCK_RECORD
5
124
100
AcDbSymbolTableRecord
100
AcDbBlockTableRecord
2
*D1
340
0
70
0
0
BLOCK_RECORD
5
130
100
AcDbSymbolTableRecord
100
AcDbBlockTableRecord
2
_U0
340
0
70
0
0
BLOCK_RECORD
5
13C
100
AcDbSymbolTableRecord
100
AcDbBlockTableRecord
2
*D3
340
0
70
0
0
BLOCK_RECORD
5
148
100
AcDbSymbolTableRecord
100
AcDbBlockTableRecord
2
_U1
340
0
70
0
0
BLOCK_RECORD
5
154
100
AcDbSymbolTableRecord
100
AcDbBlockTableRecord
2
*D5
340
0
70
0
0
BLOCK_RECORD
5
160
100
AcDbSymbolTableRecord
100
AcDbBlockTableRecord
2
_U2
340
0
70
0
0
BLOCK_RECORD
5
16C
100
AcDbSymbolTableRecord
100
AcDbBlockTableRecord
2
*D7
340
0
70
0
0
BLOCK_RECORD
5
17A
100
AcDbSymbolTableRecord
100
AcDbBlockTableRecord
2
_U3
340
0
70
0
0
BLOCK_RECORD
5
186
100
AcDbSymbolTableRecord
100
AcDbBlockTableRecord
2
*D9
340
0
70
0
0
BLOCK_RECORD
5
192
100
AcDbSymbolTableRecord
100
AcDbBlockTableRecord
2
_U4
340
0
70
0
0
ENDTAB
0
ENDSEC
0
SECTION
2
BLOCKS
0
BLOCK
5
20
100
AcDbEntity
8
0
100
AcDbBlockBegin
2
*Model_Space
70
0
10
0
20
0
30
0
3
*Model_Space
0
ENDBLK
5
21
100
AcDbEntity
8
0
100
AcDbBlockEnd
0
BLOCK
5
1C
100
AcDbEntity
8
0
100
AcDbBlockBegin
2
*Paper_Space
70
0
10
0
20
0
30
0
3
*Paper_Space
0
ENDBLK
5
1D
100
AcDbEntity
8
0
100
AcDbBlockEnd
0
BLOCK
5
24
100
AcDbEntity
8
0
100
AcDbBlockBegin
2
*Paper_Space0
70
0
10
0
20
0
30
0
3
*Paper_Space0
0
ENDBLK
5
25
100
AcDbEntity
8
0
100
AcDbBlockEnd
0
BLOCK
5
125
100
AcDbEntity
8
0
100
AcDbBlockBegin
2
*D1
70
1
10
0
20
0
30
0
3
*D1
0
LINE
5
127
100
AcDbEntity
8
0
62
256
6
ByLayer
370
-2
48
1
60
0
100
AcDbLine
10
0
20
-1.5875
30
0
11
0
21
-17.813398
31
0
39
0
210
0
220
0
230
1
0
LINE
5
128
100
AcDbEntity
8
0
62
256
6
ByLayer
370
-2
48
1
60
0
100
AcDbLine
10
115.8491
20
-7.1875
30
0
11
115.8491
21
-17.813398
31
0
39
0
210
0
220
0
230
1
0
LINE
5
129
100
AcDbEntity
8
0
62
256
6
ByLayer
370
-2
48
1
60
0
100
AcDbLine
10
3.5
20
-15.813398
30
0
11
112.3491
21
-15.813398
31
0
39
0
210
0
220
0
230
1
0
SOLID
5
12A
100
AcDbEntity
8
0
62
256
6
ByLayer
370
-1
48
1
60
0
100
AcDbTrace
10
3.5
20
-15.230065
30
0
11
3.5
21
-16.396732
31
0
12
0
22
-15.813398
32
0
13
0
23
-15.813398
33
0
39
0
210
0
220
0
230
1
0
SOLID
5
12B
100
AcDbEntity
8
0
62
256
6
ByLayer
370
-1
48
1
60
0
100
AcDbTrace
10
112.3491
20
-16.396732
30
0
11
112.3491
21
-15.230065
31
0
12
115.8491
22
-15.813398
32
0
13
115.8491
23
-15.813398
33
0
39
0
210
0
220
0
230
1
0
MTEXT
5
12C
100
AcDbEntity
8
0
62
256
6
ByLayer
370
18
48
1
60
0
100
AcDbMText
10
57.92455
20
-8.813398
30
0
210
0
220
0
230
1
1
\A1;115.85
40
3.5
41
0
44
1
50
0
71
5
72
5
7
iso_b_vert
0
POINT
5
12D
100
AcDbEntity
8
Defpoints
62
0
6
ByLayer
370
-1
48
1
60
0
100
AcDbPoint
10
0
20
0
30
0
39
0
210
0
220
0
230
1
50
360
0
POINT
5
12E
100
AcDbEntity
8
Defpoints
62
0
6
ByLayer
370
-1
48
1
60
0
100
AcDbPoint
10
115.8491
20
-5.6
30
0
39
0
210
0
220
0
230
1
50
360
0
POINT
5
12F
100
AcDbEntity
8
Defpoints
62
0
6
ByLayer
370
-1
48
1
60
0
100
AcDbPoint
10
115.8491
20
-15.813398
30
0
39
0
210
0
220
0
230
1
50
360
0
ENDBLK
5
126
100
AcDbEntity
8
0
100
AcDbBlockEnd
0
BLOCK
5
137
100
AcDbEntity
8
0
100
AcDbBlockBegin
2
_U0
70
0
10
0
20
0
30
0
3
_U0
0
MTEXT
5
131
100
AcDbEntity
8
2
62
256
6
ByLayer
370
13
48
1
60
0
100
AcDbMText
10
52.354385
20
-14.780765
30
0
210
0
220
0
230
1
1
\W0.6440;115,85
40
3.5
41
0
44
1.084337
50
0
71
7
72
5
7
iso_b_vert
0
LINE
5
132
100
AcDbEntity
8
2
62
256
6
ByLayer
370
13
48
1
60
0
100
AcDbLine
10
0
20
-1.5875
30
0
11
0
21
-17.813398
31
0
39
0
210
0
220
0
230
1
0
LINE
5
133
100
AcDbEntity
8
2
62
256
6
ByLayer
370
13
48
1
60
0
100
AcDbLine
10
115.8491
20
-7.1875
30
0
11
115.8491
21
-17.813398
31
0
39
0
210
0
220
0
230
1
0
LINE
5
134
100
AcDbEntity
8
2
62
256
6
ByLayer
370
13
48
1
60
0
100
AcDbLine
10
0
20
-15.813398
30
0
11
115.8491
21
-15.813398
31
0
39
0
210
0
220
0
230
1
0
SOLID
5
135
100
AcDbEntity
8
2
62
256
6
ByLayer
370
18
48
1
60
0
100
AcDbTrace
10
0
20
-15.813398
30
0
11
3.499998
21
-15.352615
31
0
12
3.500002
22
-16.274182
32
0
13
3.500002
23
-16.274182
33
0
39
0
210
0
220
0
230
1
0
SOLID
5
136
100
AcDbEntity
8
2
62
256
6
ByLayer
370
18
48
1
60
0
100
AcDbTrace
10
115.8491
20
-15.813398
30
0
11
112.349102
21
-16.274182
31
0
12
112.349098
22
-15.352615
32
0
13
112.349098
23
-15.352615
33
0
39
0
210
0
220
0
230
1
0
ENDBLK
5
138
100
AcDbEntity
8
0
100
AcDbBlockEnd
0
BLOCK
5
13D
100
AcDbEntity
8
0
100
AcDbBlockBegin
2
*D3
70
1
10
0
20
0
30
0
3
*D3
0
LINE
5
13F
100
AcDbEntity
8
0
62
256
6
ByLayer
370
-2
48
1
60
0
100
AcDbLine
10
-45
20
-7.5875
30
0
11
-45
21
-36.692985
31
0
39
0
210
0
220
0
230
1
0
LINE
5
140
100
AcDbEntity
8
0
62
256
6
ByLayer
370
-2
48
1
60
0
100
AcDbLine
10
118
20
-1.5875
30
0
11
118
21
-36.692985
31
0
39
0
210
0
220
0
230
1
0
LINE
5
141
100
AcDbEntity
8
0
62
256
6
ByLayer
370
-2
48
1
60
0
100
AcDbLine
10
-41.5
20
-34.692985
30
0
11
114.5
21
-34.692985
31
0
39
0
210
0
220
0
230
1
0
SOLID
5
142
100
AcDbEntity
8
0
62
256
6
ByLayer
370
-1
48
1
60
0
100
AcDbTrace
10
-41.5
20
-34.109652
30
0
11
-41.5
21
-35.276319
31
0
12
-45
22
-34.692985
32
0
13
-45
23
-34.692985
33
0
39
0
210
0
220
0
230
1
0
SOLID
5
143
100
AcDbEntity
8
0
62
256
6
ByLayer
370
-1
48
1
60
0
100
AcDbTrace
10
114.5
20
-35.276319
30
0
11
114.5
21
-34.109652
31
0
12
118
22
-34.692985
32
0
13
118
23
-34.692985
33
0
39
0
210
0
220
0
230
1
0
MTEXT
5
144
100
AcDbEntity
8
0
62
256
6
ByLayer
370
18
48
1
60
0
100
AcDbMText
10
36.5
20
-27.692985
30
0
210
0
220
0
230
1
1
\A1;163.00
40
3.5
41
0
44
1
50
0
71
5
72
5
7
iso_b_vert
0
POINT
5
145
100
AcDbEntity
8
Defpoints
62
0
6
ByLayer
370
-1
48
1
60
0
100
AcDbPoint
10
-45
20
-6
30
0
39
0
210
0
220
0
230
1
50
360
0
POINT
5
146
100
AcDbEntity
8
Defpoints
62
0
6
ByLayer
370
-1
48
1
60
0
100
AcDbPoint
10
118
20
0
30
0
39
0
210
0
220
0
230
1
50
360
0
POINT
5
147
100
AcDbEntity
8
Defpoints
62
0
6
ByLayer
370
-1
48
1
60
0
100
AcDbPoint
10
118
20
-34.692985
30
0
39
0
210
0
220
0
230
1
50
360
0
ENDBLK
5
13E
100
AcDbEntity
8
0
100
AcDbBlockEnd
0
BLOCK
5
14F
100
AcDbEntity
8
0
100
AcDbBlockBegin
2
_U1
70
0
10
0
20
0
30
0
3
_U1
0
MTEXT
5
149
100
AcDbEntity
8
SK2
62
256
6
ByLayer
370
13
48
1
60
0
100
AcDbMText
10
30.492401
20
-33.660352
30
0
210
0
220
0
230
1
1
\W0.6930;163,00
40
3.5
41
0
44
1.084337
50
0
71
7
72
5
7
iso_b_vert
0
LINE
5
14A
100
AcDbEntity
8
SK2
62
256
6
ByLayer
370
13
48
1
60
0
100
AcDbLine
10
-45
20
-7.5875
30
0
11
-45
21
-36.692985
31
0
39
0
210
0
220
0
230
1
0
LINE
5
14B
100
AcDbEntity
8
SK2
62
256
6
ByLayer
370
13
48
1
60
0
100
AcDbLine
10
118
20
-1.5875
30
0
11
118
21
-36.692985
31
0
39
0
210
0
220
0
230
1
0
LINE
5
14C
100
AcDbEntity
8
SK2
62
256
6
ByLayer
370
13
48
1
60
0
100
AcDbLine
10
-45
20
-34.692985
30
0
11
118
21
-34.692985
31
0
39
0
210
0
220
0
230
1
0
SOLID
5
14D
100
AcDbEntity
8
SK2
62
256
6
ByLayer
370
18
48
1
60
0
100
AcDbTrace
10
-45
20
-34.692985
30
0
11
-41.500002
21
-34.232202
31
0
12
-41.499998
22
-35.153769
32
0
13
-41.499998
23
-35.153769
33
0
39
0
210
0
220
0
230
1
0
SOLID
5
14E
100
AcDbEntity
8
SK2
62
256
6
ByLayer
370
18
48
1
60
0
100
AcDbTrace
10
118
20
-34.692985
30
0
11
114.500002
21
-35.153769
31
0
12
114.499998
22
-34.232202
32
0
13
114.499998
23
-34.232202
33
0
39
0
210
0
220
0
230
1
0
ENDBLK
5
150
100
AcDbEntity
8
0
100
AcDbBlockEnd
0
BLOCK
5
155
100
AcDbEntity
8
0
100
AcDbBlockBegin
2
*D5
70
1
10
0
20
0
30
0
3
*D5
0
LINE
5
157
100
AcDbEntity
8
0
62
256
6
ByLayer
370
-2
48
1
60
0
100
AcDbLine
10
26.25
20
7.1875
30
0
11
26.25
21
19.209119
31
0
39
0
210
0
220
0
230
1
0
LINE
5
158
100
AcDbEntity
8
0
62
256
6
ByLayer
370
-2
48
1
60
0
100
AcDbLine
10
118
20
1.5875
30
0
11
118
21
19.209119
31
0
39
0
210
0
220
0
230
1
0
LINE
5
159
100
AcDbEntity
8
0
62
256
6
ByLayer
370
-2
48
1
60
0
100
AcDbLine
10
29.75
20
17.209119
30
0
11
114.5
21
17.209119
31
0
39
0
210
0
220
0
230
1
0
SOLID
5
15A
100
AcDbEntity
8
0
62
256
6
ByLayer
370
-1
48
1
60
0
100
AcDbTrace
10
29.75
20
17.792453
30
0
11
29.75
21
16.625786
31
0
12
26.25
22
17.209119
32
0
13
26.25
23
17.209119
33
0
39
0
210
0
220
0
230
1
0
SOLID
5
15B
100
AcDbEntity
8
0
62
256
6
ByLayer
370
-1
48
1
60
0
100
AcDbTrace
10
114.5
20
16.625786
30
0
11
114.5
21
17.792453
31
0
12
118
22
17.209119
32
0
13
118
23
17.209119
33
0
39
0
210
0
220
0
230
1
0
MTEXT
5
15C
100
AcDbEntity
8
0
62
256
6
ByLayer
370
18
48
1
60
0
100
AcDbMText
10
72.125
20
24.209119
30
0
210
0
220
0
230
1
1
\A1;91.75
40
3.5
41
0
44
1
50
0
71
5
72
5
7
iso_b_vert
0
POINT
5
15D
100
AcDbEntity
8
Defpoints
62
0
6
ByLayer
370
-1
48
1
60
0
100
AcDbPoint
10
26.25
20
5.6
30
0
39
0
210
0
220
0
230
1
50
360
0
POINT
5
15E
100
AcDbEntity
8
Defpoints
62
0
6
ByLayer
370
-1
48
1
60
0
100
AcDbPoint
10
118
20
0
30
0
39
0
210
0
220
0
230
1
50
360
0
POINT
5
15F
100
AcDbEntity
8
Defpoints
62
0
6
ByLayer
370
-1
48
1
60
0
100
AcDbPoint
10
118
20
17.209119
30
0
39
0
210
0
220
0
230
1
50
360
0
ENDBLK
5
156
100
AcDbEntity
8
0
100
AcDbBlockEnd
0
BLOCK
5
167
100
AcDbEntity
8
0
100
AcDbBlockBegin
2
_U2
70
0
10
0
20
0
30
0
3
_U2
0
MTEXT
5
161
100
AcDbEntity
8
SK2
62
256
6
ByLayer
370
13
48
1
60
0
100
AcDbMText
10
67.425135
20
18.241753
30
0
210
0
220
0
230
1
1
\W0.6713;91,75
40
3.5
41
0
44
1.084337
50
0
71
7
72
5
7
iso_b_vert
0
LINE
5
162
100
AcDbEntity
8
SK2
62
256
6
ByLayer
370
13
48
1
60
0
100
AcDbLine
10
26.25
20
7.1875
30
0
11
26.25
21
19.209119
31
0
39
0
210
0
220
0
230
1
0
LINE
5
163
100
AcDbEntity
8
SK2
62
256
6
ByLayer
370
13
48
1
60
0
100
AcDbLine
10
118
20
1.5875
30
0
11
118
21
19.209119
31
0
39
0
210
0
220
0
230
1
0
LINE
5
164
100
AcDbEntity
8
SK2
62
256
6
ByLayer
370
13
48
1
60
0
100
AcDbLine
10
26.25
20
17.209119
30
0
11
118
21
17.209119
31
0
39
0
210
0
220
0
230
1
0
SOLID
5
165
100
AcDbEntity
8
SK2
62
256
6
ByLayer
370
18
48
1
60
0
100
AcDbTrace
10
26.25
20
17.209119
30
0
11
29.749998
21
17.669903
31
0
12
29.750002
22
16.748335
32
0
13
29.750002
23
16.748335
33
0
39
0
210
0
220
0
230
1
0
SOLID
5
166
100
AcDbEntity
8
SK2
62
256
6
ByLayer
370
18
48
1
60
0
100
AcDbTrace
10
118
20
17.209119
30
0
11
114.500002
21
16.748335
31
0
12
114.499998
22
17.669903
32
0
13
114.499998
23
17.669903
33
0
39
0
210
0
220
0
230
1
0
ENDBLK
5
168
100
AcDbEntity
8
0
100
AcDbBlockEnd
0
BLOCK
5
16D
100
AcDbEntity
8
0
100
AcDbBlockBegin
2
*D7
70
1
10
0
20
0
30
0
3
*D7
0
LINE
5
16F
100
AcDbEntity
8
0
62
256
6
ByLayer
370
-2
48
1
60
0
100
AcDbLine
10
118
20
-1.5875
30
0
11
118
21
-20.402503
31
0
39
0
210
0
220
0
230
1
0
LINE
5
170
100
AcDbEntity
8
0
62
256
6
ByLayer
370
-2
48
1
60
0
100
AcDbLine
10
115.8491
20
-7.1875
30
0
11
115.8491
21
-20.402503
31
0
39
0
210
0
220
0
230
1
0
LINE
5
171
100
AcDbEntity
8
0
62
256
6
ByLayer
370
-2
48
1
60
0
100
AcDbLine
10
118
20
-18.402503
30
0
11
146.166667
21
-18.402503
31
0
39
0
210
0
220
0
230
1
0
LINE
5
172
100
AcDbEntity
8
0
62
256
6
ByLayer
370
-2
48
1
60
0
100
AcDbLine
10
121.5
20
-18.402503
30
0
11
125
21
-18.402503
31
0
39
0
210
0
220
0
230
1
0
LINE
5
173
100
AcDbEntity
8
0
62
256
6
ByLayer
370
-2
48
1
60
0
100
AcDbLine
10
112.3491
20
-18.402503
30
0
11
108.8491
21
-18.402503
31
0
39
0
210
0
220
0
230
1
0
SOLID
5
174
100
AcDbEntity
8
0
62
256
6
ByLayer
370
-1
48
1
60
0
100
AcDbTrace
10
121.5
20
-17.81917
30
0
11
121.5
21
-18.985837
31
0
12
118
22
-18.402503
32
0
13
118
23
-18.402503
33
0
39
0
210
0
220
0
230
1
0
SOLID
5
175
100
AcDbEntity
8
0
62
256
6
ByLayer
370
-1
48
1
60
0
100
AcDbTrace
10
112.3491
20
-18.985837
30
0
11
112.3491
21
-17.81917
31
0
12
115.8491
22
-18.402503
32
0
13
115.8491
23
-18.402503
33
0
39
0
210
0
220
0
230
1
0
MTEXT
5
176
100
AcDbEntity
8
0
62
256
6
ByLayer
370
18
48
1
60
0
100
AcDbMText
10
135.583333
20
-11.402503
30
0
210
0
220
0
230
1
1
\A1;2.15
40
3.5
41
0
44
1
50
0
71
5
72
5
7
iso_b_vert
0
POINT
5
177
100
AcDbEntity
8
Defpoints
62
0
6
ByLayer
370
-1
48
1
60
0
100
AcDbPoint
10
118
20
0
30
0
39
0
210
0
220
0
230
1
50
360
0
POINT
5
178
100
AcDbEntity
8
Defpoints
62
0
6
ByLayer
370
-1
48
1
60
0
100
AcDbPoint
10
115.8491
20
-5.6
30
0
39
0
210
0
220
0
230
1
50
360
0
POINT
5
179
100
AcDbEntity
8
Defpoints
62
0
6
ByLayer
370
-1
48
1
60
0
100
AcDbPoint
10
115.8491
20
-18.402503
30
0
39
0
210
0
220
0
230
1
50
360
0
ENDBLK
5
16E
100
AcDbEntity
8
0
100
AcDbBlockEnd
0
BLOCK
5
181
100
AcDbEntity
8
0
100
AcDbBlockBegin
2
_U3
70
0
10
0
20
0
30
0
3
_U3
0
MTEXT
5
17B
100
AcDbEntity
8
SK2
62
256
6
ByLayer
370
13
48
1
60
0
100
AcDbMText
10
124.589293
20
-17.36987
30
0
210
0
220
0
230
1
1
\W0.6367;2,15
40
3.5
41
0
44
1.084337
50
0
71
7
72
5
7
iso_b_vert
0
LINE
5
17C
100
AcDbEntity
8
SK2
62
256
6
ByLayer
370
13
48
1
60
0
100
AcDbLine
10
118
20
-1.5875
30
0
11
118
21
-20.402503
31
0
39
0
210
0
220
0
230
1
0
LINE
5
17D
100
AcDbEntity
8
SK2
62
256
6
ByLayer
370
13
48
1
60
0
100
AcDbLine
10
115.8491
20
-7.1875
30
0
11
115.8491
21
-20.402503
31
0
39
0
210
0
220
0
230
1
0
LINE
5
17E
100
AcDbEntity
8
SK2
62
256
6
ByLayer
370
13
48
1
60
0
100
AcDbLine
10
107.0991
20
-18.402503
30
0
11
131.559058
21
-18.402503
31
0
39
0
210
0
220
0
230
1
0
SOLID
5
17F
100
AcDbEntity
8
SK2
62
256
6
ByLayer
370
18
48
1
60
0
100
AcDbTrace
10
118
20
-18.402503
30
0
11
121.499998
21
-17.941719
31
0
12
121.500002
22
-18.863287
32
0
13
121.500002
23
-18.863287
33
0
39
0
210
0
220
0
230
1
0
SOLID
5
180
100
AcDbEntity
8
SK2
62
256
6
ByLayer
370
18
48
1
60
0
100
AcDbTrace
10
115.8491
20
-18.402503
30
0
11
112.349102
21
-18.863287
31
0
12
112.349098
22
-17.941719
32
0
13
112.349098
23
-17.941719
33
0
39
0
210
0
220
0
230
1
0
ENDBLK
5
182
100
AcDbEntity
8
0
100
AcDbBlockEnd
0
BLOCK
5
187
100
AcDbEntity
8
0
100
AcDbBlockBegin
2
*D9
70
1
10
0
20
0
30
0
3
*D9
0
LINE
5
189
100
AcDbEntity
8
0
62
256
6
ByLayer
370
-2
48
1
60
0
100
AcDbLine
10
-45
20
-7.5875
30
0
11
-45
21
-26.343428
31
0
39
0
210
0
220
0
230
1
0
LINE
5
18A
100
AcDbEntity
8
0
62
256
6
ByLayer
370
-2
48
1
60
0
100
AcDbLine
10
115.8491
20
-7.1875
30
0
11
115.8491
21
-26.343428
31
0
39
0
210
0
220
0
230
1
0
LINE
5
18B
100
AcDbEntity
8
0
62
256
6
ByLayer
370
-2
48
1
60
0
100
AcDbLine
10
-41.5
20
-24.343428
30
0
11
112.3491
21
-24.343428
31
0
39
0
210
0
220
0
230
1
0
SOLID
5
18C
100
AcDbEntity
8
0
62
256
6
ByLayer
370
-1
48
1
60
0
100
AcDbTrace
10
-41.5
20
-23.760095
30
0
11
-41.5
21
-24.926762
31
0
12
-45
22
-24.343428
32
0
13
-45
23
-24.343428
33
0
39
0
210
0
220
0
230
1
0
SOLID
5
18D
100
AcDbEntity
8
0
62
256
6
ByLayer
370
-1
48
1
60
0
100
AcDbTrace
10
112.3491
20
-24.926762
30
0
11
112.3491
21
-23.760095
31
0
12
115.8491
22
-24.343428
32
0
13
115.8491
23
-24.343428
33
0
39
0
210
0
220
0
230
1
0
MTEXT
5
18E
100
AcDbEntity
8
0
62
256
6
ByLayer
370
18
48
1
60
0
100
AcDbMText
10
35.42455
20
-17.343428
30
0
210
0
220
0
230
1
1
\A1;160.85
40
3.5
41
0
44
1
50
0
71
5
72
5
7
iso_b_vert
0
POINT
5
18F
100
AcDbEntity
8
Defpoints
62
0
6
ByLayer
370
-1
48
1
60
0
100
AcDbPoint
10
-45
20
-6
30
0
39
0
210
0
220
0
230
1
50
360
0
POINT
5
190
100
AcDbEntity
8
Defpoints
62
0
6
ByLayer
370
-1
48
1
60
0
100
AcDbPoint
10
115.8491
20
-5.6
30
0
39
0
210
0
220
0
230
1
50
360
0
POINT
5
191
100
AcDbEntity
8
Defpoints
62
0
6
ByLayer
370
-1
48
1
60
0
100
AcDbPoint
10
115.8491
20
-24.343428
30
0
39
0
210
0
220
0
230
1
50
360
0
ENDBLK
5
188
100
AcDbEntity
8
0
100
AcDbBlockEnd
0
BLOCK
5
199
100
AcDbEntity
8
0
100
AcDbBlockBegin
2
_U4
70
0
10
0
20
0
30
0
3
_U4
0
MTEXT
5
193
100
AcDbEntity
8
SK2
62
256
6
ByLayer
370
13
48
1
60
0
100
AcDbMText
10
29.416951
20
-23.310795
30
0
210
0
220
0
230
1
1
\W0.6930;160,85
40
3.5
41
0
44
1.084337
50
0
71
7
72
5
7
iso_b_vert
0
LINE
5
194
100
AcDbEntity
8
SK2
62
256
6
ByLayer
370
13
48
1
60
0
100
AcDbLine
10
-45
20
-7.5875
30
0
11
-45
21
-26.343428
31
0
39
0
210
0
220
0
230
1
0
LINE
5
195
100
AcDbEntity
8
SK2
62
256
6
ByLayer
370
13
48
1
60
0
100
AcDbLine
10
115.8491
20
-7.1875
30
0
11
115.8491
21
-26.343428
31
0
39
0
210
0
220
0
230
1
0
LINE
5
196
100
AcDbEntity
8
SK2
62
256
6
ByLayer
370
13
48
1
60
0
100
AcDbLine
10
-45
20
-24.343428
30
0
11
115.8491
21
-24.343428
31
0
39
0
210
0
220
0
230
1
0
SOLID
5
197
100
AcDbEntity
8
SK2
62
256
6
ByLayer
370
18
48
1
60
0
100
AcDbTrace
10
-45
20
-24.343428
30
0
11
-41.500002
21
-23.882645
31
0
12
-41.499998
22
-24.804212
32
0
13
-41.499998
23
-24.804212
33
0
39
0
210
0
220
0
230
1
0
SOLID
5
198
100
AcDbEntity
8
SK2
62
256
6
ByLayer
370
18
48
1
60
0
100
AcDbTrace
10
115.8491
20
-24.343428
30
0
11
112.349102
21
-24.804212
31
0
12
112.349098
22
-23.882645
32
0
13
112.349098
23
-23.882645
33
0
39
0
210
0
220
0
230
1
0
ENDBLK
5
19A
100
AcDbEntity
8
0
100
AcDbBlockEnd
0
ENDSEC
0
SECTION
2
ENTITIES
0
ARC
5
AA
100
AcDbEntity
8
1
62
256
6
ByLayer
370
18
48
1
60
0
100
AcDbCircle
39
0
10
0
20
-5.15
30
0
40
0.850000000000001
210
0
220
0
230
1
100
AcDbArc
50
270
51
319.95262
0
ARC
5
AB
100
AcDbEntity
8
1
62
256
6
ByLayer
370
18
48
1
60
0
100
AcDbCircle
39
0
10
1.301371
20
6.243815
30
0
40
0.850000000000001
210
0
220
0
230
1
100
AcDbArc
50
220.04738
51
270.103132
0
ARC
5
AC
100
AcDbEntity
8
1
62
256
6
ByLayer
370
18
48
1
60
0
100
AcDbCircle
39
0
10
1.301371
20
-6.243815
30
0
40
0.850000000000001
210
0
220
0
230
1
100
AcDbArc
50
89.896868
51
139.95262
0
ARC
5
AD
100
AcDbEntity
8
1
62
256
6
ByLayer
370
18
48
1
60
0
100
AcDbCircle
39
0
10
0
20
5.15
30
0
40
0.850000000000001
210
0
220
0
230
1
100
AcDbArc
50
40.04738
51
90
0
ELLIPSE
5
AE
100
AcDbEntity
8
1
62
256
6
ByLayer
370
13
48
1
60
0
100
AcDbEllipse
10
17.125524
20
68.786231
30
0
11
-42.3778687769872
21
60.8437230671598
31
0
210
0
220
0
230
1
40
0.755233
41
2.30993997197865
42
2.39662702180305
0
ELLIPSE
5
AF
100
AcDbEntity
8
1
62
256
6
ByLayer
370
13
48
1
60
0
100
AcDbEllipse
10
4.788073
20
0.279593
30
0
11
-0.143900885160379
21
-0.263234753119833
31
0
210
0
220
0
230
1
40
0.414421
41
-1.29972581505163
42
-1.12974283584529
0
ELLIPSE
5
B0
100
AcDbEntity
8
1
62
256
6
ByLayer
370
13
48
1
60
0
100
AcDbEllipse
10
162.194174
20
41.888784
30
0
11
-60.1999999999998
21
7.37213025001069E-15
31
0
210
0
220
0
230
1
40
0.99863
41
0.70811541455609
42
0.73221492966225
0
ELLIPSE
5
B1
100
AcDbEntity
8
1
62
256
6
ByLayer
370
13
48
1
60
0
100
AcDbEllipse
10
5.124549
20
0.098608
30
0
11
0.142039473914904
21
0.264243803806215
31
0
210
0
220
0
230
1
40
0.010027
41
-2.56440943424562
42
-1.58546322154568
0
ELLIPSE
5
B2
100
AcDbEntity
8
1
62
256
6
ByLayer
370
13
48
1
60
0
100
AcDbEllipse
10
15.202769
20
-67.447025
30
0
11
42.3778687769874
21
60.8437230671598
31
0
210
0
220
0
230
1
40
0.755233
41
0.876505811151874
42
0.899590872972622
0
ELLIPSE
5
B3
100
AcDbEntity
8
1
62
256
6
ByLayer
370
18
48
1
60
0
100
AcDbEllipse
10
5.123229
20
6.264005
30
0
11
1
21
0
31
0
210
0
220
0
230
1
40
1
41
-2.09294028708854
42
-1.56589129343642
0
ELLIPSE
5
B4
100
AcDbEntity
8
1
62
256
6
ByLayer
370
18
48
1
60
0
100
AcDbEllipse
10
5.123229
20
-6.264005
30
0
11
1
21
0
31
0
210
0
220
0
230
1
40
1
41
1.57125666320407
42
2.09221848536027
0
POINT
5
70
100
AcDbEntity
8
80
62
256
6
ByLayer
370
18
48
1
60
0
100
AcDbPoint
10
0
20
0
30
0
39
0
210
0
220
0
230
1
50
360
0
POINT
5
72
100
AcDbEntity
8
81
62
256
6
ByLayer
370
18
48
1
60
0
100
AcDbPoint
10
118
20
0
30
0
39
0
210
0
220
0
230
1
50
360
0
POINT
5
74
100
AcDbEntity
8
1
62
256
6
ByLayer
370
18
48
1
60
1
100
AcDbPoint
10
115.8491
20
-5.6
30
0
39
0
210
0
220
0
230
1
50
360
0
POINT
5
76
100
AcDbEntity
8
1
62
256
6
ByLayer
370
18
48
1
60
1
100
AcDbPoint
10
-45
20
-6
30
0
39
0
210
0
220
0
230
1
50
360
0
POINT
5
77
100
AcDbEntity
8
1
62
256
6
ByLayer
370
18
48
1
60
1
100
AcDbPoint
10
26.25
20
5.6
30
0
39
0
210
0
220
0
230
1
50
360
0
POINT
5
78
100
AcDbEntity
8
1
62
256
6
ByLayer
370
18
48
1
60
1
100
AcDbPoint
10
115.8491
20
-5.6
30
0
39
0
210
0
220
0
230
1
50
360
0
POINT
5
79
100
AcDbEntity
8
1
62
256
6
ByLayer
370
18
48
1
60
1
100
AcDbPoint
10
-45
20
-6
30
0
39
0
210
0
220
0
230
1
50
360
0
POINT
5
7A
100
AcDbEntity
8
1
62
256
6
ByLayer
370
18
48
1
60
1
100
AcDbPoint
10
115.8491
20
-5.6
30
0
39
0
210
0
220
0
230
1
50
360
0
SPLINE
5
B5
100
AcDbEntity
8
1
62
256
6
ByLayer
370
18
48
1
60
0
100
AcDbSpline
70
4
71
3
72
8
73
4
40
0
40
0
40
0
40
0
40
1
40
1
40
1
40
1
41
1
10
5.35901981484366
20
-4.84767651969389
30
0
41
1
10
5.11700867695845
20
-4.79146994858965
30
0
41
1
10
4.8748792763397
20
-4.73113040585429
30
0
41
1
10
4.63253140029616
20
-4.66666960319665
30
0
0
SPLINE
5
B6
100
AcDbEntity
8
1
62
256
6
ByLayer
370
13
48
1
60
0
100
AcDbSpline
70
4
71
3
72
10
73
6
40
0
40
0
40
0
40
0
40
0.5
40
0.5
40
1
40
1
40
1
40
1
41
1
10
5.12511535800701
20
0.0933088418184127
30
0
41
1
10
5.04152314980075
20
0.123063991561537
30
0
41
1
10
4.95940879186341
20
0.152145394377641
30
0
41
1
10
4.79839147415112
20
0.209867327799145
30
0
41
1
10
4.71897200664301
20
0.238705499712694
30
0
41
1
10
4.64443544532767
20
0.266566050567406
30
0
0
SPLINE
5
B7
100
AcDbEntity
8
1
62
256
6
ByLayer
370
18
48
1
60
0
100
AcDbSpline
70
4
71
3
72
14
73
10
40
0
40
0
40
0
40
0
40
0.25
40
0.25
40
0.5
40
0.5
40
0.75
40
0.75
40
1
40
1
40
1
40
1
41
1
10
4.62799280005518
20
0.221148295297468
30
0
41
1
10
4.64078625285654
20
0.17865038331098
30
0
41
1
10
4.66455630114154
20
0.141712567945831
30
0
41
1
10
4.72062700930292
20
0.0742601724903693
30
0
41
1
10
4.75251933724613
20
0.0447192017776104
30
0
41
1
10
4.82032883036888
20
-0.0099953732759559
30
0
41
1
10
4.85638320029102
20
-0.0350946223753681
30
0
41
1
10
4.93022652969745
20
-0.0817296994775347
30
0
41
1
10
4.96817032219593
20
-0.103367352518404
30
0
41
1
10
5.0069656007629
20
-0.123605863306096
30
0
0
SPLINE
5
B8
100
AcDbEntity
8
1
62
256
6
ByLayer
370
18
48
1
60
0
100
AcDbSpline
70
4
71
3
72
8
73
4
40
0
40
0
40
0
40
0
40
1
40
1
40
1
40
1
41
1
10
117.423704342653
20
-1.69912424323019
30
0
41
1
10
117.163656282589
20
-2.45388674549798
30
0
41
1
10
116.905539842961
20
-3.20930782342845
30
0
41
1
10
116.649365180859
20
-3.96539094002705
30
0
0
SPLINE
5
B9
100
AcDbEntity
8
1
62
256
6
ByLayer
370
18
48
1
60
0
100
AcDbSpline
70
4
71
3
72
60
73
56
40
0
40
0
40
0
40
0
40
0.0395943271762906
40
0.0395943271762906
40
0.0894621705970908
40
0.0894621705970908
40
0.139330014017891
40
0.139330014017891
40
0.164263935728292
40
0.164263935728292
40
0.189197857438692
40
0.189197857438692
40
0.239065700859492
40
0.239065700859492
40
0.263999622569892
40
0.263999622569892
40
0.288933544280292
40
0.288933544280292
40
0.33880138770109
40
0.33880138770109
40
0.38866923112189
40
0.38866923112189
40
0.438537074542689
40
0.438537074542689
40
0.463470996253089
40
0.463470996253089
40
0.488404917963488
40
0.488404917963488
40
0.538272761384287
40
0.538272761384287
40
0.563206683094686
40
0.563206683094686
40
0.588140604805085
40
0.588140604805085
40
0.638008448225883
40
0.638008448225883
40
0.662942369936282
40
0.662942369936282
40
0.68787629164668
40
0.68787629164668
40
0.737744135067477
40
0.737744135067477
40
0.787611978488275
40
0.787611978488275
40
0.837479821909072
40
0.837479821909072
40
0.887347665329869
40
0.887347665329869
40
0.912281587040268
40
0.912281587040268
40
0.937215508750667
40
0.937215508750667
40
0.987083352171463
40
0.987083352171463
40
1
40
1
40
1
40
1
41
1
10
21.0215863946764
20
5.4292921412669
30
0
41
1
10
21.4811510560479
20
5.43006051846646
30
0
41
1
10
21.9409149981921
20
5.41476893125775
30
0
41
1
10
22.9821559446287
20
5.34378457663374
30
0
41
1
10
23.5615785658575
20
5.27877635978697
30
0
41
1
10
24.718868998099
20
5.10012230386207
30
0
41
1
10
25.2971805072185
20
4.98639779052917
30
0
41
1
10
26.1669186639795
20
4.78093783821066
30
0
41
1
10
26.4573483360531
20
4.70658131586615
30
0
41
1
10
27.0368880392067
20
4.54721176846982
30
0
41
1
10
27.3263013571557
20
4.46214809553572
30
0
41
1
10
28.1942131837691
20
4.1916911380894
30
0
41
1
10
28.7722411022099
20
3.99086019395824
30
0
41
1
10
29.6412122165674
20
3.66220440713178
30
0
41
1
10
29.9314924911531
20
3.54794317159383
30
0
41
1
10
30.5112821446789
20
3.31148553140193
30
0
41
1
10
30.8007633897582
20
3.1893446647392
30
0
41
1
10
31.6687067750168
20
2.81238716701739
30
0
41
1
10
32.2465418773525
20
2.54683162185296
30
0
41
1
10
33.404262097114
20
1.99318886775154
30
0
41
1
10
33.9849076263223
20
1.70448821138791
30
0
41
1
10
35.1422846316778
20
1.11566196140481
30
0
41
1
10
35.7199323959388
20
0.814866483886732
30
0
41
1
10
36.5876439731513
20
0.359352096016977
30
0
41
1
10
36.8770630137775
20
0.206747238542306
30
0
41
1
10
37.4567178013648
20
-0.0991445269615383
30
0
41
1
10
37.7466962445151
20
-0.252249368246766
30
0
41
1
10
38.614929232869
20
-0.70931111143247
30
0
41
1
10
39.1924767948933
20
-1.01175732264829
30
0
41
1
10
40.0597006562633
20
-1.45675397587567
30
0
41
1
10
40.348901495617
20
-1.60368631725632
30
0
41
1
10
40.9280094717066
20
-1.8939021514901
30
0
41
1
10
41.2181343902838
20
-2.03724572303403
30
0
41
1
10
42.0866465965913
20
-2.45875780147932
30
0
41
1
10
42.6641212487964
20
-2.72913453352834
30
0
41
1
10
43.5309673229607
20
-3.1139197563146
30
0
41
1
10
43.8200043746199
20
-3.23875000181783
30
0
41
1
10
44.3986342015333
20
-3.4809229935058
30
0
41
1
10
44.6885541965531
20
-3.59835142093803
30
0
41
1
10
45.5574406735711
20
-3.93714870446286
30
0
41
1
10
46.134987292607
20
-4.14508559911295
30
0
41
1
10
47.2903589806227
20
-4.52060145505365
30
0
41
1
10
47.8682296828424
20
-4.68829405202217
30
0
41
1
10
49.0273098873972
20
-4.9790797480083
30
0
41
1
10
49.6049552634655
20
-5.1013193299155
30
0
41
1
10
50.7599962502166
20
-5.29724998886326
30
0
41
1
10
51.337419795916
20
-5.37092663365107
30
0
41
1
10
52.2060289495674
20
-5.44348966554278
30
0
41
1
10
52.4957171771601
20
-5.46131620477186
30
0
41
1
10
53.0739330374363
20
-5.48407884290654
30
0
41
1
10
53.3627327083481
20
-5.48904063707971
30
0
41
1
10
54.2288710944943
20
-5.48468948600691
30
0
41
1
10
54.8059689841302
20
-5.45613602894343
30
0
41
1
10
55.5343520296355
20
-5.38806303379985
30
0
41
1
10
55.6843518917195
20
-5.37233701257296
30
0
41
1
10
55.834335712194
20
-5.35492460460117
30
0
0
SPLINE
5
BA
100
AcDbEntity
8
1
62
256
6
ByLayer
370
18
48
1
60
0
100
AcDbSpline
70
4
71
3
72
56
73
52
40
0
40
0
40
0
40
0
40
0.0182489137344734
40
0.0182489137344734
40
0.0759989776324477
40
0.0759989776324477
40
0.104874009581436
40
0.104874009581436
40
0.133749041530424
40
0.133749041530424
40
0.191499105428398
40
0.191499105428398
40
0.220374137377385
40
0.220374137377385
40
0.249249169326371
40
0.249249169326371
40
0.306999233224343
40
0.306999233224343
40
0.364749297122315
40
0.364749297122315
40
0.422499361020288
40
0.422499361020288
40
0.48024942491826
40
0.48024942491826
40
0.537999488816232
40
0.537999488816232
40
0.566874520765217
40
0.566874520765217
40
0.595749552714202
40
0.595749552714202
40
0.653499616612172
40
0.653499616612172
40
0.682374648561157
40
0.682374648561157
40
0.711249680510141
40
0.711249680510141
40
0.768999744408111
40
0.768999744408111
40
0.797874776357097
40
0.797874776357097
40
0.826749808306084
40
0.826749808306084
40
0.884499872204056
40
0.884499872204056
40
0.913374904153042
40
0.913374904153042
40
0.942249936102028
40
0.942249936102028
40
0.971124968051014
40
0.971124968051014
40
1
40
1
40
1
40
1
41
1
10
86.0147199722497
20
5.54629812604693
30
0
41
1
10
86.1969088181392
20
5.54665649538882
30
0
41
1
10
86.3789992759574
20
5.54443478538653
30
0
41
1
10
87.1371121193127
20
5.5244627485836
30
0
41
1
10
87.7128122129524
20
5.48351447923793
30
0
41
1
10
88.578428796542
20
5.383875370738
30
0
41
1
10
88.8675761702477
20
5.34424273053779
30
0
41
1
10
89.4447017028509
20
5.2527281722212
30
0
41
1
10
89.7328803716928
20
5.20083115873104
30
0
41
1
10
90.5969141184387
20
5.02720273125189
30
0
41
1
10
91.1724231451173
20
4.88764929044942
30
0
41
1
10
92.0374354165433
20
4.64464512677694
30
0
41
1
10
92.3263501900981
20
4.55792026988905
30
0
41
1
10
92.9036314288052
20
4.37407994855286
30
0
41
1
10
93.1918208565465
20
4.27702303639708
30
0
41
1
10
94.0557875610781
20
3.97139708993546
30
0
41
1
10
94.6310821289309
20
3.74853128123925
30
0
41
1
10
95.7835974450447
20
3.26897075771822
30
0
41
1
10
96.3616486331743
20
3.01174572702442
30
0
41
1
10
97.5138344759904
20
2.47333604173571
30
0
41
1
10
98.0889744829583
20
2.19174952809064
30
0
41
1
10
99.2407982017049
20
1.60965422734404
30
0
41
1
10
99.8186579426223
20
1.30846965760011
30
0
41
1
10
100.970985701841
20
0.698286445435798
30
0
41
1
10
101.54600813423
20
0.389053320646696
30
0
41
1
10
102.409439076004
20
-0.0761577199925512
30
0
41
1
10
102.697399103726
20
-0.231454663601312
30
0
41
1
10
103.274065558316
20
-0.541670419706122
30
0
41
1
10
103.562844856547
20
-0.696634387662954
30
0
41
1
10
104.427254112762
20
-1.15757203988821
30
0
41
1
10
105.002192638144
20
-1.46028306703047
30
0
41
1
10
105.865218949601
20
-1.90276630225921
30
0
41
1
10
106.152999669352
20
-2.04832614613534
30
0
41
1
10
106.729233929408
20
-2.33474906005802
30
0
41
1
10
107.017983156552
20
-2.47575084061469
30
0
41
1
10
107.882654372278
20
-2.88893081801572
30
0
41
1
10
108.457553252217
20
-3.15161306176088
30
0
41
1
10
109.320267047425
20
-3.52238018507558
30
0
41
1
10
109.607897506944
20
-3.64209630239716
30
0
41
1
10
110.18372441292
20
-3.87310576434689
30
0
41
1
10
110.472171112633
20
-3.98449983442686
30
0
41
1
10
111.337135168559
20
-4.30432925645479
30
0
41
1
10
111.91236243443
20
-4.49803520123351
30
0
41
1
10
112.775785358061
20
-4.75635263304881
30
0
41
1
10
113.063689153562
20
-4.83708625435816
30
0
41
1
10
113.640152796683
20
-4.98731248037694
30
0
41
1
10
113.928648658136
20
-5.05677025815902
30
0
41
1
10
114.504625957066
20
-5.18356036061755
30
0
41
1
10
114.792368737871
20
-5.24096624204975
30
0
41
1
10
115.367755987822
20
-5.34354785397142
30
0
41
1
10
115.655196689301
20
-5.38881710258846
30
0
41
1
10
115.94319730562
20
-5.42764374177196
30
0
0
SPLINE
5
BB
100
AcDbEntity
8
1
62
256
6
ByLayer
370
18
48
1
60
0
100
AcDbSpline
70
4
71
3
72
8
73
4
40
0
40
0
40
0
40
0
40
1
40
1
40
1
40
1
41
1
10
116.502421868387
20
2.41489617761212
30
0
41
1
10
116.472905920352
20
2.53747516556086
30
0
41
1
10
116.458284560094
20
2.66152523650621
30
0
41
1
10
116.466918132494
20
2.78815814024352
30
0
0
SPLINE
5
BC
100
AcDbEntity
8
1
62
256
6
ByLayer
370
18
48
1
60
0
100
AcDbSpline
70
4
71
3
72
16
73
12
40
0
40
0
40
0
40
0
40
0.250000000000001
40
0.250000000000001
40
0.375000000000002
40
0.375000000000002
40
0.500000000000003
40
0.500000000000003
40
0.750000000000001
40
0.750000000000001
40
1
40
1
40
1
40
1
41
1
10
11.7135731302806
20
4.14525786299146
30
0
41
1
10
12.2522110661168
20
4.29813689081377
30
0
41
1
10
12.7926490882321
20
4.43757677144362
30
0
41
1
10
13.605572452962
20
4.6276952980823
30
0
41
1
10
13.8769280262163
20
4.6878780595797
30
0
41
1
10
14.4203655168838
20
4.8018680059609
30
0
41
1
10
14.6926918417165
20
4.85571896980176
30
0
41
1
10
15.5086972255677
20
5.00717739640842
30
0
41
1
10
16.051147746962
20
5.09472893977343
30
0
41
1
10
17.1326548762259
20
5.24160436608707
30
0
41
1
10
17.6717122647861
20
5.3009439083684
30
0
41
1
10
18.2089132893904
20
5.34448394785195
30
0
0
SPLINE
5
BD
100
AcDbEntity
8
1
62
256
6
ByLayer
370
18
48
1
60
0
100
AcDbSpline
70
4
71
3
72
18
73
14
40
0
40
0
40
0
40
0
40
0.25
40
0.25
40
0.374999999999999
40
0.374999999999999
40
0.499999999999999
40
0.499999999999999
40
0.75
40
0.75
40
0.875
40
0.875
40
1
40
1
40
1
40
1
41
1
10
115.440465425847
20
0.587775208849621
30
0
41
1
10
115.382938015311
20
0.310653038314626
30
0
41
1
10
115.336101860976
20
0.0328176211473306
30
0
41
1
10
115.281902084375
20
-0.385006546741209
30
0
41
1
10
115.266522704642
20
-0.524460541591594
30
0
41
1
10
115.241286684418
20
-0.803736970238333
30
0
41
1
10
115.231403841914
20
-0.944138893374117
30
0
41
1
10
115.210616884751
20
-1.36173356833953
30
0
41
1
10
115.20855423882
20
-1.6325324466562
30
0
41
1
10
115.222577105822
20
-2.02770551627393
30
0
41
1
10
115.230117450547
20
-2.15758379711775
30
0
41
1
10
115.250990032789
20
-2.41360970122503
30
0
41
1
10
115.264369312472
20
-2.54008928527549
30
0
41
1
10
115.280604425808
20
-2.66376477972386
30
0
0
SPLINE
5
BE
100
AcDbEntity
8
1
62
256
6
ByLayer
370
18
48
1
60
0
100
AcDbSpline
70
4
71
3
72
32
73
28
40
0
40
0
40
0
40
0
40
0.0736835885949046
40
0.0736835885949046
40
0.115788880022409
40
0.115788880022409
40
0.157894171449913
40
0.157894171449913
40
0.326315337159931
40
0.326315337159931
40
0.368420628587435
40
0.368420628587435
40
0.41052592001494
40
0.41052592001494
40
0.494736502869949
40
0.494736502869949
40
0.536841794297453
40
0.536841794297453
40
0.578947085724957
40
0.578947085724957
40
0.663157668579966
40
0.663157668579966
40
0.747368251434974
40
0.747368251434974
40
0.831578834289983
40
0.831578834289983
40
1
40
1
40
1
40
1
41
1
10
4.62010756377805
20
5.39978772791608
30
0
41
1
10
4.62000434527545
20
5.39961405952047
30
0
41
1
10
4.61990158594654
20
5.38827378367435
30
0
41
1
10
4.6197458031715
20
5.35276718804511
30
0
41
1
10
4.61969032711616
20
5.33616959066907
30
0
41
1
10
4.61958279469647
20
5.29543025168113
30
0
41
1
10
4.61953084375739
20
5.27128872920309
30
0
41
1
10
4.61928551275986
20
5.13348879260937
30
0
41
1
10
4.61913330284051
20
4.96833427537953
30
0
41
1
10
4.61901569105459
20
4.69292427023652
30
0
41
1
10
4.61899570823201
20
4.63413118619425
30
0
41
1
10
4.61896345904572
20
4.51101123680402
30
0
41
1
10
4.61895111540147
20
4.44658064700332
30
0
41
1
10
4.61892488084868
20
4.24485319572654
30
0
41
1
10
4.61892183090245
20
4.09915412841423
30
0
41
1
10
4.61893597625885
20
3.86385728619908
30
0
41
1
10
4.61894380078189
20
3.78262522231557
30
0
41
1
10
4.61896503282137
20
3.61446998248783
30
0
41
1
10
4.61897848941942
20
3.52728086264895
30
0
41
1
10
4.61902575796918
20
3.2588308768606
30
0
41
1
10
4.61906616078571
20
3.07219449977268
30
0
41
1
10
4.61915551022784
20
2.68412100121256
30
0
41
1
10
4.61920448234497
20
2.48268251643847
30
0
41
1
10
4.6193007257661
20
2.06480182867432
30
0
41
1
10
4.61934822820172
20
1.84685520945882
30
0
41
1
10
4.61946700069345
20
1.18757207128147
30
0
41
1
10
4.61951601753105
20
0.737297534113566
30
0
41
1
10
4.61948892405775
20
0.276218892682749
30
0
0
SPLINE
5
BF
100
AcDbEntity
8
1
62
256
6
ByLayer
370
18
48
1
60
0
100
AcDbSpline
70
4
71
3
72
8
73
4
40
0
40
0
40
0
40
0
40
1
40
1
40
1
40
1
41
1
10
117.999622281969
20
0.122844530542466
30
0
41
1
10
118.000125905976
20
0.0409481768474507
30
0
41
1
10
118.000125905976
20
-0.0409481768475075
30
0
41
1
10
117.999622281969
20
-0.122844530542523
30
0
0
SPLINE
5
C0
100
AcDbEntity
8
1
62
256
6
ByLayer
370
18
48
1
60
0
100
AcDbSpline
70
4
71
3
72
20
73
16
40
0
40
0
40
0
40
0
40
0.25
40
0.25
40
0.375
40
0.375
40
0.5
40
0.5
40
0.625
40
0.625
40
0.75
40
0.75
40
0.875
40
0.875
40
1
40
1
40
1
40
1
41
1
10
117.212584395583
20
-1.07859293741339
30
0
41
1
10
117.104003456352
20
-1.09075864826428
30
0
41
1
10
117.003637600633
20
-1.05850699905469
30
0
41
1
10
116.862661856602
20
-0.958369960808085
30
0
41
1
10
116.817903817076
20
-0.916482686679302
30
0
41
1
10
116.733656839609
20
-0.81933215532689
30
0
41
1
10
116.693918965429
20
-0.763875242147748
30
0
41
1
10
116.618743455963
20
-0.640556759649826
30
0
41
1
10
116.583465910599
20
-0.572835677926747
30
0
41
1
10
116.518283280829
20
-0.429235693804173
30
0
41
1
10
116.488163197922
20
-0.353006023239288
30
0
41
1
10
116.432382481171
20
-0.192553128351136
30
0
41
1
10
116.406724603494
20
-0.108324963603877
30
0
41
1
10
116.359616072304
20
0.067672807003845
30
0
41
1
10
116.338095308401
20
0.159868046704616
30
0
41
1
10
116.318931169679
20
0.254151738670941
30
0
0
SPLINE
5
C1
100
AcDbEntity
8
1
62
256
6
ByLayer
370
18
48
1
60
0
100
AcDbSpline
70
4
71
3
72
20
73
16
40
0
40
0
40
0
40
0
40
0.25
40
0.25
40
0.375
40
0.375
40
0.4375
40
0.4375
40
0.5
40
0.5
40
0.75
40
0.75
40
0.875
40
0.875
40
1
40
1
40
1
40
1
41
1
10
115.914872698498
20
-5.21519174752308
30
0
41
1
10
115.802839574634
20
-5.11519956374312
30
0
41
1
10
115.703760517392
20
-4.9861953589635
30
0
41
1
10
115.575314792588
20
-4.74750976673502
30
0
41
1
10
115.535881929839
20
-4.66037270259511
30
0
41
1
10
115.482115159645
20
-4.51761236698954
30
0
41
1
10
115.465092732652
20
-4.46797788353817
30
0
41
1
10
115.433279120013
20
-4.36582033500383
30
0
41
1
10
115.418431708715
20
-4.3131580328716
30
0
41
1
10
115.34945527708
20
-4.04198321733537
30
0
41
1
10
115.310961155183
20
-3.80010048146235
30
0
41
1
10
115.279292198081
20
-3.39830498821223
30
0
41
1
10
115.273134393374
20
-3.25707612740362
30
0
41
1
10
115.270072422334
20
-2.96684039012519
30
0
41
1
10
115.273087412013
20
-2.81742872612
30
0
41
1
10
115.280604425808
20
-2.66376477972386
30
0
0
SPLINE
5
C2
100
AcDbEntity
8
1
62
256
6
ByLayer
370
18
48
1
60
0
100
AcDbSpline
70
4
71
3
72
30
73
26
40
0
40
0
40
0
40
0
40
0.0955920644710401
40
0.0955920644710401
40
0.19118412894208
40
0.19118412894208
40
0.28677619341312
40
0.28677619341312
40
0.334572225648641
40
0.334572225648641
40
0.382368257884161
40
0.382368257884161
40
0.477960322355201
40
0.477960322355201
40
0.525756354590721
40
0.525756354590721
40
0.573552386826241
40
0.573552386826241
40
0.669144451297282
40
0.669144451297282
40
0.764736515768322
40
0.764736515768322
40
0.955920644710406
40
0.955920644710406
40
1
40
1
40
1
40
1
41
1
10
5.0069656007629
20
-0.123605863306039
30
0
41
1
10
5.58842290575689
20
-0.426937360704017
30
0
41
1
10
6.16943505945386
20
-0.729769108507952
30
0
41
1
10
7.33067266828959
20
-1.32591979924334
30
0
41
1
10
7.9122048383681
20
-1.61977109927042
30
0
41
1
10
9.07183570210799
20
-2.18799439289526
30
0
41
1
10
9.65071553074611
20
-2.4625012760994
30
0
41
1
10
10.5199406607326
20
-2.8558799792934
30
0
41
1
10
10.8098336547885
20
-2.98394028243931
30
0
41
1
10
11.3903570391562
20
-3.2331764225446
30
0
41
1
10
11.6809894554188
20
-3.35435209055632
30
0
41
1
10
12.5509720024964
20
-3.70483835416994
30
0
41
1
10
13.1298023218483
20
-3.92146959521358
30
0
41
1
10
13.9985708811853
20
-4.21792494003594
30
0
41
1
10
14.2882446166107
20
-4.3119947633399
30
0
41
1
10
14.8682073394121
20
-4.49004274667416
30
0
41
1
10
15.1587874415186
20
-4.57411186729146
30
0
41
1
10
16.0291674867724
20
-4.80935272789318
30
0
41
1
10
16.6079998220983
20
-4.94373696200725
30
0
41
1
10
17.7658640038653
20
-5.16537342991529
30
0
41
1
10
18.3452682543891
20
-5.25264333751275
30
0
41
1
10
20.0870074202741
20
-5.43931677980055
30
0
41
1
10
21.2410365122183
20
-5.4624879559743
30
0
41
1
10
22.6694960418465
20
-5.36509803349853
30
0
41
1
10
22.9369251807904
20
-5.34144146236059
30
0
41
1
10
23.2041653033351
20
-5.31248540983688
30
0
0
SPLINE
5
C3
100
AcDbEntity
8
1
62
256
6
ByLayer
370
18
48
1
60
0
100
AcDbSpline
70
4
71
3
72
56
73
52
40
0
40
0
40
0
40
0
40
0.0037997911384746
40
0.0037997911384746
40
0.0537972919684567
40
0.0537972919684567
40
0.0787960423834482
40
0.0787960423834482
40
0.10379479279844
40
0.10379479279844
40
0.153792293628423
40
0.153792293628423
40
0.178791044043415
40
0.178791044043415
40
0.203789794458407
40
0.203789794458407
40
0.253787295288392
40
0.253787295288392
40
0.303784796118377
40
0.303784796118377
40
0.353782296948362
40
0.353782296948362
40
0.403779797778348
40
0.403779797778348
40
0.453777298608333
40
0.453777298608333
40
0.478776049023325
40
0.478776049023325
40
0.503774799438317
40
0.503774799438317
40
0.553772300268303
40
0.553772300268303
40
0.578771050683296
40
0.578771050683296
40
0.603769801098288
40
0.603769801098288
40
0.653767301928274
40
0.653767301928274
40
0.70376480275826
40
0.70376480275826
40
0.803759804418232
40
0.803759804418232
40
0.853757305248217
40
0.853757305248217
40
0.903754806078203
40
0.903754806078203
40
0.928753556493196
40
0.928753556493196
40
0.953752306908189
40
0.953752306908189
40
1
40
1
40
1
40
1
41
1
10
53.5200870213194
20
5.48780768010926
30
0
41
1
10
53.5639761996539
20
5.48788286336321
30
0
41
1
10
53.6078625952557
20
5.48780987356696
30
0
41
1
10
54.2291760506038
20
5.48467902414635
30
0
41
1
10
54.8062777147118
20
5.45611631933062
30
0
41
1
10
55.6740831899394
20
5.37499950714155
30
0
41
1
10
55.9639091097898
20
5.34154614138208
30
0
41
1
10
56.5422919300102
20
5.26231394085284
30
0
41
1
10
56.8311186012986
20
5.21651816631172
30
0
41
1
10
57.6971820515744
20
5.06105446865513
30
0
41
1
10
58.2740534267499
20
4.9333474374501
30
0
41
1
10
59.1411341235799
20
4.70751932918293
30
0
41
1
10
59.4307860925938
20
4.62645147436291
30
0
41
1
10
60.009424731717
20
4.4538195435477
30
0
41
1
10
60.2983237503881
20
4.36227278871735
30
0
41
1
10
61.1643996766767
20
4.07273458307117
30
0
41
1
10
61.7410548298376
20
3.85996491796493
30
0
41
1
10
62.89629729737
20
3.39927158911775
30
0
41
1
10
63.475809318496
20
3.15106206007852
30
0
41
1
10
64.6306721276532
20
2.62879055106549
30
0
41
1
10
65.2071862160953
20
2.35454041486401
30
0
41
1
10
66.3616891335737
20
1.7853687550658
30
0
41
1
10
66.9409971079311
20
1.49003078453026
30
0
41
1
10
68.0960585407297
20
0.889332516839147
30
0
41
1
10
68.6724677022197
20
0.583993737163837
30
0
41
1
10
69.5378869940074
20
0.123159008885779
30
0
41
1
10
69.826518592456
20
-0.0308780793466212
30
0
41
1
10
70.4045332220331
20
-0.338987840843259
30
0
41
1
10
70.6940226695585
20
-0.49317096250158
30
0
41
1
10
71.5605250914994
20
-0.952585014051749
30
0
41
1
10
72.1368709874209
20
-1.25512764321826
30
0
41
1
10
73.0018554864118
20
-1.69885148783604
30
0
41
1
10
73.2902971048454
20
-1.84501239008611
30
0
41
1
10
73.8678390342239
20
-2.13305425640189
30
0
41
1
10
74.1572254602993
20
-2.27513290526176
30
0
41
1
10
75.0240079032675
20
-2.69237513298654
30
0
41
1
10
75.6003502975944
20
-2.95846416373149
30
0
41
1
10
76.7532243310145
20
-3.46145624415118
30
0
41
1
10
77.3303884253472
20
-3.69826419827999
30
0
41
1
10
79.0646580197176
20
-4.35542571616878
30
0
41
1
10
80.2137533352511
20
-4.71758886863077
30
0
41
1
10
81.9478870621405
20
-5.12366357838664
30
0
41
1
10
82.5246422609483
20
-5.23533423989971
30
0
41
1
10
83.6769619840911
20
-5.4090975428357
30
0
41
1
10
84.2529677671146
20
-5.47119760347752
30
0
41
1
10
85.1192617228505
20
-5.52592530169713
30
0
41
1
10
85.4083692457845
20
-5.53773857066003
30
0
41
1
10
85.9853348205893
20
-5.54837289105478
30
0
41
1
10
86.2735037371978
20
-5.54722153007049
30
0
41
1
10
87.0944145456027
20
-5.52557364766807
30
0
41
1
10
87.6269667262326
20
-5.48947020355794
30
0
41
1
10
88.1605856544379
20
-5.43154824062961
30
0
0
SPLINE
5
C4
100
AcDbEntity
8
1
62
256
6
ByLayer
370
18
48
1
60
0
100
AcDbSpline
70
4
71
3
72
12
73
8
40
0
40
0
40
0
40
0
40
0.39635115234034
40
0.39635115234034
40
0.810945507723199
40
0.810945507723199
40
1
40
1
40
1
40
1
41
1
10
86.5626334663268
20
-5.40981140630865
30
0
41
1
10
86.2853800420731
20
-5.40955600349585
30
0
41
1
10
86.0077225679792
20
-5.40343952764602
30
0
41
1
10
85.4420394284308
20
-5.37911454830763
30
0
41
1
10
85.1535521538931
20
-5.36040212408366
30
0
41
1
10
84.7342789922046
20
-5.32422283209937
30
0
41
1
10
84.6030737145472
20
-5.31160943326972
30
0
41
1
10
84.4719540443539
20
-5.29772794714577
30
0
0
SPLINE
5
C5
100
AcDbEntity
8
1
62
256
6
ByLayer
370
13
48
1
60
0
100
AcDbSpline
70
4
71
3
72
38
73
34
40
0
40
0
40
0
40
0
40
0.116563690501229
40
0.116563690501229
40
0.182344530319622
40
0.182344530319622
40
0.215234950228819
40
0.215234950228819
40
0.248125370138015
40
0.248125370138015
40
0.379687049774805
40
0.379687049774805
40
0.4454678895932
40
0.4454678895932
40
0.478358309502398
40
0.478358309502398
40
0.511248729411596
40
0.511248729411596
40
0.642810409048389
40
0.642810409048389
40
0.708591248866786
40
0.708591248866786
40
0.741481668775985
40
0.741481668775985
40
0.774372088685184
40
0.774372088685184
40
0.905933768321982
40
0.905933768321982
40
0.938824188231182
40
0.938824188231182
40
0.971714608140382
40
0.971714608140382
40
1
40
1
40
1
40
1
41
1
10
84.4719540442913
20
-5.29772794713912
30
0
41
1
10
83.4528979215448
20
-5.18984166732335
30
0
41
1
10
82.4390127702552
20
-5.00535875793148
30
0
41
1
10
80.8465903042139
20
-4.60755962688418
30
0
41
1
10
80.2707470449786
20
-4.44176050658163
30
0
41
1
10
79.4025737763529
20
-4.16183918541847
30
0
41
1
10
79.1118172953989
20
-4.06310327738351
30
0
41
1
10
78.5317043825543
20
-3.85681182406526
30
0
41
1
10
78.2424820440608
20
-3.74931272992927
30
0
41
1
10
76.7994664950767
20
-3.19188791734851
30
0
41
1
10
75.6545945809396
20
-2.6823501621588
30
0
41
1
10
73.9318770720869
20
-1.85685325925914
30
0
41
1
10
73.3566311022336
20
-1.57161477747658
30
0
41
1
10
72.4899345928004
20
-1.13286241122412
30
0
41
1
10
72.2003727269758
20
-0.98483030487256
30
0
41
1
10
71.6194534246571
20
-0.686027277305868
30
0
41
1
10
71.3289631978116
20
-0.535648843685493
30
0
41
1
10
69.8822001540516
20
0.215532877811427
30
0
41
1
10
68.7359139246688
20
0.816741394994835
30
0
41
1
10
67.0133186915043
20
1.68083894358998
30
0
41
1
10
66.4385104784441
20
1.96240489864024
30
0
41
1
10
65.573050184706
20
2.37066460249898
30
0
41
1
10
65.2839856934648
20
2.50432619857921
30
0
41
1
10
64.7042989854218
20
2.76604213998121
30
0
41
1
10
64.4132504948634
20
2.89436093598289
30
0
41
1
10
62.9607510500362
20
3.51660148025258
30
0
41
1
10
61.8054088046964
20
3.95340366567234
30
0
41
1
10
60.3524196511502
20
4.39967648984444
30
0
41
1
10
60.0613217337606
20
4.48389349006416
30
0
41
1
10
59.4798596361436
20
4.64123541886394
30
0
41
1
10
59.1892625502592
20
4.71449158117903
30
0
41
1
10
58.6485319978932
20
4.84019890122505
30
0
41
1
10
58.3981441047982
20
4.89415991675443
30
0
41
1
10
58.1481604894936
20
4.94368984259177
30
0
0
SPLINE
5
C6
100
AcDbEntity
8
1
62
256
6
ByLayer
370
18
48
1
60
0
100
AcDbSpline
70
4
71
3
72
10
73
6
40
0
40
0
40
0
40
0
40
0.361828372505546
40
0.361828372505546
40
1
40
1
40
1
40
1
41
1
10
21.4974208934061
20
-5.29257205522134
30
0
41
1
10
21.2508666853321
20
-5.29139439206429
30
0
41
1
10
21.0044368621994
20
-5.28569847410134
30
0
41
1
10
20.3255373247194
20
-5.25770797626424
30
0
41
1
10
19.8938489578941
20
-5.22599607430504
30
0
41
1
10
19.4630134574666
20
-5.18093746444384
30
0
0
SPLINE
5
C7
100
AcDbEntity
8
1
62
256
6
ByLayer
370
13
48
1
60
0
100
AcDbSpline
70
4
71
3
72
24
73
20
40
0
40
0
40
0
40
0
40
0.0307736420525733
40
0.0307736420525733
40
0.273080231539431
40
0.273080231539431
40
0.333656878911146
40
0.333656878911146
40
0.394233526282861
40
0.394233526282861
40
0.515386821026288
40
0.515386821026288
40
0.757693410513144
40
0.757693410513144
40
0.878846705256571
40
0.878846705256571
40
0.939423352628286
40
0.939423352628286
40
1
40
1
40
1
40
1
41
1
10
19.4630144510169
20
-5.18093756835353
30
0
41
1
10
19.3163180771364
20
-5.16559544440608
30
0
41
1
10
19.1697205806643
20
-5.14870596546646
30
0
41
1
10
17.8694661342265
20
-4.98527654452172
30
0
41
1
10
16.7201856880995
20
-4.74523910395288
30
0
41
1
10
15.2728693052423
20
-4.3382644724947
30
0
41
1
10
14.9828887081689
20
-4.2515984879519
30
0
41
1
10
14.4013863453795
20
-4.06798971220351
30
0
41
1
10
14.1092739482411
20
-3.97084485820554
30
0
41
1
10
13.2351998870062
20
-3.66638055230092
30
0
41
1
10
12.6557404674102
20
-3.44611132896941
30
0
41
1
10
10.9222785763562
20
-2.74252684325449
30
0
41
1
10
9.77271244155003
20
-2.2168091040167
30
0
41
1
10
8.03843601288983
20
-1.37689218480355
30
0
41
1
10
7.45867702525399
20
-1.08842669576708
30
0
41
1
10
6.58392032187388
20
-0.647816661601922
30
0
41
1
10
6.29172900142879
20
-0.499745022859202
30
0
41
1
10
5.7083335742492
20
-0.203435684853986
30
0
41
1
10
5.41675819046606
20
-0.0550113435651554
30
0
41
1
10
5.12511535800698
20
0.0933088418184127
30
0
0
SPLINE
5
C8
100
AcDbEntity
8
1
62
256
6
ByLayer
370
13
48
1
60
0
100
AcDbSpline
70
4
71
3
72
8
73
4
40
0
40
0
40
0
40
0
40
1
40
1
40
1
40
1
41
1
10
4.61948892404746
20
0.276218892681641
30
0
41
1
10
4.62769757342906
20
0.272932729335849
30
0
41
1
10
4.63601202533792
20
0.269714587565289
30
0
41
1
10
4.64443544532767
20
0.266566050567406
30
0
0
SPLINE
5
C9
100
AcDbEntity
8
1
62
256
6
ByLayer
370
18
48
1
60
0
100
AcDbSpline
70
4
71
1
72
4
73
2
40
0
40
0
40
1
40
1
41
1
10
117.206633078778
20
-1.11749727190176
30
0
41
1
10
117.216873389647
20
-1.08292656177861
30
0
0
SPLINE
5
CA
100
AcDbEntity
8
1
62
256
6
ByLayer
370
13
48
1
60
0
100
AcDbSpline
70
4
71
3
72
88
73
84
40
0
40
0
40
0
40
0
40
0.011445641861156
40
0.0238234630506088
40
0.0423901948347868
40
0.0485791054295153
40
0.060956926618967
40
0.0733347478084213
40
0.0919014795925989
40
0.0980903901873252
40
0.110468211376778
40
0.122846032566229
40
0.14141276435041
40
0.147601674945135
40
0.159979496134587
40
0.172357317324041
40
0.190924049108218
40
0.197112959702945
40
0.209490780892398
40
0.22186860208185
40
0.240435333866027
40
0.246624244460755
40
0.259002065650208
40
0.271379886839659
40
0.289946618623838
40
0.296135529218565
40
0.308513350408018
40
0.320891171597468
40
0.339457903381647
40
0.345646813976375
40
0.358024635165827
40
0.37040245635528
40
0.388969188139457
40
0.395158098734185
40
0.407535919923638
40
0.41991374111309
40
0.438480472897269
40
0.444669383491995
40
0.457047204681447
40
0.469425025870901
40
0.487991757655078
40
0.494180668249805
40
0.506558489439258
40
0.51893631062871
40
0.537503042412889
40
0.543691953007615
40
0.556069774197068
40
0.568447595386519
40
0.587014327170699
40
0.593203237765425
40
0.605581058954877
40
0.61795888014433
40
0.63652561192851
40
0.642714522523235
40
0.655092343712688
40
0.66747016490214
40
0.686036896686319
40
0.692225807281045
40
0.704603628470497
40
0.71698144965995
40
0.73554818144413
40
0.741737092038855
40
0.754114913228307
40
0.766492734417759
40
0.785059466201939
40
0.791248376796665
40
0.803626197986117
40
0.81600401917557
40
0.834570750959749
40
0.840759661554476
40
0.853137482743927
40
0.86551530393338
40
0.884082035717559
40
0.890270946312285
40
0.902648767501738
40
0.91502658869119
40
0.933593320475369
40
0.939782231070095
40
0.952160052259548
40
0.964537873449
40
0.983104605233178
40
0.989293515827905
40
1
40
1
40
1
40
1
41
1
10
72.933375565401
20
-2.1948424112023
30
0
41
1
10
72.8539102078112
20
-2.20260015751433
30
0
41
1
10
72.6885180341224
20
-2.21832948019258
30
0
41
1
10
72.3942233718841
20
-2.24478945211277
30
0
41
1
10
72.1363931121934
20
-2.26626676549458
30
0
41
1
10
71.8785688017454
20
-2.28635074175352
30
0
41
1
10
71.6637394848344
20
-2.30216213266741
30
0
41
1
10
71.3629735537272
20
-2.32261548321213
30
0
41
1
10
71.1051436631456
20
-2.33839579368535
30
0
41
1
10
70.8473196694454
20
-2.35273631963847
30
0
41
1
10
70.6324904644293
20
-2.36372332615346
30
0
41
1
10
70.3317243821654
20
-2.37737595515725
30
0
41
1
10
70.0738941369257
20
-2.38729516938315
30
0
41
1
10
69.8160697059928
20
-2.39574759726594
30
0
41
1
10
69.60124020979
20
-2.40180353119192
30
0
41
1
10
69.3004739096623
20
-2.40852774015343
30
0
41
1
10
69.0426436070258
20
-2.41249508701898
30
0
41
1
10
68.7848191513571
20
-2.41497940223451
30
0
41
1
10
68.5699896418405
20
-2.41604402098429
30
0
41
1
10
68.2692233663256
20
-2.41576933764921
30
0
41
1
10
68.0113931611527
20
-2.41374142748862
30
0
41
1
10
67.7535689006031
20
-2.41023188458968
30
0
41
1
10
67.5387396247096
20
-2.40629629281716
30
0
41
1
10
67.2379737481041
20
-2.39903002924092
30
0
41
1
10
66.9801438939888
20
-2.39103056950916
30
0
41
1
10
66.7223199209146
20
-2.38156199794884
30
0
41
1
10
66.5074907191689
20
-2.37266226722335
30
0
41
1
10
66.2067246186926
20
-2.35846950479402
30
0
41
1
10
65.9488943398926
20
-2.34457179851955
30
0
41
1
10
65.6910698682431
20
-2.32923560940395
30
0
41
1
10
65.4762403370231
20
-2.31546099344072
30
0
41
1
10
65.1754739927318
20
-2.29448721454469
30
0
41
1
10
64.9176436624949
20
-2.27483402278602
30
0
41
1
10
64.6598191940359
20
-2.25378473450786
30
0
41
1
10
64.444989682518
20
-2.23527156691452
30
0
41
1
10
64.1442234142558
20
-2.20772207218033
30
0
41
1
10
63.8863932219913
20
-2.18250567371663
30
0
41
1
10
63.6285689744836
20
-2.15595176422977
30
0
41
1
10
63.4137397083523
20
-2.132885437445
30
0
41
1
10
63.1129738393432
20
-2.09903800864561
30
0
41
1
10
62.855143981062
20
-2.06851275379563
30
0
41
1
10
62.597319990006
20
-2.03671992198832
30
0
41
1
10
62.3824907659582
20
-2.00932942917726
30
0
41
1
10
62.0817246282219
20
-1.96951796568743
30
0
41
1
10
61.8238943161526
20
-1.93398408392244
30
0
41
1
10
61.5660698169085
20
-1.89726586609001
30
0
41
1
10
61.3512402659848
20
-1.86582228592781
30
0
41
1
10
61.0504739027927
20
-1.82044182028198
30
0
41
1
10
60.7926435704513
20
-1.7802520480223
30
0
41
1
10
60.5348191165262
20
-1.7389719876769
30
0
41
1
10
60.319989629806
20
-1.70378578215221
30
0
41
1
10
60.019223415042
20
-1.65328386875314
30
0
41
1
10
59.7613932820334
20
-1.60883523262242
30
0
41
1
10
59.5035690969372
20
-1.56340308577174
30
0
41
1
10
59.2887398796792
20
-1.52482501431652
30
0
41
1
10
58.9879740639027
20
-1.46970705600884
30
0
41
1
10
58.730144229395
20
-1.42144562679084
30
0
41
1
10
58.4723202367607
20
-1.37231732216452
30
0
41
1
10
58.2574909996866
20
-1.33073424662913
30
0
41
1
10
57.9567248332573
20
-1.27155162240354
30
0
41
1
10
57.6988944904193
20
-1.21995795747068
30
0
41
1
10
57.4410699629828
20
-1.16761991292464
30
0
41
1
10
57.2262403868696
20
-1.12344175405767
30
0
41
1
10
56.9254739849408
20
-1.06077584764216
30
0
41
1
10
56.6676436214605
20
-1.00635584255682
30
0
41
1
10
56.4098191438815
20
-0.951322013169772
30
0
41
1
10
56.1949896467416
20
-0.90498333330828
30
0
41
1
10
55.8942234344438
20
-0.839452120465012
30
0
41
1
10
55.6363933172561
20
-0.782744372690388
30
0
41
1
10
55.3785691546156
20
-0.725561316674145
30
0
41
1
10
55.1637399532372
20
-0.677523547039613
30
0
41
1
10
54.8629741446723
20
-0.609781911527335
30
0
41
1
10
54.605144297406
20
-0.551355700626431
30
0
41
1
10
54.3473202715378
20
-0.492599607578711
30
0
41
1
10
54.1324910018327
20
-0.443348085202985
30
0
41
1
10
53.8317247943404
20
-0.374079996385945
30
0
41
1
10
53.5738944248581
20
-0.314521751378152
30
0
41
1
10
53.3160698841244
20
-0.254775915598117
30
0
41
1
10
53.1012402998443
20
-0.204794892234645
30
0
41
1
10
52.8004738886732
20
-0.134675945203753
30
0
41
1
10
52.5426435246173
20
-0.0745640869284614
30
0
41
1
10
52.296423457059
20
-0.0171183014334986
30
0
41
1
10
52.1791276700558
20
0.0102973347561885
30
0
41
1
10
52.1047984156734
20
0.0276701706569611
30
0
0
SPLINE
5
CB
100
AcDbEntity
8
1
62
256
6
ByLayer
370
18
48
1
60
0
100
AcDbSpline
70
4
71
3
72
74
73
70
40
0
40
0
40
0
40
0
40
0.026768028057389
40
0.026768028057389
40
0.0535360561147779
40
0.0535360561147779
40
0.0803040841721669
40
0.0803040841721669
40
0.107072112229556
40
0.107072112229556
40
0.160608168344334
40
0.160608168344334
40
0.187376196401723
40
0.187376196401723
40
0.214144224459112
40
0.214144224459112
40
0.240912252516501
40
0.240912252516501
40
0.26768028057389
40
0.26768028057389
40
0.294448308631279
40
0.294448308631279
40
0.321216336688668
40
0.321216336688668
40
0.374752392803445
40
0.374752392803445
40
0.401520420860833
40
0.401520420860833
40
0.428288448918221
40
0.428288448918221
40
0.45505647697561
40
0.45505647697561
40
0.481824505032998
40
0.481824505032998
40
0.508592533090387
40
0.508592533090387
40
0.535360561147775
40
0.535360561147775
40
0.562128589205163
40
0.562128589205163
40
0.588896617262552
40
0.588896617262552
40
0.61566464531994
40
0.61566464531994
40
0.642432673377329
40
0.642432673377329
40
0.695968729492106
40
0.695968729492106
40
0.749504785606883
40
0.749504785606883
40
0.776272813664271
40
0.776272813664271
40
0.803040841721659
40
0.803040841721659
40
0.829808869779048
40
0.829808869779048
40
0.856576897836436
40
0.856576897836436
40
0.883344925893825
40
0.883344925893825
40
0.910112953951213
40
0.910112953951213
40
0.936880982008601
40
0.936880982008601
40
0.96364901006599
40
0.96364901006599
40
0.990417038123378
40
0.990417038123378
40
1
40
1
40
1
40
1
41
1
10
14.1714982201794
20
2.42520927391666
30
0
41
1
10
14.4385543062105
20
2.30463230226192
30
0
41
1
10
14.7047104667873
20
2.1817519711098
30
0
41
1
10
15.2355121140807
20
1.93196474117113
30
0
41
1
10
15.500538545919
20
1.80579535350233
30
0
41
1
10
16.0293573139814
20
1.54997758777426
30
0
41
1
10
16.2932858020098
20
1.4205908973735
30
0
41
1
10
16.8206354601477
20
1.15958989642448
30
0
41
1
10
17.0838729646178
20
1.02767253232506
30
0
41
1
10
17.873589427793
20
0.630339794924026
30
0
41
1
10
18.3994585286409
20
0.362095079579376
30
0
41
1
10
19.1890138032153
20
-0.0419199951459177
30
0
41
1
10
19.4523698896671
20
-0.176758783937316
30
0
41
1
10
19.9798262879224
20
-0.4461216616061
30
0
41
1
10
20.2438479514505
20
-0.58082979463839
30
0
41
1
10
20.773021459479
20
-0.848970686698351
30
0
41
1
10
21.0378961073932
20
-0.982944432510465
30
0
41
1
10
21.5690599221651
20
-1.24920815657566
30
0
41
1
10
21.8359467700603
20
-1.381417938487
30
0
41
1
10
22.368905091596
20
-1.64315868977508
30
0
41
1
10
22.6347886640239
20
-1.77230911427998
30
0
41
1
10
23.1652064876615
20
-2.02640521411135
30
0
41
1
10
23.4297388239277
20
-2.15124519918575
30
0
41
1
10
24.2223862780377
20
-2.51782489346883
30
0
41
1
10
24.7490117917582
20
-2.75388083991484
30
0
41
1
10
25.5381639772309
20
-3.08909233040165
30
0
41
1
10
25.8012616700875
20
-3.19757487641618
30
0
41
1
10
26.3272036434027
20
-3.40968841453829
30
0
41
1
10
26.5902056700989
20
-3.51249562953066
30
0
41
1
10
27.1168289598215
20
-3.71042621667755
30
0
41
1
10
27.3802492616306
20
-3.80592026926317
30
0
41
1
10
27.9079214533291
20
-3.99026455976636
30
0
41
1
10
28.1720128746319
20
-4.0791758242093
30
0
41
1
10
28.7013406632649
20
-4.24820702892276
30
0
41
1
10
28.9667167185433
20
-4.32838882941101
30
0
41
1
10
29.4984307336813
20
-4.48139781406053
30
0
41
1
10
29.7654145358704
20
-4.55435041950454
30
0
41
1
10
30.2974340152719
20
-4.68943234432049
30
0
41
1
10
30.5625892737563
20
-4.75200171846308
30
0
41
1
10
31.0920943364087
20
-4.86775708574976
30
0
41
1
10
31.3562165807873
20
-4.92149883271486
30
0
41
1
10
31.8836846750816
20
-5.01798762236558
30
0
41
1
10
32.1471290479969
20
-5.06068251307542
30
0
41
1
10
32.6732776827157
20
-5.13713850749622
30
0
41
1
10
32.936199769857
20
-5.17079930621779
30
0
41
1
10
33.7245337751477
20
-5.25605951634174
30
0
41
1
10
34.2497052251522
20
-5.29206553108193
30
0
41
1
10
35.3019484980855
20
-5.32441955138802
30
0
41
1
10
35.8291716175972
20
-5.31901603173986
30
0
41
1
10
36.6229057615154
20
-5.28111614459951
30
0
41
1
10
36.8880369441463
20
-5.26307082371548
30
0
41
1
10
37.4199271170525
20
-5.21613770657726
30
0
41
1
10
37.6866568653437
20
-5.18738532504895
30
0
41
1
10
38.2180640312525
20
-5.12049005278723
30
0
41
1
10
38.4830362447497
20
-5.08199853085716
30
0
41
1
10
39.0118307665879
20
-4.99466582723414
30
0
41
1
10
39.2758523496889
20
-4.94616218019959
30
0
41
1
10
39.802898544036
20
-4.8400972716056
30
0
41
1
10
40.0661001867223
20
-4.782525873011
30
0
41
1
10
40.5921099180019
20
-4.65777612796157
30
0
41
1
10
40.8547991466542
20
-4.59057020112598
30
0
41
1
10
41.3803303145886
20
-4.44819201174286
30
0
41
1
10
41.6429386954074
20
-4.37274730191507
30
0
41
1
10
42.1684439943487
20
-4.21296675976328
30
0
41
1
10
42.4314690574275
20
-4.12872633541608
30
0
41
1
10
42.9576631334026
20
-3.9525728675458
30
0
41
1
10
43.2210185332653
20
-3.86102251026347
30
0
41
1
10
43.5793701701572
20
-3.73043194429076
30
0
41
1
10
43.6738914946927
20
-3.69547289827665
30
0
41
1
10
43.7684744411749
20
-3.66002715712168
30
0
0
SPLINE
5
CC
100
AcDbEntity
8
1
62
256
6
ByLayer
370
18
48
1
60
0
100
AcDbSpline
70
4
71
3
72
98
73
94
40
0
40
0
40
0
40
0
40
0.0055153666232159
40
0.0055153666232159
40
0.024798782594794
40
0.024798782594794
40
0.0440821985663722
40
0.0440821985663722
40
0.0633656145379501
40
0.0633656145379501
40
0.0826490305095283
40
0.0826490305095283
40
0.101932446481106
40
0.101932446481106
40
0.121215862452684
40
0.121215862452684
40
0.15978269439584
40
0.15978269439584
40
0.198349526338997
40
0.198349526338997
40
0.217632942310575
40
0.217632942310575
40
0.236916358282153
40
0.236916358282153
40
0.256199774253731
40
0.256199774253731
40
0.275483190225309
40
0.275483190225309
40
0.294766606196887
40
0.294766606196887
40
0.314050022168465
40
0.314050022168465
40
0.333333438140043
40
0.333333438140043
40
0.352616854111621
40
0.352616854111621
40
0.371900270083199
40
0.371900270083199
40
0.391183686054777
40
0.391183686054777
40
0.410467102026356
40
0.410467102026356
40
0.429750517997933
40
0.429750517997933
40
0.449033933969512
40
0.449033933969512
40
0.468317349941089
40
0.468317349941089
40
0.487600765912668
40
0.487600765912668
40
0.506884181884246
40
0.506884181884246
40
0.526167597855824
40
0.526167597855824
40
0.545451013827402
40
0.545451013827402
40
0.56473442979898
40
0.56473442979898
40
0.584017845770558
40
0.584017845770558
40
0.622584677713713
40
0.622584677713713
40
0.64186809368529
40
0.64186809368529
40
0.661151509656867
40
0.661151509656867
40
0.699718341600022
40
0.699718341600022
40
0.7190017575716
40
0.7190017575716
40
0.738285173543178
40
0.738285173543178
40
0.757568589514756
40
0.757568589514756
40
0.776852005486334
40
0.776852005486334
40
0.796135421457912
40
0.796135421457912
40
0.815418837429491
40
0.815418837429491
40
0.853985669372647
40
0.853985669372647
40
0.873269085344225
40
0.873269085344225
40
0.892552501315803
40
0.892552501315803
40
0.931119333258959
40
0.931119333258959
40
0.950402749230537
40
0.950402749230537
40
0.969686165202115
40
0.969686165202115
40
1
40
1
40
1
40
1
41
1
10
67.8238999011436
20
5.37587248069616
30
0
41
1
10
67.8989638791965
20
5.37600967970315
30
0
41
1
10
67.9740241459103
20
5.37571715302852
30
0
41
1
10
68.3115202941527
20
5.37246721338156
30
0
41
1
10
68.5737446456301
20
5.3652922535735
30
0
41
1
10
69.0987605121133
20
5.33989566993216
30
0
41
1
10
69.3614563058467
20
5.32142757176806
30
0
41
1
10
69.8872299455655
20
5.27478174685871
30
0
41
1
10
70.1504919697899
20
5.24681306662794
30
0
41
1
10
70.6776947025525
20
5.18007956969316
30
0
41
1
10
70.9418255204228
20
5.14119369170078
30
0
41
1
10
71.4713629136103
20
5.05347265691265
30
0
41
1
10
71.7366928648219
20
5.00469565056349
30
0
41
1
10
72.2686198416606
20
4.89722854549643
30
0
41
1
10
72.5336993329164
20
4.83841527293313
30
0
41
1
10
73.3270693811057
20
4.64817222478283
30
0
41
1
10
73.8536779627987
20
4.50424423543859
30
0
41
1
10
74.9043739001519
20
4.18126221582659
30
0
41
1
10
75.4284140282733
20
4.00397120629157
30
0
41
1
10
76.2147494772245
20
3.71476042034715
30
0
41
1
10
76.4770072265964
20
3.61467834568191
30
0
41
1
10
77.0015470727286
20
3.40765435179051
30
0
41
1
10
77.2640728302565
20
3.30098253015063
30
0
41
1
10
77.7897602656857
20
3.08047231779344
30
0
41
1
10
78.0529369129602
20
2.96666994109432
30
0
41
1
10
78.5804173796341
20
2.73367491673582
30
0
41
1
10
78.8444584295154
20
2.61409677330474
30
0
41
1
10
79.3741753792199
20
2.36948856486967
30
0
41
1
10
79.6403245203526
20
2.2440227961082
30
0
41
1
10
80.1710047815177
20
1.9893980470263
30
0
41
1
10
80.4357942407621
20
1.86073297109203
30
0
41
1
10
80.9638690425875
20
1.59968193774901
30
0
41
1
10
81.2273307836159
20
1.4676717087772
30
0
41
1
10
81.7535835411215
20
1.20173888662825
30
0
41
1
10
82.0161609375855
20
1.06743310543527
30
0
41
1
10
82.5411024183773
20
0.797654236638635
30
0
41
1
10
82.8033121039277
20
0.661862496659666
30
0
41
1
10
83.3274854588477
20
0.389201581053584
30
0
41
1
10
83.5896082408505
20
0.252649587797322
30
0
41
1
10
84.1136439635052
20
-0.0215070938892552
30
0
41
1
10
84.3758747999926
20
-0.158576911478235
30
0
41
1
10
84.9008105924906
20
-0.432417196130586
30
0
41
1
10
85.1633703437495
20
-0.569474148038552
30
0
41
1
10
85.6893716949435
20
-0.842443984959345
30
0
41
1
10
85.9527640733871
20
-0.978536311712332
30
0
41
1
10
86.4808575115134
20
-1.24886873118049
30
0
41
1
10
86.7455702446567
20
-1.3830455320691
30
0
41
1
10
87.2758990902729
20
-1.65022748674491
30
0
41
1
10
87.5416875481267
20
-1.78265805392164
30
0
41
1
10
88.0706913852304
20
-2.04169690276151
30
0
41
1
10
88.3344314841517
20
-2.16908216063121
30
0
41
1
10
88.8611423719139
20
-2.41901203693069
30
0
41
1
10
89.1238563321619
20
-2.54188320916003
30
0
41
1
10
89.6487399797572
20
-2.78134760577157
30
0
41
1
10
89.9109080796828
20
-2.89814142050724
30
0
41
1
10
90.434597405245
20
-3.12703029552983
30
0
41
1
10
90.696308134375
20
-3.23929782165368
30
0
41
1
10
91.2195542671213
20
-3.45595832989187
30
0
41
1
10
91.4811911314749
20
-3.56020333262759
30
0
41
1
10
92.2667332366436
20
-3.86300977693992
30
0
41
1
10
92.7909301431178
20
-4.05116743605998
30
0
41
1
10
93.5794013025641
20
-4.31205853418777
30
0
41
1
10
93.8427329481603
20
-4.39533629051482
30
0
41
1
10
94.3702854041507
20
-4.55406124805057
30
0
41
1
10
94.6348267678947
20
-4.62849557733318
30
0
41
1
10
95.431067179324
20
-4.83794944274331
30
0
41
1
10
95.9605735333932
20
-4.95894034269585
30
0
41
1
10
96.7540940950382
20
-5.11045759988249
30
0
41
1
10
97.0186683369996
20
-5.15606102616979
30
0
41
1
10
97.5476267079615
20
-5.23798959568774
30
0
41
1
10
97.8122687963961
20
-5.27374774182022
30
0
41
1
10
98.3421426753509
20
-5.33407889325736
30
0
41
1
10
98.6076264572969
20
-5.35907340250975
30
0
41
1
10
99.137649965857
20
-5.39853165837289
30
0
41
1
10
99.4018288420005
20
-5.4131237778802
30
0
41
1
10
99.9291412430817
20
-5.43149218206256
30
0
41
1
10
100.192311741098
20
-5.4351445779368
30
0
41
1
10
100.717585926477
20
-5.43283158810939
30
0
41
1
10
100.979917722508
20
-5.42670088731089
30
0
41
1
10
101.765950018826
20
-5.39077321861217
30
0
41
1
10
102.288956645311
20
-5.34532484442539
30
0
41
1
10
103.074072708625
20
-5.24782546318392
30
0
41
1
10
103.335898919998
20
-5.210203652622
30
0
41
1
10
103.859777512724
20
-5.12522488600933
30
0
41
1
10
104.122008252017
20
-5.07841112612496
30
0
41
1
10
104.90964783548
20
-4.92175724633361
30
0
41
1
10
105.436644783879
20
-4.79517427047477
30
0
41
1
10
106.231576064637
20
-4.57836590026267
30
0
41
1
10
106.496926863479
20
-4.50144452318617
30
0
41
1
10
107.025270882957
20
-4.33970914047171
30
0
41
1
10
107.288935882201
20
-4.25508181613898
30
0
41
1
10
107.965398396634
20
-4.02696235300743
30
0
41
1
10
108.37758647532
20
-3.87705917883571
30
0
41
1
10
108.789263358805
20
-3.71864723877098
30
0
0
SPLINE
5
CD
100
AcDbEntity
8
1
62
256
6
ByLayer
370
18
48
1
60
0
100
AcDbSpline
70
4
71
3
72
8
73
4
40
0
40
0
40
0
40
0
40
1
40
1
40
1
40
1
41
1
10
116.01311456187
20
-5.53961690214859
30
0
41
1
10
116.221719299959
20
-5.03494029983031
30
0
41
1
10
116.435717563961
20
-4.51170749742732
30
0
41
1
10
116.649365180859
20
-3.96539094002708
30
0
0
SPLINE
5
CE
100
AcDbEntity
8
1
62
256
6
ByLayer
370
18
48
1
60
0
100
AcDbSpline
70
4
71
1
72
4
73
2
40
0
40
0
40
1
40
1
41
1
10
115.964679677649
20
-5.3102616877664
30
0
41
1
10
117.206633078796
20
-1.11749727190718
30
0
0
SPLINE
5
CF
100
AcDbEntity
8
1
62
256
6
ByLayer
370
18
48
1
60
0
100
AcDbSpline
70
4
71
3
72
8
73
4
40
0
40
0
40
0
40
0
40
1
40
1
40
1
40
1
41
1
10
117.212584395587
20
-1.07859293741785
30
0
41
1
10
117.214013987367
20
-1.08003755102325
30
0
41
1
10
117.215443652075
20
-1.08148209246301
30
0
41
1
10
117.216873389699
20
-1.08292656172651
30
0
0
SPLINE
5
D0
100
AcDbEntity
8
1
62
256
6
ByLayer
370
18
48
1
60
0
100
AcDbSpline
70
4
71
3
72
38
73
34
40
0
40
0
40
0
40
0
40
0.071519114537851
40
0.071519114537851
40
0.25721529163028
40
0.25721529163028
40
0.350063380176496
40
0.350063380176496
40
0.442911468722711
40
0.442911468722711
40
0.489335512995819
40
0.489335512995819
40
0.535759557268927
40
0.535759557268927
40
0.628607645815142
40
0.628607645815142
40
0.675031690088249
40
0.675031690088249
40
0.721455734361357
40
0.721455734361357
40
0.81430382290757
40
0.81430382290757
40
0.837515845044124
40
0.837515845044124
40
0.860727867180678
40
0.860727867180678
40
0.907151911453785
40
0.907151911453785
40
0.930363933590339
40
0.930363933590339
40
0.953575955726893
40
0.953575955726893
40
1
40
1
40
1
40
1
41
1
10
10.5441576392658
20
-3.87826222333345
30
0
41
1
10
10.3712722498369
20
-3.94484078425052
30
0
41
1
10
10.1992780238437
20
-4.01048852536687
30
0
41
1
10
9.5841803445872
20
-4.24273349472927
30
0
41
1
10
9.1467396987191
20
-4.40293003223667
30
0
41
1
10
8.5028612188394
20
-4.62753810786228
30
0
41
1
10
8.29002015673939
20
-4.6998732402281
30
0
41
1
10
7.87052674024662
20
-4.83698216334093
30
0
41
1
10
7.66599184594591
20
-4.90105128730244
30
0
41
1
10
7.36850601835638
20
-4.98865618970939
30
0
41
1
10
7.27090045404452
20
-5.01643704416367
30
0
41
1
10
7.07915393133746
20
-5.06874466165695
30
0
41
1
10
6.9848024784788
20
-5.09332361080001
30
0
41
1
10
6.70927725687329
20
-5.16096872852461
30
0
41
1
10
6.53603513970961
20
-5.19792375364736
30
0
41
1
10
6.29602304808282
20
-5.23712658496885
30
0
41
1
10
6.21934690453026
20
-5.24747136396519
30
0
41
1
10
6.07372112102644
20
-5.26170402465723
30
0
41
1
10
6.00442918942389
20
-5.26558206423562
30
0
41
1
10
5.81358338233406
20
-5.26552575578364
30
0
41
1
10
5.70846656371589
20
-5.25027877754778
30
0
41
1
10
5.61211658356766
20
-5.20638358450185
30
0
41
1
10
5.59460047308804
20
-5.19631224712793
30
0
41
1
10
5.56384405265121
20
-5.17384777905593
30
0
41
1
10
5.55052348650565
20
-5.16142797199765
30
0
41
1
10
5.5167840060297
20
-5.12055793461158
30
0
41
1
10
5.50257585332955
20
-5.0885030258296
30
0
41
1
10
5.49408125749642
20
-5.03291768886328
30
0
41
1
10
5.49338875907611
20
-5.01313732343115
30
0
41
1
10
5.49638330115948
20
-4.97100533257407
30
0
41
1
10
5.5000976054684
20
-4.94856574833878
30
0
41
1
10
5.51776547278195
20
-4.87809010636963
30
0
41
1
10
5.53815504282409
20
-4.82690062497898
30
0
41
1
10
5.56670005454149
20
-4.7717172486721
30
0
0
SPLINE
5
D1
100
AcDbEntity
8
1
62
256
6
ByLayer
370
18
48
1
60
0
100
AcDbSpline
70
4
71
3
72
8
73
4
40
0
40
0
40
0
40
0
40
1
40
1
40
1
40
1
41
1
10
117.423704342649
20
1.69912424324039
30
0
41
1
10
117.163657238978
20
2.45388396967795
30
0
41
1
10
116.905540786762
20
3.20930503786221
30
0
41
1
10
116.649365180859
20
3.96539094002696
30
0
0
SPLINE
5
D2
100
AcDbEntity
8
1
62
256
6
ByLayer
370
18
48
1
60
0
100
AcDbSpline
70
4
71
4
72
10
73
5
40
0
40
0
40
0
40
0
40
0
40
1
40
1
40
1
40
1
40
1
41
1
10
18.2089132893903
20
5.34448394785187
30
0
41
1
10
17.9380658811911
20
4.59874776085906
30
0
41
1
10
17.6672184729918
20
3.85301157386624
30
0
41
1
10
17.3963710647925
20
3.10727538687342
30
0
41
1
10
17.1255236565932
20
2.36153919988058
30
0
0
SPLINE
5
D3
100
AcDbEntity
8
1
62
256
6
ByLayer
370
18
48
1
60
0
100
AcDbSpline
70
4
71
3
72
8
73
4
40
0
40
0
40
0
40
0
40
1
40
1
40
1
40
1
41
1
10
4.61948892403984
20
0.276218892688235
30
0
41
1
10
4.61948781994221
20
0.257429287793542
30
0
41
1
10
4.62258485174388
20
0.239112680278737
30
0
41
1
10
4.62799280005521
20
0.221148295297525
30
0
0
SPLINE
5
D4
100
AcDbEntity
8
1
62
256
6
ByLayer
370
18
48
1
60
0
100
AcDbSpline
70
4
71
3
72
8
73
4
40
0
40
0
40
0
40
0
40
1
40
1
40
1
40
1
41
1
10
5.56670005454149
20
-4.7717172486721
30
0
41
1
10
5.49709342315577
20
-4.79735678288569
30
0
41
1
10
5.42786672235991
20
-4.82267710689527
30
0
41
1
10
5.35901981484423
20
-4.84767651970469
30
0
0
SPLINE
5
D5
100
AcDbEntity
8
1
62
256
6
ByLayer
370
18
48
1
60
0
100
AcDbSpline
70
4
71
3
72
10
73
6
40
0
40
0
40
0
40
0
40
0.235427023720479
40
0.235427023720479
40
1
40
1
40
1
40
1
41
1
10
16.5391633950603
20
1.28649124143689
30
0
41
1
10
16.5930210427553
20
1.35248326816907
30
0
41
1
10
16.6457098977206
20
1.42377874111668
30
0
41
1
10
16.8623590248741
20
1.74679229766525
30
0
41
1
10
17.0100296512857
20
2.04354443038568
30
0
41
1
10
17.1255236565932
20
2.36153919988058
30
0
0
SPLINE
5
D6
100
AcDbEntity
8
1
62
256
6
ByLayer
370
18
48
1
60
0
100
AcDbSpline
70
4
71
3
72
16
73
12
40
0
40
0
40
0
40
0
40
0.25
40
0.25
40
0.375
40
0.375
40
0.5
40
0.5
40
0.75
40
0.75
40
1
40
1
40
1
40
1
41
1
10
11.7135731302806
20
-4.14525786299146
30
0
41
1
10
12.2522110661168
20
-4.29813689081377
30
0
41
1
10
12.7926490882321
20
-4.43757677144362
30
0
41
1
10
13.605572452962
20
-4.6276952980823
30
0
41
1
10
13.8769280262163
20
-4.6878780595797
30
0
41
1
10
14.4203655168838
20
-4.8018680059609
30
0
41
1
10
14.6926918417165
20
-4.85571896980176
30
0
41
1
10
15.5086972255677
20
-5.00717739640842
30
0
41
1
10
16.051147746962
20
-5.09472893977343
30
0
41
1
10
17.1326548762259
20
-5.24160436608707
30
0
41
1
10
17.671712264786
20
-5.30094390836842
30
0
41
1
10
18.2089132893904
20
-5.34448394785195
30
0
0
SPLINE
5
D7
100
AcDbEntity
8
1
62
256
6
ByLayer
370
13
48
1
60
0
100
AcDbSpline
70
4
71
3
72
90
73
86
40
0
40
0
40
0
40
0
40
0.0016932805429986
40
0.0140112936800398
40
0.0263293068170815
40
0.0448063265226438
40
0.0509653330911644
40
0.0632833462282056
40
0.0756013593652473
40
0.0940783790708096
40
0.10023738563933
40
0.112555398776371
40
0.124873411913413
40
0.143350431618975
40
0.149509438187496
40
0.161827451324537
40
0.174145464461579
40
0.192622484167141
40
0.198781490735662
40
0.211099503872703
40
0.223417517009745
40
0.241894536715307
40
0.248053543283828
40
0.260371556420869
40
0.272689569557911
40
0.291166589263473
40
0.297325595831993
40
0.309643608969035
40
0.321961622106076
40
0.340438641811639
40
0.346597648380159
40
0.3589156615172
40
0.371233674654242
40
0.389710694359804
40
0.395869700928325
40
0.408187714065366
40
0.420505727202408
40
0.43898274690797
40
0.445141753476491
40
0.457459766613532
40
0.469777779750574
40
0.488254799456136
40
0.494413806024657
40
0.506731819161698
40
0.519049832298739
40
0.537526852004302
40
0.543685858572822
40
0.556003871709864
40
0.568321884846905
40
0.586798904552468
40
0.592957911120988
40
0.60527592425803
40
0.617593937395071
40
0.636070957100633
40
0.642229963669154
40
0.654547976806196
40
0.666865989943237
40
0.685343009648799
40
0.69150201621732
40
0.703820029354362
40
0.716138042491403
40
0.734615062196965
40
0.740774068765486
40
0.753092081902527
40
0.765410095039568
40
0.783887114745131
40
0.790046121313651
40
0.802364134450693
40
0.814682147587734
40
0.833159167293297
40
0.839318173861817
40
0.851636186998855
40
0.863954200135901
40
0.882431219841463
40
0.888590226409983
40
0.900908239547025
40
0.913226252684065
40
0.931703272389632
40
0.937862278958149
40
0.95018029209519
40
0.962498305232231
40
0.980975324937794
40
0.987134331506315
40
0.999452344643355
40
1
40
1
40
1
40
1
41
1.00000000000001
10
100.692190295137
20
-0.0263979258255914
30
0
41
1.00000000000001
10
100.680377291897
20
-0.0236376696589956
30
0
41
1.00000000000001
10
100.582628120175
20
-0.0007996420990821
30
0
41
1.00000000000001
10
100.398927163333
20
0.0420645569256803
30
0
41
1.00000000000001
10
100.098130257597
20
0.112209351558987
30
0
41
1.00000000000001
10
99.84033511659
20
0.1723593983464
30
0
41
1.00000000000001
10
99.5825343460531
20
0.23240727065601
30
0
41
1.00000000000001
10
99.3676763282706
20
0.282271293727574
30
0
41
1.00000000000001
10
99.0668803126357
20
0.351868253441294
30
0
41
1.00000000000001
10
98.8090858827303
20
0.411370520027188
30
0
41
1.00000000000001
10
98.5512855432176
20
0.470618037810678
30
0
41
1.00000000000001
10
98.3364277026268
20
0.519714592802185
30
0
41
1.00000000000001
10
98.0356317030557
20
0.588061835121689
30
0
41
1.00000000000001
10
97.7778371006067
20
0.646311657382082
30
0
41
1.00000000000001
10
97.5200365267267
20
0.704157942797987
30
0
41
1.00000000000001
10
97.305178412319
20
0.75199090335911
30
0
41
1.00000000000001
10
97.0043818840198
20
0.818401035943703
30
0
41
1.00000000000001
10
96.7465867463526
20
0.87481588561692
30
0
41
1.00000000000001
10
96.488785644942
20
0.930684860296333
30
0
41
1.00000000000001
10
96.2739271700658
20
0.976779265828691
30
0
41
1.00000000000001
10
95.9731304003945
20
1.04059526262687
30
0
41
1.00000000000001
10
95.7153353879588
20
1.09461942620032
30
0
41
1.00000000000001
10
95.4575347532336
20
1.14796250624203
30
0
41
1.00000000000001
10
95.2426768390965
20
1.1918668971227
30
0
41
1.00000000000001
10
94.9418809369311
20
1.25246438034011
30
0
41
1.00000000000001
10
94.6840865726311
20
1.30356829045259
30
0
41
1.00000000000001
10
94.4262862737518
20
1.35385979504991
30
0
41
1.00000000000001
10
94.2114284509926
20
1.39513925996552
30
0
41
1.00000000000001
10
93.9106324472323
20
1.45191484540233
30
0
41
1.00000000000001
10
93.6528378114851
20
1.49958757257666
30
0
41
1.00000000000001
10
93.395037182362
20
1.54632454358499
30
0
41
1.00000000000001
10
93.1801790087758
20
1.58456653977338
30
0
41
1.00000000000001
10
92.8793823758774
20
1.63695324887097
30
0
41
1.00000000000001
10
92.6215871279885
20
1.68071897375815
30
0
41
1.00000000000001
10
92.363785903599
20
1.72343488967254
30
0
41
1.00000000000001
10
92.1489273164048
20
1.75825753786579
30
0
41
1.00000000000001
10
91.8481303716041
20
1.80573171590239
30
0
41
1.00000000000001
10
91.5903351935313
20
1.84515220952609
30
0
41
1.00000000000001
10
91.3325343822834
20
1.88341849464634
30
0
41
1.00000000000001
10
91.1176763402679
20
1.91447186209355
30
0
41
1.00000000000001
10
90.8168803189875
20
1.9565571277311
30
0
41
1.00000000000001
10
90.5590859102495
20
1.99123935808605
30
0
41
1.00000000000001
10
90.3012856100139
20
2.02467871025952
30
0
41
1.00000000000001
10
90.0864278090915
20
2.05165974064313
30
0
41
1.00000000000001
10
89.7856318699774
20
2.08794927392744
30
0
41
1.00000000000001
10
89.5278373208516
20
2.11756011329139
30
0
41
1.00000000000001
10
89.2700367956785
20
2.14585055689234
30
0
41
1.00000000000001
10
89.0551787241985
20
2.16849848612482
30
0
41
1.00000000000001
10
88.7543822630521
20
2.19863952421248
30
0
41
1.00000000000001
10
88.4965871854904
20
2.22288866419434
30
0
41
1.00000000000001
10
88.2387861421399
20
2.24575057682138
30
0
41
1.00000000000001
10
88.0239277047652
20
2.26383998849245
30
0
41
1.00000000000001
10
87.7231309532431
20
2.2875292855491
30
0
41
1.00000000000001
10
87.4653359157522
20
2.30616894028184
30
0
41
1.00000000000001
10
87.2075352203554
20
2.32336520566348
30
0
41
1.00000000000001
10
86.9926772024061
20
2.33670614474103
30
0
41
1.00000000000001
10
86.691881054572
20
2.35369351838746
30
0
41
1.00000000000001
10
86.4340864091502
20
2.3665284663803
30
0
41
1.00000000000001
10
86.1762858129765
20
2.37788420789617
30
0
41
1.00000000000001
10
85.9614277272879
20
2.38634523866698
30
0
41
1.00000000000001
10
85.660631344969
20
2.39646838304743
30
0
41
1.00000000000001
10
85.4028364091697
20
2.40337836358383
30
0
41
1.00000000000001
10
85.1450355317583
20
2.40878511426611
30
0
41
1.00000000000001
10
84.930177277928
20
2.41228312264347
30
0
41
1.00000000000001
10
84.6293808061774
20
2.41544020731034
30
0
41
1.00000000000001
10
84.3715859195687
20
2.41635529048894
30
0
41
1.00000000000001
10
84.1137851681409
20
2.41576096820187
30
0
41
1.00000000000001
10
83.8989270137401
20
2.41426506111436
30
0
41
1.00000000000001
10
83.5981306720924
20
2.41043219703307
30
0
41
1.00000000000001
10
83.3403359497886
20
2.40534909884569
30
0
41
1.00000000000001
10
83.0825354779421
20
2.39876155024417
30
0
41
1.00000000000001
10
82.8676775737553
20
2.39228509649225
30
0
41
1.00000000000001
10
82.5668814779808
20
2.38149527846936
30
0
41
1.00000000000001
10
82.3090867953163
20
2.37045993410372
30
0
41
1.00000000000001
10
82.0512861368724
20
2.3579434801721
30
0
41
1.00000000000001
10
81.8364279774866
20
2.34655273219717
30
0
41
1.00000000000001
10
81.535631464265
20
2.32891808615905
30
0
41
1.00000000000001
10
81.2778364187419
20
2.31204356527589
30
0
41
1.00000000000001
10
81.0200354696031
20
2.29372150062291
30
0
41
1.00000000000001
10
80.8051771892277
20
2.27752515006442
30
0
41
1.00000000000001
10
80.5043807332156
20
2.25321165385309
30
0
41
1.00000000000001
10
80.2465859045032
20
2.23065853434331
30
0
41
1.00000000000001
10
79.9887852333569
20
2.20671128551417
30
0
41
1.00000000000001
10
79.8560493671415
20
2.19383794058548
30
0
41
1.00000000000001
10
79.7662859051437
20
2.18488768488776
30
0
41
1.00000000000001
10
79.7624649285125
20
2.18450625499976
30
0
0
SPLINE
5
D8
100
AcDbEntity
8
1
62
256
6
ByLayer
370
13
48
1
60
0
100
AcDbSpline
70
4
71
3
72
79
73
75
40
0
40
0
40
0
40
0
40
0.0003776346748674
40
0.0142612786377162
40
0.0281449226005649
40
0.0489703885448387
40
0.0559122105262637
40
0.0697958544891124
40
0.0836794984519612
40
0.104504964396235
40
0.11144678637766
40
0.12533043034051
40
0.139214074303358
40
0.160039540247631
40
0.166981362229056
40
0.180865006191905
40
0.194748650154754
40
0.215574116099028
40
0.222515938080452
40
0.236399582043301
40
0.25028322600615
40
0.271108691950424
40
0.278050513931849
40
0.291934157894698
40
0.305817801857547
40
0.326643267801821
40
0.333585089783245
40
0.347468733746094
40
0.361352377708943
40
0.382177843653216
40
0.389119665634641
40
0.40300330959749
40
0.416886953560339
40
0.437712419504612
40
0.444654241486037
40
0.458537885448886
40
0.472421529411736
40
0.493246995356009
40
0.500188817337434
40
0.514072461300283
40
0.527956105263132
40
0.548781571207405
40
0.55572339318883
40
0.569607037151679
40
0.583490681114528
40
0.604316147058801
40
0.611257969040226
40
0.625141613003075
40
0.639025256965924
40
0.659850722910198
40
0.666792544891622
40
0.680676188854471
40
0.694559832817321
40
0.715385298761594
40
0.722327120743019
40
0.736210764705867
40
0.750094408668717
40
0.770919874612991
40
0.777861696594415
40
0.791745340557264
40
0.805628984520113
40
0.826454450464387
40
0.833396272445811
40
0.84727991640866
40
0.861163560371509
40
0.881989026315783
40
0.888930848297207
40
0.902814492260056
40
0.916698136222906
40
0.937523602167179
40
0.944465424148604
40
0.951407246130028
40
0.972232712074302
40
1
40
1
40
1
40
1
41
1.00000000000001
10
35.6950118475149
20
-0.027090888799904
30
0
41
1.00000000000001
10
35.692674378103
20
-0.0265447725080604
30
0
41
1.00000000000001
10
35.6044002619489
20
-0.0059213325367295
30
0
41
1.00000000000001
10
35.4301761424244
20
0.0347386211263368
30
0
41
1.00000000000001
10
35.1293800346453
20
0.104904143791742
30
0
41
1.00000000000001
10
34.8715855327794
20
0.165077921330833
30
0
41
1.00000000000001
10
34.6137851410173
20
0.22515070732416
30
0
41
1.00000000000001
10
34.3989272699834
20
0.275035571251804
30
0
41
1.00000000000001
10
34.0981312580145
20
0.344662517579534
30
0
41
1.00000000000001
10
33.8403366863578
20
0.404192297190915
30
0
41
1.00000000000001
10
33.58253618906
20
0.463470283609834
30
0
41
1.00000000000001
10
33.3676781481486
20
0.512594514591197
30
0
41
1.00000000000001
10
33.0668817094219
20
0.580984978089443
30
0
41
1.00000000000001
10
32.8090866276284
20
0.639277006106279
30
0
41
1.00000000000001
10
32.5512855538165
20
0.697170392222115
30
0
41
1.00000000000001
10
32.3364270795951
20
0.745045841132419
30
0
41
1.00000000000001
10
32.0356302611508
20
0.811521683742905
30
0
41
1.00000000000001
10
31.777835147822
20
0.867999942500342
30
0
41
1.00000000000001
10
31.5200343547845
20
0.923938731356367
30
0
41
1.00000000000001
10
31.3051762993993
20
0.970095513559892
30
0
41
1.00000000000001
10
31.0043802202708
20
1.03400532348737
30
0
41
1.00000000000001
10
30.7465857315804
20
1.08811553849346
30
0
41
1.00000000000001
10
30.4887853412225
20
1.14154778975725
30
0
41
1.00000000000001
10
30.2739274659234
20
1.18552810990726
30
0
41
1.00000000000001
10
29.9731314389561
20
1.24623496337505
30
0
41
1.00000000000001
10
29.7153368428646
20
1.29743614025792
30
0
41
1.00000000000001
10
29.457536309725
20
1.34782808942156
30
0
41
1.00000000000001
10
29.242678234309
20
1.38919333463143
30
0
41
1.00000000000001
10
28.9418817451192
20
1.44609277615449
30
0
41
1.00000000000001
10
28.6840866210417
20
1.49387563559104
30
0
41
1.00000000000001
10
28.4262855100993
20
1.54072586903611
30
0
41
1.00000000000001
10
28.2114270103016
20
1.57906410184357
30
0
41
1.00000000000001
10
27.91063016975
20
1.63158886412682
30
0
41
1.00000000000001
10
27.6528350545712
20
1.67547647394408
30
0
41
1.00000000000001
10
27.3950342769591
20
1.71831704165048
30
0
41
1.00000000000001
10
27.1801762410266
20
1.75324521713178
30
0
41
1.00000000000001
10
26.8793801936524
20
1.80087124757576
30
0
41
1.00000000000001
10
26.621585734836
20
1.84042745423016
30
0
41
1.00000000000001
10
26.363785373037
20
1.87883513806843
30
0
41
1.00000000000001
10
26.1489275190955
20
1.91001001479897
30
0
41
1.00000000000001
10
25.8481315141673
20
1.95227144823663
30
0
41
1.00000000000001
10
25.5903369261085
20
1.98711037243702
30
0
41
1.00000000000001
10
25.3325363885381
20
2.02070979992759
30
0
41
1.00000000000001
10
25.1176783078774
20
2.04782599526819
30
0
41
1.00000000000001
10
24.8168818168668
20
2.08430729243419
30
0
41
1.00000000000001
10
24.5590866973898
20
2.114084362263
30
0
41
1.00000000000001
10
24.3012855977815
20
2.14254122657404
30
0
41
1.00000000000001
10
24.0864271091206
20
2.16532749963291
30
0
41
1.00000000000001
10
23.7856302845826
20
2.19566080757748
30
0
41
1.00000000000001
10
23.5278351843103
20
2.22007243283493
30
0
41
1.00000000000001
10
23.2700344230784
20
2.24309364721403
30
0
41
1.00000000000001
10
23.0551764005278
20
2.26131338270638
30
0
41
1.00000000000001
10
22.7543803693819
20
2.28518357165912
30
0
41
1.00000000000001
10
22.4965859212793
20
2.3039797246159
30
0
41
1.00000000000001
10
22.2387855673035
20
2.32133697398233
30
0
41
1.00000000000001
10
22.0239277124883
20
2.3348153113342
30
0
41
1.00000000000001
10
21.7231316864277
20
2.3520008594689
30
0
41
1.00000000000001
10
21.4653370592618
20
2.36501164838641
30
0
41
1.00000000000001
10
21.2075364641324
20
2.37654721303379
30
0
41
1.00000000000001
10
20.9926783355277
20
2.38516021349626
30
0
41
1.00000000000001
10
20.6918817919423
20
2.39550003117286
30
0
41
1.00000000000001
10
20.4340866436477
20
2.40259978349174
30
0
41
1.00000000000001
10
20.1762855318117
20
2.40819883285253
30
0
41
1.00000000000001
10
19.9614270364956
20
2.41185829676748
30
0
41
1.00000000000001
10
19.6606302024626
20
2.41524116940893
30
0
41
1.00000000000001
10
19.4028350960965
20
2.41634671192141
30
0
41
1.00000000000001
10
19.1450343317132
20
2.41593642676447
30
0
41
1.00000000000001
10
18.9301763095654
20
2.41458880768052
30
0
41
1.00000000000001
10
18.6293802848174
20
2.41095734996348
30
0
41
1.00000000000001
10
18.3715858474857
20
2.40604361054092
30
0
41
1.00000000000001
10
18.1567650301899
20
2.4007247272272
30
0
41
1.00000000000001
10
17.9418935196435
20
2.3946711320785
30
0
41
1.00000000000001
10
17.5980863617828
20
2.38298020039322
30
0
41
1.00000000000001
10
17.2973612918264
20
2.36995286610333
30
0
41
1.00000000000001
10
17.1255236565932
20
2.36153919988063
30
0
0
SPLINE
5
D9
100
AcDbEntity
8
1
62
256
6
ByLayer
370
13
48
1
60
0
100
AcDbSpline
70
4
71
3
72
16
73
12
40
0
40
0
40
0
40
0
40
0.229789571825748
40
0.229789571825748
40
0.528842008743561
40
0.528842008743561
40
0.827894445661374
40
0.827894445661374
40
0.977420664120281
40
0.977420664120281
40
1
40
1
40
1
40
1
41
1
10
5.12546972841841
20
-5.26399187860616
30
0
41
1
10
5.12549738876578
20
-5.26392921430511
30
0
41
1
10
5.12552384000045
20
-5.25542120427394
30
0
41
1
10
5.12557920907727
20
-5.21678980388918
30
0
41
1
10
5.12560660074007
20
-5.18108529318101
30
0
41
1
10
5.12565009754846
20
-5.08247623948512
30
0
41
1
10
5.12566621281348
20
-5.0195728455611
30
0
41
1
10
5.12567903541702
20
-4.90421256325516
30
0
41
1
10
5.12568140506599
20
-4.86216898135299
30
0
41
1
10
5.1256816517276
20
-4.81010678877169
30
0
41
1
10
5.12568163525617
20
-4.80320219431258
30
0
41
1
10
5.12568156927856
20
-4.7962232846136
30
0
0
SPLINE
5
DA
100
AcDbEntity
8
1
62
256
6
ByLayer
370
18
48
1
60
0
100
AcDbSpline
70
4
71
3
72
8
73
4
40
0
40
0
40
0
40
0
40
1
40
1
40
1
40
1
41
1
10
116.01311456187
20
-5.53961690214862
30
0
41
1
10
115.987170284408
20
-5.5118816995882
30
0
41
1
10
115.963866255533
20
-5.47446322284719
30
0
41
1
10
115.94319730562
20
-5.42764374177372
30
0
0
SPLINE
5
DB
100
AcDbEntity
8
1
62
256
6
ByLayer
370
18
48
1
60
0
100
AcDbSpline
70
4
71
3
72
10
73
6
40
0
40
0
40
0
40
0
40
0.341402438821787
40
0.341402438821787
40
1
40
1
40
1
40
1
41
1
10
10.5254812916762
20
3.87675985223134
30
0
41
1
10
10.6636791829523
20
3.89988790334999
30
0
41
1
10
10.8010183558199
20
3.92571507860984
30
0
41
1
10
11.2007370454887
20
4.00894081772253
30
0
41
1
10
11.462052944695
20
4.07387009229851
30
0
41
1
10
11.7135731302804
20
4.14525786299143
30
0
0
SPLINE
5
DC
100
AcDbEntity
8
1
62
256
6
ByLayer
370
18
48
1
60
0
100
AcDbSpline
70
4
71
3
72
34
73
30
40
0
40
0
40
0
40
0
40
0.0312500000000009
40
0.0312500000000009
40
0.0625000000000017
40
0.0625000000000017
40
0.125000000000004
40
0.125000000000004
40
0.156250000000003
40
0.156250000000003
40
0.187500000000003
40
0.187500000000003
40
0.250000000000002
40
0.250000000000002
40
0.312500000000002
40
0.312500000000002
40
0.375000000000001
40
0.375000000000001
40
0.500000000000003
40
0.500000000000003
40
0.562500000000004
40
0.562500000000004
40
0.625000000000004
40
0.625000000000004
40
0.750000000000003
40
0.750000000000003
40
0.875000000000002
40
0.875000000000002
40
1
40
1
40
1
40
1
41
1
10
5.57574416729881
20
-4.54410115767845
30
0
41
1
10
5.60430114659778
20
-4.50960020294167
30
0
41
1
10
5.63904874708268
20
-4.47626066093159
30
0
41
1
10
5.71850295165106
20
-4.41164490272047
30
0
41
1
10
5.76361518496216
20
-4.38015405110633
30
0
41
1
10
5.90777527617223
20
-4.29081124592764
30
0
41
1
10
6.01563684635121
20
-4.23748179202832
30
0
41
1
10
6.18877228719535
20
-4.16423739210327
30
0
41
1
10
6.24850395316332
20
-4.14096608676095
30
0
41
1
10
6.36940406099387
20
-4.09715617558274
30
0
41
1
10
6.43081894875934
20
-4.07651041467338
30
0
41
1
10
6.61749105018163
20
-4.01787181634856
30
0
41
1
10
6.74515003515199
20
-3.98314996460007
30
0
41
1
10
7.0054474468094
20
-3.92101640131892
30
0
41
1
10
7.13852205077646
20
-3.89355085346705
30
0
41
1
10
7.40696573679756
20
-3.84563276199873
30
0
41
1
10
7.54172718605543
20
-3.82526531834205
30
0
41
1
10
7.94739637680019
20
-3.77380177938235
30
0
41
1
10
8.21967238285035
20
-3.75226633592789
30
0
41
1
10
8.63044930019612
20
-3.73731427135723
30
0
41
1
10
8.76777421795691
20
-3.73524857286796
30
0
41
1
10
9.043208386841
20
-3.73687944368646
30
0
41
1
10
9.18166743214147
20
-3.74059603310226
30
0
41
1
10
9.59563950427969
20
-3.76027513339676
30
0
41
1
10
9.86842413519918
20
-3.78462272429692
30
0
41
1
10
10.4077223911835
20
-3.85412866397266
30
0
41
1
10
10.6742295371424
20
-3.89931628010879
30
0
41
1
10
11.2007370454887
20
-4.00894081772253
30
0
41
1
10
11.462052944695
20
-4.07387009229853
30
0
41
1
10
11.7135731302804
20
-4.14525786299143
30
0
0
SPLINE
5
DD
100
AcDbEntity
8
1
62
256
6
ByLayer
370
13
48
1
60
0
100
AcDbSpline
70
4
71
3
72
35
73
31
40
0
40
0
40
0
40
0
40
0.163552933736716
40
0.163552933736716
40
0.204441167170895
40
0.204441167170895
40
0.245329400605074
40
0.245329400605074
40
0.327105867473433
40
0.327105867473433
40
0.490658801210149
40
0.490658801210149
40
0.531547034644328
40
0.531547034644328
40
0.572435268078507
40
0.572435268078507
40
0.654211734946865
40
0.654211734946865
40
0.695099968381044
40
0.695099968381044
40
0.735988201815223
40
0.735988201815223
40
0.81776466868358
40
0.899541135551938
40
0.899541135551938
40
0.940429368986116
40
0.940429368986116
40
0.981317602420295
40
0.981317602420295
40
1
40
1
40
1
40
1
41
1
10
5.12511535800698
20
0.0933088418184127
30
0
41
1
10
5.12511125446017
20
0.542259594148618
30
0
41
1
10
5.12508819225087
20
0.982461129299679
30
0
41
1
10
5.12505447432312
20
1.52185631388221
30
0
41
1
10
5.12504748033209
20
1.6290914795816
30
0
41
1
10
5.12503355475334
20
1.84046204160677
30
0
41
1
10
5.1250266076454
20
1.94484570634555
30
0
41
1
10
5.12500644270881
20
2.25409622213311
30
0
41
1
10
5.1249939030472
20
2.45558264544863
30
0
41
1
10
5.12496417760752
20
3.03212993603299
30
0
41
1
10
5.12495477233213
20
3.38388568402985
30
0
41
1
10
5.12496566494014
20
3.78192886488233
30
0
41
1
10
5.12496896215939
20
3.85915017303262
30
0
41
1
10
5.12497778422201
20
4.00721967862822
30
0
41
1
10
5.12498331483496
20
4.07832443865215
30
0
41
1
10
5.12500326449097
20
4.28300090526716
30
0
41
1
10
5.12502105651672
20
4.4079685604988
30
0
41
1
10
5.12505420394297
20
4.57817512905407
30
0
41
1
10
5.12506632590765
20
4.63202806984629
30
0
41
1
10
5.12509262111428
20
4.73386027413576
30
0
41
1
10
5.12510684913136
20
4.78199013779815
30
0
41
1
10
5.12515194834194
20
4.91597798652651
30
0
41
1
10
5.12521841042445
20
5.06703415341531
30
0
41
1
10
5.12529304754585
20
5.16435455872806
30
0
41
1
10
5.12535003932271
20
5.21675271359817
30
0
41
1
10
5.1253692410821
20
5.23078658064168
30
0
41
1
10
5.12540721362947
20
5.25161822398317
30
0
41
1
10
5.12542601605443
20
5.25846010262538
30
0
41
1
10
5.12545282790495
20
5.26324168596668
30
0
41
1
10
5.12546116122243
20
5.26399026102828
30
0
41
1
10
5.12546938808572
20
5.26399222345503
30
0
0
SPLINE
5
DE
100
AcDbEntity
8
1
62
256
6
ByLayer
370
18
48
1
60
0
100
AcDbSpline
70
4
71
3
72
50
73
46
40
0
40
0
40
0
40
0
40
0.0223314307643315
40
0.0223314307643315
40
0.0446628615286629
40
0.0446628615286629
40
0.0893257230573258
40
0.0893257230573258
40
0.178651446114653
40
0.178651446114653
40
0.200982876878985
40
0.200982876878985
40
0.223314307643317
40
0.223314307643317
40
0.26797716917198
40
0.26797716917198
40
0.357302892229307
40
0.357302892229307
40
0.401965753757971
40
0.401965753757971
40
0.424297184522303
40
0.424297184522303
40
0.446628615286634
40
0.446628615286634
40
0.53595433834396
40
0.53595433834396
40
0.625280061401286
40
0.625280061401286
40
0.647611492165618
40
0.647611492165618
40
0.66994292292995
40
0.66994292292995
40
0.714605784458615
40
0.714605784458615
40
0.803931507515943
40
0.803931507515943
40
0.848594369044607
40
0.848594369044607
40
0.87092579980894
40
0.87092579980894
40
0.893257230573272
40
0.893257230573272
40
0.982582953630602
40
0.982582953630602
40
1
40
1
40
1
40
1
41
1
10
18.2089132893904
20
5.34448394785204
30
0
41
1
10
18.4667452005961
20
5.36810830897278
30
0
41
1
10
18.723961221763
20
5.38661239351981
30
0
41
1
10
19.237521472766
20
5.41357258915545
30
0
41
1
10
19.4934845338743
20
5.4220854021726
30
0
41
1
10
20.2604465954646
20
5.43264549476638
30
0
41
1
10
20.7700518515059
20
5.41981472239078
30
0
41
1
10
22.2969519655928
20
5.32271978346981
30
0
41
1
10
23.3125784094697
20
5.1797845535454
30
0
41
1
10
24.5911389390752
20
4.90802048384751
30
0
41
1
10
24.8472059266524
20
4.84892807207652
30
0
41
1
10
25.3608070649577
20
4.72182620902657
30
0
41
1
10
25.6184611688433
20
4.65348909927928
30
0
41
1
10
26.3913836182437
20
4.43581281075708
30
0
41
1
10
26.9038272365561
20
4.2744656636097
30
0
41
1
10
28.4361244407823
20
3.74693284072527
30
0
41
1
10
29.4508265124311
20
3.33699661096193
30
0
41
1
10
30.9774675940271
20
2.65735695616004
30
0
41
1
10
31.4869185927499
20
2.41971389021038
30
0
41
1
10
32.2539720901516
20
2.04978590841554
30
0
41
1
10
32.5102598349109
20
1.92447161318924
30
0
41
1
10
33.0237857006117
20
1.66925774533439
30
0
41
1
10
33.2817451670124
20
1.53953710705082
30
0
41
1
10
34.5683341395436
20
0.885922908855036
30
0
41
1
10
35.5859401911637
20
0.346571227174735
30
0
41
1
10
37.6189378878769
20
-0.72404338569487
30
0
41
1
10
38.633328734565
20
-1.2572479131421
30
0
41
1
10
39.9117491707579
20
-1.89590349785007
30
0
41
1
10
40.1677797512472
20
-2.0225740024718
30
0
41
1
10
40.6813831987832
20
-2.27217756794141
30
0
41
1
10
40.9393143156449
20
-2.39554768457447
30
0
41
1
10
41.7102581215002
20
-2.75779729302485
30
0
41
1
10
42.2215388128188
20
-2.9886484904313
30
0
41
1
10
43.7510266044173
20
-3.64419614264759
30
0
41
1
10
44.7639811050192
20
-4.03310964646923
30
0
41
1
10
46.2893206767168
20
-4.52268365627103
30
0
41
1
10
46.798493245315
20
-4.67059692544981
30
0
41
1
10
47.5651870041188
20
-4.86707958619002
30
0
41
1
10
47.8213771463604
20
-4.92821921706326
30
0
41
1
10
48.3349504674696
20
-5.04174738690648
30
0
41
1
10
48.5926661453361
20
-5.09418815312034
30
0
41
1
10
49.8765574784616
20
-5.3311213548881
30
0
41
1
10
50.8924177934085
20
-5.44310845472776
30
0
41
1
10
52.105672853157
20
-5.48221740511246
30
0
41
1
10
52.3035757938316
20
-5.48559052790085
30
0
41
1
10
52.501494797294
20
-5.48595462924027
30
0
0
SPLINE
5
DF
100
AcDbEntity
8
1
62
256
6
ByLayer
370
18
48
1
60
0
100
AcDbSpline
70
4
71
3
72
56
73
52
40
0
40
0
40
0
40
0
40
0.0016894216634164
40
0.0016894216634164
40
0.0400859823686718
40
0.0400859823686718
40
0.0592842627212998
40
0.0592842627212998
40
0.0784825430739278
40
0.0784825430739278
40
0.232068785894949
40
0.232068785894949
40
0.251267066247576
40
0.251267066247576
40
0.270465346600204
40
0.270465346600204
40
0.308861907305459
40
0.308861907305459
40
0.385655028715971
40
0.385655028715971
40
0.424051589421227
40
0.424051589421227
40
0.443249869773854
40
0.443249869773854
40
0.462448150126481
40
0.462448150126481
40
0.539241271536985
40
0.539241271536985
40
0.616034392947489
40
0.616034392947489
40
0.635232673300115
40
0.635232673300115
40
0.654430953652741
40
0.654430953652741
40
0.692827514357992
40
0.692827514357992
40
0.769620635768493
40
0.769620635768493
40
0.808017196473742
40
0.808017196473742
40
0.827215476826367
40
0.827215476826367
40
0.846413757178992
40
0.846413757178992
40
0.923206878589496
40
0.923206878589496
40
0.961603439294749
40
0.961603439294749
40
0.980801719647375
40
0.980801719647375
40
1
40
1
40
1
40
1
41
1
10
76.288591847972
20
3.67539293178572
30
0
41
1
10
76.3109298051241
20
3.68433672958389
30
0
41
1
10
76.3332698046286
20
3.69325607338038
30
0
41
1
10
76.8633959373435
20
3.90430709339463
30
0
41
1
10
77.3724140821445
20
4.09356090657849
30
0
41
1
10
78.1396201006268
20
4.35527278442407
30
0
41
1
10
78.3960342334459
20
4.43908386092642
30
0
41
1
10
78.9096805876478
20
4.59820887528946
30
0
41
1
10
79.1657293086638
20
4.67342808711959
30
0
41
1
10
81.4646206408829
20
5.3103167683739
30
0
41
1
10
83.4715760406702
20
5.58798404261645
30
0
41
1
10
85.7732421657099
20
5.53289048629617
30
0
41
1
10
86.0302205560866
20
5.52166072558822
30
0
41
1
10
86.5429921079099
20
5.48904881138236
30
0
41
1
10
86.7985943086231
20
5.46769081242408
30
0
41
1
10
87.5640820907413
20
5.38902427416471
30
0
41
1
10
88.0720765134935
20
5.31692999935044
30
0
41
1
10
89.5928151342641
20
5.04440776469292
30
0
41
1
10
90.6031665394221
20
4.78845537391064
30
0
41
1
10
92.1261215347895
20
4.30364510563533
30
0
41
1
10
92.6352656591707
20
4.12548267673208
30
0
41
1
10
93.4030627799374
20
3.83517874258283
30
0
41
1
10
93.6600207263255
20
3.73425644295546
30
0
41
1
10
94.171962956302
20
3.52646735222069
30
0
41
1
10
94.4273778065751
20
3.41969741108483
30
0
41
1
10
95.7009969303618
20
2.87054936846391
30
0
41
1
10
96.7120218636022
20
2.38726936162712
30
0
41
1
10
98.7355567381794
20
1.36297104959326
30
0
41
1
10
99.7489004342426
20
0.823421846020835
30
0
41
1
10
101.028941588765
20
0.134886194569447
30
0
41
1
10
101.285637436569
20
-0.0035176176889706
30
0
41
1
10
101.796896662676
20
-0.278530884243395
30
0
41
1
10
102.051730207669
20
-0.415870730972813
30
0
41
1
10
102.815053253674
20
-0.825071364574541
30
0
41
1
10
103.321970893771
20
-1.0948953811465
30
0
41
1
10
104.840237856359
20
-1.88927090932526
30
0
41
1
10
105.849359975962
20
-2.3982169153403
30
0
41
1
10
107.373064762584
20
-3.10458630425796
30
0
41
1
10
107.882506747176
20
-3.33075033674294
30
0
41
1
10
108.651096544814
20
-3.65233687469751
30
0
41
1
10
108.907254908026
20
-3.75605640546681
30
0
41
1
10
109.417477857266
20
-3.95621240811548
30
0
41
1
10
109.672062970444
20
-4.05242341160425
30
0
41
1
10
110.942606546057
20
-4.51415213566591
30
0
41
1
10
111.951232663561
20
-4.82166182187376
30
0
41
1
10
113.468360307407
20
-5.17469024623762
30
0
41
1
10
113.97452423903
20
-5.27456428249897
30
0
41
1
10
114.736433788986
20
-5.39581995145647
30
0
41
1
10
114.991000388766
20
-5.43140856703445
30
0
41
1
10
115.501043283068
20
-5.49294502644321
30
0
41
1
10
115.756849074413
20
-5.51882077053406
30
0
41
1
10
116.01311456187
20
-5.53961690214862
30
0
0
SPLINE
5
E0
100
AcDbEntity
8
1
62
256
6
ByLayer
370
18
48
1
60
0
100
AcDbSpline
70
4
71
3
72
10
73
6
40
0
40
0
40
0
40
0
40
0.5
40
0.5
40
1
40
1
40
1
40
1
41
1
10
116.466918132495
20
2.78815814024389
30
0
41
1
10
116.480515485042
20
2.98759727812677
30
0
41
1
10
116.506018180105
20
3.18474630034478
30
0
41
1
10
116.569398584824
20
3.5766638828382
30
0
41
1
10
116.607481488941
20
3.77139297183845
30
0
41
1
10
116.649365180859
20
3.96539094002696
30
0
0
SPLINE
5
E1
100
AcDbEntity
8
1
62
256
6
ByLayer
370
18
48
1
60
0
100
AcDbSpline
70
4
71
3
72
8
73
4
40
0
40
0
40
0
40
0
40
1
40
1
40
1
40
1
41
1
10
115.440465425847
20
0.587775208849621
30
0
41
1
10
115.731093235533
20
0.465213173509568
30
0
41
1
10
116.023833737233
20
0.353584048729118
30
0
41
1
10
116.318931169679
20
0.25415173867097
30
0
0
SPLINE
5
E2
100
AcDbEntity
8
1
62
256
6
ByLayer
370
18
48
1
60
0
100
AcDbSpline
70
4
71
3
72
30
73
26
40
0
40
0
40
0
40
0
40
0.0766388895336445
40
0.0766388895336445
40
0.115112269136409
40
0.115112269136409
40
0.153585648739173
40
0.153585648739173
40
0.230532407944702
40
0.230532407944702
40
0.307479167150231
40
0.307479167150231
40
0.384425926355759
40
0.384425926355759
40
0.538319444766819
40
0.538319444766819
40
0.692212963177878
40
0.692212963177878
40
0.769159722383408
40
0.769159722383408
40
0.846106481588939
40
0.846106481588939
40
0.923053240794469
40
0.923053240794469
40
1
40
1
40
1
40
1
41
1
10
5.93574311221539
20
5.26555358668631
30
0
41
1
10
6.06072616975763
20
5.2659985156595
30
0
41
1
10
6.2048223368601
20
5.2515524086659
30
0
41
1
10
6.44338861122475
20
5.21326619520258
30
0
41
1
10
6.52720654750098
20
5.19757568020449
30
0
41
1
10
6.69936039590584
20
5.16170680971484
30
0
41
1
10
6.78780720033569
20
5.14152705069597
30
0
41
1
10
7.05928916045812
20
5.07532297844091
30
0
41
1
10
7.2484044666094
20
5.02370024941115
30
0
41
1
10
7.63966638597702
20
4.90909088495934
30
0
41
1
10
7.84185272332675
20
4.84606166518287
30
0
41
1
10
8.2573608263142
20
4.71080011085297
30
0
41
1
10
8.4693563509087
20
4.63900310975706
30
0
41
1
10
9.11136568447546
20
4.41566600204274
30
0
41
1
10
9.5493829901981
20
4.25562039655335
30
0
41
1
10
10.4418626236599
20
3.91912882825866
30
0
41
1
10
10.8961711500514
20
3.74294272227823
30
0
41
1
10
11.5873462316287
20
3.47064473663579
30
0
41
1
10
11.8196016841422
20
3.3784089803479
30
0
41
1
10
12.2858267439926
20
3.19230020333629
30
0
41
1
10
12.519669511732
20
3.09862293067141
30
0
41
1
10
12.9889659481128
20
2.90931736820969
30
0
41
1
10
13.2244842822765
20
2.81343657974847
30
0
41
1
10
13.6969258873798
20
2.62037356935454
30
0
41
1
10
13.9338696146679
20
2.52311356957728
30
0
41
1
10
14.1714982201794
20
2.42520927391655
30
0
0
SPLINE
5
E3
100
AcDbEntity
8
1
62
256
6
ByLayer
370
13
48
1
60
0
100
AcDbSpline
70
4
71
3
72
34
73
30
40
0
40
0
40
0
40
0
40
0.139091726604165
40
0.139091726604165
40
0.208637589906246
40
0.208637589906246
40
0.243410521557287
40
0.243410521557287
40
0.278183453208327
40
0.278183453208327
40
0.417275179812489
40
0.417275179812489
40
0.556366906416652
40
0.556366906416652
40
0.591139838067691
40
0.591139838067691
40
0.625912769718731
40
0.625912769718731
40
0.695458633020811
40
0.695458633020811
40
0.834550359624971
40
0.834550359624971
40
0.86932329127601
40
0.86932329127601
40
0.90409622292705
40
0.90409622292705
40
0.973642086229128
40
0.973642086229128
40
1
40
1
40
1
40
1
41
1
10
115.914872698498
20
-5.21519174752305
30
0
41
1
10
114.758369929072
20
-5.03131427018764
30
0
41
1
10
113.61418632918
20
-4.7519545773184
30
0
41
1
10
111.896547595538
20
-4.21174936511824
30
0
41
1
10
111.323766489561
20
-4.01147006278677
30
0
41
1
10
110.461619201217
20
-3.68382330548385
30
0
41
1
10
110.173738986554
20
-3.57007038252772
30
0
41
1
10
109.596565920298
20
-3.33397626736658
30
0
41
1
10
109.306843486736
20
-3.21144731922325
30
0
41
1
10
107.858480196047
20
-2.58081772209042
30
0
41
1
10
106.715286834234
20
-2.0257431444214
30
0
41
1
10
104.432586955949
20
-0.866274770345512
30
0
41
1
10
103.293165398546
20
-0.26161193365445
30
0
41
1
10
101.854511253401
20
0.49304841786747
30
0
41
1
10
101.566060079732
20
0.643921283850744
30
0
41
1
10
100.987280574788
20
0.944712483895984
30
0
41
1
10
100.696801048005
20
1.09466919980085
30
0
41
1
10
99.8295354717546
20
1.53791961274615
30
0
41
1
10
99.2543958130287
20
1.82592094096728
30
0
41
1
10
97.53285524188
20
2.65822597408962
30
0
41
1
10
96.3904249424371
20
3.171009895552
30
0
41
1
10
94.9520254604711
20
3.7313828116209
30
0
41
1
10
94.663829994996
20
3.83941063518248
30
0
41
1
10
94.0859687332204
20
4.04666900817853
30
0
41
1
10
93.7958170437532
20
4.14606112618844
30
0
41
1
10
92.9259786458632
20
4.42913236508662
30
0
41
1
10
92.3494737845506
20
4.59670138692326
30
0
41
1
10
91.5567472600922
20
4.79660379575188
30
0
41
1
10
91.3391211607603
20
4.84830206655411
30
0
41
1
10
91.1216468921149
20
4.89670346184897
30
0
0
SPLINE
5
E4
100
AcDbEntity
8
1
62
256
6
ByLayer
370
18
48
1
60
0
100
AcDbSpline
70
4
71
3
72
12
73
8
40
0
40
0
40
0
40
0
40
0.154428949403271
40
0.154428949403271
40
0.998312066060129
40
0.998312066060129
40
1
40
1
40
1
40
1
41
1
10
54.0191621767849
20
-5.3510948992176
30
0
41
1
10
53.9139532040099
20
-5.35074089350977
30
0
41
1
10
53.8087233414299
20
-5.34955639876492
30
0
41
1
10
53.1282597279997
20
-5.33652318514169
30
0
41
1
10
52.5521215463282
20
-5.30064473294604
30
0
41
1
10
51.9722269235791
20
-5.23979184790556
30
0
41
1
10
51.9710693236797
20
-5.239670273211
30
0
41
1
10
51.9699117129511
20
-5.23954859871438
30
0
0
SPLINE
5
E5
100
AcDbEntity
8
1
62
256
6
ByLayer
370
13
48
1
60
0
100
AcDbSpline
70
4
71
3
72
36
73
32
40
0
40
0
40
0
40
0
40
0.0337879037799279
40
0.0337879037799279
40
0.0677115154640479
40
0.0677115154640479
40
0.203405962200529
40
0.203405962200529
40
0.271253185568769
40
0.271253185568769
40
0.30517679725289
40
0.30517679725289
40
0.33910040893701
40
0.33910040893701
40
0.474794855673494
40
0.474794855673494
40
0.610489302409979
40
0.610489302409979
40
0.6444129140941
40
0.6444129140941
40
0.678336525778222
40
0.678336525778222
40
0.746183749146466
40
0.746183749146466
40
0.881878195882954
40
0.881878195882954
40
0.915801807567076
40
0.915801807567076
40
0.949725419251197
40
0.949725419251197
40
1
40
1
40
1
40
1
41
1
10
51.9699117136153
20
-5.23954859878418
30
0
41
1
10
51.6816953958918
20
-5.20925467138872
30
0
41
1
10
51.3928077853459
20
-5.17277415043606
30
0
41
1
10
50.8121917995111
20
-5.08735848320214
30
0
41
1
10
50.5213078187659
20
-5.03848939053356
30
0
41
1
10
49.0723319492576
20
-4.76582272574245
30
0
41
1
10
47.9242182725029
20
-4.45611103933715
30
0
41
1
10
46.1986057593887
20
-3.87761124452638
30
0
41
1
10
45.6228511913873
20
-3.66581474159204
30
0
41
1
10
44.7558395039913
20
-3.32282831814663
30
0
41
1
10
44.4662715914195
20
-3.20428992063711
30
0
41
1
10
43.885624930146
20
-2.95931029149176
30
0
41
1
10
43.5939641223468
20
-2.83265321858809
30
0
41
1
10
42.1410214167832
20
-2.18582603061284
30
0
41
1
10
40.9913839075019
20
-1.62346707231939
30
0
41
1
10
38.6904485490769
20
-0.461088958926951
30
0
41
1
10
37.5394676976726
20
0.139510554906906
30
0
41
1
10
36.0829559252809
20
0.880927381442802
30
0
41
1
10
35.7919917264657
20
1.02814428942344
30
0
41
1
10
35.2119982226596
20
1.31881284230406
30
0
41
1
10
34.9226822931608
20
1.46235841645378
30
0
41
1
10
34.0561365760964
20
1.88646298342903
30
0
41
1
10
33.480411811554
20
2.16072744785126
30
0
41
1
10
31.7537811531369
20
2.94850615574299
30
0
41
1
10
30.6038624965054
20
3.42780931299893
30
0
41
1
10
29.1509220048571
20
3.94061622433043
30
0
41
1
10
28.8590155442562
20
4.03911304571309
30
0
41
1
10
28.2771731473978
20
4.22551438252756
30
0
41
1
10
27.9870321910328
20
4.31348158159358
30
0
41
1
10
27.2683544558718
20
4.51851771073925
30
0
41
1
10
26.840566987609
20
4.62924519749168
30
0
41
1
10
26.4133649280256
20
4.72765722242229
30
0
0
SPLINE
5
E6
100
AcDbEntity
8
1
62
256
6
ByLayer
370
18
48
1
60
0
100
AcDbSpline
70
4
71
3
72
36
73
32
40
0
40
0
40
0
40
0
40
0.103972140757995
40
0.103972140757995
40
0.155958211136995
40
0.155958211136995
40
0.207944281515994
40
0.207944281515994
40
0.311916422273998
40
0.311916422273998
40
0.415888563032002
40
0.415888563032002
40
0.519860703790005
40
0.519860703790005
40
0.57184677416901
40
0.57184677416901
40
0.623832844548013
40
0.623832844548013
40
0.675818914927018
40
0.675818914927018
40
0.727804985306022
40
0.727804985306022
40
0.779791055685025
40
0.779791055685025
40
0.83177712606403
40
0.83177712606403
40
0.935749266822033
40
0.935749266822033
40
0.987735337201037
40
0.987735337201037
40
1
40
1
40
1
40
1
41
1
10
115.440465425847
20
0.587775208849592
30
0
41
1
10
114.915913867231
20
0.862938603578925
30
0
41
1
10
114.393752871251
20
1.13434310068922
30
0
41
1
10
113.612499261365
20
1.53296783685497
30
0
41
1
10
113.352290171114
20
1.66414989132318
30
0
41
1
10
112.832421713738
20
1.92298378409549
30
0
41
1
10
112.572774036996
20
2.05066295112738
30
0
41
1
10
111.793459159214
20
2.42677837840188
30
0
41
1
10
111.274039438033
20
2.66941928412973
30
0
41
1
10
110.232980938483
20
3.13315597054188
30
0
41
1
10
109.711118236616
20
3.35439936697921
30
0
41
1
10
108.662377568343
20
3.77172578039037
30
0
41
1
10
108.135761306978
20
3.9682973770702
30
0
41
1
10
107.339791631717
20
4.23845232041575
30
0
41
1
10
107.074394737359
20
4.32411925300576
30
0
41
1
10
106.545690563934
20
4.4869754637576
30
0
41
1
10
106.281943387679
20
4.56399854294998
30
0
41
1
10
105.755237787173
20
4.70879898303215
30
0
41
1
10
105.492497896236
20
4.77680955694021
30
0
41
1
10
104.967391456877
20
4.90304316962781
30
0
41
1
10
104.705174796563
20
4.96152945844221
30
0
41
1
10
104.18125147453
20
5.0673436617972
30
0
41
1
10
103.919322938031
20
5.11479647114032
30
0
41
1
10
103.39562510067
20
5.20112696804742
30
0
41
1
10
103.133689037397
20
5.23959122501367
30
0
41
1
10
102.347312402344
20
5.33948704207756
30
0
41
1
10
101.822542522221
20
5.3865553309584
30
0
41
1
10
101.032345409001
20
5.42500097189682
30
0
41
1
10
100.768307748341
20
5.43192306994638
30
0
41
1
10
100.441315265524
20
5.43413837968441
30
0
41
1
10
100.378830924048
20
5.43428864930073
30
0
41
1
10
100.316299398288
20
5.43415762740474
30
0
0
SPLINE
5
E7
100
AcDbEntity
8
1
62
256
6
ByLayer
370
18
48
1
60
0
100
AcDbSpline
70
4
71
3
72
102
73
98
40
0
40
0
40
0
40
0
40
0.0080027910946218
40
0.0080027910946218
40
0.0466621775752984
40
0.0466621775752984
40
0.085321564055975
40
0.085321564055975
40
0.123980950536652
40
0.123980950536652
40
0.14331064377699
40
0.14331064377699
40
0.162640337017328
40
0.162640337017328
40
0.181970030257667
40
0.181970030257667
40
0.201299723498005
40
0.201299723498005
40
0.220629416738343
40
0.220629416738343
40
0.239959109978682
40
0.239959109978682
40
0.25928880321902
40
0.25928880321902
40
0.278618496459358
40
0.278618496459358
40
0.297948189699697
40
0.297948189699697
40
0.317277882940035
40
0.317277882940035
40
0.336607576180373
40
0.336607576180373
40
0.355937269420712
40
0.355937269420712
40
0.37526696266105
40
0.37526696266105
40
0.394596655901388
40
0.394596655901388
40
0.413926349141726
40
0.413926349141726
40
0.433256042382065
40
0.433256042382065
40
0.452585735622403
40
0.452585735622403
40
0.471915428862741
40
0.471915428862741
40
0.49124512210308
40
0.49124512210308
40
0.510574815343418
40
0.510574815343418
40
0.529904508583756
40
0.529904508583756
40
0.549234201824095
40
0.549234201824095
40
0.568563895064433
40
0.568563895064433
40
0.587893588304771
40
0.587893588304771
40
0.626552974785449
40
0.626552974785449
40
0.645882668025787
40
0.645882668025787
40
0.665212361266126
40
0.665212361266126
40
0.684542054506465
40
0.684542054506465
40
0.703871747746803
40
0.703871747746803
40
0.723201440987142
40
0.723201440987142
40
0.74253113422748
40
0.74253113422748
40
0.761860827467819
40
0.761860827467819
40
0.781190520708157
40
0.781190520708157
40
0.800520213948496
40
0.800520213948496
40
0.819849907188835
40
0.819849907188835
40
0.839179600429173
40
0.839179600429173
40
0.858509293669512
40
0.858509293669512
40
0.877838986909851
40
0.877838986909851
40
0.897168680150189
40
0.897168680150189
40
0.916498373390528
40
0.916498373390528
40
0.935828066630866
40
0.935828066630866
40
0.974487453111545
40
0.974487453111545
40
0.993817146351883
40
0.993817146351883
40
1
40
1
40
1
40
1
41
1
10
76.3315149058224
20
-3.6693147249029
30
0
41
1
10
76.2218076984996
20
-3.71110926821174
30
0
41
1
10
76.1122068033163
20
-3.75224495837983
30
0
41
1
10
75.4738133248036
20
-3.98813470800218
30
0
41
1
10
74.9475112658851
20
-4.16700679984737
30
0
41
1
10
73.8963945243614
20
-4.49203017182307
30
0
41
1
10
73.3718897687075
20
-4.63627235147524
30
0
41
1
10
72.3223838774971
20
-4.89013608151944
30
0
41
1
10
71.7974343238874
20
-4.99778724483627
30
0
41
1
10
71.0075266898009
20
-5.13100061282512
30
0
41
1
10
70.7438384130835
20
-5.17070343068889
30
0
41
1
10
70.2154663057667
20
-5.23937090369753
30
0
41
1
10
69.9505663860064
20
-5.26834051710685
30
0
41
1
10
69.4196660388465
20
-5.31691598891828
30
0
41
1
10
69.1532254821994
20
-5.33643017722508
30
0
41
1
10
68.6227514980691
20
-5.36360465777852
30
0
41
1
10
68.358432531843
20
-5.37139114052383
30
0
41
1
10
67.8303435277553
20
-5.37762631072221
30
0
41
1
10
67.5668376710893
20
-5.37572402904229
30
0
41
1
10
67.040646879695
20
-5.3608481792657
30
0
41
1
10
66.7778509968636
20
-5.34765678510681
30
0
41
1
10
66.2528033561141
20
-5.31210653179585
30
0
41
1
10
65.9903660863177
20
-5.28954467645551
30
0
41
1
10
65.4656468760435
20
-5.23377023042204
30
0
41
1
10
65.2034802750047
20
-5.20020327191935
30
0
41
1
10
64.6785751907502
20
-5.12384957911536
30
0
41
1
10
64.4160745391343
20
-5.08114677257353
30
0
41
1
10
63.8904548295372
20
-4.98550684084867
30
0
41
1
10
63.6272863193457
20
-4.93248955105557
30
0
41
1
10
63.1002879188189
20
-4.81640681721819
30
0
41
1
10
62.8362366558143
20
-4.75420446409936
30
0
41
1
10
62.3071049907192
20
-4.61998024865775
30
0
41
1
10
62.0419971325296
20
-4.54791021473525
30
0
41
1
10
61.5099480246625
20
-4.39410349798786
30
0
41
1
10
61.2439748904685
20
-4.31294396034698
30
0
41
1
10
60.7137585512891
20
-4.14335776521301
30
0
41
1
10
60.4492778814954
20
-4.05459273047569
30
0
41
1
10
59.9215099734646
20
-3.86885519478852
30
0
41
1
10
59.6579248842741
20
-3.77257462687436
30
0
41
1
10
59.1315042091566
20
-3.57363580311611
30
0
41
1
10
58.8686193306759
20
-3.47063513196272
30
0
41
1
10
58.3430941543459
20
-3.25779401257205
30
0
41
1
10
58.0806326792162
20
-3.14781894749075
30
0
41
1
10
57.5553300860926
20
-2.92322562732437
30
0
41
1
10
57.2926825080549
20
-2.80815954987406
30
0
41
1
10
56.767134001947
20
-2.57194620322704
30
0
41
1
10
56.5040479440061
20
-2.45130530290879
30
0
41
1
10
55.9774948136096
20
-2.20508530134711
30
0
41
1
10
55.7138341825757
20
-2.07998205932793
30
0
41
1
10
55.185499524883
20
-1.82514911405082
30
0
41
1
10
54.9209476865394
20
-1.69505763959179
30
0
41
1
10
54.390279560237
20
-1.432211322363
30
0
41
1
10
54.1240213317361
20
-1.29878360816511
30
0
41
1
10
53.5916667567206
20
-1.02978597869969
30
0
41
1
10
53.3258516919043
20
-0.894274686476393
30
0
41
1
10
52.7946985705012
20
-0.621850747956614
30
0
41
1
10
52.5291403677678
20
-0.48535531933365
30
0
41
1
10
51.7328033002578
20
-0.0744298151854821
30
0
41
1
10
51.2021488005301
20
0.201141527015125
30
0
41
1
10
50.4040451790242
20
0.611818156895254
30
0
41
1
10
50.1373600909747
20
0.748538496183301
30
0
41
1
10
49.60610828553
20
1.01932951818864
30
0
41
1
10
49.3409154124171
20
1.15320630940337
30
0
41
1
10
48.8117634583302
20
1.41853559970627
30
0
41
1
10
48.5476597611609
20
1.54969541690608
30
0
41
1
10
48.0203508222912
20
1.80760667934601
30
0
41
1
10
47.757169220268
20
1.93499271722266
30
0
41
1
10
47.2308267645259
20
2.18532219940238
30
0
41
1
10
46.9678612941614
20
2.30864827219267
30
0
41
1
10
46.4422061352064
20
2.54984858254474
30
0
41
1
10
46.1793115023385
20
2.66758023580513
30
0
41
1
10
45.653482221884
20
2.89891901641505
30
0
41
1
10
45.3903689319331
20
3.01203904188767
30
0
41
1
10
44.8636352812258
20
3.23194913247795
30
0
41
1
10
44.6001128098427
20
3.3385498109304
30
0
41
1
10
44.071909252387
20
3.54580797829749
30
0
41
1
10
43.8074753644577
20
3.64664493236555
30
0
41
1
10
43.2773422386687
20
3.84102823078359
30
0
41
1
10
43.0115379808091
20
3.93402312856938
30
0
41
1
10
42.4786751420073
20
4.11334792270429
30
0
41
1
10
42.2124248257927
20
4.19911019413843
30
0
41
1
10
41.6818349692086
20
4.36133473446097
30
0
41
1
10
41.4172690848646
20
4.4377798874072
30
0
41
1
10
40.8887444981911
20
4.58172742399447
30
0
41
1
10
40.6250179351869
20
4.64954882479913
30
0
41
1
10
40.0980091516995
20
4.77533202133262
30
0
41
1
10
39.8348177189471
20
4.83326508605725
30
0
41
1
10
39.3088170531485
20
4.93988939314582
30
0
41
1
10
39.0457857190113
20
4.98858385629478
30
0
41
1
10
38.5199821821551
20
5.07631091674645
30
0
41
1
10
38.2570720392685
20
5.11502144916273
30
0
41
1
10
37.4676017130041
20
5.21595468458594
30
0
41
1
10
36.940729534493
20
5.2644486389564
30
0
41
1
10
36.14738316353
20
5.30446007381934
30
0
41
1
10
35.8823021195288
20
5.31263726154486
30
0
41
1
10
35.5317804717458
20
5.31690054620242
30
0
41
1
10
35.446710078984
20
5.31739982670484
30
0
41
1
10
35.3615680556101
20
5.31735179536378
30
0
0
SPLINE
5
E8
100
AcDbEntity
8
1
62
256
6
ByLayer
370
18
48
1
60
0
100
AcDbSpline
70
4
71
3
72
10
73
6
40
0
40
0
40
0
40
0
40
0.5
40
0.5
40
1
40
1
40
1
40
1
41
1
10
5.35901981486327
20
-4.84767651969614
30
0
41
1
10
5.38591127565525
20
-4.80088718588149
30
0
41
1
10
5.41815429646937
20
-4.75138698452363
30
0
41
1
10
5.49084100460348
20
-4.6499034049933
30
0
41
1
10
5.53140752266432
20
-4.59766622678822
30
0
41
1
10
5.57574416729881
20
-4.54410115767845
30
0
0
SPLINE
5
E9
100
AcDbEntity
8
1
62
256
6
ByLayer
370
18
48
1
60
0
100
AcDbSpline
70
4
71
3
72
12
73
8
40
0
40
0
40
0
40
0
40
0.431401507024831
40
0.431401507024831
40
0.862803014049662
40
0.862803014049662
40
1
40
1
40
1
40
1
41
1
10
18.2089132893904
20
-5.34448394785198
30
0
41
1
10
18.4667452136947
20
-5.36810831017291
30
0
41
1
10
18.7239612479106
20
-5.38661239539738
30
0
41
1
10
19.2375215248903
20
-5.4135725913869
30
0
41
1
10
19.4934845988818
20
-5.42208540407745
30
0
41
1
10
19.8304433154748
20
-5.42672489591797
30
0
41
1
10
19.9117049434104
20
-5.42734192030846
30
0
41
1
10
19.992927795075
20
-5.42745786074789
30
0
0
SPLINE
5
EA
100
AcDbEntity
8
1
62
256
6
ByLayer
370
18
48
1
60
0
100
AcDbSpline
70
4
71
3
72
52
73
48
40
0
40
0
40
0
40
0
40
0.0481311462480911
40
0.0481311462480911
40
0.085212174365869
40
0.085212174365869
40
0.103752688424758
40
0.103752688424758
40
0.122293202483647
40
0.122293202483647
40
0.1964552587192
40
0.1964552587192
40
0.270617314954753
40
0.270617314954753
40
0.289157829013642
40
0.289157829013642
40
0.30769834307253
40
0.30769834307253
40
0.344779371190307
40
0.344779371190307
40
0.41894142742586
40
0.41894142742586
40
0.456022455543637
40
0.456022455543637
40
0.474562969602525
40
0.474562969602525
40
0.493103483661414
40
0.493103483661414
40
0.56726553989697
40
0.56726553989697
40
0.641427596132525
40
0.641427596132525
40
0.659968110191414
40
0.659968110191414
40
0.678508624250303
40
0.678508624250303
40
0.715589652368082
40
0.715589652368082
40
0.789751708603639
40
0.789751708603639
40
0.826832736721418
40
0.826832736721418
40
0.845373250780307
40
0.845373250780307
40
0.863913764839195
40
0.863913764839195
40
1
40
1
40
1
40
1
41
1
10
43.8030533555368
20
3.64895189048986
30
0
41
1
10
44.4626079951772
20
3.90951033556894
30
0
41
1
10
45.120912311441
20
4.14767056264191
30
0
41
1
10
46.2893220989806
20
4.52268408404456
30
0
41
1
10
46.7984946952971
20
4.67059733116167
30
0
41
1
10
47.5651884993182
20
4.86707995230819
30
0
41
1
10
47.821378657594
20
4.92821956869614
30
0
41
1
10
48.3349520089195
20
5.04174771008573
30
0
41
1
10
48.5926677003766
20
5.09418845937412
30
0
41
1
10
49.8765590854367
20
5.33112157431643
30
0
41
1
10
50.8924194445864
20
5.44310859620342
30
0
41
1
10
52.9229999042809
20
5.50856363442614
30
0
41
1
10
53.9366609284339
20
5.46216610684141
30
0
41
1
10
55.2148537862595
20
5.30512806581069
30
0
41
1
10
55.4709596945833
20
5.26873928180538
30
0
41
1
10
55.9845430846691
20
5.18605318996458
30
0
41
1
10
56.242234204301
20
5.13981440259423
30
0
41
1
10
57.011384389163
20
4.98726982963362
30
0
41
1
10
57.5216233278108
20
4.86734821232938
30
0
41
1
10
59.0483992599913
20
4.45733877737987
30
0
41
1
10
60.0602967062255
20
4.11615723194743
30
0
41
1
10
61.584551931013
20
3.52134912394371
30
0
41
1
10
62.0936460172577
20
3.30920480248267
30
0
41
1
10
62.8603910678999
20
2.9721045959582
30
0
41
1
10
63.1165179657239
20
2.85663090980813
30
0
41
1
10
63.6303400032275
20
2.62019104287182
30
0
41
1
10
63.8874449433423
20
2.49899083149307
30
0
41
1
10
65.1681185072243
20
1.88549533260704
30
0
41
1
10
66.1824057131251
20
1.36398130283072
30
0
41
1
10
68.2102886329752
20
0.296947940074318
30
0
41
1
10
69.2237151673061
20
-0.248884907073006
30
0
41
1
10
70.5018757022263
20
-0.923681010915118
30
0
41
1
10
70.758171615005
20
-1.05807531101863
30
0
41
1
10
71.2719666712809
20
-1.32600902855418
30
0
41
1
10
71.528645734534
20
-1.45853009873753
30
0
41
1
10
72.2960886415012
20
-1.85081774953338
30
0
41
1
10
72.8051802164278
20
-2.10556340926769
30
0
41
1
10
74.3288985047898
20
-2.84267942893183
30
0
41
1
10
75.3400468330121
20
-3.29783948874942
30
0
41
1
10
76.8633989096179
20
-3.90430822346852
30
0
41
1
10
77.3724170878542
20
-4.09356199178794
30
0
41
1
10
78.1396231580501
20
-4.35527379743641
30
0
41
1
10
78.3960373180356
20
-4.43908485069579
30
0
41
1
10
78.9096836875784
20
-4.5982098014525
30
0
41
1
10
79.165732414406
20
-4.67342898330654
30
0
41
1
10
81.2960227761998
20
-5.26360787277684
30
0
41
1
10
83.140152367023
20
-5.5402013484335
30
0
41
1
10
85.0118447147755
20
-5.54448434893433
30
0
0
SPLINE
5
EB
100
AcDbEntity
8
1
62
256
6
ByLayer
370
18
48
1
60
0
100
AcDbSpline
70
4
71
3
72
18
73
14
40
0
40
0
40
0
40
0
40
0.0508202764337621
40
0.0508202764337621
40
0.156284690163344
40
0.156284690163344
40
0.578142345081668
40
0.578142345081668
40
0.789071172540834
40
0.789071172540834
40
0.894535586270418
40
0.894535586270418
40
1
40
1
40
1
40
1
41
1
10
108.792961892202
20
3.70894395743855
30
0
41
1
10
108.916266113099
20
3.75884126045648
30
0
41
1
10
109.039440103364
20
3.80791152261588
30
0
41
1
10
109.417482489888
20
3.95621418275704
30
0
41
1
10
109.672067611882
20
4.05242514162848
30
0
41
1
10
110.942611217599
20
4.51415366024071
30
0
41
1
10
111.951237386512
20
4.82166314491732
30
0
41
1
10
113.468365113941
20
5.17469125267687
30
0
41
1
10
113.974529077459
20
5.27456517725031
30
0
41
1
10
114.736438685519
20
5.39582066835968
30
0
41
1
10
114.991005305928
20
5.43140922349787
30
0
41
1
10
115.50104823836
20
5.49294556108612
30
0
41
1
10
115.756876246987
20
5.51882297560834
30
0
41
1
10
116.01311456187
20
5.53961690214862
30
0
0
SPLINE
5
EC
100
AcDbEntity
8
1
62
256
6
ByLayer
370
18
48
1
60
0
100
AcDbSpline
70
4
71
3
72
8
73
4
40
0
40
0
40
0
40
0
40
1
40
1
40
1
40
1
41
1
10
117.999622281968
20
-0.122844530542523
30
0
41
1
10
117.798076058592
20
-0.640916900182219
30
0
41
1
10
117.607136402899
20
-1.16673172796192
30
0
41
1
10
117.423704342649
20
-1.69912424324068
30
0
0
SPLINE
5
ED
100
AcDbEntity
8
1
62
256
6
ByLayer
370
13
48
1
60
0
100
AcDbSpline
70
4
71
3
72
88
73
84
40
0
40
0
40
0
40
0
40
0.018226884402844
40
0.0244143963572134
40
0.0367894202659519
40
0.0491644441746909
40
0.0677269800377988
40
0.0739144919921683
40
0.0862895159009068
40
0.0986645398096458
40
0.117227075672754
40
0.123414587627123
40
0.135789611535862
40
0.148164635444601
40
0.166727171307709
40
0.172914683262078
40
0.185289707170817
40
0.197664731079556
40
0.216227266942664
40
0.222414778897033
40
0.234789802805771
40
0.247164826714511
40
0.265727362577618
40
0.271914874531988
40
0.284289898440726
40
0.296664922349465
40
0.315227458212573
40
0.321414970166943
40
0.333789994075681
40
0.34616501798442
40
0.364727553847528
40
0.370915065801898
40
0.383290089710636
40
0.395665113619375
40
0.414227649482483
40
0.420415161436853
40
0.432790185345591
40
0.44516520925433
40
0.463727745117438
40
0.469915257071807
40
0.482290280980546
40
0.494665304889285
40
0.513227840752393
40
0.519415352706762
40
0.531790376615501
40
0.54416540052424
40
0.562727936387348
40
0.568915448341717
40
0.581290472250456
40
0.593665496159195
40
0.612228032022303
40
0.618415543976672
40
0.630790567885411
40
0.64316559179415
40
0.661728127657258
40
0.667915639611627
40
0.680290663520366
40
0.692665687429105
40
0.711228223292213
40
0.717415735246582
40
0.729790759155321
40
0.742165783064059
40
0.760728318927168
40
0.766915830881537
40
0.779290854790276
40
0.791665878699014
40
0.810228414562123
40
0.816415926516492
40
0.828790950425231
40
0.841165974333969
40
0.859728510197078
40
0.865916022151447
40
0.878291046060186
40
0.890666069968924
40
0.909228605832033
40
0.915416117786402
40
0.92779114169514
40
0.940166165603879
40
0.958728701466987
40
0.964916213421357
40
0.977291237330095
40
0.989666261238834
40
1
40
1
40
1
40
1
41
1
10
105.430194588711
20
-2.195145805343
30
0
41
1
10
105.303619103454
20
-2.20748111098132
30
0
41
1
10
105.134063179682
20
-2.22335431623148
30
0
41
1
10
104.878569522711
20
-2.2459357485252
30
0
41
1
10
104.663739846739
20
-2.26402062385503
30
0
41
1
10
104.362973338424
20
-2.28768602233336
30
0
41
1
10
104.105142955678
20
-2.30624496727918
30
0
41
1
10
103.847318554149
20
-2.32338908156848
30
0
41
1
10
103.632489181778
20
-2.33673268006129
30
0
41
1
10
103.331723220128
20
-2.35370969710127
30
0
41
1
10
103.073893365381
20
-2.36649583152217
30
0
41
1
10
102.81606946514
20
-2.37782877468339
30
0
41
1
10
102.601240434088
20
-2.38629695072996
30
0
41
1
10
102.300474706903
20
-2.3964079274848
30
0
41
1
10
102.042644739719
20
-2.40327931906651
30
0
41
1
10
101.78482040127
20
-2.40866792185472
30
0
41
1
10
101.56999082931
20
-2.41215588740644
30
0
41
1
10
101.269224241216
20
-2.41527114918688
30
0
41
1
10
101.01139361128
20
-2.41614083212835
30
0
41
1
10
100.753568905684
20
-2.41552595695916
30
0
41
1
10
100.538739216236
20
-2.41400422873736
30
0
41
1
10
100.237972703785
20
-2.41011240800467
30
0
41
1
10
99.9801423326983
20
-2.4049953252526
30
0
41
1
10
99.7223179527016
20
-2.398404371243
30
0
41
1
10
99.5074886099495
20
-2.39190279935647
30
0
41
1
10
99.2067227156946
20
-2.3810577097743
30
0
41
1
10
98.9488929433945
20
-2.37001192806559
30
0
41
1
10
98.6910691429301
20
-2.35751314991845
30
0
41
1
10
98.4762402009845
20
-2.34609583495771
30
0
41
1
10
98.1754746026469
20
-2.32839937772076
30
0
41
1
10
97.9176447482874
20
-2.31152424769951
30
0
41
1
10
97.6598205219357
20
-2.29322728503698
30
0
41
1
10
97.4449910359291
20
-2.27699302977317
30
0
41
1
10
97.1442245476127
20
-2.25260006859836
30
0
41
1
10
96.8863939822445
20
-2.2300492554968
30
0
41
1
10
96.6285693249189
20
-2.20613045482801
30
0
41
1
10
96.4137396617394
20
-2.18524244825105
30
0
41
1
10
96.112973157361
20
-2.15440609453614
30
0
41
1
10
95.8551427645191
20
-2.12641742360338
30
0
41
1
10
95.5973183415406
20
-2.09712686874804
30
0
41
1
10
95.3824889521496
20
-2.07180119205773
30
0
41
1
10
95.0817229764328
20
-2.03483661331381
30
0
41
1
10
94.8238931187343
20
-2.00169246734964
30
0
41
1
10
94.5660692232073
20
-1.96732310654107
30
0
41
1
10
94.3512401942304
20
-1.93781148836771
30
0
41
1
10
94.0504744598521
20
-1.8950833822648
30
0
41
1
10
93.7926444769452
20
-1.85710815025814
30
0
41
1
10
93.5348201148076
20
-1.81799457590688
30
0
41
1
10
93.3199905251762
20
-1.78458337495488
30
0
41
1
10
93.0192239234131
20
-1.73650630712635
30
0
41
1
10
92.7613932924529
20
-1.6940701206787
30
0
41
1
10
92.5035685945028
20
-1.65059699091339
30
0
41
1
10
92.2887389134959
20
-1.61361724872921
30
0
41
1
10
91.9879724133071
20
-1.56067068972129
30
0
41
1
10
91.730142053758
20
-1.51419865064179
30
0
41
1
10
91.4723176860135
20
-1.46680125141694
30
0
41
1
10
91.257488355791
20
-1.42662282742668
30
0
41
1
10
90.9567224846552
20
-1.36933586238834
30
0
41
1
10
90.6988927371585
20
-1.31929207145328
30
0
41
1
10
90.4410689645874
20
-1.26844377378049
30
0
41
1
10
90.226240047907
20
-1.22546793642283
30
0
41
1
10
89.9254744886237
20
-1.16441281342742
30
0
41
1
10
89.6676446713203
20
-1.11129749881522
30
0
41
1
10
89.4098204856689
20
-1.0575070552722
30
0
41
1
10
89.194991023889
20
-1.0121641857578
30
0
41
1
10
88.8942245412155
20
-0.947951581275447
30
0
41
1
10
88.6363939546833
20
-0.892293528164942
30
0
41
1
10
88.3785692580876
20
-0.836092479193439
30
0
41
1
10
88.163739555247
20
-0.788827735434808
30
0
41
1
10
87.8629729904235
20
-0.722084540802285
30
0
41
1
10
87.6051425442699
20
-0.664425421620876
30
0
41
1
10
87.3473180725972
20
-0.606361843134891
30
0
41
1
10
87.1324886402904
20
-0.557637419628264
30
0
41
1
10
86.8317225974421
20
-0.489018843101803
30
0
41
1
10
86.573892679659
20
-0.429927555508499
30
0
41
1
10
86.3160687260945
20
-0.370576854781092
30
0
41
1
10
86.101239659634
20
-0.320877174195601
30
0
41
1
10
85.8004739071272
20
-0.251068449400208
30
0
41
1
10
85.5426439492885
20
-0.191138499740958
30
0
41
1
10
85.2848196478326
20
-0.131099708504195
30
0
41
1
10
85.069990162013
20
-0.0809283147647477
30
0
41
1
10
84.8263652901805
20
-0.0239917535360235
30
0
41
1
10
84.6686599167451
20
0.01282302691871
30
0
41
1
10
84.5968944018827
20
0.0295698289185111
30
0
0
SPLINE
5
EE
100
AcDbEntity
8
1
62
256
6
ByLayer
370
13
48
1
60
0
100
AcDbSpline
70
4
71
3
72
89
73
85
40
0
40
0
40
0
40
0
40
0.0002792725322446
40
0.0188180676491104
40
0.0249976660213992
40
0.0373568627659762
40
0.0497160595105538
40
0.0682548546274196
40
0.0744344529997084
40
0.0867936497442854
40
0.0991528464888635
40
0.117691641605729
40
0.123871239978017
40
0.136230436722595
40
0.148589633467173
40
0.167128428584038
40
0.173308026956327
40
0.185667223700904
40
0.198026420445481
40
0.216565215562347
40
0.222744813934636
40
0.235104010679213
40
0.247463207423791
40
0.266002002540656
40
0.272181600912945
40
0.284540797657522
40
0.2968999944021
40
0.315438789518965
40
0.321618387891254
40
0.333977584635831
40
0.346336781380409
40
0.364875576497274
40
0.371055174869563
40
0.383414371614141
40
0.395773568358718
40
0.414312363475584
40
0.420491961847873
40
0.43285115859245
40
0.445210355337027
40
0.463749150453893
40
0.469928748826182
40
0.482287945570759
40
0.494647142315336
40
0.513185937432203
40
0.519365535804491
40
0.531724732549068
40
0.544083929293645
40
0.562622724410512
40
0.5688023227828
40
0.581161519527377
40
0.593520716271954
40
0.612059511388821
40
0.618239109761109
40
0.630598306505687
40
0.642957503250264
40
0.661496298367129
40
0.667675896739419
40
0.680035093483996
40
0.692394290228573
40
0.710933085345439
40
0.717112683717728
40
0.729471880462305
40
0.741831077206882
40
0.760369872323748
40
0.766549470696037
40
0.778908667440614
40
0.791267864185192
40
0.809806659302057
40
0.815986257674346
40
0.828345454418923
40
0.8407046511635
40
0.859243446280366
40
0.865423044652655
40
0.877782241397232
40
0.89014143814181
40
0.908680233258676
40
0.914859831630965
40
0.927219028375542
40
0.939578225120119
40
0.958117020236985
40
0.964296618609274
40
0.976655815353851
40
0.989015012098428
40
1
40
1
40
1
40
1
41
1
10
40.4742619730303
20
-2.1908032928105
30
0
41
1
10
40.472320107993
20
-2.19099431337673
30
0
41
1
10
40.3414723450891
20
-2.2038580963962
30
0
41
1
10
40.1676433928686
20
-2.22026160371166
30
0
41
1
10
39.9098188858496
20
-2.24322801925888
30
0
41
1
10
39.6949894035284
20
-2.26146439696169
30
0
41
1
10
39.3942232895444
20
-2.28534436866275
30
0
41
1
10
39.1363933185609
20
-2.30408802756389
30
0
41
1
10
38.8785693328135
20
-2.32141600361612
30
0
41
1
10
38.6637402602965
20
-2.33491220149199
30
0
41
1
10
38.362974548131
20
-2.35209973793852
30
0
41
1
10
38.1051446827589
20
-2.36506113781442
30
0
41
1
10
37.8473205350311
20
-2.37656369595763
30
0
41
1
10
37.6324911410725
20
-2.38516958373475
30
0
41
1
10
37.3317247820068
20
-2.39547022410895
30
0
41
1
10
37.0738943172947
20
-2.40250500405051
30
0
41
1
10
36.8160697331592
20
-2.40806332860987
30
0
41
1
10
36.6012401173933
20
-2.41169806092833
30
0
41
1
10
36.3004736507439
20
-2.41502629048395
30
0
41
1
10
36.0426432463005
20
-2.41608417421102
30
0
41
1
10
35.7848187597845
20
-2.41565978719439
30
0
41
1
10
35.5699893027594
20
-2.41429797155865
30
0
41
1
10
35.2692232380649
20
-2.4106306081828
30
0
41
1
10
35.0113933190941
20
-2.40570502194962
30
0
41
1
10
34.7535693881182
20
-2.39930360564551
30
0
41
1
10
34.5387403551712
20
-2.39295863037606
30
0
41
1
10
34.2379746766351
20
-2.38232862313106
30
0
41
1
10
33.9801448140052
20
-2.37146126542007
30
0
41
1
10
33.7223206427048
20
-2.35913489366447
30
0
41
1
10
33.5074912217924
20
-2.34785736063924
30
0
41
1
10
33.2067248256039
20
-2.3303518058803
30
0
41
1
10
32.9488943321857
20
-2.31363803793948
30
0
41
1
10
32.6910697271039
20
-2.29550451890282
30
0
41
1
10
32.4762400943658
20
-2.27940866700459
30
0
41
1
10
32.1754736023889
20
-2.25521204157334
30
0
41
1
10
31.9176431787655
20
-2.23283085952647
30
0
41
1
10
31.6598186792238
20
-2.20908144660737
30
0
41
1
10
31.4449892163528
20
-2.18833429398271
30
0
41
1
10
31.1442231510813
20
-2.15769368674984
30
0
41
1
10
30.8863932375186
20
-2.12987043948294
30
0
41
1
10
30.6285693143961
20
-2.10074278339351
30
0
41
1
10
30.4137402847624
20
-2.07555116322874
30
0
41
1
10
30.1129745991445
20
-2.03877018780466
30
0
41
1
10
29.8551447171082
20
-2.00577828666246
30
0
41
1
10
29.5973205132501
20
-1.97155639001392
30
0
41
1
10
29.3824910648385
20
-1.94216457129912
30
0
41
1
10
29.0817246400051
20
-1.89959931524052
30
0
41
1
10
28.8238941334137
20
-1.86175954807965
30
0
41
1
10
28.5660695269277
20
-1.82277963541628
30
0
41
1
10
28.3512398984535
20
-1.78947896350616
30
0
41
1
10
28.0504734214716
20
-1.74155447026467
30
0
41
1
10
27.7926430222784
20
-1.69924631548443
30
0
41
1
10
27.5348185585723
20
-1.65589859153221
30
0
41
1
10
27.3199891302001
20
-1.61902163887157
30
0
41
1
10
27.019223115384
20
-1.56621565879007
30
0
41
1
10
26.7613932440991
20
-1.51986047640412
30
0
41
1
10
26.5035693581019
20
-1.47257696099683
30
0
41
1
10
26.2887403540411
20
-1.43249147381337
30
0
41
1
10
25.9879746905279
20
-1.37533079662901
30
0
41
1
10
25.7301448103425
20
-1.32539112931158
30
0
41
1
10
25.4723205910629
20
-1.27464355584195
30
0
41
1
10
25.2574911232026
20
-1.23174944702197
30
0
41
1
10
24.956724666621
20
-1.17080362802449
30
0
41
1
10
24.6988941301606
20
-1.11777549564513
30
0
41
1
10
24.4410694951198
20
-1.06406566594023
30
0
41
1
10
24.2262398452908
20
-1.01878545005008
30
0
41
1
10
23.9254733462715
20
-0.954652885029361
30
0
41
1
10
23.6676429390447
20
-0.899056110911687
30
0
41
1
10
23.4098184797663
20
-0.842911337583843
30
0
41
1
10
23.1949890566366
20
-0.795690441586459
30
0
41
1
10
22.8942230436399
20
-0.729003937714026
30
0
41
1
10
22.6363931677553
20
-0.67138941616227
30
0
41
1
10
22.3785692704258
20
-0.613368208368172
30
0
41
1
10
22.1637402552301
20
-0.564677715365463
30
0
41
1
10
21.8629745757062
20
-0.496105055456013
30
0
41
1
10
21.6051446806169
20
-0.437052510014553
30
0
41
1
10
21.3473204449605
20
-0.377740997500865
30
0
41
1
10
21.1324909637212
20
-0.328074287062236
30
0
41
1
10
20.8317244909154
20
-0.258309841510084
30
0
41
1
10
20.5738939437442
20
-0.19841313127958
30
0
41
1
10
20.3160693008823
20
-0.138400149098175
30
0
41
1
10
20.1012396519273
20
-0.0882446048307202
30
0
41
1
10
19.8529946638517
20
-0.0302384387469203
30
0
41
1
10
19.6906684326683
20
0.0076518862808825
30
0
41
1
10
19.6142823247706
20
0.0254762283721561
30
0
0
SPLINE
5
EF
100
AcDbEntity
8
1
62
256
6
ByLayer
370
18
48
1
60
0
100
AcDbSpline
70
4
71
3
72
26
73
22
40
0
40
0
40
0
40
0
40
0.146096482499023
40
0.146096482499023
40
0.231486834249119
40
0.231486834249119
40
0.316877185999215
40
0.316877185999215
40
0.402267537749311
40
0.402267537749311
40
0.487657889499407
40
0.487657889499407
40
0.658438592999599
40
0.658438592999599
40
0.7438289447497
40
0.7438289447497
40
0.8292192964998
40
0.8292192964998
40
0.9146096482499
40
0.9146096482499
40
1
40
1
40
1
40
1
41
1
10
115.811659792244
20
0.416406306551011
30
0
41
1
10
115.847417026553
20
0.451004252747907
30
0
41
1
10
115.887534407288
20
0.496704431767171
30
0
41
1
10
115.957249687822
20
0.587653864428347
30
0
41
1
10
115.984061505338
20
0.624947980433234
30
0
41
1
10
116.038751809294
20
0.705875567092789
30
0
41
1
10
116.066745205581
20
0.749654173047162
30
0
41
1
10
116.123622826585
20
0.843894841361418
30
0
41
1
10
116.152510615763
20
0.894355417421821
30
0
41
1
10
116.210672772921
20
1.00228305206787
30
0
41
1
10
116.2396803592
20
1.0592845402615
30
0
41
1
10
116.324243160723
20
1.23709476231167
30
0
41
1
10
116.378145745026
20
1.365451386053
30
0
41
1
10
116.447603591336
20
1.57487428194133
30
0
41
1
10
116.468571956984
20
1.64701248774045
30
0
41
1
10
116.503332340633
20
1.79395521449874
30
0
41
1
10
116.517249787678
20
1.86908056758344
30
0
41
1
10
116.534929783423
20
2.02299331331983
30
0
41
1
10
116.538562625694
20
2.10225143237312
30
0
41
1
10
116.531613173637
20
2.25910635704281
30
0
41
1
10
116.521116655757
20
2.33725719705114
30
0
41
1
10
116.502421868387
20
2.41489617761212
30
0
0
SPLINE
5
F0
100
AcDbEntity
8
1
62
256
6
ByLayer
370
18
48
1
60
0
100
AcDbSpline
70
4
71
3
72
8
73
4
40
0
40
0
40
0
40
0
40
1
40
1
40
1
40
1
41
1
10
116.01311456187
20
5.53961690214862
30
0
41
1
10
116.221696516628
20
5.03499541945067
30
0
41
1
10
116.435693325136
20
4.51176947832661
30
0
41
1
10
116.649365180859
20
3.96539094002696
30
0
0
SPLINE
5
F1
100
AcDbEntity
8
1
62
256
6
ByLayer
370
18
48
1
60
0
100
AcDbSpline
70
4
71
3
72
20
73
16
40
0
40
0
40
0
40
0
40
0.0606072656399921
40
0.0606072656399921
40
0.121214531279984
40
0.121214531279984
40
0.242429062559968
40
0.242429062559968
40
0.484858125119937
40
0.484858125119937
40
0.727287187679905
40
0.727287187679905
40
0.969716250239874
40
0.969716250239874
40
1
40
1
40
1
40
1
41
1
10
4.63253140029641
20
-4.66666960319668
30
0
41
1
10
4.62740263133009
20
-4.69551687723836
30
0
41
1
10
4.62404488712224
20
-4.72370544734122
30
0
41
1
10
4.6206880541763
20
-4.77870946774237
30
0
41
1
10
4.62111357144184
20
-4.80556019340241
30
0
41
1
10
4.62108626561724
20
-4.88321938290079
30
0
41
1
10
4.621062344563
20
-4.93140205109989
30
0
41
1
10
4.62097590682353
20
-5.06542424207314
30
0
41
1
10
4.62089875527246
20
-5.14077962302454
30
0
41
1
10
4.62071728278164
20
-5.26374977772068
30
0
41
1
10
4.62061292335758
20
-5.31137124986475
30
0
41
1
10
4.62038794497022
20
-5.37772165006115
30
0
41
1
10
4.62026986355878
20
-5.39573264821794
30
0
41
1
10
4.6201370769231
20
-5.3996091177992
30
0
41
1
10
4.6201223315978
20
-5.39981224695146
30
0
41
1
10
4.62010759562463
20
-5.39978778114474
30
0
0
SPLINE
5
F2
100
AcDbEntity
8
1
62
256
6
ByLayer
370
18
48
1
60
0
100
AcDbSpline
70
4
71
3
72
8
73
4
40
0
40
0
40
0
40
0
40
1
40
1
40
1
40
1
41
1
10
115.964679677661
20
-5.31026168776989
30
0
41
1
10
115.955325032074
20
-5.26456066321347
30
0
41
1
10
115.936940150087
20
-5.23488746427583
30
0
41
1
10
115.914872698494
20
-5.21519174751944
30
0
0
SPLINE
5
F3
100
AcDbEntity
8
1
62
256
6
ByLayer
370
18
48
1
60
0
100
AcDbSpline
70
4
71
3
72
8
73
4
40
0
40
0
40
0
40
0
40
1
40
1
40
1
40
1
41
1
10
117.999622281969
20
0.122844530542551
30
0
41
1
10
117.798694371877
20
0.639327532624577
30
0
41
1
10
117.607694679665
20
1.16511138759699
30
0
41
1
10
117.423704342649
20
1.69912424324045
30
0
0
SPLINE
5
F4
100
AcDbEntity
8
1
62
256
6
ByLayer
370
18
48
1
60
0
100
AcDbSpline
70
4
71
3
72
8
73
4
40
0
40
0
40
0
40
0
40
1
40
1
40
1
40
1
41
1
10
115.943197305615
20
-5.42764374178876
30
0
41
1
10
115.95408135599
20
-5.38367977494531
30
0
41
1
10
115.961347399192
20
-5.34313375588275
30
0
41
1
10
115.964679677674
20
-5.31026168763759
30
0
0
SPLINE
5
F5
100
AcDbEntity
8
1
62
256
6
ByLayer
370
18
48
1
60
0
100
AcDbSpline
70
4
71
3
72
18
73
14
40
0
40
0
40
0
40
0
40
0.249999999999996
40
0.249999999999996
40
0.374999999999994
40
0.374999999999994
40
0.499999999999992
40
0.499999999999992
40
0.62499999999999
40
0.62499999999999
40
0.749999999999988
40
0.749999999999988
40
1
40
1
40
1
40
1
41
1
10
117.216873389612
20
-1.08292656178494
30
0
41
1
10
117.273213636143
20
-1.04825671219808
30
0
41
1
10
117.332949905146
20
-0.993908380976279
30
0
41
1
10
117.428028877345
20
-0.88468193545279
30
0
41
1
10
117.460869572429
20
-0.843282101813656
30
0
41
1
10
117.527258588881
20
-0.752646224563875
30
0
41
1
10
117.560718144631
20
-0.703590424494024
30
0
41
1
10
117.628172567869
20
-0.59842192645587
30
0
41
1
10
117.662167380029
20
-0.542307388959159
30
0
41
1
10
117.730685468279
20
-0.423147520535622
30
0
41
1
10
117.765310521717
20
-0.359872878646087
30
0
41
1
10
117.867561609082
20
-0.164237282014511
30
0
41
1
10
117.934350021495
20
-0.0248825339204757
30
0
41
1
10
117.999622281969
20
0.122844530542523
30
0
0
SPLINE
5
F6
100
AcDbEntity
8
1
62
256
6
ByLayer
370
13
48
1
60
0
100
AcDbSpline
70
4
71
3
72
24
73
20
40
0
40
0
40
0
40
0
40
0.0589868626155936
40
0.0896431565762011
40
0.150955744497419
40
0.212268332418634
40
0.304237214300459
40
0.334893508261067
40
0.396206096182284
40
0.457518684103499
40
0.549487565985325
40
0.580143859945932
40
0.64145644786715
40
0.702769035788367
40
0.79473791767019
40
0.8253942116308
40
0.886706799552015
40
0.948019387473233
40
1
40
1
40
1
40
1
41
1.00000000000001
10
116.502421868329
20
2.41489617761174
30
0
41
1.00000000000001
10
116.419747124222
20
2.41429587216395
30
0
41
1.00000000000001
10
116.294108385921
20
2.41303960040422
30
0
41
1.00000000000001
10
116.082534022279
20
2.41001524517306
30
0
41
1.00000000000001
10
115.867675965624
20
2.40594510616272
30
0
41
1.00000000000001
10
115.566879933363
20
2.39850848005962
30
0
41
1.00000000000001
10
115.309085525511
20
2.39033617564807
30
0
41
1.00000000000001
10
115.051285239041
20
2.38066981854384
30
0
41
1.00000000000001
10
114.836427436481
20
2.37164089665022
30
0
41
1.00000000000001
10
114.535631452002
20
2.35729610294617
30
0
41
1.00000000000001
10
114.277836825487
20
2.34322951070205
30
0
41
1.00000000000001
10
114.020036195898
20
2.3277015927476
30
0
41
1.00000000000001
10
113.805178038872
20
2.31381978487711
30
0
41
1.00000000000001
10
113.504381482581
20
2.29272543976141
30
0
41
1.00000000000001
10
113.246586351175
20
2.27291100222432
30
0
41
1.00000000000001
10
112.988785281978
20
2.2516767089944
30
0
41
1.00000000000001
10
112.773926828456
20
2.23307706642642
30
0
41
1.00000000000001
10
112.529181665696
20
2.21058341452322
30
0
41
1.00000000000001
10
112.370392440742
20
2.19522073127981
30
0
41
1.00000000000001
10
112.297538471853
20
2.18800906567789
30
0
0
SPLINE
5
F7
100
AcDbEntity
8
1
62
256
6
ByLayer
370
13
48
1
60
0
100
AcDbSpline
70
4
71
3
72
89
73
85
40
0
40
0
40
0
40
0
40
0.0006058621307894
40
0.0190746604673266
40
0.025230926579507
40
0.0375434588038639
40
0.0498559910282225
40
0.0683247893647576
40
0.0744810554769374
40
0.0867935877012954
40
0.0991061199256534
40
0.117574918262191
40
0.123731184374368
40
0.136043716598726
40
0.148356248823086
40
0.16682504715962
40
0.1729813132718
40
0.185293845496158
40
0.197606377720515
40
0.216075176057052
40
0.222231442169231
40
0.234543974393589
40
0.246856506617946
40
0.265325304954483
40
0.271481571066662
40
0.283794103291019
40
0.296106635515377
40
0.314575433851915
40
0.320731699964093
40
0.333044232188451
40
0.345356764412808
40
0.363825562749345
40
0.369981828861524
40
0.382294361085882
40
0.394606893310239
40
0.413075691646776
40
0.419231957758955
40
0.431544489983313
40
0.443857022207669
40
0.462325820544207
40
0.468482086656386
40
0.480794618880744
40
0.493107151105101
40
0.511575949441638
40
0.517732215553817
40
0.530044747778174
40
0.542357280002532
40
0.560826078339069
40
0.566982344451248
40
0.579294876675606
40
0.591607408899963
40
0.6100762072365
40
0.616232473348679
40
0.628545005573037
40
0.640857537797394
40
0.65932633613393
40
0.66548260224611
40
0.677795134470468
40
0.690107666694825
40
0.708576465031362
40
0.714732731143541
40
0.727045263367899
40
0.739357795592256
40
0.757826593928793
40
0.763982860040972
40
0.77629539226533
40
0.788607924489687
40
0.807076722826224
40
0.813232988938403
40
0.825545521162761
40
0.837858053387118
40
0.856326851723655
40
0.862483117835834
40
0.874795650060192
40
0.887108182284551
40
0.905576980621086
40
0.911733246733265
40
0.924045778957622
40
0.936358311181979
40
0.954827109518517
40
0.960983375630696
40
0.973295907855052
40
0.985608440079411
40
1
40
1
40
1
40
1
41
1.00000000000001
10
68.1850414883984
20
-0.0248139652720736
30
0
41
1.00000000000001
10
68.1808127356991
20
-0.0238266865332831
30
0
41
1.00000000000001
10
68.0476770997658
20
0.0072574589705141
30
0
41
1.00000000000001
10
67.8715855250362
20
0.0484233723106794
30
0
41
1.00000000000001
10
67.6137849998331
20
0.108660789493114
30
0
41
1.00000000000001
10
67.3989270272757
20
0.15873074700326
30
0
41
1.00000000000001
10
67.098130867609
20
0.228700936552796
30
0
41
1.00000000000001
10
66.8403362025566
20
0.288612777875299
30
0
41
1.00000000000001
10
66.5825356741725
20
0.348346858624351
30
0
41
1.00000000000001
10
66.3676776819156
20
0.397899581245466
30
0
41
1.00000000000001
10
66.0668814462118
20
0.466974313555451
30
0
41
1.00000000000001
10
65.8090866431653
20
0.525940076494689
30
0
41
1.00000000000001
10
65.5512858937928
20
0.584578511953506
30
0
41
1.00000000000001
10
65.336427656107
20
0.633120704895301
30
0
41
1.00000000000001
10
65.0356310210773
20
0.700610374194152
30
0
41
1.00000000000001
10
64.7778358839793
20
0.758041038064557
30
0
41
1.00000000000001
10
64.5200348780913
20
0.814999940330717
30
0
41
1.00000000000001
10
64.3051765982969
20
0.862049791770483
30
0
41
1.00000000000001
10
64.0043802320217
20
0.927286209944464
30
0
41
1.00000000000001
10
63.7465855487838
20
0.982613788891137
30
0
41
1.00000000000001
10
63.4887850511785
20
1.03732886239742
30
0
41
1.00000000000001
10
63.2739270983271
20
1.08241945809709
30
0
41
1.00000000000001
10
62.9731309575637
20
1.14475468523184
30
0
41
1.00000000000001
10
62.7153362946162
20
1.1974299099865
30
0
41
1.00000000000001
10
62.4575357516961
20
1.24935921193158
30
0
41
1.00000000000001
10
62.2426777346378
20
1.29204487987209
30
0
41
1.00000000000001
10
61.9418814454281
20
1.35086339146735
30
0
41
1.00000000000001
10
61.6840865831167
20
1.40036557833454
30
0
41
1.00000000000001
10
61.4262857713235
20
1.44899392992885
30
0
41
1.00000000000001
10
61.2114274847577
20
1.48884971367717
30
0
41
1.00000000000001
10
60.9106307964887
20
1.54356388401392
30
0
41
1.00000000000001
10
60.6528356356149
20
1.58939703963394
30
0
41
1.00000000000001
10
60.395034631307
20
1.63423697498432
30
0
41
1.00000000000001
10
60.1801763645419
20
1.67086332945131
30
0
41
1.00000000000001
10
59.879380026964
20
1.72092542464388
30
0
41
1.00000000000001
10
59.6215853744985
20
1.76263247830828
30
0
41
1.00000000000001
10
59.3637849050885
20
1.80323933784031
30
0
41
1.00000000000001
10
59.1489269774293
20
1.8362750002374
30
0
41
1.00000000000001
10
58.8481308754074
20
1.88119385221704
30
0
41
1.00000000000001
10
58.5903362436029
20
1.9183671662954
30
0
41
1.00000000000001
10
58.33253572434
20
1.95434383120282
30
0
41
1.00000000000001
10
58.1176777177027
20
1.98346521911886
30
0
41
1.00000000000001
10
57.8168814260259
20
2.02279951667724
30
0
41
1.00000000000001
10
57.5590865478907
20
2.05507209521629
30
0
41
1.00000000000001
10
57.3012857136376
20
2.08606154448417
30
0
41
1.00000000000001
10
57.0864274111892
20
2.11097839068133
30
0
41
1.00000000000001
10
56.7856307157078
20
2.14433354295771
30
0
41
1.00000000000001
10
56.5278355675958
20
2.17137876881189
30
0
41
1.00000000000001
10
56.2700345965283
20
2.19706486918433
30
0
41
1.00000000000001
10
56.0551763624001
20
2.21752127790593
30
0
41
1.00000000000001
10
55.7543800658917
20
2.24455434182868
30
0
41
1.00000000000001
10
55.4965854400737
20
2.26609686612206
30
0
41
1.00000000000001
10
55.2387849839614
20
2.28622409711572
30
0
41
1.00000000000001
10
55.0239270644694
20
2.30202137178854
30
0
41
1.00000000000001
10
54.7231309716901
20
2.3224759662243
30
0
41
1.00000000000001
10
54.4653363404611
20
2.33831499834422
30
0
41
1.00000000000001
10
54.2075358115143
20
2.35269470969142
30
0
41
1.00000000000001
10
53.9926777845549
20
2.36368323715509
30
0
41
1.00000000000001
10
53.6918814421789
20
2.37736284024133
30
0
41
1.00000000000001
10
53.4340865035799
20
2.38734333244035
30
0
41
1.00000000000001
10
53.1762856019076
20
2.39583270827474
30
0
41
1.00000000000001
10
52.9614272482084
20
2.40190201637297
30
0
41
1.00000000000001
10
52.6606305034421
20
2.40866572381391
30
0
41
1.00000000000001
10
52.4028353414964
20
2.41268013951718
30
0
41
1.00000000000001
10
52.1450343869067
20
2.41518234705462
30
0
41
1.00000000000001
10
51.9301761763818
20
2.41625897740543
30
0
41
1.00000000000001
10
51.6293799153226
20
2.41602076185852
30
0
41
1.00000000000001
10
51.3715853185869
20
2.41401771689611
30
0
41
1.00000000000001
10
51.1137848832115
20
2.4105061840002
30
0
41
1.00000000000001
10
50.8989269826175
20
2.40658543440746
30
0
41
1.00000000000001
10
50.5981309235856
20
2.39936496595924
30
0
41
1.00000000000001
10
50.3403363232058
20
2.39138339772909
30
0
41
1.00000000000001
10
50.082535821484
20
2.38190901514103
30
0
41
1.00000000000001
10
49.8676778083216
20
2.37303993756807
30
0
41
1.00000000000001
10
49.5668814663092
20
2.35891786819768
30
0
41
1.00000000000001
10
49.3090865121329
20
2.34504000866896
30
0
41
1.00000000000001
10
49.0512855857144
20
2.32969713332294
30
0
41
1.00000000000001
10
48.8364272151739
20
2.31596654048782
30
0
41
1.00000000000001
10
48.5356304658119
20
2.29507755206434
30
0
41
1.00000000000001
10
48.2778353221044
20
2.27543133413879
30
0
41
1.00000000000001
10
48.0200344083721
20
2.25435708515646
30
0
41
1.00000000000001
10
47.8051762348733
20
2.23588502246234
30
0
41
1.00000000000001
10
47.5328392390161
20
2.21101213572506
30
0
41
1.00000000000001
10
47.3464633101263
20
2.19293050260468
30
0
41
1.00000000000001
10
47.2460204622587
20
2.18287580439527
30
0
0
SPLINE
5
F8
100
AcDbEntity
8
1
62
256
6
ByLayer
370
18
48
1
60
0
100
AcDbSpline
70
4
71
3
72
11
73
7
40
0
40
0
40
0
40
0
40
0.211312549941196
40
0.45374883586873
40
0.727540169655874
40
1
40
1
40
1
40
1
41
1
10
84.6234985466829
20
0.0233613466399163
30
0
41
1
10
84.4698827108859
20
0.0593444127922567
30
0
41
1
10
84.1421112874017
20
0.145757729654349
30
0
41
1
10
83.6248317099886
20
0.31645649360641
30
0
41
1
10
83.0704256433399
20
0.53884344200705
30
0
41
1
10
82.69043874379
20
0.721798353237602
30
0
41
1
10
82.5019576502609
20
0.820119966853923
30
0
0
SPLINE
5
F9
100
AcDbEntity
8
1
62
256
6
ByLayer
370
18
48
1
60
0
100
AcDbSpline
70
4
71
3
72
14
73
10
40
0
40
0
40
0
40
0
40
0.221595464050767
40
0.392349403754183
40
0.512082672402796
40
0.589641914832593
40
0.70272616563445
40
0.852692380840175
40
1
40
1
40
1
40
1
41
1
10
68.1790118441293
20
-0.0234062093524301
30
0
41
1
10
68.3423942846608
20
-0.0615914327746907
30
0
41
1
10
68.6315318292687
20
-0.138580947607551
30
0
41
1
10
69.0084565339796
20
-0.260715904670377
30
0
41
1
10
69.2793352850914
20
-0.360063323430069
30
0
41
1
10
69.5076097728239
20
-0.450374835949674
30
0
41
1
10
69.7571687021294
20
-0.556136476292181
30
0
41
1
10
70.0572835347637
20
-0.694076763090351
30
0
41
1
10
70.2741017209956
20
-0.804610746797607
30
0
41
1
10
70.3814076510105
20
-0.861823791670162
30
0
0
SPLINE
5
FA
100
AcDbEntity
8
1
62
256
6
ByLayer
370
18
48
1
60
0
100
AcDbSpline
70
4
71
3
72
11
73
7
40
0
40
0
40
0
40
0
40
0.231479030044102
40
0.483266575518877
40
0.755751866046484
40
1
40
1
40
1
40
1
41
1
10
52.1226854803813
20
0.0234894673631061
30
0
41
1
10
51.9679568195478
20
0.0594266642288233
30
0
41
1
10
51.6415784590226
20
0.145905403578581
30
0
41
1
10
51.1186616309967
20
0.318775020442359
30
0
41
1
10
50.5782210581361
20
0.535296141212143
30
0
41
1
10
50.2104703236273
20
0.713078437533795
30
0
41
1
10
50.035559106769
20
0.803904498736443
30
0
0
SPLINE
5
FB
100
AcDbEntity
8
1
62
256
6
ByLayer
370
18
48
1
60
0
100
AcDbSpline
70
4
71
3
72
10
73
6
40
0
40
0
40
0
40
0
40
0.119909348613771
40
0.884211350273592
40
1
40
1
40
1
40
1
41
1
10
5.94086101466775
20
5.26549794024308
30
0
41
1
10
5.90828715056037
20
5.2654625793713
30
0
41
1
10
5.66807570044321
20
5.26518186677436
30
0
41
1
10
5.39616543694106
20
5.2646265765774
30
0
41
1
10
5.1569194647266
20
5.26406434609186
30
0
41
1
10
5.12544203998425
20
5.26398801938552
30
0
0
SPLINE
5
FC
100
AcDbEntity
8
1
62
256
6
ByLayer
370
18
48
1
60
0
100
AcDbSpline
70
4
71
2
72
6
73
3
40
0
40
0
40
0
40
1
40
1
40
1
41
1
10
35.6790055857527
20
-0.0233514910649717
30
0
41
1
10
36.7686561199707
20
-0.275285210945214
30
0
41
1
10
37.8413565855925
20
-0.847439228782093
30
0
0
SPLINE
5
FD
100
AcDbEntity
8
1
62
256
6
ByLayer
370
18
48
1
60
0
100
AcDbSpline
70
4
71
3
72
25
73
21
40
0
40
0
40
0
40
0
40
0.0378282595956704
40
0.0930724502498632
40
0.145996934868368
40
0.191391632606782
40
0.239360295302683
40
0.297739374703975
40
0.41604047930406
40
0.517928325251069
40
0.599927158152214
40
0.675257658950179
40
0.767291020109005
40
0.816936801190817
40
0.862372505547672
40
0.904435007500251
40
0.946159670469509
40
0.97277809441707
40
0.999697189274851
40
1
40
1
40
1
40
1
41
1
10
35.3378782096792
20
5.31725974076616
30
0
41
1
10
35.1841869561853
20
5.31709197946677
30
0
41
1
10
34.8060433975528
20
5.31661982762756
30
0
41
1
10
34.2128553816443
20
5.3148356672302
30
0
41
1
10
33.5889310443861
20
5.31435587026826
30
0
41
1
10
32.9945649951035
20
5.31320427709903
30
0
41
1
10
32.3780360997827
20
5.31167842021043
30
0
41
1
10
31.4652989888317
20
5.3116114766182
30
0
41
1
10
30.3334221530558
20
5.30889833491023
30
0
41
1
10
29.1058415870059
20
5.3063296180332
30
0
41
1
10
28.0520617936327
20
5.30489332153607
30
0
41
1
10
27.0409870729752
20
5.30267485170566
30
0
41
1
10
26.1515121084491
20
5.30179753823381
30
0
41
1
10
25.4095828125788
20
5.29829021879914
30
0
41
1
10
24.8511080916166
20
5.29497428083863
30
0
41
1
10
24.3290503134498
20
5.29679778194281
30
0
41
1
10
23.8933334717506
20
5.29727990097791
30
0
41
1
10
23.5140248220833
20
5.29637893063654
30
0
41
1
10
23.3015420138459
20
5.29496520821814
30
0
41
1
10
23.1924177369659
20
5.29436973300147
30
0
41
1
10
23.191203654477
20
5.29436312392048
30
0
0
SPLINE
5
FE
100
AcDbEntity
8
1
62
256
6
ByLayer
370
18
48
1
60
0
100
AcDbSpline
70
4
71
3
72
31
73
27
40
0
40
0
40
0
40
0
40
0.0297743772244325
40
0.109966837039416
40
0.179419876279864
40
0.250778954876695
40
0.288917275850163
40
0.327339043616877
40
0.367412821874672
40
0.417403749605905
40
0.477851567509231
40
0.513596318257046
40
0.54219305192687
40
0.572115583354514
40
0.611116176823263
40
0.650120536101876
40
0.67196280757976
40
0.70173228684918
40
0.744920863966263
40
0.793004326070279
40
0.835551981300865
40
0.872595102395213
40
0.901751525764755
40
0.931080243544839
40
0.961669315285358
40
1
40
1
40
1
40
1
41
1
10
67.835224456877
20
5.37615089396803
30
0
41
1
10
67.7159802591918
20
5.3759673608065
30
0
41
1
10
67.2755703671916
20
5.37528581233141
30
0
41
1
10
66.5570005536154
20
5.37295172872345
30
0
41
1
10
65.6718788117498
20
5.3727971408141
30
0
41
1
10
64.9551889392905
20
5.37025838352022
30
0
41
1
10
64.3627816544509
20
5.3697566242266
30
0
41
1
10
63.8956666520632
20
5.36928225195891
30
0
41
1
10
63.3810822178993
20
5.36778738328792
30
0
41
1
10
62.7782823357847
20
5.36668721858345
30
0
41
1
10
62.1928196685042
20
5.36626207885598
30
0
41
1
10
61.6930428390192
20
5.36488492028499
30
0
41
1
10
61.3155169076858
20
5.36408163312015
30
0
41
1
10
60.9249535889891
20
5.36367570553756
30
0
41
1
10
60.4927044142396
20
5.36308065525856
30
0
41
1
10
60.0928214709182
20
5.36212683790228
30
0
41
1
10
59.7299030007541
20
5.3612100954918
30
0
41
1
10
59.3502444098463
20
5.36085120622926
30
0
41
1
10
58.8654777666684
20
5.36035442738591
30
0
41
1
10
58.3295786532124
20
5.35896020440845
30
0
41
1
10
57.8182486643415
20
5.35785859187203
30
0
41
1
10
57.3834771806582
20
5.35708925939392
30
0
41
1
10
57.0007060543852
20
5.35631604638809
30
0
41
1
10
56.644185908191
20
5.35582405847043
30
0
41
1
10
56.2549775303755
20
5.35508390645248
30
0
41
1
10
55.9786122302772
20
5.35455884619236
30
0
41
1
10
55.8248978253301
20
5.35427689741979
30
0
0
SPLINE
5
FF
100
AcDbEntity
8
1
62
256
6
ByLayer
370
18
48
1
60
0
100
AcDbSpline
70
4
71
3
72
30
73
26
40
0
40
0
40
0
40
0
40
0.0288094359403147
40
0.0548060679554299
40
0.0869028492330397
40
0.119799419911464
40
0.153503438307486
40
0.188177693821681
40
0.241967051957409
40
0.287981890223592
40
0.312922205784333
40
0.33851078985608
40
0.369721813300512
40
0.410772351517133
40
0.449937316188218
40
0.479043833383042
40
0.53023582603154
40
0.596460965017112
40
0.661264222923493
40
0.722723297465373
40
0.785270516068951
40
0.825859820247896
40
0.889003144934583
40
0.942253201276972
40
1
40
1
40
1
40
1
41
1
10
21.4322170065267
20
-5.29252168057482
30
0
41
1
10
21.5453087235523
20
-5.2919354373023
30
0
41
1
10
21.7703495848338
20
-5.29066914058518
30
0
41
1
10
22.1608253756523
20
-5.28408713797026
30
0
41
1
10
22.5939592476802
20
-5.28632610495467
30
0
41
1
10
23.0349183237861
20
-5.29340435648871
30
0
41
1
10
23.5041546758454
20
-5.2955052242304
30
0
41
1
10
24.0721010766344
20
-5.29704777775217
30
0
41
1
10
24.69993214626
20
-5.29844557939106
30
0
41
1
10
25.2810146291313
20
-5.29971590692168
30
0
41
1
10
25.7304132366965
20
-5.30030203389308
30
0
41
1
10
26.1117479846887
20
-5.30110850241638
30
0
41
1
10
26.5680688961846
20
-5.3023260749691
30
0
41
1
10
27.0877376632722
20
-5.30300433522081
30
0
41
1
10
27.5976042984704
20
-5.30344184017585
30
0
41
1
10
28.1547542482321
20
-5.3052049397738
30
0
41
1
10
28.8381999450659
20
-5.30600080096579
30
0
41
1
10
29.6875598613945
20
-5.3077004622109
30
0
41
1
10
30.5855873278166
20
-5.30885559218794
30
0
41
1
10
31.4655344443643
20
-5.31135660465426
30
0
41
1
10
32.233302494304
20
-5.31154137955645
30
0
41
1
10
33.0087911325887
20
-5.31320415772174
30
0
41
1
10
33.7409465222017
20
-5.31436417651557
30
0
41
1
10
34.5531166462281
20
-5.3158094698056
30
0
41
1
10
35.0707882615665
20
-5.31680134192001
30
0
41
1
10
35.3401088187628
20
-5.31733874493438
30
0
0
SPLINE
5
100
100
AcDbEntity
8
1
62
256
6
ByLayer
370
18
48
1
60
0
100
AcDbSpline
70
4
71
3
72
30
73
26
40
0
40
0
40
0
40
0
40
0.0607662154890072
40
0.119859812859035
40
0.177923888267193
40
0.261436717882027
40
0.303331799251105
40
0.339391696975578
40
0.371374421122495
40
0.40561627679167
40
0.446483196841844
40
0.500146276045185
40
0.560400172988819
40
0.615660118636396
40
0.658421569447585
40
0.692978805832669
40
0.727795239115175
40
0.763100572544551
40
0.806384518390375
40
0.847884933017127
40
0.896001409172167
40
0.949941960526688
40
0.971695155607372
40
0.989421449951086
40
1
40
1
40
1
40
1
41
1
10
100.268155737393
20
5.43400858566915
30
0
41
1
10
100.023104708528
20
5.43356982834723
30
0
41
1
10
99.5396648298145
20
5.43274491757262
30
0
41
1
10
98.8216093958002
20
5.43107748259033
30
0
41
1
10
98.0118853147331
20
5.43058339089001
30
0
41
1
10
97.2715216737228
20
5.42817278984356
30
0
41
1
10
96.6199617160267
20
5.42695665054586
30
0
41
1
10
96.1763387915898
20
5.42644332616911
30
0
41
1
10
95.7636024328144
20
5.4257789941426
30
0
41
1
10
95.3314617140498
20
5.42524913775512
30
0
41
1
10
94.8118369193846
20
5.42480281734956
30
0
41
1
10
94.1872649420422
20
5.4236543885865
30
0
41
1
10
93.5046158442528
20
5.42025819779113
30
0
41
1
10
92.8659286209742
20
5.41929014050768
30
0
41
1
10
92.3309487123078
20
5.41894122018724
30
0
41
1
10
91.8784712656334
20
5.41883438461954
30
0
41
1
10
91.4560610269733
20
5.41866496615009
30
0
41
1
10
90.9984433235195
20
5.41849613812971
30
0
41
1
10
90.5138621490654
20
5.41649519015692
30
0
41
1
10
89.9775720131812
20
5.41544573156381
30
0
41
1
10
89.3982842639689
20
5.41486212231607
30
0
41
1
10
88.8986770608728
20
5.41395194854402
30
0
41
1
10
88.5217415667536
20
5.41328740334706
30
0
41
1
10
88.3196777918365
20
5.4129542685981
30
0
41
1
10
88.2055793225725
20
5.41277723226003
30
0
41
1
10
88.1629599684312
20
5.41270856655041
30
0
0
SPLINE
5
101
100
AcDbEntity
8
1
62
256
6
ByLayer
370
18
48
1
60
0
100
AcDbSpline
70
4
71
3
72
29
73
25
40
0
40
0
40
0
40
0
40
0.0568695055206792
40
0.11113212734092
40
0.141540521823384
40
0.173997247068148
40
0.215145699610719
40
0.250949537416685
40
0.325629147370162
40
0.402673485084034
40
0.428944259903086
40
0.462049808399427
40
0.502802868146081
40
0.551065417573542
40
0.59646480699997
40
0.632319696914926
40
0.676314571539562
40
0.718222460846
40
0.76977670392745
40
0.837589815068106
40
0.886584430731791
40
0.931030545550228
40
0.984537752145294
40
1
40
1
40
1
40
1
41
1
10
86.533854536809
20
-5.40973983496252
30
0
41
1
10
86.7935513317422
20
-5.40997024148433
30
0
41
1
10
87.3012174226205
20
-5.4105570886795
30
0
41
1
10
87.9473470750904
20
-5.41245133629928
30
0
41
1
10
88.4834550023641
20
-5.41319135128464
30
0
41
1
10
88.9597432146778
20
-5.41408098367177
30
0
41
1
10
89.4606688159564
20
-5.414947307109
30
0
41
1
10
90.1549594238211
20
-5.41549904217987
30
0
41
1
10
91.0135794012033
20
-5.41898615889275
30
0
41
1
10
91.8285905777479
20
-5.41876600451602
30
0
41
1
10
92.4531955876868
20
-5.41900915611137
30
0
41
1
10
92.9116592124693
20
-5.41935945759477
30
0
41
1
10
93.4708216335209
20
-5.42028110713787
30
0
41
1
10
94.0862557943572
20
-5.42302255186576
30
0
41
1
10
94.6792570574965
20
-5.42473705538646
30
0
41
1
10
95.2527317420656
20
-5.42513765499723
30
0
41
1
10
95.8102287937489
20
-5.42584724097188
30
0
41
1
10
96.4395947174735
20
-5.42680256233905
30
0
41
1
10
97.1780337281267
20
-5.42782262083637
30
0
41
1
10
97.9488975788076
20
-5.43053607433683
30
0
41
1
10
98.6872827929388
20
-5.43091713260145
30
0
41
1
10
99.3599431207912
20
-5.43232564565349
30
0
41
1
10
99.8798157268041
20
-5.4332201795992
30
0
41
1
10
100.194819980139
20
-5.43390998626134
30
0
41
1
10
100.265415198337
20
-5.43406695081708
30
0
0
SPLINE
5
102
100
AcDbEntity
8
1
62
256
6
ByLayer
370
18
48
1
60
0
100
AcDbSpline
70
4
71
3
72
27
73
23
40
0
40
0
40
0
40
0
40
0.0547149217304907
40
0.109319554381331
40
0.159478252049797
40
0.203165297983944
40
0.242928314832769
40
0.285810275562501
40
0.331786859054447
40
0.369100067648311
40
0.395830937468254
40
0.449969936297444
40
0.497590146308047
40
0.547373874354791
40
0.595714897474762
40
0.639399724819054
40
0.688751731706223
40
0.744992384288364
40
0.821264230399757
40
0.886028385519219
40
0.943080562837672
40
1
40
1
40
1
40
1
41
1
10
54.017882936144
20
-5.35085635573094
30
0
41
1
10
54.2647652959286
20
-5.35015101960261
30
0
41
1
10
54.7606573685522
20
-5.34964077398163
30
0
41
1
10
55.5112287631965
20
-5.35042490266648
30
0
41
1
10
56.1818985896664
20
-5.3554422449366
30
0
41
1
10
56.8014989043634
20
-5.35602638937189
30
0
41
1
10
57.388607973697
20
-5.35735101937632
30
0
41
1
10
57.9859958799302
20
-5.35808009880614
30
0
41
1
10
58.5720969913427
20
-5.35967445979151
30
0
41
1
10
59.0831374558413
20
-5.36064935155866
30
0
41
1
10
59.6321461231184
20
-5.36099435963149
30
0
41
1
10
60.2290187152819
20
-5.36260077517736
30
0
41
1
10
60.9329861494449
20
-5.36369930087452
30
0
41
1
10
61.6100208444435
20
-5.36453073629045
30
0
41
1
10
62.268766111047
20
-5.36644815711125
30
0
41
1
10
62.9255097886395
20
-5.36672883986873
30
0
41
1
10
63.618951808971
20
-5.36872877020576
30
0
41
1
10
64.46377498371
20
-5.36969024065465
30
0
41
1
10
65.3801689076795
20
-5.37211468549373
30
0
41
1
10
66.3004142511875
20
-5.37268351564433
30
0
41
1
10
67.1305115906578
20
-5.37518735913204
30
0
41
1
10
67.6594891572764
20
-5.37563885067175
30
0
41
1
10
67.9236017000831
20
-5.37577281255068
30
0
0
SPLINE
5
103
100
AcDbEntity
8
1
62
256
6
ByLayer
370
18
48
1
60
0
100
AcDbSpline
70
4
71
3
72
9
73
5
40
0
40
0
40
0
40
0
40
0.497866645534374
40
1
40
1
40
1
40
1
41
1
10
115.769001453572
20
0.461354617296934
30
0
41
1
10
115.634745763236
20
0.516703371099851
30
0
41
1
10
115.360936852732
20
0.637532156683903
30
0
41
1
10
115.076118561399
20
0.7786154071498
30
0
41
1
10
114.930592053848
20
0.854479742049847
30
0
0
SPLINE
5
104
100
AcDbEntity
8
1
62
256
6
ByLayer
370
18
48
1
60
0
100
AcDbSpline
70
4
71
3
72
11
73
7
40
0
40
0
40
0
40
0
40
0.202515669738299
40
0.436474323715232
40
0.702177595670415
40
1
40
1
40
1
40
1
41
1
10
100.679003164405
20
-0.0233167105265579
30
0
41
1
10
100.834629036237
20
-0.0597311640118505
30
0
41
1
10
101.169663435805
20
-0.148449092302542
30
0
41
1
10
101.707349957703
20
-0.326937913744558
30
0
41
1
10
102.316258834334
20
-0.575124867133866
30
0
41
1
10
102.744920197272
20
-0.786003064606206
30
0
41
1
10
102.971035779839
20
-0.90743386524872
30
0
0
SPLINE
5
105
100
AcDbEntity
8
1
62
256
6
ByLayer
370
18
48
1
60
0
100
AcDbSpline
70
4
71
3
72
14
73
10
40
0
40
0
40
0
40
0
40
0.228080436392532
40
0.404049510387032
40
0.527739028350018
40
0.607441050927801
40
0.724072362027794
40
0.879228264703878
40
1
40
1
40
1
40
1
41
1
10
19.6222964920954
20
0.0236061385072901
30
0
41
1
10
19.4661284702984
20
0.0600907964037276
30
0
41
1
10
19.1897300948222
20
0.133267979870396
30
0
41
1
10
18.8292316810495
20
0.248679652911107
30
0
41
1
10
18.5705071608965
20
0.342102901224536
30
0
41
1
10
18.3525169703227
20
0.426771293943034
30
0
41
1
10
18.1131354286181
20
0.52631128396817
30
0
41
1
10
17.8460584707669
20
0.645969658874179
30
0
41
1
10
17.6586976146875
20
0.739405502198053
30
0
41
1
10
17.5767494181828
20
0.781863299070608
30
0
0
SPLINE
5
106
100
AcDbEntity
8
1
62
256
6
ByLayer
370
18
48
1
60
0
100
AcDbSpline
70
4
71
2
72
6
73
3
40
0
40
0
40
0
40
1
40
1
40
1
41
1
10
5.12543860499358
20
-5.26397182071969
30
0
41
1
10
5.53276211274343
20
-5.26499236821834
30
0
41
1
10
5.94004255145452
20
-5.26547560284985
30
0
0
LINE
5
7B
100
AcDbEntity
8
SK1
62
256
6
ByLayer
370
18
48
1
60
0
100
AcDbLine
10
-43.267949
20
6
30
0
11
-43.267949
21
-6
31
0
39
0
210
0
220
0
230
1
0
LINE
5
7D
100
AcDbEntity
8
SK1
62
256
6
ByLayer
370
18
48
1
60
0
100
AcDbLine
10
-45
20
3
30
0
11
-45
21
-3
31
0
39
0
210
0
220
0
230
1
0
LINE
5
7E
100
AcDbEntity
8
SK1
62
256
6
ByLayer
370
18
48
1
60
0
100
AcDbLine
10
0
20
-6
30
0
11
0
21
6
31
0
39
0
210
0
220
0
230
1
0
LINE
5
7F
100
AcDbEntity
8
1
62
256
6
ByLayer
370
18
48
1
60
0
100
AcDbLine
10
117.206633
20
-1.117497
30
0
11
117.212584
21
-1.078593
31
0
39
0
210
0
220
0
230
1
0
LINE
5
80
100
AcDbEntity
8
1
62
256
6
ByLayer
370
18
48
1
60
0
100
AcDbLine
10
0
20
-6
30
0
11
0
21
6
31
0
39
0
210
0
220
0
230
1
0
LINE
5
81
100
AcDbEntity
8
1
62
256
6
ByLayer
370
18
48
1
60
0
100
AcDbLine
10
115.280604
20
-2.663765
30
0
11
117.206633
21
-1.117497
31
0
39
0
210
0
220
0
230
1
0
LINE
5
82
100
AcDbEntity
8
1
62
256
6
ByLayer
370
13
48
1
60
0
100
AcDbLine
10
0.650686
20
5.696908
30
0
11
0.650686
21
-5.696908
31
0
39
0
210
0
220
0
230
1
0
LINE
5
83
100
AcDbEntity
8
1
62
256
6
ByLayer
370
13
48
1
60
0
100
AcDbLine
10
1.302901
20
5.393817
30
0
11
1.302901
21
-5.393817
31
0
39
0
210
0
220
0
230
1
0
LINE
5
84
100
AcDbEntity
8
80
62
256
6
ByLayer
370
18
48
1
60
0
100
AcDbLine
10
0
20
0
30
0
11
-5
21
0
31
0
39
0
210
0
220
0
230
1
0
LINE
5
85
100
AcDbEntity
8
4
62
256
6
ByLayer
370
18
48
0.05
60
0
100
AcDbLine
10
118
20
0
30
0
11
0
21
0
31
0
39
0
210
0
220
0
230
1
0
LINE
5
87
100
AcDbEntity
8
SK4
62
256
6
ByLayer
370
18
48
0.05
60
0
100
AcDbLine
10
123
20
0
30
0
11
-50
21
0
31
0
39
0
210
0
220
0
230
1
0
LINE
5
89
100
AcDbEntity
8
SK1
62
256
6
ByLayer
370
18
48
1
60
0
100
AcDbLine
10
-45
20
-3
30
0
11
-43.267949
21
-6
31
0
39
0
210
0
220
0
230
1
0
LINE
5
8A
100
AcDbEntity
8
SK1
62
256
6
ByLayer
370
18
48
1
60
0
100
AcDbLine
10
-43.267949
20
6
30
0
11
-45
21
3
31
0
39
0
210
0
220
0
230
1
0
LINE
5
8B
100
AcDbEntity
8
SK1
62
256
6
ByLayer
370
18
48
1
60
0
100
AcDbLine
10
-43.267949
20
-6
30
0
11
0
21
-6
31
0
39
0
210
0
220
0
230
1
0
LINE
5
8C
100
AcDbEntity
8
SK1
62
256
6
ByLayer
370
18
48
1
60
0
100
AcDbLine
10
0
20
6
30
0
11
-43.267949
21
6
31
0
39
0
210
0
220
0
230
1
0
LINE
5
8D
100
AcDbEntity
8
1
62
256
6
ByLayer
370
18
48
1
60
0
100
AcDbLine
10
1.302901
20
-5.393817
30
0
11
4.620093
21
-5.399788
31
0
39
0
210
0
220
0
230
1
0
LINE
5
8E
100
AcDbEntity
8
1
62
256
6
ByLayer
370
18
48
1
60
0
100
AcDbLine
10
19.985827
20
-5.427446
30
0
11
21.018341
21
-5.429305
31
0
39
0
210
0
220
0
230
1
0
LINE
5
8F
100
AcDbEntity
8
1
62
256
6
ByLayer
370
18
48
1
60
0
100
AcDbLine
10
52.502495
20
-5.485976
30
0
11
53.518631
21
-5.487805
31
0
39
0
210
0
220
0
230
1
0
LINE
5
90
100
AcDbEntity
8
1
62
256
6
ByLayer
370
18
48
1
60
0
100
AcDbLine
10
85.020163
20
-5.544508
30
0
11
86.017613
21
-5.546303
31
0
39
0
210
0
220
0
230
1
0
LINE
5
91
100
AcDbEntity
8
1
62
256
6
ByLayer
370
18
48
1
60
0
100
AcDbLine
10
86.017615
20
5.546303
30
0
11
85.020163
21
5.544508
31
0
39
0
210
0
220
0
230
1
0
LINE
5
92
100
AcDbEntity
8
1
62
256
6
ByLayer
370
18
48
1
60
0
100
AcDbLine
10
53.518605
20
5.487805
30
0
11
52.502495
21
5.485976
31
0
39
0
210
0
220
0
230
1
0
LINE
5
93
100
AcDbEntity
8
1
62
256
6
ByLayer
370
18
48
1
60
0
100
AcDbLine
10
21.018136
20
5.429304
30
0
11
19.985827
21
5.427446
31
0
39
0
210
0
220
0
230
1
0
LINE
5
94
100
AcDbEntity
8
1
62
256
6
ByLayer
370
18
48
1
60
0
100
AcDbLine
10
4.620093
20
5.399788
30
0
11
1.302901
21
5.393817
31
0
39
0
210
0
220
0
230
1
0
LINE
5
95
100
AcDbEntity
8
81
62
256
6
ByLayer
370
18
48
1
60
0
100
AcDbLine
10
118
20
0
30
0
11
123
21
0
31
0
39
0
210
0
220
0
230
1
0
LINE
5
96
100
AcDbEntity
8
SK2
62
256
6
ByLayer
370
13
48
1
60
0
100
AcDbLine
10
-53.625163
20
-6
30
0
11
-53.625163
21
36.857173
31
0
39
0
210
0
220
0
230
1
0
LINE
5
98
100
AcDbEntity
8
SK2
62
256
6
ByLayer
370
13
48
1
60
0
100
AcDbLine
10
-46.5875
20
6
30
0
11
-55.625163
21
6
31
0
39
0
210
0
220
0
230
1
0
LINE
5
99
100
AcDbEntity
8
SK2
62
256
6
ByLayer
370
13
48
1
60
0
100
AcDbLine
10
-46.5875
20
-6
30
0
11
-55.625163
21
-6
31
0
39
0
210
0
220
0
230
1
0
LINE
5
9A
100
AcDbEntity
8
1
62
256
6
ByLayer
370
18
48
1
60
1
100
AcDbLine
10
-53.625163
20
6
30
0
11
-53.164379
21
2.500002
31
0
39
0
210
0
220
0
230
1
0
LINE
5
9B
100
AcDbEntity
8
1
62
256
6
ByLayer
370
18
48
1
60
1
100
AcDbLine
10
-53.164379
20
2.500002
30
0
11
-54.085946
21
2.499998
31
0
39
0
210
0
220
0
230
1
0
LINE
5
9C
100
AcDbEntity
8
1
62
256
6
ByLayer
370
18
48
1
60
1
100
AcDbLine
10
-54.085946
20
2.499998
30
0
11
-53.625163
21
6
31
0
39
0
210
0
220
0
230
1
0
LINE
5
9D
100
AcDbEntity
8
1
62
256
6
ByLayer
370
18
48
1
60
1
100
AcDbLine
10
-53.625163
20
-6
30
0
11
-54.085946
21
-2.500002
31
0
39
0
210
0
220
0
230
1
0
LINE
5
9E
100
AcDbEntity
8
1
62
256
6
ByLayer
370
18
48
1
60
1
100
AcDbLine
10
-54.085946
20
-2.500002
30
0
11
-53.164379
21
-2.499998
31
0
39
0
210
0
220
0
230
1
0
LINE
5
9F
100
AcDbEntity
8
1
62
256
6
ByLayer
370
18
48
1
60
1
100
AcDbLine
10
-53.164379
20
-2.499998
30
0
11
-53.625163
21
-6
31
0
39
0
210
0
220
0
230
1
0
LINE
5
A0
100
AcDbEntity
8
2
62
256
6
ByLayer
370
13
48
1
60
0
100
AcDbLine
10
130.083343
20
-5.6
30
0
11
130.083343
21
34.175392
31
0
39
0
210
0
220
0
230
1
0
LINE
5
A2
100
AcDbEntity
8
2
62
256
6
ByLayer
370
13
48
1
60
0
100
AcDbLine
10
117.4366
20
5.6
30
0
11
132.083343
21
5.6
31
0
39
0
210
0
220
0
230
1
0
LINE
5
A3
100
AcDbEntity
8
2
62
256
6
ByLayer
370
13
48
1
60
0
100
AcDbLine
10
117.4366
20
-5.6
30
0
11
132.083343
21
-5.6
31
0
39
0
210
0
220
0
230
1
0
LINE
5
A4
100
AcDbEntity
8
1
62
256
6
ByLayer
370
18
48
1
60
1
100
AcDbLine
10
130.083343
20
5.6
30
0
11
130.544126
21
2.100002
31
0
39
0
210
0
220
0
230
1
0
LINE
5
A5
100
AcDbEntity
8
1
62
256
6
ByLayer
370
18
48
1
60
1
100
AcDbLine
10
130.544126
20
2.100002
30
0
11
129.622559
21
2.099998
31
0
39
0
210
0
220
0
230
1
0
LINE
5
A6
100
AcDbEntity
8
1
62
256
6
ByLayer
370
18
48
1
60
1
100
AcDbLine
10
129.622559
20
2.099998
30
0
11
130.083343
21
5.6
31
0
39
0
210
0
220
0
230
1
0
LINE
5
A7
100
AcDbEntity
8
1
62
256
6
ByLayer
370
18
48
1
60
1
100
AcDbLine
10
130.083343
20
-5.6
30
0
11
129.622559
21
-2.100002
31
0
39
0
210
0
220
0
230
1
0
LINE
5
A8
100
AcDbEntity
8
1
62
256
6
ByLayer
370
18
48
1
60
1
100
AcDbLine
10
129.622559
20
-2.100002
30
0
11
130.544126
21
-2.099998
31
0
39
0
210
0
220
0
230
1
0
LINE
5
A9
100
AcDbEntity
8
1
62
256
6
ByLayer
370
18
48
1
60
1
100
AcDbLine
10
130.544126
20
-2.099998
30
0
11
130.083343
21
-5.6
31
0
39
0
210
0
220
0
230
1
0
LINE
5
10D
100
AcDbEntity
8
1
62
256
6
ByLayer
370
18
48
1
60
1
100
AcDbLine
10
-53.625163
20
6
30
0
11
-53.164379
21
2.500002
31
0
39
0
210
0
220
0
230
1
0
LINE
5
10E
100
AcDbEntity
8
1
62
256
6
ByLayer
370
18
48
1
60
1
100
AcDbLine
10
-53.164379
20
2.500002
30
0
11
-54.085946
21
2.499998
31
0
39
0
210
0
220
0
230
1
0
LINE
5
10F
100
AcDbEntity
8
1
62
256
6
ByLayer
370
18
48
1
60
1
100
AcDbLine
10
-54.085946
20
2.499998
30
0
11
-53.625163
21
6
31
0
39
0
210
0
220
0
230
1
0
LINE
5
111
100
AcDbEntity
8
1
62
256
6
ByLayer
370
18
48
1
60
1
100
AcDbLine
10
-53.625163
20
-6
30
0
11
-54.085946
21
-2.500002
31
0
39
0
210
0
220
0
230
1
0
LINE
5
112
100
AcDbEntity
8
1
62
256
6
ByLayer
370
18
48
1
60
1
100
AcDbLine
10
-54.085946
20
-2.500002
30
0
11
-53.164379
21
-2.499998
31
0
39
0
210
0
220
0
230
1
0
LINE
5
113
100
AcDbEntity
8
1
62
256
6
ByLayer
370
18
48
1
60
1
100
AcDbLine
10
-53.164379
20
-2.499998
30
0
11
-53.625163
21
-6
31
0
39
0
210
0
220
0
230
1
0
LINE
5
117
100
AcDbEntity
8
1
62
256
6
ByLayer
370
18
48
1
60
1
100
AcDbLine
10
130.083343
20
5.6
30
0
11
130.544126
21
2.100002
31
0
39
0
210
0
220
0
230
1
0
LINE
5
118
100
AcDbEntity
8
1
62
256
6
ByLayer
370
18
48
1
60
1
100
AcDbLine
10
130.544126
20
2.100002
30
0
11
129.622559
21
2.099998
31
0
39
0
210
0
220
0
230
1
0
LINE
5
119
100
AcDbEntity
8
1
62
256
6
ByLayer
370
18
48
1
60
1
100
AcDbLine
10
129.622559
20
2.099998
30
0
11
130.083343
21
5.6
31
0
39
0
210
0
220
0
230
1
0
LINE
5
11B
100
AcDbEntity
8
1
62
256
6
ByLayer
370
18
48
1
60
1
100
AcDbLine
10
130.083343
20
-5.6
30
0
11
129.622559
21
-2.100002
31
0
39
0
210
0
220
0
230
1
0
LINE
5
11C
100
AcDbEntity
8
1
62
256
6
ByLayer
370
18
48
1
60
1
100
AcDbLine
10
129.622559
20
-2.100002
30
0
11
130.544126
21
-2.099998
31
0
39
0
210
0
220
0
230
1
0
LINE
5
11D
100
AcDbEntity
8
1
62
256
6
ByLayer
370
18
48
1
60
1
100
AcDbLine
10
130.544126
20
-2.099998
30
0
11
130.083343
21
-5.6
31
0
39
0
210
0
220
0
230
1
0
MTEXT
5
107
100
AcDbEntity
8
SK6
62
256
6
ByLayer
370
13
48
1
60
0
100
AcDbMText
10
9.26584
20
38.140328
30
0
210
0
220
0
230
1
1
\W0.7174;860.1-1120-098A1-PM P1BM
40
3.5
41
0
44
1.084337
50
0
71
7
72
5
7
iso_b_vert
0
MTEXT
5
10B
100
AcDbEntity
8
SK2
62
256
6
ByLayer
370
18
48
1
60
0
100
AcDbMText
10
-55.189796
20
19.409024
30
0
210
0
220
0
230
1
1
%%c
40
3.5
41
0
44
1.084337
50
90
71
7
72
5
7
iso_b_vert
0
MTEXT
5
10C
100
AcDbEntity
8
SK2
62
256
6
ByLayer
370
18
48
1
60
0
100
AcDbMText
10
-55.189796
20
24.63168
30
0
210
0
220
0
230
1
1
\W0.6930;12,000
40
3.5
41
0
44
1.084337
50
90
71
7
72
5
7
iso_b_vert
0
MTEXT
5
115
100
AcDbEntity
8
2
62
256
6
ByLayer
370
18
48
1
60
0
100
AcDbMText
10
128.518709
20
17.60211
30
0
210
0
220
0
230
1
1
%%c
40
3.5
41
0
44
1.084337
50
90
71
7
72
5
7
iso_b_vert
0
MTEXT
5
116
100
AcDbEntity
8
2
62
256
6
ByLayer
370
18
48
1
60
0
100
AcDbMText
10
128.518709
20
22.824766
30
0
210
0
220
0
230
1
1
\W0.6440;11,200
40
3.5
41
0
44
1.084337
50
90
71
7
72
5
7
iso_b_vert
0
HATCH
5
110
100
AcDbEntity
8
SK2
62
256
6
ByLayer
370
13
48
1
60
0
100
AcDbHatch
10
0
20
0
30
0
210
0
220
0
230
1
2
ANSI31
70
0
71
0
91
1
92
5
93
3
72
1
10
-53.6251625675374
20
6
11
-53.1643788259847
21
2.50000169255318
72
1
10
-53.1643788259847
20
2.50000169255318
11
-54.0859463090902
21
2.49999830744682
72
1
10
-54.0859463090902
20
2.49999830744682
11
-53.6251625675374
21
6
97
0
75
0
76
1
52
0
41
0.0062
77
0
78
1
53
45
43
0
44
0
45
-0.0139193969876572
46
0.0139193969876572
79
0
47
0
98
1
10
0
20
0
0
HATCH
5
114
100
AcDbEntity
8
SK2
62
256
6
ByLayer
370
13
48
1
60
0
100
AcDbHatch
10
0
20
0
30
0
210
0
220
0
230
1
2
ANSI31
70
0
71
0
91
1
92
5
93
3
72
1
10
-53.6251625675374
20
-6
11
-54.0859463090902
21
-2.50000169255318
72
1
10
-54.0859463090902
20
-2.50000169255318
11
-53.1643788259847
21
-2.49999830744682
72
1
10
-53.1643788259847
20
-2.49999830744682
11
-53.6251625675374
21
-6
97
0
75
0
76
1
52
0
41
0.0062
77
0
78
1
53
45
43
0
44
0
45
-0.0139193969876572
46
0.0139193969876572
79
0
47
0
98
1
10
0
20
0
0
HATCH
5
11A
100
AcDbEntity
8
2
62
256
6
ByLayer
370
13
48
1
60
0
100
AcDbHatch
10
0
20
0
30
0
210
0
220
0
230
1
2
ANSI31
70
0
71
0
91
1
92
5
93
3
72
1
10
130.083342615295
20
5.60000000000002
11
130.544126356848
21
2.10000169255321
72
1
10
130.544126356848
20
2.10000169255321
11
129.622558873742
21
2.09999830744684
72
1
10
129.622558873742
20
2.09999830744684
11
130.083342615295
21
5.60000000000002
97
0
75
0
76
1
52
0
41
0.0062
77
0
78
1
53
45
43
0
44
0
45
-0.0139193969876572
46
0.0139193969876572
79
0
47
0
98
1
10
0
20
0
0
HATCH
5
11E
100
AcDbEntity
8
2
62
256
6
ByLayer
370
13
48
1
60
0
100
AcDbHatch
10
0
20
0
30
0
210
0
220
0
230
1
2
ANSI31
70
0
71
0
91
1
92
5
93
3
72
1
10
130.083342615295
20
-5.59999999999999
11
129.622558873742
21
-2.10000169255318
72
1
10
129.622558873742
20
-2.10000169255318
11
130.544126356848
21
-2.09999830744681
72
1
10
130.544126356848
20
-2.09999830744681
11
130.083342615295
21
-5.59999999999999
97
0
75
0
76
1
52
0
41
0.0062
77
0
78
1
53
45
43
0
44
0
45
-0.0139193969876572
46
0.0139193969876572
79
0
47
0
98
1
10
0
20
0
0
DIMENSION
5
120
100
AcDbEntity
8
2
62
256
6
ByLayer
370
13
48
1
60
0
100
AcDbDimension
2
_U0
10
115.8491
20
-15.813398
30
0
11
57.92455
21
-15.813398
31
0
70
32
71
1
72
1
41
1
210
0
220
0
230
1
3
Standard
100
AcDbAlignedDimension
13
0
23
0
33
0
14
115.8491
24
-5.6
34
0
50
0
100
AcDbRotatedDimension
1001
ACAD
1000
DSTYLE
1002
{
1070
   371
1070
    13
1070
   372
1070
    13
1070
   170
1070
     0
1070
   144
1040
1.0
1070
   277
1070
     2
1070
   278
1070
    44
1070
   146
1040
1.0
1070
   345
1005
16
1070
   347
1005
16
1070
   346
1005
16
1070
   344
1005
0
1070
   343
1005
0
1070
   172
1070
     1
1070
    76
1070
     0
1070
    75
1070
     0
1070
   282
1070
     0
1070
   281
1070
     0
1070
    71
1070
     0
1070
    74
1070
     0
1070
   279
1070
     0
1070
   173
1070
     1
1070
   340
1005
108
1070
   271
1070
     2
1070
   272
1070
     2
1070
    77
1070
     1
1070
    73
1070
     1
1070
   171
1070
     3
1070
   274
1070
     4
1070
   177
1070
    35
1070
   176
1070
    35
1070
   178
1070
    35
1070
    48
1040
-0.1
1070
    41
1040
3.5
1070
   147
1040
1.75
1070
    42
1040
1.5875
1070
    44
1040
2.0
1070
   140
1040
3.5
1002
}
1001
ACAD_DSTYLE_DIM_LINETYPE
1070
   380
1005
16
1001
ACAD_DSTYLE_DIM_EXT1_LINETYPE
1070
   381
1005
16
1001
ACAD_DSTYLE_DIM_EXT2_LINETYPE
1070
   382
1005
16
0
DIMENSION
5
139
100
AcDbEntity
8
SK2
62
256
6
ByLayer
370
13
48
1
60
0
100
AcDbDimension
2
_U1
10
118
20
-34.692985
30
0
11
36.5
21
-34.692985
31
0
70
32
71
1
72
1
41
1
210
0
220
0
230
1
3
Standard
100
AcDbAlignedDimension
13
-45
23
-6
33
0
14
118
24
0
34
0
50
0
100
AcDbRotatedDimension
1001
ACAD
1000
DSTYLE
1002
{
1070
   371
1070
    13
1070
   372
1070
    13
1070
   170
1070
     0
1070
   144
1040
1.0
1070
   277
1070
     2
1070
   278
1070
    44
1070
   146
1040
1.0
1070
   345
1005
16
1070
   347
1005
16
1070
   346
1005
16
1070
   344
1005
0
1070
   343
1005
0
1070
   172
1070
     1
1070
    76
1070
     0
1070
    75
1070
     0
1070
   282
1070
     0
1070
   281
1070
     0
1070
    71
1070
     0
1070
    74
1070
     0
1070
   279
1070
     0
1070
   173
1070
     1
1070
   340
1005
108
1070
   271
1070
     2
1070
   272
1070
     2
1070
    77
1070
     1
1070
    73
1070
     1
1070
   171
1070
     3
1070
   274
1070
     4
1070
   177
1070
    35
1070
   176
1070
    35
1070
   178
1070
    35
1070
    48
1040
-0.1
1070
    41
1040
3.5
1070
   147
1040
1.75
1070
    42
1040
1.5875
1070
    44
1040
2.0
1070
   140
1040
3.5
1002
}
1001
ACAD_DSTYLE_DIM_LINETYPE
1070
   380
1005
16
1001
ACAD_DSTYLE_DIM_EXT1_LINETYPE
1070
   381
1005
16
1001
ACAD_DSTYLE_DIM_EXT2_LINETYPE
1070
   382
1005
16
0
DIMENSION
5
151
100
AcDbEntity
8
SK2
62
256
6
ByLayer
370
13
48
1
60
0
100
AcDbDimension
2
_U2
10
118
20
17.209119
30
0
11
72.125
21
17.209119
31
0
70
32
71
1
72
1
41
1
210
0
220
0
230
1
3
Standard
100
AcDbAlignedDimension
13
26.25
23
5.6
33
0
14
118
24
0
34
0
50
0
100
AcDbRotatedDimension
1001
ACAD
1000
DSTYLE
1002
{
1070
   371
1070
    13
1070
   372
1070
    13
1070
   170
1070
     0
1070
   144
1040
1.0
1070
   277
1070
     2
1070
   278
1070
    44
1070
   146
1040
1.0
1070
   345
1005
16
1070
   347
1005
16
1070
   346
1005
16
1070
   344
1005
0
1070
   343
1005
0
1070
   172
1070
     1
1070
    76
1070
     0
1070
    75
1070
     0
1070
   282
1070
     0
1070
   281
1070
     0
1070
    71
1070
     0
1070
    74
1070
     0
1070
   279
1070
     0
1070
   173
1070
     1
1070
   340
1005
108
1070
   271
1070
     2
1070
   272
1070
     2
1070
    77
1070
     1
1070
    73
1070
     1
1070
   171
1070
     3
1070
   274
1070
     4
1070
   177
1070
    35
1070
   176
1070
    35
1070
   178
1070
    35
1070
    48
1040
-0.1
1070
    41
1040
3.5
1070
   147
1040
1.75
1070
    42
1040
1.5875
1070
    44
1040
2.0
1070
   140
1040
3.5
1002
}
1001
ACAD_DSTYLE_DIM_LINETYPE
1070
   380
1005
16
1001
ACAD_DSTYLE_DIM_EXT1_LINETYPE
1070
   381
1005
16
1001
ACAD_DSTYLE_DIM_EXT2_LINETYPE
1070
   382
1005
16
0
DIMENSION
5
169
100
AcDbEntity
8
SK2
62
256
6
ByLayer
370
13
48
1
60
0
100
AcDbDimension
2
_U3
10
115.8491
20
-18.402503
30
0
11
135.583333
21
-18.402503
31
0
70
32
71
1
72
1
41
1
210
0
220
0
230
1
3
Standard
100
AcDbAlignedDimension
13
118
23
0
33
0
14
115.8491
24
-5.6
34
0
50
0
100
AcDbRotatedDimension
1001
ACAD
1000
DSTYLE
1002
{
1070
   371
1070
    13
1070
   372
1070
    13
1070
   170
1070
     0
1070
   144
1040
1.0
1070
   277
1070
     2
1070
   278
1070
    44
1070
   146
1040
1.0
1070
   345
1005
16
1070
   347
1005
16
1070
   346
1005
16
1070
   344
1005
0
1070
   343
1005
0
1070
   172
1070
     1
1070
    76
1070
     0
1070
    75
1070
     0
1070
   282
1070
     0
1070
   281
1070
     0
1070
    71
1070
     0
1070
    74
1070
     0
1070
   279
1070
     0
1070
   173
1070
     1
1070
   340
1005
108
1070
   271
1070
     2
1070
   272
1070
     2
1070
    77
1070
     1
1070
    73
1070
     1
1070
   171
1070
     3
1070
   274
1070
     4
1070
   177
1070
    35
1070
   176
1070
    35
1070
   178
1070
    35
1070
    48
1040
-0.1
1070
    41
1040
3.5
1070
   147
1040
1.75
1070
    42
1040
1.5875
1070
    44
1040
2.0
1070
   140
1040
3.5
1002
}
1001
ACAD_DSTYLE_DIM_LINETYPE
1070
   380
1005
16
1001
ACAD_DSTYLE_DIM_EXT1_LINETYPE
1070
   381
1005
16
1001
ACAD_DSTYLE_DIM_EXT2_LINETYPE
1070
   382
1005
16
0
DIMENSION
5
183
100
AcDbEntity
8
SK2
62
256
6
ByLayer
370
13
48
1
60
0
100
AcDbDimension
2
_U4
10
115.8491
20
-24.343428
30
0
11
35.42455
21
-24.343428
31
0
70
32
71
1
72
1
41
1
210
0
220
0
230
1
3
Standard
100
AcDbAlignedDimension
13
-45
23
-6
33
0
14
115.8491
24
-5.6
34
0
50
0
100
AcDbRotatedDimension
1001
ACAD
1000
DSTYLE
1002
{
1070
   371
1070
    13
1070
   372
1070
    13
1070
   170
1070
     0
1070
   144
1040
1.0
1070
   277
1070
     2
1070
   278
1070
    44
1070
   146
1040
1.0
1070
   345
1005
16
1070
   347
1005
16
1070
   346
1005
16
1070
   344
1005
0
1070
   343
1005
0
1070
   172
1070
     1
1070
    76
1070
     0
1070
    75
1070
     0
1070
   282
1070
     0
1070
   281
1070
     0
1070
    71
1070
     0
1070
    74
1070
     0
1070
   279
1070
     0
1070
   173
1070
     1
1070
   340
1005
108
1070
   271
1070
     2
1070
   272
1070
     2
1070
    77
1070
     1
1070
    73
1070
     1
1070
   171
1070
     3
1070
   274
1070
     4
1070
   177
1070
    35
1070
   176
1070
    35
1070
   178
1070
    35
1070
    48
1040
-0.1
1070
    41
1040
3.5
1070
   147
1040
1.75
1070
    42
1040
1.5875
1070
    44
1040
2.0
1070
   140
1040
3.5
1002
}
1001
ACAD_DSTYLE_DIM_LINETYPE
1070
   380
1005
16
1001
ACAD_DSTYLE_DIM_EXT1_LINETYPE
1070
   381
1005
16
1001
ACAD_DSTYLE_DIM_EXT2_LINETYPE
1070
   382
1005
16
0
ENDSEC
0
SECTION
2
OBJECTS
0
DICTIONARY
5
20b
330
0
100
AcDbDictionary
280
0
281
1
3
ACAD_GROUP
350
20c
3
ACAD_MLINESTYLE
350
20d
0
DICTIONARY
5
20c
330
0
100
AcDbDictionary
280
0
281
1
0
DICTIONARY
5
20d
330
0
100
AcDbDictionary
280
0
281
1
3
Standard
350
18
0
MLINESTYLE
5
18
330
20d
100
AcDbMlineStyle
2
Standard
70
0
3

62
256
51
90
52
90
71
2
49
-0.5
62
256
6
ByLayer
49
0.5
62
256
6
ByLayer
0
RASTERVARIABLES
5
1f9
330

100
AcDbRasterVariables
90
0
70
1
71
1
72
1
0
ENDSEC
0
EOF
