0
SECTION
2
HEADER
9
$ACADVER
1
AC1015
9
$DWGCODEPAGE
3
ANSI_1252
9
$HANDSEED
5
202
9
$ANGBASE
50
0
9
$ANGDIR
70
0
9
$ATTMODE
70
1
9
$AUNITS
70
0
9
$AUPREC
70
0
9
$CECOLOR
62
256
9
$CELTSCALE
40
1
9
$CELTYPE
6
ByLayer
9
$CELWEIGHT
370
18
9
$CLAYER
8
0
9
$CMLJUST
70
0
9
$CMLSCALE
40
1
9
$CMLSTYLE
2
Standard
9
$DIMSTYLE
2
Standard
9
$TEXTSIZE
40
0.2
9
$TEXTSTYLE
7
Standard
9
$LUNITS
70
2
9
$LUPREC
70
4
9
$EXTNAMES
290
1
9
$INSUNITS
70
4
9
$LTSCALE
40
1
9
$LWDISPLAY
290
1
9
$PDMODE
70
0
9
$PDSIZE
40
0
9
$PLINEGEN
70
0
0
ENDSEC
0
SECTION
2
CLASSES
0
CLASS
1
RASTERVARIABLES
2
AcDbRasterVariables
3
ISM
90
0
280
0
281
0
0
ENDSEC
0
SECTION
2
TABLES
0
TABLE
2
VPORT
5
1f8
100
AcDbSymbolTable
0
VPORT
5
1
100
AcDbSymbolTableRecord
100
AcDbViewportTableRecord
2
*Active
70
0
10
0
20
0
11
1
21
1
12
-1
22
1
13
0
23
0
14
0.5
24
0.5
15
10
25
10
16
0
26
0
36
1
17
0
27
0
37
0
0
ENDTAB
0
TABLE
2
LTYPE
5
1f9
100
AcDbSymbolTable
0
LTYPE
5
14
100
AcDbSymbolTableRecord
100
AcDbLinetypeTableRecord
70
0
2
ByBlock
3

72
65
73
0
40
0
0
LTYPE
5
15
100
AcDbSymbolTableRecord
100
AcDbLinetypeTableRecord
70
0
2
ByLayer
3

72
65
73
0
40
0
0
LTYPE
5
16
100
AcDbSymbolTableRecord
100
AcDbLinetypeTableRecord
70
0
2
Continuous
3
Solid line
72
65
73
0
40
0
0
LTYPE
5
6E
100
AcDbSymbolTableRecord
100
AcDbLinetypeTableRecord
70
0
2
CENTER
3
____ _ ____ _ ____ _ ____
72
65
73
4
40
47.5
49
22
74
0
49
-8.5
74
0
49
8.5
74
0
49
-8.5
74
0
0
LTYPE
5
6F
100
AcDbSymbolTableRecord
100
AcDbLinetypeTableRecord
70
0
2
DASHED
3
__ __ __ __ __ __ __ __ __
72
65
73
2
40
25.72
49
12.86
74
0
49
-12.86
74
0
0
ENDTAB
0
TABLE
2
LAYER
5
1fa
100
AcDbSymbolTable
0
LAYER
5
10
100
AcDbSymbolTableRecord
100
AcDbLayerTableRecord
2
0
70
0
62
7
6
Continuous
290
1
370
-3
390
0
0
LAYER
5
71
100
AcDbSymbolTableRecord
100
AcDbLayerTableRecord
2
80
70
0
62
-6
6
Continuous
290
1
370
-3
390
0
0
LAYER
5
73
100
AcDbSymbolTableRecord
100
AcDbLayerTableRecord
2
81
70
0
62
-3
6
Continuous
290
1
370
-3
390
0
0
LAYER
5
75
100
AcDbSymbolTableRecord
100
AcDbLayerTableRecord
2
1
70
0
62
4
6
Continuous
290
1
370
-3
390
0
0
LAYER
5
86
100
AcDbSymbolTableRecord
100
AcDbLayerTableRecord
2
4
70
0
62
-2
6
CENTER
290
1
370
-3
390
0
0
LAYER
5
9D
100
AcDbSymbolTableRecord
100
AcDbLayerTableRecord
2
2
70
0
62
7
6
Continuous
290
1
370
-3
390
0
0
LAYER
5
10D
100
AcDbSymbolTableRecord
100
AcDbLayerTableRecord
2
Defpoints
70
0
62
7
6
Continuous
290
0
370
-3
390
0
0
LAYER
5
1e4
100
AcDbSymbolTableRecord
100
AcDbLayerTableRecord
2
SK1
70
0
62
4
6
Continuous
290
1
370
-3
390
0
0
LAYER
5
1e5
100
AcDbSymbolTableRecord
100
AcDbLayerTableRecord
2
SK4
70
0
62
2
6
CENTER
290
1
370
-3
390
0
0
LAYER
5
1e6
100
AcDbSymbolTableRecord
100
AcDbLayerTableRecord
2
SK2
70
0
62
7
6
Continuous
290
1
370
-3
390
0
0
LAYER
5
1e7
100
AcDbSymbolTableRecord
100
AcDbLayerTableRecord
2
SK6
70
0
62
5
6
Continuous
290
1
370
-3
390
0
0
ENDTAB
0
TABLE
2
STYLE
5
1fb
100
AcDbSymbolTable
0
STYLE
5
11
100
AcDbSymbolTableRecord
100
AcDbTextStyleTableRecord
2
Standard
3
txt
70
0
71
0
40
0
41
1
42
0
50
0
0
STYLE
5
F2
100
AcDbSymbolTableRecord
100
AcDbTextStyleTableRecord
2
iso_b_vert
3
simplex.shx
70
0
71
0
40
0
41
1
42
0
50
0
0
STYLE
5
F3
100
AcDbSymbolTableRecord
100
AcDbTextStyleTableRecord
2
DWGDirectTextStyle
3
simplex
70
0
71
0
40
0
41
1
42
0
50
0
0
ENDTAB
0
TABLE
2
DIMSTYLE
5
1fc
100
AcDbSymbolTable
100
AcDbDimStyleTable
0
DIMSTYLE
105
27
100
AcDbSymbolTableRecord
100
AcDbDimStyleTableRecord
2
Standard
70
0
3
<>
41
0.18
42
0.0625
44
0.18
140
0.18
147
0.09
73
0
74
0
77
1
271
2
275
0
278
52
280
0
340
11
0
ENDTAB
0
TABLE
2
VIEW
5
1fd
100
AcDbSymbolTable
0
ENDTAB
0
TABLE
2
UCS
5
1fe
100
AcDbSymbolTable
0
ENDTAB
0
TABLE
2
APPID
5
1ff
100
AcDbSymbolTable
0
APPID
5
12
100
AcDbSymbolTableRecord
100
AcDbRegAppTableRecord
2
ACAD
70
0
0
APPID
5
109
100
AcDbSymbolTableRecord
100
AcDbRegAppTableRecord
2
ACAD_DSTYLE_DIMBREAK
70
0
0
APPID
5
1A3
100
AcDbSymbolTableRecord
100
AcDbRegAppTableRecord
2
ACAD_DSTYLE_DIM_LINETYPE
70
0
0
APPID
5
1A4
100
AcDbSymbolTableRecord
100
AcDbRegAppTableRecord
2
ACAD_DSTYLE_DIM_EXT1_LINETYPE
70
0
0
APPID
5
1A5
100
AcDbSymbolTableRecord
100
AcDbRegAppTableRecord
2
ACAD_DSTYLE_DIM_EXT2_LINETYPE
70
0
0
APPID
5
1E0
100
AcDbSymbolTableRecord
100
AcDbRegAppTableRecord
2
ACAD_MLEADERVER
70
0
0
ENDTAB
0
TABLE
2
BLOCK_RECORD
5
200
100
AcDbSymbolTable
0
BLOCK_RECORD
5
1F
100
AcDbSymbolTableRecord
100
AcDbBlockTableRecord
2
*Model_Space
340
0
70
0
0
BLOCK_RECORD
5
1B
100
AcDbSymbolTableRecord
100
AcDbBlockTableRecord
2
*Paper_Space
340
0
70
0
0
BLOCK_RECORD
5
23
100
AcDbSymbolTableRecord
100
AcDbBlockTableRecord
2
*Paper_Space0
340
0
70
0
0
BLOCK_RECORD
5
10E
100
AcDbSymbolTableRecord
100
AcDbBlockTableRecord
2
*D1
340
0
70
0
0
BLOCK_RECORD
5
11A
100
AcDbSymbolTableRecord
100
AcDbBlockTableRecord
2
_U0
340
0
70
0
0
BLOCK_RECORD
5
126
100
AcDbSymbolTableRecord
100
AcDbBlockTableRecord
2
*D3
340
0
70
0
0
BLOCK_RECORD
5
132
100
AcDbSymbolTableRecord
100
AcDbBlockTableRecord
2
_U1
340
0
70
0
0
BLOCK_RECORD
5
13E
100
AcDbSymbolTableRecord
100
AcDbBlockTableRecord
2
*D5
340
0
70
0
0
BLOCK_RECORD
5
14A
100
AcDbSymbolTableRecord
100
AcDbBlockTableRecord
2
_U2
340
0
70
0
0
BLOCK_RECORD
5
156
100
AcDbSymbolTableRecord
100
AcDbBlockTableRecord
2
*D7
340
0
70
0
0
BLOCK_RECORD
5
164
100
AcDbSymbolTableRecord
100
AcDbBlockTableRecord
2
_U3
340
0
70
0
0
BLOCK_RECORD
5
170
100
AcDbSymbolTableRecord
100
AcDbBlockTableRecord
2
*D9
340
0
70
0
0
BLOCK_RECORD
5
17C
100
AcDbSymbolTableRecord
100
AcDbBlockTableRecord
2
_U4
340
0
70
0
0
ENDTAB
0
ENDSEC
0
SECTION
2
BLOCKS
0
BLOCK
5
20
100
AcDbEntity
8
0
100
AcDbBlockBegin
2
*Model_Space
70
0
10
0
20
0
30
0
3
*Model_Space
0
ENDBLK
5
21
100
AcDbEntity
8
0
100
AcDbBlockEnd
0
BLOCK
5
1C
100
AcDbEntity
8
0
100
AcDbBlockBegin
2
*Paper_Space
70
0
10
0
20
0
30
0
3
*Paper_Space
0
ENDBLK
5
1D
100
AcDbEntity
8
0
100
AcDbBlockEnd
0
BLOCK
5
24
100
AcDbEntity
8
0
100
AcDbBlockBegin
2
*Paper_Space0
70
0
10
0
20
0
30
0
3
*Paper_Space0
0
ENDBLK
5
25
100
AcDbEntity
8
0
100
AcDbBlockEnd
0
BLOCK
5
10F
100
AcDbEntity
8
0
100
AcDbBlockBegin
2
*D1
70
1
10
0
20
0
30
0
3
*D1
0
LINE
5
111
100
AcDbEntity
8
0
62
256
6
ByLayer
370
-2
48
1
60
0
100
AcDbLine
10
0
20
-1.5875
30
0
11
0
21
-17.813398
31
0
39
0
210
0
220
0
230
1
0
LINE
5
112
100
AcDbEntity
8
0
62
256
6
ByLayer
370
-2
48
1
60
0
100
AcDbLine
10
70.8491
20
-7.1875
30
0
11
70.8491
21
-17.813398
31
0
39
0
210
0
220
0
230
1
0
LINE
5
113
100
AcDbEntity
8
0
62
256
6
ByLayer
370
-2
48
1
60
0
100
AcDbLine
10
3.5
20
-15.813398
30
0
11
67.3491
21
-15.813398
31
0
39
0
210
0
220
0
230
1
0
SOLID
5
114
100
AcDbEntity
8
0
62
256
6
ByLayer
370
-1
48
1
60
0
100
AcDbTrace
10
3.5
20
-15.230065
30
0
11
3.5
21
-16.396732
31
0
12
0
22
-15.813398
32
0
13
0
23
-15.813398
33
0
39
0
210
0
220
0
230
1
0
SOLID
5
115
100
AcDbEntity
8
0
62
256
6
ByLayer
370
-1
48
1
60
0
100
AcDbTrace
10
67.3491
20
-16.396732
30
0
11
67.3491
21
-15.230065
31
0
12
70.8491
22
-15.813398
32
0
13
70.8491
23
-15.813398
33
0
39
0
210
0
220
0
230
1
0
MTEXT
5
116
100
AcDbEntity
8
0
62
256
6
ByLayer
370
18
48
1
60
0
100
AcDbMText
10
35.42455
20
-8.813398
30
0
210
0
220
0
230
1
1
\A1;70.85
40
3.5
41
0
44
1
50
0
71
5
72
5
7
iso_b_vert
0
POINT
5
117
100
AcDbEntity
8
Defpoints
62
0
6
ByLayer
370
-1
48
1
60
0
100
AcDbPoint
10
0
20
0
30
0
39
0
210
0
220
0
230
1
50
360
0
POINT
5
118
100
AcDbEntity
8
Defpoints
62
0
6
ByLayer
370
-1
48
1
60
0
100
AcDbPoint
10
70.8491
20
-5.6
30
0
39
0
210
0
220
0
230
1
50
360
0
POINT
5
119
100
AcDbEntity
8
Defpoints
62
0
6
ByLayer
370
-1
48
1
60
0
100
AcDbPoint
10
70.8491
20
-15.813398
30
0
39
0
210
0
220
0
230
1
50
360
0
ENDBLK
5
110
100
AcDbEntity
8
0
100
AcDbBlockEnd
0
BLOCK
5
121
100
AcDbEntity
8
0
100
AcDbBlockBegin
2
_U0
70
0
10
0
20
0
30
0
3
_U0
0
MTEXT
5
11B
100
AcDbEntity
8
2
62
256
6
ByLayer
370
13
48
1
60
0
100
AcDbMText
10
30.287251
20
-14.780765
30
0
210
0
220
0
230
1
1
\W0.7317;70,85
40
3.5
41
0
44
1.084337
50
0
71
7
72
5
7
iso_b_vert
0
LINE
5
11C
100
AcDbEntity
8
2
62
256
6
ByLayer
370
13
48
1
60
0
100
AcDbLine
10
0
20
-1.5875
30
0
11
0
21
-17.813398
31
0
39
0
210
0
220
0
230
1
0
LINE
5
11D
100
AcDbEntity
8
2
62
256
6
ByLayer
370
13
48
1
60
0
100
AcDbLine
10
70.8491
20
-7.1875
30
0
11
70.8491
21
-17.813398
31
0
39
0
210
0
220
0
230
1
0
LINE
5
11E
100
AcDbEntity
8
2
62
256
6
ByLayer
370
13
48
1
60
0
100
AcDbLine
10
0
20
-15.813398
30
0
11
70.8491
21
-15.813398
31
0
39
0
210
0
220
0
230
1
0
SOLID
5
11F
100
AcDbEntity
8
2
62
256
6
ByLayer
370
18
48
1
60
0
100
AcDbTrace
10
0
20
-15.813398
30
0
11
3.499998
21
-15.352615
31
0
12
3.500002
22
-16.274182
32
0
13
3.500002
23
-16.274182
33
0
39
0
210
0
220
0
230
1
0
SOLID
5
120
100
AcDbEntity
8
2
62
256
6
ByLayer
370
18
48
1
60
0
100
AcDbTrace
10
70.8491
20
-15.813398
30
0
11
67.349102
21
-16.274182
31
0
12
67.349098
22
-15.352615
32
0
13
67.349098
23
-15.352615
33
0
39
0
210
0
220
0
230
1
0
ENDBLK
5
122
100
AcDbEntity
8
0
100
AcDbBlockEnd
0
BLOCK
5
127
100
AcDbEntity
8
0
100
AcDbBlockBegin
2
*D3
70
1
10
0
20
0
30
0
3
*D3
0
LINE
5
129
100
AcDbEntity
8
0
62
256
6
ByLayer
370
-2
48
1
60
0
100
AcDbLine
10
-45
20
-7.5875
30
0
11
-45
21
-36.692985
31
0
39
0
210
0
220
0
230
1
0
LINE
5
12A
100
AcDbEntity
8
0
62
256
6
ByLayer
370
-2
48
1
60
0
100
AcDbLine
10
73
20
-1.5875
30
0
11
73
21
-36.692985
31
0
39
0
210
0
220
0
230
1
0
LINE
5
12B
100
AcDbEntity
8
0
62
256
6
ByLayer
370
-2
48
1
60
0
100
AcDbLine
10
-41.5
20
-34.692985
30
0
11
69.5
21
-34.692985
31
0
39
0
210
0
220
0
230
1
0
SOLID
5
12C
100
AcDbEntity
8
0
62
256
6
ByLayer
370
-1
48
1
60
0
100
AcDbTrace
10
-41.5
20
-34.109652
30
0
11
-41.5
21
-35.276319
31
0
12
-45
22
-34.692985
32
0
13
-45
23
-34.692985
33
0
39
0
210
0
220
0
230
1
0
SOLID
5
12D
100
AcDbEntity
8
0
62
256
6
ByLayer
370
-1
48
1
60
0
100
AcDbTrace
10
69.5
20
-35.276319
30
0
11
69.5
21
-34.109652
31
0
12
73
22
-34.692985
32
0
13
73
23
-34.692985
33
0
39
0
210
0
220
0
230
1
0
MTEXT
5
12E
100
AcDbEntity
8
0
62
256
6
ByLayer
370
18
48
1
60
0
100
AcDbMText
10
14
20
-27.692985
30
0
210
0
220
0
230
1
1
\A1;118.00
40
3.5
41
0
44
1
50
0
71
5
72
5
7
iso_b_vert
0
POINT
5
12F
100
AcDbEntity
8
Defpoints
62
0
6
ByLayer
370
-1
48
1
60
0
100
AcDbPoint
10
-45
20
-6
30
0
39
0
210
0
220
0
230
1
50
360
0
POINT
5
130
100
AcDbEntity
8
Defpoints
62
0
6
ByLayer
370
-1
48
1
60
0
100
AcDbPoint
10
73
20
0
30
0
39
0
210
0
220
0
230
1
50
360
0
POINT
5
131
100
AcDbEntity
8
Defpoints
62
0
6
ByLayer
370
-1
48
1
60
0
100
AcDbPoint
10
73
20
-34.692985
30
0
39
0
210
0
220
0
230
1
50
360
0
ENDBLK
5
128
100
AcDbEntity
8
0
100
AcDbBlockEnd
0
BLOCK
5
139
100
AcDbEntity
8
0
100
AcDbBlockBegin
2
_U1
70
0
10
0
20
0
30
0
3
_U1
0
MTEXT
5
133
100
AcDbEntity
8
SK2
62
256
6
ByLayer
370
13
48
1
60
0
100
AcDbMText
10
8.429835
20
-33.660352
30
0
210
0
220
0
230
1
1
\W0.6440;118,00
40
3.5
41
0
44
1.084337
50
0
71
7
72
5
7
iso_b_vert
0
LINE
5
134
100
AcDbEntity
8
SK2
62
256
6
ByLayer
370
13
48
1
60
0
100
AcDbLine
10
-45
20
-7.5875
30
0
11
-45
21
-36.692985
31
0
39
0
210
0
220
0
230
1
0
LINE
5
135
100
AcDbEntity
8
SK2
62
256
6
ByLayer
370
13
48
1
60
0
100
AcDbLine
10
73
20
-1.5875
30
0
11
73
21
-36.692985
31
0
39
0
210
0
220
0
230
1
0
LINE
5
136
100
AcDbEntity
8
SK2
62
256
6
ByLayer
370
13
48
1
60
0
100
AcDbLine
10
-45
20
-34.692985
30
0
11
73
21
-34.692985
31
0
39
0
210
0
220
0
230
1
0
SOLID
5
137
100
AcDbEntity
8
SK2
62
256
6
ByLayer
370
18
48
1
60
0
100
AcDbTrace
10
-45
20
-34.692985
30
0
11
-41.500002
21
-34.232202
31
0
12
-41.499998
22
-35.153769
32
0
13
-41.499998
23
-35.153769
33
0
39
0
210
0
220
0
230
1
0
SOLID
5
138
100
AcDbEntity
8
SK2
62
256
6
ByLayer
370
18
48
1
60
0
100
AcDbTrace
10
73
20
-34.692985
30
0
11
69.500002
21
-35.153769
31
0
12
69.499998
22
-34.232202
32
0
13
69.499998
23
-34.232202
33
0
39
0
210
0
220
0
230
1
0
ENDBLK
5
13A
100
AcDbEntity
8
0
100
AcDbBlockEnd
0
BLOCK
5
13F
100
AcDbEntity
8
0
100
AcDbBlockBegin
2
*D5
70
1
10
0
20
0
30
0
3
*D5
0
LINE
5
141
100
AcDbEntity
8
0
62
256
6
ByLayer
370
-2
48
1
60
0
100
AcDbLine
10
15.4
20
7.1875
30
0
11
15.4
21
19.209119
31
0
39
0
210
0
220
0
230
1
0
LINE
5
142
100
AcDbEntity
8
0
62
256
6
ByLayer
370
-2
48
1
60
0
100
AcDbLine
10
73
20
1.5875
30
0
11
73
21
19.209119
31
0
39
0
210
0
220
0
230
1
0
LINE
5
143
100
AcDbEntity
8
0
62
256
6
ByLayer
370
-2
48
1
60
0
100
AcDbLine
10
18.9
20
17.209119
30
0
11
69.5
21
17.209119
31
0
39
0
210
0
220
0
230
1
0
SOLID
5
144
100
AcDbEntity
8
0
62
256
6
ByLayer
370
-1
48
1
60
0
100
AcDbTrace
10
18.9
20
17.792453
30
0
11
18.9
21
16.625786
31
0
12
15.4
22
17.209119
32
0
13
15.4
23
17.209119
33
0
39
0
210
0
220
0
230
1
0
SOLID
5
145
100
AcDbEntity
8
0
62
256
6
ByLayer
370
-1
48
1
60
0
100
AcDbTrace
10
69.5
20
16.625786
30
0
11
69.5
21
17.792453
31
0
12
73
22
17.209119
32
0
13
73
23
17.209119
33
0
39
0
210
0
220
0
230
1
0
MTEXT
5
146
100
AcDbEntity
8
0
62
256
6
ByLayer
370
18
48
1
60
0
100
AcDbMText
10
44.2
20
24.209119
30
0
210
0
220
0
230
1
1
\A1;57.60
40
3.5
41
0
44
1
50
0
71
5
72
5
7
iso_b_vert
0
POINT
5
147
100
AcDbEntity
8
Defpoints
62
0
6
ByLayer
370
-1
48
1
60
0
100
AcDbPoint
10
15.4
20
5.6
30
0
39
0
210
0
220
0
230
1
50
360
0
POINT
5
148
100
AcDbEntity
8
Defpoints
62
0
6
ByLayer
370
-1
48
1
60
0
100
AcDbPoint
10
73
20
0
30
0
39
0
210
0
220
0
230
1
50
360
0
POINT
5
149
100
AcDbEntity
8
Defpoints
62
0
6
ByLayer
370
-1
48
1
60
0
100
AcDbPoint
10
73
20
17.209119
30
0
39
0
210
0
220
0
230
1
50
360
0
ENDBLK
5
140
100
AcDbEntity
8
0
100
AcDbBlockEnd
0
BLOCK
5
151
100
AcDbEntity
8
0
100
AcDbBlockBegin
2
_U2
70
0
10
0
20
0
30
0
3
_U2
0
MTEXT
5
14B
100
AcDbEntity
8
SK2
62
256
6
ByLayer
370
13
48
1
60
0
100
AcDbMText
10
39.062701
20
18.241753
30
0
210
0
220
0
230
1
1
\W0.7317;57,60
40
3.5
41
0
44
1.084337
50
0
71
7
72
5
7
iso_b_vert
0
LINE
5
14C
100
AcDbEntity
8
SK2
62
256
6
ByLayer
370
13
48
1
60
0
100
AcDbLine
10
15.4
20
7.1875
30
0
11
15.4
21
19.209119
31
0
39
0
210
0
220
0
230
1
0
LINE
5
14D
100
AcDbEntity
8
SK2
62
256
6
ByLayer
370
13
48
1
60
0
100
AcDbLine
10
73
20
1.5875
30
0
11
73
21
19.209119
31
0
39
0
210
0
220
0
230
1
0
LINE
5
14E
100
AcDbEntity
8
SK2
62
256
6
ByLayer
370
13
48
1
60
0
100
AcDbLine
10
15.4
20
17.209119
30
0
11
73
21
17.209119
31
0
39
0
210
0
220
0
230
1
0
SOLID
5
14F
100
AcDbEntity
8
SK2
62
256
6
ByLayer
370
18
48
1
60
0
100
AcDbTrace
10
15.4
20
17.209119
30
0
11
18.899998
21
17.669903
31
0
12
18.900002
22
16.748335
32
0
13
18.900002
23
16.748335
33
0
39
0
210
0
220
0
230
1
0
SOLID
5
150
100
AcDbEntity
8
SK2
62
256
6
ByLayer
370
18
48
1
60
0
100
AcDbTrace
10
73
20
17.209119
30
0
11
69.500002
21
16.748335
31
0
12
69.499998
22
17.669903
32
0
13
69.499998
23
17.669903
33
0
39
0
210
0
220
0
230
1
0
ENDBLK
5
152
100
AcDbEntity
8
0
100
AcDbBlockEnd
0
BLOCK
5
157
100
AcDbEntity
8
0
100
AcDbBlockBegin
2
*D7
70
1
10
0
20
0
30
0
3
*D7
0
LINE
5
159
100
AcDbEntity
8
0
62
256
6
ByLayer
370
-2
48
1
60
0
100
AcDbLine
10
73
20
-1.5875
30
0
11
73
21
-20.402503
31
0
39
0
210
0
220
0
230
1
0
LINE
5
15A
100
AcDbEntity
8
0
62
256
6
ByLayer
370
-2
48
1
60
0
100
AcDbLine
10
70.8491
20
-7.1875
30
0
11
70.8491
21
-20.402503
31
0
39
0
210
0
220
0
230
1
0
LINE
5
15B
100
AcDbEntity
8
0
62
256
6
ByLayer
370
-2
48
1
60
0
100
AcDbLine
10
73
20
-18.402503
30
0
11
101.166667
21
-18.402503
31
0
39
0
210
0
220
0
230
1
0
LINE
5
15C
100
AcDbEntity
8
0
62
256
6
ByLayer
370
-2
48
1
60
0
100
AcDbLine
10
76.5
20
-18.402503
30
0
11
80
21
-18.402503
31
0
39
0
210
0
220
0
230
1
0
LINE
5
15D
100
AcDbEntity
8
0
62
256
6
ByLayer
370
-2
48
1
60
0
100
AcDbLine
10
67.3491
20
-18.402503
30
0
11
63.8491
21
-18.402503
31
0
39
0
210
0
220
0
230
1
0
SOLID
5
15E
100
AcDbEntity
8
0
62
256
6
ByLayer
370
-1
48
1
60
0
100
AcDbTrace
10
76.5
20
-17.81917
30
0
11
76.5
21
-18.985837
31
0
12
73
22
-18.402503
32
0
13
73
23
-18.402503
33
0
39
0
210
0
220
0
230
1
0
SOLID
5
15F
100
AcDbEntity
8
0
62
256
6
ByLayer
370
-1
48
1
60
0
100
AcDbTrace
10
67.3491
20
-18.985837
30
0
11
67.3491
21
-17.81917
31
0
12
70.8491
22
-18.402503
32
0
13
70.8491
23
-18.402503
33
0
39
0
210
0
220
0
230
1
0
MTEXT
5
160
100
AcDbEntity
8
0
62
256
6
ByLayer
370
18
48
1
60
0
100
AcDbMText
10
90.583333
20
-11.402503
30
0
210
0
220
0
230
1
1
\A1;2.15
40
3.5
41
0
44
1
50
0
71
5
72
5
7
iso_b_vert
0
POINT
5
161
100
AcDbEntity
8
Defpoints
62
0
6
ByLayer
370
-1
48
1
60
0
100
AcDbPoint
10
73
20
0
30
0
39
0
210
0
220
0
230
1
50
360
0
POINT
5
162
100
AcDbEntity
8
Defpoints
62
0
6
ByLayer
370
-1
48
1
60
0
100
AcDbPoint
10
70.8491
20
-5.6
30
0
39
0
210
0
220
0
230
1
50
360
0
POINT
5
163
100
AcDbEntity
8
Defpoints
62
0
6
ByLayer
370
-1
48
1
60
0
100
AcDbPoint
10
70.8491
20
-18.402503
30
0
39
0
210
0
220
0
230
1
50
360
0
ENDBLK
5
158
100
AcDbEntity
8
0
100
AcDbBlockEnd
0
BLOCK
5
16B
100
AcDbEntity
8
0
100
AcDbBlockBegin
2
_U3
70
0
10
0
20
0
30
0
3
_U3
0
MTEXT
5
165
100
AcDbEntity
8
SK2
62
256
6
ByLayer
370
13
48
1
60
0
100
AcDbMText
10
79.589293
20
-17.36987
30
0
210
0
220
0
230
1
1
\W0.6367;2,15
40
3.5
41
0
44
1.084337
50
0
71
7
72
5
7
iso_b_vert
0
LINE
5
166
100
AcDbEntity
8
SK2
62
256
6
ByLayer
370
13
48
1
60
0
100
AcDbLine
10
73
20
-1.5875
30
0
11
73
21
-20.402503
31
0
39
0
210
0
220
0
230
1
0
LINE
5
167
100
AcDbEntity
8
SK2
62
256
6
ByLayer
370
13
48
1
60
0
100
AcDbLine
10
70.8491
20
-7.1875
30
0
11
70.8491
21
-20.402503
31
0
39
0
210
0
220
0
230
1
0
LINE
5
168
100
AcDbEntity
8
SK2
62
256
6
ByLayer
370
13
48
1
60
0
100
AcDbLine
10
62.0991
20
-18.402503
30
0
11
86.559058
21
-18.402503
31
0
39
0
210
0
220
0
230
1
0
SOLID
5
169
100
AcDbEntity
8
SK2
62
256
6
ByLayer
370
18
48
1
60
0
100
AcDbTrace
10
73
20
-18.402503
30
0
11
76.499998
21
-17.941719
31
0
12
76.500002
22
-18.863287
32
0
13
76.500002
23
-18.863287
33
0
39
0
210
0
220
0
230
1
0
SOLID
5
16A
100
AcDbEntity
8
SK2
62
256
6
ByLayer
370
18
48
1
60
0
100
AcDbTrace
10
70.8491
20
-18.402503
30
0
11
67.349102
21
-18.863287
31
0
12
67.349098
22
-17.941719
32
0
13
67.349098
23
-17.941719
33
0
39
0
210
0
220
0
230
1
0
ENDBLK
5
16C
100
AcDbEntity
8
0
100
AcDbBlockEnd
0
BLOCK
5
171
100
AcDbEntity
8
0
100
AcDbBlockBegin
2
*D9
70
1
10
0
20
0
30
0
3
*D9
0
LINE
5
173
100
AcDbEntity
8
0
62
256
6
ByLayer
370
-2
48
1
60
0
100
AcDbLine
10
-45
20
-7.5875
30
0
11
-45
21
-26.343428
31
0
39
0
210
0
220
0
230
1
0
LINE
5
174
100
AcDbEntity
8
0
62
256
6
ByLayer
370
-2
48
1
60
0
100
AcDbLine
10
70.8491
20
-7.1875
30
0
11
70.8491
21
-26.343428
31
0
39
0
210
0
220
0
230
1
0
LINE
5
175
100
AcDbEntity
8
0
62
256
6
ByLayer
370
-2
48
1
60
0
100
AcDbLine
10
-41.5
20
-24.343428
30
0
11
67.3491
21
-24.343428
31
0
39
0
210
0
220
0
230
1
0
SOLID
5
176
100
AcDbEntity
8
0
62
256
6
ByLayer
370
-1
48
1
60
0
100
AcDbTrace
10
-41.5
20
-23.760095
30
0
11
-41.5
21
-24.926762
31
0
12
-45
22
-24.343428
32
0
13
-45
23
-24.343428
33
0
39
0
210
0
220
0
230
1
0
SOLID
5
177
100
AcDbEntity
8
0
62
256
6
ByLayer
370
-1
48
1
60
0
100
AcDbTrace
10
67.3491
20
-24.926762
30
0
11
67.3491
21
-23.760095
31
0
12
70.8491
22
-24.343428
32
0
13
70.8491
23
-24.343428
33
0
39
0
210
0
220
0
230
1
0
MTEXT
5
178
100
AcDbEntity
8
0
62
256
6
ByLayer
370
18
48
1
60
0
100
AcDbMText
10
12.92455
20
-17.343428
30
0
210
0
220
0
230
1
1
\A1;115.85
40
3.5
41
0
44
1
50
0
71
5
72
5
7
iso_b_vert
0
POINT
5
179
100
AcDbEntity
8
Defpoints
62
0
6
ByLayer
370
-1
48
1
60
0
100
AcDbPoint
10
-45
20
-6
30
0
39
0
210
0
220
0
230
1
50
360
0
POINT
5
17A
100
AcDbEntity
8
Defpoints
62
0
6
ByLayer
370
-1
48
1
60
0
100
AcDbPoint
10
70.8491
20
-5.6
30
0
39
0
210
0
220
0
230
1
50
360
0
POINT
5
17B
100
AcDbEntity
8
Defpoints
62
0
6
ByLayer
370
-1
48
1
60
0
100
AcDbPoint
10
70.8491
20
-24.343428
30
0
39
0
210
0
220
0
230
1
50
360
0
ENDBLK
5
172
100
AcDbEntity
8
0
100
AcDbBlockEnd
0
BLOCK
5
183
100
AcDbEntity
8
0
100
AcDbBlockBegin
2
_U4
70
0
10
0
20
0
30
0
3
_U4
0
MTEXT
5
17D
100
AcDbEntity
8
SK2
62
256
6
ByLayer
370
13
48
1
60
0
100
AcDbMText
10
7.354385
20
-23.310795
30
0
210
0
220
0
230
1
1
\W0.6440;115,85
40
3.5
41
0
44
1.084337
50
0
71
7
72
5
7
iso_b_vert
0
LINE
5
17E
100
AcDbEntity
8
SK2
62
256
6
ByLayer
370
13
48
1
60
0
100
AcDbLine
10
-45
20
-7.5875
30
0
11
-45
21
-26.343428
31
0
39
0
210
0
220
0
230
1
0
LINE
5
17F
100
AcDbEntity
8
SK2
62
256
6
ByLayer
370
13
48
1
60
0
100
AcDbLine
10
70.8491
20
-7.1875
30
0
11
70.8491
21
-26.343428
31
0
39
0
210
0
220
0
230
1
0
LINE
5
180
100
AcDbEntity
8
SK2
62
256
6
ByLayer
370
13
48
1
60
0
100
AcDbLine
10
-45
20
-24.343428
30
0
11
70.8491
21
-24.343428
31
0
39
0
210
0
220
0
230
1
0
SOLID
5
181
100
AcDbEntity
8
SK2
62
256
6
ByLayer
370
18
48
1
60
0
100
AcDbTrace
10
-45
20
-24.343428
30
0
11
-41.500002
21
-23.882645
31
0
12
-41.499998
22
-24.804212
32
0
13
-41.499998
23
-24.804212
33
0
39
0
210
0
220
0
230
1
0
SOLID
5
182
100
AcDbEntity
8
SK2
62
256
6
ByLayer
370
18
48
1
60
0
100
AcDbTrace
10
70.8491
20
-24.343428
30
0
11
67.349102
21
-24.804212
31
0
12
67.349098
22
-23.882645
32
0
13
67.349098
23
-23.882645
33
0
39
0
210
0
220
0
230
1
0
ENDBLK
5
184
100
AcDbEntity
8
0
100
AcDbBlockEnd
0
ENDSEC
0
SECTION
2
ENTITIES
0
ARC
5
A6
100
AcDbEntity
8
1
62
256
6
ByLayer
370
18
48
1
60
0
100
AcDbCircle
39
0
10
1.228867
20
-6.324685
30
0
40
0.850000000000002
210
0
220
0
230
1
100
AcDbArc
50
89.896868
51
136.291382
0
ARC
5
A7
100
AcDbEntity
8
1
62
256
6
ByLayer
370
18
48
1
60
0
100
AcDbCircle
39
0
10
1.228867
20
6.324685
30
0
40
0.850000000000002
210
0
220
0
230
1
100
AcDbArc
50
223.708618
51
270.103132
0
ARC
5
A8
100
AcDbEntity
8
1
62
256
6
ByLayer
370
18
48
1
60
0
100
AcDbCircle
39
0
10
0
20
-5.15
30
0
40
0.849999999999998
210
0
220
0
230
1
100
AcDbArc
50
270
51
316.291382
0
ARC
5
A9
100
AcDbEntity
8
1
62
256
6
ByLayer
370
18
48
1
60
0
100
AcDbCircle
39
0
10
0
20
5.15
30
0
40
0.849999999999998
210
0
220
0
230
1
100
AcDbArc
50
43.708618
51
90
0
ELLIPSE
5
AA
100
AcDbEntity
8
1
62
256
6
ByLayer
370
13
48
1
60
0
100
AcDbEllipse
10
15.202769
20
-8.940727
30
0
11
-62.4219035155516
21
40.0168509536667
31
0
210
0
220
0
230
1
40
0.082507
41
-1.51795286964402
42
-1.36130015852574
0
ELLIPSE
5
AB
100
AcDbEntity
8
1
62
256
6
ByLayer
370
13
48
1
60
0
100
AcDbEllipse
10
117.194174
20
41.888784
30
0
11
-60.1999999999999
21
7.3721302500107E-15
31
0
210
0
220
0
230
1
40
0.99863
41
0.708125097818401
42
0.73221492966274
0
ELLIPSE
5
AC
100
AcDbEntity
8
1
62
256
6
ByLayer
370
13
48
1
60
0
100
AcDbEllipse
10
5.124786
20
-5.243326
30
0
11
0.0599355164264386
21
0.293951924420807
31
0
210
0
220
0
230
1
40
0.444319
41
0.425583095771236
42
1.4045390975766
0
ELLIPSE
5
AD
100
AcDbEntity
8
1
62
256
6
ByLayer
370
13
48
1
60
0
100
AcDbEllipse
10
4.784127
20
-5.253669
30
0
11
-0.0852112831540528
21
0.287643941746111
31
0
210
0
220
0
230
1
40
0.560645
41
0.435855517908116
42
0.570094524133358
0
ELLIPSE
5
AE
100
AcDbEntity
8
1
62
256
6
ByLayer
370
13
48
1
60
0
100
AcDbEllipse
10
17.125524
20
-5.94144
30
0
11
-62.4219035155515
21
40.0168509536666
31
0
210
0
220
0
230
1
40
0.082507
41
-1.51795286964402
42
-1.42920221676177
0
POINT
5
70
100
AcDbEntity
8
80
62
256
6
ByLayer
370
18
48
1
60
0
100
AcDbPoint
10
0
20
0
30
0
39
0
210
0
220
0
230
1
50
360
0
POINT
5
72
100
AcDbEntity
8
81
62
256
6
ByLayer
370
18
48
1
60
0
100
AcDbPoint
10
73
20
0
30
0
39
0
210
0
220
0
230
1
50
360
0
POINT
5
74
100
AcDbEntity
8
1
62
256
6
ByLayer
370
18
48
1
60
1
100
AcDbPoint
10
70.8491
20
-5.6
30
0
39
0
210
0
220
0
230
1
50
360
0
POINT
5
76
100
AcDbEntity
8
1
62
256
6
ByLayer
370
18
48
1
60
1
100
AcDbPoint
10
-45
20
-6
30
0
39
0
210
0
220
0
230
1
50
360
0
POINT
5
77
100
AcDbEntity
8
1
62
256
6
ByLayer
370
18
48
1
60
1
100
AcDbPoint
10
15.4
20
5.6
30
0
39
0
210
0
220
0
230
1
50
360
0
POINT
5
78
100
AcDbEntity
8
1
62
256
6
ByLayer
370
18
48
1
60
1
100
AcDbPoint
10
70.8491
20
-5.6
30
0
39
0
210
0
220
0
230
1
50
360
0
POINT
5
79
100
AcDbEntity
8
1
62
256
6
ByLayer
370
18
48
1
60
1
100
AcDbPoint
10
-45
20
-6
30
0
39
0
210
0
220
0
230
1
50
360
0
POINT
5
7A
100
AcDbEntity
8
1
62
256
6
ByLayer
370
18
48
1
60
1
100
AcDbPoint
10
70.8491
20
-5.6
30
0
39
0
210
0
220
0
230
1
50
360
0
SPLINE
5
AF
100
AcDbEntity
8
1
62
256
6
ByLayer
370
18
48
1
60
0
100
AcDbSpline
70
4
71
3
72
8
73
4
40
0
40
0
40
0
40
0
40
1
40
1
40
1
40
1
41
1
10
72.999622281986
20
0.122844530538401
30
0
41
1
10
73.0001259059929
20
0.0409481768461148
30
0
41
1
10
73.0001259059929
20
-0.0409481768461717
30
0
41
1
10
72.999622281986
20
-0.122844530538458
30
0
0
SPLINE
5
B0
100
AcDbEntity
8
1
62
256
6
ByLayer
370
18
48
1
60
0
100
AcDbSpline
70
4
71
3
72
8
73
4
40
0
40
0
40
0
40
0
40
1
40
1
40
1
40
1
41
1
10
4.62010612950053
20
-5.02010497374377
30
0
41
1
10
4.62009097506206
20
-5.0259718829727
30
0
41
1
10
4.62196808065505
20
-5.03169614315675
30
0
41
1
10
4.62535501686358
20
-5.0373000786237
30
0
0
SPLINE
5
B1
100
AcDbEntity
8
1
62
256
6
ByLayer
370
18
48
1
60
0
100
AcDbSpline
70
4
71
3
72
8
73
4
40
0
40
0
40
0
40
0
40
1
40
1
40
1
40
1
41
1
10
71.5025355067615
20
2.41503101296041
30
0
41
1
10
71.4732034971201
20
2.53743632887719
30
0
41
1
10
71.4587124697021
20
2.66130028577533
30
0
41
1
10
71.4672972758562
20
2.78771595989204
30
0
0
SPLINE
5
B2
100
AcDbEntity
8
1
62
256
6
ByLayer
370
18
48
1
60
0
100
AcDbSpline
70
4
71
3
72
8
73
4
40
0
40
0
40
0
40
0
40
1
40
1
40
1
40
1
41
1
10
70.9646775965028
20
-5.31026871364685
30
0
41
1
10
70.9553239596027
20
-5.2645566726562
30
0
41
1
10
70.936937398149
20
-5.23487467819257
30
0
41
1
10
70.9148673427896
20
-5.21517295873548
30
0
0
SPLINE
5
B3
100
AcDbEntity
8
1
62
256
6
ByLayer
370
18
48
1
60
0
100
AcDbSpline
70
4
71
1
72
4
73
2
40
0
40
0
40
1
40
1
41
1
10
72.2066330788201
20
-1.11749727190917
30
0
41
1
10
72.2168733896942
20
-1.08292656176795
30
0
0
SPLINE
5
B4
100
AcDbEntity
8
1
62
256
6
ByLayer
370
18
48
1
60
0
100
AcDbSpline
70
4
71
1
72
4
73
2
40
0
40
0
40
1
40
1
41
1
10
70.9646775964994
20
-5.31026871364583
30
0
41
1
10
72.2066330788252
20
-1.11749727191071
30
0
0
SPLINE
5
B5
100
AcDbEntity
8
1
62
256
6
ByLayer
370
18
48
1
60
0
100
AcDbSpline
70
4
71
3
72
10
73
6
40
0
40
0
40
0
40
0
40
0.5
40
0.5
40
1
40
1
40
1
40
1
41
1
10
5.12674283241506
20
3.98549284875116
30
0
41
1
10
5.04096779919888
20
4.01503959111301
30
0
41
1
10
4.95683796615393
20
4.05221124371343
30
0
41
1
10
4.79241138086442
20
4.14210188261632
30
0
41
1
10
4.71146623317728
20
4.19552608539988
30
0
41
1
10
4.63675173113572
20
4.25475146841842
30
0
0
SPLINE
5
B6
100
AcDbEntity
8
1
62
256
6
ByLayer
370
18
48
1
60
0
100
AcDbSpline
70
4
71
3
72
14
73
10
40
0
40
0
40
0
40
0
40
0.25
40
0.25
40
0.5
40
0.5
40
0.75
40
0.75
40
1
40
1
40
1
40
1
41
1
10
4.62535501686358
20
-5.03730007862376
30
0
41
1
10
4.63590614631721
20
-5.05475769958915
30
0
41
1
10
4.6592218354065
20
-5.06962254749735
30
0
41
1
10
4.71483320459669
20
-5.09598488171949
30
0
41
1
10
4.74702811793117
20
-5.10725291713712
30
0
41
1
10
4.81597535594142
20
-5.12779781433647
30
0
41
1
10
4.85257038521576
20
-5.13695461316144
30
0
41
1
10
4.92766473523454
20
-5.15372448390406
30
0
41
1
10
4.96632063722635
20
-5.16136517322352
30
0
41
1
10
5.00589688713742
20
-5.16841628346322
30
0
0
SPLINE
5
B7
100
AcDbEntity
8
1
62
256
6
ByLayer
370
18
48
1
60
0
100
AcDbSpline
70
4
71
4
72
10
73
5
40
0
40
0
40
0
40
0
40
0
40
1
40
1
40
1
40
1
40
1
41
1
10
15.2027687165905
20
-1.68403899950519
30
0
41
1
10
14.9375009380294
20
-2.15743423821274
30
0
41
1
10
14.6722331594682
20
-2.6308294769203
30
0
41
1
10
14.406965380907
20
-3.10422471562785
30
0
41
1
10
14.1416976023458
20
-3.5776199543354
30
0
0
SPLINE
5
B8
100
AcDbEntity
8
1
62
256
6
ByLayer
370
18
48
1
60
0
100
AcDbSpline
70
4
71
3
72
8
73
4
40
0
40
0
40
0
40
0
40
1
40
1
40
1
40
1
41
1
10
70.4405405951651
20
0.587553081216072
30
0
41
1
10
70.7311467405102
20
0.465046410400049
30
0
41
1
10
71.0238664308968
20
0.353478846392335
30
0
41
1
10
71.3189413876215
20
0.254101469736867
30
0
0
SPLINE
5
B9
100
AcDbEntity
8
1
62
256
6
ByLayer
370
13
48
1
60
0
100
AcDbSpline
70
4
71
3
72
48
73
44
40
0
40
0
40
0
40
0
40
0.0014859270986865
40
0.0147994480707045
40
0.0414264900147393
40
0.0680535319587742
40
0.094680573902809
40
0.134621136818862
40
0.147934657790879
40
0.174561699734915
40
0.201188741678949
40
0.254442825567019
40
0.267756346539037
40
0.281069867511054
40
0.307696909455089
40
0.321010430427107
40
0.334323951399125
40
0.36095099334316
40
0.387578035287194
40
0.414205077231229
40
0.454145640147282
40
0.4674591611193
40
0.494086203063335
40
0.52071324500737
40
0.57396732889544
40
0.587280849867457
40
0.600594370839475
40
0.62722141278351
40
0.640534933755527
40
0.653848454727545
40
0.68047549667158
40
0.707102538615615
40
0.73372958055965
40
0.773670143475702
40
0.78698366444772
40
0.813610706391755
40
0.84023774833579
40
0.89349183222386
40
0.906805353195878
40
0.920118874167895
40
0.94674591611193
40
0.973372958055965
40
1
40
1
40
1
40
1
41
1
10
27.9658929766324
20
-2.1915768285823
30
0
41
1
10
27.9595712107167
20
-2.19219782746097
30
0
41
1
10
27.896608491543
20
-2.19837002489018
30
0
41
1
10
27.7203777429935
20
-2.21528755220268
30
0
41
1
10
27.4371962429421
20
-2.24097954653706
30
0
41
1
10
27.097355876725
20
-2.26942883909007
30
0
41
1
10
26.7009004242064
20
-2.2997062825749
30
0
41
1
10
26.3610285648806
20
-2.32264285444563
30
0
41
1
10
26.0211615990704
20
-2.34308132754637
30
0
41
1
10
25.7379817527846
20
-2.35845179229713
30
0
41
1
10
25.2849238229704
20
-2.37955907951741
30
0
41
1
10
24.8884064461025
20
-2.39373323939091
30
0
41
1
10
24.5484857399859
20
-2.40278807159265
30
0
41
1
10
24.3219392857342
20
-2.40779904540639
30
0
41
1
10
24.0953760311951
20
-2.4115553348812
30
0
41
1
10
23.8687979819862
20
-2.4140611080376
30
0
41
1
10
23.642252232956
20
-2.41560415236992
30
0
41
1
10
23.3590710487506
20
-2.41590304750093
30
0
41
1
10
23.0192308440455
20
-2.41372719250191
30
0
41
1
10
22.6227754332733
20
-2.40804911854872
30
0
41
1
10
22.2829035690564
20
-2.40008870240422
30
0
41
1
10
21.9430366980324
20
-2.38956001153633
30
0
41
1
10
21.6598570995414
20
-2.37903490732125
30
0
41
1
10
21.2067997653939
20
-2.35864036522511
30
0
41
1
10
20.8102828194878
20
-2.33663292505938
30
0
41
1
10
20.4703619673732
20
-2.31481819170378
30
0
41
1
10
20.2438153353875
20
-2.29919315451232
30
0
41
1
10
20.0172518162685
20
-2.28238573355958
30
0
41
1
10
19.7906734927886
20
-2.26441673362075
30
0
41
1
10
19.5641274805568
20
-2.24549977785341
30
0
41
1
10
19.2809460364231
20
-2.22033527561103
30
0
41
1
10
18.9411057609159
20
-2.18784555802941
30
0
41
1
10
18.5446504221175
20
-2.14706033113762
30
0
41
1
10
18.2047786723647
20
-2.10940377713752
30
0
41
1
10
17.8649118260611
20
-2.06949641381934
30
0
41
1
10
17.581732090539
20
-2.03466289526094
30
0
41
1
10
17.1286743304455
20
-1.97584888923262
30
0
41
1
10
16.7321570421833
20
-1.9210040825007
30
0
41
1
10
16.3922363506568
20
-1.8716619066611
30
0
41
1
10
16.165690086153
20
-1.83780008981981
30
0
41
1
10
15.8825087250393
20
-1.79422800564316
30
0
41
1
10
15.5426654491963
20
-1.7401140894942
30
0
41
1
10
15.3160663360181
20
-1.70293122733204
30
0
41
1
10
15.2027687165905
20
-1.68403899950519
30
0
0
SPLINE
5
BA
100
AcDbEntity
8
1
62
256
6
ByLayer
370
18
48
1
60
0
100
AcDbSpline
70
4
71
3
72
8
73
4
40
0
40
0
40
0
40
0
40
1
40
1
40
1
40
1
41
1
10
71.0131201397905
20
-5.53962286491986
30
0
41
1
10
71.221698446051
20
-5.03499270548767
30
0
41
1
10
71.4356881367951
20
-4.51186635431353
30
0
41
1
10
71.6493116922342
20
-3.96554880838716
30
0
0
SPLINE
5
BB
100
AcDbEntity
8
1
62
256
6
ByLayer
370
18
48
1
60
0
100
AcDbSpline
70
4
71
3
72
34
73
30
40
0
40
0
40
0
40
0
40
0.116063361069507
40
0.116063361069507
40
0.174095041604261
40
0.174095041604261
40
0.232126722139016
40
0.232126722139016
40
0.348190083208523
40
0.348190083208523
40
0.406221763743275
40
0.406221763743275
40
0.464253444278027
40
0.464253444278027
40
0.580316805347532
40
0.580316805347532
40
0.638348485882283
40
0.638348485882283
40
0.696380166417035
40
0.696380166417035
40
0.812443527486537
40
0.812443527486537
40
0.870475208021289
40
0.870475208021289
40
0.92850688855604
40
0.92850688855604
40
0.986538569090791
40
0.986538569090791
40
1
40
1
40
1
40
1
41
1
10
70.4405405951651
20
0.587553081216072
30
0
41
1
10
69.8547208303361
20
0.894866388081397
30
0
41
1
10
69.2702080180064
20
1.19960835025574
30
0
41
1
10
68.3910764102694
20
1.64461894787689
30
0
41
1
10
68.0979089599189
20
1.79142565172677
30
0
41
1
10
67.5106880893148
20
2.08074309209886
30
0
41
1
10
67.2164542209975
20
2.22349072511707
30
0
41
1
10
66.3360553932806
20
2.64111817444436
30
0
41
1
10
65.7503235010594
20
2.90751777927764
30
0
41
1
10
64.8714469773166
20
3.28439937004347
30
0
41
1
10
64.5781311944179
20
3.40585050234074
30
0
41
1
10
63.990844300903
20
3.64082695180539
30
0
41
1
10
63.6967635880641
20
3.75471217202167
30
0
41
1
10
62.8156282233717
20
4.0815388893796
30
0
41
1
10
62.2296167530412
20
4.28018979952034
30
0
41
1
10
61.3505720019863
20
4.54523293448139
30
0
41
1
10
61.0576579317021
20
4.62783147713955
30
0
41
1
10
60.4708162009358
20
4.78116022182692
30
0
41
1
10
60.176674467154
20
4.85220075795408
30
0
41
1
10
59.2947717995714
20
5.04941864848516
30
0
41
1
10
58.7083300396902
20
5.15802242457951
30
0
41
1
10
57.8289074797514
20
5.28190722316498
30
0
41
1
10
57.5357652635083
20
5.31674453664991
30
0
41
1
10
56.9490977967831
20
5.37197791554632
30
0
41
1
10
56.6554446993453
20
5.39220230193436
30
0
41
1
10
56.0671216356997
20
5.42202848737077
30
0
41
1
10
55.7732729465481
20
5.43100669499734
30
0
41
1
10
55.4116080785337
20
5.43366312440517
30
0
41
1
10
55.3435289911088
20
5.43377722257856
30
0
41
1
10
55.2754646379063
20
5.43351910722009
30
0
0
SPLINE
5
BC
100
AcDbEntity
8
1
62
256
6
ByLayer
370
18
48
1
60
0
100
AcDbSpline
70
4
71
3
72
46
73
42
40
0
40
0
40
0
40
0
40
0.0239412528986833
40
0.0239412528986833
40
0.0753127659040157
40
0.0753127659040157
40
0.126684278909348
40
0.126684278909348
40
0.178055791914681
40
0.178055791914681
40
0.229427304920013
40
0.229427304920013
40
0.280798817925346
40
0.280798817925346
40
0.332170330930678
40
0.332170330930678
40
0.383541843936011
40
0.383541843936011
40
0.434913356941343
40
0.434913356941343
40
0.486284869946676
40
0.486284869946676
40
0.537656382952008
40
0.537656382952008
40
0.58902789595734
40
0.58902789595734
40
0.640399408962673
40
0.640399408962673
40
0.691770921968005
40
0.691770921968005
40
0.743142434973338
40
0.743142434973338
40
0.79451394797867
40
0.79451394797867
40
0.845885460984003
40
0.845885460984003
40
0.897256973989335
40
0.897256973989335
40
0.948628486994668
40
0.948628486994668
40
1
40
1
40
1
40
1
41
1
10
31.3159258360271
20
-3.67618229978868
30
0
41
1
10
31.1790177807389
20
-3.72836781417777
30
0
41
1
10
31.0420964057085
20
-3.77959096552345
30
0
41
1
10
30.6111901223804
20
-3.93711736305355
30
0
41
1
10
30.3168647420318
20
-4.03936425309476
30
0
41
1
10
29.7276836894013
20
-4.23561621123244
30
0
41
1
10
29.4333601101319
20
-4.32890284717848
30
0
41
1
10
28.8453039333986
20
-4.50421406942641
30
0
41
1
10
28.551891633758
20
-4.5857167228877
30
0
41
1
10
27.9645041145153
20
-4.73743395489237
30
0
41
1
10
27.6704365518525
20
-4.80801236969697
30
0
41
1
10
27.082533598572
20
-4.93827187996595
30
0
41
1
10
26.7882832127792
20
-4.99754090550232
30
0
41
1
10
26.199041291201
20
-5.10213759047349
30
0
41
1
10
25.9044836299808
20
-5.14829412637641
30
0
41
1
10
25.315992359717
20
-5.22898243880687
30
0
41
1
10
25.0218282581589
20
-5.26357577979215
30
0
41
1
10
24.4341799198278
20
-5.31857043256366
30
0
41
1
10
24.1404949306606
20
-5.33822729197772
30
0
41
1
10
23.5521095503609
20
-5.3670448977833
30
0
41
1
10
23.2578018991852
20
-5.3756842834716
30
0
41
1
10
22.668353244266
20
-5.37966007355149
30
0
41
1
10
22.3735612246636
20
-5.37393825567139
30
0
41
1
10
21.7849995322323
20
-5.34947256694147
30
0
41
1
10
21.4909395140042
20
-5.33165887201159
30
0
41
1
10
20.902777569411
20
-5.28349488125806
30
0
41
1
10
20.6089469112191
20
-5.25305398813961
30
0
41
1
10
20.021083752205
20
-5.17722725298003
30
0
41
1
10
19.726703671435
20
-5.13320992313132
30
0
41
1
10
19.1373152360657
20
-5.03401905645043
30
0
41
1
10
18.8421514090648
20
-4.97836905646463
30
0
41
1
10
18.2536092777372
20
-4.8543132465928
30
0
41
1
10
17.9598765992038
20
-4.78571960504848
30
0
41
1
10
17.3728072528396
20
-4.63865570440143
30
0
41
1
10
17.0793285532251
20
-4.55998591728078
30
0
41
1
10
16.4928367063968
20
-4.39090646487455
30
0
41
1
10
16.1998386524875
20
-4.30055619294242
30
0
41
1
10
15.6129507609668
20
-4.11079194634218
30
0
41
1
10
15.3191333439222
20
-4.01137500265298
30
0
41
1
10
14.7312875574932
20
-3.80170895262612
30
0
41
1
10
14.4368602731248
20
-3.69184061799214
30
0
41
1
10
14.1416976023458
20
-3.5776199543354
30
0
0
SPLINE
5
BD
100
AcDbEntity
8
1
62
256
6
ByLayer
370
13
48
1
60
0
100
AcDbSpline
70
4
71
3
72
24
73
20
40
0
40
0
40
0
40
0
40
0.000493471652691
40
0.0411093129392175
40
0.0817251542257455
40
0.1629568367988
40
0.203572678085328
40
0.244188519371855
40
0.325420201944909
40
0.366036043231437
40
0.406651884517965
40
0.48788356709102
40
0.528499408377546
40
0.569115249664074
40
0.650346932237129
40
0.731578614810185
40
0.81281029738324
40
0.975273662529349
40
1
40
1
40
1
40
1
41
1
10
71.502535506211
20
2.41503101295663
30
0
41
1
10
71.5018474740576
20
2.41502629578011
30
0
41
1
10
71.4445300599
20
2.41463203414153
30
0
41
1
10
71.3305866206387
20
2.41363442774585
30
0
41
1
10
71.1040081908709
20
2.41060539507347
30
0
41
1
10
70.8774463413443
20
2.40631562004506
30
0
41
1
10
70.6508992549167
20
2.4007640815266
30
0
41
1
10
70.4243202433688
20
2.3942738333987
30
0
41
1
10
70.1977585125954
20
2.38652971993744
30
0
41
1
10
69.9712119590944
20
2.37753190104016
30
0
41
1
10
69.7446333417348
20
2.36761328685443
30
0
41
1
10
69.5180719142367
20
2.35645089066219
30
0
41
1
10
69.29152539238
20
2.34404613130982
30
0
41
1
10
69.0649462657242
20
2.33074086640425
30
0
41
1
10
68.7817208849775
20
2.31253622459641
30
0
41
1
10
68.4418731688773
20
2.28822836065222
30
0
41
1
10
67.9886801328863
20
2.25244691132494
30
0
41
1
10
67.6143856074262
20
2.21897545495406
30
0
41
1
10
67.3533975737608
20
2.19356153580145
30
0
41
1
10
67.3189213668014
20
2.19016637667425
30
0
0
SPLINE
5
BE
100
AcDbEntity
8
1
62
256
6
ByLayer
370
13
48
1
60
0
100
AcDbSpline
70
4
71
3
72
26
73
22
40
0
40
0
40
0
40
0
40
0.103298745960367
40
0.131320660149106
40
0.159342574337844
40
0.215386402715322
40
0.24340831690406
40
0.271430231092799
40
0.327474059470275
40
0.383517887847752
40
0.43956171622523
40
0.523627458791446
40
0.551649372980184
40
0.60769320135766
40
0.663737029735138
40
0.775824686490092
40
0.803846600678831
40
0.831868514867569
40
0.887912343245046
40
0.943956171622523
40
1
40
1
40
1
40
1
41
1
10
23.1893137297886
20
-0.0259306458725064
30
0
41
1
10
22.9805061607379
20
0.0227871526398928
30
0
41
1
10
22.7150922709879
20
0.0848649544658996
30
0
41
1
10
22.3930866457728
20
0.160226939023545
30
0
41
1
10
22.166508266734
20
0.212936185225459
30
0
41
1
10
21.9399467864949
20
0.265602067918792
30
0
41
1
10
21.7134001207824
20
0.318186969302615
30
0
41
1
10
21.486821121718
20
0.370524464384516
30
0
41
1
10
21.2035963011599
20
0.435704723897174
30
0
41
1
10
20.863749074541
20
0.513553120084424
30
0
41
1
10
20.467235643451
20
0.603599231923396
30
0
41
1
10
20.1274199123072
20
0.680186311571873
30
0
41
1
10
19.7875992744015
20
0.756022622461244
30
0
41
1
10
19.5043727439121
20
0.818541686783077
30
0
41
1
10
19.0511804579312
20
0.917239704348815
30
0
41
1
10
18.6547290185691
20
1.00228766041195
30
0
41
1
10
18.3149622624577
20
1.07401084978312
30
0
41
1
10
18.0883835157287
20
1.12114599542042
30
0
41
1
10
17.8051586119844
20
1.17931749107177
30
0
41
1
10
17.4653143877155
20
1.24796184889863
30
0
41
1
10
17.2387885260125
20
1.29297486819394
30
0
41
1
10
17.1255236565931
20
1.31524806303449
30
0
0
SPLINE
5
BF
100
AcDbEntity
8
1
62
256
6
ByLayer
370
18
48
1
60
0
100
AcDbSpline
70
4
71
3
72
10
73
6
40
0
40
0
40
0
40
0
40
0.5
40
0.5
40
1
40
1
40
1
40
1
41
1
10
71.4672972758573
20
2.78771595989232
30
0
41
1
10
71.4808473580608
20
2.98724787072487
30
0
41
1
10
71.5062072642538
20
3.18450976916603
30
0
41
1
10
71.5694112665502
20
3.57663393114953
30
0
41
1
10
71.6074479528411
20
3.7714591761798
30
0
41
1
10
71.6493116922343
20
3.96554880838701
30
0
0
SPLINE
5
C0
100
AcDbEntity
8
1
62
256
6
ByLayer
370
13
48
1
60
0
100
AcDbSpline
70
4
71
3
72
88
73
84
40
0
40
0
40
0
40
0
40
0.0015000690307472
40
0.0178182967537885
40
0.0259774106153095
40
0.0341365244768302
40
0.0504547521998715
40
0.0586138660613922
40
0.0667729799229129
40
0.0830912076459546
40
0.0912503215074764
40
0.0994094353689962
40
0.115727663092037
40
0.123886776953559
40
0.132045890815078
40
0.14836411853812
40
0.156523232399641
40
0.164682346261162
40
0.181000573984203
40
0.189159687845724
40
0.197318801707244
40
0.213637029430286
40
0.221796143291807
40
0.229955257153326
40
0.246273484876369
40
0.25443259873789
40
0.26259171259941
40
0.278909940322452
40
0.295228168045493
40
0.311546395768535
40
0.344182851214617
40
0.352341965076138
40
0.360501078937658
40
0.3768193066607
40
0.384978420522221
40
0.393137534383742
40
0.409455762106783
40
0.417614875968304
40
0.425773989829823
40
0.442092217552866
40
0.450251331414387
40
0.458410445275908
40
0.474728672998949
40
0.491046900721989
40
0.507365128445032
40
0.540001583891115
40
0.548160697752636
40
0.556319811614156
40
0.572638039337198
40
0.580797153198718
40
0.588956267060239
40
0.605274494783281
40
0.613433608644801
40
0.621592722506322
40
0.637910950229364
40
0.646070064090884
40
0.654229177952406
40
0.670547405675446
40
0.686865633398488
40
0.703183861121529
40
0.735820316567612
40
0.743979430429132
40
0.752138544290653
40
0.768456772013695
40
0.776615885875216
40
0.784774999736737
40
0.801093227459778
40
0.809252341321299
40
0.817411455182819
40
0.833729682905861
40
0.841888796767382
40
0.850047910628902
40
0.866366138351944
40
0.882684366074985
40
0.899002593798027
40
0.931639049244109
40
0.93979816310563
40
0.947957276967151
40
0.964275504690192
40
0.972434618551713
40
0.980593732413234
40
0.996911960136275
40
1
40
1
40
1
40
1
41
1
10
60.4332525102269
20
-2.19476083054397
30
0
41
1
10
60.4228395781277
20
-2.19577582948313
30
0
41
1
10
60.2991512849084
20
-2.2077928156435
30
0
41
1
10
60.1188153338129
20
-2.22463610846984
30
0
41
1
10
59.8922369523373
20
-2.24462172590111
30
0
41
1
10
59.6656906124239
20
-2.26375039597608
30
0
41
1
10
59.4391271009001
20
-2.28168446422021
30
0
41
1
10
59.2125486700071
20
-2.29841724000926
30
0
41
1
10
58.9860026887972
20
-2.31426385930487
30
0
41
1
10
58.7594401006211
20
-2.32889136365293
30
0
41
1
10
58.5328626357527
20
-2.34229435747872
30
0
41
1
10
58.306316938455
20
-2.35478553898181
30
0
41
1
10
58.0797537628445
20
-2.36604028902212
30
0
41
1
10
57.8531751950979
20
-2.37605936275043
30
0
41
1
10
57.6266285750027
20
-2.38514785632006
30
0
41
1
10
57.4000646808261
20
-2.39298953779439
30
0
41
1
10
57.1734858701801
20
-2.39958577071863
30
0
41
1
10
56.9469395140234
20
-2.40523459905063
30
0
41
1
10
56.7203765404943
20
-2.40962945154018
30
0
41
1
10
56.4937987720888
20
-2.41277386516754
30
0
41
1
10
56.2672529661223
20
-2.4149572094899
30
0
41
1
10
56.0406899120858
20
-2.41588303875196
30
0
41
1
10
55.8141116047007
20
-2.4155564602641
30
0
41
1
10
55.5875652664398
20
-2.41425912821626
30
0
41
1
10
55.3610016730568
20
-2.41170756681177
30
0
41
1
10
55.1344231584363
20
-2.40791185750575
30
0
41
1
10
54.9078772242989
20
-2.40314214502362
30
0
41
1
10
54.6246962994746
20
-2.39555837256518
30
0
41
1
10
54.2848567127664
20
-2.38395891203879
30
0
41
1
10
53.8318001991199
20
-2.36482205390814
30
0
41
1
10
53.4352831559609
20
-2.34390082926242
30
0
41
1
10
53.0953619546806
20
-2.3230048071901
30
0
41
1
10
52.8688153356432
20
-2.3079914437036
30
0
41
1
10
52.6422521306879
20
-2.29179062586485
30
0
41
1
10
52.4156741954665
20
-2.2744226925447
30
0
41
1
10
52.1891282268806
20
-2.25610395970631
30
0
41
1
10
51.9625650734109
20
-2.23662999369182
30
0
41
1
10
51.7359867778422
20
-2.21602263746317
30
0
41
1
10
51.5094404604134
20
-2.19448167037765
30
0
41
1
10
51.2828768824111
20
-2.17182137203585
30
0
41
1
10
51.0562983557622
20
-2.14806518971645
30
0
41
1
10
50.8297524295346
20
-2.12339603642292
30
0
41
1
10
50.5465715181425
20
-2.09112369777537
30
0
41
1
10
50.2067317257474
20
-2.05024783089834
30
0
41
1
10
49.7536747000182
20
-1.99250355824302
30
0
41
1
10
49.3571572592298
20
-1.93856310384223
30
0
41
1
10
49.0172361808133
20
-1.8899720286355
30
0
41
1
10
48.7906896966782
20
-1.85660533678632
30
0
41
1
10
48.5641266733184
20
-1.82230616770084
30
0
41
1
10
48.3375489177388
20
-1.78710522302572
30
0
41
1
10
48.1110031490843
20
-1.75111057160683
30
0
41
1
10
47.8844401725104
20
-1.71424001579658
30
0
41
1
10
47.657861953194
20
-1.67652558333702
30
0
41
1
10
47.4313156717471
20
-1.63805600663412
30
0
41
1
10
47.2047520947781
20
-1.59877135310094
30
0
41
1
10
46.9781735676392
20
-1.55870579940427
30
0
41
1
10
46.7516276236197
20
-1.51792775005987
30
0
41
1
10
46.4684466885386
20
-1.46592483577595
30
0
41
1
10
46.1286070970423
20
-1.40205340801634
30
0
41
1
10
45.6755505760509
20
-1.31457260715732
30
0
41
1
10
45.2790335209925
20
-1.23589275377935
30
0
41
1
10
44.9391122888167
20
-1.16705449093394
30
0
41
1
10
44.7125656342213
20
-1.12044669104444
30
0
41
1
10
44.4860023745254
20
-1.07330192122799
30
0
41
1
10
44.2594243893982
20
-1.02565818873245
30
0
41
1
10
44.0328784038567
20
-0.977499517248958
30
0
41
1
10
43.8063152770643
20
-0.928879315911388
30
0
41
1
10
43.5797370246037
20
-0.879836444845068
30
0
41
1
10
43.3531907220661
20
-0.830334227178412
30
0
41
1
10
43.126627123168
20
-0.78044850800282
30
0
41
1
10
42.9000485500476
20
-0.730219073428941
30
0
41
1
10
42.6735025810848
20
-0.679588585091466
30
0
41
1
10
42.3903216210863
20
-0.615836870294316
30
0
41
1
10
42.0504817758572
20
-0.538778137216099
30
0
41
1
10
41.59742467371
20
-0.434997913027161
30
0
41
1
10
41.2009071635185
20
-0.343664931578786
30
0
41
1
10
40.8609860170482
20
-0.265149646614759
30
0
41
1
10
40.634439475093
20
-0.212456232492883
30
0
41
1
10
40.4078763793337
20
-0.159702239055378
30
0
41
1
10
40.1812985611541
20
-0.106927355209479
30
0
41
1
10
39.9547527658538
20
-0.0539945496520602
30
0
41
1
10
39.763393313413
20
-0.0093056059398009
30
0
41
1
10
39.6286674249253
20
0.0221262622318079
30
0
41
1
10
39.607229149572
20
0.0271280584103692
30
0
0
SPLINE
5
C1
100
AcDbEntity
8
1
62
256
6
ByLayer
370
18
48
1
60
0
100
AcDbSpline
70
4
71
3
72
8
73
4
40
0
40
0
40
0
40
0
40
1
40
1
40
1
40
1
41
1
10
70.9431964293357
20
-5.42764175679773
30
0
41
1
10
70.9540792833516
20
-5.38368161520719
30
0
41
1
10
70.961344713396
20
-5.34313965136406
30
0
41
1
10
70.9646775965066
20
-5.3102687136091
30
0
0
SPLINE
5
C2
100
AcDbEntity
8
1
62
256
6
ByLayer
370
18
48
1
60
0
100
AcDbSpline
70
4
71
3
72
8
73
4
40
0
40
0
40
0
40
0
40
1
40
1
40
1
40
1
41
1
10
5.2371828282939
20
4.04583694517262
30
0
41
1
10
5.03691242380589
20
4.11758033439827
30
0
41
1
10
4.83678353039801
20
4.18725376552132
30
0
41
1
10
4.63675173113572
20
4.25475146841839
30
0
0
SPLINE
5
C3
100
AcDbEntity
8
1
62
256
6
ByLayer
370
18
48
1
60
0
100
AcDbSpline
70
4
71
3
72
8
73
4
40
0
40
0
40
0
40
0
40
1
40
1
40
1
40
1
41
1
10
71.0131201397905
20
-5.53962286491986
30
0
41
1
10
70.9871732699994
20
-5.51188667312024
30
0
41
1
10
70.9638670805979
20
-5.4744655237086
30
0
41
1
10
70.9431964293357
20
-5.4276417567977
30
0
0
SPLINE
5
C4
100
AcDbEntity
8
1
62
256
6
ByLayer
370
18
48
1
60
0
100
AcDbSpline
70
4
71
3
72
98
73
94
40
0
40
0
40
0
40
0
40
0.0032194606897701
40
0.0032194606897701
40
0.0246809699871617
40
0.0246809699871617
40
0.0461424792845532
40
0.0461424792845532
40
0.0676039885819448
40
0.0676039885819448
40
0.0890654978793363
40
0.0890654978793363
40
0.110527007176728
40
0.110527007176728
40
0.131988516474119
40
0.131988516474119
40
0.153450025771511
40
0.153450025771511
40
0.174911535068903
40
0.174911535068903
40
0.196373044366294
40
0.196373044366294
40
0.217834553663686
40
0.217834553663686
40
0.239296062961077
40
0.239296062961077
40
0.260757572258469
40
0.260757572258469
40
0.303680590853253
40
0.303680590853253
40
0.325142100150644
40
0.325142100150644
40
0.346603609448036
40
0.346603609448036
40
0.368065118745428
40
0.368065118745428
40
0.38952662804282
40
0.38952662804282
40
0.410988137340212
40
0.410988137340212
40
0.432449646637604
40
0.432449646637604
40
0.453911155934996
40
0.453911155934996
40
0.475372665232388
40
0.475372665232388
40
0.49683417452978
40
0.49683417452978
40
0.518295683827172
40
0.518295683827172
40
0.539757193124564
40
0.539757193124564
40
0.561218702421956
40
0.561218702421956
40
0.582680211719348
40
0.582680211719348
40
0.60414172101674
40
0.60414172101674
40
0.625603230314132
40
0.625603230314132
40
0.647064739611524
40
0.647064739611524
40
0.668526248908916
40
0.668526248908916
40
0.689987758206308
40
0.689987758206308
40
0.7114492675037
40
0.7114492675037
40
0.732910776801092
40
0.732910776801092
40
0.775833795395877
40
0.775833795395877
40
0.79729530469327
40
0.79729530469327
40
0.818756813990662
40
0.818756813990662
40
0.840218323288055
40
0.840218323288055
40
0.861679832585448
40
0.861679832585448
40
0.883141341882841
40
0.883141341882841
40
0.904602851180233
40
0.904602851180233
40
0.926064360477626
40
0.926064360477626
40
0.947525869775019
40
0.947525869775019
40
0.968987379072412
40
0.968987379072412
40
0.990448888369804
40
0.990448888369804
40
1
40
1
40
1
40
1
41
1
10
22.8344412105032
20
5.37805298131636
30
0
41
1
10
22.8785214302311
20
5.37808711298356
30
0
41
1
10
22.9226017465678
20
5.37795315063767
30
0
41
1
10
23.2605451315249
20
5.37561007588485
30
0
41
1
10
23.5542885452371
20
5.36696283931818
30
0
41
1
10
24.1420566259467
20
5.33812598357019
30
0
41
1
10
24.4356640678593
20
5.31846132538237
30
0
41
1
10
25.0238713183355
20
5.26335461652224
30
0
41
1
10
25.3189381469969
20
5.22862133083842
30
0
41
1
10
25.9078261635682
20
5.14779258034986
30
0
41
1
10
26.201810149821
20
5.10167455012279
30
0
41
1
10
26.7893498975717
20
4.9973229098695
30
0
41
1
10
27.0830874917175
20
4.9381534967724
30
0
41
1
10
27.6705296138352
20
4.80798740462242
30
0
41
1
10
27.9646476853185
20
4.73740217214115
30
0
41
1
10
28.5526376980333
20
4.58551871239118
30
0
41
1
10
28.8468837548891
20
4.50376980977768
30
0
41
1
10
29.4360935148522
20
4.32806105215624
30
0
41
1
10
29.7302891085571
20
4.23476769003722
30
0
41
1
10
30.3180149455761
20
4.03896167956023
30
0
41
1
10
30.6115785548775
20
3.93697632750559
30
0
41
1
10
31.1988210257202
20
3.72229618673345
30
0
41
1
10
31.4925039093067
20
3.6095606529521
30
0
41
1
10
32.0807537812876
20
3.37695210455297
30
0
41
1
10
32.3748734177707
20
3.25642380337115
30
0
41
1
10
32.9637404406388
20
3.00679890052084
30
0
41
1
10
33.2579481396872
20
2.87812300343205
30
0
41
1
10
34.1397078018843
20
2.48260434052511
30
0
41
1
10
34.7259780910962
20
2.20637262771933
30
0
41
1
10
35.6071602414477
20
1.77671094123127
30
0
41
1
10
35.9011395524621
20
1.63098816451793
30
0
41
1
10
36.4895633161012
20
1.33562616679853
30
0
41
1
10
36.7839769122034
20
1.18609791949049
30
0
41
1
10
37.3716320443403
20
0.884938301863826
30
0
41
1
10
37.6651474421801
20
0.733170107628354
30
0
41
1
10
38.2520954980895
20
0.428483685955797
30
0
41
1
10
38.5453729454892
20
0.275315444639546
30
0
41
1
10
39.1322358420619
20
-0.0316041987674112
30
0
41
1
10
39.4258910532768
20
-0.185226970751188
30
0
41
1
10
40.013989946176
20
-0.492047230638718
30
0
41
1
10
40.3088486526664
20
-0.644811913409683
30
0
41
1
10
40.8965212586959
20
-0.949530411475223
30
0
41
1
10
41.1899913754135
20
-1.10066640444634
30
0
41
1
10
41.7767247582002
20
-1.39966010991478
30
0
41
1
10
42.0701291876557
20
-1.54723063160881
30
0
41
1
10
42.6567632258641
20
-1.83967032724618
30
0
41
1
10
42.9501919428155
20
-1.98397600741077
30
0
41
1
10
43.5379327266671
20
-2.26706223615278
30
0
41
1
10
43.8325587072371
20
-2.40630991648453
30
0
41
1
10
44.4201682878501
20
-2.67761623277991
30
0
41
1
10
44.7129472158577
20
-2.81096834398002
30
0
41
1
10
45.2970947729298
20
-3.06908759560105
30
0
41
1
10
45.5885376963999
20
-3.19393439958083
30
0
41
1
10
46.1707011062244
20
-3.43529014139853
30
0
41
1
10
46.4613816778706
20
-3.55221188425392
30
0
41
1
10
47.0423797958975
20
-3.77782759008366
30
0
41
1
10
47.3326252327261
20
-3.88583802346278
30
0
41
1
10
47.9132284024109
20
-4.09228686261147
30
0
41
1
10
48.2037422262051
20
-4.1906974879208
30
0
41
1
10
48.7848549526017
20
-4.37871549668824
30
0
41
1
10
49.0754233337923
20
-4.46802134099013
30
0
41
1
10
49.6579295980844
20
-4.63464938753893
30
0
41
1
10
49.9496517298058
20
-4.71249890073443
30
0
41
1
10
50.5344726446995
20
-4.85782276852427
30
0
41
1
10
50.8274360861107
20
-4.92554762833157
30
0
41
1
10
51.415296021451
20
-5.04836161209849
30
0
41
1
10
51.7094815643275
20
-5.10325581000728
30
0
41
1
10
52.296768553662
20
-5.20089754041044
30
0
41
1
10
52.5902762698296
20
-5.2438956609243
30
0
41
1
10
53.4695461999265
20
-5.35440554946385
30
0
41
1
10
54.0558054080703
20
-5.39981082872643
30
0
41
1
10
54.9371690985291
20
-5.43132916585901
30
0
41
1
10
55.2314600844748
20
-5.43563170187954
30
0
41
1
10
55.8188860776356
20
-5.42991786991939
30
0
41
1
10
56.1121887227575
20
-5.42029127550447
30
0
41
1
10
56.6985747272567
20
-5.38937903805706
30
0
41
1
10
56.991575942998
20
-5.36863229791652
30
0
41
1
10
57.5777417193542
20
-5.31203734928462
30
0
41
1
10
57.8710400062902
20
-5.27654236916143
30
0
41
1
10
58.4584491161911
20
-5.19256362877394
30
0
41
1
10
58.7527657997567
20
-5.14389763036431
30
0
41
1
10
59.3404126387011
20
-5.03469867432619
30
0
41
1
10
59.6338522773165
20
-4.97412592808595
30
0
41
1
10
60.2203343494445
20
-4.84181445103235
30
0
41
1
10
60.5136700840491
20
-4.77049671792361
30
0
41
1
10
61.0999215007809
20
-4.61617228341569
30
0
41
1
10
61.3929524077679
20
-4.53297940037524
30
0
41
1
10
61.9799782721167
20
-4.35485159133157
30
0
41
1
10
62.2743346874699
20
-4.2598686005569
30
0
41
1
10
62.8615229306828
20
-4.0606049773308
30
0
41
1
10
63.1542822826011
20
-3.9563553678409
30
0
41
1
10
63.5762584138412
20
-3.79916876099244
30
0
41
1
10
63.7060811629059
20
-3.74987553451871
30
0
41
1
10
63.8358124987208
20
-3.69978059424335
30
0
0
SPLINE
5
C5
100
AcDbEntity
8
1
62
256
6
ByLayer
370
18
48
1
60
0
100
AcDbSpline
70
4
71
3
72
9
73
5
40
0
40
0
40
0
40
0
40
0.330353577654994
40
1
40
1
40
1
40
1
41
1
10
5.12674283241489
20
3.98549284875125
30
0
41
1
10
5.16101952341336
20
3.97368563026382
30
0
41
1
10
5.26473637082529
20
3.93776745280158
30
0
41
1
10
5.36832860180863
20
3.9013223482653
30
0
41
1
10
5.43764218469593
20
3.87668677968517
30
0
0
SPLINE
5
C6
100
AcDbEntity
8
1
62
256
6
ByLayer
370
13
48
1
60
0
100
AcDbSpline
70
4
71
3
72
85
73
81
40
0
40
0
40
0
40
0
40
0.0240151570733395
40
0.0321459212048241
40
0.040276685336308
40
0.0565382135992779
40
0.0646689777307623
40
0.0727997418622473
40
0.0890612701252161
40
0.0971920342567011
40
0.105322798388184
40
0.121584326651155
40
0.129715090782639
40
0.137845854914124
40
0.154107383177093
40
0.170368911440061
40
0.186630439703032
40
0.219153496228969
40
0.227284260360454
40
0.235415024491938
40
0.251676552754908
40
0.259807316886392
40
0.267938081017877
40
0.284199609280846
40
0.292330373412331
40
0.300461137543815
40
0.316722665806784
40
0.324853429938268
40
0.332984194069754
40
0.349245722332723
40
0.365507250595692
40
0.381768778858661
40
0.414291835384599
40
0.422422599516083
40
0.430553363647568
40
0.446814891910538
40
0.454945656042022
40
0.463076420173507
40
0.479337948436476
40
0.487468712567961
40
0.495599476699445
40
0.511861004962414
40
0.519991769093899
40
0.528122533225383
40
0.544384061488353
40
0.560645589751322
40
0.576907118014291
40
0.609430174540229
40
0.617560938671714
40
0.625691702803198
40
0.641953231066167
40
0.650083995197652
40
0.658214759329137
40
0.674476287592106
40
0.68260705172359
40
0.690737815855075
40
0.706999344118044
40
0.715130108249529
40
0.723260872381013
40
0.739522400643982
40
0.747653164775467
40
0.755783928906951
40
0.772045457169921
40
0.780176221301405
40
0.78830698543289
40
0.804568513695859
40
0.812699277827344
40
0.820830041958829
40
0.837091570221797
40
0.845222334353282
40
0.853353098484767
40
0.869614626747736
40
0.885876155010705
40
0.902137683273675
40
0.926529975668128
40
0.934660739799612
40
0.950922268062582
40
0.96718379632555
40
0.999706852851489
40
1
40
1
40
1
40
1
41
1
10
55.6898023540735
20
-0.0260626023705299
30
0
41
1
10
55.5225085995341
20
0.0130031078466857
30
0
41
1
10
55.2985985914365
20
0.0653911395845909
30
0
41
1
10
55.0180866584404
20
0.131082182938911
30
0
41
1
10
54.7915082664849
20
0.183836526814701
30
0
41
1
10
54.5649464719708
20
0.236562830968523
30
0
41
1
10
54.3383994178522
20
0.289223367773417
30
0
41
1
10
54.1118203751563
20
0.341647574792119
30
0
41
1
10
53.8852585290865
20
0.393958959842052
30
0
41
1
10
53.6587118354292
20
0.446120431662507
30
0
41
1
10
53.4321331416637
20
0.497983887336857
30
0
41
1
10
53.2055717202524
20
0.549651682163983
30
0
41
1
10
52.9790252577369
20
0.601087459308786
30
0
41
1
10
52.7524461725419
20
0.652165846574206
30
0
41
1
10
52.4692208188813
20
0.715581938905387
30
0
41
1
10
52.1293731089342
20
0.791017442834288
30
0
41
1
10
51.6761800881333
20
0.890163966030172
30
0
41
1
10
51.2797288012116
20
0.975653201469412
30
0
41
1
10
50.9399624322152
20
1.04778837812012
30
0
41
1
10
50.7133839052857
20
1.09520795473858
30
0
41
1
10
50.4868219291102
20
1.14211602608873
30
0
41
1
10
50.2602746953173
20
1.18847824192645
30
0
41
1
10
50.0336954526599
20
1.23426213177603
30
0
41
1
10
49.8071334296859
20
1.27946074385352
30
0
41
1
10
49.5805866598085
20
1.32404081354173
30
0
41
1
10
49.354007930109
20
1.36799346385069
30
0
41
1
10
49.127446507728
20
1.41128928519663
30
0
41
1
10
48.9009000457749
20
1.45389536866131
30
0
41
1
10
48.6743209784603
20
1.49582717480746
30
0
41
1
10
48.3910956486127
20
1.5472413930228
30
0
41
1
10
48.0512477378097
20
1.60738378166999
30
0
41
1
10
47.5980542121904
20
1.68495992769803
30
0
41
1
10
47.201602539448
20
1.75008376712088
30
0
41
1
10
46.8618363243017
20
1.80372677287263
30
0
41
1
10
46.6352579679056
20
1.83854341091359
30
0
41
1
10
46.4086962281433
20
1.87244618746308
30
0
41
1
10
46.182149223948
20
1.90540784343801
30
0
41
1
10
45.9555701982114
20
1.9375380606242
30
0
41
1
10
45.7290083254484
20
1.96869980312601
30
0
41
1
10
45.502461588659
20
1.99886714345987
30
0
41
1
10
45.2758828799924
20
2.02817243438446
30
0
41
1
10
45.0493214794809
20
2.05645823710335
30
0
41
1
10
44.822775063441
20
2.08370008249938
30
0
41
1
10
44.5961960209769
20
2.1100526500719
30
0
41
1
10
44.3129707159106
20
2.14157463419931
30
0
41
1
10
43.9731230587969
20
2.17718859954496
30
0
41
1
10
43.519930114428
20
2.22127719160065
30
0
41
1
10
43.1234788969241
20
2.25602900148558
30
0
41
1
10
42.7837125959788
20
2.28294105862801
30
0
41
1
10
42.5571341268724
20
2.29980824932789
30
0
41
1
10
42.3305722231085
20
2.3155007417246
30
0
41
1
10
42.1040250519324
20
2.33000224582056
30
0
41
1
10
41.8774458359235
20
2.3435473762724
30
0
41
1
10
41.6508837901663
20
2.35589022327082
30
0
41
1
10
41.4243369733577
20
2.3670159576198
30
0
41
1
10
41.1977582188187
20
2.37717809149683
30
0
41
1
10
40.9711967963756
20
2.3861163304646
30
0
41
1
10
40.7446503835586
20
2.39381955727109
30
0
41
1
10
40.5180714961934
20
2.40055736759552
30
0
41
1
10
40.2915092061687
20
2.40605562296591
30
0
41
1
10
40.0649616213114
20
2.41030424485012
30
0
41
1
10
39.8383820178016
20
2.41358830520599
30
0
41
1
10
39.6118196400542
20
2.41562088349781
30
0
41
1
10
39.3852726148681
20
2.41639431773507
30
0
41
1
10
39.158693778351
20
2.41620775949278
30
0
41
1
10
38.9321324819896
20
2.41476144243617
30
0
41
1
10
38.7055864561919
20
2.412048160642
30
0
41
1
10
38.4790081343484
20
2.4083831851382
30
0
41
1
10
38.2524466773439
20
2.4034580117781
30
0
41
1
10
38.0259000093052
20
2.39727186173681
30
0
41
1
10
37.7993210251385
20
2.39014977970419
30
0
41
1
10
37.5160962474335
20
2.37963646115719
30
0
41
1
10
37.1762490928712
20
2.3645050599805
30
0
41
1
10
36.7797357479398
20
2.34383179453669
30
0
41
1
10
36.4399200985507
20
2.32304035832155
30
0
41
1
10
36.1000995512556
20
2.29972986716475
30
0
41
1
10
35.8168731017375
20
2.27868201677788
30
0
41
1
10
35.3636809231085
20
2.24170081063852
30
0
41
1
10
35.0218234665332
20
2.21023689964235
30
0
41
1
10
34.7932642839438
20
2.18761697935099
30
0
41
1
10
34.791222566397
20
2.1874147890197
30
0
0
SPLINE
5
C7
100
AcDbEntity
8
1
62
256
6
ByLayer
370
18
48
1
60
0
100
AcDbSpline
70
4
71
3
72
26
73
22
40
0
40
0
40
0
40
0
40
0.146314506966747
40
0.146314506966747
40
0.231683056270073
40
0.231683056270073
40
0.317051605573399
40
0.317051605573399
40
0.402420154876726
40
0.402420154876726
40
0.487788704180052
40
0.487788704180052
40
0.658525802786704
40
0.658525802786704
40
0.743894352090028
40
0.743894352090028
40
0.829262901393352
40
0.829262901393352
40
0.914631450696676
40
0.914631450696676
40
1
40
1
40
1
40
1
41
1
10
70.811388873712
20
0.416409401573418
30
0
41
1
10
70.8472137124776
20
0.451016783975291
30
0
41
1
10
70.8874171323652
20
0.496759725686331
30
0
41
1
10
70.9572406827056
20
0.587784458594371
30
0
41
1
10
70.9840646708133
20
0.625072361155958
30
0
41
1
10
71.0387731199382
20
0.705988184287662
30
0
41
1
10
71.0667732691911
20
0.74976207132454
30
0
41
1
10
71.1236588531349
20
0.843995816328317
30
0
41
1
10
71.1525478626105
20
0.894454179358462
30
0
41
1
10
71.2107064875244
20
1.00237960205911
30
0
41
1
10
71.2397118103331
20
1.05938602052802
30
0
41
1
10
71.3242555606039
20
1.23720668700457
30
0
41
1
10
71.3781323433972
20
1.36557242920324
30
0
41
1
10
71.4475429491359
20
1.57500210859558
30
0
41
1
10
71.4684951675101
20
1.64714398835889
30
0
41
1
10
71.5032282354266
20
1.79408549871135
30
0
41
1
10
71.5171346140796
20
1.86920711526454
30
0
41
1
10
71.5348157955159
20
2.02310126245788
30
0
41
1
10
71.5384633262265
20
2.10235344298997
30
0
41
1
10
71.5315843458692
20
2.25921938434547
30
0
41
1
10
71.521143316098
20
2.33737882314514
30
0
41
1
10
71.5025355067615
20
2.41503101296041
30
0
0
SPLINE
5
C8
100
AcDbEntity
8
1
62
256
6
ByLayer
370
18
48
1
60
0
100
AcDbSpline
70
4
71
3
72
18
73
14
40
0
40
0
40
0
40
0
40
0.25
40
0.25
40
0.375
40
0.375
40
0.5
40
0.5
40
0.625
40
0.625
40
0.75
40
0.75
40
1
40
1
40
1
40
1
41
1
10
72.2168733896883
20
-1.08292656175675
30
0
41
1
10
72.2732136362231
20
-1.0482567121538
30
0
41
1
10
72.3329499051594
20
-0.993908380985914
30
0
41
1
10
72.4280288773581
20
-0.884681935462424
30
0
41
1
10
72.4608695724417
20
-0.843282101823917
30
0
41
1
10
72.5272585888946
20
-0.752646224572374
30
0
41
1
10
72.5607181446451
20
-0.70359042450184
30
0
41
1
10
72.6281725678846
20
-0.598421926462805
30
0
41
1
10
72.6621673800444
20
-0.542307388965952
30
0
41
1
10
72.7306854682944
20
-0.423147520542926
30
0
41
1
10
72.7653105217329
20
-0.359872878652766
30
0
41
1
10
72.8675616090986
20
-0.164237282018405
30
0
41
1
10
72.9343500215126
20
-0.0248825339236873
30
0
41
1
10
72.999622281986
20
0.12284453053843
30
0
0
SPLINE
5
C9
100
AcDbEntity
8
1
62
256
6
ByLayer
370
18
48
1
60
0
100
AcDbSpline
70
4
71
3
72
8
73
4
40
0
40
0
40
0
40
0
40
1
40
1
40
1
40
1
41
1
10
72.9996222819859
20
0.12284453053843
30
0
41
1
10
72.7986943718959
20
0.639327532614857
30
0
41
1
10
72.6076946796844
20
1.16511138758125
30
0
41
1
10
72.4237043426689
20
1.69912424321839
30
0
0
SPLINE
5
CA
100
AcDbEntity
8
1
62
256
6
ByLayer
370
18
48
1
60
0
100
AcDbSpline
70
4
71
3
72
8
73
4
40
0
40
0
40
0
40
0
40
1
40
1
40
1
40
1
41
1
10
72.999622281986
20
-0.12284453053843
30
0
41
1
10
72.7980760586081
20
-0.640916900179292
30
0
41
1
10
72.6071364029212
20
-1.16673172793912
30
0
41
1
10
72.4237043426689
20
-1.69912424321868
30
0
0
SPLINE
5
CB
100
AcDbEntity
8
1
62
256
6
ByLayer
370
18
48
1
60
0
100
AcDbSpline
70
4
71
3
72
8
73
4
40
0
40
0
40
0
40
0
40
1
40
1
40
1
40
1
41
1
10
72.4237043426652
20
-1.69912424322914
30
0
41
1
10
72.1636381834609
20
-2.45393927636704
30
0
41
1
10
71.9055039135793
20
-3.20941297684317
30
0
41
1
10
71.6493116922342
20
-3.96554880838716
30
0
0
SPLINE
5
CC
100
AcDbEntity
8
1
62
256
6
ByLayer
370
18
48
1
60
0
100
AcDbSpline
70
4
71
3
72
44
73
40
40
0
40
0
40
0
40
0
40
0.0156250000000001
40
0.0156250000000001
40
0.0312500000000002
40
0.0312500000000002
40
0.0625000000000002
40
0.0625000000000002
40
0.125
40
0.125
40
0.1875
40
0.1875
40
0.250000000000001
40
0.250000000000001
40
0.312500000000001
40
0.312500000000001
40
0.343750000000001
40
0.343750000000001
40
0.375000000000001
40
0.375000000000001
40
0.500000000000001
40
0.500000000000001
40
0.531250000000001
40
0.531250000000001
40
0.562500000000001
40
0.562500000000001
40
0.625
40
0.625
40
0.65625
40
0.65625
40
0.6875
40
0.6875
40
0.75
40
0.75
40
0.8125
40
0.8125
40
0.875
40
0.875
40
1
40
1
40
1
40
1
41
1
10
4.63675173113592
20
4.25475146841839
30
0
41
1
10
4.63151927716783
20
4.21803078302017
30
0
41
1
10
4.62810806810768
20
4.1804178600517
30
0
41
1
10
4.62474039034657
20
4.10338110598607
30
0
41
1
10
4.62521714472854
20
4.06396100803664
30
0
41
1
10
4.62529124356592
20
3.94420227031753
30
0
41
1
10
4.62533316769151
20
3.8619661061353
30
0
41
1
10
4.62543839346404
20
3.60822389294842
30
0
41
1
10
4.62548121408986
20
3.42971198913114
30
0
41
1
10
4.6255203447426
20
3.05412049577942
30
0
41
1
10
4.62551660225927
20
2.85672363051577
30
0
41
1
10
4.62546892800387
20
2.44388480526467
30
0
41
1
10
4.625425567772
20
2.23232859679254
30
0
41
1
10
4.62530868245966
20
1.79933050800085
30
0
41
1
10
4.62523513354995
20
1.57788749442207
30
0
41
1
10
4.62510680007051
20
1.23822677347891
30
0
41
1
10
4.62506100198505
20
1.12375344784007
30
0
41
1
10
4.62496392660984
20
0.892239764770011
30
0
41
1
10
4.62491281493115
20
0.775623290630875
30
0
41
1
10
4.62464867293093
20
0.194222184505776
30
0
41
1
10
4.62440914632174
20
-0.271122448283677
30
0
41
1
10
4.62408635069525
20
-0.853085283531442
30
0
41
1
10
4.62402036215445
20
-0.969761138382268
30
0
41
1
10
4.6238876572788
20
-1.19989682402462
30
0
41
1
10
4.6238207452021
20
-1.31371978639413
30
0
41
1
10
4.62361815323615
20
-1.65152700875552
30
0
41
1
10
4.62348068509766
20
-1.87186415446971
30
0
41
1
10
4.62326895032766
20
-2.19508683766162
30
0
41
1
10
4.62319743338807
20
-2.30161024493197
30
0
41
1
10
4.6230519875555
20
-2.51217999387086
30
0
41
1
10
4.62297779519025
20
-2.61658127476505
30
0
41
1
10
4.62275264176228
20
-2.92314363767113
30
0
41
1
10
4.62259971102549
20
-3.11802180677958
30
0
41
1
10
4.62228255117728
20
-3.48941768277987
30
0
41
1
10
4.62211833731484
20
-3.665933977637
30
0
41
1
10
4.62177144760895
20
-4.0003211206859
30
0
41
1
10
4.62158752910602
20
-4.1589337856303
30
0
41
1
10
4.62101142800375
20
-4.59315986306746
30
0
41
1
10
4.62059180233095
20
-4.83208095776891
30
0
41
1
10
4.62010612951661
20
-5.02010497374019
30
0
0
SPLINE
5
CD
100
AcDbEntity
8
1
62
256
6
ByLayer
370
13
48
1
60
0
100
AcDbSpline
70
4
71
3
72
10
73
6
40
0
40
0
40
0
40
0
40
0.5
40
0.5
40
1
40
1
40
1
40
1
41
1
10
4.63879822099125
20
-5.01308666144942
30
0
41
1
10
4.71409855341199
20
-4.98549461030046
30
0
41
1
10
4.79449324616658
20
-4.96755511935385
30
0
41
1
10
4.95757034732307
20
-4.95152626811225
30
0
41
1
10
5.04075647873199
20
-4.95309640677482
30
0
41
1
10
5.12545274703473
20
-4.96460105081496
30
0
0
SPLINE
5
CE
100
AcDbEntity
8
1
62
256
6
ByLayer
370
18
48
1
60
0
100
AcDbSpline
70
4
71
3
72
8
73
4
40
0
40
0
40
0
40
0
40
1
40
1
40
1
40
1
41
1
10
72.4237043426689
20
1.69912424321842
30
0
41
1
10
72.163639139988
20
2.45393650014631
30
0
41
1
10
71.9055048575126
20
3.20941019088113
30
0
41
1
10
71.6493116922343
20
3.96554880838701
30
0
0
SPLINE
5
CF
100
AcDbEntity
8
1
62
256
6
ByLayer
370
18
48
1
60
0
100
AcDbSpline
70
4
71
3
72
14
73
10
40
0
40
0
40
0
40
0
40
0.25
40
0.25
40
0.5
40
0.5
40
0.75
40
0.75
40
1
40
1
40
1
40
1
41
1
10
11.5850750210981
20
4.80448649725696
30
0
41
1
10
12.1428562507354
20
4.68674535435301
30
0
41
1
10
12.7000271937671
20
4.55663910095356
30
0
41
1
10
13.8127510574454
20
4.2725431800913
30
0
41
1
10
14.3683055519519
20
4.11854235716081
30
0
41
1
10
15.4774964581664
20
3.78610642826516
30
0
41
1
10
16.0311335495682
20
3.60767302558566
30
0
41
1
10
17.1362494011984
20
3.22460505982323
30
0
41
1
10
17.6877282882417
20
3.01998504041004
30
0
41
1
10
18.2380322011601
20
2.8006550892612
30
0
0
SPLINE
5
D0
100
AcDbEntity
8
1
62
256
6
ByLayer
370
18
48
1
60
0
100
AcDbSpline
70
4
71
3
72
18
73
14
40
0
40
0
40
0
40
0
40
0.249999999999999
40
0.249999999999999
40
0.374999999999999
40
0.374999999999999
40
0.5
40
0.5
40
0.75
40
0.75
40
0.875
40
0.875
40
1
40
1
40
1
40
1
41
1
10
70.4405405951651
20
0.587553081216043
30
0
41
1
10
70.3830309574829
20
0.310454596160156
30
0
41
1
10
70.3362072285424
20
0.0326441240458166
30
0
41
1
10
70.2820191195547
20
-0.385140805424982
30
0
41
1
10
70.2666424678846
20
-0.52458141640102
30
0
41
1
10
70.24140973089
20
-0.803830465918111
30
0
41
1
10
70.2315274563265
20
-0.94421798954312
30
0
41
1
10
70.2107389778623
20
-1.36177164235792
30
0
41
1
10
70.2086712001714
20
-1.63254672319562
30
0
41
1
10
70.2226821332433
20
-2.02768812915519
30
0
41
1
10
70.2302177744469
20
-2.15755654110589
30
0
41
1
10
70.2510796572185
20
-2.41356398111569
30
0
41
1
10
70.2644528945202
20
-2.54003480165915
30
0
41
1
10
70.280681528673
20
-2.66370287947319
30
0
0
SPLINE
5
D1
100
AcDbEntity
8
1
62
256
6
ByLayer
370
18
48
1
60
0
100
AcDbSpline
70
4
71
3
72
74
73
70
40
0
40
0
40
0
40
0
40
0.0039426268373992
40
0.0039426268373992
40
0.0246938221116213
40
0.0246938221116213
40
0.0454450173858435
40
0.0454450173858435
40
0.086947407934288
40
0.086947407934288
40
0.10769860320851
40
0.10769860320851
40
0.128449798482731
40
0.128449798482731
40
0.149200993756953
40
0.149200993756953
40
0.169952189031175
40
0.169952189031175
40
0.211454579579618
40
0.211454579579618
40
0.252956970128061
40
0.252956970128061
40
0.294459360676503
40
0.294459360676503
40
0.315210555950725
40
0.315210555950725
40
0.335961751224946
40
0.335961751224946
40
0.377464141773388
40
0.377464141773388
40
0.398215337047609
40
0.398215337047609
40
0.41896653232183
40
0.41896653232183
40
0.501971313418713
40
0.501971313418713
40
0.522722508692933
40
0.522722508692933
40
0.543473703967153
40
0.543473703967153
40
0.584976094515594
40
0.584976094515594
40
0.605727289789815
40
0.605727289789815
40
0.626478485064035
40
0.626478485064035
40
0.667980875612474
40
0.667980875612474
40
0.688732070886694
40
0.688732070886694
40
0.709483266160914
40
0.709483266160914
40
0.750985656709354
40
0.750985656709354
40
0.792488047257795
40
0.792488047257795
40
0.813239242532015
40
0.813239242532015
40
0.833990437806235
40
0.833990437806235
40
0.875492828354676
40
0.875492828354676
40
0.896244023628897
40
0.896244023628897
40
0.916995218903118
40
0.916995218903118
40
0.958497609451559
40
0.958497609451559
40
1
40
1
40
1
40
1
41
1
10
31.2892342408012
20
3.67571243115037
30
0
41
1
10
31.3412961388158
20
3.69653824114468
30
0
41
1
10
31.3933430494011
20
3.71721940026495
30
0
41
1
10
31.7192424506437
20
3.84583515783604
30
0
41
1
10
31.9924618581664
20
3.95022706680288
30
0
41
1
10
32.5389198558855
20
4.14987258275661
30
0
41
1
10
32.8121845988655
20
4.24512666852135
30
0
41
1
10
33.6314423349014
20
4.51803655645475
30
0
41
1
10
34.1773301505243
20
4.68221830231141
30
0
41
1
10
34.998806180441
20
4.89834911101713
30
0
41
1
10
35.2728871736915
20
4.9655480109858
30
0
41
1
10
35.8223402408393
20
5.08945642385939
30
0
41
1
10
36.0973380354148
20
5.14646037920835
30
0
41
1
10
36.6492974635889
20
5.2493214786297
30
0
41
1
10
36.9266009309438
20
5.2952636171035
30
0
41
1
10
37.4795125475169
20
5.37575533837676
30
0
41
1
10
37.7554523190048
20
5.41031997002571
30
0
41
1
10
38.5833645587226
20
5.49635654109574
30
0
41
1
10
39.1345943750899
20
5.53051257781951
30
0
41
1
10
40.2392191617688
20
5.55154675316811
30
0
41
1
10
40.7932109930068
20
5.53832884541652
30
0
41
1
10
41.8972355713351
20
5.46472699865609
30
0
41
1
10
42.4484209962553
20
5.40449696414987
30
0
41
1
10
43.2761655520643
20
5.27998066948462
30
0
41
1
10
43.552165638557
20
5.23273150139804
30
0
41
1
10
44.1049988802144
20
5.12707577366828
30
0
41
1
10
44.3814919889575
20
5.06832862037325
30
0
41
1
10
45.2101874087734
20
4.87712666350026
30
0
41
1
10
45.7614954565762
20
4.72863196519492
30
0
41
1
10
46.5886613560145
20
4.47627031066139
30
0
41
1
10
46.8644126402444
20
4.38719778587677
30
0
41
1
10
47.4166245662278
20
4.19985746205964
30
0
41
1
10
47.6933301834898
20
4.10129418313704
30
0
41
1
10
49.0743974767049
20
3.58757509581969
30
0
41
1
10
50.1660730066509
20
3.11282645599414
30
0
41
1
10
51.5298842391063
20
2.46597227887145
30
0
41
1
10
51.802551571814
20
2.33384208240096
30
0
41
1
10
52.3479662431626
20
2.06449367496197
30
0
41
1
10
52.6206309436961
20
1.92711928214379
30
0
41
1
10
53.4404370008109
20
1.51034711467244
30
0
41
1
10
53.9881892839476
20
1.22415635422303
30
0
41
1
10
54.8139902704796
20
0.786388240701086
30
0
41
1
10
55.0902686932109
20
0.638712336348931
30
0
41
1
10
55.6429260311216
20
0.342679357393479
30
0
41
1
10
55.9188544916972
20
0.194320997841089
30
0
41
1
10
56.7454998613138
20
-0.251665097590092
30
0
41
1
10
57.2961106495569
20
-0.548268020574625
30
0
41
1
10
58.1232053773027
20
-0.988553260032546
30
0
41
1
10
58.3989753385308
20
-1.13477485421663
30
0
41
1
10
58.9514765065474
20
-1.42462146099663
30
0
41
1
10
59.2276896399449
20
-1.5683957746682
30
0
41
1
10
60.0532537086914
20
-1.99221216016315
30
0
41
1
10
60.6006474794256
20
-2.26637976990224
30
0
41
1
10
61.6927330559836
20
-2.79263158727764
30
0
41
1
10
62.2374892604743
20
-3.04460753798665
30
0
41
1
10
63.0550721120894
20
-3.40215414692736
30
0
41
1
10
63.3275512813715
20
-3.51811893426253
30
0
41
1
10
63.8731290406314
20
-3.74251665529931
30
0
41
1
10
64.1462118644346
20
-3.85098620109778
30
0
41
1
10
64.9659856541033
20
-4.16555085120024
30
0
41
1
10
65.5147697881838
20
-4.3586706171925
30
0
41
1
10
66.3427025067962
20
-4.62134184600058
30
0
41
1
10
66.6188757458615
20
-4.70433667635041
30
0
41
1
10
67.1696861782096
20
-4.85940817853603
30
0
41
1
10
67.4445302146773
20
-4.93183646548454
30
0
41
1
10
68.2683076397531
20
-5.1330426798325
30
0
41
1
10
68.8159426450803
20
-5.24612110655923
30
0
41
1
10
69.9133074402387
20
-5.42677166187715
30
0
41
1
10
70.4621165037073
20
-5.49491250075775
30
0
41
1
10
71.0131201397905
20
-5.53962286491986
30
0
0
SPLINE
5
D2
100
AcDbEntity
8
1
62
256
6
ByLayer
370
18
48
1
60
0
100
AcDbSpline
70
4
71
3
72
10
73
6
40
0
40
0
40
0
40
0
40
0.5
40
0.5
40
1
40
1
40
1
40
1
41
1
10
5.23718282831024
20
4.04583694516964
30
0
41
1
10
5.26471472831085
20
4.11418032705205
30
0
41
1
10
5.29685125829263
20
4.17991331601576
30
0
41
1
10
5.36828947550458
20
4.3041674630432
30
0
41
1
10
5.40773648226661
20
4.3630747437814
30
0
41
1
10
5.45054063877205
20
4.41908868004521
30
0
0
SPLINE
5
D3
100
AcDbEntity
8
1
62
256
6
ByLayer
370
18
48
1
60
0
100
AcDbSpline
70
4
71
3
72
8
73
4
40
0
40
0
40
0
40
0
40
1
40
1
40
1
40
1
41
1
10
72.2125843955873
20
-1.07859293741799
30
0
41
1
10
72.2140139873734
20
-1.08003755102951
30
0
41
1
10
72.2154436520872
20
-1.08148209247543
30
0
41
1
10
72.2168733897173
20
-1.08292656174507
30
0
0
SPLINE
5
D4
100
AcDbEntity
8
1
62
256
6
ByLayer
370
18
48
1
60
0
100
AcDbSpline
70
4
71
3
72
30
73
26
40
0
40
0
40
0
40
0
40
0.0624999999999992
40
0.0624999999999992
40
0.124999999999999
40
0.124999999999999
40
0.187499999999998
40
0.187499999999998
40
0.249999999999997
40
0.249999999999997
40
0.312499999999996
40
0.312499999999996
40
0.374999999999995
40
0.374999999999995
40
0.499999999999997
40
0.499999999999997
40
0.624999999999999
40
0.624999999999999
40
0.687499999999998
40
0.687499999999998
40
0.749999999999997
40
0.749999999999997
40
0.874999999999999
40
0.874999999999999
40
1
40
1
40
1
40
1
41
1
10
5.45054063877205
20
4.41908868004521
30
0
41
1
10
5.50845586637089
20
4.49487711117607
30
0
41
1
10
5.59064542981591
20
4.55813581585198
30
0
41
1
10
5.78427106942189
20
4.66788044672353
30
0
41
1
10
5.89218267092204
20
4.71252438540563
30
0
41
1
10
6.12186621297281
20
4.79006772467872
30
0
41
1
10
6.24447275676053
20
4.82288549794004
30
0
41
1
10
6.49393138565347
20
4.87905783903329
30
0
41
1
10
6.6215132679099
20
4.90264048688277
30
0
41
1
10
6.88104094895471
20
4.9435394065836
30
0
41
1
10
7.01300322787739
20
4.9608233113093
30
0
41
1
10
7.28063343276676
20
4.99053511096301
30
0
41
1
10
7.41663956582212
20
5.00296317745372
30
0
41
1
10
7.82407746995995
20
5.03383148709324
30
0
41
1
10
8.0966221308725
20
5.04622484121342
30
0
41
1
10
8.64326350399412
20
5.05861694573696
30
0
41
1
10
8.91736609803246
20
5.05854529896305
30
0
41
1
10
9.32966486263092
20
5.04921737426295
30
0
41
1
10
9.46764818356195
20
5.04453097568791
30
0
41
1
10
9.74225787921799
20
5.03189753588188
30
0
41
1
10
9.87850180691629
20
5.02397678626747
30
0
41
1
10
10.284085605815
20
4.99510769713436
30
0
41
1
10
10.5502873390832
20
4.96911364065787
30
0
41
1
10
11.0741753937461
20
4.90052672449937
30
0
41
1
10
11.3318558727955
20
4.8579381201194
30
0
41
1
10
11.5850750210979
20
4.80448649725702
30
0
0
SPLINE
5
D5
100
AcDbEntity
8
1
62
256
6
ByLayer
370
18
48
1
60
0
100
AcDbSpline
70
4
71
3
72
14
73
10
40
0
40
0
40
0
40
0
40
0.365496864328404
40
0.365496864328404
40
0.548245296492607
40
0.548245296492607
40
0.730993728656809
40
0.730993728656809
40
1
40
1
40
1
40
1
41
1
10
5.00589688712165
20
-5.16841628346035
30
0
41
1
10
5.69610044186032
20
-5.29138653362969
30
0
41
1
10
6.38542326920617
20
-5.37977033855697
30
0
41
1
10
7.41946961952368
20
-5.45792092410062
30
0
41
1
10
7.76467385836045
20
-5.47492425409683
30
0
41
1
10
8.45374801090358
20
-5.49061784754917
30
0
41
1
10
8.79774467442283
20
-5.48934369103577
30
0
41
1
10
9.64768528026994
20
-5.46373885806292
30
0
41
1
10
10.153507348828
20
-5.4288165603289
30
0
41
1
10
10.6602039196285
20
-5.37442714389104
30
0
0
SPLINE
5
D6
100
AcDbEntity
8
1
62
256
6
ByLayer
370
18
48
1
60
0
100
AcDbSpline
70
4
71
3
72
52
73
48
40
0
40
0
40
0
40
0
40
0.0029223293335434
40
0.0029223293335434
40
0.0373043179772141
40
0.0373043179772141
40
0.106068295264554
40
0.106068295264554
40
0.174832272551895
40
0.174832272551895
40
0.209214261195565
40
0.209214261195565
40
0.243596249839235
40
0.243596249839235
40
0.312360227126575
40
0.312360227126575
40
0.346742215770246
40
0.346742215770246
40
0.381124204413915
40
0.381124204413915
40
0.449888181701257
40
0.449888181701257
40
0.484270170344928
40
0.484270170344928
40
0.518652158988598
40
0.518652158988598
40
0.587416136275941
40
0.587416136275941
40
0.621798124919613
40
0.621798124919613
40
0.656180113563284
40
0.656180113563284
40
0.690562102206956
40
0.690562102206956
40
0.724944090850628
40
0.724944090850628
40
0.793708068137972
40
0.793708068137972
40
0.828090056781643
40
0.828090056781643
40
0.862472045425315
40
0.862472045425315
40
0.931236022712657
40
0.931236022712657
40
0.965618011356329
40
0.965618011356329
40
1
40
1
40
1
40
1
41
1
10
41.0270114794623
20
5.54631767702466
30
0
41
1
10
41.0562317410999
20
5.54635759683185
30
0
41
1
10
41.0854473193249
20
5.54633099672827
30
0
41
1
10
41.4583194376073
20
5.54514155596607
30
0
41
1
10
41.8014534030195
20
5.53486083188497
30
0
41
1
10
42.8305157782548
20
5.47673972619228
30
0
41
1
10
43.5159916980129
20
5.4015900360875
30
0
41
1
10
44.8919719866245
20
5.18013249637986
30
0
41
1
10
45.5780284869545
20
5.03444787252485
30
0
41
1
10
46.6067015331857
20
4.76781959013167
30
0
41
1
10
46.94965275781
20
4.67092427746357
30
0
41
1
10
47.6363211186818
20
4.46164977744311
30
0
41
1
10
47.9804816710601
20
4.3490998224695
30
0
41
1
10
49.0112008014941
20
3.99104479758662
30
0
41
1
10
49.6961611478483
20
3.72493776050359
30
0
41
1
10
50.7248400504025
20
3.29089245757933
30
0
41
1
10
51.0680328896146
20
3.14054182709421
30
0
41
1
10
51.7554807491348
20
2.82912378781421
30
0
41
1
10
52.0992102049011
20
2.66830464577646
30
0
41
1
10
53.1283263378435
20
2.17438978785881
30
0
41
1
10
53.8130298519565
20
1.82925259665473
30
0
41
1
10
54.8423147730823
20
1.2951990012518
30
0
41
1
10
55.1862710946325
20
1.11430579856554
30
0
41
1
10
55.8732288478628
20
0.749720476599833
30
0
41
1
10
56.2161177111813
20
0.566100423712186
30
0
41
1
10
57.2442131609645
20
0.0134920024097198
30
0
41
1
10
57.9288812426189
20
-0.357183781396742
30
0
41
1
10
58.959262253829
20
-0.908263278135479
30
0
41
1
10
59.3030067203063
20
-1.09096217205766
30
0
41
1
10
59.9888792128735
20
-1.45142630012077
30
0
41
1
10
60.3314244187304
20
-1.62940800344108
30
0
41
1
10
61.0165004263174
20
-1.97951222543418
30
0
41
1
10
61.3590327655381
20
-2.1516332015913
30
0
41
1
10
62.0447367922741
20
-2.48885509139834
30
0
41
1
10
62.3883426545622
20
-2.65409444209769
30
0
41
1
10
63.4183918282748
20
-3.1354932587665
30
0
41
1
10
64.102740414573
20
-3.4368346574031
30
0
41
1
10
65.1302600747438
20
-3.85286007698957
30
0
41
1
10
65.4729257837744
20
-3.98554853760055
30
0
41
1
10
66.1593124870062
20
-4.23787816384711
30
0
41
1
10
66.5029193799277
20
-4.35743099319203
30
0
41
1
10
67.5299668298323
20
-4.69280466107375
30
0
41
1
10
68.2118678272788
20
-4.88610986555591
30
0
41
1
10
69.2349173219617
20
-5.12693026981111
30
0
41
1
10
69.5759790268108
20
-5.19900688249143
30
0
41
1
10
70.2588503912145
20
-5.32620187920551
30
0
41
1
10
70.6004178882342
20
-5.38143322483464
30
0
41
1
10
70.9431964293357
20
-5.4276417567977
30
0
0
SPLINE
5
D7
100
AcDbEntity
8
1
62
256
6
ByLayer
370
18
48
1
60
0
100
AcDbSpline
70
4
71
3
72
52
73
48
40
0
40
0
40
0
40
0
40
0.0378990743691906
40
0.0378990743691906
40
0.0757981487383812
40
0.0757981487383812
40
0.113697223107572
40
0.113697223107572
40
0.151596297476762
40
0.151596297476762
40
0.227394446215145
40
0.227394446215145
40
0.265293520584337
40
0.265293520584337
40
0.303192594953529
40
0.303192594953529
40
0.341091669322721
40
0.341091669322721
40
0.378990743691913
40
0.378990743691913
40
0.416889818061105
40
0.416889818061105
40
0.454788892430297
40
0.454788892430297
40
0.492687966799489
40
0.492687966799489
40
0.530587041168681
40
0.530587041168681
40
0.606385189907066
40
0.606385189907066
40
0.644284264276258
40
0.644284264276258
40
0.68218333864545
40
0.68218333864545
40
0.757981487383833
40
0.757981487383833
40
0.795880561753025
40
0.795880561753025
40
0.833779636122217
40
0.833779636122217
40
0.871678710491409
40
0.871678710491409
40
0.909577784860601
40
0.909577784860601
40
0.985375933598986
40
0.985375933598986
40
1
40
1
40
1
40
1
41
1
10
18.23803220116
20
2.8006550892612
30
0
41
1
10
18.515165783874
20
2.67370869263783
30
0
41
1
10
18.7915152975887
20
2.54426451531344
30
0
41
1
10
19.3430638182787
20
2.28117533492221
30
0
41
1
10
19.6179661594564
20
2.14699574072432
30
0
41
1
10
20.1669349035095
20
1.87502162184859
30
0
41
1
10
20.4411587415131
20
1.73751915615537
30
0
41
1
10
20.9888805709956
20
1.45913577622733
30
0
41
1
10
21.2622331906375
20
1.31798026204527
30
0
41
1
10
22.0823483450823
20
0.891569842911821
30
0
41
1
10
22.6288470761074
20
0.602785827111006
30
0
41
1
10
23.4499692318131
20
0.166130278509684
30
0
41
1
10
23.7238032753047
20
0.0197977383989212
30
0
41
1
10
24.2725349888912
20
-0.272877193220779
30
0
41
1
10
24.5475841953018
20
-0.418917999706906
30
0
41
1
10
25.0987906667214
20
-0.710931877020073
30
0
41
1
10
25.3748301490333
20
-0.857145328589581
30
0
41
1
10
25.9288798157984
20
-1.14783173450351
30
0
41
1
10
26.2057721760852
20
-1.29194846418031
30
0
41
1
10
26.7587909668211
20
-1.5767787875694
30
0
41
1
10
27.0349817290051
20
-1.71767903639534
30
0
41
1
10
27.5873008684153
20
-1.99542017581044
30
0
41
1
10
27.8631855797027
20
-2.1326886757069
30
0
41
1
10
28.4155144710384
20
-2.40206545399354
30
0
41
1
10
28.6920516741893
20
-2.53402689814524
30
0
41
1
10
29.2454953762161
20
-2.79312384937487
30
0
41
1
10
29.522651709625
20
-2.92047298355558
30
0
41
1
10
30.3512924944137
20
-3.29046441818804
30
0
41
1
10
30.9006585902665
20
-3.52284463803593
30
0
41
1
10
31.7224471575862
20
-3.84706837524874
30
0
41
1
10
31.9957268483439
20
-3.95145595994563
30
0
41
1
10
32.5423147026918
20
-4.15107638367462
30
0
41
1
10
32.8156448438965
20
-4.24631555693122
30
0
41
1
10
33.6350936706039
20
-4.51917974469151
30
0
41
1
10
34.1811175163633
20
-4.6833118174427
30
0
41
1
10
35.0028016962185
20
-4.89935128136162
30
0
41
1
10
35.2769508640006
20
-4.96651825856486
30
0
41
1
10
35.8265486045252
20
-5.09035080961021
30
0
41
1
10
36.1016153656594
20
-5.14731658151209
30
0
41
1
10
36.6537256686206
20
-5.25008666821444
30
0
41
1
10
36.9310991725872
20
-5.29597921231363
30
0
41
1
10
37.4841309930167
20
-5.37636592169991
30
0
41
1
10
37.7601353592739
20
-5.41087290216646
30
0
41
1
10
38.5882431725033
20
-5.49672925943116
30
0
41
1
10
39.1396028016709
20
-5.53075414443822
30
0
41
1
10
39.7986410292781
20
-5.54312827754268
30
0
41
1
10
39.9052899205933
20
-5.5442455450364
30
0
41
1
10
40.0119746779071
20
-5.54447993654642
30
0
0
SPLINE
5
D8
100
AcDbEntity
8
1
62
256
6
ByLayer
370
18
48
1
60
0
100
AcDbSpline
70
4
71
3
72
18
73
14
40
0
40
0
40
0
40
0
40
0.0854029943448812
40
0.0854029943448812
40
0.314052245758658
40
0.314052245758658
40
0.428376871465547
40
0.428376871465547
40
0.542701497172436
40
0.542701497172436
40
0.771350748586218
40
0.771350748586218
40
1
40
1
40
1
40
1
41
1
10
63.8182307064821
20
3.71912874772653
30
0
41
1
10
64.0221676376913
20
3.80148875959773
30
0
41
1
10
64.2262563725072
20
3.88177613031886
30
0
41
1
10
64.9771012947421
20
4.16960736882749
30
0
41
1
10
65.5260664363814
20
4.3625206679327
30
0
41
1
10
66.3542677056883
20
4.6248738188518
30
0
41
1
10
66.6304286823402
20
4.70772662065397
30
0
41
1
10
67.180944014672
20
4.86243440661608
30
0
41
1
10
67.4555254123692
20
4.93464564324694
30
0
41
1
10
68.2781098486381
20
5.1351823139689
30
0
41
1
10
68.8245027403509
20
5.2477146817775
30
0
41
1
10
69.9183496724611
20
5.42741502348377
30
0
41
1
10
70.4648995761304
20
5.49513832899808
30
0
41
1
10
71.0131201397905
20
5.53962286491986
30
0
0
SPLINE
5
D9
100
AcDbEntity
8
1
62
256
6
ByLayer
370
18
48
1
60
0
100
AcDbSpline
70
4
71
3
72
8
73
4
40
0
40
0
40
0
40
0
40
1
40
1
40
1
40
1
41
1
10
5.43764218469712
20
3.87668677968475
30
0
41
1
10
5.37044829809773
20
3.9325895840355
30
0
41
1
10
5.30362798861131
20
3.98897223171886
30
0
41
1
10
5.23718282829401
20
4.04583694518018
30
0
0
SPLINE
5
DA
100
AcDbEntity
8
1
62
256
6
ByLayer
370
18
48
1
60
0
100
AcDbSpline
70
4
71
3
72
12
73
8
40
0
40
0
40
0
40
0
40
0.18279404864261
40
0.18279404864261
40
0.679281332903364
40
0.679281332903364
40
1
40
1
40
1
40
1
41
1
10
41.5561854169057
20
-5.41008283563505
30
0
41
1
10
41.4292043028758
20
-5.40992765520684
30
0
41
1
10
41.3021389702992
20
-5.40854999288303
30
0
41
1
10
40.8298887419157
20
-5.3988516090634
30
0
41
1
10
40.4852486839977
20
-5.38272873890395
30
0
41
1
10
39.9183262862165
20
-5.34157538520282
30
0
41
1
10
39.6959165913822
20
-5.32170193851803
30
0
41
1
10
39.4734898069969
20
-5.29815203258761
30
0
0
SPLINE
5
DB
100
AcDbEntity
8
1
62
256
6
ByLayer
370
13
48
1
60
0
100
AcDbSpline
70
4
71
3
72
38
73
34
40
0
40
0
40
0
40
0
40
0.0537161037876188
40
0.0537161037876188
40
0.0933875479940621
40
0.0933875479940621
40
0.133058992200506
40
0.133058992200506
40
0.172730436406949
40
0.172730436406949
40
0.212401880613392
40
0.212401880613392
40
0.371087657439167
40
0.371087657439167
40
0.410759101645611
40
0.410759101645611
40
0.450430545852056
40
0.450430545852056
40
0.529773434264946
40
0.529773434264946
40
0.688459211090727
40
0.688459211090727
40
0.728130655297172
40
0.728130655297172
40
0.767802099503617
40
0.767802099503617
40
0.847144987916507
40
0.847144987916507
40
0.926487876329398
40
0.926487876329398
40
0.966159320535844
40
0.966159320535844
40
1
40
1
40
1
40
1
41
1
10
39.4734898072462
20
-5.29815203261398
30
0
41
1
10
39.0072627559235
20
-5.24878925811748
30
0
41
1
10
38.5409606199058
20
-5.18327358280533
30
0
41
1
10
37.7285383222755
20
-5.04202674145401
30
0
41
1
10
37.3829594424945
20
-4.97342762978317
30
0
41
1
10
36.6925965870664
20
-4.82005345003998
30
0
41
1
10
36.3474761965808
20
-4.73524811475642
30
0
41
1
10
35.6567587974545
20
-4.55003789889949
30
0
41
1
10
35.3113395602289
20
-4.44961904663987
30
0
41
1
10
34.6234770323213
20
-4.23536107658737
30
0
41
1
10
34.2805078818676
20
-4.12140186571409
30
0
41
1
10
32.5689513081181
20
-3.52000710888348
30
0
41
1
10
31.2096140827992
20
-2.93782096510046
30
0
41
1
10
29.4950055784041
20
-2.12778778561173
30
0
41
1
10
29.1513463946412
20
-1.96161321462398
30
0
41
1
10
28.4615811886068
20
-1.62245874375947
30
0
41
1
10
28.1154354920676
20
-1.44943497657326
30
0
41
1
10
27.0827196134866
20
-0.926663359010547
30
0
41
1
10
26.3982952201059
20
-0.571935070326532
30
0
41
1
10
24.3484501431976
20
0.493742276170821
30
0
41
1
10
22.9866835176452
20
1.20661257237049
30
0
41
1
10
21.2620173202482
20
2.04503997807908
30
0
41
1
10
20.9156339870175
20
2.21019877387968
30
0
41
1
10
20.2265796190357
20
2.53073237452227
30
0
41
1
10
19.8830911693929
20
2.68652110959076
30
0
41
1
10
18.8547196323388
20
3.13896892611706
30
0
41
1
10
18.1717902881989
20
3.4202845947662
30
0
41
1
10
16.8058673895166
20
3.93491996095926
30
0
41
1
10
16.1227259986226
20
4.16784601373558
30
0
41
1
10
15.0937898469569
20
4.47534135392004
30
0
41
1
10
14.7500838839131
20
4.57081056816327
30
0
41
1
10
14.111121224696
20
4.73367725578811
30
0
41
1
10
13.8156761926802
20
4.80327106528773
30
0
41
1
10
13.5210667311416
20
4.86676673872432
30
0
0
SPLINE
5
DC
100
AcDbEntity
8
1
62
256
6
ByLayer
370
18
48
1
60
0
100
AcDbSpline
70
4
71
3
72
8
73
4
40
0
40
0
40
0
40
0
40
1
40
1
40
1
40
1
41
1
10
71.0131201397905
20
5.53962286491986
30
0
41
1
10
71.2216756517875
20
5.03504785347056
30
0
41
1
10
71.4356638293314
20
4.51192851784208
30
0
41
1
10
71.6493116922343
20
3.96554880838701
30
0
0
SPLINE
5
DD
100
AcDbEntity
8
1
62
256
6
ByLayer
370
18
48
1
60
0
100
AcDbSpline
70
4
71
3
72
56
73
52
40
0
40
0
40
0
40
0
40
0.0178001283447711
40
0.0178001283447711
40
0.0773327707328668
40
0.0773327707328668
40
0.107099091926915
40
0.107099091926915
40
0.136865413120963
40
0.136865413120963
40
0.16663173431501
40
0.16663173431501
40
0.196398055509058
40
0.196398055509058
40
0.255930697897154
40
0.255930697897154
40
0.285697019091201
40
0.285697019091201
40
0.315463340285248
40
0.315463340285248
40
0.374995982673342
40
0.374995982673342
40
0.404762303867389
40
0.404762303867389
40
0.434528625061435
40
0.434528625061435
40
0.494061267449527
40
0.494061267449527
40
0.523827588643573
40
0.523827588643573
40
0.553593909837619
40
0.553593909837619
40
0.61312655222571
40
0.61312655222571
40
0.672659194613801
40
0.672659194613801
40
0.702425515807847
40
0.702425515807847
40
0.732191837001893
40
0.732191837001893
40
0.791724479389984
40
0.791724479389984
40
0.851257121778076
40
0.851257121778076
40
0.910789764166168
40
0.910789764166168
40
0.940556085360214
40
0.940556085360214
40
0.970322406554259
40
0.970322406554259
40
1
40
1
40
1
40
1
41
1
10
8.52464825292361
20
5.48781500129931
30
0
41
1
10
8.73046511040167
20
5.48812398408202
30
0
41
1
10
8.93614197212082
20
5.48517637824904
30
0
41
1
10
9.82944240703984
20
5.458256764449
30
0
41
1
10
10.5165881662698
20
5.40120846441135
30
0
41
1
10
11.5508878041032
20
5.26193236192222
30
0
41
1
10
11.8955787742135
20
5.2066508449274
30
0
41
1
10
12.5836870503742
20
5.0791927970451
30
0
41
1
10
12.9273631093061
20
5.00695992475099
30
0
41
1
10
13.614740800673
20
4.84609286610555
30
0
41
1
10
13.9584674344941
20
4.75748121724737
30
0
41
1
10
14.6467254126667
20
4.56451350228289
30
0
41
1
10
14.9916723077108
20
4.45997693169187
30
0
41
1
10
16.0250070526454
20
4.12492087025743
30
0
41
1
10
16.7117281757733
20
3.87331550030274
30
0
41
1
10
17.7427633119322
20
3.45920234573995
30
0
41
1
10
18.0866361392075
20
3.31509460794879
30
0
41
1
10
18.7755700432276
20
3.01585802277907
30
0
41
1
10
19.120350603066
20
2.86077548741716
30
0
41
1
10
20.1521392702125
20
2.38286190020168
30
0
41
1
10
20.8385069029327
20
2.04703146325463
30
0
41
1
10
21.870093072243
20
1.52483456343947
30
0
41
1
10
22.2146549678028
20
1.3474859084217
30
0
41
1
10
22.9034891371658
20
0.988967124204436
30
0
41
1
10
23.2472929680346
20
0.808017187425946
30
0
41
1
10
24.2779421209557
20
0.262119979824405
30
0
41
1
10
24.9642723342116
20
-0.105409879806956
30
0
41
1
10
25.9967398456754
20
-0.654335837514424
30
0
41
1
10
26.3414924109627
20
-0.836890588666819
30
0
41
1
10
27.0291987177829
20
-1.1978613756892
30
0
41
1
10
27.372592914409
20
-1.37652183305184
30
0
41
1
10
28.402681081218
20
-1.90470717295588
30
0
41
1
10
29.0895818762999
20
-2.2469093294367
30
0
41
1
10
30.466981914778
20
-2.8993971034136
30
0
41
1
10
31.1531877152206
20
-3.20733128639387
30
0
41
1
10
32.1830410978169
20
-3.63530219203906
30
0
41
1
10
32.526451466971
20
-3.77225253723731
30
0
41
1
10
33.2142199174328
20
-4.0337006377039
30
0
41
1
10
33.5588422756535
20
-4.15829027508209
30
0
41
1
10
34.5901558738328
20
-4.50992317303067
30
0
41
1
10
35.275815758109
20
-4.71547560009768
30
0
41
1
10
36.649298064965
20
-5.06276915290147
30
0
41
1
10
37.3385110963195
20
-5.20456255718656
30
0
41
1
10
38.7118234595537
20
-5.41676310138078
30
0
41
1
10
39.3972849906251
20
-5.48762532411624
30
0
41
1
10
40.4281489005809
20
-5.53926681886949
30
0
41
1
10
40.7726141785244
20
-5.54735794053576
30
0
41
1
10
41.4599664213963
20
-5.54510713998221
30
0
41
1
10
41.8031148491892
20
-5.5347965597895
30
0
41
1
10
42.488164246266
20
-5.4960460061647
30
0
41
1
10
42.8300375795802
20
-5.46765253385774
30
0
41
1
10
43.1721525461166
20
-5.43031401282735
30
0
0
SPLINE
5
DE
100
AcDbEntity
8
1
62
256
6
ByLayer
370
18
48
1
60
0
100
AcDbSpline
70
4
71
3
72
20
73
16
40
0
40
0
40
0
40
0
40
0.25
40
0.25
40
0.375
40
0.375
40
0.5
40
0.5
40
0.625
40
0.625
40
0.75
40
0.75
40
0.875
40
0.875
40
1
40
1
40
1
40
1
41
1
10
72.2125843955829
20
-1.07859293741313
30
0
41
1
10
72.104005868518
20
-1.09075837799816
30
0
41
1
10
72.0036420686774
20
-1.05850838490676
30
0
41
1
10
71.8626690180827
20
-0.958375941549605
30
0
41
1
10
71.817911623164
20
-0.916490397188767
30
0
41
1
10
71.733665877791
20
-0.819343868755794
30
0
41
1
10
71.6939285350323
20
-0.763889201154399
30
0
41
1
10
71.6187539270911
20
-0.640575675149847
30
0
41
1
10
71.5834765987079
20
-0.57285701988198
30
0
41
1
10
71.5182943137564
20
-0.429262203441141
30
0
41
1
10
71.488174328448
20
-0.353035250813463
30
0
41
1
10
71.4323936562989
20
-0.192588061743436
30
0
41
1
10
71.4067357256081
20
-0.108362884907933
30
0
41
1
10
71.3596269277073
20
0.067628621854908
30
0
41
1
10
71.3381059126417
20
0.159820688645681
30
0
41
1
10
71.3189413876215
20
0.254101469736838
30
0
0
SPLINE
5
DF
100
AcDbEntity
8
1
62
256
6
ByLayer
370
18
48
1
60
0
100
AcDbSpline
70
4
71
3
72
42
73
38
40
0
40
0
40
0
40
0
40
0.125
40
0.125
40
0.250000000000001
40
0.250000000000001
40
0.375000000000001
40
0.375000000000001
40
0.500000000000001
40
0.500000000000001
40
0.562500000000002
40
0.562500000000002
40
0.625000000000002
40
0.625000000000002
40
0.656250000000002
40
0.656250000000002
40
0.687500000000003
40
0.687500000000003
40
0.750000000000003
40
0.750000000000003
40
0.781250000000003
40
0.781250000000003
40
0.812500000000003
40
0.812500000000003
40
0.875000000000002
40
0.875000000000002
40
0.890625000000002
40
0.890625000000002
40
0.906250000000001
40
0.906250000000001
40
0.937500000000001
40
0.937500000000001
40
0.953125
40
0.953125
40
0.96875
40
0.96875
40
1
40
1
40
1
40
1
41
1
10
14.1416976023458
20
-3.57761995433543
30
0
41
1
10
13.6580250520423
20
-3.40954099002266
30
0
41
1
10
13.1785735078246
20
-3.23013172559729
30
0
41
1
10
12.2297060991101
20
-2.84344111679789
30
0
41
1
10
11.7602117014494
20
-2.63643153262663
30
0
41
1
10
10.8317831100246
20
-2.19300210598956
30
0
41
1
10
10.3732392167776
20
-1.95524322603029
30
0
41
1
10
9.46940298906358
20
-1.44134983836119
30
0
41
1
10
9.02387562285872
20
-1.16601651124236
30
0
41
1
10
8.36902638724774
20
-0.712449384027224
30
0
41
1
10
8.1529421784121
20
-0.554223304818379
30
0
41
1
10
7.72625024487616
20
-0.222579035043168
30
0
41
1
10
7.51808502651454
20
-0.0510285728432791
30
0
41
1
10
7.21562634637965
20
0.217106466794462
30
0
41
1
10
7.11643782911909
20
0.308285830919743
30
0
41
1
10
6.92172059553698
20
0.494683444880963
30
0
41
1
10
6.82597384856345
20
0.590129820937591
30
0
41
1
10
6.546668315126
20
0.881611431531155
30
0
41
1
10
6.37151566154091
20
1.08205510158257
30
0
41
1
10
6.12972548273439
20
1.3941404205051
30
0
41
1
10
6.05264100847484
20
1.5000838941813
30
0
41
1
10
5.90663418207276
20
1.71638837313532
30
0
41
1
10
5.8373814062189
20
1.8273749724824
30
0
41
1
10
5.64778345449025
20
2.16164438786879
30
0
41
1
10
5.54458402103845
20
2.38692336745393
30
0
41
1
10
5.45227492837367
20
2.67205004050879
30
0
41
1
10
5.43570876248023
20
2.72919786491312
30
0
41
1
10
5.40697513474333
20
2.84194917459138
30
0
41
1
10
5.39472754801147
20
2.89778710458739
30
0
41
1
10
5.36438364884191
20
3.06366559113286
30
0
41
1
10
5.35267403396295
20
3.1720734862009
30
0
41
1
10
5.34825969321506
20
3.33128616024186
30
0
41
1
10
5.34898286458841
20
3.38378988979346
30
0
41
1
10
5.35491872444857
20
3.48763250661264
30
0
41
1
10
5.36016232946716
20
3.53907614123733
30
0
41
1
10
5.3824153736802
20
3.68949011662528
30
0
41
1
10
5.40593044716223
20
3.78523230965536
30
0
41
1
10
5.43764218469715
20
3.87668677968475
30
0
0
SPLINE
5
E0
100
AcDbEntity
8
1
62
256
6
ByLayer
370
18
48
1
60
0
100
AcDbSpline
70
4
71
3
72
14
73
10
40
0
40
0
40
0
40
0
40
0.25
40
0.25
40
0.5
40
0.5
40
0.75
40
0.75
40
1
40
1
40
1
40
1
41
1
10
15.2027687165903
20
-1.68403899950505
30
0
41
1
10
15.3182627218979
20
-1.47792911119365
30
0
41
1
10
15.4659333483094
20
-1.22639625545355
30
0
41
1
10
15.7972214842217
20
-0.680870214323932
30
0
41
1
10
15.9806243955452
20
-0.387230403780393
30
0
41
1
10
16.3476679776382
20
0.185317373503267
30
0
41
1
10
16.5310708889617
20
0.463854461554973
30
0
41
1
10
16.862359024874
20
0.951874817152259
30
0
41
1
10
17.0100296512855
20
1.161041960251
30
0
41
1
10
17.1255236565931
20
1.31524806303446
30
0
0
SPLINE
5
E1
100
AcDbEntity
8
1
62
256
6
ByLayer
370
13
48
1
60
0
100
AcDbSpline
70
4
71
3
72
46
73
42
40
0
40
0
40
0
40
0
40
0.125
40
0.125
40
0.156250000000001
40
0.156250000000001
40
0.187500000000001
40
0.187500000000001
40
0.250000000000001
40
0.250000000000001
40
0.312500000000001
40
0.312500000000001
40
0.375000000000001
40
0.375000000000001
40
0.437500000000001
40
0.437500000000001
40
0.500000000000001
40
0.500000000000001
40
0.531250000000001
40
0.531250000000001
40
0.562500000000001
40
0.562500000000001
40
0.625000000000001
40
0.625000000000001
40
0.6875
40
0.6875
40
0.75
40
0.75
40
0.8125
40
0.8125
40
0.875
40
0.875
40
0.9375
40
0.9375
40
0.96875
40
0.96875
40
0.984375
40
0.984375
40
0.9921875
40
0.9921875
40
1
40
1
40
1
40
1
41
1
10
5.12545274703473
20
-4.96460105081496
30
0
41
1
10
5.12557107313472
20
-4.79581738415314
30
0
41
1
10
5.12566657173787
20
-4.57668721897952
30
0
41
1
10
5.12577394860054
20
-4.2407227007696
30
0
41
1
10
5.12579486816307
20
-4.17014554450856
30
0
41
1
10
5.12583536462054
20
-4.02430630151764
30
0
41
1
10
5.12585498431858
20
-3.94894169486395
30
0
41
1
10
5.12591253876082
20
-3.71566487824575
30
0
41
1
10
5.12594918690087
20
-3.5505976845372
30
0
41
1
10
5.12602161261981
20
-3.20146885862715
30
0
41
1
10
5.12605747099337
20
-3.01695062412833
30
0
41
1
10
5.1261299942021
20
-2.63001701765151
30
0
41
1
10
5.1261660634693
20
-2.43088354862886
30
0
41
1
10
5.12623914504439
20
-2.02169950897979
30
0
41
1
10
5.12627615364585
20
-1.8116477659438
30
0
41
1
10
5.12635167609602
20
-1.38050432023124
30
0
41
1
10
5.12639039457659
20
-1.15823297100613
30
0
41
1
10
5.12644842251567
20
-0.822188827676598
30
0
41
1
10
5.12646776753243
20
-0.709639959631971
30
0
41
1
10
5.12650635435833
20
-0.483473158194926
30
0
41
1
10
5.1265256477613
20
-0.3695456330463
30
0
41
1
10
5.12658268449897
20
-0.0288304833911184
30
0
41
1
10
5.12661958808866
20
0.196762699914331
30
0
41
1
10
5.12668950029428
20
0.644954327127977
30
0
41
1
10
5.12672251342173
20
0.867552514317055
30
0
41
1
10
5.12678224556481
20
1.30971284842332
30
0
41
1
10
5.12680906560053
20
1.53041462266179
30
0
41
1
10
5.12685232343387
20
1.960517043263
30
0
41
1
10
5.12686889689798
20
2.17098406795509
30
0
41
1
10
5.12688845060862
20
2.57901204596919
30
0
41
1
10
5.12689135630762
20
2.77455427008638
30
0
41
1
10
5.12688076834252
20
3.14928008723646
30
0
41
1
10
5.12686728194751
20
3.32846222610277
30
0
41
1
10
5.12683231223369
20
3.58480091769934
30
0
41
1
10
5.12681819360324
20
3.66816866265043
30
0
41
1
10
5.12679295616786
20
3.79002373663806
30
0
41
1
10
5.12678387132294
20
3.83007716364375
30
0
41
1
10
5.12676924665396
20
3.88910420744628
30
0
41
1
10
5.12676420355004
20
3.90861414590827
30
0
41
1
10
5.12675377559628
20
3.94730246249748
30
0
41
1
10
5.12674833176555
20
3.966680287667
30
0
41
1
10
5.12674283241506
20
3.98549284875116
30
0
0
SPLINE
5
E2
100
AcDbEntity
8
1
62
256
6
ByLayer
370
18
48
1
60
0
100
AcDbSpline
70
4
71
4
72
10
73
5
40
0
40
0
40
0
40
0
40
0
40
1
40
1
40
1
40
1
40
1
41
1
10
18.23803220116
20
2.8006550892612
30
0
41
1
10
17.9599050650183
20
2.42930333270451
30
0
41
1
10
17.6817779288766
20
2.05795157614781
30
0
41
1
10
17.4036507927349
20
1.68659981959115
30
0
41
1
10
17.1255236565931
20
1.31524806303449
30
0
0
SPLINE
5
E3
100
AcDbEntity
8
1
62
256
6
ByLayer
370
13
48
1
60
0
100
AcDbSpline
70
4
71
3
72
8
73
4
40
0
40
0
40
0
40
0
40
1
40
1
40
1
40
1
41
1
10
4.62010612952699
20
-5.02010497373499
30
0
41
1
10
4.62627605626813
20
-5.0177319447229
30
0
41
1
10
4.63250629655488
20
-5.01539219045964
30
0
41
1
10
4.63879822099125
20
-5.01308666144942
30
0
0
SPLINE
5
E4
100
AcDbEntity
8
1
62
256
6
ByLayer
370
18
48
1
60
0
100
AcDbSpline
70
4
71
3
72
20
73
16
40
0
40
0
40
0
40
0
40
0.249999999999999
40
0.249999999999999
40
0.374999999999998
40
0.374999999999998
40
0.437499999999998
40
0.437499999999998
40
0.499999999999998
40
0.499999999999998
40
0.749999999999999
40
0.749999999999999
40
0.874999999999999
40
0.874999999999999
40
1
40
1
40
1
40
1
41
1
10
70.9148673427933
20
-5.21517295873878
30
0
41
1
10
70.8028434934828
20
-5.11517037986508
30
0
41
1
10
70.7037714117538
20
-4.98615697511883
30
0
41
1
10
70.5753354389525
20
-4.74745301788752
30
0
41
1
10
70.5359057063766
20
-4.66030906943004
30
0
41
1
10
70.4821437006563
20
-4.51753660917484
30
0
41
1
10
70.4651249249355
20
-4.46790360403472
30
0
41
1
10
70.4333177600586
20
-4.36574871304083
30
0
41
1
10
70.4184731848308
20
-4.31308726715361
30
0
41
1
10
70.3495094091846
20
-4.04191378606467
30
0
41
1
10
70.3110205272648
20
-3.8000228443407
30
0
41
1
10
70.2793594327296
20
-3.39818913369075
30
0
41
1
10
70.2732054576461
20
-3.25695504966413
30
0
41
1
10
70.2701487629065
20
-2.96675078762053
30
0
41
1
10
70.2731647647037
20
-2.8173537096105
30
0
41
1
10
70.280681528673
20
-2.66370287947319
30
0
0
SPLINE
5
E5
100
AcDbEntity
8
1
62
256
6
ByLayer
370
13
48
1
60
0
100
AcDbSpline
70
4
71
3
72
32
73
28
40
0
40
0
40
0
40
0
40
0.1668404577271
40
0.1668404577271
40
0.25026068659065
40
0.25026068659065
40
0.291970801022426
40
0.291970801022426
40
0.333680915454201
40
0.333680915454201
40
0.500521373181305
40
0.500521373181305
40
0.583941602044856
40
0.583941602044856
40
0.625651716476632
40
0.625651716476632
40
0.667361830908408
40
0.667361830908408
40
0.83420228863551
40
0.83420228863551
40
0.875912403067286
40
0.875912403067286
40
0.896767460283174
40
0.896767460283174
40
0.917622517499061
40
0.917622517499061
40
1
40
1
40
1
40
1
41
1
10
70.9148673427933
20
-5.21517295873878
30
0
41
1
10
69.5394193347757
20
-4.9963350903414
30
0
41
1
10
68.1812207327391
20
-4.64256488173848
30
0
41
1
10
66.1363759905733
20
-3.94635135661704
30
0
41
1
10
65.4534727545456
20
-3.68673216055259
30
0
41
1
10
64.4227291398573
20
-3.26124765786275
30
0
41
1
10
64.0773057377976
20
-3.11302586374802
30
0
41
1
10
63.3900124902615
20
-2.80835016382682
30
0
41
1
10
63.0476338963424
20
-2.65172337216237
30
0
41
1
10
61.3403210881926
20
-1.85044814905982
30
0
41
1
10
59.988662256383
20
-1.1521077918508
30
0
41
1
10
57.9490745305162
20
-0.082492407844029
30
0
41
1
10
57.267195390329
20
0.277774189149767
30
0
41
1
10
56.2369929079671
20
0.815347982869213
30
0
41
1
10
55.8914943147926
20
0.994541597320534
30
0
41
1
10
55.2032528240537
20
1.34743530682849
30
0
41
1
10
54.8602496868471
20
1.5212511545981
30
0
41
1
10
53.1490880611432
20
2.37451235425362
30
0
41
1
10
51.7921385117182
20
3.00528845645096
30
0
41
1
10
50.0828933600149
20
3.6819636850507
30
0
41
1
10
49.7404306129473
20
3.81180108490275
30
0
41
1
10
49.2251194154677
20
3.99714712171027
30
0
41
1
10
49.0530790566935
20
4.05736264905934
30
0
41
1
10
48.7083665994854
20
4.17450632035073
30
0
41
1
10
48.5355923814825
20
4.23147783059471
30
0
41
1
10
47.6828250330937
20
4.50402168017945
30
0
41
1
10
47.006896748278
20
4.69208795592738
30
0
41
1
10
46.3326405020164
20
4.84867425796048
30
0
0
SPLINE
5
E6
100
AcDbEntity
8
1
62
256
6
ByLayer
370
18
48
1
60
0
100
AcDbSpline
70
4
71
3
72
10
73
6
40
0
40
0
40
0
40
0
40
0.901465244068524
40
0.901465244068524
40
1
40
1
40
1
40
1
41
1
10
9.06459447969581
20
-5.35169223383633
30
0
41
1
10
8.44502624408642
20
-5.35100093329342
30
0
41
1
10
7.82407841814563
20
-5.32134690633359
30
0
41
1
10
7.13165294895938
20
-5.25645691879441
30
0
41
1
10
7.06336271924414
20
-5.24971482116979
30
0
41
1
10
6.99502461637002
20
-5.24262666045655
30
0
0
SPLINE
5
E7
100
AcDbEntity
8
1
62
256
6
ByLayer
370
13
48
1
60
0
100
AcDbSpline
70
4
71
3
72
10
73
6
40
0
40
0
40
0
40
0
40
0.445075871679882
40
0.445075871679882
40
1
40
1
40
1
40
1
41
1
10
6.99502461723785
20
-5.24262666054659
30
0
41
1
10
6.71813683124108
20
-5.21390732179799
30
0
41
1
10
6.44046313337776
20
-5.17950682278956
30
0
41
1
10
5.81696721883011
20
-5.08976718159454
30
0
41
1
10
5.47124522097192
20
-5.03139514952707
30
0
41
1
10
5.12545274703467
20
-4.96460105081494
30
0
0
SPLINE
5
E8
100
AcDbEntity
8
1
62
256
6
ByLayer
370
18
48
1
60
0
100
AcDbSpline
70
4
71
3
72
30
73
26
40
0
40
0
40
0
40
0
40
0.0560868311742057
40
0.104857090253998
40
0.141860141044705
40
0.175117320369907
40
0.206606885944914
40
0.237438301816217
40
0.270650334711047
40
0.310422921135353
40
0.352935212464985
40
0.390531530526486
40
0.421230695534039
40
0.447295287160866
40
0.484293359862885
40
0.533200530658424
40
0.58564550710528
40
0.63705685657153
40
0.677560586257891
40
0.717983767664183
40
0.764510107165401
40
0.818806257604494
40
0.884303700841444
40
0.941222757538783
40
1
40
1
40
1
40
1
41
1
10
41.5207761279913
20
-5.40987489171275
30
0
41
1
10
41.77472538837
20
-5.40976006649007
30
0
41
1
10
42.2508032357656
20
-5.41006009332622
30
0
41
1
10
42.9074582800627
20
-5.40946179048728
30
0
41
1
10
43.4470305748312
20
-5.41325627686544
30
0
41
1
10
43.9112510957506
20
-5.41418424752098
30
0
41
1
10
44.3525998122468
20
-5.41485174153561
30
0
41
1
10
44.7894798371167
20
-5.415585807177
30
0
41
1
10
45.2672794499094
20
-5.41623610105867
30
0
41
1
10
45.7989118532342
20
-5.41705451963537
30
0
41
1
10
46.3494067628096
20
-5.4178816662745
30
0
41
1
10
46.8585781038587
20
-5.41951615720171
30
0
41
1
10
47.2925073895742
20
-5.42028485827265
30
0
41
1
10
47.723951383409
20
-5.42079581319555
30
0
41
1
10
48.2391722158605
20
-5.42145592115119
30
0
41
1
10
48.875758733566
20
-5.42335561053824
30
0
41
1
10
49.5786910602878
20
-5.42419447084748
30
0
41
1
10
50.242951201637
20
-5.42459698157964
30
0
41
1
10
50.8518932156611
20
-5.42632511385207
30
0
41
1
10
51.4383581061779
20
-5.42745152340393
30
0
41
1
10
52.0882848220378
20
-5.42771880777926
30
0
41
1
10
52.853587624706
20
-5.4300716662195
30
0
41
1
10
53.6667147811137
20
-5.43183291780906
30
0
41
1
10
54.5004658614104
20
-5.43165703218799
30
0
41
1
10
55.0328272858748
20
-5.43288147601396
30
0
41
1
10
55.30328203915
20
-5.4336329919727
30
0
0
SPLINE
5
E9
100
AcDbEntity
8
1
62
256
6
ByLayer
370
18
48
1
60
0
100
AcDbSpline
70
4
71
3
72
25
73
21
40
0
40
0
40
0
40
0
40
0.077132068596044
40
0.131153521102476
40
0.202663307128226
40
0.249623177864762
40
0.308743922514951
40
0.382345059641713
40
0.463385812214219
40
0.546107097417333
40
0.624232897562537
40
0.678209621221091
40
0.730731810642525
40
0.783060898699575
40
0.827178133484256
40
0.849124813943116
40
0.870406139511943
40
0.90919586602393
40
0.967213877592477
40
1
40
1
40
1
40
1
41
1
10
22.8203464755933
20
5.37806894638248
30
0
41
1
10
22.5075797724582
20
5.37677245527792
30
0
41
1
10
21.9757579421272
20
5.37511892695753
30
0
41
1
10
21.1539676100974
20
5.37418034082779
30
0
41
1
10
20.4545169687495
20
5.3742270539517
30
0
41
1
10
19.7343984263563
20
5.37073746989734
30
0
41
1
10
19.0057941065458
20
5.37069960036166
30
0
41
1
10
18.1389947779118
20
5.36897915592056
30
0
41
1
10
17.1764935705345
20
5.36669118256617
30
0
41
1
10
16.1956483326753
20
5.36452027375643
30
0
41
1
10
15.3245520040979
20
5.36321506278182
30
0
41
1
10
14.5759127533187
20
5.36213111529918
30
0
41
1
10
13.931869612376
20
5.36059393412191
30
0
41
1
10
13.3280926396367
20
5.35968677032122
30
0
41
1
10
12.8477900215604
20
5.35896132581746
30
0
41
1
10
12.4939531902149
20
5.35832316410156
30
0
41
1
10
12.1638189115912
20
5.35748710426736
30
0
41
1
10
11.6846659363634
20
5.35630007310573
30
0
41
1
10
11.1593989854387
20
5.3554860760068
30
0
41
1
10
10.7911795197587
20
5.35482712319973
30
0
41
1
10
10.6582311015471
20
5.35458399842091
30
0
0
SPLINE
5
EA
100
AcDbEntity
8
1
62
256
6
ByLayer
370
18
48
1
60
0
100
AcDbSpline
70
4
71
3
72
13
73
9
40
0
40
0
40
0
40
0
40
0.229169317150056
40
0.401077179153447
40
0.515545198585365
40
0.630413638168173
40
0.802479341757759
40
1
40
1
40
1
40
1
41
1
10
39.6230326336919
20
0.0234409446758264
30
0
41
1
10
39.4598012315889
20
0.0615639659450835
30
0
41
1
10
39.1744026673983
20
0.137487437792657
30
0
41
1
10
38.8081348983007
20
0.255933752160075
30
0
41
1
10
38.5234747352232
20
0.359429182146698
30
0
41
1
10
38.2396061633764
20
0.471837238969016
30
0
41
1
10
37.8977753713358
20
0.620419044156421
30
0
41
1
10
37.6376691501313
20
0.748403015953841
30
0
41
1
10
37.4988588301689
20
0.820805617664718
30
0
0
SPLINE
5
EB
100
AcDbEntity
8
1
62
256
6
ByLayer
370
18
48
1
60
0
100
AcDbSpline
70
4
71
3
72
34
73
30
40
0
40
0
40
0
40
0
40
0.0618744302078659
40
0.120831315219733
40
0.16820800251317
40
0.204150173182324
40
0.249136838156532
40
0.286762083982359
40
0.324379427938068
40
0.366353183156825
40
0.408958115970655
40
0.447181548314813
40
0.483418968035941
40
0.523002379785198
40
0.566911862809253
40
0.608835101208332
40
0.649636600217652
40
0.6963289501328
40
0.750048290996994
40
0.79967574285345
40
0.821251127434264
40
0.837013277009309
40
0.85835164961388
40
0.888746541310472
40
0.917767257264935
40
0.938803921646389
40
0.96005132846445
40
0.992346895398595
40
1
40
1
40
1
40
1
41
1
10
9.05119534906009
20
-5.35166686814003
30
0
41
1
10
9.33494714619505
20
-5.3522032289238
30
0
41
1
10
9.88916144112451
20
-5.35324656840018
30
0
41
1
10
10.6610724829805
20
-5.35495765720663
30
0
41
1
10
11.3139344492802
20
-5.35598510169669
30
0
41
1
10
11.9026276329638
20
-5.35696936325513
30
0
41
1
10
12.4466371117759
20
-5.3582002625146
30
0
41
1
10
12.9982951811422
20
-5.3592523429343
30
0
41
1
10
13.536157549616
20
-5.35996613966833
30
0
41
1
10
14.096885909687
20
-5.36096350941051
30
0
41
1
10
14.660391866708
20
-5.36227965701332
30
0
41
1
10
15.1975775031335
20
-5.36307978574908
30
0
41
1
10
15.7208966073155
20
-5.36365303806795
30
0
41
1
10
16.2703089039863
20
-5.36475820679269
30
0
41
1
10
16.8457984198488
20
-5.36625731173461
30
0
41
1
10
17.4268921285106
20
-5.36704638282592
30
0
41
1
10
18.0207511984147
20
-5.36837576627329
30
0
41
1
10
18.6687412292739
20
-5.37058957110605
30
0
41
1
10
19.3572321533628
20
-5.37046905707501
30
0
41
1
10
19.9304672271911
20
-5.37158328300026
30
0
41
1
10
20.3295237556915
20
-5.37335053295945
30
0
41
1
10
20.5987729117804
20
-5.37411735097615
30
0
41
1
10
20.9084825534406
20
-5.37433754273403
30
0
41
1
10
21.2790008123194
20
-5.3743385263507
30
0
41
1
10
21.6481659832749
20
-5.37461918938655
30
0
41
1
10
21.9753736484178
20
-5.37535136868564
30
0
41
1
10
22.3174724577176
20
-5.3768733378011
30
0
41
1
10
22.5982733217397
20
-5.37801207606859
30
0
41
1
10
22.7815811676229
20
-5.37803500550663
30
0
41
1
10
22.8166988577038
20
-5.37802389771693
30
0
0
SPLINE
5
EC
100
AcDbEntity
8
1
62
256
6
ByLayer
370
18
48
1
60
0
100
AcDbSpline
70
4
71
3
72
28
73
24
40
0
40
0
40
0
40
0
40
0.0088212790593775
40
0.0723389093910698
40
0.134455085789381
40
0.205891150216049
40
0.256419147391326
40
0.30148916753773
40
0.340134883851457
40
0.37939007878796
40
0.432946186782177
40
0.497056572883725
40
0.555343519447979
40
0.606137669719927
40
0.641298180392767
40
0.671762149609359
40
0.710044762417921
40
0.768384416095179
40
0.82579731047242
40
0.877178124604503
40
0.925411936964037
40
0.965570855738521
40
1
40
1
40
1
40
1
41
1
10
55.3038718662391
20
5.43357051346385
30
0
41
1
10
55.2681425788845
20
5.43353299269325
30
0
41
1
10
54.9751442710592
20
5.43321997292878
30
0
41
1
10
54.4305486836592
20
5.43143182288853
30
0
41
1
10
53.6323320371156
20
5.43186582304998
30
0
41
1
10
52.8867320661954
20
5.43014539978302
30
0
41
1
10
52.2101788242285
20
5.42802679512059
30
0
41
1
10
51.6664393971231
20
5.4275252747814
30
0
41
1
10
51.1683574675711
20
5.427071978497
30
0
41
1
10
50.6359033895316
20
5.42563270030374
30
0
41
1
10
50.0003066056232
20
5.42425486899685
30
0
41
1
10
49.2876205984356
20
5.42415022901656
30
0
41
1
10
48.5861274303848
20
5.42237483549778
30
0
41
1
10
48.0019098239641
20
5.42110584726294
30
0
41
1
10
47.5303409401121
20
5.42057137028277
30
0
41
1
10
47.1095670933248
20
5.42004208152335
30
0
41
1
10
46.5952099546947
20
5.41866550953281
30
0
41
1
10
45.9729337068552
20
5.41721796476344
30
0
41
1
10
45.2954679272536
20
5.4162933478477
30
0
41
1
10
44.6604723582778
20
5.4154059901561
30
0
41
1
10
44.0949498431294
20
5.41437912481737
30
0
41
1
10
43.5979673539219
20
5.41382525986114
30
0
41
1
10
43.3015760634528
20
5.41193997317524
30
0
41
1
10
43.1638999364521
20
5.41125786661104
30
0
0
SPLINE
5
ED
100
AcDbEntity
8
1
62
256
6
ByLayer
370
18
48
1
60
0
100
AcDbSpline
70
4
71
2
72
6
73
3
40
0
40
0
40
0
40
1
40
1
40
1
41
1
10
71.2990762722227
20
0.262977463626697
30
0
41
1
10
71.2380464841203
20
0.283650392057581
30
0
41
1
10
71.1772443181177
20
0.305221228014943
30
0
0
SPLINE
5
EE
100
AcDbEntity
8
1
62
256
6
ByLayer
370
18
48
1
60
0
100
AcDbSpline
70
4
71
2
72
6
73
3
40
0
40
0
40
0
40
1
40
1
40
1
41
1
10
70.8204684394298
20
0.440312859447801
30
0
41
1
10
70.3685727990871
20
0.622330578482973
30
0
41
1
10
69.9295329597763
20
0.85506095023473
30
0
0
SPLINE
5
EF
100
AcDbEntity
8
1
62
256
6
ByLayer
370
18
48
1
60
0
100
AcDbSpline
70
4
71
3
72
13
73
9
40
0
40
0
40
0
40
0
40
0.229888745908787
40
0.402454360836109
40
0.517485374107739
40
0.632940503913847
40
0.805854360105232
40
1
40
1
40
1
40
1
41
1
10
23.1763284842681
20
-0.0229008477574553
30
0
41
1
10
23.3465868631694
20
-0.0626544096859618
30
0
41
1
10
23.64451812716
20
-0.142301869092535
30
0
41
1
10
24.02706504466
20
-0.267306247594462
30
0
41
1
10
24.3251708863555
20
-0.377311957097334
30
0
41
1
10
24.6229076412957
20
-0.497386172653989
30
0
41
1
10
24.9777481590526
20
-0.654898773730309
30
0
41
1
10
25.2469373066031
20
-0.790538103693336
30
0
41
1
10
25.3890636310215
20
-0.866493288431883
30
0
0
SPLINE
5
F0
100
AcDbEntity
8
1
62
256
6
ByLayer
370
18
48
1
60
0
100
AcDbSpline
70
4
71
3
72
13
73
9
40
0
40
0
40
0
40
0
40
0.226337680674464
40
0.396220992368958
40
0.509438735911573
40
0.623073420635043
40
0.793271275472977
40
1
40
1
40
1
40
1
41
1
10
55.6770047953675
20
-0.0230740249469363
30
0
41
1
10
55.8470806880758
20
-0.0628274334323464
30
0
41
1
10
56.1446496343465
20
-0.142428178268091
30
0
41
1
10
56.5266868524116
20
-0.267275895675311
30
0
41
1
10
56.8242587708294
20
-0.377075389801604
30
0
41
1
10
57.1213708368064
20
-0.496823712179946
30
0
41
1
10
57.4871814245678
20
-0.659282691475937
30
0
41
1
10
57.7674907877205
20
-0.80021999612481
30
0
41
1
10
57.9209488112468
20
-0.882242224852774
30
0
0
LINE
5
7B
100
AcDbEntity
8
SK1
62
256
6
ByLayer
370
18
48
1
60
0
100
AcDbLine
10
0
20
-6
30
0
11
0
21
6
31
0
39
0
210
0
220
0
230
1
0
LINE
5
7D
100
AcDbEntity
8
SK1
62
256
6
ByLayer
370
18
48
1
60
0
100
AcDbLine
10
-45
20
3
30
0
11
-45
21
-3
31
0
39
0
210
0
220
0
230
1
0
LINE
5
7E
100
AcDbEntity
8
SK1
62
256
6
ByLayer
370
18
48
1
60
0
100
AcDbLine
10
-43.267949
20
6
30
0
11
-43.267949
21
-6
31
0
39
0
210
0
220
0
230
1
0
LINE
5
7F
100
AcDbEntity
8
1
62
256
6
ByLayer
370
18
48
1
60
0
100
AcDbLine
10
72.206633
20
-1.117497
30
0
11
72.212584
21
-1.078593
31
0
39
0
210
0
220
0
230
1
0
LINE
5
80
100
AcDbEntity
8
1
62
256
6
ByLayer
370
18
48
1
60
0
100
AcDbLine
10
0
20
-6
30
0
11
0
21
6
31
0
39
0
210
0
220
0
230
1
0
LINE
5
81
100
AcDbEntity
8
1
62
256
6
ByLayer
370
13
48
1
60
0
100
AcDbLine
10
0.614434
20
5.737342
30
0
11
0.614434
21
-5.737342
31
0
39
0
210
0
220
0
230
1
0
LINE
5
82
100
AcDbEntity
8
1
62
256
6
ByLayer
370
18
48
1
60
0
100
AcDbLine
10
70.280682
20
-2.663703
30
0
11
72.206633
21
-1.117497
31
0
39
0
210
0
220
0
230
1
0
LINE
5
83
100
AcDbEntity
8
1
62
256
6
ByLayer
370
13
48
1
60
0
100
AcDbLine
10
1.230397
20
5.474686
30
0
11
1.230397
21
-5.474686
31
0
39
0
210
0
220
0
230
1
0
LINE
5
84
100
AcDbEntity
8
80
62
256
6
ByLayer
370
18
48
1
60
0
100
AcDbLine
10
0
20
0
30
0
11
-5
21
0
31
0
39
0
210
0
220
0
230
1
0
LINE
5
85
100
AcDbEntity
8
4
62
256
6
ByLayer
370
18
48
0.05
60
0
100
AcDbLine
10
73
20
0
30
0
11
0
21
0
31
0
39
0
210
0
220
0
230
1
0
LINE
5
87
100
AcDbEntity
8
SK4
62
256
6
ByLayer
370
18
48
0.05
60
0
100
AcDbLine
10
78
20
0
30
0
11
-50
21
0
31
0
39
0
210
0
220
0
230
1
0
LINE
5
89
100
AcDbEntity
8
SK1
62
256
6
ByLayer
370
18
48
1
60
0
100
AcDbLine
10
-45
20
-3
30
0
11
-43.267949
21
-6
31
0
39
0
210
0
220
0
230
1
0
LINE
5
8A
100
AcDbEntity
8
SK1
62
256
6
ByLayer
370
18
48
1
60
0
100
AcDbLine
10
-43.267949
20
6
30
0
11
-45
21
3
31
0
39
0
210
0
220
0
230
1
0
LINE
5
8B
100
AcDbEntity
8
SK1
62
256
6
ByLayer
370
18
48
1
60
0
100
AcDbLine
10
-43.267949
20
-6
30
0
11
0
21
-6
31
0
39
0
210
0
220
0
230
1
0
LINE
5
8C
100
AcDbEntity
8
SK1
62
256
6
ByLayer
370
18
48
1
60
0
100
AcDbLine
10
0
20
6
30
0
11
-43.267949
21
6
31
0
39
0
210
0
220
0
230
1
0
LINE
5
8D
100
AcDbEntity
8
1
62
256
6
ByLayer
370
18
48
1
60
0
100
AcDbLine
10
1.230397
20
-5.474686
30
0
11
8.518219
21
-5.487804
31
0
39
0
210
0
220
0
230
1
0
LINE
5
8E
100
AcDbEntity
8
1
62
256
6
ByLayer
370
18
48
1
60
0
100
AcDbLine
10
40.02068
20
-5.544509
30
0
11
41.017722
21
-5.546304
31
0
39
0
210
0
220
0
230
1
0
LINE
5
8F
100
AcDbEntity
8
1
62
256
6
ByLayer
370
18
48
1
60
0
100
AcDbLine
10
41.017718
20
5.546304
30
0
11
40.02068
21
5.544509
31
0
39
0
210
0
220
0
230
1
0
LINE
5
90
100
AcDbEntity
8
1
62
256
6
ByLayer
370
18
48
1
60
0
100
AcDbLine
10
8.518254
20
5.487804
30
0
11
1.230397
21
5.474686
31
0
39
0
210
0
220
0
230
1
0
LINE
5
91
100
AcDbEntity
8
81
62
256
6
ByLayer
370
18
48
1
60
0
100
AcDbLine
10
73
20
0
30
0
11
78
21
0
31
0
39
0
210
0
220
0
230
1
0
LINE
5
92
100
AcDbEntity
8
SK2
62
256
6
ByLayer
370
13
48
1
60
0
100
AcDbLine
10
-53.625163
20
-6
30
0
11
-53.625163
21
36.857173
31
0
39
0
210
0
220
0
230
1
0
LINE
5
94
100
AcDbEntity
8
SK2
62
256
6
ByLayer
370
13
48
1
60
0
100
AcDbLine
10
-46.5875
20
6
30
0
11
-55.625163
21
6
31
0
39
0
210
0
220
0
230
1
0
LINE
5
95
100
AcDbEntity
8
SK2
62
256
6
ByLayer
370
13
48
1
60
0
100
AcDbLine
10
-46.5875
20
-6
30
0
11
-55.625163
21
-6
31
0
39
0
210
0
220
0
230
1
0
LINE
5
96
100
AcDbEntity
8
1
62
256
6
ByLayer
370
18
48
1
60
1
100
AcDbLine
10
-53.625163
20
6
30
0
11
-53.164379
21
2.500002
31
0
39
0
210
0
220
0
230
1
0
LINE
5
97
100
AcDbEntity
8
1
62
256
6
ByLayer
370
18
48
1
60
1
100
AcDbLine
10
-53.164379
20
2.500002
30
0
11
-54.085946
21
2.499998
31
0
39
0
210
0
220
0
230
1
0
LINE
5
98
100
AcDbEntity
8
1
62
256
6
ByLayer
370
18
48
1
60
1
100
AcDbLine
10
-54.085946
20
2.499998
30
0
11
-53.625163
21
6
31
0
39
0
210
0
220
0
230
1
0
LINE
5
99
100
AcDbEntity
8
1
62
256
6
ByLayer
370
18
48
1
60
1
100
AcDbLine
10
-53.625163
20
-6
30
0
11
-54.085946
21
-2.500002
31
0
39
0
210
0
220
0
230
1
0
LINE
5
9A
100
AcDbEntity
8
1
62
256
6
ByLayer
370
18
48
1
60
1
100
AcDbLine
10
-54.085946
20
-2.500002
30
0
11
-53.164379
21
-2.499998
31
0
39
0
210
0
220
0
230
1
0
LINE
5
9B
100
AcDbEntity
8
1
62
256
6
ByLayer
370
18
48
1
60
1
100
AcDbLine
10
-53.164379
20
-2.499998
30
0
11
-53.625163
21
-6
31
0
39
0
210
0
220
0
230
1
0
LINE
5
9C
100
AcDbEntity
8
2
62
256
6
ByLayer
370
13
48
1
60
0
100
AcDbLine
10
85.083343
20
-5.6
30
0
11
85.083343
21
34.175392
31
0
39
0
210
0
220
0
230
1
0
LINE
5
9E
100
AcDbEntity
8
2
62
256
6
ByLayer
370
13
48
1
60
0
100
AcDbLine
10
72.4366
20
5.6
30
0
11
87.083343
21
5.6
31
0
39
0
210
0
220
0
230
1
0
LINE
5
9F
100
AcDbEntity
8
2
62
256
6
ByLayer
370
13
48
1
60
0
100
AcDbLine
10
72.4366
20
-5.6
30
0
11
87.083343
21
-5.6
31
0
39
0
210
0
220
0
230
1
0
LINE
5
A0
100
AcDbEntity
8
1
62
256
6
ByLayer
370
18
48
1
60
1
100
AcDbLine
10
85.083343
20
5.6
30
0
11
85.544126
21
2.100002
31
0
39
0
210
0
220
0
230
1
0
LINE
5
A1
100
AcDbEntity
8
1
62
256
6
ByLayer
370
18
48
1
60
1
100
AcDbLine
10
85.544126
20
2.100002
30
0
11
84.622559
21
2.099998
31
0
39
0
210
0
220
0
230
1
0
LINE
5
A2
100
AcDbEntity
8
1
62
256
6
ByLayer
370
18
48
1
60
1
100
AcDbLine
10
84.622559
20
2.099998
30
0
11
85.083343
21
5.6
31
0
39
0
210
0
220
0
230
1
0
LINE
5
A3
100
AcDbEntity
8
1
62
256
6
ByLayer
370
18
48
1
60
1
100
AcDbLine
10
85.083343
20
-5.6
30
0
11
84.622559
21
-2.100002
31
0
39
0
210
0
220
0
230
1
0
LINE
5
A4
100
AcDbEntity
8
1
62
256
6
ByLayer
370
18
48
1
60
1
100
AcDbLine
10
84.622559
20
-2.100002
30
0
11
85.544126
21
-2.099998
31
0
39
0
210
0
220
0
230
1
0
LINE
5
A5
100
AcDbEntity
8
1
62
256
6
ByLayer
370
18
48
1
60
1
100
AcDbLine
10
85.544126
20
-2.099998
30
0
11
85.083343
21
-5.6
31
0
39
0
210
0
220
0
230
1
0
LINE
5
F7
100
AcDbEntity
8
1
62
256
6
ByLayer
370
18
48
1
60
1
100
AcDbLine
10
-53.625163
20
6
30
0
11
-53.164379
21
2.500002
31
0
39
0
210
0
220
0
230
1
0
LINE
5
F8
100
AcDbEntity
8
1
62
256
6
ByLayer
370
18
48
1
60
1
100
AcDbLine
10
-53.164379
20
2.500002
30
0
11
-54.085946
21
2.499998
31
0
39
0
210
0
220
0
230
1
0
LINE
5
F9
100
AcDbEntity
8
1
62
256
6
ByLayer
370
18
48
1
60
1
100
AcDbLine
10
-54.085946
20
2.499998
30
0
11
-53.625163
21
6
31
0
39
0
210
0
220
0
230
1
0
LINE
5
FB
100
AcDbEntity
8
1
62
256
6
ByLayer
370
18
48
1
60
1
100
AcDbLine
10
-53.625163
20
-6
30
0
11
-54.085946
21
-2.500002
31
0
39
0
210
0
220
0
230
1
0
LINE
5
FC
100
AcDbEntity
8
1
62
256
6
ByLayer
370
18
48
1
60
1
100
AcDbLine
10
-54.085946
20
-2.500002
30
0
11
-53.164379
21
-2.499998
31
0
39
0
210
0
220
0
230
1
0
LINE
5
FD
100
AcDbEntity
8
1
62
256
6
ByLayer
370
18
48
1
60
1
100
AcDbLine
10
-53.164379
20
-2.499998
30
0
11
-53.625163
21
-6
31
0
39
0
210
0
220
0
230
1
0
LINE
5
101
100
AcDbEntity
8
1
62
256
6
ByLayer
370
18
48
1
60
1
100
AcDbLine
10
85.083343
20
5.6
30
0
11
85.544126
21
2.100002
31
0
39
0
210
0
220
0
230
1
0
LINE
5
102
100
AcDbEntity
8
1
62
256
6
ByLayer
370
18
48
1
60
1
100
AcDbLine
10
85.544126
20
2.100002
30
0
11
84.622559
21
2.099998
31
0
39
0
210
0
220
0
230
1
0
LINE
5
103
100
AcDbEntity
8
1
62
256
6
ByLayer
370
18
48
1
60
1
100
AcDbLine
10
84.622559
20
2.099998
30
0
11
85.083343
21
5.6
31
0
39
0
210
0
220
0
230
1
0
LINE
5
105
100
AcDbEntity
8
1
62
256
6
ByLayer
370
18
48
1
60
1
100
AcDbLine
10
85.083343
20
-5.6
30
0
11
84.622559
21
-2.100002
31
0
39
0
210
0
220
0
230
1
0
LINE
5
106
100
AcDbEntity
8
1
62
256
6
ByLayer
370
18
48
1
60
1
100
AcDbLine
10
84.622559
20
-2.100002
30
0
11
85.544126
21
-2.099998
31
0
39
0
210
0
220
0
230
1
0
LINE
5
107
100
AcDbEntity
8
1
62
256
6
ByLayer
370
18
48
1
60
1
100
AcDbLine
10
85.544126
20
-2.099998
30
0
11
85.083343
21
-5.6
31
0
39
0
210
0
220
0
230
1
0
MTEXT
5
F1
100
AcDbEntity
8
SK6
62
256
6
ByLayer
370
13
48
1
60
0
100
AcDbMText
10
-13.671593
20
38.140328
30
0
210
0
220
0
230
1
1
\W0.7280;860.1-1120-053A0-PM P1BM
40
3.5
41
0
44
1.084337
50
0
71
7
72
5
7
iso_b_vert
0
MTEXT
5
F5
100
AcDbEntity
8
SK2
62
256
6
ByLayer
370
18
48
1
60
0
100
AcDbMText
10
-55.189796
20
19.409024
30
0
210
0
220
0
230
1
1
%%c
40
3.5
41
0
44
1.084337
50
90
71
7
72
5
7
iso_b_vert
0
MTEXT
5
F6
100
AcDbEntity
8
SK2
62
256
6
ByLayer
370
18
48
1
60
0
100
AcDbMText
10
-55.189796
20
24.63168
30
0
210
0
220
0
230
1
1
\W0.6930;12,000
40
3.5
41
0
44
1.084337
50
90
71
7
72
5
7
iso_b_vert
0
MTEXT
5
FF
100
AcDbEntity
8
2
62
256
6
ByLayer
370
18
48
1
60
0
100
AcDbMText
10
83.518709
20
17.60211
30
0
210
0
220
0
230
1
1
%%c
40
3.5
41
0
44
1.084337
50
90
71
7
72
5
7
iso_b_vert
0
MTEXT
5
100
100
AcDbEntity
8
2
62
256
6
ByLayer
370
18
48
1
60
0
100
AcDbMText
10
83.518709
20
22.824766
30
0
210
0
220
0
230
1
1
\W0.6440;11,200
40
3.5
41
0
44
1.084337
50
90
71
7
72
5
7
iso_b_vert
0
HATCH
5
FA
100
AcDbEntity
8
SK2
62
256
6
ByLayer
370
13
48
1
60
0
100
AcDbHatch
10
0
20
0
30
0
210
0
220
0
230
1
2
ANSI31
70
0
71
0
91
1
92
5
93
3
72
1
10
-53.6251625675374
20
6
11
-53.1643788259847
21
2.50000169255318
72
1
10
-53.1643788259847
20
2.50000169255318
11
-54.0859463090902
21
2.49999830744682
72
1
10
-54.0859463090902
20
2.49999830744682
11
-53.6251625675374
21
6
97
0
75
0
76
1
52
0
41
0.0062
77
0
78
1
53
45
43
0
44
0
45
-0.0139193969876572
46
0.0139193969876572
79
0
47
0
98
1
10
0
20
0
0
HATCH
5
FE
100
AcDbEntity
8
SK2
62
256
6
ByLayer
370
13
48
1
60
0
100
AcDbHatch
10
0
20
0
30
0
210
0
220
0
230
1
2
ANSI31
70
0
71
0
91
1
92
5
93
3
72
1
10
-53.6251625675374
20
-6
11
-54.0859463090902
21
-2.50000169255318
72
1
10
-54.0859463090902
20
-2.50000169255318
11
-53.1643788259847
21
-2.49999830744682
72
1
10
-53.1643788259847
20
-2.49999830744682
11
-53.6251625675374
21
-6
97
0
75
0
76
1
52
0
41
0.0062
77
0
78
1
53
45
43
0
44
0
45
-0.0139193969876572
46
0.0139193969876572
79
0
47
0
98
1
10
0
20
0
0
HATCH
5
104
100
AcDbEntity
8
2
62
256
6
ByLayer
370
13
48
1
60
0
100
AcDbHatch
10
0
20
0
30
0
210
0
220
0
230
1
2
ANSI31
70
0
71
0
91
1
92
5
93
3
72
1
10
85.083342615295
20
5.60000000000002
11
85.5441263568478
21
2.10000169255321
72
1
10
85.5441263568478
20
2.10000169255321
11
84.6225588737423
21
2.09999830744684
72
1
10
84.6225588737423
20
2.09999830744684
11
85.083342615295
21
5.60000000000002
97
0
75
0
76
1
52
0
41
0.0062
77
0
78
1
53
45
43
0
44
0
45
-0.0139193969876572
46
0.0139193969876572
79
0
47
0
98
1
10
0
20
0
0
HATCH
5
108
100
AcDbEntity
8
2
62
256
6
ByLayer
370
13
48
1
60
0
100
AcDbHatch
10
0
20
0
30
0
210
0
220
0
230
1
2
ANSI31
70
0
71
0
91
1
92
5
93
3
72
1
10
85.083342615295
20
-5.59999999999999
11
84.6225588737423
21
-2.10000169255318
72
1
10
84.6225588737423
20
-2.10000169255318
11
85.5441263568478
21
-2.09999830744681
72
1
10
85.5441263568478
20
-2.09999830744681
11
85.083342615295
21
-5.59999999999999
97
0
75
0
76
1
52
0
41
0.0062
77
0
78
1
53
45
43
0
44
0
45
-0.0139193969876572
46
0.0139193969876572
79
0
47
0
98
1
10
0
20
0
0
DIMENSION
5
10A
100
AcDbEntity
8
2
62
256
6
ByLayer
370
13
48
1
60
0
100
AcDbDimension
2
_U0
10
70.8491
20
-15.813398
30
0
11
35.42455
21
-15.813398
31
0
70
32
71
1
72
1
41
1
210
0
220
0
230
1
3
Standard
100
AcDbAlignedDimension
13
0
23
0
33
0
14
70.8491
24
-5.6
34
0
50
0
100
AcDbRotatedDimension
1001
ACAD
1000
DSTYLE
1002
{
1070
   371
1070
    13
1070
   372
1070
    13
1070
   170
1070
     0
1070
   144
1040
1.0
1070
   277
1070
     2
1070
   278
1070
    44
1070
   146
1040
1.0
1070
   345
1005
16
1070
   347
1005
16
1070
   346
1005
16
1070
   344
1005
0
1070
   343
1005
0
1070
   172
1070
     1
1070
    76
1070
     0
1070
    75
1070
     0
1070
   282
1070
     0
1070
   281
1070
     0
1070
    71
1070
     0
1070
    74
1070
     0
1070
   279
1070
     0
1070
   173
1070
     1
1070
   340
1005
F2
1070
   271
1070
     2
1070
   272
1070
     2
1070
    77
1070
     1
1070
    73
1070
     1
1070
   171
1070
     3
1070
   274
1070
     4
1070
   177
1070
    35
1070
   176
1070
    35
1070
   178
1070
    35
1070
    48
1040
-0.1
1070
    41
1040
3.5
1070
   147
1040
1.75
1070
    42
1040
1.5875
1070
    44
1040
2.0
1070
   140
1040
3.5
1002
}
1001
ACAD_DSTYLE_DIM_LINETYPE
1070
   380
1005
16
1001
ACAD_DSTYLE_DIM_EXT1_LINETYPE
1070
   381
1005
16
1001
ACAD_DSTYLE_DIM_EXT2_LINETYPE
1070
   382
1005
16
0
DIMENSION
5
123
100
AcDbEntity
8
SK2
62
256
6
ByLayer
370
13
48
1
60
0
100
AcDbDimension
2
_U1
10
73
20
-34.692985
30
0
11
14
21
-34.692985
31
0
70
32
71
1
72
1
41
1
210
0
220
0
230
1
3
Standard
100
AcDbAlignedDimension
13
-45
23
-6
33
0
14
73
24
0
34
0
50
0
100
AcDbRotatedDimension
1001
ACAD
1000
DSTYLE
1002
{
1070
   371
1070
    13
1070
   372
1070
    13
1070
   170
1070
     0
1070
   144
1040
1.0
1070
   277
1070
     2
1070
   278
1070
    44
1070
   146
1040
1.0
1070
   345
1005
16
1070
   347
1005
16
1070
   346
1005
16
1070
   344
1005
0
1070
   343
1005
0
1070
   172
1070
     1
1070
    76
1070
     0
1070
    75
1070
     0
1070
   282
1070
     0
1070
   281
1070
     0
1070
    71
1070
     0
1070
    74
1070
     0
1070
   279
1070
     0
1070
   173
1070
     1
1070
   340
1005
F2
1070
   271
1070
     2
1070
   272
1070
     2
1070
    77
1070
     1
1070
    73
1070
     1
1070
   171
1070
     3
1070
   274
1070
     4
1070
   177
1070
    35
1070
   176
1070
    35
1070
   178
1070
    35
1070
    48
1040
-0.1
1070
    41
1040
3.5
1070
   147
1040
1.75
1070
    42
1040
1.5875
1070
    44
1040
2.0
1070
   140
1040
3.5
1002
}
1001
ACAD_DSTYLE_DIM_LINETYPE
1070
   380
1005
16
1001
ACAD_DSTYLE_DIM_EXT1_LINETYPE
1070
   381
1005
16
1001
ACAD_DSTYLE_DIM_EXT2_LINETYPE
1070
   382
1005
16
0
DIMENSION
5
13B
100
AcDbEntity
8
SK2
62
256
6
ByLayer
370
13
48
1
60
0
100
AcDbDimension
2
_U2
10
73
20
17.209119
30
0
11
44.2
21
17.209119
31
0
70
32
71
1
72
1
41
1
210
0
220
0
230
1
3
Standard
100
AcDbAlignedDimension
13
15.4
23
5.6
33
0
14
73
24
0
34
0
50
0
100
AcDbRotatedDimension
1001
ACAD
1000
DSTYLE
1002
{
1070
   371
1070
    13
1070
   372
1070
    13
1070
   170
1070
     0
1070
   144
1040
1.0
1070
   277
1070
     2
1070
   278
1070
    44
1070
   146
1040
1.0
1070
   345
1005
16
1070
   347
1005
16
1070
   346
1005
16
1070
   344
1005
0
1070
   343
1005
0
1070
   172
1070
     1
1070
    76
1070
     0
1070
    75
1070
     0
1070
   282
1070
     0
1070
   281
1070
     0
1070
    71
1070
     0
1070
    74
1070
     0
1070
   279
1070
     0
1070
   173
1070
     1
1070
   340
1005
F2
1070
   271
1070
     2
1070
   272
1070
     2
1070
    77
1070
     1
1070
    73
1070
     1
1070
   171
1070
     3
1070
   274
1070
     4
1070
   177
1070
    35
1070
   176
1070
    35
1070
   178
1070
    35
1070
    48
1040
-0.1
1070
    41
1040
3.5
1070
   147
1040
1.75
1070
    42
1040
1.5875
1070
    44
1040
2.0
1070
   140
1040
3.5
1002
}
1001
ACAD_DSTYLE_DIM_LINETYPE
1070
   380
1005
16
1001
ACAD_DSTYLE_DIM_EXT1_LINETYPE
1070
   381
1005
16
1001
ACAD_DSTYLE_DIM_EXT2_LINETYPE
1070
   382
1005
16
0
DIMENSION
5
153
100
AcDbEntity
8
SK2
62
256
6
ByLayer
370
13
48
1
60
0
100
AcDbDimension
2
_U3
10
70.8491
20
-18.402503
30
0
11
90.583333
21
-18.402503
31
0
70
32
71
1
72
1
41
1
210
0
220
0
230
1
3
Standard
100
AcDbAlignedDimension
13
73
23
0
33
0
14
70.8491
24
-5.6
34
0
50
0
100
AcDbRotatedDimension
1001
ACAD
1000
DSTYLE
1002
{
1070
   371
1070
    13
1070
   372
1070
    13
1070
   170
1070
     0
1070
   144
1040
1.0
1070
   277
1070
     2
1070
   278
1070
    44
1070
   146
1040
1.0
1070
   345
1005
16
1070
   347
1005
16
1070
   346
1005
16
1070
   344
1005
0
1070
   343
1005
0
1070
   172
1070
     1
1070
    76
1070
     0
1070
    75
1070
     0
1070
   282
1070
     0
1070
   281
1070
     0
1070
    71
1070
     0
1070
    74
1070
     0
1070
   279
1070
     0
1070
   173
1070
     1
1070
   340
1005
F2
1070
   271
1070
     2
1070
   272
1070
     2
1070
    77
1070
     1
1070
    73
1070
     1
1070
   171
1070
     3
1070
   274
1070
     4
1070
   177
1070
    35
1070
   176
1070
    35
1070
   178
1070
    35
1070
    48
1040
-0.1
1070
    41
1040
3.5
1070
   147
1040
1.75
1070
    42
1040
1.5875
1070
    44
1040
2.0
1070
   140
1040
3.5
1002
}
1001
ACAD_DSTYLE_DIM_LINETYPE
1070
   380
1005
16
1001
ACAD_DSTYLE_DIM_EXT1_LINETYPE
1070
   381
1005
16
1001
ACAD_DSTYLE_DIM_EXT2_LINETYPE
1070
   382
1005
16
0
DIMENSION
5
16D
100
AcDbEntity
8
SK2
62
256
6
ByLayer
370
13
48
1
60
0
100
AcDbDimension
2
_U4
10
70.8491
20
-24.343428
30
0
11
12.92455
21
-24.343428
31
0
70
32
71
1
72
1
41
1
210
0
220
0
230
1
3
Standard
100
AcDbAlignedDimension
13
-45
23
-6
33
0
14
70.8491
24
-5.6
34
0
50
0
100
AcDbRotatedDimension
1001
ACAD
1000
DSTYLE
1002
{
1070
   371
1070
    13
1070
   372
1070
    13
1070
   170
1070
     0
1070
   144
1040
1.0
1070
   277
1070
     2
1070
   278
1070
    44
1070
   146
1040
1.0
1070
   345
1005
16
1070
   347
1005
16
1070
   346
1005
16
1070
   344
1005
0
1070
   343
1005
0
1070
   172
1070
     1
1070
    76
1070
     0
1070
    75
1070
     0
1070
   282
1070
     0
1070
   281
1070
     0
1070
    71
1070
     0
1070
    74
1070
     0
1070
   279
1070
     0
1070
   173
1070
     1
1070
   340
1005
F2
1070
   271
1070
     2
1070
   272
1070
     2
1070
    77
1070
     1
1070
    73
1070
     1
1070
   171
1070
     3
1070
   274
1070
     4
1070
   177
1070
    35
1070
   176
1070
    35
1070
   178
1070
    35
1070
    48
1040
-0.1
1070
    41
1040
3.5
1070
   147
1040
1.75
1070
    42
1040
1.5875
1070
    44
1040
2.0
1070
   140
1040
3.5
1002
}
1001
ACAD_DSTYLE_DIM_LINETYPE
1070
   380
1005
16
1001
ACAD_DSTYLE_DIM_EXT1_LINETYPE
1070
   381
1005
16
1001
ACAD_DSTYLE_DIM_EXT2_LINETYPE
1070
   382
1005
16
0
ENDSEC
0
SECTION
2
OBJECTS
0
DICTIONARY
5
1f5
330
0
100
AcDbDictionary
280
0
281
1
3
ACAD_GROUP
350
1f6
3
ACAD_MLINESTYLE
350
1f7
0
DICTIONARY
5
1f6
330
0
100
AcDbDictionary
280
0
281
1
0
DICTIONARY
5
1f7
330
0
100
AcDbDictionary
280
0
281
1
3
Standard
350
18
0
MLINESTYLE
5
18
330
1f7
100
AcDbMlineStyle
2
Standard
70
0
3

62
256
51
90
52
90
71
2
49
-0.5
62
256
6
ByLayer
49
0.5
62
256
6
ByLayer
0
RASTERVARIABLES
5
1e3
330

100
AcDbRasterVariables
90
0
70
1
71
1
72
1
0
ENDSEC
0
EOF
