0
SECTION
2
HEADER
9
$ACADVER
1
AC1015
9
$DWGCODEPAGE
3
ANSI_1252
9
$HANDSEED
5
219
9
$ANGBASE
50
0
9
$ANGDIR
70
0
9
$ATTMODE
70
1
9
$AUNITS
70
0
9
$AUPREC
70
0
9
$CECOLOR
62
256
9
$CELTSCALE
40
1
9
$CELTYPE
6
ByLayer
9
$CELWEIGHT
370
18
9
$CLAYER
8
0
9
$CMLJUST
70
0
9
$CMLSCALE
40
1
9
$CMLSTYLE
2
Standard
9
$DIMSTYLE
2
Standard
9
$TEXTSIZE
40
0.2
9
$TEXTSTYLE
7
Standard
9
$LUNITS
70
2
9
$LUPREC
70
4
9
$EXTNAMES
290
1
9
$INSUNITS
70
4
9
$LTSCALE
40
1
9
$LWDISPLAY
290
1
9
$PDMODE
70
0
9
$PDSIZE
40
0
9
$PLINEGEN
70
0
0
ENDSEC
0
SECTION
2
CLASSES
0
CLASS
1
RASTERVARIABLES
2
AcDbRasterVariables
3
ISM
90
0
280
0
281
0
0
ENDSEC
0
SECTION
2
TABLES
0
TABLE
2
VPORT
5
20f
100
AcDbSymbolTable
0
VPORT
5
1
100
AcDbSymbolTableRecord
100
AcDbViewportTableRecord
2
*Active
70
0
10
0
20
0
11
1
21
1
12
-1
22
1
13
0
23
0
14
0.5
24
0.5
15
10
25
10
16
0
26
0
36
1
17
0
27
0
37
0
0
ENDTAB
0
TABLE
2
LTYPE
5
210
100
AcDbSymbolTable
0
LTYPE
5
14
100
AcDbSymbolTableRecord
100
AcDbLinetypeTableRecord
70
0
2
ByBlock
3

72
65
73
0
40
0
0
LTYPE
5
15
100
AcDbSymbolTableRecord
100
AcDbLinetypeTableRecord
70
0
2
ByLayer
3

72
65
73
0
40
0
0
LTYPE
5
16
100
AcDbSymbolTableRecord
100
AcDbLinetypeTableRecord
70
0
2
Continuous
3
Solid line
72
65
73
0
40
0
0
LTYPE
5
6E
100
AcDbSymbolTableRecord
100
AcDbLinetypeTableRecord
70
0
2
CENTER
3
____ _ ____ _ ____ _ ____
72
65
73
4
40
47.5
49
22
74
0
49
-8.5
74
0
49
8.5
74
0
49
-8.5
74
0
0
LTYPE
5
6F
100
AcDbSymbolTableRecord
100
AcDbLinetypeTableRecord
70
0
2
DASHED
3
__ __ __ __ __ __ __ __ __
72
65
73
2
40
25.72
49
12.86
74
0
49
-12.86
74
0
0
ENDTAB
0
TABLE
2
LAYER
5
211
100
AcDbSymbolTable
0
LAYER
5
10
100
AcDbSymbolTableRecord
100
AcDbLayerTableRecord
2
0
70
0
62
7
6
Continuous
290
1
370
-3
390
0
0
LAYER
5
71
100
AcDbSymbolTableRecord
100
AcDbLayerTableRecord
2
80
70
0
62
-6
6
Continuous
290
1
370
-3
390
0
0
LAYER
5
73
100
AcDbSymbolTableRecord
100
AcDbLayerTableRecord
2
81
70
0
62
-3
6
Continuous
290
1
370
-3
390
0
0
LAYER
5
75
100
AcDbSymbolTableRecord
100
AcDbLayerTableRecord
2
1
70
0
62
4
6
Continuous
290
1
370
-3
390
0
0
LAYER
5
87
100
AcDbSymbolTableRecord
100
AcDbLayerTableRecord
2
4
70
0
62
-2
6
CENTER
290
1
370
-3
390
0
0
LAYER
5
A2
100
AcDbSymbolTableRecord
100
AcDbLayerTableRecord
2
2
70
0
62
7
6
Continuous
290
1
370
-3
390
0
0
LAYER
5
124
100
AcDbSymbolTableRecord
100
AcDbLayerTableRecord
2
Defpoints
70
0
62
7
6
Continuous
290
0
370
-3
390
0
0
LAYER
5
1fb
100
AcDbSymbolTableRecord
100
AcDbLayerTableRecord
2
SK1
70
0
62
4
6
Continuous
290
1
370
-3
390
0
0
LAYER
5
1fc
100
AcDbSymbolTableRecord
100
AcDbLayerTableRecord
2
SK4
70
0
62
2
6
CENTER
290
1
370
-3
390
0
0
LAYER
5
1fd
100
AcDbSymbolTableRecord
100
AcDbLayerTableRecord
2
SK2
70
0
62
7
6
Continuous
290
1
370
-3
390
0
0
LAYER
5
1fe
100
AcDbSymbolTableRecord
100
AcDbLayerTableRecord
2
SK6
70
0
62
5
6
Continuous
290
1
370
-3
390
0
0
ENDTAB
0
TABLE
2
STYLE
5
212
100
AcDbSymbolTable
0
STYLE
5
11
100
AcDbSymbolTableRecord
100
AcDbTextStyleTableRecord
2
Standard
3
txt
70
0
71
0
40
0
41
1
42
0
50
0
0
STYLE
5
109
100
AcDbSymbolTableRecord
100
AcDbTextStyleTableRecord
2
iso_b_vert
3
simplex.shx
70
0
71
0
40
0
41
1
42
0
50
0
0
STYLE
5
10A
100
AcDbSymbolTableRecord
100
AcDbTextStyleTableRecord
2
DWGDirectTextStyle
3
simplex
70
0
71
0
40
0
41
1
42
0
50
0
0
ENDTAB
0
TABLE
2
DIMSTYLE
5
213
100
AcDbSymbolTable
100
AcDbDimStyleTable
0
DIMSTYLE
105
27
100
AcDbSymbolTableRecord
100
AcDbDimStyleTableRecord
2
Standard
70
0
3
<>
41
0.18
42
0.0625
44
0.18
140
0.18
147
0.09
73
0
74
0
77
1
271
2
275
0
278
52
280
0
340
11
0
ENDTAB
0
TABLE
2
VIEW
5
214
100
AcDbSymbolTable
0
ENDTAB
0
TABLE
2
UCS
5
215
100
AcDbSymbolTable
0
ENDTAB
0
TABLE
2
APPID
5
216
100
AcDbSymbolTable
0
APPID
5
12
100
AcDbSymbolTableRecord
100
AcDbRegAppTableRecord
2
ACAD
70
0
0
APPID
5
120
100
AcDbSymbolTableRecord
100
AcDbRegAppTableRecord
2
ACAD_DSTYLE_DIMBREAK
70
0
0
APPID
5
1BA
100
AcDbSymbolTableRecord
100
AcDbRegAppTableRecord
2
ACAD_DSTYLE_DIM_LINETYPE
70
0
0
APPID
5
1BB
100
AcDbSymbolTableRecord
100
AcDbRegAppTableRecord
2
ACAD_DSTYLE_DIM_EXT1_LINETYPE
70
0
0
APPID
5
1BC
100
AcDbSymbolTableRecord
100
AcDbRegAppTableRecord
2
ACAD_DSTYLE_DIM_EXT2_LINETYPE
70
0
0
APPID
5
1F7
100
AcDbSymbolTableRecord
100
AcDbRegAppTableRecord
2
ACAD_MLEADERVER
70
0
0
ENDTAB
0
TABLE
2
BLOCK_RECORD
5
217
100
AcDbSymbolTable
0
BLOCK_RECORD
5
1F
100
AcDbSymbolTableRecord
100
AcDbBlockTableRecord
2
*Model_Space
340
0
70
0
0
BLOCK_RECORD
5
1B
100
AcDbSymbolTableRecord
100
AcDbBlockTableRecord
2
*Paper_Space
340
0
70
0
0
BLOCK_RECORD
5
23
100
AcDbSymbolTableRecord
100
AcDbBlockTableRecord
2
*Paper_Space0
340
0
70
0
0
BLOCK_RECORD
5
125
100
AcDbSymbolTableRecord
100
AcDbBlockTableRecord
2
*D1
340
0
70
0
0
BLOCK_RECORD
5
131
100
AcDbSymbolTableRecord
100
AcDbBlockTableRecord
2
_U0
340
0
70
0
0
BLOCK_RECORD
5
13D
100
AcDbSymbolTableRecord
100
AcDbBlockTableRecord
2
*D3
340
0
70
0
0
BLOCK_RECORD
5
149
100
AcDbSymbolTableRecord
100
AcDbBlockTableRecord
2
_U1
340
0
70
0
0
BLOCK_RECORD
5
155
100
AcDbSymbolTableRecord
100
AcDbBlockTableRecord
2
*D5
340
0
70
0
0
BLOCK_RECORD
5
161
100
AcDbSymbolTableRecord
100
AcDbBlockTableRecord
2
_U2
340
0
70
0
0
BLOCK_RECORD
5
16D
100
AcDbSymbolTableRecord
100
AcDbBlockTableRecord
2
*D7
340
0
70
0
0
BLOCK_RECORD
5
17B
100
AcDbSymbolTableRecord
100
AcDbBlockTableRecord
2
_U3
340
0
70
0
0
BLOCK_RECORD
5
187
100
AcDbSymbolTableRecord
100
AcDbBlockTableRecord
2
*D9
340
0
70
0
0
BLOCK_RECORD
5
193
100
AcDbSymbolTableRecord
100
AcDbBlockTableRecord
2
_U4
340
0
70
0
0
ENDTAB
0
ENDSEC
0
SECTION
2
BLOCKS
0
BLOCK
5
20
100
AcDbEntity
8
0
100
AcDbBlockBegin
2
*Model_Space
70
0
10
0
20
0
30
0
3
*Model_Space
0
ENDBLK
5
21
100
AcDbEntity
8
0
100
AcDbBlockEnd
0
BLOCK
5
1C
100
AcDbEntity
8
0
100
AcDbBlockBegin
2
*Paper_Space
70
0
10
0
20
0
30
0
3
*Paper_Space
0
ENDBLK
5
1D
100
AcDbEntity
8
0
100
AcDbBlockEnd
0
BLOCK
5
24
100
AcDbEntity
8
0
100
AcDbBlockBegin
2
*Paper_Space0
70
0
10
0
20
0
30
0
3
*Paper_Space0
0
ENDBLK
5
25
100
AcDbEntity
8
0
100
AcDbBlockEnd
0
BLOCK
5
126
100
AcDbEntity
8
0
100
AcDbBlockBegin
2
*D1
70
1
10
0
20
0
30
0
3
*D1
0
LINE
5
128
100
AcDbEntity
8
0
62
256
6
ByLayer
370
-2
48
1
60
0
100
AcDbLine
10
0
20
-1.5875
30
0
11
0
21
-17.563398
31
0
39
0
210
0
220
0
230
1
0
LINE
5
129
100
AcDbEntity
8
0
62
256
6
ByLayer
370
-2
48
1
60
0
100
AcDbLine
10
115.9458
20
-6.9375
30
0
11
115.9458
21
-17.563398
31
0
39
0
210
0
220
0
230
1
0
LINE
5
12A
100
AcDbEntity
8
0
62
256
6
ByLayer
370
-2
48
1
60
0
100
AcDbLine
10
3.5
20
-15.563398
30
0
11
112.4458
21
-15.563398
31
0
39
0
210
0
220
0
230
1
0
SOLID
5
12B
100
AcDbEntity
8
0
62
256
6
ByLayer
370
-1
48
1
60
0
100
AcDbTrace
10
3.5
20
-14.980065
30
0
11
3.5
21
-16.146732
31
0
12
0
22
-15.563398
32
0
13
0
23
-15.563398
33
0
39
0
210
0
220
0
230
1
0
SOLID
5
12C
100
AcDbEntity
8
0
62
256
6
ByLayer
370
-1
48
1
60
0
100
AcDbTrace
10
112.4458
20
-16.146732
30
0
11
112.4458
21
-14.980065
31
0
12
115.9458
22
-15.563398
32
0
13
115.9458
23
-15.563398
33
0
39
0
210
0
220
0
230
1
0
MTEXT
5
12D
100
AcDbEntity
8
0
62
256
6
ByLayer
370
18
48
1
60
0
100
AcDbMText
10
57.9729
20
-8.563398
30
0
210
0
220
0
230
1
1
\A1;115.95
40
3.5
41
0
44
1
50
0
71
5
72
5
7
iso_b_vert
0
POINT
5
12E
100
AcDbEntity
8
Defpoints
62
0
6
ByLayer
370
-1
48
1
60
0
100
AcDbPoint
10
0
20
0
30
0
39
0
210
0
220
0
230
1
50
360
0
POINT
5
12F
100
AcDbEntity
8
Defpoints
62
0
6
ByLayer
370
-1
48
1
60
0
100
AcDbPoint
10
115.9458
20
-5.35
30
0
39
0
210
0
220
0
230
1
50
360
0
POINT
5
130
100
AcDbEntity
8
Defpoints
62
0
6
ByLayer
370
-1
48
1
60
0
100
AcDbPoint
10
115.9458
20
-15.563398
30
0
39
0
210
0
220
0
230
1
50
360
0
ENDBLK
5
127
100
AcDbEntity
8
0
100
AcDbBlockEnd
0
BLOCK
5
138
100
AcDbEntity
8
0
100
AcDbBlockBegin
2
_U0
70
0
10
0
20
0
30
0
3
_U0
0
MTEXT
5
132
100
AcDbEntity
8
2
62
256
6
ByLayer
370
13
48
1
60
0
100
AcDbMText
10
52.402735
20
-14.530765
30
0
210
0
220
0
230
1
1
\W0.6440;115,95
40
3.5
41
0
44
1.084337
50
0
71
7
72
5
7
iso_b_vert
0
LINE
5
133
100
AcDbEntity
8
2
62
256
6
ByLayer
370
13
48
1
60
0
100
AcDbLine
10
0
20
-1.5875
30
0
11
0
21
-17.563398
31
0
39
0
210
0
220
0
230
1
0
LINE
5
134
100
AcDbEntity
8
2
62
256
6
ByLayer
370
13
48
1
60
0
100
AcDbLine
10
115.9458
20
-6.9375
30
0
11
115.9458
21
-17.563398
31
0
39
0
210
0
220
0
230
1
0
LINE
5
135
100
AcDbEntity
8
2
62
256
6
ByLayer
370
13
48
1
60
0
100
AcDbLine
10
0
20
-15.563398
30
0
11
115.9458
21
-15.563398
31
0
39
0
210
0
220
0
230
1
0
SOLID
5
136
100
AcDbEntity
8
2
62
256
6
ByLayer
370
18
48
1
60
0
100
AcDbTrace
10
0
20
-15.563398
30
0
11
3.499998
21
-15.102615
31
0
12
3.500002
22
-16.024182
32
0
13
3.500002
23
-16.024182
33
0
39
0
210
0
220
0
230
1
0
SOLID
5
137
100
AcDbEntity
8
2
62
256
6
ByLayer
370
18
48
1
60
0
100
AcDbTrace
10
115.9458
20
-15.563398
30
0
11
112.445802
21
-16.024182
31
0
12
112.445798
22
-15.102615
32
0
13
112.445798
23
-15.102615
33
0
39
0
210
0
220
0
230
1
0
ENDBLK
5
139
100
AcDbEntity
8
0
100
AcDbBlockEnd
0
BLOCK
5
13E
100
AcDbEntity
8
0
100
AcDbBlockBegin
2
*D3
70
1
10
0
20
0
30
0
3
*D3
0
LINE
5
140
100
AcDbEntity
8
0
62
256
6
ByLayer
370
-2
48
1
60
0
100
AcDbLine
10
-45
20
-7.5875
30
0
11
-45
21
-36.692985
31
0
39
0
210
0
220
0
230
1
0
LINE
5
141
100
AcDbEntity
8
0
62
256
6
ByLayer
370
-2
48
1
60
0
100
AcDbLine
10
118
20
-1.5875
30
0
11
118
21
-36.692985
31
0
39
0
210
0
220
0
230
1
0
LINE
5
142
100
AcDbEntity
8
0
62
256
6
ByLayer
370
-2
48
1
60
0
100
AcDbLine
10
-41.5
20
-34.692985
30
0
11
114.5
21
-34.692985
31
0
39
0
210
0
220
0
230
1
0
SOLID
5
143
100
AcDbEntity
8
0
62
256
6
ByLayer
370
-1
48
1
60
0
100
AcDbTrace
10
-41.5
20
-34.109652
30
0
11
-41.5
21
-35.276319
31
0
12
-45
22
-34.692985
32
0
13
-45
23
-34.692985
33
0
39
0
210
0
220
0
230
1
0
SOLID
5
144
100
AcDbEntity
8
0
62
256
6
ByLayer
370
-1
48
1
60
0
100
AcDbTrace
10
114.5
20
-35.276319
30
0
11
114.5
21
-34.109652
31
0
12
118
22
-34.692985
32
0
13
118
23
-34.692985
33
0
39
0
210
0
220
0
230
1
0
MTEXT
5
145
100
AcDbEntity
8
0
62
256
6
ByLayer
370
18
48
1
60
0
100
AcDbMText
10
36.5
20
-27.692985
30
0
210
0
220
0
230
1
1
\A1;163.00
40
3.5
41
0
44
1
50
0
71
5
72
5
7
iso_b_vert
0
POINT
5
146
100
AcDbEntity
8
Defpoints
62
0
6
ByLayer
370
-1
48
1
60
0
100
AcDbPoint
10
-45
20
-6
30
0
39
0
210
0
220
0
230
1
50
360
0
POINT
5
147
100
AcDbEntity
8
Defpoints
62
0
6
ByLayer
370
-1
48
1
60
0
100
AcDbPoint
10
118
20
0
30
0
39
0
210
0
220
0
230
1
50
360
0
POINT
5
148
100
AcDbEntity
8
Defpoints
62
0
6
ByLayer
370
-1
48
1
60
0
100
AcDbPoint
10
118
20
-34.692985
30
0
39
0
210
0
220
0
230
1
50
360
0
ENDBLK
5
13F
100
AcDbEntity
8
0
100
AcDbBlockEnd
0
BLOCK
5
150
100
AcDbEntity
8
0
100
AcDbBlockBegin
2
_U1
70
0
10
0
20
0
30
0
3
_U1
0
MTEXT
5
14A
100
AcDbEntity
8
SK2
62
256
6
ByLayer
370
13
48
1
60
0
100
AcDbMText
10
30.492401
20
-33.660352
30
0
210
0
220
0
230
1
1
\W0.6930;163,00
40
3.5
41
0
44
1.084337
50
0
71
7
72
5
7
iso_b_vert
0
LINE
5
14B
100
AcDbEntity
8
SK2
62
256
6
ByLayer
370
13
48
1
60
0
100
AcDbLine
10
-45
20
-7.5875
30
0
11
-45
21
-36.692985
31
0
39
0
210
0
220
0
230
1
0
LINE
5
14C
100
AcDbEntity
8
SK2
62
256
6
ByLayer
370
13
48
1
60
0
100
AcDbLine
10
118
20
-1.5875
30
0
11
118
21
-36.692985
31
0
39
0
210
0
220
0
230
1
0
LINE
5
14D
100
AcDbEntity
8
SK2
62
256
6
ByLayer
370
13
48
1
60
0
100
AcDbLine
10
-45
20
-34.692985
30
0
11
118
21
-34.692985
31
0
39
0
210
0
220
0
230
1
0
SOLID
5
14E
100
AcDbEntity
8
SK2
62
256
6
ByLayer
370
18
48
1
60
0
100
AcDbTrace
10
-45
20
-34.692985
30
0
11
-41.500002
21
-34.232202
31
0
12
-41.499998
22
-35.153769
32
0
13
-41.499998
23
-35.153769
33
0
39
0
210
0
220
0
230
1
0
SOLID
5
14F
100
AcDbEntity
8
SK2
62
256
6
ByLayer
370
18
48
1
60
0
100
AcDbTrace
10
118
20
-34.692985
30
0
11
114.500002
21
-35.153769
31
0
12
114.499998
22
-34.232202
32
0
13
114.499998
23
-34.232202
33
0
39
0
210
0
220
0
230
1
0
ENDBLK
5
151
100
AcDbEntity
8
0
100
AcDbBlockEnd
0
BLOCK
5
156
100
AcDbEntity
8
0
100
AcDbBlockBegin
2
*D5
70
1
10
0
20
0
30
0
3
*D5
0
LINE
5
158
100
AcDbEntity
8
0
62
256
6
ByLayer
370
-2
48
1
60
0
100
AcDbLine
10
30.35
20
6.9375
30
0
11
30.35
21
18.959119
31
0
39
0
210
0
220
0
230
1
0
LINE
5
159
100
AcDbEntity
8
0
62
256
6
ByLayer
370
-2
48
1
60
0
100
AcDbLine
10
118
20
1.5875
30
0
11
118
21
18.959119
31
0
39
0
210
0
220
0
230
1
0
LINE
5
15A
100
AcDbEntity
8
0
62
256
6
ByLayer
370
-2
48
1
60
0
100
AcDbLine
10
33.85
20
16.959119
30
0
11
114.5
21
16.959119
31
0
39
0
210
0
220
0
230
1
0
SOLID
5
15B
100
AcDbEntity
8
0
62
256
6
ByLayer
370
-1
48
1
60
0
100
AcDbTrace
10
33.85
20
17.542453
30
0
11
33.85
21
16.375786
31
0
12
30.35
22
16.959119
32
0
13
30.35
23
16.959119
33
0
39
0
210
0
220
0
230
1
0
SOLID
5
15C
100
AcDbEntity
8
0
62
256
6
ByLayer
370
-1
48
1
60
0
100
AcDbTrace
10
114.5
20
16.375786
30
0
11
114.5
21
17.542453
31
0
12
118
22
16.959119
32
0
13
118
23
16.959119
33
0
39
0
210
0
220
0
230
1
0
MTEXT
5
15D
100
AcDbEntity
8
0
62
256
6
ByLayer
370
18
48
1
60
0
100
AcDbMText
10
74.175
20
23.959119
30
0
210
0
220
0
230
1
1
\A1;87.65
40
3.5
41
0
44
1
50
0
71
5
72
5
7
iso_b_vert
0
POINT
5
15E
100
AcDbEntity
8
Defpoints
62
0
6
ByLayer
370
-1
48
1
60
0
100
AcDbPoint
10
30.35
20
5.35
30
0
39
0
210
0
220
0
230
1
50
360
0
POINT
5
15F
100
AcDbEntity
8
Defpoints
62
0
6
ByLayer
370
-1
48
1
60
0
100
AcDbPoint
10
118
20
0
30
0
39
0
210
0
220
0
230
1
50
360
0
POINT
5
160
100
AcDbEntity
8
Defpoints
62
0
6
ByLayer
370
-1
48
1
60
0
100
AcDbPoint
10
118
20
16.959119
30
0
39
0
210
0
220
0
230
1
50
360
0
ENDBLK
5
157
100
AcDbEntity
8
0
100
AcDbBlockEnd
0
BLOCK
5
168
100
AcDbEntity
8
0
100
AcDbBlockBegin
2
_U2
70
0
10
0
20
0
30
0
3
_U2
0
MTEXT
5
162
100
AcDbEntity
8
SK2
62
256
6
ByLayer
370
13
48
1
60
0
100
AcDbMText
10
69.037701
20
17.991753
30
0
210
0
220
0
230
1
1
\W0.7317;87,65
40
3.5
41
0
44
1.084337
50
0
71
7
72
5
7
iso_b_vert
0
LINE
5
163
100
AcDbEntity
8
SK2
62
256
6
ByLayer
370
13
48
1
60
0
100
AcDbLine
10
30.35
20
6.9375
30
0
11
30.35
21
18.959119
31
0
39
0
210
0
220
0
230
1
0
LINE
5
164
100
AcDbEntity
8
SK2
62
256
6
ByLayer
370
13
48
1
60
0
100
AcDbLine
10
118
20
1.5875
30
0
11
118
21
18.959119
31
0
39
0
210
0
220
0
230
1
0
LINE
5
165
100
AcDbEntity
8
SK2
62
256
6
ByLayer
370
13
48
1
60
0
100
AcDbLine
10
30.35
20
16.959119
30
0
11
118
21
16.959119
31
0
39
0
210
0
220
0
230
1
0
SOLID
5
166
100
AcDbEntity
8
SK2
62
256
6
ByLayer
370
18
48
1
60
0
100
AcDbTrace
10
30.35
20
16.959119
30
0
11
33.849998
21
17.419903
31
0
12
33.850002
22
16.498335
32
0
13
33.850002
23
16.498335
33
0
39
0
210
0
220
0
230
1
0
SOLID
5
167
100
AcDbEntity
8
SK2
62
256
6
ByLayer
370
18
48
1
60
0
100
AcDbTrace
10
118
20
16.959119
30
0
11
114.500002
21
16.498335
31
0
12
114.499998
22
17.419903
32
0
13
114.499998
23
17.419903
33
0
39
0
210
0
220
0
230
1
0
ENDBLK
5
169
100
AcDbEntity
8
0
100
AcDbBlockEnd
0
BLOCK
5
16E
100
AcDbEntity
8
0
100
AcDbBlockBegin
2
*D7
70
1
10
0
20
0
30
0
3
*D7
0
LINE
5
170
100
AcDbEntity
8
0
62
256
6
ByLayer
370
-2
48
1
60
0
100
AcDbLine
10
118
20
-1.5875
30
0
11
118
21
-20.152503
31
0
39
0
210
0
220
0
230
1
0
LINE
5
171
100
AcDbEntity
8
0
62
256
6
ByLayer
370
-2
48
1
60
0
100
AcDbLine
10
115.9458
20
-6.9375
30
0
11
115.9458
21
-20.152503
31
0
39
0
210
0
220
0
230
1
0
LINE
5
172
100
AcDbEntity
8
0
62
256
6
ByLayer
370
-2
48
1
60
0
100
AcDbLine
10
118
20
-18.152503
30
0
11
146.166667
21
-18.152503
31
0
39
0
210
0
220
0
230
1
0
LINE
5
173
100
AcDbEntity
8
0
62
256
6
ByLayer
370
-2
48
1
60
0
100
AcDbLine
10
121.5
20
-18.152503
30
0
11
125
21
-18.152503
31
0
39
0
210
0
220
0
230
1
0
LINE
5
174
100
AcDbEntity
8
0
62
256
6
ByLayer
370
-2
48
1
60
0
100
AcDbLine
10
112.4458
20
-18.152503
30
0
11
108.9458
21
-18.152503
31
0
39
0
210
0
220
0
230
1
0
SOLID
5
175
100
AcDbEntity
8
0
62
256
6
ByLayer
370
-1
48
1
60
0
100
AcDbTrace
10
121.5
20
-17.56917
30
0
11
121.5
21
-18.735837
31
0
12
118
22
-18.152503
32
0
13
118
23
-18.152503
33
0
39
0
210
0
220
0
230
1
0
SOLID
5
176
100
AcDbEntity
8
0
62
256
6
ByLayer
370
-1
48
1
60
0
100
AcDbTrace
10
112.4458
20
-18.735837
30
0
11
112.4458
21
-17.56917
31
0
12
115.9458
22
-18.152503
32
0
13
115.9458
23
-18.152503
33
0
39
0
210
0
220
0
230
1
0
MTEXT
5
177
100
AcDbEntity
8
0
62
256
6
ByLayer
370
18
48
1
60
0
100
AcDbMText
10
135.583333
20
-11.152503
30
0
210
0
220
0
230
1
1
\A1;2.05
40
3.5
41
0
44
1
50
0
71
5
72
5
7
iso_b_vert
0
POINT
5
178
100
AcDbEntity
8
Defpoints
62
0
6
ByLayer
370
-1
48
1
60
0
100
AcDbPoint
10
118
20
0
30
0
39
0
210
0
220
0
230
1
50
360
0
POINT
5
179
100
AcDbEntity
8
Defpoints
62
0
6
ByLayer
370
-1
48
1
60
0
100
AcDbPoint
10
115.9458
20
-5.35
30
0
39
0
210
0
220
0
230
1
50
360
0
POINT
5
17A
100
AcDbEntity
8
Defpoints
62
0
6
ByLayer
370
-1
48
1
60
0
100
AcDbPoint
10
115.9458
20
-18.152503
30
0
39
0
210
0
220
0
230
1
50
360
0
ENDBLK
5
16F
100
AcDbEntity
8
0
100
AcDbBlockEnd
0
BLOCK
5
182
100
AcDbEntity
8
0
100
AcDbBlockBegin
2
_U3
70
0
10
0
20
0
30
0
3
_U3
0
MTEXT
5
17C
100
AcDbEntity
8
SK2
62
256
6
ByLayer
370
13
48
1
60
0
100
AcDbMText
10
124.15186
20
-17.11987
30
0
210
0
220
0
230
1
1
\W0.7150;2,05
40
3.5
41
0
44
1.084337
50
0
71
7
72
5
7
iso_b_vert
0
LINE
5
17D
100
AcDbEntity
8
SK2
62
256
6
ByLayer
370
13
48
1
60
0
100
AcDbLine
10
118
20
-1.5875
30
0
11
118
21
-20.152503
31
0
39
0
210
0
220
0
230
1
0
LINE
5
17E
100
AcDbEntity
8
SK2
62
256
6
ByLayer
370
13
48
1
60
0
100
AcDbLine
10
115.9458
20
-6.9375
30
0
11
115.9458
21
-20.152503
31
0
39
0
210
0
220
0
230
1
0
LINE
5
17F
100
AcDbEntity
8
SK2
62
256
6
ByLayer
370
13
48
1
60
0
100
AcDbLine
10
107.1958
20
-18.152503
30
0
11
131.996491
21
-18.152503
31
0
39
0
210
0
220
0
230
1
0
SOLID
5
180
100
AcDbEntity
8
SK2
62
256
6
ByLayer
370
18
48
1
60
0
100
AcDbTrace
10
118
20
-18.152503
30
0
11
121.499998
21
-17.691719
31
0
12
121.500002
22
-18.613287
32
0
13
121.500002
23
-18.613287
33
0
39
0
210
0
220
0
230
1
0
SOLID
5
181
100
AcDbEntity
8
SK2
62
256
6
ByLayer
370
18
48
1
60
0
100
AcDbTrace
10
115.9458
20
-18.152503
30
0
11
112.445802
21
-18.613287
31
0
12
112.445798
22
-17.691719
32
0
13
112.445798
23
-17.691719
33
0
39
0
210
0
220
0
230
1
0
ENDBLK
5
183
100
AcDbEntity
8
0
100
AcDbBlockEnd
0
BLOCK
5
188
100
AcDbEntity
8
0
100
AcDbBlockBegin
2
*D9
70
1
10
0
20
0
30
0
3
*D9
0
LINE
5
18A
100
AcDbEntity
8
0
62
256
6
ByLayer
370
-2
48
1
60
0
100
AcDbLine
10
-45
20
-7.5875
30
0
11
-45
21
-26.343428
31
0
39
0
210
0
220
0
230
1
0
LINE
5
18B
100
AcDbEntity
8
0
62
256
6
ByLayer
370
-2
48
1
60
0
100
AcDbLine
10
115.9458
20
-6.9375
30
0
11
115.9458
21
-26.343428
31
0
39
0
210
0
220
0
230
1
0
LINE
5
18C
100
AcDbEntity
8
0
62
256
6
ByLayer
370
-2
48
1
60
0
100
AcDbLine
10
-41.5
20
-24.343428
30
0
11
112.4458
21
-24.343428
31
0
39
0
210
0
220
0
230
1
0
SOLID
5
18D
100
AcDbEntity
8
0
62
256
6
ByLayer
370
-1
48
1
60
0
100
AcDbTrace
10
-41.5
20
-23.760095
30
0
11
-41.5
21
-24.926762
31
0
12
-45
22
-24.343428
32
0
13
-45
23
-24.343428
33
0
39
0
210
0
220
0
230
1
0
SOLID
5
18E
100
AcDbEntity
8
0
62
256
6
ByLayer
370
-1
48
1
60
0
100
AcDbTrace
10
112.4458
20
-24.926762
30
0
11
112.4458
21
-23.760095
31
0
12
115.9458
22
-24.343428
32
0
13
115.9458
23
-24.343428
33
0
39
0
210
0
220
0
230
1
0
MTEXT
5
18F
100
AcDbEntity
8
0
62
256
6
ByLayer
370
18
48
1
60
0
100
AcDbMText
10
35.4729
20
-17.343428
30
0
210
0
220
0
230
1
1
\A1;160.95
40
3.5
41
0
44
1
50
0
71
5
72
5
7
iso_b_vert
0
POINT
5
190
100
AcDbEntity
8
Defpoints
62
0
6
ByLayer
370
-1
48
1
60
0
100
AcDbPoint
10
-45
20
-6
30
0
39
0
210
0
220
0
230
1
50
360
0
POINT
5
191
100
AcDbEntity
8
Defpoints
62
0
6
ByLayer
370
-1
48
1
60
0
100
AcDbPoint
10
115.9458
20
-5.35
30
0
39
0
210
0
220
0
230
1
50
360
0
POINT
5
192
100
AcDbEntity
8
Defpoints
62
0
6
ByLayer
370
-1
48
1
60
0
100
AcDbPoint
10
115.9458
20
-24.343428
30
0
39
0
210
0
220
0
230
1
50
360
0
ENDBLK
5
189
100
AcDbEntity
8
0
100
AcDbBlockEnd
0
BLOCK
5
19A
100
AcDbEntity
8
0
100
AcDbBlockBegin
2
_U4
70
0
10
0
20
0
30
0
3
_U4
0
MTEXT
5
194
100
AcDbEntity
8
SK2
62
256
6
ByLayer
370
13
48
1
60
0
100
AcDbMText
10
29.465301
20
-23.310795
30
0
210
0
220
0
230
1
1
\W0.6930;160,95
40
3.5
41
0
44
1.084337
50
0
71
7
72
5
7
iso_b_vert
0
LINE
5
195
100
AcDbEntity
8
SK2
62
256
6
ByLayer
370
13
48
1
60
0
100
AcDbLine
10
-45
20
-7.5875
30
0
11
-45
21
-26.343428
31
0
39
0
210
0
220
0
230
1
0
LINE
5
196
100
AcDbEntity
8
SK2
62
256
6
ByLayer
370
13
48
1
60
0
100
AcDbLine
10
115.9458
20
-6.9375
30
0
11
115.9458
21
-26.343428
31
0
39
0
210
0
220
0
230
1
0
LINE
5
197
100
AcDbEntity
8
SK2
62
256
6
ByLayer
370
13
48
1
60
0
100
AcDbLine
10
-45
20
-24.343428
30
0
11
115.9458
21
-24.343428
31
0
39
0
210
0
220
0
230
1
0
SOLID
5
198
100
AcDbEntity
8
SK2
62
256
6
ByLayer
370
18
48
1
60
0
100
AcDbTrace
10
-45
20
-24.343428
30
0
11
-41.500002
21
-23.882645
31
0
12
-41.499998
22
-24.804212
32
0
13
-41.499998
23
-24.804212
33
0
39
0
210
0
220
0
230
1
0
SOLID
5
199
100
AcDbEntity
8
SK2
62
256
6
ByLayer
370
18
48
1
60
0
100
AcDbTrace
10
115.9458
20
-24.343428
30
0
11
112.445802
21
-24.804212
31
0
12
112.445798
22
-23.882645
32
0
13
112.445798
23
-23.882645
33
0
39
0
210
0
220
0
230
1
0
ENDBLK
5
19B
100
AcDbEntity
8
0
100
AcDbBlockEnd
0
ENDSEC
0
SECTION
2
ENTITIES
0
ARC
5
AB
100
AcDbEntity
8
1
62
256
6
ByLayer
370
18
48
1
60
0
100
AcDbCircle
39
0
10
1.475717
20
-5.993955
30
0
40
0.849999999999998
210
0
220
0
230
1
100
AcDbArc
50
89.896868
51
150.234969
0
ARC
5
AC
100
AcDbEntity
8
1
62
256
6
ByLayer
370
18
48
1
60
0
100
AcDbCircle
39
0
10
1.475717
20
5.993955
30
0
40
0.849999999999998
210
0
220
0
230
1
100
AcDbArc
50
209.765031
51
270.103132
0
ARC
5
AD
100
AcDbEntity
8
1
62
256
6
ByLayer
370
18
48
1
60
0
100
AcDbCircle
39
0
10
0
20
-5.15
30
0
40
0.849999999999997
210
0
220
0
230
1
100
AcDbArc
50
270
51
330.234969
0
ARC
5
AE
100
AcDbEntity
8
1
62
256
6
ByLayer
370
18
48
1
60
0
100
AcDbCircle
39
0
10
0
20
5.15
30
0
40
0.849999999999997
210
0
220
0
230
1
100
AcDbArc
50
29.765031
51
90
0
ELLIPSE
5
AF
100
AcDbEntity
8
1
62
256
6
ByLayer
370
13
48
1
60
0
100
AcDbEllipse
10
5.288928
20
0.059739
30
0
11
-0.134505500902453
21
-0.268157174483511
31
0
210
0
220
0
230
1
40
0.418615
41
-1.3531941762748
42
-1.14187492005938
0
ELLIPSE
5
B0
100
AcDbEntity
8
1
62
256
6
ByLayer
370
13
48
1
60
0
100
AcDbEllipse
10
162.194174
20
41.888784
30
0
11
-60.1999999999998
21
7.37213025001069E-15
31
0
210
0
220
0
230
1
40
0.99863
41
0.713794405973542
42
0.732214852061373
0
ELLIPSE
5
B1
100
AcDbEntity
8
1
62
256
6
ByLayer
370
13
48
1
60
0
100
AcDbEllipse
10
15.214007
20
-67.740327
30
0
11
42.5951006429243
21
60.6918429442701
31
0
210
0
220
0
230
1
40
0.764812
41
0.869204156888032
42
0.894194608773801
0
ELLIPSE
5
B2
100
AcDbEntity
8
1
62
256
6
ByLayer
370
13
48
1
60
0
100
AcDbEllipse
10
17.099182
20
69.063392
30
0
11
-42.5951006429241
21
60.6918429442701
31
0
210
0
220
0
230
1
40
0.764812
41
2.31714662269719
42
2.39911390008779
0
ELLIPSE
5
B3
100
AcDbEntity
8
1
62
256
6
ByLayer
370
13
48
1
60
0
100
AcDbEllipse
10
5.613782
20
-0.104164
30
0
11
0.137148437567853
21
0.266815115899937
31
0
210
0
220
0
230
1
40
0.007304
41
1.55237824589809
42
2.51035457570874
0
ELLIPSE
5
B4
100
AcDbEntity
8
1
62
256
6
ByLayer
370
18
48
1
60
0
100
AcDbEllipse
10
5.612435
20
6.020049
30
0
11
1
21
0
31
0
210
0
220
0
230
1
40
0.999987
41
-2.07867787438476
42
-1.56574409168977
0
ELLIPSE
5
B5
100
AcDbEntity
8
1
62
256
6
ByLayer
370
18
48
1
60
0
100
AcDbEllipse
10
5.612435
20
-6.020049
30
0
11
1
21
0
31
0
210
0
220
0
230
1
40
0.999987
41
1.57116607835278
42
2.07706477954983
0
POINT
5
70
100
AcDbEntity
8
80
62
256
6
ByLayer
370
18
48
1
60
0
100
AcDbPoint
10
0
20
0
30
0
39
0
210
0
220
0
230
1
50
360
0
POINT
5
72
100
AcDbEntity
8
81
62
256
6
ByLayer
370
18
48
1
60
0
100
AcDbPoint
10
118
20
0
30
0
39
0
210
0
220
0
230
1
50
360
0
POINT
5
74
100
AcDbEntity
8
1
62
256
6
ByLayer
370
18
48
1
60
1
100
AcDbPoint
10
115.9458
20
-5.35
30
0
39
0
210
0
220
0
230
1
50
360
0
POINT
5
76
100
AcDbEntity
8
1
62
256
6
ByLayer
370
18
48
1
60
1
100
AcDbPoint
10
-45
20
-6
30
0
39
0
210
0
220
0
230
1
50
360
0
POINT
5
77
100
AcDbEntity
8
1
62
256
6
ByLayer
370
18
48
1
60
1
100
AcDbPoint
10
30.35
20
5.35
30
0
39
0
210
0
220
0
230
1
50
360
0
POINT
5
78
100
AcDbEntity
8
1
62
256
6
ByLayer
370
18
48
1
60
1
100
AcDbPoint
10
115.9458
20
-5.35
30
0
39
0
210
0
220
0
230
1
50
360
0
POINT
5
79
100
AcDbEntity
8
1
62
256
6
ByLayer
370
18
48
1
60
1
100
AcDbPoint
10
-45
20
-6
30
0
39
0
210
0
220
0
230
1
50
360
0
POINT
5
7A
100
AcDbEntity
8
1
62
256
6
ByLayer
370
18
48
1
60
1
100
AcDbPoint
10
115.9458
20
-5.35
30
0
39
0
210
0
220
0
230
1
50
360
0
SPLINE
5
B6
100
AcDbEntity
8
1
62
256
6
ByLayer
370
18
48
1
60
0
100
AcDbSpline
70
4
71
3
72
12
73
8
40
0
40
0
40
0
40
0
40
0.25
40
0.25
40
0.5
40
0.5
40
1
40
1
40
1
40
1
41
1
10
5.13090283996436
20
-0.0005798355467448
30
0
41
1
10
5.14594321847412
20
-0.0400763405169187
30
0
41
1
10
5.1698032521781
20
-0.0739473896944105
30
0
41
1
10
5.22555622143133
20
-0.136548857174802
30
0
41
1
10
5.25664212434629
20
-0.163891778853468
30
0
41
1
10
5.35500680298895
20
-0.239623163804794
30
0
41
1
10
5.42732757995481
20
-0.281913007860709
30
0
41
1
10
5.5019120613164
20
-0.318971755521034
30
0
0
SPLINE
5
B7
100
AcDbEntity
8
1
62
256
6
ByLayer
370
18
48
1
60
0
100
AcDbSpline
70
4
71
3
72
14
73
10
40
0
40
0
40
0
40
0
40
0.499999999999999
40
0.499999999999999
40
0.624999999999998
40
0.624999999999998
40
0.749999999999998
40
0.749999999999998
40
1
40
1
40
1
40
1
41
1
10
11.9410514113434
20
3.93854540659771
30
0
41
1
10
12.9589667775273
20
4.22324169722268
30
0
41
1
10
13.9823329844835
20
4.46043362979839
30
0
41
1
10
15.2667301929689
20
4.70017399658531
30
0
41
1
10
15.5240479008125
20
4.74524715874387
30
0
41
1
10
16.037605694387
20
4.82917147285224
30
0
41
1
10
16.2940015608178
20
4.86805562863196
30
0
41
1
10
17.0619935674709
20
4.97519535793592
30
0
41
1
10
17.5723956155937
20
5.03399752158595
30
0
41
1
10
18.0810666101143
20
5.07879032107348
30
0
0
SPLINE
5
B8
100
AcDbEntity
8
1
62
256
6
ByLayer
370
18
48
1
60
0
100
AcDbSpline
70
4
71
3
72
8
73
4
40
0
40
0
40
0
40
0
40
1
40
1
40
1
40
1
41
1
10
5.11742231782603
20
0.068379039888498
30
0
41
1
10
5.11741747452123
20
0.0445144735564043
30
0
41
1
10
5.12244436805511
20
0.0216323765720006
30
0
41
1
10
5.13090283996416
20
-0.0005798355463185
30
0
0
SPLINE
5
B9
100
AcDbEntity
8
1
62
256
6
ByLayer
370
13
48
1
60
0
100
AcDbSpline
70
4
71
3
72
36
73
32
40
0
40
0
40
0
40
0
40
0.159297165005139
40
0.159297165005139
40
0.199121456256424
40
0.199121456256424
40
0.238945747507709
40
0.238945747507709
40
0.318594330010279
40
0.318594330010279
40
0.477891495015419
40
0.477891495015419
40
0.517715786266704
40
0.517715786266704
40
0.557540077517989
40
0.557540077517989
40
0.637188660020558
40
0.637188660020558
40
0.677012951271843
40
0.677012951271843
40
0.716837242523128
40
0.716837242523128
40
0.796485825025697
40
0.796485825025697
40
0.836310116276982
40
0.836310116276982
40
0.876134407528266
40
0.876134407528266
40
0.955782990030835
40
0.955782990030835
40
1
40
1
40
1
40
1
41
1
10
5.61435911226994
20
-0.098248242879265
30
0
41
1
10
5.61436945152974
20
0.329696599577886
30
0
41
1
10
5.61436135186176
20
0.751151259664255
30
0
41
1
10
5.61434514759569
20
1.2699353756644
30
0
41
1
10
5.61434158872009
20
1.3733434972645
30
0
41
1
10
5.61433430851358
20
1.57738739142454
30
0
41
1
10
5.61433057992306
20
1.67826772037412
30
0
41
1
10
5.61431970200402
20
1.97749183781374
30
0
41
1
10
5.6143128628581
20
2.17312216405981
30
0
41
1
10
5.61429804521958
20
2.73472764573415
30
0
41
1
10
5.61429580398942
20
3.0793590415216
30
0
41
1
10
5.6143114259981
20
3.47230697116413
30
0
41
1
10
5.61431546369892
20
3.54891867749066
30
0
41
1
10
5.61432533243666
20
3.69609959369402
30
0
41
1
10
5.61433117283173
20
3.7669599970115
30
0
41
1
10
5.61435142916125
20
3.97149761317718
30
0
41
1
10
5.61436859500489
20
4.09716264654026
30
0
41
1
10
5.61439963405564
20
4.26961997277493
30
0
41
1
10
5.61441085846172
20
4.32442452406335
30
0
41
1
10
5.61443498329947
20
4.42857340869116
30
0
41
1
10
5.61444792768367
20
4.47805676403516
30
0
41
1
10
5.61448872447988
20
4.61683746029863
30
0
41
1
10
5.61451851208312
20
4.69654336812687
30
0
41
1
10
5.61456563924042
20
4.79714495179937
30
0
41
1
10
5.6145817525977
20
4.82750963868236
30
0
41
1
10
5.61461450104537
20
4.8818286080633
30
0
41
1
10
5.61463117081928
20
4.90580664401932
30
0
41
1
10
5.61468084420494
20
4.96723154307736
30
0
41
1
10
5.61471370105949
20
4.994570248119
30
0
41
1
10
5.6147621816117
20
5.01660563346201
30
0
41
1
10
5.61477897177136
20
5.02041242011023
30
0
41
1
10
5.61479496898693
20
5.02012602312044
30
0
0
SPLINE
5
BA
100
AcDbEntity
8
1
62
256
6
ByLayer
370
18
48
1
60
0
100
AcDbSpline
70
4
71
3
72
10
73
6
40
0
40
0
40
0
40
0
40
0.5
40
0.5
40
1
40
1
40
1
40
1
41
1
10
5.49358765179534
20
-4.63506723312318
30
0
41
1
10
5.51692138580671
20
-4.58951580235708
30
0
41
1
10
5.54591321358362
20
-4.54109128419151
30
0
41
1
10
5.61274633317788
20
-4.44160519649236
30
0
41
1
10
5.6506635201595
20
-4.39032418535132
30
0
41
1
10
5.69258424929632
20
-4.33768152731719
30
0
0
SPLINE
5
BB
100
AcDbEntity
8
1
62
256
6
ByLayer
370
18
48
1
60
0
100
AcDbSpline
70
4
71
3
72
28
73
24
40
0
40
0
40
0
40
0
40
0.004134948220012
40
0.004134948220012
40
0.0807399522030875
40
0.0807399522030875
40
0.119042454194625
40
0.119042454194625
40
0.157344956186163
40
0.157344956186163
40
0.233949960169239
40
0.233949960169239
40
0.310554964152314
40
0.310554964152314
40
0.387159968135389
40
0.387159968135389
40
0.693579984067695
40
0.693579984067695
40
0.846789992033847
40
0.846789992033847
40
0.923394996016924
40
0.923394996016924
40
1
40
1
40
1
40
1
41
1
10
6.13454254168133
20
5.02121819304517
30
0
41
1
10
6.14153652218033
20
5.02121693953194
30
0
41
1
10
6.14858120096036
20
5.02117326983188
30
0
41
1
10
6.28708323751005
20
5.01950797160325
30
0
41
1
10
6.43608276919835
20
5.00391963477961
30
0
41
1
10
6.67970262882812
20
4.96513508736325
30
0
41
1
10
6.76461899618351
20
4.94953441248893
30
0
41
1
10
6.93845661517508
20
4.91419519986067
30
0
41
1
10
7.02746409996538
20
4.89445800505589
30
0
41
1
10
7.29990731366107
20
4.83002269557829
30
0
41
1
10
7.48871626190271
20
4.78015508327806
30
0
41
1
10
7.87773792973871
20
4.67004889673899
30
0
41
1
10
8.07798223630437
20
4.60977460787757
30
0
41
1
10
8.48816436315519
20
4.48088096786836
30
0
41
1
10
8.69794677827014
20
4.4122772832873
30
0
41
1
10
9.75381665740417
20
4.05727428189383
30
0
41
1
10
10.6317567271643
20
3.73294912371054
30
0
41
1
10
11.981680810708
20
3.21653305994428
30
0
41
1
10
12.437964352956
20
3.03889775046827
30
0
41
1
10
13.1261442872471
20
2.76901921778054
30
0
41
1
10
13.356195444371
20
2.67822079813098
30
0
41
1
10
13.8176533120405
20
2.49460314840442
30
0
41
1
10
14.0490045089959
20
2.40204761477844
30
0
41
1
10
14.2809395045192
20
2.30886045781204
30
0
0
SPLINE
5
BC
100
AcDbEntity
8
1
62
256
6
ByLayer
370
18
48
1
60
0
100
AcDbSpline
70
4
71
3
72
18
73
14
40
0
40
0
40
0
40
0
40
0.25
40
0.25
40
0.375
40
0.375
40
0.5
40
0.5
40
0.750000000000001
40
0.750000000000001
40
0.875
40
0.875
40
1
40
1
40
1
40
1
41
1
10
115.552034417125
20
0.557891031355865
30
0
41
1
10
115.496927909409
20
0.291999505636596
30
0
41
1
10
115.45212474366
20
0.0254311058471899
30
0
41
1
10
115.400397426587
20
-0.375438277723418
30
0
41
1
10
115.385745691776
20
-0.509231600892775
30
0
41
1
10
115.361768695316
20
-0.777168167828108
30
0
41
1
10
115.352417950656
20
-0.911901458023607
30
0
41
1
10
115.332924766997
20
-1.31227397108373
30
0
41
1
10
115.331287917505
20
-1.57186183899179
30
0
41
1
10
115.345327546467
20
-1.95060320881262
30
0
41
1
10
115.352769419841
20
-2.0750686397916
30
0
41
1
10
115.37323804542
20
-2.32039684200956
30
0
41
1
10
115.386313767313
20
-2.44159232873187
30
0
41
1
10
115.402128771216
20
-2.55998768903649
30
0
0
SPLINE
5
BD
100
AcDbEntity
8
1
62
256
6
ByLayer
370
13
48
1
60
0
100
AcDbSpline
70
4
71
3
72
90
73
86
40
0
40
0
40
0
40
0
40
0.0007742146051924
40
0.0069057794799007
40
0.0191689092293177
40
0.0314320389787347
40
0.04982673360286
40
0.0559582984775687
40
0.0682214282269852
40
0.0804845579764022
40
0.098879252600528
40
0.105010817475236
40
0.117273947224653
40
0.12953707697407
40
0.147931771598196
40
0.154063336472904
40
0.166326466222321
40
0.178589595971738
40
0.196984290595864
40
0.203115855470572
40
0.215378985219989
40
0.227642114969406
40
0.246036809593531
40
0.252168374468239
40
0.264431504217656
40
0.276694633967073
40
0.295089328591199
40
0.301220893465908
40
0.313484023215324
40
0.325747152964741
40
0.344141847588867
40
0.350273412463575
40
0.362536542212992
40
0.374799671962409
40
0.393194366586534
40
0.399325931461243
40
0.41158906121066
40
0.423852190960077
40
0.442246885584202
40
0.448378450458911
40
0.460641580208328
40
0.472904709957745
40
0.49129940458187
40
0.497430969456579
40
0.509694099205996
40
0.521957228955412
40
0.540351923579538
40
0.546483488454246
40
0.558746618203663
40
0.57100974795308
40
0.589404442577205
40
0.595536007451914
40
0.607799137201331
40
0.620062266950748
40
0.638456961574874
40
0.644588526449582
40
0.656851656198999
40
0.669114785948416
40
0.687509480572541
40
0.69364104544725
40
0.705904175196666
40
0.718167304946083
40
0.736561999570209
40
0.742693564444917
40
0.754956694194334
40
0.767219823943751
40
0.785614518567877
40
0.791746083442585
40
0.804009213192002
40
0.816272342941419
40
0.834667037565544
40
0.840798602440253
40
0.853061732189666
40
0.865324861939088
40
0.883719556563213
40
0.889851121437921
40
0.902114251187338
40
0.914377380936753
40
0.932772075560883
40
0.938903640435589
40
0.951166770185005
40
0.963429899934422
40
0.981824594558548
40
0.987956159433256
40
1
40
1
40
1
40
1
41
0.999999999999999
10
100.775586541249
20
0.0099833900109445
30
0
41
0.999999999999999
10
100.770161284793
20
0.0112365669576775
30
0
41
1
10
100.721769474183
20
0.0224146132078715
30
0
41
1
10
100.587443673428
20
0.0534430306614127
30
0
41
1
10
100.372584926761
20
0.102962797442103
30
0
41
1
10
100.071787832457
20
0.172203164956699
30
0
41
1
10
99.8139929564841
20
0.231533342635316
30
0
41
1
10
99.5561923581245
20
0.290724303000872
30
0
41
1
10
99.3413341347605
20
0.339849663714063
30
0
41
1
10
99.0405378913294
20
0.408370786639523
30
0
41
1
10
98.7827436911954
20
0.466908907042921
30
0
41
1
10
98.5249434980023
20
0.525157717302307
30
0
41
1
10
98.3100854393823
20
0.573399097363108
30
0
41
1
10
98.0092892096646
20
0.640510480749669
30
0
41
1
10
97.7514948478305
20
0.697662318595434
30
0
41
1
10
97.4936944376611
20
0.754378797932077
30
0
41
1
10
97.2788361226392
20
0.80124909804789
30
0
41
1
10
96.9780393908139
20
0.866276163974817
30
0
41
1
10
96.7202445160233
20
0.921470345381068
30
0
41
1
10
96.4624435964819
20
0.976089724549013
30
0
41
1
10
96.2475849331628
20
1.02112352080008
30
0
41
1
10
95.9467879693508
20
1.08342277161248
30
0
41
1
10
95.6889932168986
20
1.1361153495061
30
0
41
1
10
95.4311927492219
20
1.1881009647729
30
0
41
1
10
95.216334625648
20
1.2308568397826
30
0
41
1
10
94.9155384915027
20
1.28981825319684
30
0
41
1
10
94.6577443545996
20
1.3394924011169
30
0
41
1
10
94.399944200603
20
1.38833184178552
30
0
41
1
10
94.1850861592193
20
1.42838632190194
30
0
41
1
10
93.8842899255838
20
1.48342307418582
30
0
41
1
10
93.626495531818
20
1.52958248794053
30
0
41
1
10
93.3686950686149
20
1.5747876148491
30
0
41
1
10
93.1538366968069
20
1.61174060395538
30
0
41
1
10
92.8530398646649
20
1.66230329133961
30
0
41
1
10
92.5952448841735
20
1.70448735880262
30
0
41
1
10
92.3374438466773
20
1.74560698534344
30
0
41
1
10
92.1225850755072
20
1.77908947555346
30
0
41
1
10
91.8217879432161
20
1.82467260671456
30
0
41
1
10
91.5639930311198
20
1.86245880407202
30
0
41
1
10
91.3061923930599
20
1.89908018009905
30
0
41
1
10
91.0913341460246
20
1.92875551103129
30
0
41
1
10
90.7905378969399
20
1.96890139906282
30
0
41
1
10
90.5327437172438
20
2.00191280703715
30
0
41
1
10
90.2749435621223
20
2.03367480406396
30
0
41
1
10
90.0600855418407
20
2.05925343996233
30
0
41
1
10
89.7592893702762
20
2.09357426223278
30
0
41
1
10
89.5014950595579
20
2.12149411195893
30
0
41
1
10
89.2436946959746
20
2.14809120134061
30
0
41
1
10
89.0288364222892
20
2.16932614995201
30
0
41
1
10
88.728039755925
20
2.19748852315684
30
0
41
1
10
88.4702449405036
20
2.22004321025437
30
0
41
1
10
88.2124440790395
20
2.24121255400147
30
0
41
1
10
87.9975854536828
20
2.25789244325677
30
0
41
1
10
87.6967885096936
20
2.27961287017976
30
0
41
1
10
87.4389937350015
20
2.2965716164413
30
0
41
1
10
87.1811932107462
20
2.31209317395334
30
0
41
1
10
86.9663349891756
20
2.3240423225113
30
0
41
1
10
86.6655386221809
20
2.33909057401024
30
0
41
1
10
86.407744218395
20
2.35027512187509
30
0
41
1
10
86.1499437821181
20
2.35999075492725
30
0
41
1
10
85.9350854902692
20
2.36709151783271
30
0
41
1
10
85.6342888938746
20
2.37532438058551
30
0
41
1
10
85.3764942103579
20
2.38063069296103
30
0
41
1
10
85.1186935050092
20
2.38444816220948
30
0
41
1
10
84.9038350527388
20
2.38663097635842
30
0
41
1
10
84.603038371397
20
2.38796552842203
30
0
41
1
10
84.3452437354893
20
2.38733969885575
30
0
41
1
10
84.0874431511119
20
2.3852226654889
30
0
41
1
10
83.8725847946685
20
2.38246955112385
30
0
41
1
10
83.5717882398117
20
2.37689968631634
30
0
41
1
10
83.3139937638404
20
2.37035346086699
30
0
41
1
10
83.0561934505637
20
2.36232475874547
30
0
41
1
10
82.841335336013
20
2.35466157263588
30
0
41
1
10
82.5405390179108
20
2.34223765608385
30
0
41
1
10
82.2827445792555
20
2.32983162299422
30
0
41
1
10
82.0249440853267
20
2.31596989748061
30
0
41
1
10
81.8100857245539
20
2.30347459593267
30
0
41
1
10
81.5092890042846
20
2.28432480991989
30
0
41
1
10
81.2514942160799
20
2.26618555939555
30
0
41
1
10
80.9936934415462
20
2.24662755889366
30
0
41
1
10
80.7788349635056
20
2.22942002584367
30
0
41
1
10
80.478038297576
20
2.20372581730359
30
0
41
1
10
80.220243718238
20
2.18002679658182
30
0
41
1
10
79.9639798748057
20
2.15511466780959
30
0
41
1
10
79.8366019094761
20
2.14222878388301
30
0
41
1
10
79.7521961236331
20
2.13347889547501
30
0
0
SPLINE
5
BE
100
AcDbEntity
8
1
62
256
6
ByLayer
370
13
48
1
60
0
100
AcDbSpline
70
4
71
3
72
79
73
75
40
0
40
0
40
0
40
0
40
0.0062634853393782
40
0.0200653813763313
40
0.0338672774132845
40
0.0545701214687139
40
0.0614710694871902
40
0.0752729655241434
40
0.0890748615610966
40
0.109777705616526
40
0.116678653635003
40
0.130480549671957
40
0.144282445708909
40
0.164985289764338
40
0.171886237782815
40
0.185688133819768
40
0.199490029856721
40
0.220192873912151
40
0.227093821930628
40
0.24089571796758
40
0.254697614004533
40
0.275400458059963
40
0.28230140607844
40
0.296103302115393
40
0.309905198152346
40
0.330608042207776
40
0.337508990226252
40
0.351310886263206
40
0.365112782300158
40
0.385815626355588
40
0.392716574374064
40
0.406518470411018
40
0.42032036644797
40
0.4410232105034
40
0.447924158521877
40
0.46172605455883
40
0.475527950595783
40
0.496230794651213
40
0.503131742669689
40
0.516933638706642
40
0.530735534743595
40
0.551438378799025
40
0.558339326817501
40
0.572141222854454
40
0.585943118891407
40
0.606645962946837
40
0.613546910965314
40
0.627348807002266
40
0.64115070303922
40
0.66185354709465
40
0.668754495113126
40
0.682556391150079
40
0.696358287187032
40
0.717061131242462
40
0.723962079260938
40
0.737763975297892
40
0.751565871334844
40
0.772268715390274
40
0.779169663408751
40
0.792971559445704
40
0.806773455482657
40
0.827476299538086
40
0.834377247556563
40
0.848179143593516
40
0.861981039630469
40
0.882683883685899
40
0.889584831704375
40
0.903386727741328
40
0.917188623778282
40
0.937891467833711
40
0.944792415852188
40
0.951693363870664
40
0.972396207926094
40
1
40
1
40
1
40
1
41
1
10
35.7786522307587
20
0.0092443679728262
30
0
41
1
10
35.7396546016983
20
0.0182531868847207
30
0
41
1
10
35.6147228173268
20
0.0471131281419446
30
0
41
1
10
35.4038339606561
20
0.0957297668782644
30
0
41
1
10
35.1030376286685
20
0.164995332425662
30
0
41
1
10
34.84524335986
20
0.224352987230162
30
0
41
1
10
34.5874431172447
20
0.283572756943073
30
0
41
1
10
34.372585030078
20
0.332722342740084
30
0
41
1
10
34.0717887893346
20
0.401278380836459
30
0
41
1
10
33.8139944576891
20
0.459848372342862
30
0
41
1
10
33.5561941214952
20
0.518132030076402
30
0
41
1
10
33.3413358772698
20
0.566404728079505
30
0
41
1
10
33.0405392315516
20
0.633564378951349
30
0
41
1
10
32.7827444103362
20
0.690762651311161
30
0
41
1
10
32.5249435171807
20
0.74753033114007
30
0
41
1
10
32.3100848543176
20
0.794446444051289
30
0
41
1
10
32.0092878432492
20
0.859543666355251
30
0
41
1
10
31.7514929934076
20
0.91480480551536
30
0
41
1
10
31.4936923731169
20
0.969497285815436
30
0
41
1
10
31.2788341135317
20
1.01459602248295
30
0
41
1
10
30.9780378092697
20
1.07699244743873
30
0
41
1
10
30.7202435530475
20
1.12977381765748
30
0
41
1
10
30.4624433115022
20
1.1818513532962
30
0
41
1
10
30.2475852200067
20
1.22468547750756
30
0
41
1
10
29.946788964695
20
1.28375953465866
30
0
41
1
10
29.6889946096212
20
1.33353374974135
30
0
41
1
10
29.431194239224
20
1.38247638553818
30
0
41
1
10
29.2163359620935
20
1.42261889397741
30
0
41
1
10
28.9155392682206
20
1.47778255421088
30
0
41
1
10
28.657744406614
20
1.52405459958922
30
0
41
1
10
28.3999434779261
20
1.5693753701716
30
0
41
1
10
28.1850847905888
20
1.60642649957893
30
0
41
1
10
27.8842877584315
20
1.65712974466237
30
0
41
1
10
27.6264929069459
20
1.69943765749565
30
0
41
1
10
27.3686923016117
20
1.74068372194006
30
0
41
1
10
27.153834060804
20
1.77427311109494
30
0
41
1
10
26.8530377870996
20
1.82000980448063
30
0
41
1
10
26.5952435595493
20
1.85793295976387
30
0
41
1
10
26.3374433453621
20
1.89469679945046
30
0
41
1
10
26.1225852742457
20
1.92449441105651
30
0
41
1
10
25.8217890397636
20
1.96481735375085
30
0
41
1
10
25.5639946919965
20
1.99798603070792
30
0
41
1
10
25.3061943168729
20
2.02990854635357
30
0
41
1
10
25.0913360343974
20
2.05562263336566
30
0
41
1
10
24.7905393385984
20
2.09013549480074
30
0
41
1
10
24.532744481486
20
2.11822170657675
30
0
41
1
10
24.2749435639235
20
2.14498528952089
30
0
41
1
10
24.0600848874348
20
2.16635860855249
30
0
41
1
10
23.7592878706474
20
2.19471325750624
30
0
41
1
10
23.5014930332679
20
2.21743043106199
30
0
41
1
10
23.2436924432971
20
2.23875909894332
30
0
41
1
10
23.0288342151156
20
2.2555693453715
30
0
41
1
10
22.7280379570026
20
2.27747066411575
30
0
41
1
10
22.4702437400503
20
2.29458577482109
30
0
41
1
10
22.2124435339333
20
2.31026796310013
30
0
41
1
10
21.9975854623369
20
2.32235405386092
30
0
41
1
10
21.6967892076215
20
2.33759955943754
30
0
41
1
10
21.4389948219396
20
2.34895887107575
30
0
41
1
10
21.1811943908502
20
2.35885302412297
30
0
41
1
10
20.9663360618969
20
2.3661045264156
30
0
41
1
10
20.665539315582
20
2.37455208705043
30
0
41
1
10
20.4077444313086
20
2.38004622040197
30
0
41
1
10
20.149943502937
20
2.3840538350654
30
0
41
1
10
19.9350848207103
20
2.38639617945242
30
0
41
1
10
19.6342877951013
20
2.38795369700688
30
0
41
1
10
19.3764929515319
20
2.38751589395631
30
0
41
1
10
19.1186923577146
20
2.38558058819999
30
0
41
1
10
18.9038341292163
20
2.38297393831164
30
0
41
1
10
18.6030378765368
20
2.37760301832938
30
0
41
1
10
18.3452436695943
20
2.37122403077891
30
0
41
1
10
18.1304231560767
20
2.36470222233228
30
0
41
1
10
17.9155512339865
20
2.35745529515341
30
0
41
1
10
17.5717432421769
20
2.3438857203582
30
0
41
1
10
17.2710189531234
20
2.32926259431318
30
0
41
1
10
17.0991818432012
20
2.31995394747219
30
0
0
SPLINE
5
BF
100
AcDbEntity
8
1
62
256
6
ByLayer
370
18
48
1
60
0
100
AcDbSpline
70
4
71
3
72
8
73
4
40
0
40
0
40
0
40
0
40
1
40
1
40
1
40
1
41
1
10
116.706529405744
20
2.38615338340205
30
0
41
1
10
116.697994121195
20
2.43354997504872
30
0
41
1
10
116.692286145544
20
2.48129059345615
30
0
41
1
10
116.690011161201
20
2.52946124475142
30
0
0
SPLINE
5
C0
100
AcDbEntity
8
1
62
256
6
ByLayer
370
18
48
1
60
0
100
AcDbSpline
70
4
71
1
72
4
73
2
40
0
40
0
40
1
40
1
41
1
10
117.235194835214
20
-1.08835304326931
30
0
41
1
10
117.240859349934
20
-1.06922996205486
30
0
0
SPLINE
5
C1
100
AcDbEntity
8
1
62
256
6
ByLayer
370
13
48
1
60
0
100
AcDbSpline
70
4
71
3
72
89
73
85
40
0
40
0
40
0
40
0
40
0.0073759406634006
40
0.0258818538431099
40
0.0320504915696793
40
0.0443877670228193
40
0.0567250424759587
40
0.075230955655668
40
0.081399593382238
40
0.0937368688353774
40
0.106074144288517
40
0.124580057468227
40
0.130748695194796
40
0.143085970647936
40
0.155423246101075
40
0.173929159280785
40
0.180097797007355
40
0.192435072460494
40
0.204772347913633
40
0.223278261093343
40
0.229446898819913
40
0.241784174273052
40
0.254121449726192
40
0.272627362905901
40
0.278796000632471
40
0.291133276085611
40
0.30347055153875
40
0.321976464718459
40
0.328145102445029
40
0.340482377898169
40
0.352819653351308
40
0.371325566531018
40
0.377494204257588
40
0.389831479710728
40
0.402168755163867
40
0.420674668343576
40
0.426843306070146
40
0.439180581523286
40
0.451517856976425
40
0.470023770156134
40
0.476192407882704
40
0.488529683335844
40
0.500866958788984
40
0.519372871968693
40
0.525541509695262
40
0.537878785148402
40
0.550216060601542
40
0.568721973781251
40
0.574890611507821
40
0.58722788696096
40
0.5995651624141
40
0.618071075593809
40
0.624239713320379
40
0.636576988773519
40
0.648914264226658
40
0.667420177406368
40
0.673588815132938
40
0.685926090586077
40
0.698263366039216
40
0.716769279218926
40
0.722937916945496
40
0.735275192398635
40
0.747612467851775
40
0.766118381031484
40
0.772287018758054
40
0.784624294211194
40
0.796961569664333
40
0.815467482844043
40
0.821636120570613
40
0.833973396023752
40
0.846310671476891
40
0.864816584656601
40
0.870985222383171
40
0.883322497836311
40
0.89565977328945
40
0.914165686469159
40
0.920334324195729
40
0.932671599648869
40
0.945008875102008
40
0.963514788281717
40
0.969683426008287
40
0.982020701461427
40
0.994357976914567
40
1
40
1
40
1
40
1
41
1
10
105.602557328103
20
-2.14707704219291
30
0
41
1
10
105.551181214828
20
-2.15225688286029
30
0
41
1
10
105.370902014679
20
-2.17015366121134
30
0
41
1
10
105.147632731333
20
-2.19111747471501
30
0
41
1
10
104.889807909367
20
-2.21397792234325
30
0
41
1
10
104.674978451236
20
-2.232134626305
30
0
41
1
10
104.374212172863
20
-2.25592367950267
30
0
41
1
10
104.116381549407
20
-2.27461486324708
30
0
41
1
10
103.858556984175
20
-2.29191048178166
30
0
41
1
10
103.643727812415
20
-2.30539096898224
30
0
41
1
10
103.342962054163
20
-2.32258225905741
30
0
41
1
10
103.085131936278
20
-2.33557792123463
30
0
41
1
10
102.827307853734
20
-2.34713927788755
30
0
41
1
10
102.612479010707
20
-2.35580813731954
30
0
41
1
10
102.311713477079
20
-2.36622233757899
30
0
41
1
10
102.053883249447
20
-2.37337921048581
30
0
41
1
10
101.796058743554
20
-2.37907189286327
30
0
41
1
10
101.581229380771
20
-2.38282337280546
30
0
41
1
10
101.28046302442
20
-2.38632925020514
30
0
41
1
10
101.022632166988
20
-2.38755845345722
30
0
41
1
10
100.764807316445
20
-2.38732055962018
30
0
41
1
10
100.549977845615
20
-2.38612227197717
30
0
41
1
10
100.249211563192
20
-2.38270354896702
30
0
41
1
10
99.9913809504618
20
-2.37801522855972
30
0
41
1
10
99.7335564050831
20
-2.37186930863831
30
0
41
1
10
99.5187272611214
20
-2.36574712873826
30
0
41
1
10
99.2179615670652
20
-2.35545214451469
30
0
41
1
10
98.9601315282973
20
-2.34489975225654
30
0
41
1
10
98.7023075418767
20
-2.33290952597156
30
0
41
1
10
98.4874787846765
20
-2.32192384105593
30
0
41
1
10
98.1867133749078
20
-2.30484938729666
30
0
41
1
10
97.9288832555185
20
-2.28852796978049
30
0
41
1
10
97.671058856992
20
-2.27079885097902
30
0
41
1
10
97.4562295765647
20
-2.25504500636322
30
0
41
1
10
97.1554633160409
20
-2.2313409508036
30
0
41
1
10
96.8976325209013
20
-2.20939944686174
30
0
41
1
10
96.6398077172553
20
-2.18610240920429
30
0
41
1
10
96.4249782721012
20
-2.16573866271551
30
0
41
1
10
96.1242119978652
20
-2.13565056869217
30
0
41
1
10
95.8663813644097
20
-2.10831987848755
30
0
41
1
10
95.608556777722
20
-2.07969804038953
30
0
41
1
10
95.3937275889435
20
-2.05493472174635
30
0
41
1
10
95.0929618167519
20
-2.01876976851906
30
0
41
1
10
94.8351316961808
20
-1.9863254765292
30
0
41
1
10
94.5773076187879
20
-1.95266504388144
30
0
41
1
10
94.3624787782537
20
-1.92374831350833
30
0
41
1
10
94.0617132380163
20
-1.88186346373644
30
0
41
1
10
93.8038829951294
20
-1.84462337381234
30
0
41
1
10
93.546058465945
20
-1.80625240589041
30
0
41
1
10
93.3312290857473
20
-1.77346322317951
30
0
41
1
10
93.0304627159595
20
-1.72626539835613
30
0
41
1
10
92.7726318576019
20
-1.684592836333
30
0
41
1
10
92.5148070147679
20
-1.64188882552182
30
0
41
1
10
92.2999775523816
20
-1.60555201378446
30
0
41
1
10
91.9992112820638
20
-1.55351161980312
30
0
41
1
10
91.7413806805347
20
-1.5078236571411
30
0
41
1
10
91.4835561468718
20
-1.46121383622099
30
0
41
1
10
91.2687270148697
20
-1.42169257617007
30
0
41
1
10
90.9679613429774
20
-1.36532937577286
30
0
41
1
10
90.7101313280884
20
-1.31608213541247
30
0
41
1
10
90.4523073686285
20
-1.26603192106055
30
0
41
1
10
90.2374786359248
20
-1.22372087973241
30
0
41
1
10
89.9367132641333
20
-1.16359790146876
30
0
41
1
10
89.6788831808583
20
-1.11128371651804
30
0
41
1
10
89.421058822022
20
-1.05829398392382
30
0
41
1
10
89.2062295652599
20
-1.01361699838202
30
0
41
1
10
88.9054633103872
20
-0.950335776610871
30
0
41
1
10
88.6476324948129
20
-0.895475613026861
30
0
41
1
10
88.3898076531023
20
-0.840070120349765
30
0
41
1
10
88.1749781696171
20
-0.793465897788565
30
0
41
1
10
87.8742118372392
20
-0.727644322019387
30
0
41
1
10
87.6163811526789
20
-0.670772143454371
30
0
41
1
10
87.3585565194166
20
-0.613491259840799
30
0
41
1
10
87.1437272893132
20
-0.565415578098168
30
0
41
1
10
86.8429614516806
20
-0.497699860668064
30
0
41
1
10
86.5851312717606
20
-0.439376828634238
30
0
41
1
10
86.3273071363124
20
-0.380788212386364
30
0
41
1
10
86.1124782578329
20
-0.331719036022946
30
0
41
1
10
85.8117126977927
20
-0.262785349256518
30
0
41
1
10
85.5538824771581
20
-0.203597171280336
30
0
41
1
10
85.2960580045615
20
-0.144292035713932
30
0
41
1
10
85.0812287223602
20
-0.0947263829779388
30
0
41
1
10
84.870063811601
20
-0.0459643114536732
30
0
41
1
10
84.7448232916947
20
-0.0170672239090948
30
0
41
1
10
84.7055214485134
20
-0.0080008774683336
30
0
0
SPLINE
5
C2
100
AcDbEntity
8
1
62
256
6
ByLayer
370
13
48
1
60
0
100
AcDbSpline
70
4
71
3
72
89
73
85
40
0
40
0
40
0
40
0
40
0.009317900862945
40
0.0277656244451653
40
0.0339148656392384
40
0.0462133480273856
40
0.0585118304155328
40
0.0769595539977526
40
0.0831087951918262
40
0.0954072775799729
40
0.107705759968121
40
0.126153483550341
40
0.132302724744414
40
0.14460120713256
40
0.156899689520708
40
0.175347413102928
40
0.181496654297001
40
0.193795136685148
40
0.206093619073295
40
0.224541342655515
40
0.230690583849589
40
0.242989066237736
40
0.255287548625883
40
0.273735272208103
40
0.279884513402177
40
0.292182995790323
40
0.30448147817847
40
0.32292920176069
40
0.329078442954764
40
0.341376925342911
40
0.353675407731058
40
0.372123131313278
40
0.378272372507351
40
0.390570854895498
40
0.402869337283645
40
0.421317060865866
40
0.427466302059939
40
0.439764784448087
40
0.452063266836233
40
0.470510990418453
40
0.476660231612527
40
0.488958714000673
40
0.50125719638882
40
0.519704919971041
40
0.525854161165114
40
0.538152643553261
40
0.550451125941408
40
0.568898849523628
40
0.575048090717702
40
0.587346573105849
40
0.599645055493996
40
0.618092779076216
40
0.624242020270289
40
0.636540502658436
40
0.648838985046582
40
0.667286708628803
40
0.673435949822877
40
0.685734432211024
40
0.69803291459917
40
0.716480638181391
40
0.722629879375464
40
0.734928361763611
40
0.747226844151758
40
0.765674567733978
40
0.771823808928052
40
0.784122291316199
40
0.796420773704346
40
0.814868497286566
40
0.821017738480639
40
0.833316220868786
40
0.845614703256933
40
0.864062426839153
40
0.870211668033227
40
0.882510150421373
40
0.894808632809521
40
0.913256356391741
40
0.919405597585815
40
0.931704079973961
40
0.944002562362108
40
0.962450285944328
40
0.968599527138402
40
0.980898009526549
40
0.993196491914696
40
1
40
1
40
1
40
1
41
1
10
40.6749998202317
20
-2.13969155240065
30
0
41
1
10
40.6098929622835
20
-2.14635040134195
30
0
41
1
10
40.4158838897559
20
-2.16581320215104
30
0
41
1
10
40.1788819620678
20
-2.18822439928957
30
0
41
1
10
39.9210572952859
20
-2.21126084945814
30
0
41
1
10
39.7062280179196
20
-2.22956654983852
30
0
41
1
10
39.4054621134599
20
-2.25356664788299
30
0
41
1
10
39.1476318840447
20
-2.27243956580719
30
0
41
1
10
38.889807719345
20
-2.28991618807686
30
0
41
1
10
38.674978836618
20
-2.30354698853216
30
0
41
1
10
38.3742133180813
20
-2.32094583528587
30
0
41
1
10
38.1163831892116
20
-2.33411454545464
30
0
41
1
10
37.8585588677446
20
-2.34584364360856
30
0
41
1
10
37.6437296767066
20
-2.35464888853167
30
0
41
1
10
37.3429635406109
20
-2.36525111295507
30
0
41
1
10
37.0851328413992
20
-2.3725699665344
30
0
41
1
10
36.8273081065686
20
-2.37843068348494
30
0
41
1
10
36.6124787056713
20
-2.38232729221244
30
0
41
1
10
36.3117124662954
20
-2.38604350181024
30
0
41
1
10
36.0538818210088
20
-2.38745837995401
30
0
41
1
10
35.7960571731423
20
-2.38740835862484
30
0
41
1
10
35.5812279194294
20
-2.38636777327528
30
0
41
1
10
35.2804620617923
20
-2.3831704106066
30
0
41
1
10
35.0226318822921
20
-2.37867099075896
30
0
41
1
10
34.7648077705568
20
-2.37271213526344
30
0
41
1
10
34.5499789260776
20
-2.36674458381233
30
0
41
1
10
34.2492134397557
20
-2.35666215691387
30
0
41
1
10
33.9913833130545
20
-2.3462863336193
30
0
41
1
10
33.7335589681557
20
-2.33446698190659
30
0
41
1
10
33.5187297506851
20
-2.32362002086029
30
0
41
1
10
33.2179635787021
20
-2.30673522302152
30
0
41
1
10
32.9601328522269
20
-2.2905741652105
30
0
41
1
10
32.7023080979978
20
-2.27300731785152
30
0
41
1
10
32.487478681389
20
-2.25739074651631
30
0
41
1
10
32.1867124181823
20
-2.23388122404529
30
0
41
1
10
31.9288817545485
20
-2.21210764075249
30
0
41
1
10
31.6710570939033
20
-2.18897823210841
30
0
41
1
10
31.4562278343438
20
-2.16875385911482
30
0
41
1
10
31.1554619760622
20
-2.13885944965952
30
0
41
1
10
30.8976318019249
20
-2.1116924699738
30
0
41
1
10
30.6398076981495
20
-2.08323190904636
30
0
41
1
10
30.4249788571576
20
-2.05860136217399
30
0
41
1
10
30.1242133641644
20
-2.02261837943672
30
0
41
1
10
29.8663832186455
20
-1.99032515375453
30
0
41
1
10
29.6085588420435
20
-1.95681123165397
30
0
41
1
10
29.39372959783
20
-1.92801365560089
30
0
41
1
10
29.0929633981268
20
-1.88629093559331
30
0
41
1
10
28.8351326590677
20
-1.84918578433124
30
0
41
1
10
28.5773079037684
20
-1.81094789391153
30
0
41
1
10
28.3624784914871
20
-1.77826868865051
30
0
41
1
10
28.0617122428456
20
-1.73122258328658
30
0
41
1
10
27.8038816026357
20
-1.68967726954375
30
0
41
1
10
27.5460569761877
20
-1.64709788086981
30
0
41
1
10
27.3312277495279
20
-1.61086321026644
30
0
41
1
10
27.0304619393936
20
-1.55896251679923
30
0
41
1
10
26.7726318056418
20
-1.51339071106011
30
0
41
1
10
26.5148077373936
20
-1.46689413507491
30
0
41
1
10
26.2999789208725
20
-1.42746531964457
30
0
41
1
10
25.9992134489658
20
-1.37122781677391
30
0
41
1
10
25.7413833050916
20
-1.32208432175696
30
0
41
1
10
25.4835589135367
20
-1.27213457353872
30
0
41
1
10
25.2687296505498
20
-1.22990512203162
30
0
41
1
10
24.9679634202949
20
-1.16989139770647
30
0
41
1
10
24.7101326525687
20
-1.11766450515338
30
0
41
1
10
24.4523078699153
20
-1.06475560810747
30
0
41
1
10
24.2374784372574
20
-1.02014152551493
30
0
41
1
10
23.9367121677878
20
-0.956940805039181
30
0
41
1
10
23.6788815202703
20
-0.902142425441042
30
0
41
1
10
23.4210568985459
20
-0.846793776647189
30
0
41
1
10
23.206227677229
20
-0.80023390566032
30
0
41
1
10
22.9054618690195
20
-0.734469767357751
30
0
41
1
10
22.647631730774
20
-0.677642852226683
30
0
41
1
10
22.3898076514025
20
-0.62040499232765
30
0
41
1
10
22.1749788240345
20
-0.572363767760834
30
0
41
1
10
21.8742133367605
20
-0.504694658819005
30
0
41
1
10
21.6163831787828
20
-0.446410894617685
30
0
41
1
10
21.3585587718677
20
-0.387861904664391
30
0
41
1
10
21.1437294962573
20
-0.338825998130432
30
0
41
1
10
20.8429632504148
20
-0.26993697671918
30
0
41
1
10
20.5851324720935
20
-0.210782424129036
30
0
41
1
10
20.3273076813723
20
-0.151503624449759
30
0
41
1
10
20.1124782491946
20
-0.101954367296145
30
0
41
1
10
19.8930736534803
20
-0.0512992629055589
30
0
41
1
10
19.7595923109539
20
-0.0205051309483508
30
0
41
1
10
19.7120499117438
20
-0.0095393254277667
30
0
0
SPLINE
5
C3
100
AcDbEntity
8
1
62
256
6
ByLayer
370
18
48
1
60
0
100
AcDbSpline
70
4
71
3
72
20
73
16
40
0
40
0
40
0
40
0
40
0.131554450200286
40
0.131554450200286
40
0.30524356016023
40
0.30524356016023
40
0.478932670120174
40
0.478932670120174
40
0.652621780080118
40
0.652621780080118
40
0.826310890040062
40
0.826310890040062
40
0.913155445020031
40
0.913155445020031
40
1
40
1
40
1
40
1
41
1
10
115.871587763318
20
0.39888947858887
30
0
41
1
10
115.907859993999
20
0.431355996304205
30
0
41
1
10
115.947658315811
20
0.472753959672559
30
0
41
1
10
116.047777286053
20
0.59040684760987
30
0
41
1
10
116.108677329501
20
0.671354894089632
30
0
41
1
10
116.235225529882
20
0.859529989727179
30
0
41
1
10
116.301747770298
20
0.968275662528015
30
0
41
1
10
116.430492745058
20
1.20418889090502
30
0
41
1
10
116.493486257466
20
1.33191444454201
30
0
41
1
10
116.608260339745
20
1.61006997032956
30
0
41
1
10
116.658638134357
20
1.75593163125015
30
0
41
1
10
116.706903474954
20
1.98766841471746
30
0
41
1
10
116.718152536827
20
2.06750894211578
30
0
41
1
10
116.725098501193
20
2.22647860121148
30
0
41
1
10
116.720919664283
20
2.30624401379845
30
0
41
1
10
116.706529405744
20
2.38615338340205
30
0
0
SPLINE
5
C4
100
AcDbEntity
8
1
62
256
6
ByLayer
370
18
48
1
60
0
100
AcDbSpline
70
4
71
3
72
8
73
4
40
0
40
0
40
0
40
0
40
1
40
1
40
1
40
1
41
1
10
117.999604653119
20
0.122830744225752
30
0
41
1
10
117.798567427513
20
0.639373917258439
30
0
41
1
10
117.60761691065
20
1.16517784102234
30
0
41
1
10
117.423701219617
20
1.699127712707
30
0
0
SPLINE
5
C5
100
AcDbEntity
8
1
62
256
6
ByLayer
370
18
48
1
60
0
100
AcDbSpline
70
4
71
3
72
8
73
4
40
0
40
0
40
0
40
0
40
1
40
1
40
1
40
1
41
1
10
115.552034417125
20
0.557891031355837
30
0
41
1
10
115.804185360037
20
0.447659223197945
30
0
41
1
10
116.058063000015
20
0.346220239600768
30
0
41
1
10
116.31384199896
20
0.254463507834771
30
0
0
SPLINE
5
C6
100
AcDbEntity
8
1
62
256
6
ByLayer
370
13
48
1
60
0
100
AcDbSpline
70
4
71
3
72
34
73
30
40
0
40
0
40
0
40
0
40
0.136332713995789
40
0.136332713995789
40
0.272665427991578
40
0.272665427991578
40
0.306748606490524
40
0.306748606490524
40
0.34083178498947
40
0.34083178498947
40
0.408998141987362
40
0.408998141987362
40
0.545330855983146
40
0.545330855983146
40
0.613497212981037
40
0.613497212981037
40
0.647580391479983
40
0.647580391479983
40
0.681663569978929
40
0.681663569978929
40
0.81799628397471
40
0.81799628397471
40
0.886162640972601
40
0.886162640972601
40
0.920245819471546
40
0.920245819471546
40
0.954328997970491
40
0.954328997970491
40
1
40
1
40
1
40
1
41
1
10
116.0071148696
20
-4.97988729378341
30
0
41
1
10
114.854094102811
20
-4.80417175345025
30
0
41
1
10
113.71310338093
20
-4.53779127670794
30
0
41
1
10
111.430754053894
20
-3.85217510366476
30
0
41
1
10
110.289315699308
20
-3.43292209104124
30
0
41
1
10
108.846541800185
20
-2.83344437980713
30
0
41
1
10
108.55732866841
20
-2.70982679672895
30
0
41
1
10
107.981760043258
20
-2.45789843487347
30
0
41
1
10
107.694791957847
20
-2.32935167189913
30
0
41
1
10
106.835729696667
20
-1.93717986116749
30
0
41
1
10
106.265524589838
20
-1.66694183658564
30
0
41
1
10
104.5578630565
20
-0.838957640567116
30
0
41
1
10
103.42324670491
20
-0.264116849504944
30
0
41
1
10
101.708669407283
20
0.594987872634647
30
0
41
1
10
101.135045682402
20
0.880868642631953
30
0
41
1
10
100.269043848317
20
1.3039673749463
30
0
41
1
10
99.9796083801707
20
1.44399325841778
30
0
41
1
10
99.4033678879509
20
1.71896891320296
30
0
41
1
10
99.1159553208952
20
1.85421725377418
30
0
41
1
10
97.6814746011672
20
2.51765232229474
30
0
41
1
10
96.5421189538561
20
3.00723982014227
30
0
41
1
10
94.8266541384434
20
3.64843320196604
30
0
41
1
10
94.2537675696486
20
3.8464975692751
30
0
41
1
10
93.3905531399084
20
4.11687520059624
30
0
41
1
10
93.1021875263012
20
4.20258724035796
30
0
41
1
10
92.5237024644304
20
4.36432363308757
30
0
41
1
10
92.234851214284
20
4.44001428958447
30
0
41
1
10
91.5610085770127
20
4.60421788042433
30
0
41
1
10
91.1763369612129
20
4.68845149732516
30
0
41
1
10
90.7923930890387
20
4.7626681415212
30
0
0
SPLINE
5
C7
100
AcDbEntity
8
1
62
256
6
ByLayer
370
18
48
1
60
0
100
AcDbSpline
70
4
71
3
72
12
73
8
40
0
40
0
40
0
40
0
40
0.0383302947866825
40
0.0383302947866825
40
0.890118842467011
40
0.890118842467011
40
1
40
1
40
1
40
1
41
1
10
54.0827858719124
20
-5.10610296703283
30
0
41
1
10
54.0569963003826
20
-5.10596997707745
30
0
41
1
10
54.0312054230348
20
-5.10578932740245
30
0
41
1
10
53.4322475360134
20
-5.10048699680129
30
0
41
1
10
52.8583616584149
20
-5.07184947765751
30
0
41
1
10
52.2079177453145
20
-5.01293323837623
30
0
41
1
10
52.133558614233
20
-5.00580810209902
30
0
41
1
10
52.0591579939761
20
-4.99829052625407
30
0
0
SPLINE
5
C8
100
AcDbEntity
8
1
62
256
6
ByLayer
370
13
48
1
60
0
100
AcDbSpline
70
4
71
3
72
36
73
32
40
0
40
0
40
0
40
0
40
0.0245532473941984
40
0.0245532473941984
40
0.05764392286554
40
0.05764392286554
40
0.190006624750905
40
0.190006624750905
40
0.32236932663627
40
0.32236932663627
40
0.355460002107612
40
0.355460002107612
40
0.388550677578955
40
0.388550677578955
40
0.454732028521639
40
0.454732028521639
40
0.587094730407008
40
0.587094730407008
40
0.620185405878351
40
0.620185405878351
40
0.653276081349694
40
0.653276081349694
40
0.719457432292378
40
0.719457432292378
40
0.85182013417775
40
0.85182013417775
40
0.918001485120435
40
0.918001485120435
40
0.98418283606312
40
0.98418283606312
40
1
40
1
40
1
40
1
41
1
10
52.059157993544
20
-4.99829052621041
30
0
41
1
10
51.8451852581388
20
-4.97667032651415
30
0
41
1
10
51.6308693612238
20
-4.95180421622103
30
0
41
1
10
51.1267664952495
20
-4.88585444481515
30
0
41
1
10
50.8362235695389
20
-4.84205517242538
30
0
41
1
10
49.3893599081242
20
-4.59583024812568
30
0
41
1
10
48.2436001761436
20
-4.31100465517625
30
0
41
1
10
45.9509089199393
20
-3.59591686850848
30
0
41
1
10
44.8040973990845
20
-3.16557148162758
30
0
41
1
10
43.3544689112231
20
-2.5581767904979
30
0
41
1
10
43.0640778676939
20
-2.43336985328219
30
0
41
1
10
42.4857642850646
20
-2.17943242432688
30
0
41
1
10
42.1972931237005
20
-2.05012244039443
30
0
41
1
10
41.333335516474
20
-1.65637688336881
30
0
41
1
10
40.7594218268715
20
-1.38590931921482
30
0
41
1
10
39.0389178905253
20
-0.560640332905962
30
0
41
1
10
37.8939417673152
20
0.0087850209498299
30
0
41
1
10
36.4497065360487
20
0.71247676301914
30
0
41
1
10
36.1602219225833
20
0.852835874547992
30
0
41
1
10
35.5795941575145
20
1.13199086793611
30
0
41
1
10
35.2895667211192
20
1.27019360767022
30
0
41
1
10
34.4222399975497
20
1.67832711304558
30
0
41
1
10
33.8467341580338
20
1.94253273142809
30
0
41
1
10
32.1233761378338
20
2.70227751766882
30
0
41
1
10
30.9790566906357
20
3.16565644199383
30
0
41
1
10
29.2509122920585
20
3.76395166575301
30
0
41
1
10
28.6727205458791
20
3.94757567159289
30
0
41
1
10
27.510498517485
20
4.27696730745706
30
0
41
1
10
26.9327895920503
20
4.42128212476536
30
0
41
1
10
26.2191016778667
20
4.57311272399195
30
0
41
1
10
26.0815372677543
20
4.60116667578231
30
0
41
1
10
25.9440547564002
20
4.62797564442661
30
0
0
SPLINE
5
C9
100
AcDbEntity
8
1
62
256
6
ByLayer
370
18
48
1
60
0
100
AcDbSpline
70
4
71
3
72
10
73
6
40
0
40
0
40
0
40
0
40
0.5
40
0.5
40
1
40
1
40
1
40
1
41
1
10
116.055202140787
20
-5.07194161892579
30
0
41
1
10
116.050657057374
20
-5.04995237203215
30
0
41
1
10
116.043812830194
20
-5.03173007877055
30
0
41
1
10
116.027448155551
20
-5.00159553248832
30
0
41
1
10
116.01777351673
20
-4.9894393129741
30
0
41
1
10
116.0071148696
20
-4.97988729378343
30
0
0
SPLINE
5
CA
100
AcDbEntity
8
1
62
256
6
ByLayer
370
18
48
1
60
0
100
AcDbSpline
70
4
71
3
72
8
73
4
40
0
40
0
40
0
40
0
40
1
40
1
40
1
40
1
41
1
10
5.49358765177971
20
-4.63506723312179
30
0
41
1
10
5.37247573088598
20
-4.60844237133668
30
0
41
1
10
5.25134584427408
20
-4.58081740972281
30
0
41
1
10
5.13018779943775
20
-4.55219143582696
30
0
0
SPLINE
5
CB
100
AcDbEntity
8
1
62
256
6
ByLayer
370
18
48
1
60
0
100
AcDbSpline
70
4
71
3
72
20
73
16
40
0
40
0
40
0
40
0
40
0.249999999999994
40
0.249999999999994
40
0.374999999999991
40
0.374999999999991
40
0.437499999999992
40
0.437499999999992
40
0.499999999999993
40
0.499999999999993
40
0.749999999999996
40
0.749999999999996
40
0.874999999999998
40
0.874999999999998
40
1
40
1
40
1
40
1
41
1
10
116.0071148696
20
-4.97988729378343
30
0
41
1
10
115.900826613858
20
-4.88463435537435
30
0
41
1
10
115.806786690599
20
-4.76198568262581
30
0
41
1
10
115.684785624087
20
-4.5353839870449
30
0
41
1
10
115.647314024088
20
-4.45270291668535
30
0
41
1
10
115.596187395545
20
-4.31731719564587
30
0
41
1
10
115.57998428754
20
-4.27022988628391
30
0
41
1
10
115.549684896661
20
-4.17331924113074
30
0
41
1
10
115.535536466795
20
-4.12336944117044
30
0
41
1
10
115.469764832112
20
-3.86620150885668
30
0
41
1
10
115.432916223872
20
-3.63693098499684
30
0
41
1
10
115.402232525446
20
-3.2563236236536
30
0
41
1
10
115.396145422309
20
-3.12254014885755
30
0
41
1
10
115.392712493427
20
-2.84734895000577
30
0
41
1
10
115.395293459637
20
-2.70568306053687
30
0
41
1
10
115.402128771216
20
-2.55998768903649
30
0
0
SPLINE
5
CC
100
AcDbEntity
8
1
62
256
6
ByLayer
370
18
48
1
60
0
100
AcDbSpline
70
4
71
3
72
10
73
6
40
0
40
0
40
0
40
0
40
0.212075347799314
40
0.212075347799314
40
1
40
1
40
1
40
1
41
1
10
16.5441686385391
20
1.27168557701157
30
0
41
1
10
16.5900670489135
20
1.3302625661205
30
0
41
1
10
16.6350412998112
20
1.39286886983018
30
0
41
1
10
16.8411607270627
20
1.70534590241252
30
0
41
1
10
16.9859451519251
20
2.00178880911187
30
0
41
1
10
17.0991818432012
20
2.31995394747216
30
0
0
SPLINE
5
CD
100
AcDbEntity
8
1
62
256
6
ByLayer
370
18
48
1
60
0
100
AcDbSpline
70
4
71
3
72
30
73
26
40
0
40
0
40
0
40
0
40
0.0969370545862132
40
0.0969370545862132
40
0.193874109172426
40
0.193874109172426
40
0.29081116375864
40
0.29081116375864
40
0.339279691051746
40
0.339279691051746
40
0.387748218344853
40
0.387748218344853
40
0.484685272931065
40
0.484685272931065
40
0.581622327517277
40
0.581622327517277
40
0.775496436689701
40
0.775496436689701
40
0.823964963982807
40
0.823964963982807
40
0.872433491275912
40
0.872433491275912
40
0.969370545862124
40
0.969370545862124
40
1
40
1
40
1
40
1
41
1
10
5.50191206130137
20
-0.318971755513559
30
0
41
1
10
6.0811638158913
20
-0.606784236250292
30
0
41
1
10
6.65999181933284
20
-0.893243869515857
30
0
41
1
10
7.81691523569697
20
-1.45525540966099
30
0
41
1
10
8.39629235729987
20
-1.73128074371175
30
0
41
1
10
9.55172794404038
20
-2.2633980816185
30
0
41
1
10
10.1284937326412
20
-2.51948748867918
30
0
41
1
10
10.9942896669336
20
-2.88500896886757
30
0
41
1
10
11.2829988081122
20
-3.00374101178781
30
0
41
1
10
11.8610376779856
20
-3.23428229532951
30
0
41
1
10
12.1506299230308
20
-3.34619601240769
30
0
41
1
10
13.0178491356767
20
-3.66920015512
30
0
41
1
10
13.5946995593305
20
-3.86766283972341
30
0
41
1
10
14.7484920181717
20
-4.22739487357441
30
0
41
1
10
15.3253892378714
20
-4.38867957266081
30
0
41
1
10
17.0615382329389
20
-4.809957278799
30
0
41
1
10
18.2119907640895
20
-5.00399095460071
30
0
41
1
10
19.6567219327495
20
-5.1276961336053
30
0
41
1
10
19.9462209258108
20
-5.14649734651653
30
0
41
1
10
20.5239920148734
20
-5.17195359524351
30
0
41
1
10
20.8125122890574
20
-5.17863562478814
30
0
41
1
10
21.6776617730328
20
-5.18056066551878
30
0
41
1
10
22.2538510158841
20
-5.15768114893339
30
0
41
1
10
23.01344573753
20
-5.09601661835933
30
0
41
1
10
23.1960010697344
20
-5.07879417422146
30
0
41
1
10
23.3786123153261
20
-5.05920151296607
30
0
0
SPLINE
5
CE
100
AcDbEntity
8
1
62
256
6
ByLayer
370
18
48
1
60
0
100
AcDbSpline
70
4
71
3
72
58
73
54
40
0
40
0
40
0
40
0
40
0.0102263594094619
40
0.0102263594094619
40
0.0350476469121799
40
0.0350476469121799
40
0.0598689344148977
40
0.0598689344148977
40
0.109511509420333
40
0.109511509420333
40
0.159154084425769
40
0.159154084425769
40
0.208796659431205
40
0.208796659431205
40
0.233617946933922
40
0.233617946933922
40
0.25843923443664
40
0.25843923443664
40
0.308081809442075
40
0.308081809442075
40
0.332903096944793
40
0.332903096944793
40
0.35772438444751
40
0.35772438444751
40
0.407366959452946
40
0.407366959452946
40
0.457009534458382
40
0.457009534458382
40
0.506652109463818
40
0.506652109463818
40
0.556294684469254
40
0.556294684469254
40
0.581115971971972
40
0.581115971971972
40
0.605937259474691
40
0.605937259474691
40
0.655579834480127
40
0.655579834480127
40
0.705222409485562
40
0.705222409485562
40
0.754864984490998
40
0.754864984490998
40
0.779686271993715
40
0.779686271993715
40
0.804507559496432
40
0.804507559496432
40
0.854150134501864
40
0.854150134501864
40
0.87897142200458
40
0.87897142200458
40
0.903792709507296
40
0.903792709507296
40
1
40
1
40
1
40
1
41
1
10
53.6088213372953
20
5.23778972915076
30
0
41
1
10
53.7274947966001
20
5.23800730401518
30
0
41
1
10
53.8462149193088
20
5.23719038612583
30
0
41
1
10
54.2532993308063
20
5.23083268277483
30
0
41
1
10
54.5420656299609
20
5.2202032886303
30
0
41
1
10
55.1183445468488
20
5.18685991988335
30
0
41
1
10
55.4061503299041
20
5.16414761427205
30
0
41
1
10
56.2691694164774
20
5.07815148606389
30
0
41
1
10
56.8439847437673
20
4.99699931436419
30
0
41
1
10
57.9958293694994
20
4.7886569955057
30
0
41
1
10
58.5733311032564
20
4.6612570787843
30
0
41
1
10
59.724271399
20
4.36510087807241
30
0
41
1
10
60.2989272911538
20
4.19625731097423
30
0
41
1
10
61.1619991334598
20
3.91447204378539
30
0
41
1
10
61.4498841998932
20
3.81580694927152
30
0
41
1
10
62.0264437071582
20
3.60947606607778
30
0
41
1
10
62.3148805294233
20
3.50186266944277
30
0
41
1
10
63.1784550776522
20
3.16770697278537
30
0
41
1
10
63.7530513499225
20
2.9296443947899
30
0
41
1
10
64.6154970373772
20
2.553271328249
30
0
41
1
10
64.903085603074
20
2.42462388782386
30
0
41
1
10
65.478927124929
20
2.16170965793808
30
0
41
1
10
65.7674566545589
20
2.02725862566842
30
0
41
1
10
66.6316800695582
20
1.61768061993968
30
0
41
1
10
67.2063437141093
20
1.33651236908293
30
0
41
1
10
68.3557665301191
20
0.763838099697836
30
0
41
1
10
68.9306122687019
20
0.472499882156626
30
0
41
1
10
70.0836446713977
20
-0.114241122078084
30
0
41
1
10
70.6586723220555
20
-0.407680246635749
30
0
41
1
10
71.8078024489099
20
-0.988296293941858
30
0
41
1
10
72.3821999444415
20
-1.27528794477681
30
0
41
1
10
73.245789338514
20
-1.69642130343061
30
0
41
1
10
73.5341930257424
20
-1.83525189118669
30
0
41
1
10
74.10979245053
20
-2.10778877494144
30
0
41
1
10
74.3972275187823
20
-2.24167532971771
30
0
41
1
10
75.2590819111564
20
-2.63505882159723
30
0
41
1
10
75.8331688180967
20
-2.88607752236064
30
0
41
1
10
76.9833144990488
20
-3.36059702733007
30
0
41
1
10
77.5601190314039
20
-3.58396513530181
30
0
41
1
10
78.7095401759665
20
-3.99443011757577
30
0
41
1
10
79.2834373632072
20
-4.18180213399
30
0
41
1
10
80.145259055866
20
-4.43329478214253
30
0
41
1
10
80.4327274731314
20
-4.51215926115143
30
0
41
1
10
81.0085024433404
20
-4.65942800819266
30
0
41
1
10
81.2966192905482
20
-4.72779415399788
30
0
41
1
10
82.1591165303087
20
-4.91594513266526
30
0
41
1
10
82.7329523187692
20
-5.01892974524537
30
0
41
1
10
83.5942430437856
20
-5.13826528549708
30
0
41
1
10
83.8814403319409
20
-5.17217843017045
30
0
41
1
10
84.4564986826355
20
-5.2280138792668
30
0
41
1
10
84.7446563607639
20
-5.24995325087653
30
0
41
1
10
86.1474875450007
20
-5.32699611511285
30
0
41
1
10
87.2568057367643
20
-5.29603740278591
30
0
41
1
10
88.3723350701351
20
-5.17393274766525
30
0
0
SPLINE
5
CF
100
AcDbEntity
8
1
62
256
6
ByLayer
370
18
48
1
60
0
100
AcDbSpline
70
4
71
3
72
18
73
14
40
0
40
0
40
0
40
0
40
0.250000000000004
40
0.250000000000004
40
0.375000000000006
40
0.375000000000006
40
0.500000000000008
40
0.500000000000008
40
0.625000000000011
40
0.625000000000011
40
0.750000000000013
40
0.750000000000013
40
1
40
1
40
1
40
1
41
1
10
117.240859349899
20
-1.06922996206561
30
0
41
1
10
117.296325511492
20
-1.03020602595168
30
0
41
1
10
117.354767682399
20
-0.973090500785787
30
0
41
1
10
117.44720430756
20
-0.862138941513649
30
0
41
1
10
117.478978490618
20
-0.820667855747047
30
0
41
1
10
117.54346116115
20
-0.730122704003094
30
0
41
1
10
117.575892420971
20
-0.681474297606997
30
0
41
1
10
117.641139856784
20
-0.577833868989757
30
0
41
1
10
117.67395595471
20
-0.522840047239839
30
0
41
1
10
117.739962507637
20
-0.40666435898811
30
0
41
1
10
117.773339718026
20
-0.345111244709045
30
0
41
1
10
117.872286432159
20
-0.154442669553021
30
0
41
1
10
117.936745539335
20
-0.0194469262486336
30
0
41
1
10
117.999604653119
20
0.122830744226036
30
0
0
SPLINE
5
D0
100
AcDbEntity
8
1
62
256
6
ByLayer
370
18
48
1
60
0
100
AcDbSpline
70
4
71
3
72
8
73
4
40
0
40
0
40
0
40
0
40
1
40
1
40
1
40
1
41
1
10
117.423701219614
20
-1.69912771271515
30
0
41
1
10
117.204092902121
20
-2.33670155041716
30
0
41
1
10
116.98592735003
20
-2.97476744391758
30
0
41
1
10
116.769211270081
20
-3.61332768055337
30
0
0
SPLINE
5
D1
100
AcDbEntity
8
1
62
256
6
ByLayer
370
18
48
1
60
0
100
AcDbSpline
70
4
71
3
72
8
73
4
40
0
40
0
40
0
40
0
40
1
40
1
40
1
40
1
41
1
10
117.999604653119
20
-0.122830744225723
30
0
41
1
10
117.797980126749
20
-0.640882922367297
30
0
41
1
10
117.607087096146
20
-1.1667160153072
30
0
41
1
10
117.423701219617
20
-1.69912771270717
30
0
0
SPLINE
5
D2
100
AcDbEntity
8
1
62
256
6
ByLayer
370
18
48
1
60
0
100
AcDbSpline
70
4
71
3
72
12
73
8
40
0
40
0
40
0
40
0
40
0.386691352938231
40
0.386691352938231
40
0.773382705876463
40
0.773382705876463
40
1
40
1
40
1
40
1
41
1
10
18.0810666101142
20
-5.07879032107357
30
0
41
1
10
18.3394270154991
20
-5.10397668419432
30
0
41
1
10
18.597191122245
20
-5.12426480803478
30
0
41
1
10
19.1118608686761
20
-5.15521335099319
30
0
41
1
10
19.3684065746251
20
-5.16594536214433
30
0
41
1
10
19.7748087521224
20
-5.17536746826531
30
0
41
1
10
19.9248297607741
20
-5.17721361313272
30
0
41
1
10
20.0747309961484
20
-5.17743154490256
30
0
0
SPLINE
5
D3
100
AcDbEntity
8
1
62
256
6
ByLayer
370
18
48
1
60
0
100
AcDbSpline
70
4
71
3
72
54
73
50
40
0
40
0
40
0
40
0
40
0.0443458627615736
40
0.0443458627615736
40
0.118689739979643
40
0.118689739979643
40
0.137275709284161
40
0.137275709284161
40
0.155861678588678
40
0.155861678588678
40
0.193033617197714
40
0.193033617197714
40
0.267377494415783
40
0.267377494415783
40
0.304549433024818
40
0.304549433024818
40
0.323135402329336
40
0.323135402329336
40
0.341721371633853
40
0.341721371633853
40
0.416065248851923
40
0.416065248851923
40
0.490409126069992
40
0.490409126069992
40
0.50899509537451
40
0.50899509537451
40
0.527581064679027
40
0.527581064679027
40
0.56475300328806
40
0.56475300328806
40
0.639096880506129
40
0.639096880506129
40
0.676268819115163
40
0.676268819115163
40
0.69485478841968
40
0.69485478841968
40
0.713440757724197
40
0.713440757724197
40
0.787784634942265
40
0.787784634942265
40
0.862128512160333
40
0.862128512160333
40
0.880714481464851
40
0.880714481464851
40
0.899300450769368
40
0.899300450769368
40
0.936472389378402
40
0.936472389378402
40
1
40
1
40
1
40
1
41
1
10
43.891438084102
20
3.48499924170716
30
0
41
1
10
44.499967429343
20
3.71432011213128
30
0
41
1
10
45.1067180289436
20
3.92513357982889
30
0
41
1
10
46.7315355388438
20
4.43217624918938
30
0
41
1
10
47.749079162463
20
4.69110488984694
30
0
41
1
10
49.0332923974772
20
4.92636891349662
30
0
41
1
10
49.2908226877447
20
4.96916083430315
30
0
41
1
10
49.8065414861883
20
5.04535682291032
30
0
41
1
10
50.063720296791
20
5.07868322526488
30
0
41
1
10
50.8332948862238
20
5.16448635335629
30
0
41
1
10
51.3441337554039
20
5.20257042450018
30
0
41
1
10
52.8734681325893
20
5.25975392483673
30
0
41
1
10
53.8879072383498
20
5.2216237877937
30
0
41
1
10
55.4167271887686
20
5.05214713882219
30
0
41
1
10
55.9273143038573
20
4.97691832871615
30
0
41
1
10
56.6963489850678
20
4.83626904535265
30
0
41
1
10
56.9533425404482
20
4.78485484168237
30
0
41
1
10
57.46863741268
20
4.67284560386827
30
0
41
1
10
57.7261935804703
20
4.61231196388692
30
0
41
1
10
59.0099303785976
20
4.29036728923137
30
0
41
1
10
60.0267670566642
20
3.9672127323667
30
0
41
1
10
62.0601000912558
20
3.21786988987566
30
0
41
1
10
63.0756293379379
20
2.79027875651829
30
0
41
1
10
64.3558686846474
20
2.20850794345148
30
0
41
1
10
64.6123889181981
20
2.08966961386241
30
0
41
1
10
65.1267345461769
20
1.84760486887856
30
0
41
1
10
65.3847958598315
20
1.72461162356842
30
0
41
1
10
66.1551860837079
20
1.35179559756426
30
0
41
1
10
66.6663089469689
20
1.09861327460081
30
0
41
1
10
68.1956619801015
20
0.331991941590587
30
0
41
1
10
69.2092925276603
20
-0.189697007632134
30
0
41
1
10
70.7351225915144
20
-0.959368444549511
30
0
41
1
10
71.2445735764496
20
-1.21389637636514
30
0
41
1
10
72.0115120307821
20
-1.58962417100474
30
0
41
1
10
72.2676350911258
20
-1.71382274203216
30
0
41
1
10
72.7813083099929
20
-1.95918257254911
30
0
41
1
10
73.0390904764937
20
-2.08097099123469
30
0
41
1
10
74.3239974101312
20
-2.67671701565624
30
0
41
1
10
75.3411419943342
20
-3.11637158995362
30
0
41
1
10
77.3725015663871
20
-3.89342564541278
30
0
41
1
10
78.3865623917106
20
-4.23109527328089
30
0
41
1
10
79.6633011484289
20
-4.57374890617092
30
0
41
1
10
79.9191960495351
20
-4.63822306166648
30
0
41
1
10
80.431958143789
20
-4.75907726156635
30
0
41
1
10
80.6894944618195
20
-4.81532694827101
30
0
41
1
10
81.4607950868198
20
-4.97044924104588
30
0
41
1
10
81.9721190191561
20
-5.05540025341949
30
0
41
1
10
83.3530149932052
20
-5.23443839536839
30
0
41
1
10
84.2195607082419
20
-5.29233437781272
30
0
41
1
10
85.0868497672232
20
-5.29444853633703
30
0
0
SPLINE
5
D4
100
AcDbEntity
8
1
62
256
6
ByLayer
370
18
48
1
60
0
100
AcDbSpline
70
4
71
3
72
16
73
12
40
0
40
0
40
0
40
0
40
0.152902493976269
40
0.152902493976269
40
0.364676870482204
40
0.364676870482204
40
0.470564058735171
40
0.470564058735171
40
0.576451246988138
40
0.576451246988138
40
1
40
1
40
1
40
1
41
1
10
108.877563130143
20
3.54541044638413
30
0
41
1
10
109.24366886214
20
3.68691194070917
30
0
41
1
10
109.610120155022
20
3.82197342309229
30
0
41
1
10
110.485840684744
20
4.12729780002209
30
0
41
1
10
110.995955266218
20
4.29082412606766
30
0
41
1
10
111.765224236054
20
4.51280091384515
30
0
41
1
10
112.022340672571
20
4.58291478471165
30
0
41
1
10
112.534602981199
20
4.71421962215661
30
0
41
1
10
112.790384638672
20
4.77535538289087
30
0
41
1
10
114.066878649236
20
5.05929243981149
30
0
41
1
10
115.082874154026
20
5.21453569900325
30
0
41
1
10
116.10232472972
20
5.29316977196564
30
0
0
SPLINE
5
D5
100
AcDbEntity
8
1
62
256
6
ByLayer
370
18
48
1
60
0
100
AcDbSpline
70
4
71
3
72
30
73
26
40
0
40
0
40
0
40
0
40
0.0770671708088453
40
0.0770671708088453
40
0.16936045372796
40
0.16936045372796
40
0.261653736647075
40
0.261653736647075
40
0.446240302485306
40
0.446240302485306
40
0.538533585404422
40
0.538533585404422
40
0.630826868323537
40
0.630826868323537
40
0.676973509783095
40
0.676973509783095
40
0.723120151242653
40
0.723120151242653
40
0.769266792702211
40
0.769266792702211
40
0.815413434161768
40
0.815413434161768
40
0.907706717080884
40
0.907706717080884
40
1
40
1
40
1
40
1
41
1
10
10.7643598373694
20
-3.67899711932441
30
0
41
1
10
10.57941280082
20
-3.74809161213196
30
0
41
1
10
10.3953260813268
20
-3.81615268462375
30
0
41
1
10
9.99284734835484
20
-3.96306060970156
30
0
41
1
10
9.77487915795828
20
-4.04134288047268
30
0
41
1
10
9.34192796170692
20
-4.19378893229549
30
0
41
1
10
9.12639388381169
20
-4.26819521751401
30
0
41
1
10
8.489226738517
20
-4.4825122274149
30
0
41
1
10
8.07708362623112
20
-4.61359723713477
30
0
41
1
10
7.48809729700929
20
-4.78034527117941
30
0
41
1
10
7.29844213101063
20
-4.83039447371829
30
0
41
1
10
6.93549936223462
20
-4.91618307422803
30
0
41
1
10
6.76216578966216
20
-4.95196995307347
30
0
41
1
10
6.51828591193649
20
-4.99085107548007
30
0
41
1
10
6.43953388628705
20
-5.0013206220392
30
0
41
1
10
6.29080592747908
20
-5.01603273499114
30
0
41
1
10
6.22054313726909
20
-5.02033380998765
30
0
41
1
10
6.08934456739286
20
-5.02185943663287
30
0
41
1
10
6.02840183313657
20
-5.01908960632039
30
0
41
1
10
5.91740745415714
20
-5.00514970789365
30
0
41
1
10
5.86775651314593
20
-4.99394699892034
30
0
41
1
10
5.74125382861337
20
-4.94704096535818
30
0
41
1
10
5.68517137583132
20
-4.89807679400059
30
0
41
1
10
5.64138590261797
20
-4.756440756133
30
0
41
1
10
5.65509916484098
20
-4.66740658851097
30
0
41
1
10
5.70268616790997
20
-4.56123818526547
30
0
0
SPLINE
5
D6
100
AcDbEntity
8
1
62
256
6
ByLayer
370
18
48
1
60
0
100
AcDbSpline
70
4
71
3
72
8
73
4
40
0
40
0
40
0
40
0
40
1
40
1
40
1
40
1
41
1
10
117.238485958002
20
-1.06683865494855
30
0
41
1
10
117.239277066408
20
-1.06763577938844
30
0
41
1
10
117.240068197071
20
-1.06843288173937
30
0
41
1
10
117.24085934999
20
-1.06922996199958
30
0
0
SPLINE
5
D7
100
AcDbEntity
8
1
62
256
6
ByLayer
370
18
48
1
60
0
100
AcDbSpline
70
4
71
3
72
8
73
4
40
0
40
0
40
0
40
0
40
1
40
1
40
1
40
1
41
1
10
117.423701219617
20
1.69912771270694
30
0
41
1
10
117.204093614037
20
2.33669948356041
30
0
41
1
10
116.98592805366
20
2.97476537064983
30
0
41
1
10
116.769211270081
20
3.61332768055326
30
0
0
SPLINE
5
D8
100
AcDbEntity
8
1
62
256
6
ByLayer
370
13
48
1
60
0
100
AcDbSpline
70
4
71
3
72
8
73
4
40
0
40
0
40
0
40
0
40
1
40
1
40
1
40
1
41
1
10
5.11742231780062
20
0.0683790398978203
30
0
41
1
10
5.12819776322092
20
0.0644148363847137
30
0
41
1
10
5.13914898580029
20
0.0605622884642969
30
0
41
1
10
5.15028270778686
20
0.0568245966656491
30
0
0
SPLINE
5
D9
100
AcDbEntity
8
1
62
256
6
ByLayer
370
18
48
1
60
0
100
AcDbSpline
70
4
71
3
72
38
73
34
40
0
40
0
40
0
40
0
40
0.103627015187522
40
0.103627015187522
40
0.15544052278128
40
0.15544052278128
40
0.207254030375039
40
0.207254030375039
40
0.310881045562556
40
0.310881045562556
40
0.414508060750073
40
0.414508060750073
40
0.466321568343834
40
0.466321568343834
40
0.518135075937594
40
0.518135075937594
40
0.569948583531355
40
0.569948583531355
40
0.621762091125116
40
0.621762091125116
40
0.673575598718877
40
0.673575598718877
40
0.725389106312637
40
0.725389106312637
40
0.777202613906398
40
0.777202613906398
40
0.829016121500159
40
0.829016121500159
40
0.932643136687676
40
0.932643136687676
40
0.984456644281432
40
0.984456644281432
40
1
40
1
40
1
40
1
41
1
10
115.552034417125
20
0.557891031355837
30
0
41
1
10
115.02725226749
20
0.820806716348699
30
0
41
1
10
114.504567599255
20
1.08029823902453
30
0
41
1
10
113.722256955715
20
1.46160012275692
30
0
41
1
10
113.461652482546
20
1.58709779574821
30
0
41
1
10
112.940895476925
20
1.83474844523744
30
0
41
1
10
112.680749891932
20
1.95692455167648
30
0
41
1
10
111.899869646875
20
2.31685706425335
30
0
41
1
10
111.379277336208
20
2.54911257123177
30
0
41
1
10
110.335776211718
20
2.99326263543995
30
0
41
1
10
109.812710553093
20
3.20538014631361
30
0
41
1
10
109.02429653703
20
3.50448798652136
30
0
41
1
10
108.760991501909
20
3.60125798783335
30
0
41
1
10
108.232658505614
20
3.78780339828333
30
0
41
1
10
107.967096775746
20
3.87786126793682
30
0
41
1
10
107.437932769479
20
4.04934459734054
30
0
41
1
10
107.174061821544
20
4.13057981339176
30
0
41
1
10
106.647747454621
20
4.28534477045562
30
0
41
1
10
106.3851810623
20
4.35868267861596
30
0
41
1
10
105.860961531472
20
4.49648287439956
30
0
41
1
10
105.599508685712
20
4.56114021981253
30
0
41
1
10
105.077088998585
20
4.68115559499878
30
0
41
1
10
104.81626684586
20
4.73674413000015
30
0
41
1
10
104.295253835055
20
4.83734898406493
30
0
41
1
10
104.034853856303
20
4.88248538537451
30
0
41
1
10
103.5143488872
20
4.964662148005
30
0
41
1
10
103.254097399211
20
5.001292012683
30
0
41
1
10
102.473029445629
20
5.09675007815207
30
0
41
1
10
101.952158874593
20
5.14185464102806
30
0
41
1
10
101.168611539304
20
5.17939892480857
30
0
41
1
10
100.906918963108
20
5.18628994068766
30
0
41
1
10
100.56621045595
20
5.18905791098206
30
0
41
1
10
100.48753694554
20
5.18929727180821
30
0
41
1
10
100.40880974781
20
5.18911845735687
30
0
0
SPLINE
5
DA
100
AcDbEntity
8
1
62
256
6
ByLayer
370
18
48
1
60
0
100
AcDbSpline
70
4
71
3
72
96
73
92
40
0
40
0
40
0
40
0
40
0.0075020980374324
40
0.0075020980374324
40
0.0268369969000722
40
0.0268369969000722
40
0.0461718957627119
40
0.0461718957627119
40
0.0848416934879916
40
0.0848416934879916
40
0.123511491213271
40
0.123511491213271
40
0.142846390075911
40
0.142846390075911
40
0.162181288938551
40
0.162181288938551
40
0.18151618780119
40
0.18151618780119
40
0.20085108666383
40
0.20085108666383
40
0.22018598552647
40
0.22018598552647
40
0.23952088438911
40
0.23952088438911
40
0.25885578325175
40
0.25885578325175
40
0.278190682114389
40
0.278190682114389
40
0.297525580977029
40
0.297525580977029
40
0.316860479839669
40
0.316860479839669
40
0.336195378702309
40
0.336195378702309
40
0.355530277564948
40
0.355530277564948
40
0.394200075290228
40
0.394200075290228
40
0.413534974152868
40
0.413534974152868
40
0.432869873015507
40
0.432869873015507
40
0.452204771878147
40
0.452204771878147
40
0.471539670740786
40
0.471539670740786
40
0.490874569603425
40
0.490874569603425
40
0.510209468466065
40
0.510209468466065
40
0.529544367328704
40
0.529544367328704
40
0.548879266191344
40
0.548879266191344
40
0.568214165053983
40
0.568214165053983
40
0.587549063916623
40
0.587549063916623
40
0.606883962779262
40
0.606883962779262
40
0.626218861641902
40
0.626218861641902
40
0.645553760504541
40
0.645553760504541
40
0.664888659367181
40
0.664888659367181
40
0.703558457092459
40
0.703558457092459
40
0.722893355955098
40
0.722893355955098
40
0.742228254817737
40
0.742228254817737
40
0.761563153680376
40
0.761563153680376
40
0.780898052543015
40
0.780898052543015
40
0.800232951405654
40
0.800232951405654
40
0.819567850268293
40
0.819567850268293
40
0.896907445718847
40
0.896907445718847
40
0.916242344581485
40
0.916242344581485
40
0.935577243444124
40
0.935577243444124
40
0.9742470411694
40
0.9742470411694
40
0.993581940032038
40
0.993581940032038
40
1
40
1
40
1
40
1
41
1
10
76.4297359982051
20
-3.50428223319355
30
0
41
1
10
76.3277721191602
20
-3.54134598640627
30
0
41
1
10
76.2258419442196
20
-3.57787832687867
30
0
41
1
10
75.8613421152636
20
-3.70657941337558
30
0
41
1
10
75.5990481705164
20
-3.79558901042157
30
0
41
1
10
75.0742216891961
20
-3.96591741279522
30
0
41
1
10
74.8119109514697
20
-4.04769813261268
30
0
41
1
10
74.0244783655743
20
-4.28078021010492
30
0
41
1
10
73.498970486402
20
-4.41928886314204
30
0
41
1
10
72.4448173868581
20
-4.66361854324731
30
0
41
1
10
71.9160564764781
20
-4.76743867868646
30
0
41
1
10
71.1185418566129
20
-4.89629995947502
30
0
41
1
10
70.8523885002927
20
-4.93448929474067
30
0
41
1
10
70.3224632966152
20
-5.00015294242422
30
0
41
1
10
70.0580077244715
20
-5.0278279622502
30
0
41
1
10
69.5301956844172
20
-5.07405642295049
30
0
41
1
10
69.2667243255225
20
-5.09236343551143
30
0
41
1
10
68.740433916714
20
-5.11826645630867
30
0
41
1
10
68.4777791869098
20
-5.12601248919088
30
0
41
1
10
67.9524798865813
20
-5.13238436497858
30
0
41
1
10
67.690024047765
20
-5.13100373629123
30
0
41
1
10
67.165282920948
20
-5.11726342677304
30
0
41
1
10
66.9028389845128
20
-5.10498630759596
30
0
41
1
10
66.377943728518
20
-5.07181560925528
30
0
41
1
10
66.1153146458958
20
-5.05051192552526
30
0
41
1
10
65.5895347609102
20
-4.99747976492566
30
0
41
1
10
65.3264914471924
20
-4.96544205455652
30
0
41
1
10
64.7993268159568
20
-4.89305951775981
30
0
41
1
10
64.5354262309299
20
-4.85228653900299
30
0
41
1
10
64.0064102809247
20
-4.76058981335302
30
0
41
1
10
63.7412150774569
20
-4.70944595478142
30
0
41
1
10
63.2096626296773
20
-4.59823001019851
30
0
41
1
10
62.9432035297148
20
-4.53839131833527
30
0
41
1
10
62.4127462550809
20
-4.40971507937235
30
0
41
1
10
62.1482378426866
20
-4.34093404891939
30
0
41
1
10
61.3558433120856
20
-4.12290669951625
30
0
41
1
10
60.8294600780855
20
-3.9624350617909
30
0
41
1
10
60.041353196228
20
-3.69805699993563
30
0
41
1
10
59.7786456867069
20
-3.60701854819396
30
0
41
1
10
59.2535917900649
20
-3.41779904495149
30
0
41
1
10
58.9911338770661
20
-3.31955431816351
30
0
41
1
10
58.4658619572751
20
-3.11683261165342
30
0
41
1
10
58.2032491780898
20
-3.01209471182551
30
0
41
1
10
57.6772643766857
20
-2.79783202115757
30
0
41
1
10
57.4140464088673
20
-2.68795276146562
30
0
41
1
10
56.8868435718
20
-2.46198811308577
30
0
41
1
10
56.6227008597275
20
-2.34658154289005
30
0
41
1
10
56.0936170832695
20
-2.11077978779787
30
0
41
1
10
55.828510511264
20
-1.99081200710862
30
0
41
1
10
55.2967447070951
20
-1.74589738216929
30
0
41
1
10
55.0302225525111
20
-1.62097320741256
30
0
41
1
10
54.4991077414093
20
-1.37010327757642
30
0
41
1
10
54.2341921114464
20
-1.24351113351051
30
0
41
1
10
53.705502057476
20
-0.988404497170677
30
0
41
1
10
53.4416144019636
20
-0.860117986650351
30
0
41
1
10
52.9145921772247
20
-0.602326372712071
30
0
41
1
10
52.651270019465
20
-0.473221719594392
30
0
41
1
10
52.1252248566889
20
-0.21418666864372
30
0
41
1
10
51.8625338931632
20
-0.0842102659426587
30
0
41
1
10
51.336919398765
20
0.174907866291591
30
0
41
1
10
51.0742513158449
20
0.304571524245546
30
0
41
1
10
50.5485796725118
20
0.562806405858282
30
0
41
1
10
50.2856292505879
20
0.691451255140436
30
0
41
1
10
49.7593638376026
20
0.947613476310352
30
0
41
1
10
49.4958435620243
20
1.0747145480054
30
0
41
1
10
48.7044850503167
20
1.45378680875933
30
0
41
1
10
48.1752326855267
20
1.70213121345733
30
0
41
1
10
47.3772397396668
20
2.06507027689119
30
0
41
1
10
47.1104749177932
20
2.18455293702365
30
0
41
1
10
46.5785002125123
20
2.41769045371743
30
0
41
1
10
46.3126072885951
20
2.53168170494951
30
0
41
1
10
45.7812995346137
20
2.75520358966679
30
0
41
1
10
45.515702784242
20
2.86438502574484
30
0
41
1
10
44.9845371032694
20
3.07577622384784
30
0
41
1
10
44.7190476486558
20
3.17855739460259
30
0
41
1
10
44.1873926417779
20
3.37807681269391
30
0
41
1
10
43.9214729761808
20
3.47500004378117
30
0
41
1
10
43.3888963981249
20
3.66111447984343
30
0
41
1
10
43.1221539410425
20
3.75012957364677
30
0
41
1
10
41.793597203326
20
4.17798063385845
30
0
41
1
10
40.740718842601
20
4.45440042982301
30
0
41
1
10
39.426081171625
20
4.70999745833831
30
0
41
1
10
39.1630612488299
20
4.75672793460814
30
0
41
1
10
38.6371234890729
20
4.84059546444618
30
0
41
1
10
38.3740685667405
20
4.87755006489044
30
0
41
1
10
37.5839686020455
20
4.97463142569853
30
0
41
1
10
37.0564440667975
20
5.02108826793912
30
0
41
1
10
36.2618644199514
20
5.05981968862824
30
0
41
1
10
35.9963608905517
20
5.06804607838447
30
0
41
1
10
35.6420052770711
20
5.07236733666906
30
0
41
1
10
35.5535720241252
20
5.07286170081616
30
0
41
1
10
35.465097290838
20
5.07277937944099
30
0
0
SPLINE
5
DB
100
AcDbEntity
8
1
62
256
6
ByLayer
370
18
48
1
60
0
100
AcDbSpline
70
4
71
3
72
18
73
14
40
0
40
0
40
0
40
0
40
0.0655159228348485
40
0.0655159228348485
40
0.131031845669697
40
0.131031845669697
40
0.262063691339394
40
0.262063691339394
40
0.524127382678789
40
0.524127382678789
40
0.786191074018183
40
0.786191074018183
40
1
40
1
40
1
40
1
41
1
10
5.13018779943792
20
-4.55219143582696
30
0
41
1
10
5.12528785199916
20
-4.57774735486908
30
0
41
1
10
5.12210171972777
20
-4.6026585969347
30
0
41
1
10
5.1189972652877
20
-4.65113631592033
30
0
41
1
10
5.11944992339065
20
-4.67470694108886
30
0
41
1
10
5.11943453339683
20
-4.74262898946739
30
0
41
1
10
5.11941859574515
20
-4.7844599620565
30
0
41
1
10
5.11935606821342
20
-4.89983062645609
30
0
41
1
10
5.11929480523017
20
-4.96328806285644
30
0
41
1
10
5.1191441425776
20
-5.06349695037045
30
0
41
1
10
5.11905462192124
20
-5.10027392941075
30
0
41
1
10
5.11887587849904
20
-5.14170727511905
30
0
41
1
10
5.11879100779367
20
-5.15074702107376
30
0
41
1
10
5.11870442802041
20
-5.15051115774409
30
0
0
SPLINE
5
DC
100
AcDbEntity
8
1
62
256
6
ByLayer
370
18
48
1
60
0
100
AcDbSpline
70
4
71
3
72
12
73
8
40
0
40
0
40
0
40
0
40
0.367558612799244
40
0.367558612799244
40
0.798965506563047
40
0.798965506563047
40
1
40
1
40
1
40
1
41
1
10
86.6657955884378
20
-5.16469016830564
30
0
41
1
10
86.4211506253725
20
-5.16446682798158
30
0
41
1
10
86.1761191363371
20
-5.15990082416826
30
0
41
1
10
85.6423730432288
20
-5.14044076277958
30
0
41
1
10
85.3530428204851
20
-5.12388757316197
30
0
41
1
10
84.9290231082173
20
-5.09086070882796
30
0
41
1
10
84.7944158457139
20
-5.07907495064859
30
0
41
1
10
84.6599650676411
20
-5.06602027102298
30
0
0
SPLINE
5
DD
100
AcDbEntity
8
1
62
256
6
ByLayer
370
13
48
1
60
0
100
AcDbSpline
70
4
71
3
72
36
73
32
40
0
40
0
40
0
40
0
40
0.116089708214763
40
0.116089708214763
40
0.247487130978643
40
0.247487130978643
40
0.280336486669613
40
0.280336486669613
40
0.313185842360583
40
0.313185842360583
40
0.378884553742524
40
0.378884553742524
40
0.510281976506405
40
0.510281976506405
40
0.543131332197375
40
0.543131332197375
40
0.575980687888345
40
0.575980687888345
40
0.641679399270285
40
0.641679399270285
40
0.773076822034166
40
0.773076822034166
40
0.838775533416106
40
0.838775533416106
40
0.871624889107075
40
0.871624889107075
40
0.904474244798045
40
0.904474244798045
40
0.970172956179985
40
0.970172956179985
40
1
40
1
40
1
40
1
41
1
10
84.659965067446
20
-5.06602027100408
30
0
41
1
10
83.6403254894298
20
-4.96701699101831
30
0
41
1
10
82.6296858151312
20
-4.79503411300269
30
0
41
1
10
80.4760729683616
20
-4.29007447207209
30
0
41
1
10
79.3331400555623
20
-3.93865011721877
30
0
41
1
10
77.8898203831438
20
-3.41208673736634
30
0
41
1
10
77.599845474377
20
-3.30220354076218
30
0
41
1
10
77.0217829097024
20
-3.07575456237595
30
0
41
1
10
76.7335323279815
20
-2.95911992831125
30
0
41
1
10
75.8705273813765
20
-2.60012385790114
30
0
41
1
10
75.2974088686651
20
-2.34879147909817
30
0
41
1
10
73.5804545890323
20
-1.56721775028095
30
0
41
1
10
72.4386341836623
20
-1.00985630456808
30
0
41
1
10
70.999814435616
20
-0.297521980479672
30
0
41
1
10
70.7114572978328
20
-0.154303642364226
30
0
41
1
10
70.1331332613976
20
0.132796365249874
30
0
41
1
10
69.8430005188475
20
0.276815109343289
30
0
41
1
10
68.9764743183574
20
0.705461960845952
30
0
41
1
10
68.4016456834603
20
0.987492124082024
30
0
41
1
10
66.6813233023704
20
1.81402729834502
30
0
41
1
10
65.53971768549
20
2.33817907818602
30
0
41
1
10
63.817102042843
20
3.05009320565497
30
0
41
1
10
63.2411165262232
20
3.27482828693809
30
0
41
1
10
62.3722863912474
20
3.58919271632396
30
0
41
1
10
62.0822042205321
20
3.68999434915332
30
0
41
1
10
61.5027071085098
20
3.88232711811455
30
0
41
1
10
61.2130079861897
20
3.97399894050912
30
0
41
1
10
60.3434705708431
20
4.23475610686603
30
0
41
1
10
59.7638357134238
20
4.38916887460681
30
0
41
1
10
58.9211874989275
20
4.58264269944738
30
0
41
1
10
58.6577032500412
20
4.63870855218761
30
0
41
1
10
58.3946544400064
20
4.69011348517313
30
0
0
SPLINE
5
DE
100
AcDbEntity
8
1
62
256
6
ByLayer
370
18
48
1
60
0
100
AcDbSpline
70
4
71
3
72
12
73
8
40
0
40
0
40
0
40
0
40
0.20369066030799
40
0.20369066030799
40
0.622800655501908
40
0.622800655501908
40
1
40
1
40
1
40
1
41
1
10
21.6014010417288
20
-5.0475977301887
30
0
41
1
10
21.461012287994
20
-5.04695722169427
30
0
41
1
10
21.3204807367145
20
-5.0449222173323
30
0
41
1
10
20.8902873236862
20
-5.03441222618093
30
0
41
1
10
20.5996746506093
20
-5.02139733250507
30
0
41
1
10
20.0477598033717
20
-4.98535170592643
30
0
41
1
10
19.7869700868279
20
-4.96352444384166
30
0
41
1
10
19.52669475561
20
-4.93707892765147
30
0
0
SPLINE
5
DF
100
AcDbEntity
8
1
62
256
6
ByLayer
370
13
48
1
60
0
100
AcDbSpline
70
4
71
3
72
20
73
16
40
0
40
0
40
0
40
0
40
0.0062111994167973
40
0.0062111994167973
40
0.254658399562599
40
0.254658399562599
40
0.3788819996355
40
0.3788819996355
40
0.440993799671949
40
0.440993799671949
40
0.5031055997084
40
0.5031055997084
40
0.7515527998542
40
0.7515527998542
40
1
40
1
40
1
40
1
41
1
10
19.5266957488611
20
-4.93707902857162
30
0
41
1
10
19.497776203825
20
-4.93414063272266
30
0
41
1
10
19.4688630092549
20
-4.93114522113785
30
0
41
1
10
18.2836787387274
20
-4.80600366147442
30
0
41
1
10
17.1370915076956
20
-4.59262017834084
30
0
41
1
10
15.4137958087898
20
-4.15240155612955
30
0
41
1
10
14.8388229644091
20
-3.98587045921002
30
0
41
1
10
13.9731119633169
20
-3.70851824674034
30
0
41
1
10
13.6840012242847
20
-3.61147844772427
30
0
41
1
10
13.1043625416531
20
-3.40857101960788
30
0
41
1
10
12.8132547362283
20
-3.30253427152431
30
0
41
1
10
11.3611444696209
20
-2.7547881938238
30
0
41
1
10
10.2124643788347
20
-2.26222414051736
30
0
41
1
10
7.91769163595472
20
-1.2144395706303
30
0
41
1
10
6.77151779906583
20
-0.659524983025932
30
0
41
1
10
5.61435911226988
20
-0.098248242879265
30
0
0
SPLINE
5
E0
100
AcDbEntity
8
1
62
256
6
ByLayer
370
18
48
1
60
0
100
AcDbSpline
70
4
71
3
72
8
73
4
40
0
40
0
40
0
40
0
40
1
40
1
40
1
40
1
41
1
10
5.70268616791003
20
-4.56123818526547
30
0
41
1
10
5.63262663736805
20
-4.58616400279607
30
0
41
1
10
5.56292695557829
20
-4.61077447799028
30
0
41
1
10
5.49358765178013
20
-4.63506723313011
30
0
0
SPLINE
5
E1
100
AcDbEntity
8
1
62
256
6
ByLayer
370
18
48
1
60
0
100
AcDbSpline
70
4
71
3
72
70
73
66
40
0
40
0
40
0
40
0
40
0.0267909768489701
40
0.0267909768489701
40
0.0535819536979401
40
0.0535819536979401
40
0.107163907395881
40
0.107163907395881
40
0.160745861093821
40
0.160745861093821
40
0.214327814791761
40
0.214327814791761
40
0.241118791640731
40
0.241118791640731
40
0.267909768489701
40
0.267909768489701
40
0.294700745338671
40
0.294700745338671
40
0.321491722187641
40
0.321491722187641
40
0.348282699036612
40
0.348282699036612
40
0.375073675885581
40
0.375073675885581
40
0.401864652734552
40
0.401864652734552
40
0.428655629583522
40
0.428655629583522
40
0.455446606432492
40
0.455446606432492
40
0.482237583281462
40
0.482237583281462
40
0.509028560130432
40
0.509028560130432
40
0.535819536979402
40
0.535819536979402
40
0.562610513828372
40
0.562610513828372
40
0.589401490677342
40
0.589401490677342
40
0.642983444375283
40
0.642983444375283
40
0.696565398073225
40
0.696565398073225
40
0.750147351771166
40
0.750147351771166
40
0.776938328620137
40
0.776938328620137
40
0.803729305469107
40
0.803729305469107
40
0.830520282318078
40
0.830520282318078
40
0.857311259167049
40
0.857311259167049
40
0.884102236016019
40
0.884102236016019
40
0.91089321286499
40
0.91089321286499
40
0.937684189713961
40
0.937684189713961
40
0.964475166562931
40
0.964475166562931
40
0.991266143411902
40
0.991266143411902
40
1
40
1
40
1
40
1
41
1
10
14.2809395045191
20
2.30886045781207
30
0
41
1
10
14.5480079254018
20
2.19380697246646
30
0
41
1
10
14.8142129221104
20
2.07652093229231
30
0
41
1
10
15.3451757106846
20
1.83807148399839
30
0
41
1
10
15.6102926638862
20
1.71764204587507
30
0
41
1
10
16.4038730402666
20
1.35139627074844
30
0
41
1
10
16.9310305630829
20
1.10155997336827
30
0
41
1
10
17.9843578967545
20
0.59601298289715
30
0
41
1
10
18.510351069312
20
0.340054322983292
30
0
41
1
10
19.5631758616865
20
-0.173634274033503
30
0
41
1
10
20.0900610527177
20
-0.43123065394002
30
0
41
1
10
20.8831894271553
20
-0.814500492644015
30
0
41
1
10
21.1479148453886
20
-0.941975347258534
30
0
41
1
10
21.6783856587874
20
-1.19559301401384
30
0
41
1
10
21.944290062921
20
-1.32144187419593
30
0
41
1
10
22.4775058443868
20
-1.57117449960754
30
0
41
1
10
22.7441975695446
20
-1.69435289176224
30
0
41
1
10
23.2756433858026
20
-1.93716823911564
30
0
41
1
10
23.5406612532829
20
-2.05656229176054
30
0
41
1
10
24.0699251384709
20
-2.29005817250098
30
0
41
1
10
24.3339652927512
20
-2.40464935989755
30
0
41
1
10
24.8615974648609
20
-2.62887028044148
30
0
41
1
10
25.1251025954564
20
-2.73858334107774
30
0
41
1
10
25.6515759657756
20
-2.95203237476366
30
0
41
1
10
25.9147845686347
20
-3.05530075103081
30
0
41
1
10
26.4408972059771
20
-3.25677356924507
30
0
41
1
10
26.7038591897345
20
-3.35510791598492
30
0
41
1
10
27.2301927938768
20
-3.54394653408477
30
0
41
1
10
27.4933736202916
20
-3.63495875646052
30
0
41
1
10
28.0205040440858
20
-3.80979433430562
30
0
41
1
10
28.2842004310002
20
-3.89439309931541
30
0
41
1
10
28.8123957333425
20
-4.05553418541291
30
0
41
1
10
29.077084748281
20
-4.13181969542535
30
0
41
1
10
29.6073012145799
20
-4.27686550744178
30
0
41
1
10
29.8729357331874
20
-4.34573198040096
30
0
41
1
10
30.4055778533609
20
-4.47514952140259
30
0
41
1
10
30.6723509629205
20
-4.53524341277222
30
0
41
1
10
31.2038227618449
20
-4.64562720730328
30
0
41
1
10
31.4688476580355
20
-4.69643790647447
30
0
41
1
10
32.2625387400361
20
-4.83546256777515
30
0
41
1
10
32.7897140956754
20
-4.90725567145998
30
0
41
1
10
33.8423098855385
20
-5.01543923939104
30
0
41
1
10
34.3677297933745
20
-5.04917901631936
30
0
41
1
10
35.4193693438737
20
-5.0793783118703
30
0
41
1
10
35.945659320945
20
-5.0738626347561
30
0
41
1
10
36.737075111253
20
-5.03724171406753
30
0
41
1
10
37.0012199532127
20
-5.02019116491687
30
0
41
1
10
37.5307815253903
20
-4.97551341418267
30
0
41
1
10
37.7959961510734
20
-4.94796135638211
30
0
41
1
10
38.3279218130846
20
-4.88373405372181
30
0
41
1
10
38.5948090626835
20
-4.84681433974927
30
0
41
1
10
39.1262669968229
20
-4.76305083739808
30
0
41
1
10
39.3914324041632
20
-4.71634481584775
30
0
41
1
10
39.9204954789374
20
-4.61421497821857
30
0
41
1
10
40.1845654629256
20
-4.5589699399226
30
0
41
1
10
40.7119240164675
20
-4.43950895608646
30
0
41
1
10
40.9751110940907
20
-4.37508401805988
30
0
41
1
10
41.5012921753754
20
-4.23848838544393
30
0
41
1
10
41.7640624503878
20
-4.16621137133362
30
0
41
1
10
42.2894707863261
20
-4.01363645389955
30
0
41
1
10
42.5522124143494
20
-3.93326475321248
30
0
41
1
10
43.0775567220375
20
-3.76484175104593
30
0
41
1
10
43.3403227647168
20
-3.67749156665539
30
0
41
1
10
43.6890081112778
20
-3.55636106969078
30
0
41
1
10
43.7747551059505
20
-3.52614157045278
30
0
41
1
10
43.8605319297614
20
-3.49552325555791
30
0
0
SPLINE
5
E2
100
AcDbEntity
8
1
62
256
6
ByLayer
370
18
48
1
60
0
100
AcDbSpline
70
4
71
3
72
96
73
92
40
0
40
0
40
0
40
0
40
0.0054402985089791
40
0.0054402985089791
40
0.024730401827169
40
0.024730401827169
40
0.0440205051453587
40
0.0440205051453587
40
0.0826007117817373
40
0.0826007117817373
40
0.121180918418116
40
0.121180918418116
40
0.140471021736305
40
0.140471021736305
40
0.159761125054494
40
0.159761125054494
40
0.179051228372683
40
0.179051228372683
40
0.198341331690873
40
0.198341331690873
40
0.217631435009062
40
0.217631435009062
40
0.236921538327251
40
0.236921538327251
40
0.25621164164544
40
0.25621164164544
40
0.275501744963629
40
0.275501744963629
40
0.294791848281818
40
0.294791848281818
40
0.314081951600007
40
0.314081951600007
40
0.333372054918195
40
0.333372054918195
40
0.352662158236383
40
0.352662158236383
40
0.371952261554572
40
0.371952261554572
40
0.39124236487276
40
0.39124236487276
40
0.429822571509137
40
0.429822571509137
40
0.449112674827326
40
0.449112674827326
40
0.468402778145515
40
0.468402778145515
40
0.487692881463704
40
0.487692881463704
40
0.506982984781894
40
0.506982984781894
40
0.526273088100083
40
0.526273088100083
40
0.545563191418272
40
0.545563191418272
40
0.564853294736461
40
0.564853294736461
40
0.58414339805465
40
0.58414339805465
40
0.622723604691029
40
0.622723604691029
40
0.642013708009217
40
0.642013708009217
40
0.661303811327406
40
0.661303811327406
40
0.699884017963783
40
0.699884017963783
40
0.73846422460016
40
0.73846422460016
40
0.757754327918349
40
0.757754327918349
40
0.777044431236538
40
0.777044431236538
40
0.796334534554727
40
0.796334534554727
40
0.815624637872916
40
0.815624637872916
40
0.834914741191106
40
0.834914741191106
40
0.854204844509295
40
0.854204844509295
40
0.873494947827484
40
0.873494947827484
40
0.892785051145673
40
0.892785051145673
40
0.912075154463862
40
0.912075154463862
40
0.931365257782051
40
0.931365257782051
40
0.96994546441843
40
0.96994546441843
40
1
40
1
40
1
40
1
41
1
10
67.9412745362768
20
5.13082688040367
30
0
41
1
10
68.0155339503928
20
5.13085544535824
30
0
41
1
10
68.0897642751818
20
5.13049277979763
30
0
41
1
10
68.4270969490814
20
5.12716647649424
30
0
41
1
10
68.6897194660397
20
5.12002542803344
30
0
41
1
10
69.2147527004079
20
5.09552693276723
30
0
41
1
10
69.477040456178
20
5.07799084007726
30
0
41
1
10
70.2634838896357
20
5.01106900714396
30
0
41
1
10
70.7875233441931
20
4.94795640774228
30
0
41
1
10
71.8374956582347
20
4.78172744373845
30
0
41
1
10
72.3631070121676
20
4.68063728789573
30
0
41
1
10
73.1548010432084
20
4.49981563468742
30
0
41
1
10
73.4193465169285
20
4.43512464398685
30
0
41
1
10
73.9493846259926
20
4.29697315496858
30
0
41
1
10
74.215437481132
20
4.22340911041496
30
0
41
1
10
74.7463700611264
20
4.06775171192839
30
0
41
1
10
75.011428525758
20
3.98566668812322
30
0
41
1
10
75.5414684991168
20
3.81477712769498
30
0
41
1
10
75.806208340611
20
3.72553800909964
30
0
41
1
10
76.3358216900772
20
3.53946221090962
30
0
41
1
10
76.6007363420039
20
3.44276675415782
30
0
41
1
10
77.1305685442043
20
3.24269899812793
30
0
41
1
10
77.3957146149432
20
3.13968471393463
30
0
41
1
10
77.9264998108665
20
2.92676487287397
30
0
41
1
10
78.192424174386
20
2.81677743400488
30
0
41
1
10
78.7224406773463
20
2.59275223448455
30
0
41
1
10
78.9866701343782
20
2.47823319018775
30
0
41
1
10
79.5142946088638
20
2.24531866343193
30
0
41
1
10
79.7775646153274
20
2.12662851745489
30
0
41
1
10
80.3032502582033
20
1.88551813284158
30
0
41
1
10
80.5658627225436
20
1.7636168845776
30
0
41
1
10
81.090376363295
20
1.5159497964635
30
0
41
1
10
81.3524409923086
20
1.39052610551536
30
0
41
1
10
81.8764954022747
20
1.13757930376761
30
0
41
1
10
82.1382842336081
20
1.00971136202986
30
0
41
1
10
82.6622701089435
20
0.752615617353712
30
0
41
1
10
82.9243643092185
20
0.622979597622191
30
0
41
1
10
83.4489149886197
20
0.362465476259501
30
0
41
1
10
83.7115198848934
20
0.231896015225629
30
0
41
1
10
84.4997973099032
20
-0.161796175524927
30
0
41
1
10
85.0273210926529
20
-0.425197734085117
30
0
41
1
10
85.8220549048233
20
-0.81867787556709
30
0
41
1
10
86.0878764385218
20
-0.949870919135321
30
0
41
1
10
86.6173229909153
20
-1.20841203380567
30
0
41
1
10
86.8814964125941
20
-1.33614104931078
30
0
41
1
10
87.408578573904
20
-1.58935083260965
30
0
41
1
10
87.671695388252
20
-1.7144327571834
30
0
41
1
10
88.1969814057295
20
-1.95988864512654
30
0
41
1
10
88.4591839238567
20
-2.08065011231406
30
0
41
1
10
88.9833394577395
20
-2.31786379924458
30
0
41
1
10
89.245055963993
20
-2.43465762887018
30
0
41
1
10
89.7685362934485
20
-2.66249840481561
30
0
41
1
10
90.0302695019531
20
-2.77372194622109
30
0
41
1
10
90.5535945980432
20
-2.99179257586073
30
0
41
1
10
90.8153514771957
20
-3.0986674278092
30
0
41
1
10
91.3391738133677
20
-3.30593938061082
30
0
41
1
10
91.6014253959656
20
-3.40559906308496
30
0
41
1
10
92.3894177501252
20
-3.69541945954259
30
0
41
1
10
92.9161696611981
20
-3.87584201908493
30
0
41
1
10
93.7098936808803
20
-4.12555290933958
30
0
41
1
10
93.9756034957954
20
-4.20547036681356
30
0
41
1
10
94.5047593903665
20
-4.35663069891061
30
0
41
1
10
94.7685856885947
20
-4.42703304964982
30
0
41
1
10
95.5585517256121
20
-4.62433381953591
30
0
41
1
10
96.0830008335663
20
-4.73812471447874
30
0
41
1
10
97.1299292108573
20
-4.92889729619804
30
0
41
1
10
97.6524849324232
20
-5.00688579278975
30
0
41
1
10
98.4366890037358
20
-5.09259976521241
30
0
41
1
10
98.6980608734578
20
-5.11619170974026
30
0
41
1
10
99.2214155205143
20
-5.15420527243109
30
0
41
1
10
99.4831905529031
20
-5.16845497947747
30
0
41
1
10
100.007605788051
20
-5.18621946856726
30
0
41
1
10
100.270320956768
20
-5.18985749514187
30
0
41
1
10
100.796324335099
20
-5.18822891103525
30
0
41
1
10
101.05983997099
20
-5.18281967991825
30
0
41
1
10
101.588309029852
20
-5.16048544431268
30
0
41
1
10
101.853585251758
20
-5.14372635802113
30
0
41
1
10
102.383403221459
20
-5.10073211475424
30
0
41
1
10
102.647868070174
20
-5.07424319818267
30
0
41
1
10
103.176662544485
20
-5.01159012331806
30
0
41
1
10
103.440941820939
20
-4.9753661441645
30
0
41
1
10
103.969247574032
20
-4.89352359440261
30
0
41
1
10
104.233478237467
20
-4.84843068942959
30
0
41
1
10
104.762018465803
20
-4.74789835291298
30
0
41
1
10
105.026481616156
20
-4.69218654904884
30
0
41
1
10
105.556160108382
20
-4.57159676995505
30
0
41
1
10
105.821401406624
20
-4.50645382026846
30
0
41
1
10
106.614567717045
20
-4.2991559351855
30
0
41
1
10
107.140696699581
20
-4.14486978238605
30
0
41
1
10
108.073852422407
20
-3.84383886982707
30
0
41
1
10
108.48157255892
20
-3.70261659930719
30
0
41
1
10
108.889028897773
20
-3.55326495785127
30
0
0
SPLINE
5
E3
100
AcDbEntity
8
1
62
256
6
ByLayer
370
18
48
1
60
0
100
AcDbSpline
70
4
71
3
72
8
73
4
40
0
40
0
40
0
40
0
40
1
40
1
40
1
40
1
41
1
10
117.999604653119
20
0.122830744225666
30
0
41
1
10
118.000131782259
20
0.0409435814085555
30
0
41
1
10
118.000131782259
20
-0.0409435814085839
30
0
41
1
10
117.999604653119
20
-0.122830744225695
30
0
0
SPLINE
5
E4
100
AcDbEntity
8
1
62
256
6
ByLayer
370
18
48
1
60
0
100
AcDbSpline
70
4
71
3
72
34
73
30
40
0
40
0
40
0
40
0
40
0.0312499999999997
40
0.0312499999999997
40
0.0624999999999993
40
0.0624999999999993
40
0.124999999999999
40
0.124999999999999
40
0.15625
40
0.15625
40
0.187500000000001
40
0.187500000000001
40
0.25
40
0.25
40
0.312499999999999
40
0.312499999999999
40
0.374999999999998
40
0.374999999999998
40
0.499999999999997
40
0.499999999999997
40
0.562499999999996
40
0.562499999999996
40
0.624999999999995
40
0.624999999999995
40
0.749999999999997
40
0.749999999999997
40
0.874999999999998
40
0.874999999999998
40
1
40
1
40
1
40
1
41
1
10
5.69258424929629
20
-4.33768152731719
30
0
41
1
10
5.72070711365427
20
-4.30236576917508
30
0
41
1
10
5.75557192624331
20
-4.26829230174496
30
0
41
1
10
5.83596631047979
20
-4.20232593412507
30
0
41
1
10
5.88192521303779
20
-4.1702130195952
30
0
41
1
10
6.02898893216167
20
-4.07934373937815
30
0
41
1
10
6.13941128110616
20
-4.02529254538368
30
0
41
1
10
6.31674225674124
20
-3.95117017573537
30
0
41
1
10
6.37770996756012
20
-3.92773463640691
30
0
41
1
10
6.50112955776345
20
-3.88362843427001
30
0
41
1
10
6.56382642870889
20
-3.8628572896771
30
0
41
1
10
6.75439131492612
20
-3.80389402631991
30
0
41
1
10
6.8847068699823
20
-3.76902343527797
30
0
41
1
10
7.1503898511113
20
-3.70668894315341
30
0
41
1
10
7.2863183745261
20
-3.67915867731227
30
0
41
1
10
7.55927862667588
20
-3.63138065117593
30
0
41
1
10
7.69632520890414
20
-3.61109478455953
30
0
41
1
10
8.1089204330749
20
-3.55992574376373
30
0
41
1
10
8.38590718083083
20
-3.53865386440682
30
0
41
1
10
8.80387764473255
20
-3.52424236289076
30
0
41
1
10
8.94362191596821
20
-3.52238085120567
30
0
41
1
10
9.22393801432187
20
-3.52447214110765
30
0
41
1
10
9.36490014920244
20
-3.52845161564164
30
0
41
1
10
9.78527110209973
20
-3.54891262490776
30
0
41
1
10
10.0624920469758
20
-3.5738326308433
30
0
41
1
10
10.6109818669426
20
-3.64458131324778
30
0
41
1
10
10.8822441431964
20
-3.69044092369808
30
0
41
1
10
11.4186064999079
20
-3.80136716960786
30
0
41
1
10
11.6846552732147
20
-3.86683509365744
30
0
41
1
10
11.9410514113434
20
-3.93854540659777
30
0
0
SPLINE
5
E5
100
AcDbEntity
8
1
62
256
6
ByLayer
370
18
48
1
60
0
100
AcDbSpline
70
4
71
3
72
10
73
6
40
0
40
0
40
0
40
0
40
0.5
40
0.5
40
1
40
1
40
1
40
1
41
1
10
116.690011161201
20
2.52946124475142
30
0
41
1
10
116.681321902029
20
2.71344812576112
30
0
41
1
10
116.688241887954
20
2.8950514875979
30
0
41
1
10
116.718029925044
20
3.25582295453486
30
0
41
1
10
116.741188852917
20
3.43494664299584
30
0
41
1
10
116.769211270081
20
3.61332768055328
30
0
0
SPLINE
5
E6
100
AcDbEntity
8
1
62
256
6
ByLayer
370
13
48
1
60
0
100
AcDbSpline
70
4
71
3
72
10
73
6
40
0
40
0
40
0
40
0
40
0.5
40
0.5
40
1
40
1
40
1
40
1
41
1
10
5.61435911226994
20
-0.0982482428792935
30
0
41
1
10
5.53371839050064
20
-0.0708691685243252
30
0
41
1
10
5.45456317273408
20
-0.0444989274023442
30
0
41
1
10
5.29940562824262
20
0.0070760667837249
30
0
41
1
10
5.22278893480404
20
0.0324835963784267
30
0
41
1
10
5.15028270778686
20
0.0568245966656207
30
0
0
SPLINE
5
E7
100
AcDbEntity
8
1
62
256
6
ByLayer
370
18
48
1
60
0
100
AcDbSpline
70
4
71
3
72
8
73
4
40
0
40
0
40
0
40
0
40
1
40
1
40
1
40
1
41
1
10
116.10232472972
20
5.29316977196567
30
0
41
1
10
116.321688986744
20
4.7540257123309
30
0
41
1
10
116.546436935491
20
4.19571071486479
30
0
41
1
10
116.769211270081
20
3.61332768055323
30
0
0
SPLINE
5
E8
100
AcDbEntity
8
1
62
256
6
ByLayer
370
18
48
1
60
0
100
AcDbSpline
70
4
71
3
72
14
73
10
40
0
40
0
40
0
40
0
40
0.499999999999998
40
0.499999999999998
40
0.624999999999999
40
0.624999999999999
40
0.749999999999999
40
0.749999999999999
40
1
40
1
40
1
40
1
41
1
10
11.9410514113434
20
-3.93854540659774
30
0
41
1
10
12.9589667775273
20
-4.2232416972227
30
0
41
1
10
13.9823329844836
20
-4.46043362979839
30
0
41
1
10
15.2667301929689
20
-4.70017399658531
30
0
41
1
10
15.5240479008126
20
-4.74524715874387
30
0
41
1
10
16.037605694387
20
-4.82917147285224
30
0
41
1
10
16.2940015608178
20
-4.86805562863196
30
0
41
1
10
17.0619935674709
20
-4.97519535793592
30
0
41
1
10
17.5723956155937
20
-5.03399752158595
30
0
41
1
10
18.0810666101143
20
-5.07879032107351
30
0
0
SPLINE
5
E9
100
AcDbEntity
8
1
62
256
6
ByLayer
370
18
48
1
60
0
100
AcDbSpline
70
4
71
3
72
16
73
12
40
0
40
0
40
0
40
0
40
0.250000000000002
40
0.250000000000002
40
0.500000000000003
40
0.500000000000003
40
0.750000000000005
40
0.750000000000005
40
0.875000000000002
40
0.875000000000002
40
1
40
1
40
1
40
1
41
1
10
117.238485958002
20
-1.06683865494858
30
0
41
1
10
117.126674843771
20
-1.08851568926585
30
0
41
1
10
117.022785787532
20
-1.06274962881406
30
0
41
1
10
116.827429757881
20
-0.936824963285886
30
0
41
1
10
116.740507750403
20
-0.839267550772291
30
0
41
1
10
116.584265287935
20
-0.591825148875245
30
0
41
1
10
116.517363385986
20
-0.445563266607195
30
0
41
1
10
116.430806908763
20
-0.201012413976457
30
0
41
1
10
116.404254783575
20
-0.115142121083323
30
0
41
1
10
116.355512209964
20
0.0648539390365102
30
0
41
1
10
116.333457126378
20
0.158591839469153
30
0
41
1
10
116.31384199896
20
0.254463507834714
30
0
0
SPLINE
5
EA
100
AcDbEntity
8
1
62
256
6
ByLayer
370
18
48
1
60
0
100
AcDbSpline
70
4
71
1
72
4
73
2
40
0
40
0
40
1
40
1
41
1
10
116.055202140775
20
-5.07194161892235
30
0
41
1
10
117.235194835232
20
-1.08835304327459
30
0
0
SPLINE
5
EB
100
AcDbEntity
8
1
62
256
6
ByLayer
370
18
48
1
60
0
100
AcDbSpline
70
4
71
3
72
8
73
4
40
0
40
0
40
0
40
0
40
1
40
1
40
1
40
1
41
1
10
116.034798782929
20
-5.18549805046402
30
0
41
1
10
116.045104723002
20
-5.14305647590388
30
0
41
1
10
116.052034047805
20
-5.10379521662938
30
0
41
1
10
116.055202140799
20
-5.07194161879633
30
0
0
SPLINE
5
EC
100
AcDbEntity
8
1
62
256
6
ByLayer
370
18
48
1
60
0
100
AcDbSpline
70
4
71
3
72
10
73
6
40
0
40
0
40
0
40
0
40
0.328014550541413
40
0.328014550541413
40
1
40
1
40
1
40
1
41
1
10
10.7555145963446
20
3.67165202087565
30
0
41
1
10
10.8878779984594
20
3.69404611372281
30
0
41
1
10
11.0195187241653
20
3.71883097332625
30
0
41
1
10
11.4186064999078
20
3.80136716960783
30
0
41
1
10
11.6846552732146
20
3.86683509365741
30
0
41
1
10
11.9410514113434
20
3.93854540659774
30
0
0
SPLINE
5
ED
100
AcDbEntity
8
1
62
256
6
ByLayer
370
18
48
1
60
0
100
AcDbSpline
70
4
71
3
72
56
73
52
40
0
40
0
40
0
40
0
40
0.0494343877267522
40
0.0494343877267522
40
0.0992674472743462
40
0.0992674472743462
40
0.14910050682194
40
0.14910050682194
40
0.174017036595737
40
0.174017036595737
40
0.198933566369534
40
0.198933566369534
40
0.248766625917129
40
0.248766625917129
40
0.273683155690927
40
0.273683155690927
40
0.298599685464724
40
0.298599685464724
40
0.348432745012319
40
0.348432745012319
40
0.398265804559914
40
0.398265804559914
40
0.423182334333712
40
0.423182334333712
40
0.448098864107509
40
0.448098864107509
40
0.497931923655103
40
0.497931923655103
40
0.5228484534289
40
0.5228484534289
40
0.547764983202696
40
0.547764983202696
40
0.59759804275029
40
0.59759804275029
40
0.647431102297884
40
0.647431102297884
40
0.697264161845478
40
0.697264161845478
40
0.722180691619275
40
0.722180691619275
40
0.747097221393071
40
0.747097221393071
40
0.846763340488256
40
0.846763340488256
40
0.94642945958344
40
0.94642945958344
40
0.971345989357236
40
0.971345989357236
40
0.996262519131032
40
0.996262519131032
40
1
40
1
40
1
40
1
41
1
10
21.1176126201021
20
5.17930773727159
30
0
41
1
10
21.6898594055585
20
5.18011786313394
30
0
41
1
10
22.2615530351418
20
5.15714301010235
30
0
41
1
10
23.4115784146518
20
5.06360756765233
30
0
41
1
10
23.9906203215913
20
4.9924405821433
30
0
41
1
10
25.1447742277088
20
4.80462099685593
30
0
41
1
10
25.7208847759396
20
4.68792411446358
30
0
41
1
10
26.5860917451362
20
4.48073577473414
30
0
41
1
10
26.8746466364457
20
4.40629854910247
30
0
41
1
10
27.452473226534
20
4.24702445084603
30
0
41
1
10
27.7418016097435
20
4.16216682148936
30
0
41
1
10
28.6079610392784
20
3.89384734695818
30
0
41
1
10
29.184033194473
20
3.69615802250237
30
0
41
1
10
30.0486754377145
20
3.37504428415428
30
0
41
1
10
30.3369619075444
20
3.26388906639522
30
0
41
1
10
30.9140605147801
20
3.03388850289534
30
0
41
1
10
31.2031365758247
20
2.91495977269358
30
0
41
1
10
32.0700637922906
20
2.54848739387873
30
0
41
1
10
32.6463015638653
20
2.29159413677638
30
0
41
1
10
33.7987199551393
20
1.7587730969918
30
0
41
1
10
34.3748172354844
20
1.48268971805572
30
0
41
1
10
35.2413940340633
20
1.05887744979893
30
0
41
1
10
35.5304498224731
20
0.916033641484148
30
0
41
1
10
36.1073843714739
20
0.629012808459834
30
0
41
1
10
36.3955582619445
20
0.484732621984648
30
0
41
1
10
37.2597906171561
20
0.0507619579474863
30
0
41
1
10
37.8354833477454
20
-0.240211710816936
30
0
41
1
10
38.7009246379012
20
-0.673978581766505
30
0
41
1
10
38.9899962804004
20
-0.818319710804786
30
0
41
1
10
39.5673817793069
20
-1.10448807226973
30
0
41
1
10
39.8556919631685
20
-1.2462737848092
30
0
41
1
10
40.7200704943047
20
-1.66660662310733
30
0
41
1
10
41.2955162266143
20
-1.94025870925873
30
0
41
1
10
42.4482346135078
20
-2.46794804144565
30
0
41
1
10
43.0264368965879
20
-2.72264418715531
30
0
41
1
10
44.1794659892903
20
-3.20273534258624
30
0
41
1
10
44.7548163292889
20
-3.42874026287976
30
0
41
1
10
45.6187005706958
20
-3.74270742500309
30
0
41
1
10
45.9067962894646
20
-3.84320683291037
30
0
41
1
10
46.4836062583546
20
-4.03536025454949
30
0
41
1
10
46.7725927925739
20
-4.12705913349612
30
0
41
1
10
48.2148533174894
20
-4.56008126701559
30
0
41
1
10
49.3630600208104
20
-4.82648067742485
30
0
41
1
10
51.6727825684334
20
-5.17433101280923
30
0
41
1
10
52.8204721598796
20
-5.25371233841224
30
0
41
1
10
54.2622931980653
20
-5.23056421478967
30
0
41
1
10
54.551106765577
20
-5.21980557988721
30
0
41
1
10
55.1274779632049
20
-5.18620203521979
30
0
41
1
10
55.4153318620721
20
-5.16335829727996
30
0
41
1
10
55.7462136707031
20
-5.13024057743712
30
0
41
1
10
55.789369242866
20
-5.12578684966721
30
0
41
1
10
55.832522567895
20
-5.12119943731673
30
0
0
SPLINE
5
EE
100
AcDbEntity
8
1
62
256
6
ByLayer
370
18
48
1
60
0
100
AcDbSpline
70
4
71
3
72
48
73
44
40
0
40
0
40
0
40
0
40
0.0792424904209785
40
0.0792424904209785
40
0.194337179118357
40
0.194337179118357
40
0.223110851292703
40
0.223110851292703
40
0.251884523467047
40
0.251884523467047
40
0.309431867815737
40
0.309431867815737
40
0.338205539990082
40
0.338205539990082
40
0.366979212164426
40
0.366979212164426
40
0.424526556513114
40
0.424526556513114
40
0.482073900861801
40
0.482073900861801
40
0.539621245210488
40
0.539621245210488
40
0.568394917384832
40
0.568394917384832
40
0.597168589559176
40
0.597168589559176
40
0.654715933907863
40
0.654715933907863
40
0.71226327825655
40
0.71226327825655
40
0.769810622605237
40
0.769810622605237
40
0.827357966953925
40
0.827357966953925
40
0.856131639128269
40
0.856131639128269
40
0.884905311302615
40
0.884905311302615
40
0.942452655651306
40
0.942452655651306
40
0.971226327825653
40
0.971226327825653
40
1
40
1
40
1
40
1
41
1
10
86.1211981957604
20
5.29628914692913
30
0
41
1
10
86.911887059427
20
5.29718220078905
30
0
41
1
10
87.7016204316762
20
5.25168357537737
30
0
41
1
10
89.6466265198634
20
5.02726433935959
30
0
41
1
10
90.791300103414
20
4.79888333201299
30
0
41
1
10
92.2292850989777
20
4.4069386502066
30
0
41
1
10
92.5173431205446
20
4.32316437794054
30
0
41
1
10
93.0921731261886
20
4.14607043489812
30
0
41
1
10
93.3792191509953
20
4.05265789371376
30
0
41
1
10
94.2400511178549
20
3.75887890931054
30
0
41
1
10
94.8135306294126
20
3.54498980664812
30
0
41
1
10
95.6753246421774
20
3.2001175695236
30
0
41
1
10
95.9631192078976
20
3.08104636831726
30
0
41
1
10
96.5383741935821
20
2.83604466966091
30
0
41
1
10
96.825557201801
20
2.71021084458369
30
0
41
1
10
97.6865814068443
20
2.32411782871421
30
0
41
1
10
98.2598098918278
20
2.05512283002531
30
0
41
1
10
99.407823531704
20
1.49949922358934
30
0
41
1
10
99.9837911298633
20
1.21235586536531
30
0
41
1
10
101.132321432692
20
0.630763720139157
30
0
41
1
10
101.705448811761
20
0.336169131196215
30
0
41
1
10
102.565865193219
20
-0.106681989958787
30
0
41
1
10
102.852791073906
20
-0.254459749167836
30
0
41
1
10
103.427294626572
20
-0.54953504996962
30
0
41
1
10
103.715132265411
20
-0.696974950772102
30
0
41
1
10
104.577029089037
20
-1.1355997854605
30
0
41
1
10
105.150180853698
20
-1.42347488880679
30
0
41
1
10
106.29682930062
20
-1.98407746607918
30
0
41
1
10
106.87063204806
20
-2.25686097447078
30
0
41
1
10
108.020774980615
20
-2.78063763795404
30
0
41
1
10
108.594003233132
20
-3.03027124353187
30
0
41
1
10
109.740258523525
20
-3.49954092767993
30
0
41
1
10
110.313311920089
20
-3.7191460738774
30
0
41
1
10
111.175175811575
20
-4.02236590664305
30
0
41
1
10
111.462743562931
20
-4.11902547953076
30
0
41
1
10
112.036061583575
20
-4.30209308068041
30
0
41
1
10
112.322186371235
20
-4.38863024264617
30
0
41
1
10
113.179582254275
20
-4.63266704299238
30
0
41
1
10
113.74986805218
20
-4.77459122315295
30
0
41
1
10
114.605808160046
20
-4.95413781591668
30
0
41
1
10
114.891203433681
20
-5.00843610720094
30
0
41
1
10
115.46251667637
20
-5.10561514092973
30
0
41
1
10
115.74825485273
20
-5.14858441901458
30
0
41
1
10
116.034798782929
20
-5.18549805046396
30
0
0
SPLINE
5
EF
100
AcDbEntity
8
1
62
256
6
ByLayer
370
18
48
1
60
0
100
AcDbSpline
70
4
71
3
72
34
73
30
40
0
40
0
40
0
40
0
40
0.0150594682078946
40
0.0150594682078946
40
0.0971378458572369
40
0.0971378458572369
40
0.138177034681908
40
0.138177034681908
40
0.179216223506579
40
0.179216223506579
40
0.343372978805264
40
0.343372978805264
40
0.384412167629935
40
0.384412167629935
40
0.425451356454606
40
0.425451356454606
40
0.507529734103948
40
0.507529734103948
40
0.548568922928619
40
0.548568922928619
40
0.589608111753291
40
0.589608111753291
40
0.671686489402632
40
0.671686489402632
40
0.753764867051974
40
0.753764867051974
40
0.835843244701316
40
0.835843244701316
40
1
40
1
40
1
40
1
41
1
10
5.11870421883694
20
5.15051056984427
30
0
41
1
10
5.11868474766294
20
5.15045416778005
30
0
41
1
10
5.11866519017144
20
5.14992867709179
30
0
41
1
10
5.11853869128453
20
5.14353540976359
30
0
41
1
10
5.11843017446569
20
5.12429695507848
30
0
41
1
10
5.11827144422119
20
5.07447773028284
30
0
41
1
10
5.11821919658453
20
5.05436735541534
30
0
41
1
10
5.11811699083276
20
5.00697193381873
30
0
41
1
10
5.1180671791025
20
4.97972082440569
30
0
41
1
10
5.11782930946646
20
4.8275187688763
30
0
41
1
10
5.11767310402652
20
4.65431731023844
30
0
41
1
10
5.11753610405248
20
4.3731060464479
30
0
41
1
10
5.11751150889239
20
4.31338375839059
30
0
41
1
10
5.11746868911581
20
4.18891819009494
30
0
41
1
10
5.11745037464306
20
4.12404334219923
30
0
41
1
10
5.11740421174878
20
3.92165169436146
30
0
41
1
10
5.11738519001972
20
3.77639855554793
30
0
41
1
10
5.11737147788671
20
3.54308750826897
30
0
41
1
10
5.11736936618871
20
3.46273754651872
30
0
41
1
10
5.1173694420514
20
3.29679248340568
30
0
41
1
10
5.11737164457276
20
3.21091713607817
30
0
41
1
10
5.11738348828612
20
2.94725758857734
30
0
41
1
10
5.11739827051576
20
2.76465537944202
30
0
41
1
10
5.11743305341975
20
2.38626423124955
30
0
41
1
10
5.11745307759591
20
2.19047413990185
30
0
41
1
10
5.11748875131735
20
1.78552011929361
30
0
41
1
10
5.11750440814382
20
1.57494407837334
30
0
41
1
10
5.11752735419702
20
0.939815461793103
30
0
41
1
10
5.11751158171617
20
0.508211779185245
30
0
41
1
10
5.11742231782677
20
0.0683790398990993
30
0
0
SPLINE
5
F0
100
AcDbEntity
8
1
62
256
6
ByLayer
370
18
48
1
60
0
100
AcDbSpline
70
4
71
3
72
8
73
4
40
0
40
0
40
0
40
0
40
1
40
1
40
1
40
1
41
1
10
116.10232472972
20
-5.29316977196564
30
0
41
1
10
116.07722445564
20
-5.26659558115139
30
0
41
1
10
116.054735912446
20
-5.23063005115949
30
0
41
1
10
116.034798782929
20
-5.18549805046402
30
0
0
SPLINE
5
F1
100
AcDbEntity
8
1
62
256
6
ByLayer
370
13
48
1
60
0
100
AcDbSpline
70
4
71
3
72
25
73
21
40
0
40
0
40
0
40
0
40
0.0208269079863581
40
0.108596436582877
40
0.137852946115052
40
0.196365965179398
40
0.254878984243745
40
0.342648512840264
40
0.371905022372436
40
0.430418041436783
40
0.48893106050113
40
0.576700589097648
40
0.605957098629823
40
0.66447011769417
40
0.722983136758514
40
0.810752665355036
40
0.840009174887208
40
0.898522193951554
40
0.957035213015901
40
1
40
1
40
1
40
1
41
1
10
116.706529405758
20
2.38615338340216
30
0
41
1
10
116.675940100671
20
2.38590451981989
30
0
41
1
10
116.516442150524
20
2.38444823111345
30
0
41
1
10
116.313992697896
20
2.38156358111726
30
0
41
1
10
116.056192045282
20
2.37639588283526
30
0
41
1
10
115.8413337824
20
2.37110348140206
30
0
41
1
10
115.540537521829
20
2.36198122197334
30
0
41
1
10
115.282743343725
20
2.3523921807305
30
0
41
1
10
115.024943203965
20
2.34133285593043
30
0
41
1
10
114.810085183725
20
2.33115851891427
30
0
41
1
10
114.509288969336
20
2.31523942107123
30
0
41
1
10
114.251494583368
20
2.29985533542762
30
0
41
1
10
113.993694117137
20
2.28303693330963
30
0
41
1
10
113.778835759248
20
2.26809728759065
30
0
41
1
10
113.478038999449
20
2.24555496102997
30
0
41
1
10
113.220244131343
20
2.22453509389857
30
0
41
1
10
112.962443244838
20
2.20212558640679
30
0
41
1
10
112.747584603613
20
2.1825663117186
30
0
41
1
10
112.512595362879
20
2.15994838335621
30
0
41
1
10
112.363560618406
20
2.14494204032371
30
0
41
1
10
112.300461544845
20
2.13846925058496
30
0
0
SPLINE
5
F2
100
AcDbEntity
8
1
62
256
6
ByLayer
370
13
48
1
60
0
100
AcDbSpline
70
4
71
3
72
89
73
85
40
0
40
0
40
0
40
0
40
0.0061609939183435
40
0.0245543272920145
40
0.0306854384165727
40
0.042947660665686
40
0.0552098829148004
40
0.0736032162884698
40
0.0797343274130281
40
0.0919965496621414
40
0.104258771911255
40
0.122652105284926
40
0.128783216409483
40
0.141045438658596
40
0.153307660907711
40
0.17170099428138
40
0.177832105405938
40
0.190094327655052
40
0.202356549904165
40
0.220749883277836
40
0.226880994402393
40
0.239143216651507
40
0.25140543890062
40
0.269798772274291
40
0.275929883398848
40
0.288192105647961
40
0.300454327897075
40
0.318847661270747
40
0.324978772395303
40
0.337240994644416
40
0.34950321689353
40
0.367896550267201
40
0.374027661391758
40
0.386289883640871
40
0.398552105889985
40
0.416945439263657
40
0.423076550388213
40
0.435338772637327
40
0.447600994886439
40
0.465994328260111
40
0.472125439384668
40
0.484387661633782
40
0.496649883882895
40
0.515043217256566
40
0.521174328381123
40
0.533436550630236
40
0.54569877287935
40
0.564092106253021
40
0.570223217377578
40
0.582485439626692
40
0.594747661875805
40
0.613140995249476
40
0.619272106374033
40
0.631534328623147
40
0.64379655087226
40
0.662189884245931
40
0.668320995370488
40
0.680583217619602
40
0.692845439868715
40
0.711238773242386
40
0.717369884366943
40
0.729632106616056
40
0.74189432886517
40
0.760287662238841
40
0.766418773363398
40
0.778680995612512
40
0.790943217861625
40
0.809336551235296
40
0.815467662359853
40
0.827729884608967
40
0.83999210685808
40
0.858385440231751
40
0.864516551356308
40
0.876778773605422
40
0.889040995854537
40
0.907434329228206
40
0.913565440352763
40
0.925827662601876
40
0.938089884850989
40
0.956483218224661
40
0.962614329349218
40
0.97487655159833
40
0.987138773847445
40
1
40
1
40
1
40
1
41
1
10
68.2755505253088
20
0.0099411248596653
30
0
41
1
10
68.2323705630139
20
0.0198991957122132
30
0
41
1
10
68.0602814878596
20
0.0595914811780461
30
0
41
1
10
67.845243348077
20
0.109242298337961
30
0
41
1
10
67.5874429838489
20
0.1686987249212
30
0
41
1
10
67.3725848041046
20
0.218092807674196
30
0
41
1
10
67.0717884245619
20
0.287074013693541
30
0
41
1
10
66.8139940018766
20
0.346094878206799
30
0
41
1
10
66.5561936308421
20
0.404902196657702
30
0
41
1
10
66.3413354293032
20
0.453658876203008
30
0
41
1
10
66.0405389759108
20
0.521578961934751
30
0
41
1
10
65.7827444232189
20
0.579514631239477
30
0
41
1
10
65.5249438454703
20
0.637089690563613
30
0
41
1
10
65.3100854122945
20
0.684723631439141
30
0
41
1
10
65.0092885771195
20
0.750904615203297
30
0
41
1
10
64.7514937007469
20
0.807176422161632
30
0
41
1
10
64.4936928695166
20
0.862945891243186
30
0
41
1
10
64.2788343900006
20
0.908984195647804
30
0
41
1
10
63.9780378083894
20
0.972770643843234
30
0
41
1
10
63.7202433682953
20
1.02682190639814
30
0
41
1
10
63.4624430301774
20
1.08023322369834
30
0
41
1
10
63.2475848690914
20
1.12421905807011
30
0
41
1
10
62.9467885075552
20
1.18497757867561
30
0
41
1
10
62.688994087009
20
1.23627184802612
30
0
41
1
10
62.4311937023583
20
1.28679607196909
30
0
41
1
10
62.216335477314
20
1.32829470187747
30
0
41
1
10
61.9155389728712
20
1.38542530463977
30
0
41
1
10
61.6577443634273
20
1.43345549635831
30
0
41
1
10
61.3999437257456
20
1.48059136803968
30
0
41
1
10
61.1850852457032
20
1.5191896688761
30
0
41
1
10
60.8842883597546
20
1.57212163553297
30
0
41
1
10
60.626493461045
20
1.61640653256441
30
0
41
1
10
60.368692631941
20
1.65968152554334
30
0
41
1
10
60.1538341652884
20
1.6949925004071
30
0
41
1
10
59.8530376112548
20
1.74319582206869
30
0
41
1
10
59.5952432003011
20
1.78329370100355
30
0
41
1
10
59.3374428885415
20
1.82227864286307
30
0
41
1
10
59.1225847511034
20
1.85395402862986
30
0
41
1
10
58.821788426378
20
1.89695587384077
30
0
41
1
10
58.5639940357868
20
1.93247494184928
30
0
41
1
10
58.3061936742623
20
1.96678866695098
30
0
41
1
10
58.0913354595439
20
1.99451825274744
30
0
41
1
10
57.7905389528559
20
2.0318961717696
30
0
41
1
10
57.5327443279973
20
2.06248576091068
30
0
41
1
10
57.2749436682196
20
2.09178774356647
30
0
41
1
10
57.0600851725805
20
2.11529512977154
30
0
41
1
10
56.7592882796789
20
2.14667412797706
30
0
41
1
10
56.5014933936151
20
2.1720245734119
30
0
41
1
10
56.2436925971477
20
2.19601573438331
30
0
41
1
10
56.0288341622983
20
2.21505930174666
30
0
41
1
10
55.7280376477866
20
2.24011642789608
30
0
41
1
10
55.4702432619758
20
2.25996940771583
30
0
41
1
10
55.2124429621375
20
2.27841105039465
30
0
41
1
10
54.997584831934
20
2.29280597107567
30
0
41
1
10
54.6967885157941
20
2.31130404815519
30
0
41
1
10
54.4389941260786
20
2.32547509578313
30
0
41
1
10
54.181193756092
20
2.33819490898031
30
0
41
1
10
53.9663355225383
20
2.3478052248972
30
0
41
1
10
53.665538967688
20
2.35956689669615
30
0
41
1
10
53.4077442847725
20
2.3679174255729
30
0
41
1
10
53.1499435598274
20
2.37478907160991
30
0
41
1
10
52.9350850147164
20
2.37951805544211
30
0
41
1
10
52.634288074671
20
2.38442168155669
30
0
41
1
10
52.376493175968
20
2.38686069037078
30
0
41
1
10
52.118692396351
20
2.38780390009205
30
0
41
1
10
51.9038339848441
20
2.3875919171127
30
0
41
1
10
51.6030375045903
20
2.38557066389851
30
0
41
1
10
51.3452431462075
20
2.38206284290882
30
0
41
1
10
51.0874428652414
20
2.37706657367068
30
0
41
1
10
50.8725847523922
20
2.37192146876689
30
0
41
1
10
50.5717884681392
20
2.3630120137168
30
0
41
1
10
50.3139941082049
20
2.35361047680976
30
0
41
1
10
50.0561937650732
20
2.34273971091997
30
0
41
1
10
49.841335545316
20
2.33272227400406
30
0
41
1
10
49.5405389910574
20
2.31702165820573
30
0
41
1
10
49.2827442928663
20
2.30182260269811
30
0
41
1
10
49.0249435433551
20
2.28518555008796
30
0
41
1
10
48.8100849815161
20
2.27039405743457
30
0
41
1
10
48.5092880369175
20
2.24805289277754
30
0
41
1
10
48.2514931562094
20
2.22719781024833
30
0
41
1
10
47.9936924168066
20
2.20494510257998
30
0
41
1
10
47.7788340415343
20
2.18551083325104
30
0
41
1
10
47.5168103017006
20
2.16043841279071
30
0
41
0.999999999999999
10
47.3407458547678
20
2.14266745568111
30
0
41
1
10
47.2506153438989
20
2.13332668805535
30
0
0
SPLINE
5
F3
100
AcDbEntity
8
1
62
256
6
ByLayer
370
13
48
1
60
0
100
AcDbSpline
70
4
71
3
72
90
73
86
40
0
40
0
40
0
40
0
40
0.0015157016489604
40
0.0076787851109765
40
0.0200049520350065
40
0.0323311189590392
40
0.0508203693450858
40
0.0569834528071035
40
0.0693096197311351
40
0.0816357866551684
40
0.100125037041215
40
0.106288120503231
40
0.118614287427263
40
0.130940454351294
40
0.149429704737344
40
0.155592788199359
40
0.16791895512339
40
0.180245122047423
40
0.198734372433469
40
0.204897455895486
40
0.217223622819518
40
0.22954978974355
40
0.248039040129595
40
0.254202123591613
40
0.266528290515645
40
0.278854457439676
40
0.297343707825724
40
0.30350679128774
40
0.315832958211772
40
0.328159125135802
40
0.346648375521851
40
0.352811458983868
40
0.3651376259079
40
0.377463792831932
40
0.395953043217978
40
0.402116126679995
40
0.414442293604027
40
0.426768460528059
40
0.445257710914107
40
0.451420794376122
40
0.463746961300154
40
0.476073128224187
40
0.494562378610233
40
0.50072546207225
40
0.513051628996282
40
0.525377795920313
40
0.543867046306361
40
0.550030129768377
40
0.56235629669241
40
0.574682463616441
40
0.593171714002489
40
0.599334797464505
40
0.611660964388535
40
0.623987131312568
40
0.642476381698617
40
0.648639465160632
40
0.660965632084664
40
0.673291799008696
40
0.691781049394743
40
0.697944132856759
40
0.710270299780791
40
0.722596466704822
40
0.741085717090871
40
0.747248800552887
40
0.759574967476919
40
0.771901134400949
40
0.790390384786998
40
0.796553468249014
40
0.808879635173046
40
0.821205802097077
40
0.839695052483125
40
0.845858135945141
40
0.858184302869172
40
0.870510469793205
40
0.888999720179252
40
0.895162803641268
40
0.907488970565301
40
0.919815137489332
40
0.93830438787538
40
0.944467471337396
40
0.956793638261428
40
0.969119805185459
40
0.987609055571506
40
0.993772139033524
40
1
40
1
40
1
40
1
41
1
10
73.1246449018372
20
-2.14482546697297
30
0
41
1
10
73.1140769142909
20
-2.14589733226879
30
0
41
1
10
73.0605378553498
20
-2.15131077903899
30
0
41
1
10
72.9210576319201
20
-2.16519195335692
30
0
41
1
10
72.7062282983925
20
-2.18570386665658
30
0
41
1
10
72.4054621851634
20
-2.21282122567658
30
0
41
1
10
72.147631678212
20
-2.23438976020677
30
0
41
1
10
71.889807199449
20
-2.25458453048665
30
0
41
1
10
71.674978080755
20
-2.27049912790901
30
0
41
1
10
71.3742123530209
20
-2.29111999652145
30
0
41
1
10
71.1163822033287
20
-2.3070701905803
30
0
41
1
10
70.8585580350155
20
-2.32159993846508
30
0
41
1
10
70.6437290287216
20
-2.33275529616918
30
0
41
1
10
70.3429631590811
20
-2.34666626953401
30
0
41
1
10
70.0851326675245
20
-2.35683272139781
30
0
41
1
10
69.8273080739308
20
-2.36555102202348
30
0
41
1
10
69.6124787834622
20
-2.37183864000136
30
0
41
1
10
69.3117127012833
20
-2.37890902051004
30
0
41
1
10
69.0538821549768
20
-2.38319807504701
30
0
41
1
10
68.7960575412072
20
-2.3860220358637
30
0
41
1
10
68.5812282407217
20
-2.38737934151459
30
0
41
1
10
68.2804621830546
20
-2.38753536058687
30
0
41
1
10
68.0226317280332
20
-2.38590060755283
30
0
41
1
10
67.7648072964368
20
-2.38280115565752
30
0
41
1
10
67.5499782165089
20
-2.37921627031
30
0
41
1
10
67.2492125405157
20
-2.37246076936125
30
0
41
1
10
66.991382425657
20
-2.36492188920681
30
0
41
1
10
66.7335582773139
20
-2.35592985610029
30
0
41
1
10
66.5187292743915
20
-2.34743558894786
30
0
41
1
10
66.2179633875625
20
-2.33382902186548
30
0
41
1
10
65.9601328639748
20
-2.32045509874487
30
0
41
1
10
65.7023082313512
20
-2.30565729101724
30
0
41
1
10
65.4874789073154
20
-2.29233878725054
30
0
41
1
10
65.1867127828967
20
-2.27202049480627
30
0
41
1
10
64.9288822102935
20
-2.25294875489115
30
0
41
1
10
64.6710575844843
20
-2.23249415718169
30
0
41
1
10
64.4562282822448
20
-2.21448319700917
30
0
41
1
10
64.1554622316677
20
-2.18765207755888
30
0
41
1
10
63.8976317890505
20
-2.16306915348889
30
0
41
1
10
63.6398073699211
20
-2.13716035753865
30
0
41
1
10
63.424978299279
20
-2.11463726806403
30
0
41
1
10
63.1242126304153
20
-2.08156378141283
30
0
41
1
10
62.8663825114132
20
-2.05171758873217
30
0
41
1
10
62.6085583457033
20
-2.02061387903075
30
0
41
1
10
62.3937293213764
20
-1.99380236387358
30
0
41
1
10
62.0929633989746
20
-1.95481298190302
30
0
41
1
10
61.8351328437632
20
-1.91999724038848
30
0
41
1
10
61.5773081850327
20
-1.88400542637751
30
0
41
1
10
61.3624788423409
20
-1.85317080710058
30
0
41
1
10
61.061712699918
20
-1.80865227208034
30
0
41
1
10
60.8038821251759
20
-1.76921244495097
30
0
41
1
10
60.546057512981
20
-1.72868879681491
30
0
41
1
10
60.3312282342435
20
-1.6941355131475
30
0
41
1
10
60.0304622347095
20
-1.64452692604607
30
0
41
1
10
59.7726318488359
20
-1.60085268446528
30
0
41
1
10
59.5148074896306
20
-1.55619944922947
30
0
41
1
10
59.2999784658485
20
-1.5182719055656
30
0
41
1
10
58.9992128477518
20
-1.46406962333947
30
0
41
1
10
58.7413827510849
20
-1.41659917389373
30
0
41
1
10
58.4835585832504
20
-1.36826442191685
30
0
41
1
10
58.2687295460629
20
-1.32734296480422
30
0
41
1
10
57.9679635960878
20
-1.26908927104841
30
0
41
1
10
57.7101330117396
20
-1.21829537831709
30
0
41
1
10
57.4523083266533
20
-1.16675774122737
30
0
41
1
10
57.2374789603161
20
-1.12324581071184
30
0
41
1
10
56.9367127810871
20
-1.06151300332991
30
0
41
1
10
56.6788821763939
20
-1.00789375322279
30
0
41
1
10
56.4210575410761
20
-0.953659378560616
30
0
41
1
10
56.206228252014
20
-0.907985044302734
30
0
41
1
10
55.9054622547242
20
-0.843381985490367
30
0
41
1
10
55.6476318842624
20
-0.787468098266515
30
0
41
1
10
55.389807547149
20
-0.731075593448224
30
0
41
1
10
55.1749785389608
20
-0.683693619532221
30
0
41
1
10
54.8742129278165
20
-0.616865784718129
30
0
41
1
10
54.6163828185066
20
-0.559218408791793
30
0
41
1
10
54.3585586180421
20
-0.501235818199405
30
0
41
1
10
54.1437295490571
20
-0.452624759389494
30
0
41
1
10
53.8429635595662
20
-0.384246702501969
30
0
41
1
10
53.5851329500782
20
-0.325444367204
30
0
41
1
10
53.3273082530709
20
-0.266447345059532
30
0
41
1
10
53.1124788794991
20
-0.217085274206141
30
0
41
1
10
52.811712691685
20
-0.147824177696208
30
0
41
1
10
52.5538820861161
20
-0.0884382425482499
30
0
41
1
10
52.3385765832137
20
-0.0388040043451952
30
0
41
1
10
52.2521900189585
20
-0.0188610203699966
30
0
41
1
10
52.2087716669995
20
-0.0088343999787526
30
0
0
SPLINE
5
F4
100
AcDbEntity
8
1
62
256
6
ByLayer
370
18
48
1
60
0
100
AcDbSpline
70
4
71
3
72
50
73
46
40
0
40
0
40
0
40
0
40
0.0222440264835342
40
0.0222440264835342
40
0.0444880529670684
40
0.0444880529670684
40
0.0889761059341359
40
0.0889761059341359
40
0.177952211868271
40
0.177952211868271
40
0.222440264835338
40
0.222440264835338
40
0.244684291318871
40
0.244684291318871
40
0.266928317802405
40
0.266928317802405
40
0.355904423736539
40
0.355904423736539
40
0.444880529670673
40
0.444880529670673
40
0.467124556154206
40
0.467124556154206
40
0.489368582637739
40
0.489368582637739
40
0.533856635604806
40
0.533856635604806
40
0.62283274153894
40
0.62283274153894
40
0.667320794506007
40
0.667320794506007
40
0.689564820989541
40
0.689564820989541
40
0.711808847473075
40
0.711808847473075
40
0.80078495340721
40
0.80078495340721
40
0.889761059341345
40
0.889761059341345
40
0.912005085824879
40
0.912005085824879
40
0.934249112308414
40
0.934249112308414
40
0.978737165275484
40
0.978737165275484
40
1
40
1
40
1
40
1
41
1
10
18.0810666101143
20
5.0787903210736
30
0
41
1
10
18.3394028450436
20
5.10397432792823
30
0
41
1
10
18.5971428707396
20
5.1242610176611
30
0
41
1
10
19.111764673071
20
5.15520845510542
30
0
41
1
10
19.3682865921502
20
5.16594079762885
30
0
41
1
10
20.1369252650734
20
5.18376641117231
30
0
41
1
10
20.6476690594341
20
5.1766075550866
30
0
41
1
10
22.1777950517284
20
5.09885083307293
30
0
41
1
10
23.1953838903061
20
4.97190231178996
30
0
41
1
10
24.7312025115032
20
4.67408106542115
30
0
41
1
10
25.2446556683505
20
4.55686911955601
30
0
41
1
10
26.0189629254057
20
4.35517044581602
30
0
41
1
10
26.2773247756604
20
4.28382034487609
30
0
41
1
10
26.791838279725
20
4.13355072440172
30
0
41
1
10
27.0485960229593
20
4.05480272035064
30
0
41
1
10
28.329792704265
20
3.64307576455497
30
0
41
1
10
29.3472879875278
20
3.25708591533174
30
0
41
1
10
31.3855277987232
20
2.40114093333793
30
0
41
1
10
32.4057977449651
20
1.93033190641483
30
0
41
1
10
33.6944899633021
20
1.30875356256726
30
0
41
1
10
33.9528890643253
20
1.18242406524004
30
0
41
1
10
34.4677440484394
20
0.929380502590647
30
0
41
1
10
34.7244651038554
20
0.802015076112525
30
0
41
1
10
35.4931806979307
20
0.41877819906145
30
0
41
1
10
36.0037345126511
20
0.161778586186529
30
0
41
1
10
37.5329454416352
20
-0.607013284150042
30
0
41
1
10
38.5485922773427
20
-1.11771342875983
30
0
41
1
10
40.0806827103934
20
-1.85204710783131
30
0
41
1
10
40.5925884403296
20
-2.09199351302922
30
0
41
1
10
41.3641748985803
20
-2.44083077827813
30
0
41
1
10
41.6226046947177
20
-2.55521806943733
30
0
41
1
10
42.1377486684733
20
-2.77900397831039
30
0
41
1
10
42.3946763411583
20
-2.88808495470167
30
0
41
1
10
43.6768520924542
20
-3.41840659384479
30
0
41
1
10
44.6935809609654
20
-3.79611075642006
30
0
41
1
10
46.7288696766969
20
-4.43144281933218
30
0
41
1
10
47.7463091886215
20
-4.69046308448935
30
0
41
1
10
49.03038065165
20
-4.92586884361671
30
0
41
1
10
49.2878748523635
20
-4.96868883285987
30
0
41
1
10
49.8035548653045
20
-5.04495160801068
30
0
41
1
10
50.0607162324576
20
-5.07831092916146
30
0
41
1
10
50.8302314190356
20
-5.16421885815973
30
0
41
1
10
51.3410290861184
20
-5.20237605787887
30
0
41
1
10
52.0943895106804
20
-5.23066037250058
30
0
41
1
10
52.3377221340784
20
-5.23545329550652
30
0
41
1
10
52.5808970276549
20
-5.2359114597576
30
0
0
SPLINE
5
F5
100
AcDbEntity
8
1
62
256
6
ByLayer
370
18
48
1
60
0
100
AcDbSpline
70
4
71
3
72
48
73
44
40
0
40
0
40
0
40
0
40
0.076212456084074
40
0.076212456084074
40
0.0954580299156552
40
0.0954580299156552
40
0.114703603747235
40
0.114703603747235
40
0.153194751410398
40
0.153194751410398
40
0.230177046736722
40
0.230177046736722
40
0.268668194399884
40
0.268668194399884
40
0.307159342063047
40
0.307159342063047
40
0.384141637389372
40
0.384141637389372
40
0.461123932715696
40
0.461123932715696
40
0.499615080378859
40
0.499615080378859
40
0.51886065421044
40
0.51886065421044
40
0.538106228042021
40
0.538106228042021
40
0.692070818694675
40
0.692070818694675
40
0.711316392526257
40
0.711316392526257
40
0.730561966357839
40
0.730561966357839
40
0.769053114021004
40
0.769053114021004
40
0.846035409347334
40
0.846035409347334
40
0.8845265570105
40
0.8845265570105
40
0.903772130842083
40
0.903772130842083
40
0.923017704673666
40
0.923017704673666
40
1
40
1
40
1
40
1
41
1
10
76.3818733470426
20
3.51447164845328
30
0
41
1
10
77.3872710310119
20
3.89825637198803
30
0
41
1
10
78.3911703642475
20
4.23208169813665
30
0
41
1
10
79.657535897493
20
4.57226393049368
30
0
41
1
10
79.9134012823375
20
4.63679070768254
30
0
41
1
10
80.4260962823986
20
4.75776073847172
30
0
41
1
10
80.6835888826901
20
4.81407151666482
30
0
41
1
10
81.4548550220562
20
4.96938770621824
30
0
41
1
10
81.9661476897994
20
5.05447735660661
30
0
41
1
10
83.4952552639451
20
5.25317513014053
30
0
41
1
10
84.5083446249332
20
5.31025805690086
30
0
41
1
10
86.0313285837917
20
5.28106321965873
30
0
41
1
10
86.5396614336909
20
5.25220409803069
30
0
41
1
10
87.5599186061087
20
5.15625936434259
30
0
41
1
10
88.0720027528261
20
5.08902912694785
30
0
41
1
10
89.6149442930171
20
4.83033334375341
30
0
41
1
10
90.6323635524762
20
4.58578478789457
30
0
41
1
10
92.6617432577267
20
3.97317846590681
30
0
41
1
10
93.6745039643544
20
3.60610794048034
30
0
41
1
10
95.2028213783177
20
2.97997661761499
30
0
41
1
10
95.7139857943959
20
2.75897332056653
30
0
41
1
10
96.4851085325533
20
2.41162012346217
30
0
41
1
10
96.7417870079231
20
2.29334671164477
30
0
41
1
10
97.253648168022
20
2.05385049935373
30
0
41
1
10
97.5090326979472
20
1.93246318270079
30
0
41
1
10
99.8024999635689
20
0.825123342969164
30
0
41
1
10
101.813021243801
20
-0.250744592687369
30
0
41
1
10
104.122588464717
20
-1.40709072832243
30
0
41
1
10
104.379638942604
20
-1.53442652300518
30
0
41
1
10
104.891600534782
20
-1.78510006749247
30
0
41
1
10
105.146832127308
20
-1.90888978030006
30
0
41
1
10
105.911531562636
20
-2.27330874498998
30
0
41
1
10
106.419410536395
20
-2.50814696324738
30
0
41
1
10
107.940323454708
20
-3.18321832733287
30
0
41
1
10
108.951757124716
20
-3.59212716611063
30
0
41
1
10
110.477217206984
20
-4.12444159653504
30
0
41
1
10
110.987258092691
20
-4.28812152499714
30
0
41
1
10
111.75640319396
20
-4.51034958873646
30
0
41
1
10
112.013507839668
20
-4.58055084673254
30
0
41
1
10
112.525985737645
20
-4.71210735204889
30
0
41
1
10
112.781968963618
20
-4.7733919161708
30
0
41
1
10
114.059957723325
20
-5.05811192736152
30
0
41
1
10
115.078611630621
20
-5.21420691447511
30
0
41
1
10
116.10232472972
20
-5.29316977196564
30
0
0
SPLINE
5
F6
100
AcDbEntity
8
1
62
256
6
ByLayer
370
18
48
1
60
0
100
AcDbSpline
70
4
71
4
72
10
73
5
40
0
40
0
40
0
40
0
40
0
40
1
40
1
40
1
40
1
40
1
41
1
10
18.0810666101142
20
5.07879032107346
30
0
41
1
10
17.8355954183859
20
4.38908122767313
30
0
41
1
10
17.5901242266577
20
3.69937213427281
30
0
41
1
10
17.3446530349295
20
3.00966304087251
30
0
41
1
10
17.0991818432012
20
2.31995394747219
30
0
0
SPLINE
5
F7
100
AcDbEntity
8
1
62
256
6
ByLayer
370
13
48
1
60
0
100
AcDbSpline
70
4
71
3
72
20
73
16
40
0
40
0
40
0
40
0
40
0.137282642688779
40
0.137282642688779
40
0.292296493782478
40
0.292296493782478
40
0.447310344876177
40
0.447310344876177
40
0.757338047063574
40
0.757338047063574
40
0.912351898157272
40
0.912351898157272
40
0.989858823704121
40
0.989858823704121
40
1
40
1
40
1
40
1
41
1
10
5.61479514540267
20
-5.02012269819883
30
0
41
1
10
5.61480790067634
20
-5.01987025036638
30
0
41
1
10
5.61482015081543
20
-5.01701355620909
30
0
41
1
10
5.61484485879481
20
-5.00534974997197
30
0
41
1
10
5.61485713543141
20
-4.99581204037395
30
0
41
1
10
5.6148795726028
20
-4.96985803008241
30
0
41
1
10
5.6148897131645
20
-4.95342035092418
30
0
41
1
10
5.61491589187747
20
-4.8944563858966
30
0
41
1
10
5.61492786528288
20
-4.84215865955022
30
0
41
1
10
5.61493537564684
20
-4.74452891957407
30
0
41
1
10
5.6149361355447
20
-4.70877877184518
30
0
41
1
10
5.61493435573564
20
-4.65029313108212
30
0
41
1
10
5.61493327563653
20
-4.62998723741242
30
0
41
1
10
5.61493147327789
20
-4.60609872966444
30
0
41
1
10
5.6149312554891
20
-4.6033169660283
30
0
41
1
10
5.61493102856622
20
-4.60051887474236
30
0
0
SPLINE
5
F8
100
AcDbEntity
8
1
62
256
6
ByLayer
370
18
48
1
60
0
100
AcDbSpline
70
4
71
3
72
8
73
4
40
0
40
0
40
0
40
0
40
1
40
1
40
1
40
1
41
1
10
116.10232472972
20
-5.29316977196567
30
0
41
1
10
116.32171283905
20
-4.7539670891571
30
0
41
1
10
116.546461999009
20
-4.19564519309989
30
0
41
1
10
116.769211270081
20
-3.61332768055334
30
0
0
SPLINE
5
F9
100
AcDbEntity
8
1
62
256
6
ByLayer
370
18
48
1
60
0
100
AcDbSpline
70
4
71
3
72
11
73
7
40
0
40
0
40
0
40
0
40
0.221222225271422
40
0.474250906160557
40
0.759280366005757
40
1
40
1
40
1
40
1
41
1
10
19.7260939428595
20
-0.0127786911710643
30
0
41
1
10
19.5842071341087
20
0.02012781286723
30
0
41
1
10
19.2826629447413
20
0.0982727726790813
30
0
41
1
10
18.8104126508949
20
0.250419941691746
30
0
41
1
10
18.3332645354709
20
0.434761918749615
30
0
41
1
10
18.0156269042143
20
0.581893066213325
30
0
41
1
10
17.8711540583764
20
0.653717243004962
30
0
0
SPLINE
5
FA
100
AcDbEntity
8
1
62
256
6
ByLayer
370
18
48
1
60
0
100
AcDbSpline
70
4
71
3
72
11
73
7
40
0
40
0
40
0
40
0
40
0.214369708969925
40
0.458166545407063
40
0.731968858928219
40
1
40
1
40
1
40
1
41
1
10
84.7274007182197
20
-0.0130482936645535
30
0
41
1
10
84.6017748743761
20
0.015537249557525
30
0
41
1
10
84.3271469590071
20
0.0861475081784135
30
0
41
1
10
83.8635078946936
20
0.23123447085635
30
0
41
1
10
83.3495115564618
20
0.426831296922103
30
0
41
1
10
82.9869607147647
20
0.59402981289432
30
0
41
1
10
82.8053355342274
20
0.684353886924669
30
0
0
SPLINE
5
FB
100
AcDbEntity
8
1
62
256
6
ByLayer
370
18
48
1
60
0
100
AcDbSpline
70
4
71
3
72
11
73
7
40
0
40
0
40
0
40
0
40
0.211073402441549
40
0.454978085397496
40
0.731956873616093
40
1
40
1
40
1
40
1
41
1
10
68.2621711105677
20
0.0130267022803423
30
0
41
1
10
68.4035923650173
20
-0.0196256708013038
30
0
41
1
10
68.708232929174
20
-0.0987127872852227
30
0
41
1
10
69.1976949454992
20
-0.256631309281118
30
0
41
1
10
69.7242734809513
20
-0.46292520477013
30
0
41
1
10
70.0869743864119
20
-0.634287199922568
30
0
41
1
10
70.2651206119838
20
-0.725315288397525
30
0
0
SPLINE
5
FC
100
AcDbEntity
8
1
62
256
6
ByLayer
370
18
48
1
60
0
100
AcDbSpline
70
4
71
2
72
6
73
3
40
0
40
0
40
0
40
1
40
1
40
1
41
1
10
6.13876617179193
20
5.02114774423589
30
0
41
1
10
5.87673924601938
20
5.02082147439904
30
0
41
1
10
5.6147398211744
20
5.02003189993212
30
0
0
SPLINE
5
FD
100
AcDbEntity
8
1
62
256
6
ByLayer
370
18
48
1
60
0
100
AcDbSpline
70
4
71
3
72
9
73
5
40
0
40
0
40
0
40
0
40
0.251000615320039
40
1
40
1
40
1
40
1
41
1
10
115.740815353526
20
0.480066091470974
30
0
41
1
10
115.699721403698
20
0.497947293119125
30
0
41
1
10
115.534463728384
20
0.57126780550368
30
0
41
1
10
115.363005277084
20
0.652694366430524
30
0
41
1
10
115.231154058603
20
0.718349684870873
30
0
0
SPLINE
5
FE
100
AcDbEntity
8
1
62
256
6
ByLayer
370
18
48
1
60
0
100
AcDbSpline
70
4
71
2
72
6
73
3
40
0
40
0
40
0
40
1
40
1
40
1
41
1
10
35.7621474762584
20
0.0130570967858716
30
0
41
1
10
36.7558734583721
20
-0.213910290415782
30
0
41
1
10
37.7374013838514
20
-0.715466783634724
30
0
0
SPLINE
5
FF
100
AcDbEntity
8
1
62
256
6
ByLayer
370
18
48
1
60
0
100
AcDbSpline
70
4
71
3
72
26
73
22
40
0
40
0
40
0
40
0
40
0.0683874974502275
40
0.130307880481015
40
0.181690616314086
40
0.239572872597841
40
0.281590025954643
40
0.335658965480327
40
0.405858521981768
40
0.477349532868055
40
0.537638530429429
40
0.592513230448231
40
0.651458296641201
40
0.720109402892638
40
0.769435638851184
40
0.819340747898582
40
0.860246123871349
40
0.891680163112567
40
0.922145984401783
40
0.958587453417053
40
1
40
1
40
1
40
1
41
1
10
86.6386805870563
20
-5.1646332050388
30
0
41
1
10
86.9507375832277
20
-5.16500849019477
30
0
41
1
10
87.5450412714991
20
-5.16584676085404
30
0
41
1
10
88.3692879239209
20
-5.16779307209518
30
0
41
1
10
89.1514358834054
20
-5.16911880450161
30
0
41
1
10
89.8416168974011
20
-5.17016429280505
30
0
41
1
10
90.5443623651381
20
-5.17097518696463
30
0
41
1
10
91.3032247482648
20
-5.17404145472861
30
0
41
1
10
92.196649369346
20
-5.17390993616948
30
0
41
1
10
93.1184556695779
20
-5.17470801969466
30
0
41
1
10
93.9702290635475
20
-5.17685372453269
30
0
41
1
10
94.7649349097285
20
-5.17980057268844
30
0
41
1
10
95.5972559310363
20
-5.17969332301604
30
0
41
1
10
96.4046504424658
20
-5.18089577851015
30
0
41
1
10
97.1708262465834
20
-5.18232808771617
30
0
41
1
10
97.8101048189461
20
-5.18489474505736
30
0
41
1
10
98.3679302910218
20
-5.18566835983057
30
0
41
1
10
98.8371074458867
20
-5.18623374130956
30
0
41
1
10
99.285957430268
20
-5.18745261473214
30
0
41
1
10
99.779953125304
20
-5.18833156851673
30
0
41
1
10
100.135007617022
20
-5.18867588024588
30
0
41
1
10
100.323839970953
20
-5.18876865412616
30
0
0
SPLINE
5
100
100
AcDbEntity
8
1
62
256
6
ByLayer
370
18
48
1
60
0
100
AcDbSpline
70
4
71
3
72
24
73
20
40
0
40
0
40
0
40
0
40
0.0389757487655815
40
0.114739516000476
40
0.183643689471576
40
0.25732143850764
40
0.327133656260118
40
0.406519655143971
40
0.494409776209509
40
0.567146821105726
40
0.643532113379112
40
0.730391885034815
40
0.772350575395078
40
0.806710666195277
40
0.838673258059354
40
0.882129980294046
40
0.933459548941668
40
0.978438042576343
40
1
40
1
40
1
40
1
41
1
10
67.9466902304428
20
5.13097083519642
30
0
41
1
10
67.7890245188992
20
5.1308129830577
30
0
41
1
10
67.3248684516712
20
5.13028990512086
30
0
41
1
10
66.5818930785557
20
5.12806302222575
30
0
41
1
10
65.6985501260296
20
5.12753342791797
30
0
41
1
10
64.8392811670846
20
5.12499359437237
30
0
41
1
10
63.9376188091535
20
5.12426596470786
30
0
41
1
10
62.9784068474802
20
5.12188616970923
30
0
41
1
10
62.0075489891796
20
5.12006636916044
30
0
41
1
10
61.0482024268148
20
5.11875338236413
30
0
41
1
10
60.0954281327682
20
5.1165104830809
30
0
41
1
10
59.2647339116193
20
5.11591769633537
30
0
41
1
10
58.6051434586207
20
5.11436501967577
30
0
41
1
10
58.1671526170713
20
5.11341825601954
30
0
41
1
10
57.7230121606767
20
5.11277235748429
30
0
41
1
10
57.2103081880582
20
5.11203380557041
30
0
41
1
10
56.644594583133
20
5.11074136855837
30
0
41
1
10
56.1699565462706
20
5.11000575289685
30
0
41
1
10
55.9046652453811
20
5.10845924575102
30
0
41
1
10
55.8185856050777
20
5.10797919584104
30
0
0
SPLINE
5
101
100
AcDbEntity
8
1
62
256
6
ByLayer
370
18
48
1
60
0
100
AcDbSpline
70
4
71
3
72
25
73
21
40
0
40
0
40
0
40
0
40
0.0485657418642213
40
0.0915227987585979
40
0.136626206027128
40
0.179206083383379
40
0.219226727152592
40
0.256902621056389
40
0.292220717619988
40
0.368450333809948
40
0.437190577855656
40
0.495401720098542
40
0.558326357364586
40
0.628161035524366
40
0.710717693076036
40
0.777840351012178
40
0.841871444060919
40
0.901559934271394
40
0.957932038957953
40
1
40
1
40
1
40
1
41
1
10
21.6082411509547
20
-5.04716086341267
30
0
41
1
10
21.8167677695617
20
-5.04523739848815
30
0
41
1
10
22.2171472964531
20
-5.04328948667589
30
0
41
1
10
22.8623412469829
20
-5.04381933906876
30
0
41
1
10
23.4461806148778
20
-5.05117456625703
30
0
41
1
10
24.0354957525831
20
-5.05220737884184
30
0
41
1
10
24.5923029358688
20
-5.05319141587532
30
0
41
1
10
25.1151352582454
20
-5.0544627406237
30
0
41
1
10
25.8054686708521
20
-5.05579123196958
30
0
41
1
10
26.6392756759364
20
-5.05737910450381
30
0
41
1
10
27.5794330225301
20
-5.05868490479006
30
0
41
1
10
28.4579231721676
20
-5.06075903039221
30
0
41
1
10
29.341491062677
20
-5.06185400533158
30
0
41
1
10
30.3377045752262
20
-5.06441793199423
30
0
41
1
10
31.3533428884636
20
-5.06524369419358
30
0
41
1
10
32.3421234837037
20
-5.06770535576524
30
0
41
1
10
33.2251044650483
20
-5.06850895509868
30
0
41
1
10
34.0583435858416
20
-5.0702375442273
30
0
41
1
10
34.7899640712761
20
-5.07133218254643
30
0
41
1
10
35.2454191896983
20
-5.07223650774273
30
0
41
1
10
35.44005582697
20
-5.07263399145546
30
0
0
SPLINE
5
102
100
AcDbEntity
8
1
62
256
6
ByLayer
370
18
48
1
60
0
100
AcDbSpline
70
4
71
3
72
19
73
15
40
0
40
0
40
0
40
0
40
0.071577102475629
40
0.1946110145023
40
0.332663366055208
40
0.425054659239306
40
0.503386611258406
40
0.574116981417152
40
0.639286458196056
40
0.706616852978709
40
0.799558796781496
40
0.906012998156947
40
0.965838807710293
40
1
40
1
40
1
40
1
41
1
10
35.4374512252363
20
5.07243804101446
30
0
41
1
10
35.1496578690823
20
5.07191310838516
30
0
41
1
10
34.3671747270134
20
5.07050009380936
30
0
41
1
10
33.0296010881331
20
5.06829679302763
30
0
41
1
10
31.6083450222945
20
5.06572076343534
30
0
41
1
10
30.3668225716639
20
5.06446721585795
30
0
41
1
10
29.3959855971873
20
5.06185472902041
30
0
41
1
10
28.5346167120526
20
5.06104761960989
30
0
41
1
10
27.7174607472846
20
5.05876243233956
30
0
41
1
10
26.8110432146553
20
5.05794071124967
30
0
41
1
10
25.7384056694726
20
5.05560089999747
30
0
41
1
10
24.6978959741388
20
5.05317886607196
30
0
41
1
10
23.8883489593546
20
5.05232762473997
30
0
41
1
10
23.5169815539515
20
5.05031769958583
30
0
41
1
10
23.3821375301305
20
5.04940555687568
30
0
0
SPLINE
5
103
100
AcDbEntity
8
1
62
256
6
ByLayer
370
18
48
1
60
0
100
AcDbSpline
70
4
71
3
72
25
73
21
40
0
40
0
40
0
40
0
40
0.0511748395110698
40
0.106268856426093
40
0.143286816369116
40
0.192443147795646
40
0.255731841556622
40
0.320891054623717
40
0.392887270225856
40
0.455484854694581
40
0.512345363155329
40
0.57252470795781
40
0.64194810594507
40
0.722391439461204
40
0.794859680317569
40
0.837000055300573
40
0.875354420513473
40
0.927493676805685
40
0.977621390154157
40
1
40
1
40
1
40
1
41
1
10
100.32742804442
20
5.18896862225654
30
0
41
1
10
100.123690504354
20
5.18878020407507
30
0
41
1
10
99.7005466206685
20
5.18825911922497
30
0
41
1
10
99.1299592693737
20
5.1869893078337
30
0
41
1
10
98.5670223773502
20
5.18576257125622
30
0
41
1
10
97.9715664694302
20
5.18539557848021
30
0
41
1
10
97.2642080757743
20
5.18260895911411
30
0
41
1
10
96.4656295817666
20
5.18095505149151
30
0
41
1
10
95.6696783000657
20
5.17985514527652
30
0
41
1
10
94.9074494101904
20
5.17964249416343
30
0
41
1
10
94.1915538173748
20
5.17803227832238
30
0
41
1
10
93.4486980870586
20
5.17512813914755
30
0
41
1
10
92.6118121336954
20
5.17431756064551
30
0
41
1
10
91.7259284018882
20
5.17400405647317
30
0
41
1
10
90.9487863198425
20
5.17258133792382
30
0
41
1
10
90.3393244713201
20
5.17069059801014
30
0
41
1
10
89.8108717641551
20
5.17011730074432
30
0
41
1
10
89.2505050154247
20
5.16934563872138
30
0
41
1
10
88.754143071321
20
5.16832604987624
30
0
41
1
10
88.4649057898508
20
5.16793399885446
30
0
41
1
10
88.3757032097795
20
5.16780115272641
30
0
0
SPLINE
5
104
100
AcDbEntity
8
1
62
256
6
ByLayer
370
18
48
1
60
0
100
AcDbSpline
70
4
71
2
72
6
73
3
40
0
40
0
40
0
40
1
40
1
40
1
41
1
10
100.762090058624
20
0.0131009443090306
30
0
41
1
10
101.789887804106
20
-0.224031070048682
30
0
41
1
10
102.807154369135
20
-0.746454664437437
30
0
0
SPLINE
5
105
100
AcDbEntity
8
1
62
256
6
ByLayer
370
18
48
1
60
0
100
AcDbSpline
70
4
71
2
72
6
73
3
40
0
40
0
40
0
40
1
40
1
40
1
41
1
10
52.2266460200234
20
-0.0129619433470509
30
0
41
1
10
51.2759435618082
20
0.204414948492058
30
0
41
1
10
50.3392695216122
20
0.671423571569107
30
0
0
SPLINE
5
106
100
AcDbEntity
8
1
62
256
6
ByLayer
370
18
48
1
60
0
100
AcDbSpline
70
4
71
3
72
28
73
24
40
0
40
0
40
0
40
0
40
0.0264975821096715
40
0.0515332649232055
40
0.0844059037856306
40
0.118226648439829
40
0.150050874660353
40
0.179840177817247
40
0.222559656359101
40
0.261138388582943
40
0.331628327802109
40
0.403946314846916
40
0.449824581186112
40
0.500828798547769
40
0.552509183032718
40
0.601524434574034
40
0.645738075327095
40
0.693811102838525
40
0.761175104864028
40
0.826149687137211
40
0.885751003667995
40
0.944928629014532
40
1
40
1
40
1
40
1
41
1
10
54.0351563491303
20
-5.10613078730205
30
0
41
1
10
54.1398186671204
20
-5.10555305013031
30
0
41
1
10
54.3526978225042
20
-5.10434523197841
30
0
41
1
10
54.7376404078355
20
-5.09864201198556
30
0
41
1
10
55.1757975669732
20
-5.10080544909448
30
0
41
1
10
55.6214049865606
20
-5.10722997558929
30
0
41
1
10
56.0624985241865
20
-5.10944949425812
30
0
41
1
10
56.5451851661868
20
-5.11079812063909
30
0
41
1
10
57.0661481501133
20
-5.11133465075918
30
0
41
1
10
57.7780596718803
20
-5.11293057661169
30
0
41
1
10
58.6324643581561
20
-5.11470942983772
30
0
41
1
10
59.5077802013196
20
-5.11497743131511
30
0
41
1
10
60.3047421841102
20
-5.11399447556687
30
0
41
1
10
60.9933222255612
20
-5.11894082451499
30
0
41
1
10
61.7035711981523
20
-5.11930613841903
30
0
41
1
10
62.3844227303662
20
-5.12111052782959
30
0
41
1
10
63.0475603296791
20
-5.1220410019578
30
0
41
1
10
63.7971921630068
20
-5.12351002246365
30
0
41
1
10
64.6441179984788
20
-5.12503128671719
30
0
41
1
10
65.5452875477791
20
-5.12692176589547
30
0
41
1
10
66.4079890888306
20
-5.1280632202012
30
0
41
1
10
67.2242506675534
20
-5.12999140570687
30
0
41
1
10
67.7601474547226
20
-5.13048548934276
30
0
41
1
10
68.0183878370903
20
-5.13064783273236
30
0
0
SPLINE
5
107
100
AcDbEntity
8
1
62
256
6
ByLayer
370
18
48
1
60
0
100
AcDbSpline
70
4
71
2
72
6
73
3
40
0
40
0
40
0
40
1
40
1
40
1
41
1
10
5.61473752801496
20
-5.02005444624925
30
0
41
1
10
5.87123236948477
20
-5.02080013797476
30
0
41
1
10
6.12764855034001
20
-5.02111192732249
30
0
0
LINE
5
7B
100
AcDbEntity
8
SK1
62
256
6
ByLayer
370
18
48
1
60
0
100
AcDbLine
10
-45
20
3
30
0
11
-45
21
-3
31
0
39
0
210
0
220
0
230
1
0
LINE
5
7D
100
AcDbEntity
8
SK1
62
256
6
ByLayer
370
18
48
1
60
0
100
AcDbLine
10
0
20
-6
30
0
11
0
21
6
31
0
39
0
210
0
220
0
230
1
0
LINE
5
7E
100
AcDbEntity
8
SK1
62
256
6
ByLayer
370
18
48
1
60
0
100
AcDbLine
10
-43.267949
20
6
30
0
11
-43.267949
21
-6
31
0
39
0
210
0
220
0
230
1
0
LINE
5
7F
100
AcDbEntity
8
1
62
256
6
ByLayer
370
18
48
1
60
0
100
AcDbLine
10
115.402129
20
-2.559988
30
0
11
117.235195
21
-1.088353
31
0
39
0
210
0
220
0
230
1
0
LINE
5
80
100
AcDbEntity
8
1
62
256
6
ByLayer
370
18
48
1
60
0
100
AcDbLine
10
117.235195
20
-1.088353
30
0
11
117.238486
21
-1.066839
31
0
39
0
210
0
220
0
230
1
0
LINE
5
81
100
AcDbEntity
8
1
62
256
6
ByLayer
370
13
48
1
60
0
100
AcDbLine
10
0.737858
20
5.571978
30
0
11
0.737858
21
-5.571978
31
0
39
0
210
0
220
0
230
1
0
LINE
5
82
100
AcDbEntity
8
1
62
256
6
ByLayer
370
18
48
1
60
0
100
AcDbLine
10
0
20
-6
30
0
11
0
21
6
31
0
39
0
210
0
220
0
230
1
0
LINE
5
83
100
AcDbEntity
8
1
62
256
6
ByLayer
370
13
48
1
60
0
100
AcDbLine
10
1.477247
20
5.143957
30
0
11
1.477247
21
-5.143957
31
0
39
0
210
0
220
0
230
1
0
LINE
5
84
100
AcDbEntity
8
1
62
256
6
ByLayer
370
18
48
1
60
0
100
AcDbLine
10
5.614793
20
-5.020141
30
0
11
5.614795
21
-5.020123
31
0
39
0
210
0
220
0
230
1
0
LINE
5
85
100
AcDbEntity
8
80
62
256
6
ByLayer
370
18
48
1
60
0
100
AcDbLine
10
0
20
0
30
0
11
-5
21
0
31
0
39
0
210
0
220
0
230
1
0
LINE
5
86
100
AcDbEntity
8
4
62
256
6
ByLayer
370
18
48
0.05
60
0
100
AcDbLine
10
118
20
0
30
0
11
0
21
0
31
0
39
0
210
0
220
0
230
1
0
LINE
5
88
100
AcDbEntity
8
SK4
62
256
6
ByLayer
370
18
48
0.05
60
0
100
AcDbLine
10
123
20
0
30
0
11
-50
21
0
31
0
39
0
210
0
220
0
230
1
0
LINE
5
8A
100
AcDbEntity
8
SK1
62
256
6
ByLayer
370
18
48
1
60
0
100
AcDbLine
10
-45
20
-3
30
0
11
-43.267949
21
-6
31
0
39
0
210
0
220
0
230
1
0
LINE
5
8B
100
AcDbEntity
8
SK1
62
256
6
ByLayer
370
18
48
1
60
0
100
AcDbLine
10
-43.267949
20
6
30
0
11
-45
21
3
31
0
39
0
210
0
220
0
230
1
0
LINE
5
8C
100
AcDbEntity
8
SK1
62
256
6
ByLayer
370
18
48
1
60
0
100
AcDbLine
10
-43.267949
20
-6
30
0
11
0
21
-6
31
0
39
0
210
0
220
0
230
1
0
LINE
5
8D
100
AcDbEntity
8
SK1
62
256
6
ByLayer
370
18
48
1
60
0
100
AcDbLine
10
0
20
6
30
0
11
-43.267949
21
6
31
0
39
0
210
0
220
0
230
1
0
LINE
5
8E
100
AcDbEntity
8
1
62
256
6
ByLayer
370
18
48
1
60
0
100
AcDbLine
10
20.067449
20
-5.177419
30
0
11
21.11
21
-5.179296
31
0
39
0
210
0
220
0
230
1
0
LINE
5
8F
100
AcDbEntity
8
1
62
256
6
ByLayer
370
18
48
1
60
0
100
AcDbLine
10
21.11
20
5.179296
30
0
11
20.067449
21
5.177419
31
0
39
0
210
0
220
0
230
1
0
LINE
5
90
100
AcDbEntity
8
1
62
256
6
ByLayer
370
18
48
1
60
0
100
AcDbLine
10
1.477247
20
-5.143957
30
0
11
5.118674
21
-5.150511
31
0
39
0
210
0
220
0
230
1
0
LINE
5
91
100
AcDbEntity
8
1
62
256
6
ByLayer
370
18
48
1
60
0
100
AcDbLine
10
52.583458
20
-5.235948
30
0
11
53.60908
21
-5.237794
31
0
39
0
210
0
220
0
230
1
0
LINE
5
92
100
AcDbEntity
8
1
62
256
6
ByLayer
370
18
48
1
60
0
100
AcDbLine
10
85.098688
20
-5.294475
30
0
11
86.108427
21
-5.296293
31
0
39
0
210
0
220
0
230
1
0
LINE
5
93
100
AcDbEntity
8
1
62
256
6
ByLayer
370
18
48
1
60
0
100
AcDbLine
10
86.108427
20
5.296293
30
0
11
85.098688
21
5.294475
31
0
39
0
210
0
220
0
230
1
0
LINE
5
94
100
AcDbEntity
8
1
62
256
6
ByLayer
370
18
48
1
60
0
100
AcDbLine
10
53.60908
20
5.237794
30
0
11
52.583458
21
5.235948
31
0
39
0
210
0
220
0
230
1
0
LINE
5
95
100
AcDbEntity
8
1
62
256
6
ByLayer
370
18
48
1
60
0
100
AcDbLine
10
5.118674
20
5.150511
30
0
11
1.477247
21
5.143957
31
0
39
0
210
0
220
0
230
1
0
LINE
5
96
100
AcDbEntity
8
81
62
256
6
ByLayer
370
18
48
1
60
0
100
AcDbLine
10
118
20
0
30
0
11
123
21
0
31
0
39
0
210
0
220
0
230
1
0
LINE
5
97
100
AcDbEntity
8
SK2
62
256
6
ByLayer
370
13
48
1
60
0
100
AcDbLine
10
-53.625163
20
-6
30
0
11
-53.625163
21
36.857173
31
0
39
0
210
0
220
0
230
1
0
LINE
5
99
100
AcDbEntity
8
SK2
62
256
6
ByLayer
370
13
48
1
60
0
100
AcDbLine
10
-46.5875
20
6
30
0
11
-55.625163
21
6
31
0
39
0
210
0
220
0
230
1
0
LINE
5
9A
100
AcDbEntity
8
SK2
62
256
6
ByLayer
370
13
48
1
60
0
100
AcDbLine
10
-46.5875
20
-6
30
0
11
-55.625163
21
-6
31
0
39
0
210
0
220
0
230
1
0
LINE
5
9B
100
AcDbEntity
8
1
62
256
6
ByLayer
370
18
48
1
60
1
100
AcDbLine
10
-53.625163
20
6
30
0
11
-53.164379
21
2.500002
31
0
39
0
210
0
220
0
230
1
0
LINE
5
9C
100
AcDbEntity
8
1
62
256
6
ByLayer
370
18
48
1
60
1
100
AcDbLine
10
-53.164379
20
2.500002
30
0
11
-54.085946
21
2.499998
31
0
39
0
210
0
220
0
230
1
0
LINE
5
9D
100
AcDbEntity
8
1
62
256
6
ByLayer
370
18
48
1
60
1
100
AcDbLine
10
-54.085946
20
2.499998
30
0
11
-53.625163
21
6
31
0
39
0
210
0
220
0
230
1
0
LINE
5
9E
100
AcDbEntity
8
1
62
256
6
ByLayer
370
18
48
1
60
1
100
AcDbLine
10
-53.625163
20
-6
30
0
11
-54.085946
21
-2.500002
31
0
39
0
210
0
220
0
230
1
0
LINE
5
9F
100
AcDbEntity
8
1
62
256
6
ByLayer
370
18
48
1
60
1
100
AcDbLine
10
-54.085946
20
-2.500002
30
0
11
-53.164379
21
-2.499998
31
0
39
0
210
0
220
0
230
1
0
LINE
5
A0
100
AcDbEntity
8
1
62
256
6
ByLayer
370
18
48
1
60
1
100
AcDbLine
10
-53.164379
20
-2.499998
30
0
11
-53.625163
21
-6
31
0
39
0
210
0
220
0
230
1
0
LINE
5
A1
100
AcDbEntity
8
2
62
256
6
ByLayer
370
13
48
1
60
0
100
AcDbLine
10
130.083343
20
-5.35
30
0
11
130.083343
21
34.800259
31
0
39
0
210
0
220
0
230
1
0
LINE
5
A3
100
AcDbEntity
8
2
62
256
6
ByLayer
370
13
48
1
60
0
100
AcDbLine
10
117.5333
20
5.35
30
0
11
132.083343
21
5.35
31
0
39
0
210
0
220
0
230
1
0
LINE
5
A4
100
AcDbEntity
8
2
62
256
6
ByLayer
370
13
48
1
60
0
100
AcDbLine
10
117.5333
20
-5.35
30
0
11
132.083343
21
-5.35
31
0
39
0
210
0
220
0
230
1
0
LINE
5
A5
100
AcDbEntity
8
1
62
256
6
ByLayer
370
18
48
1
60
1
100
AcDbLine
10
130.083343
20
5.35
30
0
11
130.544126
21
1.850002
31
0
39
0
210
0
220
0
230
1
0
LINE
5
A6
100
AcDbEntity
8
1
62
256
6
ByLayer
370
18
48
1
60
1
100
AcDbLine
10
130.544126
20
1.850002
30
0
11
129.622559
21
1.849998
31
0
39
0
210
0
220
0
230
1
0
LINE
5
A7
100
AcDbEntity
8
1
62
256
6
ByLayer
370
18
48
1
60
1
100
AcDbLine
10
129.622559
20
1.849998
30
0
11
130.083343
21
5.35
31
0
39
0
210
0
220
0
230
1
0
LINE
5
A8
100
AcDbEntity
8
1
62
256
6
ByLayer
370
18
48
1
60
1
100
AcDbLine
10
130.083343
20
-5.35
30
0
11
129.622559
21
-1.850002
31
0
39
0
210
0
220
0
230
1
0
LINE
5
A9
100
AcDbEntity
8
1
62
256
6
ByLayer
370
18
48
1
60
1
100
AcDbLine
10
129.622559
20
-1.850002
30
0
11
130.544126
21
-1.849998
31
0
39
0
210
0
220
0
230
1
0
LINE
5
AA
100
AcDbEntity
8
1
62
256
6
ByLayer
370
18
48
1
60
1
100
AcDbLine
10
130.544126
20
-1.849998
30
0
11
130.083343
21
-5.35
31
0
39
0
210
0
220
0
230
1
0
LINE
5
10E
100
AcDbEntity
8
1
62
256
6
ByLayer
370
18
48
1
60
1
100
AcDbLine
10
-53.625163
20
6
30
0
11
-53.164379
21
2.500002
31
0
39
0
210
0
220
0
230
1
0
LINE
5
10F
100
AcDbEntity
8
1
62
256
6
ByLayer
370
18
48
1
60
1
100
AcDbLine
10
-53.164379
20
2.500002
30
0
11
-54.085946
21
2.499998
31
0
39
0
210
0
220
0
230
1
0
LINE
5
110
100
AcDbEntity
8
1
62
256
6
ByLayer
370
18
48
1
60
1
100
AcDbLine
10
-54.085946
20
2.499998
30
0
11
-53.625163
21
6
31
0
39
0
210
0
220
0
230
1
0
LINE
5
112
100
AcDbEntity
8
1
62
256
6
ByLayer
370
18
48
1
60
1
100
AcDbLine
10
-53.625163
20
-6
30
0
11
-54.085946
21
-2.500002
31
0
39
0
210
0
220
0
230
1
0
LINE
5
113
100
AcDbEntity
8
1
62
256
6
ByLayer
370
18
48
1
60
1
100
AcDbLine
10
-54.085946
20
-2.500002
30
0
11
-53.164379
21
-2.499998
31
0
39
0
210
0
220
0
230
1
0
LINE
5
114
100
AcDbEntity
8
1
62
256
6
ByLayer
370
18
48
1
60
1
100
AcDbLine
10
-53.164379
20
-2.499998
30
0
11
-53.625163
21
-6
31
0
39
0
210
0
220
0
230
1
0
LINE
5
118
100
AcDbEntity
8
1
62
256
6
ByLayer
370
18
48
1
60
1
100
AcDbLine
10
130.083343
20
5.35
30
0
11
130.544126
21
1.850002
31
0
39
0
210
0
220
0
230
1
0
LINE
5
119
100
AcDbEntity
8
1
62
256
6
ByLayer
370
18
48
1
60
1
100
AcDbLine
10
130.544126
20
1.850002
30
0
11
129.622559
21
1.849998
31
0
39
0
210
0
220
0
230
1
0
LINE
5
11A
100
AcDbEntity
8
1
62
256
6
ByLayer
370
18
48
1
60
1
100
AcDbLine
10
129.622559
20
1.849998
30
0
11
130.083343
21
5.35
31
0
39
0
210
0
220
0
230
1
0
LINE
5
11C
100
AcDbEntity
8
1
62
256
6
ByLayer
370
18
48
1
60
1
100
AcDbLine
10
130.083343
20
-5.35
30
0
11
129.622559
21
-1.850002
31
0
39
0
210
0
220
0
230
1
0
LINE
5
11D
100
AcDbEntity
8
1
62
256
6
ByLayer
370
18
48
1
60
1
100
AcDbLine
10
129.622559
20
-1.850002
30
0
11
130.544126
21
-1.849998
31
0
39
0
210
0
220
0
230
1
0
LINE
5
11E
100
AcDbEntity
8
1
62
256
6
ByLayer
370
18
48
1
60
1
100
AcDbLine
10
130.544126
20
-1.849998
30
0
11
130.083343
21
-5.35
31
0
39
0
210
0
220
0
230
1
0
MTEXT
5
108
100
AcDbEntity
8
SK6
62
256
6
ByLayer
370
13
48
1
60
0
100
AcDbMText
10
8.828407
20
37.890328
30
0
210
0
220
0
230
1
1
\W0.7280;860.1-1070-098A1-PM P1BM
40
3.5
41
0
44
1.084337
50
0
71
7
72
5
7
iso_b_vert
0
MTEXT
5
10C
100
AcDbEntity
8
SK2
62
256
6
ByLayer
370
18
48
1
60
0
100
AcDbMText
10
-55.189796
20
19.409024
30
0
210
0
220
0
230
1
1
%%c
40
3.5
41
0
44
1.084337
50
90
71
7
72
5
7
iso_b_vert
0
MTEXT
5
10D
100
AcDbEntity
8
SK2
62
256
6
ByLayer
370
18
48
1
60
0
100
AcDbMText
10
-55.189796
20
24.63168
30
0
210
0
220
0
230
1
1
\W0.6930;12,000
40
3.5
41
0
44
1.084337
50
90
71
7
72
5
7
iso_b_vert
0
MTEXT
5
116
100
AcDbEntity
8
2
62
256
6
ByLayer
370
18
48
1
60
0
100
AcDbMText
10
128.518709
20
17.35211
30
0
210
0
220
0
230
1
1
%%c
40
3.5
41
0
44
1.084337
50
90
71
7
72
5
7
iso_b_vert
0
MTEXT
5
117
100
AcDbEntity
8
2
62
256
6
ByLayer
370
18
48
1
60
0
100
AcDbMText
10
128.518709
20
22.574766
30
0
210
0
220
0
230
1
1
\W0.6930;10,700
40
3.5
41
0
44
1.084337
50
90
71
7
72
5
7
iso_b_vert
0
HATCH
5
111
100
AcDbEntity
8
SK2
62
256
6
ByLayer
370
13
48
1
60
0
100
AcDbHatch
10
0
20
0
30
0
210
0
220
0
230
1
2
ANSI31
70
0
71
0
91
1
92
5
93
3
72
1
10
-53.6251625675374
20
6
11
-53.1643788259847
21
2.50000169255318
72
1
10
-53.1643788259847
20
2.50000169255318
11
-54.0859463090902
21
2.49999830744682
72
1
10
-54.0859463090902
20
2.49999830744682
11
-53.6251625675374
21
6
97
0
75
0
76
1
52
0
41
0.0062
77
0
78
1
53
45
43
0
44
0
45
-0.0139193969876572
46
0.0139193969876572
79
0
47
0
98
1
10
0
20
0
0
HATCH
5
115
100
AcDbEntity
8
SK2
62
256
6
ByLayer
370
13
48
1
60
0
100
AcDbHatch
10
0
20
0
30
0
210
0
220
0
230
1
2
ANSI31
70
0
71
0
91
1
92
5
93
3
72
1
10
-53.6251625675374
20
-6
11
-54.0859463090902
21
-2.50000169255318
72
1
10
-54.0859463090902
20
-2.50000169255318
11
-53.1643788259847
21
-2.49999830744682
72
1
10
-53.1643788259847
20
-2.49999830744682
11
-53.6251625675374
21
-6
97
0
75
0
76
1
52
0
41
0.0062
77
0
78
1
53
45
43
0
44
0
45
-0.0139193969876572
46
0.0139193969876572
79
0
47
0
98
1
10
0
20
0
0
HATCH
5
11B
100
AcDbEntity
8
2
62
256
6
ByLayer
370
13
48
1
60
0
100
AcDbHatch
10
0
20
0
30
0
210
0
220
0
230
1
2
ANSI31
70
0
71
0
91
1
92
5
93
3
72
1
10
130.083342615295
20
5.35000000000002
11
130.544126356848
21
1.85000169255321
72
1
10
130.544126356848
20
1.85000169255321
11
129.622558873742
21
1.84999830744684
72
1
10
129.622558873742
20
1.84999830744684
11
130.083342615295
21
5.35000000000002
97
0
75
0
76
1
52
0
41
0.0062
77
0
78
1
53
45
43
0
44
0
45
-0.0139193969876572
46
0.0139193969876572
79
0
47
0
98
1
10
0
20
0
0
HATCH
5
11F
100
AcDbEntity
8
2
62
256
6
ByLayer
370
13
48
1
60
0
100
AcDbHatch
10
0
20
0
30
0
210
0
220
0
230
1
2
ANSI31
70
0
71
0
91
1
92
5
93
3
72
1
10
130.083342615295
20
-5.34999999999999
11
129.622558873742
21
-1.85000169255318
72
1
10
129.622558873742
20
-1.85000169255318
11
130.544126356848
21
-1.84999830744681
72
1
10
130.544126356848
20
-1.84999830744681
11
130.083342615295
21
-5.34999999999999
97
0
75
0
76
1
52
0
41
0.0062
77
0
78
1
53
45
43
0
44
0
45
-0.0139193969876572
46
0.0139193969876572
79
0
47
0
98
1
10
0
20
0
0
DIMENSION
5
121
100
AcDbEntity
8
2
62
256
6
ByLayer
370
13
48
1
60
0
100
AcDbDimension
2
_U0
10
115.9458
20
-15.563398
30
0
11
57.9729
21
-15.563398
31
0
70
32
71
1
72
1
41
1
210
0
220
0
230
1
3
Standard
100
AcDbAlignedDimension
13
0
23
0
33
0
14
115.9458
24
-5.35
34
0
50
0
100
AcDbRotatedDimension
1001
ACAD
1000
DSTYLE
1002
{
1070
   371
1070
    13
1070
   372
1070
    13
1070
   170
1070
     0
1070
   144
1040
1.0
1070
   277
1070
     2
1070
   278
1070
    44
1070
   146
1040
1.0
1070
   345
1005
16
1070
   347
1005
16
1070
   346
1005
16
1070
   344
1005
0
1070
   343
1005
0
1070
   172
1070
     1
1070
    76
1070
     0
1070
    75
1070
     0
1070
   282
1070
     0
1070
   281
1070
     0
1070
    71
1070
     0
1070
    74
1070
     0
1070
   279
1070
     0
1070
   173
1070
     1
1070
   340
1005
109
1070
   271
1070
     2
1070
   272
1070
     2
1070
    77
1070
     1
1070
    73
1070
     1
1070
   171
1070
     3
1070
   274
1070
     4
1070
   177
1070
    35
1070
   176
1070
    35
1070
   178
1070
    35
1070
    48
1040
-0.1
1070
    41
1040
3.5
1070
   147
1040
1.75
1070
    42
1040
1.5875
1070
    44
1040
2.0
1070
   140
1040
3.5
1002
}
1001
ACAD_DSTYLE_DIM_LINETYPE
1070
   380
1005
16
1001
ACAD_DSTYLE_DIM_EXT1_LINETYPE
1070
   381
1005
16
1001
ACAD_DSTYLE_DIM_EXT2_LINETYPE
1070
   382
1005
16
0
DIMENSION
5
13A
100
AcDbEntity
8
SK2
62
256
6
ByLayer
370
13
48
1
60
0
100
AcDbDimension
2
_U1
10
118
20
-34.692985
30
0
11
36.5
21
-34.692985
31
0
70
32
71
1
72
1
41
1
210
0
220
0
230
1
3
Standard
100
AcDbAlignedDimension
13
-45
23
-6
33
0
14
118
24
0
34
0
50
0
100
AcDbRotatedDimension
1001
ACAD
1000
DSTYLE
1002
{
1070
   371
1070
    13
1070
   372
1070
    13
1070
   170
1070
     0
1070
   144
1040
1.0
1070
   277
1070
     2
1070
   278
1070
    44
1070
   146
1040
1.0
1070
   345
1005
16
1070
   347
1005
16
1070
   346
1005
16
1070
   344
1005
0
1070
   343
1005
0
1070
   172
1070
     1
1070
    76
1070
     0
1070
    75
1070
     0
1070
   282
1070
     0
1070
   281
1070
     0
1070
    71
1070
     0
1070
    74
1070
     0
1070
   279
1070
     0
1070
   173
1070
     1
1070
   340
1005
109
1070
   271
1070
     2
1070
   272
1070
     2
1070
    77
1070
     1
1070
    73
1070
     1
1070
   171
1070
     3
1070
   274
1070
     4
1070
   177
1070
    35
1070
   176
1070
    35
1070
   178
1070
    35
1070
    48
1040
-0.1
1070
    41
1040
3.5
1070
   147
1040
1.75
1070
    42
1040
1.5875
1070
    44
1040
2.0
1070
   140
1040
3.5
1002
}
1001
ACAD_DSTYLE_DIM_LINETYPE
1070
   380
1005
16
1001
ACAD_DSTYLE_DIM_EXT1_LINETYPE
1070
   381
1005
16
1001
ACAD_DSTYLE_DIM_EXT2_LINETYPE
1070
   382
1005
16
0
DIMENSION
5
152
100
AcDbEntity
8
SK2
62
256
6
ByLayer
370
13
48
1
60
0
100
AcDbDimension
2
_U2
10
118
20
16.959119
30
0
11
74.175
21
16.959119
31
0
70
32
71
1
72
1
41
1
210
0
220
0
230
1
3
Standard
100
AcDbAlignedDimension
13
30.35
23
5.35
33
0
14
118
24
0
34
0
50
0
100
AcDbRotatedDimension
1001
ACAD
1000
DSTYLE
1002
{
1070
   371
1070
    13
1070
   372
1070
    13
1070
   170
1070
     0
1070
   144
1040
1.0
1070
   277
1070
     2
1070
   278
1070
    44
1070
   146
1040
1.0
1070
   345
1005
16
1070
   347
1005
16
1070
   346
1005
16
1070
   344
1005
0
1070
   343
1005
0
1070
   172
1070
     1
1070
    76
1070
     0
1070
    75
1070
     0
1070
   282
1070
     0
1070
   281
1070
     0
1070
    71
1070
     0
1070
    74
1070
     0
1070
   279
1070
     0
1070
   173
1070
     1
1070
   340
1005
109
1070
   271
1070
     2
1070
   272
1070
     2
1070
    77
1070
     1
1070
    73
1070
     1
1070
   171
1070
     3
1070
   274
1070
     4
1070
   177
1070
    35
1070
   176
1070
    35
1070
   178
1070
    35
1070
    48
1040
-0.1
1070
    41
1040
3.5
1070
   147
1040
1.75
1070
    42
1040
1.5875
1070
    44
1040
2.0
1070
   140
1040
3.5
1002
}
1001
ACAD_DSTYLE_DIM_LINETYPE
1070
   380
1005
16
1001
ACAD_DSTYLE_DIM_EXT1_LINETYPE
1070
   381
1005
16
1001
ACAD_DSTYLE_DIM_EXT2_LINETYPE
1070
   382
1005
16
0
DIMENSION
5
16A
100
AcDbEntity
8
SK2
62
256
6
ByLayer
370
13
48
1
60
0
100
AcDbDimension
2
_U3
10
115.9458
20
-18.152503
30
0
11
135.583333
21
-18.152503
31
0
70
32
71
1
72
1
41
1
210
0
220
0
230
1
3
Standard
100
AcDbAlignedDimension
13
118
23
0
33
0
14
115.9458
24
-5.35
34
0
50
0
100
AcDbRotatedDimension
1001
ACAD
1000
DSTYLE
1002
{
1070
   371
1070
    13
1070
   372
1070
    13
1070
   170
1070
     0
1070
   144
1040
1.0
1070
   277
1070
     2
1070
   278
1070
    44
1070
   146
1040
1.0
1070
   345
1005
16
1070
   347
1005
16
1070
   346
1005
16
1070
   344
1005
0
1070
   343
1005
0
1070
   172
1070
     1
1070
    76
1070
     0
1070
    75
1070
     0
1070
   282
1070
     0
1070
   281
1070
     0
1070
    71
1070
     0
1070
    74
1070
     0
1070
   279
1070
     0
1070
   173
1070
     1
1070
   340
1005
109
1070
   271
1070
     2
1070
   272
1070
     2
1070
    77
1070
     1
1070
    73
1070
     1
1070
   171
1070
     3
1070
   274
1070
     4
1070
   177
1070
    35
1070
   176
1070
    35
1070
   178
1070
    35
1070
    48
1040
-0.1
1070
    41
1040
3.5
1070
   147
1040
1.75
1070
    42
1040
1.5875
1070
    44
1040
2.0
1070
   140
1040
3.5
1002
}
1001
ACAD_DSTYLE_DIM_LINETYPE
1070
   380
1005
16
1001
ACAD_DSTYLE_DIM_EXT1_LINETYPE
1070
   381
1005
16
1001
ACAD_DSTYLE_DIM_EXT2_LINETYPE
1070
   382
1005
16
0
DIMENSION
5
184
100
AcDbEntity
8
SK2
62
256
6
ByLayer
370
13
48
1
60
0
100
AcDbDimension
2
_U4
10
115.9458
20
-24.343428
30
0
11
35.4729
21
-24.343428
31
0
70
32
71
1
72
1
41
1
210
0
220
0
230
1
3
Standard
100
AcDbAlignedDimension
13
-45
23
-6
33
0
14
115.9458
24
-5.35
34
0
50
0
100
AcDbRotatedDimension
1001
ACAD
1000
DSTYLE
1002
{
1070
   371
1070
    13
1070
   372
1070
    13
1070
   170
1070
     0
1070
   144
1040
1.0
1070
   277
1070
     2
1070
   278
1070
    44
1070
   146
1040
1.0
1070
   345
1005
16
1070
   347
1005
16
1070
   346
1005
16
1070
   344
1005
0
1070
   343
1005
0
1070
   172
1070
     1
1070
    76
1070
     0
1070
    75
1070
     0
1070
   282
1070
     0
1070
   281
1070
     0
1070
    71
1070
     0
1070
    74
1070
     0
1070
   279
1070
     0
1070
   173
1070
     1
1070
   340
1005
109
1070
   271
1070
     2
1070
   272
1070
     2
1070
    77
1070
     1
1070
    73
1070
     1
1070
   171
1070
     3
1070
   274
1070
     4
1070
   177
1070
    35
1070
   176
1070
    35
1070
   178
1070
    35
1070
    48
1040
-0.1
1070
    41
1040
3.5
1070
   147
1040
1.75
1070
    42
1040
1.5875
1070
    44
1040
2.0
1070
   140
1040
3.5
1002
}
1001
ACAD_DSTYLE_DIM_LINETYPE
1070
   380
1005
16
1001
ACAD_DSTYLE_DIM_EXT1_LINETYPE
1070
   381
1005
16
1001
ACAD_DSTYLE_DIM_EXT2_LINETYPE
1070
   382
1005
16
0
ENDSEC
0
SECTION
2
OBJECTS
0
DICTIONARY
5
20c
330
0
100
AcDbDictionary
280
0
281
1
3
ACAD_GROUP
350
20d
3
ACAD_MLINESTYLE
350
20e
0
DICTIONARY
5
20d
330
0
100
AcDbDictionary
280
0
281
1
0
DICTIONARY
5
20e
330
0
100
AcDbDictionary
280
0
281
1
3
Standard
350
18
0
MLINESTYLE
5
18
330
20e
100
AcDbMlineStyle
2
Standard
70
0
3

62
256
51
90
52
90
71
2
49
-0.5
62
256
6
ByLayer
49
0.5
62
256
6
ByLayer
0
RASTERVARIABLES
5
1fa
330

100
AcDbRasterVariables
90
0
70
1
71
1
72
1
0
ENDSEC
0
EOF
