0
SECTION
2
HEADER
9
$ACADVER
1
AC1015
9
$DWGCODEPAGE
3
ANSI_1252
9
$HANDSEED
5
201
9
$ANGBASE
50
0
9
$ANGDIR
70
0
9
$ATTMODE
70
1
9
$AUNITS
70
0
9
$AUPREC
70
0
9
$CECOLOR
62
256
9
$CELTSCALE
40
1
9
$CELTYPE
6
ByLayer
9
$CELWEIGHT
370
18
9
$CLAYER
8
0
9
$CMLJUST
70
0
9
$CMLSCALE
40
1
9
$CMLSTYLE
2
Standard
9
$DIMSTYLE
2
Standard
9
$TEXTSIZE
40
0.2
9
$TEXTSTYLE
7
Standard
9
$LUNITS
70
2
9
$LUPREC
70
4
9
$EXTNAMES
290
1
9
$INSUNITS
70
4
9
$LTSCALE
40
1
9
$LWDISPLAY
290
1
9
$PDMODE
70
0
9
$PDSIZE
40
0
9
$PLINEGEN
70
0
0
ENDSEC
0
SECTION
2
CLASSES
0
CLASS
1
RASTERVARIABLES
2
AcDbRasterVariables
3
ISM
90
0
280
0
281
0
0
ENDSEC
0
SECTION
2
TABLES
0
TABLE
2
VPORT
5
1f7
100
AcDbSymbolTable
0
VPORT
5
1
100
AcDbSymbolTableRecord
100
AcDbViewportTableRecord
2
*Active
70
0
10
0
20
0
11
1
21
1
12
-1
22
1
13
0
23
0
14
0.5
24
0.5
15
10
25
10
16
0
26
0
36
1
17
0
27
0
37
0
0
ENDTAB
0
TABLE
2
LTYPE
5
1f8
100
AcDbSymbolTable
0
LTYPE
5
14
100
AcDbSymbolTableRecord
100
AcDbLinetypeTableRecord
70
0
2
ByBlock
3

72
65
73
0
40
0
0
LTYPE
5
15
100
AcDbSymbolTableRecord
100
AcDbLinetypeTableRecord
70
0
2
ByLayer
3

72
65
73
0
40
0
0
LTYPE
5
16
100
AcDbSymbolTableRecord
100
AcDbLinetypeTableRecord
70
0
2
Continuous
3
Solid line
72
65
73
0
40
0
0
LTYPE
5
6E
100
AcDbSymbolTableRecord
100
AcDbLinetypeTableRecord
70
0
2
CENTER
3
____ _ ____ _ ____ _ ____
72
65
73
4
40
47.5
49
22
74
0
49
-8.5
74
0
49
8.5
74
0
49
-8.5
74
0
0
LTYPE
5
6F
100
AcDbSymbolTableRecord
100
AcDbLinetypeTableRecord
70
0
2
DASHED
3
__ __ __ __ __ __ __ __ __
72
65
73
2
40
25.72
49
12.86
74
0
49
-12.86
74
0
0
ENDTAB
0
TABLE
2
LAYER
5
1f9
100
AcDbSymbolTable
0
LAYER
5
10
100
AcDbSymbolTableRecord
100
AcDbLayerTableRecord
2
0
70
0
62
7
6
Continuous
290
1
370
-3
390
0
0
LAYER
5
71
100
AcDbSymbolTableRecord
100
AcDbLayerTableRecord
2
80
70
0
62
-6
6
Continuous
290
1
370
-3
390
0
0
LAYER
5
73
100
AcDbSymbolTableRecord
100
AcDbLayerTableRecord
2
81
70
0
62
-3
6
Continuous
290
1
370
-3
390
0
0
LAYER
5
75
100
AcDbSymbolTableRecord
100
AcDbLayerTableRecord
2
1
70
0
62
4
6
Continuous
290
1
370
-3
390
0
0
LAYER
5
86
100
AcDbSymbolTableRecord
100
AcDbLayerTableRecord
2
4
70
0
62
-2
6
CENTER
290
1
370
-3
390
0
0
LAYER
5
9D
100
AcDbSymbolTableRecord
100
AcDbLayerTableRecord
2
2
70
0
62
7
6
Continuous
290
1
370
-3
390
0
0
LAYER
5
10C
100
AcDbSymbolTableRecord
100
AcDbLayerTableRecord
2
Defpoints
70
0
62
7
6
Continuous
290
0
370
-3
390
0
0
LAYER
5
1e3
100
AcDbSymbolTableRecord
100
AcDbLayerTableRecord
2
SK1
70
0
62
4
6
Continuous
290
1
370
-3
390
0
0
LAYER
5
1e4
100
AcDbSymbolTableRecord
100
AcDbLayerTableRecord
2
SK4
70
0
62
2
6
CENTER
290
1
370
-3
390
0
0
LAYER
5
1e5
100
AcDbSymbolTableRecord
100
AcDbLayerTableRecord
2
SK2
70
0
62
7
6
Continuous
290
1
370
-3
390
0
0
LAYER
5
1e6
100
AcDbSymbolTableRecord
100
AcDbLayerTableRecord
2
SK6
70
0
62
5
6
Continuous
290
1
370
-3
390
0
0
ENDTAB
0
TABLE
2
STYLE
5
1fa
100
AcDbSymbolTable
0
STYLE
5
11
100
AcDbSymbolTableRecord
100
AcDbTextStyleTableRecord
2
Standard
3
txt
70
0
71
0
40
0
41
1
42
0
50
0
0
STYLE
5
F1
100
AcDbSymbolTableRecord
100
AcDbTextStyleTableRecord
2
iso_b_vert
3
simplex.shx
70
0
71
0
40
0
41
1
42
0
50
0
0
STYLE
5
F2
100
AcDbSymbolTableRecord
100
AcDbTextStyleTableRecord
2
DWGDirectTextStyle
3
simplex
70
0
71
0
40
0
41
1
42
0
50
0
0
ENDTAB
0
TABLE
2
DIMSTYLE
5
1fb
100
AcDbSymbolTable
100
AcDbDimStyleTable
0
DIMSTYLE
105
27
100
AcDbSymbolTableRecord
100
AcDbDimStyleTableRecord
2
Standard
70
0
3
<>
41
0.18
42
0.0625
44
0.18
140
0.18
147
0.09
73
0
74
0
77
1
271
2
275
0
278
52
280
0
340
11
0
ENDTAB
0
TABLE
2
VIEW
5
1fc
100
AcDbSymbolTable
0
ENDTAB
0
TABLE
2
UCS
5
1fd
100
AcDbSymbolTable
0
ENDTAB
0
TABLE
2
APPID
5
1fe
100
AcDbSymbolTable
0
APPID
5
12
100
AcDbSymbolTableRecord
100
AcDbRegAppTableRecord
2
ACAD
70
0
0
APPID
5
108
100
AcDbSymbolTableRecord
100
AcDbRegAppTableRecord
2
ACAD_DSTYLE_DIMBREAK
70
0
0
APPID
5
1A2
100
AcDbSymbolTableRecord
100
AcDbRegAppTableRecord
2
ACAD_DSTYLE_DIM_LINETYPE
70
0
0
APPID
5
1A3
100
AcDbSymbolTableRecord
100
AcDbRegAppTableRecord
2
ACAD_DSTYLE_DIM_EXT1_LINETYPE
70
0
0
APPID
5
1A4
100
AcDbSymbolTableRecord
100
AcDbRegAppTableRecord
2
ACAD_DSTYLE_DIM_EXT2_LINETYPE
70
0
0
APPID
5
1DF
100
AcDbSymbolTableRecord
100
AcDbRegAppTableRecord
2
ACAD_MLEADERVER
70
0
0
ENDTAB
0
TABLE
2
BLOCK_RECORD
5
1ff
100
AcDbSymbolTable
0
BLOCK_RECORD
5
1F
100
AcDbSymbolTableRecord
100
AcDbBlockTableRecord
2
*Model_Space
340
0
70
0
0
BLOCK_RECORD
5
1B
100
AcDbSymbolTableRecord
100
AcDbBlockTableRecord
2
*Paper_Space
340
0
70
0
0
BLOCK_RECORD
5
23
100
AcDbSymbolTableRecord
100
AcDbBlockTableRecord
2
*Paper_Space0
340
0
70
0
0
BLOCK_RECORD
5
10D
100
AcDbSymbolTableRecord
100
AcDbBlockTableRecord
2
*D1
340
0
70
0
0
BLOCK_RECORD
5
119
100
AcDbSymbolTableRecord
100
AcDbBlockTableRecord
2
_U0
340
0
70
0
0
BLOCK_RECORD
5
125
100
AcDbSymbolTableRecord
100
AcDbBlockTableRecord
2
*D3
340
0
70
0
0
BLOCK_RECORD
5
131
100
AcDbSymbolTableRecord
100
AcDbBlockTableRecord
2
_U1
340
0
70
0
0
BLOCK_RECORD
5
13D
100
AcDbSymbolTableRecord
100
AcDbBlockTableRecord
2
*D5
340
0
70
0
0
BLOCK_RECORD
5
149
100
AcDbSymbolTableRecord
100
AcDbBlockTableRecord
2
_U2
340
0
70
0
0
BLOCK_RECORD
5
155
100
AcDbSymbolTableRecord
100
AcDbBlockTableRecord
2
*D7
340
0
70
0
0
BLOCK_RECORD
5
163
100
AcDbSymbolTableRecord
100
AcDbBlockTableRecord
2
_U3
340
0
70
0
0
BLOCK_RECORD
5
16F
100
AcDbSymbolTableRecord
100
AcDbBlockTableRecord
2
*D9
340
0
70
0
0
BLOCK_RECORD
5
17B
100
AcDbSymbolTableRecord
100
AcDbBlockTableRecord
2
_U4
340
0
70
0
0
ENDTAB
0
ENDSEC
0
SECTION
2
BLOCKS
0
BLOCK
5
20
100
AcDbEntity
8
0
100
AcDbBlockBegin
2
*Model_Space
70
0
10
0
20
0
30
0
3
*Model_Space
0
ENDBLK
5
21
100
AcDbEntity
8
0
100
AcDbBlockEnd
0
BLOCK
5
1C
100
AcDbEntity
8
0
100
AcDbBlockBegin
2
*Paper_Space
70
0
10
0
20
0
30
0
3
*Paper_Space
0
ENDBLK
5
1D
100
AcDbEntity
8
0
100
AcDbBlockEnd
0
BLOCK
5
24
100
AcDbEntity
8
0
100
AcDbBlockBegin
2
*Paper_Space0
70
0
10
0
20
0
30
0
3
*Paper_Space0
0
ENDBLK
5
25
100
AcDbEntity
8
0
100
AcDbBlockEnd
0
BLOCK
5
10E
100
AcDbEntity
8
0
100
AcDbBlockBegin
2
*D1
70
1
10
0
20
0
30
0
3
*D1
0
LINE
5
110
100
AcDbEntity
8
0
62
256
6
ByLayer
370
-2
48
1
60
0
100
AcDbLine
10
0
20
-1.5875
30
0
11
0
21
-17.463398
31
0
39
0
210
0
220
0
230
1
0
LINE
5
111
100
AcDbEntity
8
0
62
256
6
ByLayer
370
-2
48
1
60
0
100
AcDbLine
10
70.9845
20
-6.8375
30
0
11
70.9845
21
-17.463398
31
0
39
0
210
0
220
0
230
1
0
LINE
5
112
100
AcDbEntity
8
0
62
256
6
ByLayer
370
-2
48
1
60
0
100
AcDbLine
10
3.5
20
-15.463398
30
0
11
67.4845
21
-15.463398
31
0
39
0
210
0
220
0
230
1
0
SOLID
5
113
100
AcDbEntity
8
0
62
256
6
ByLayer
370
-1
48
1
60
0
100
AcDbTrace
10
3.5
20
-14.880065
30
0
11
3.5
21
-16.046732
31
0
12
0
22
-15.463398
32
0
13
0
23
-15.463398
33
0
39
0
210
0
220
0
230
1
0
SOLID
5
114
100
AcDbEntity
8
0
62
256
6
ByLayer
370
-1
48
1
60
0
100
AcDbTrace
10
67.4845
20
-16.046732
30
0
11
67.4845
21
-14.880065
31
0
12
70.9845
22
-15.463398
32
0
13
70.9845
23
-15.463398
33
0
39
0
210
0
220
0
230
1
0
MTEXT
5
115
100
AcDbEntity
8
0
62
256
6
ByLayer
370
18
48
1
60
0
100
AcDbMText
10
35.49225
20
-8.463398
30
0
210
0
220
0
230
1
1
\A1;70.98
40
3.5
41
0
44
1
50
0
71
5
72
5
7
iso_b_vert
0
POINT
5
116
100
AcDbEntity
8
Defpoints
62
0
6
ByLayer
370
-1
48
1
60
0
100
AcDbPoint
10
0
20
0
30
0
39
0
210
0
220
0
230
1
50
360
0
POINT
5
117
100
AcDbEntity
8
Defpoints
62
0
6
ByLayer
370
-1
48
1
60
0
100
AcDbPoint
10
70.9845
20
-5.25
30
0
39
0
210
0
220
0
230
1
50
360
0
POINT
5
118
100
AcDbEntity
8
Defpoints
62
0
6
ByLayer
370
-1
48
1
60
0
100
AcDbPoint
10
70.9845
20
-15.463398
30
0
39
0
210
0
220
0
230
1
50
360
0
ENDBLK
5
10F
100
AcDbEntity
8
0
100
AcDbBlockEnd
0
BLOCK
5
120
100
AcDbEntity
8
0
100
AcDbBlockBegin
2
_U0
70
0
10
0
20
0
30
0
3
_U0
0
MTEXT
5
11A
100
AcDbEntity
8
2
62
256
6
ByLayer
370
13
48
1
60
0
100
AcDbMText
10
30.354951
20
-14.430765
30
0
210
0
220
0
230
1
1
\W0.7317;70,98
40
3.5
41
0
44
1.084337
50
0
71
7
72
5
7
iso_b_vert
0
LINE
5
11B
100
AcDbEntity
8
2
62
256
6
ByLayer
370
13
48
1
60
0
100
AcDbLine
10
0
20
-1.5875
30
0
11
0
21
-17.463398
31
0
39
0
210
0
220
0
230
1
0
LINE
5
11C
100
AcDbEntity
8
2
62
256
6
ByLayer
370
13
48
1
60
0
100
AcDbLine
10
70.9845
20
-6.8375
30
0
11
70.9845
21
-17.463398
31
0
39
0
210
0
220
0
230
1
0
LINE
5
11D
100
AcDbEntity
8
2
62
256
6
ByLayer
370
13
48
1
60
0
100
AcDbLine
10
0
20
-15.463398
30
0
11
70.9845
21
-15.463398
31
0
39
0
210
0
220
0
230
1
0
SOLID
5
11E
100
AcDbEntity
8
2
62
256
6
ByLayer
370
18
48
1
60
0
100
AcDbTrace
10
0
20
-15.463398
30
0
11
3.499998
21
-15.002615
31
0
12
3.500002
22
-15.924182
32
0
13
3.500002
23
-15.924182
33
0
39
0
210
0
220
0
230
1
0
SOLID
5
11F
100
AcDbEntity
8
2
62
256
6
ByLayer
370
18
48
1
60
0
100
AcDbTrace
10
70.9845
20
-15.463398
30
0
11
67.484502
21
-15.924182
31
0
12
67.484498
22
-15.002615
32
0
13
67.484498
23
-15.002615
33
0
39
0
210
0
220
0
230
1
0
ENDBLK
5
121
100
AcDbEntity
8
0
100
AcDbBlockEnd
0
BLOCK
5
126
100
AcDbEntity
8
0
100
AcDbBlockBegin
2
*D3
70
1
10
0
20
0
30
0
3
*D3
0
LINE
5
128
100
AcDbEntity
8
0
62
256
6
ByLayer
370
-2
48
1
60
0
100
AcDbLine
10
-45
20
-7.5875
30
0
11
-45
21
-36.692985
31
0
39
0
210
0
220
0
230
1
0
LINE
5
129
100
AcDbEntity
8
0
62
256
6
ByLayer
370
-2
48
1
60
0
100
AcDbLine
10
73
20
-1.5875
30
0
11
73
21
-36.692985
31
0
39
0
210
0
220
0
230
1
0
LINE
5
12A
100
AcDbEntity
8
0
62
256
6
ByLayer
370
-2
48
1
60
0
100
AcDbLine
10
-41.5
20
-34.692985
30
0
11
69.5
21
-34.692985
31
0
39
0
210
0
220
0
230
1
0
SOLID
5
12B
100
AcDbEntity
8
0
62
256
6
ByLayer
370
-1
48
1
60
0
100
AcDbTrace
10
-41.5
20
-34.109652
30
0
11
-41.5
21
-35.276319
31
0
12
-45
22
-34.692985
32
0
13
-45
23
-34.692985
33
0
39
0
210
0
220
0
230
1
0
SOLID
5
12C
100
AcDbEntity
8
0
62
256
6
ByLayer
370
-1
48
1
60
0
100
AcDbTrace
10
69.5
20
-35.276319
30
0
11
69.5
21
-34.109652
31
0
12
73
22
-34.692985
32
0
13
73
23
-34.692985
33
0
39
0
210
0
220
0
230
1
0
MTEXT
5
12D
100
AcDbEntity
8
0
62
256
6
ByLayer
370
18
48
1
60
0
100
AcDbMText
10
14
20
-27.692985
30
0
210
0
220
0
230
1
1
\A1;118.00
40
3.5
41
0
44
1
50
0
71
5
72
5
7
iso_b_vert
0
POINT
5
12E
100
AcDbEntity
8
Defpoints
62
0
6
ByLayer
370
-1
48
1
60
0
100
AcDbPoint
10
-45
20
-6
30
0
39
0
210
0
220
0
230
1
50
360
0
POINT
5
12F
100
AcDbEntity
8
Defpoints
62
0
6
ByLayer
370
-1
48
1
60
0
100
AcDbPoint
10
73
20
0
30
0
39
0
210
0
220
0
230
1
50
360
0
POINT
5
130
100
AcDbEntity
8
Defpoints
62
0
6
ByLayer
370
-1
48
1
60
0
100
AcDbPoint
10
73
20
-34.692985
30
0
39
0
210
0
220
0
230
1
50
360
0
ENDBLK
5
127
100
AcDbEntity
8
0
100
AcDbBlockEnd
0
BLOCK
5
138
100
AcDbEntity
8
0
100
AcDbBlockBegin
2
_U1
70
0
10
0
20
0
30
0
3
_U1
0
MTEXT
5
132
100
AcDbEntity
8
SK2
62
256
6
ByLayer
370
13
48
1
60
0
100
AcDbMText
10
8.429835
20
-33.660352
30
0
210
0
220
0
230
1
1
\W0.6440;118,00
40
3.5
41
0
44
1.084337
50
0
71
7
72
5
7
iso_b_vert
0
LINE
5
133
100
AcDbEntity
8
SK2
62
256
6
ByLayer
370
13
48
1
60
0
100
AcDbLine
10
-45
20
-7.5875
30
0
11
-45
21
-36.692985
31
0
39
0
210
0
220
0
230
1
0
LINE
5
134
100
AcDbEntity
8
SK2
62
256
6
ByLayer
370
13
48
1
60
0
100
AcDbLine
10
73
20
-1.5875
30
0
11
73
21
-36.692985
31
0
39
0
210
0
220
0
230
1
0
LINE
5
135
100
AcDbEntity
8
SK2
62
256
6
ByLayer
370
13
48
1
60
0
100
AcDbLine
10
-45
20
-34.692985
30
0
11
73
21
-34.692985
31
0
39
0
210
0
220
0
230
1
0
SOLID
5
136
100
AcDbEntity
8
SK2
62
256
6
ByLayer
370
18
48
1
60
0
100
AcDbTrace
10
-45
20
-34.692985
30
0
11
-41.500002
21
-34.232202
31
0
12
-41.499998
22
-35.153769
32
0
13
-41.499998
23
-35.153769
33
0
39
0
210
0
220
0
230
1
0
SOLID
5
137
100
AcDbEntity
8
SK2
62
256
6
ByLayer
370
18
48
1
60
0
100
AcDbTrace
10
73
20
-34.692985
30
0
11
69.500002
21
-35.153769
31
0
12
69.499998
22
-34.232202
32
0
13
69.499998
23
-34.232202
33
0
39
0
210
0
220
0
230
1
0
ENDBLK
5
139
100
AcDbEntity
8
0
100
AcDbBlockEnd
0
BLOCK
5
13E
100
AcDbEntity
8
0
100
AcDbBlockBegin
2
*D5
70
1
10
0
20
0
30
0
3
*D5
0
LINE
5
140
100
AcDbEntity
8
0
62
256
6
ByLayer
370
-2
48
1
60
0
100
AcDbLine
10
18.48
20
6.8375
30
0
11
18.48
21
18.859119
31
0
39
0
210
0
220
0
230
1
0
LINE
5
141
100
AcDbEntity
8
0
62
256
6
ByLayer
370
-2
48
1
60
0
100
AcDbLine
10
73
20
1.5875
30
0
11
73
21
18.859119
31
0
39
0
210
0
220
0
230
1
0
LINE
5
142
100
AcDbEntity
8
0
62
256
6
ByLayer
370
-2
48
1
60
0
100
AcDbLine
10
21.98
20
16.859119
30
0
11
69.5
21
16.859119
31
0
39
0
210
0
220
0
230
1
0
SOLID
5
143
100
AcDbEntity
8
0
62
256
6
ByLayer
370
-1
48
1
60
0
100
AcDbTrace
10
21.98
20
17.442453
30
0
11
21.98
21
16.275786
31
0
12
18.48
22
16.859119
32
0
13
18.48
23
16.859119
33
0
39
0
210
0
220
0
230
1
0
SOLID
5
144
100
AcDbEntity
8
0
62
256
6
ByLayer
370
-1
48
1
60
0
100
AcDbTrace
10
69.5
20
16.275786
30
0
11
69.5
21
17.442453
31
0
12
73
22
16.859119
32
0
13
73
23
16.859119
33
0
39
0
210
0
220
0
230
1
0
MTEXT
5
145
100
AcDbEntity
8
0
62
256
6
ByLayer
370
18
48
1
60
0
100
AcDbMText
10
45.74
20
23.859119
30
0
210
0
220
0
230
1
1
\A1;54.52
40
3.5
41
0
44
1
50
0
71
5
72
5
7
iso_b_vert
0
POINT
5
146
100
AcDbEntity
8
Defpoints
62
0
6
ByLayer
370
-1
48
1
60
0
100
AcDbPoint
10
18.48
20
5.25
30
0
39
0
210
0
220
0
230
1
50
360
0
POINT
5
147
100
AcDbEntity
8
Defpoints
62
0
6
ByLayer
370
-1
48
1
60
0
100
AcDbPoint
10
73
20
0
30
0
39
0
210
0
220
0
230
1
50
360
0
POINT
5
148
100
AcDbEntity
8
Defpoints
62
0
6
ByLayer
370
-1
48
1
60
0
100
AcDbPoint
10
73
20
16.859119
30
0
39
0
210
0
220
0
230
1
50
360
0
ENDBLK
5
13F
100
AcDbEntity
8
0
100
AcDbBlockEnd
0
BLOCK
5
150
100
AcDbEntity
8
0
100
AcDbBlockBegin
2
_U2
70
0
10
0
20
0
30
0
3
_U2
0
MTEXT
5
14A
100
AcDbEntity
8
SK2
62
256
6
ByLayer
370
13
48
1
60
0
100
AcDbMText
10
40.418435
20
17.891753
30
0
210
0
220
0
230
1
1
\W0.7581;54,52
40
3.5
41
0
44
1.084337
50
0
71
7
72
5
7
iso_b_vert
0
LINE
5
14B
100
AcDbEntity
8
SK2
62
256
6
ByLayer
370
13
48
1
60
0
100
AcDbLine
10
18.48
20
6.8375
30
0
11
18.48
21
18.859119
31
0
39
0
210
0
220
0
230
1
0
LINE
5
14C
100
AcDbEntity
8
SK2
62
256
6
ByLayer
370
13
48
1
60
0
100
AcDbLine
10
73
20
1.5875
30
0
11
73
21
18.859119
31
0
39
0
210
0
220
0
230
1
0
LINE
5
14D
100
AcDbEntity
8
SK2
62
256
6
ByLayer
370
13
48
1
60
0
100
AcDbLine
10
18.48
20
16.859119
30
0
11
73
21
16.859119
31
0
39
0
210
0
220
0
230
1
0
SOLID
5
14E
100
AcDbEntity
8
SK2
62
256
6
ByLayer
370
18
48
1
60
0
100
AcDbTrace
10
18.48
20
16.859119
30
0
11
21.979998
21
17.319903
31
0
12
21.980002
22
16.398335
32
0
13
21.980002
23
16.398335
33
0
39
0
210
0
220
0
230
1
0
SOLID
5
14F
100
AcDbEntity
8
SK2
62
256
6
ByLayer
370
18
48
1
60
0
100
AcDbTrace
10
73
20
16.859119
30
0
11
69.500002
21
16.398335
31
0
12
69.499998
22
17.319903
32
0
13
69.499998
23
17.319903
33
0
39
0
210
0
220
0
230
1
0
ENDBLK
5
151
100
AcDbEntity
8
0
100
AcDbBlockEnd
0
BLOCK
5
156
100
AcDbEntity
8
0
100
AcDbBlockBegin
2
*D7
70
1
10
0
20
0
30
0
3
*D7
0
LINE
5
158
100
AcDbEntity
8
0
62
256
6
ByLayer
370
-2
48
1
60
0
100
AcDbLine
10
73
20
-1.5875
30
0
11
73
21
-20.052503
31
0
39
0
210
0
220
0
230
1
0
LINE
5
159
100
AcDbEntity
8
0
62
256
6
ByLayer
370
-2
48
1
60
0
100
AcDbLine
10
70.9845
20
-6.8375
30
0
11
70.9845
21
-20.052503
31
0
39
0
210
0
220
0
230
1
0
LINE
5
15A
100
AcDbEntity
8
0
62
256
6
ByLayer
370
-2
48
1
60
0
100
AcDbLine
10
73
20
-18.052503
30
0
11
101.166667
21
-18.052503
31
0
39
0
210
0
220
0
230
1
0
LINE
5
15B
100
AcDbEntity
8
0
62
256
6
ByLayer
370
-2
48
1
60
0
100
AcDbLine
10
76.5
20
-18.052503
30
0
11
80
21
-18.052503
31
0
39
0
210
0
220
0
230
1
0
LINE
5
15C
100
AcDbEntity
8
0
62
256
6
ByLayer
370
-2
48
1
60
0
100
AcDbLine
10
67.4845
20
-18.052503
30
0
11
63.9845
21
-18.052503
31
0
39
0
210
0
220
0
230
1
0
SOLID
5
15D
100
AcDbEntity
8
0
62
256
6
ByLayer
370
-1
48
1
60
0
100
AcDbTrace
10
76.5
20
-17.46917
30
0
11
76.5
21
-18.635837
31
0
12
73
22
-18.052503
32
0
13
73
23
-18.052503
33
0
39
0
210
0
220
0
230
1
0
SOLID
5
15E
100
AcDbEntity
8
0
62
256
6
ByLayer
370
-1
48
1
60
0
100
AcDbTrace
10
67.4845
20
-18.635837
30
0
11
67.4845
21
-17.46917
31
0
12
70.9845
22
-18.052503
32
0
13
70.9845
23
-18.052503
33
0
39
0
210
0
220
0
230
1
0
MTEXT
5
15F
100
AcDbEntity
8
0
62
256
6
ByLayer
370
18
48
1
60
0
100
AcDbMText
10
90.583333
20
-11.052503
30
0
210
0
220
0
230
1
1
\A1;2.02
40
3.5
41
0
44
1
50
0
71
5
72
5
7
iso_b_vert
0
POINT
5
160
100
AcDbEntity
8
Defpoints
62
0
6
ByLayer
370
-1
48
1
60
0
100
AcDbPoint
10
73
20
0
30
0
39
0
210
0
220
0
230
1
50
360
0
POINT
5
161
100
AcDbEntity
8
Defpoints
62
0
6
ByLayer
370
-1
48
1
60
0
100
AcDbPoint
10
70.9845
20
-5.25
30
0
39
0
210
0
220
0
230
1
50
360
0
POINT
5
162
100
AcDbEntity
8
Defpoints
62
0
6
ByLayer
370
-1
48
1
60
0
100
AcDbPoint
10
70.9845
20
-18.052503
30
0
39
0
210
0
220
0
230
1
50
360
0
ENDBLK
5
157
100
AcDbEntity
8
0
100
AcDbBlockEnd
0
BLOCK
5
16A
100
AcDbEntity
8
0
100
AcDbBlockBegin
2
_U3
70
0
10
0
20
0
30
0
3
_U3
0
MTEXT
5
164
100
AcDbEntity
8
SK2
62
256
6
ByLayer
370
13
48
1
60
0
100
AcDbMText
10
79.15186
20
-17.01987
30
0
210
0
220
0
230
1
1
\W0.7150;2,02
40
3.5
41
0
44
1.084337
50
0
71
7
72
5
7
iso_b_vert
0
LINE
5
165
100
AcDbEntity
8
SK2
62
256
6
ByLayer
370
13
48
1
60
0
100
AcDbLine
10
73
20
-1.5875
30
0
11
73
21
-20.052503
31
0
39
0
210
0
220
0
230
1
0
LINE
5
166
100
AcDbEntity
8
SK2
62
256
6
ByLayer
370
13
48
1
60
0
100
AcDbLine
10
70.9845
20
-6.8375
30
0
11
70.9845
21
-20.052503
31
0
39
0
210
0
220
0
230
1
0
LINE
5
167
100
AcDbEntity
8
SK2
62
256
6
ByLayer
370
13
48
1
60
0
100
AcDbLine
10
62.2345
20
-18.052503
30
0
11
86.996491
21
-18.052503
31
0
39
0
210
0
220
0
230
1
0
SOLID
5
168
100
AcDbEntity
8
SK2
62
256
6
ByLayer
370
18
48
1
60
0
100
AcDbTrace
10
73
20
-18.052503
30
0
11
76.499998
21
-17.591719
31
0
12
76.500002
22
-18.513287
32
0
13
76.500002
23
-18.513287
33
0
39
0
210
0
220
0
230
1
0
SOLID
5
169
100
AcDbEntity
8
SK2
62
256
6
ByLayer
370
18
48
1
60
0
100
AcDbTrace
10
70.9845
20
-18.052503
30
0
11
67.484502
21
-18.513287
31
0
12
67.484498
22
-17.591719
32
0
13
67.484498
23
-17.591719
33
0
39
0
210
0
220
0
230
1
0
ENDBLK
5
16B
100
AcDbEntity
8
0
100
AcDbBlockEnd
0
BLOCK
5
170
100
AcDbEntity
8
0
100
AcDbBlockBegin
2
*D9
70
1
10
0
20
0
30
0
3
*D9
0
LINE
5
172
100
AcDbEntity
8
0
62
256
6
ByLayer
370
-2
48
1
60
0
100
AcDbLine
10
-45
20
-7.5875
30
0
11
-45
21
-26.343428
31
0
39
0
210
0
220
0
230
1
0
LINE
5
173
100
AcDbEntity
8
0
62
256
6
ByLayer
370
-2
48
1
60
0
100
AcDbLine
10
70.9845
20
-6.8375
30
0
11
70.9845
21
-26.343428
31
0
39
0
210
0
220
0
230
1
0
LINE
5
174
100
AcDbEntity
8
0
62
256
6
ByLayer
370
-2
48
1
60
0
100
AcDbLine
10
-41.5
20
-24.343428
30
0
11
67.4845
21
-24.343428
31
0
39
0
210
0
220
0
230
1
0
SOLID
5
175
100
AcDbEntity
8
0
62
256
6
ByLayer
370
-1
48
1
60
0
100
AcDbTrace
10
-41.5
20
-23.760095
30
0
11
-41.5
21
-24.926762
31
0
12
-45
22
-24.343428
32
0
13
-45
23
-24.343428
33
0
39
0
210
0
220
0
230
1
0
SOLID
5
176
100
AcDbEntity
8
0
62
256
6
ByLayer
370
-1
48
1
60
0
100
AcDbTrace
10
67.4845
20
-24.926762
30
0
11
67.4845
21
-23.760095
31
0
12
70.9845
22
-24.343428
32
0
13
70.9845
23
-24.343428
33
0
39
0
210
0
220
0
230
1
0
MTEXT
5
177
100
AcDbEntity
8
0
62
256
6
ByLayer
370
18
48
1
60
0
100
AcDbMText
10
12.99225
20
-17.343428
30
0
210
0
220
0
230
1
1
\A1;115.98
40
3.5
41
0
44
1
50
0
71
5
72
5
7
iso_b_vert
0
POINT
5
178
100
AcDbEntity
8
Defpoints
62
0
6
ByLayer
370
-1
48
1
60
0
100
AcDbPoint
10
-45
20
-6
30
0
39
0
210
0
220
0
230
1
50
360
0
POINT
5
179
100
AcDbEntity
8
Defpoints
62
0
6
ByLayer
370
-1
48
1
60
0
100
AcDbPoint
10
70.9845
20
-5.25
30
0
39
0
210
0
220
0
230
1
50
360
0
POINT
5
17A
100
AcDbEntity
8
Defpoints
62
0
6
ByLayer
370
-1
48
1
60
0
100
AcDbPoint
10
70.9845
20
-24.343428
30
0
39
0
210
0
220
0
230
1
50
360
0
ENDBLK
5
171
100
AcDbEntity
8
0
100
AcDbBlockEnd
0
BLOCK
5
182
100
AcDbEntity
8
0
100
AcDbBlockBegin
2
_U4
70
0
10
0
20
0
30
0
3
_U4
0
MTEXT
5
17C
100
AcDbEntity
8
SK2
62
256
6
ByLayer
370
13
48
1
60
0
100
AcDbMText
10
7.422085
20
-23.310795
30
0
210
0
220
0
230
1
1
\W0.6440;115,98
40
3.5
41
0
44
1.084337
50
0
71
7
72
5
7
iso_b_vert
0
LINE
5
17D
100
AcDbEntity
8
SK2
62
256
6
ByLayer
370
13
48
1
60
0
100
AcDbLine
10
-45
20
-7.5875
30
0
11
-45
21
-26.343428
31
0
39
0
210
0
220
0
230
1
0
LINE
5
17E
100
AcDbEntity
8
SK2
62
256
6
ByLayer
370
13
48
1
60
0
100
AcDbLine
10
70.9845
20
-6.8375
30
0
11
70.9845
21
-26.343428
31
0
39
0
210
0
220
0
230
1
0
LINE
5
17F
100
AcDbEntity
8
SK2
62
256
6
ByLayer
370
13
48
1
60
0
100
AcDbLine
10
-45
20
-24.343428
30
0
11
70.9845
21
-24.343428
31
0
39
0
210
0
220
0
230
1
0
SOLID
5
180
100
AcDbEntity
8
SK2
62
256
6
ByLayer
370
18
48
1
60
0
100
AcDbTrace
10
-45
20
-24.343428
30
0
11
-41.500002
21
-23.882645
31
0
12
-41.499998
22
-24.804212
32
0
13
-41.499998
23
-24.804212
33
0
39
0
210
0
220
0
230
1
0
SOLID
5
181
100
AcDbEntity
8
SK2
62
256
6
ByLayer
370
18
48
1
60
0
100
AcDbTrace
10
70.9845
20
-24.343428
30
0
11
67.484502
21
-24.804212
31
0
12
67.484498
22
-23.882645
32
0
13
67.484498
23
-23.882645
33
0
39
0
210
0
220
0
230
1
0
ENDBLK
5
183
100
AcDbEntity
8
0
100
AcDbBlockEnd
0
ENDSEC
0
SECTION
2
ENTITIES
0
ARC
5
A6
100
AcDbEntity
8
1
62
256
6
ByLayer
370
18
48
1
60
0
100
AcDbCircle
39
0
10
1.486449
20
-5.974905
30
0
40
0.850000000000002
210
0
220
0
230
1
100
AcDbArc
50
89.896868
51
150.971922
0
ARC
5
A7
100
AcDbEntity
8
1
62
256
6
ByLayer
370
18
48
1
60
0
100
AcDbCircle
39
0
10
1.486449
20
5.974905
30
0
40
0.850000000000002
210
0
220
0
230
1
100
AcDbArc
50
209.028078
51
270.103132
0
ARC
5
A8
100
AcDbEntity
8
1
62
256
6
ByLayer
370
18
48
1
60
0
100
AcDbCircle
39
0
10
0
20
-5.15
30
0
40
0.850000000000002
210
0
220
0
230
1
100
AcDbArc
50
270
51
330.971922
0
ARC
5
A9
100
AcDbEntity
8
1
62
256
6
ByLayer
370
18
48
1
60
0
100
AcDbCircle
39
0
10
0
20
5.15
30
0
40
0.850000000000002
210
0
220
0
230
1
100
AcDbArc
50
29.028078
51
90
0
ELLIPSE
5
AA
100
AcDbEntity
8
1
62
256
6
ByLayer
370
13
48
1
60
0
100
AcDbEllipse
10
117.194174
20
41.888784
30
0
11
-60.1999999999999
21
7.3721302500107E-15
31
0
210
0
220
0
230
1
40
0.99863
41
0.716330370272915
42
0.732214818960566
0
ELLIPSE
5
AB
100
AcDbEntity
8
1
62
256
6
ByLayer
370
13
48
1
60
0
100
AcDbEllipse
10
15.218651
20
-7.937422
30
0
11
-63.133799224746
21
38.8840043488612
31
0
210
0
220
0
230
1
40
0.072023
41
-1.52646667180176
42
-1.37383713731457
0
ELLIPSE
5
AC
100
AcDbEntity
8
1
62
256
6
ByLayer
370
13
48
1
60
0
100
AcDbEllipse
10
5.809689
20
-5.019003
30
0
11
0.0494972786821278
21
0.295888525298065
31
0
210
0
220
0
230
1
40
0.431245
41
0.36511895384396
42
1.31467565226792
0
ELLIPSE
5
AD
100
AcDbEntity
8
1
62
256
6
ByLayer
370
13
48
1
60
0
100
AcDbEllipse
10
5.485272
20
-5.038214
30
0
11
-0.0896339345183154
21
0.286296625517602
31
0
210
0
220
0
230
1
40
0.524585
41
0.374512062033287
42
0.569785697079121
0
ELLIPSE
5
AE
100
AcDbEntity
8
1
62
256
6
ByLayer
370
13
48
1
60
0
100
AcDbEllipse
10
17.088497
20
-4.901456
30
0
11
-63.1337992247459
21
38.8840043488611
31
0
210
0
220
0
230
1
40
0.072023
41
-1.52646667180176
42
-1.44429889419457
0
POINT
5
70
100
AcDbEntity
8
80
62
256
6
ByLayer
370
18
48
1
60
0
100
AcDbPoint
10
0
20
0
30
0
39
0
210
0
220
0
230
1
50
360
0
POINT
5
72
100
AcDbEntity
8
81
62
256
6
ByLayer
370
18
48
1
60
0
100
AcDbPoint
10
73
20
0
30
0
39
0
210
0
220
0
230
1
50
360
0
POINT
5
74
100
AcDbEntity
8
1
62
256
6
ByLayer
370
18
48
1
60
1
100
AcDbPoint
10
70.9845
20
-5.25
30
0
39
0
210
0
220
0
230
1
50
360
0
POINT
5
76
100
AcDbEntity
8
1
62
256
6
ByLayer
370
18
48
1
60
1
100
AcDbPoint
10
-45
20
-6
30
0
39
0
210
0
220
0
230
1
50
360
0
POINT
5
77
100
AcDbEntity
8
1
62
256
6
ByLayer
370
18
48
1
60
1
100
AcDbPoint
10
18.48
20
5.25
30
0
39
0
210
0
220
0
230
1
50
360
0
POINT
5
78
100
AcDbEntity
8
1
62
256
6
ByLayer
370
18
48
1
60
1
100
AcDbPoint
10
70.9845
20
-5.25
30
0
39
0
210
0
220
0
230
1
50
360
0
POINT
5
79
100
AcDbEntity
8
1
62
256
6
ByLayer
370
18
48
1
60
1
100
AcDbPoint
10
-45
20
-6
30
0
39
0
210
0
220
0
230
1
50
360
0
POINT
5
7A
100
AcDbEntity
8
1
62
256
6
ByLayer
370
18
48
1
60
1
100
AcDbPoint
10
70.9845
20
-5.25
30
0
39
0
210
0
220
0
230
1
50
360
0
SPLINE
5
AF
100
AcDbEntity
8
1
62
256
6
ByLayer
370
18
48
1
60
0
100
AcDbSpline
70
4
71
3
72
14
73
10
40
0
40
0
40
0
40
0
40
0.398644796569055
40
0.398644796569055
40
0.597967194853585
40
0.597967194853585
40
0.797289593138114
40
0.797289593138114
40
1
40
1
40
1
40
1
41
1
10
5.69878952936355
20
-4.92339600871284
30
0
41
1
10
6.38297522724019
20
-5.02046268543268
30
0
41
1
10
7.06637694284223
20
-5.08516761347857
30
0
41
1
10
8.09147350173927
20
-5.13180458665559
30
0
41
1
10
8.43366823672125
20
-5.13896531609117
30
0
41
1
10
9.1169175707229
20
-5.13645751113904
30
0
41
1
10
9.45800182578429
20
-5.12680752233356
30
0
41
1
10
10.1455610534141
20
-5.09054891076821
30
0
41
1
10
10.4920582976525
20
-5.06366027795764
30
0
41
1
10
10.838711557544
20
-5.02827459197442
30
0
0
SPLINE
5
B0
100
AcDbEntity
8
1
62
256
6
ByLayer
370
18
48
1
60
0
100
AcDbSpline
70
4
71
3
72
52
73
48
40
0
40
0
40
0
40
0
40
0.0449875697977795
40
0.0449875697977795
40
0.0790951565907157
40
0.0790951565907157
40
0.113202743383652
40
0.113202743383652
40
0.181417916969524
40
0.181417916969524
40
0.215525503762461
40
0.215525503762461
40
0.249633090555397
40
0.249633090555397
40
0.31784826414127
40
0.31784826414127
40
0.351955850934206
40
0.351955850934206
40
0.386063437727142
40
0.386063437727142
40
0.420171024520078
40
0.420171024520078
40
0.454278611313014
40
0.454278611313014
40
0.522493784898888
40
0.522493784898888
40
0.556601371691824
40
0.556601371691824
40
0.59070895848476
40
0.59070895848476
40
0.658924132070634
40
0.658924132070634
40
0.693031718863571
40
0.693031718863571
40
0.727139305656507
40
0.727139305656507
40
0.795354479242382
40
0.795354479242382
40
0.829462066035319
40
0.829462066035319
40
0.863569652828255
40
0.863569652828255
40
0.931784826414128
40
0.931784826414128
40
0.965892413207064
40
0.965892413207064
40
1
40
1
40
1
40
1
41
1
10
41.1692113892445
20
5.19632540325748
30
0
41
1
10
41.6177561717216
20
5.19694241349751
30
0
41
1
10
42.0662450034843
20
5.18291050044047
30
0
41
1
10
42.8560503221045
20
5.13248764468042
30
0
41
1
10
43.1974610714046
20
5.10228008617602
30
0
41
1
10
43.8789385596069
20
5.02542243969793
30
0
41
1
10
44.2191616575749
20
4.97878777236343
30
0
41
1
10
45.2393748221974
20
4.81499805809432
30
0
41
1
10
45.918781247938
20
4.67385613110187
30
0
41
1
10
46.9409142392101
20
4.4172880739192
30
0
41
1
10
47.2822047583192
20
4.32425642711581
30
0
41
1
10
47.9630493671488
20
4.12477920265673
30
0
41
1
10
48.3030406342917
20
4.01825897773287
30
0
41
1
10
49.3228152175225
20
3.67980143193964
30
0
41
1
10
50.0022019878468
20
3.42868593729577
30
0
41
1
10
51.0248161109171
20
3.0195906478036
30
0
41
1
10
51.3655852417314
20
2.87811930134731
30
0
41
1
10
52.0458877743402
20
2.58663040746532
30
0
41
1
10
52.3856823756479
20
2.43653068701485
30
0
41
1
10
53.0652645771019
20
2.12887200556895
30
0
41
1
10
53.4050561324909
20
1.97132151069289
30
0
41
1
10
54.0852521681928
20
1.64987375127936
30
0
41
1
10
54.4259292820333
20
1.4858871486432
30
0
41
1
10
55.4483139709637
20
0.987302330873945
30
0
41
1
10
56.1274245587167
20
0.647091745212805
30
0
41
1
10
57.1465554603348
20
0.13332334865305
30
0
41
1
10
57.4863699540168
20
-0.0384541440204487
30
0
41
1
10
58.1667705469923
20
-0.381933601508649
30
0
41
1
10
58.5078045534589
20
-0.553773696619913
30
0
41
1
10
59.5290612124116
20
-1.06507602236616
30
0
41
1
10
60.2078138546779
20
-1.4004905737678
30
0
41
1
10
61.2267763105546
20
-1.88780759252757
30
0
41
1
10
61.5666196297866
20
-2.04751962389494
30
0
41
1
10
62.2472645845544
20
-2.36038759230593
30
0
41
1
10
62.5881861796614
20
-2.5135417948386
30
0
41
1
10
63.6084311452698
20
-2.95905101803302
30
0
41
1
10
64.2868313405648
20
-3.23830613892278
30
0
41
1
10
65.3059044834739
20
-3.62399583761709
30
0
41
1
10
65.6458673107363
20
-3.74699398624398
30
0
41
1
10
66.3268905756408
20
-3.98098823565502
30
0
41
1
10
66.6671146079221
20
-4.09166215129403
30
0
41
1
10
67.6850606349023
20
-4.4025981988064
30
0
41
1
10
68.3613258547084
20
-4.58211580851241
30
0
41
1
10
69.3760811209352
20
-4.8060785656516
30
0
41
1
10
69.7144047962017
20
-4.87317481985613
30
0
41
1
10
70.3917679015139
20
-4.99172784851535
30
0
41
1
10
70.7306042285032
20
-5.04328642845221
30
0
41
1
10
71.0705120423474
20
-5.08653009050471
30
0
0
SPLINE
5
B1
100
AcDbEntity
8
1
62
256
6
ByLayer
370
18
48
1
60
0
100
AcDbSpline
70
4
71
3
72
8
73
4
40
0
40
0
40
0
40
0
40
1
40
1
40
1
40
1
41
1
10
71.1380123048245
20
5.19459210432822
30
0
41
1
10
71.363939921912
20
4.6357466081856
30
0
41
1
10
71.594591837499
20
4.05872071865531
30
0
41
1
10
71.821709190925
20
3.45918041154323
30
0
0
SPLINE
5
B2
100
AcDbEntity
8
1
62
256
6
ByLayer
370
18
48
1
60
0
100
AcDbSpline
70
4
71
3
72
8
73
4
40
0
40
0
40
0
40
0
40
1
40
1
40
1
40
1
41
1
10
5.5792967826516
20
3.64491340523526
30
0
41
1
10
5.49436793527858
20
3.6889062292623
30
0
41
1
10
5.41059082903115
20
3.74149581747497
30
0
41
1
10
5.33327056908666
20
3.80000965378153
30
0
0
SPLINE
5
B3
100
AcDbEntity
8
1
62
256
6
ByLayer
370
13
48
1
60
0
100
AcDbSpline
70
4
71
3
72
10
73
6
40
0
40
0
40
0
40
0
40
0.5
40
0.5
40
1
40
1
40
1
40
1
41
1
10
5.346909927686
20
-4.78896266302513
30
0
41
1
10
5.41933852560729
20
-4.76207809620738
30
0
41
1
10
5.49585466464674
20
-4.7441044013112
30
0
41
1
10
5.65079920333022
20
-4.72623242013344
30
0
41
1
10
5.72984098820132
20
-4.72604367727268
30
0
41
1
10
5.81036197252396
20
-4.73499697433988
30
0
0
SPLINE
5
B4
100
AcDbEntity
8
1
62
256
6
ByLayer
370
18
48
1
60
0
100
AcDbSpline
70
4
71
3
72
14
73
10
40
0
40
0
40
0
40
0
40
0.25
40
0.25
40
0.5
40
0.5
40
0.75
40
0.75
40
1
40
1
40
1
40
1
41
1
10
15.218650934033
20
-1.67166732050396
30
0
41
1
10
15.3309668847556
20
-1.46689810058717
30
0
41
1
10
15.4745740508163
20
-1.215440874672
30
0
41
1
10
15.7967461137647
20
-0.667521467675556
30
0
41
1
10
15.9751023175846
20
-0.371414211788419
30
0
41
1
10
16.3320459422311
20
0.2081353359074
30
0
41
1
10
16.5104021460509
20
0.49120221349807
30
0
41
1
10
16.8325742089994
20
0.989468593105386
30
0
41
1
10
16.9761813750601
20
1.20434533361868
30
0
41
1
10
17.0884973257827
20
1.3642984616906
30
0
0
SPLINE
5
B5
100
AcDbEntity
8
1
62
256
6
ByLayer
370
18
48
1
60
0
100
AcDbSpline
70
4
71
3
72
8
73
4
40
0
40
0
40
0
40
0
40
1
40
1
40
1
40
1
41
1
10
72.9995971320772
20
0.122824863164993
30
0
41
1
10
72.7985141895323
20
0.639391307753158
30
0
41
1
10
72.6075845816916
20
1.16520373051222
30
0
41
1
10
72.4236998874808
20
1.69912919261469
30
0
0
SPLINE
5
B6
100
AcDbEntity
8
1
62
256
6
ByLayer
370
18
48
1
60
0
100
AcDbSpline
70
4
71
3
72
8
73
4
40
0
40
0
40
0
40
0
40
1
40
1
40
1
40
1
41
1
10
71.7951594461398
20
2.37491615279615
30
0
41
1
10
71.7932292426686
20
2.38802477005953
30
0
41
1
10
71.791540194084
20
2.40117319160819
30
0
41
1
10
71.7901081922985
20
2.41434914586557
30
0
0
SPLINE
5
B7
100
AcDbEntity
8
1
62
256
6
ByLayer
370
13
48
1
60
0
100
AcDbSpline
70
4
71
3
72
88
73
84
40
0
40
0
40
0
40
0
40
0.0051611888077691
40
0.0132699795875539
40
0.0294875611471237
40
0.0375963519269085
40
0.0457051427066935
40
0.0619227242662631
40
0.0700315150460481
40
0.0781403058258329
40
0.0943578873854027
40
0.102466678165189
40
0.110575468944973
40
0.126793050504542
40
0.134901841284329
40
0.143010632064112
40
0.159228213623682
40
0.167337004403467
40
0.175445795183252
40
0.191663376742821
40
0.199772167522606
40
0.207880958302391
40
0.224098539861961
40
0.232207330641746
40
0.24031612142153
40
0.2565337029811
40
0.264642493760885
40
0.27275128454067
40
0.28896886610024
40
0.30518644765981
40
0.32140402921938
40
0.353839192338519
40
0.361947983118304
40
0.370056773898088
40
0.386274355457658
40
0.394383146237443
40
0.402491937017228
40
0.418709518576798
40
0.426818309356583
40
0.434927100136366
40
0.451144681695937
40
0.459253472475722
40
0.467362263255507
40
0.483579844815077
40
0.499797426374645
40
0.516015007934217
40
0.548450171053356
40
0.556558961833141
40
0.564667752612925
40
0.580885334172495
40
0.58899412495228
40
0.597102915732065
40
0.613320497291635
40
0.62142928807142
40
0.629538078851205
40
0.645755660410774
40
0.653864451190559
40
0.661973241970345
40
0.678190823529914
40
0.694408405089484
40
0.710625986649054
40
0.743061149768193
40
0.751169940547977
40
0.759278731327763
40
0.775496312887333
40
0.783605103667118
40
0.791713894446902
40
0.807931476006472
40
0.816040266786257
40
0.824149057566042
40
0.840366639125612
40
0.848475429905396
40
0.856584220685181
40
0.872801802244751
40
0.88901938380432
40
0.905236965363891
40
0.93767212848303
40
0.945780919262815
40
0.9538897100426
40
0.97010729160217
40
0.978216082381954
40
0.98632487316174
40
1
40
1
40
1
40
1
41
1
10
60.6959684550949
20
-2.12489292941166
30
0
41
1
10
60.6599152539408
20
-2.12859958154434
30
0
41
1
10
60.5672192504466
20
-2.1380294284306
30
0
41
1
10
60.361261316064
20
-2.15837978015657
30
0
41
1
10
60.1346980773636
20
-2.17962270023222
30
0
41
1
10
59.9081193931604
20
-2.19971584609277
30
0
41
1
10
59.6815733865849
20
-2.21896552993243
30
0
41
1
10
59.4550098662826
20
-2.23704607911134
30
0
41
1
10
59.2284311236186
20
-2.25395071097222
30
0
41
1
10
59.0018854691118
20
-2.26998243249992
30
0
41
1
10
58.7753228693607
20
-2.28482040296328
30
0
41
1
10
58.5487450905997
20
-2.29845914788288
30
0
41
1
10
58.3221997153589
20
-2.31119903949315
30
0
41
1
10
58.0956365267682
20
-2.32272752666728
30
0
41
1
10
57.8690576612594
20
-2.33304502208293
30
0
41
1
10
57.6425113862587
20
-2.34244437595078
30
0
41
1
10
57.4159474978213
20
-2.35062137242403
30
0
41
1
10
57.1893683782499
20
-2.35757704898018
30
0
41
1
10
56.9628223464719
20
-2.36359728570508
30
0
41
1
10
56.7362593552236
20
-2.36838746935422
30
0
41
1
10
56.5096812703179
20
-2.37195081960201
30
0
41
1
10
56.2831357840381
20
-2.37456463200587
30
0
41
1
10
56.0565727129039
20
-2.37594435664837
30
0
41
1
10
55.8299940953095
20
-2.37609479556789
30
0
41
1
10
55.6034480853613
20
-2.37528554055461
30
0
41
1
10
55.3768844809156
20
-2.37324478236008
30
0
41
1
10
55.1503056527446
20
-2.36998206706741
30
0
41
1
10
54.9237600431306
20
-2.36575573421001
30
0
41
1
10
54.6405795318395
20
-2.35887632632108
30
0
41
1
10
54.3007399704316
20
-2.3481639194585
30
0
41
1
10
53.8476847647435
20
-2.33025470405087
30
0
41
1
10
53.4511670704198
20
-2.31048254730072
30
0
41
1
10
53.1112443643697
20
-2.2906214430586
30
0
41
1
10
52.8846980751017
20
-2.27630313214712
30
0
41
1
10
52.6581348651656
20
-2.26081638650612
30
0
41
1
10
52.431556629496
20
-2.24418077209433
30
0
41
1
10
52.2050109962387
20
-2.22660201034591
30
0
41
1
10
51.9784478381512
20
-2.20788569916232
30
0
41
1
10
51.7518692369871
20
-2.18805291870484
30
0
41
1
10
51.5253232495364
20
-2.16729333492523
30
0
41
1
10
51.2987596594292
20
-2.14543079466611
30
0
41
1
10
51.0721808199152
20
-2.12248799051267
30
0
41
1
10
50.8456352212052
20
-2.09863820897681
30
0
41
1
10
50.5624547321244
20
-2.06740686740764
30
0
41
1
10
50.2226149908394
20
-2.02780819788532
30
0
41
1
10
49.7695593184722
20
-1.97179297528584
30
0
41
1
10
49.3730412609057
20
-1.91941361995623
30
0
41
1
10
49.0331186764829
20
-1.87218980753704
30
0
41
1
10
48.8065725145197
20
-1.83973481322215
30
0
41
1
10
48.5800094706451
20
-1.80635804623071
30
0
41
1
10
48.3534313959964
20
-1.77208934811156
30
0
41
1
10
48.1268859444857
20
-1.73702946137593
30
0
41
1
10
47.9003229485698
20
-1.70110290118703
30
0
41
1
10
47.6737444171366
20
-1.66434083975125
30
0
41
1
10
47.4471984620006
20
-1.6268252788455
30
0
41
1
10
47.2206348721596
20
-1.58850230554557
30
0
41
1
10
46.9940560305403
20
-1.5494051427448
30
0
41
1
10
46.7675104107434
20
-1.50959617301712
30
0
41
1
10
46.4843298894134
20
-1.45881040995084
30
0
41
1
10
46.1444903227748
20
-1.39640917057204
30
0
41
1
10
45.6914351090622
20
-1.3108919531339
30
0
41
1
10
45.2949174033627
20
-1.23394485016215
30
0
41
1
10
44.9549946692134
20
-1.166596794588
30
0
41
1
10
44.7284483464087
20
-1.12097795008538
30
0
41
1
10
44.5018850836579
20
-1.07482316619905
30
0
41
1
10
44.2753067994387
20
-1.02816947386233
30
0
41
1
10
44.0487611506869
20
-0.980997869177401
30
0
41
1
10
43.8221980209621
20
-0.933364059901976
30
0
41
1
10
43.5956194647367
20
-0.885305931311137
30
0
41
1
10
43.3690734937709
20
-0.836784568589962
30
0
41
1
10
43.1425098843802
20
-0.787877321036632
30
0
41
1
10
42.9159310007549
20
-0.738622996885738
30
0
41
1
10
42.6893853621661
20
-0.688962817782141
30
0
41
1
10
42.4062048283697
20
-0.62641779182195
30
0
41
1
10
42.0663650382301
20
-0.550796694222441
30
0
41
1
10
41.6133092949006
20
-0.448913169025417
30
0
41
1
10
41.2167911734648
20
-0.359218336067897
30
0
41
1
10
40.8768685271003
20
-0.282086986726171
30
0
41
1
10
40.650322311345
20
-0.230307624702846
30
0
41
1
10
40.4237591986845
20
-0.178458841282463
30
0
41
1
10
40.1971810641306
20
-0.126579431540819
30
0
41
1
10
39.9883935263906
20
-0.0786137234551632
30
0
41
1
10
39.8362318354915
20
-0.0436666970259694
30
0
41
1
10
39.7407066800265
20
-0.0217389766012559
30
0
0
SPLINE
5
B8
100
AcDbEntity
8
1
62
256
6
ByLayer
370
18
48
1
60
0
100
AcDbSpline
70
4
71
3
72
16
73
12
40
0
40
0
40
0
40
0
40
0.249999999999999
40
0.249999999999999
40
0.499999999999998
40
0.499999999999998
40
0.749999999999997
40
0.749999999999997
40
0.874999999999999
40
0.874999999999999
40
1
40
1
40
1
40
1
41
1
10
72.248964127689
20
-1.06136854073674
30
0
41
1
10
72.1359342827934
20
-1.08700723173718
30
0
41
1
10
72.030669464221
20
-1.06402147304877
30
0
41
1
10
71.8323696485927
20
-0.941467041941877
30
0
41
1
10
71.7443473537606
20
-0.844795446011346
30
0
41
1
10
71.5857484688643
20
-0.597314970312539
30
0
41
1
10
71.518135437806
20
-0.450963055602813
30
0
41
1
10
71.4303886226168
20
-0.204980237373803
30
0
41
1
10
71.4034656058826
20
-0.118485610563852
30
0
41
1
10
71.354041860374
20
0.0630601915974296
30
0
41
1
10
71.3318294383236
20
0.157091623496797
30
0
41
1
10
71.3120181134016
20
0.253569089973894
30
0
0
SPLINE
5
B9
100
AcDbEntity
8
1
62
256
6
ByLayer
370
18
48
1
60
0
100
AcDbSpline
70
4
71
3
72
72
73
68
40
0
40
0
40
0
40
0
40
0.019198631249528
40
0.019198631249528
40
0.0400667454782618
40
0.0400667454782618
40
0.0609348597069956
40
0.0609348597069956
40
0.0818029739357294
40
0.0818029739357294
40
0.123539202393196
40
0.123539202393196
40
0.144407316621929
40
0.144407316621929
40
0.165275430850663
40
0.165275430850663
40
0.207011659308129
40
0.207011659308129
40
0.248747887765595
40
0.248747887765595
40
0.29048411622306
40
0.29048411622306
40
0.332220344680526
40
0.332220344680526
40
0.35308845890926
40
0.35308845890926
40
0.373956573137993
40
0.373956573137993
40
0.394824687366726
40
0.394824687366726
40
0.41569280159546
40
0.41569280159546
40
0.457429030052927
40
0.457429030052927
40
0.499165258510395
40
0.499165258510395
40
0.520033372739129
40
0.520033372739129
40
0.540901486967863
40
0.540901486967863
40
0.582637715425329
40
0.582637715425329
40
0.624373943882796
40
0.624373943882796
40
0.64524205811153
40
0.64524205811153
40
0.666110172340263
40
0.666110172340263
40
0.707846400797731
40
0.707846400797731
40
0.749582629255198
40
0.749582629255198
40
0.791318857712666
40
0.791318857712666
40
0.8121869719414
40
0.8121869719414
40
0.833055086170133
40
0.833055086170133
40
0.8747913146276
40
0.8747913146276
40
0.916527543085067
40
0.916527543085067
40
0.9373956573138
40
0.9373956573138
40
0.958263771542533
40
0.958263771542533
40
1
40
1
40
1
40
1
41
1
10
31.4133767179902
20
3.44776245132829
30
0
41
1
10
31.6676574906686
20
3.54300789089385
30
0
41
1
10
31.9216634108348
20
3.63548567706258
30
0
41
1
10
32.4524807784555
20
3.82081121102021
30
0
41
1
10
32.7292696339547
20
3.9131487005325
30
0
41
1
10
33.2829924291772
20
4.09007328278207
30
0
41
1
10
33.5603205089421
20
4.17454633749253
30
0
41
1
10
34.1144184179012
20
4.33375845773159
30
0
41
1
10
34.3910765990806
20
4.40876117621306
30
0
41
1
10
35.2207186072213
20
4.61913595418375
30
0
41
1
10
35.7725941893289
20
4.74057967372559
30
0
41
1
10
36.6021574882415
20
4.89132324191584
30
0
41
1
10
36.8790304525127
20
4.93633581057344
30
0
41
1
10
37.4330069596639
20
5.01609832702661
30
0
41
1
10
37.710191077038
20
5.05065885818735
30
0
41
1
10
38.5404309913724
20
5.13767784132997
30
0
41
1
10
39.0927146341806
20
5.17385707160108
30
0
41
1
10
40.1977913793167
20
5.20187130648333
30
0
41
1
10
40.7508993453889
20
5.19369207179992
30
0
41
1
10
41.8591368655096
20
5.13269125812226
30
0
41
1
10
42.4116294170897
20
5.08002662589473
30
0
41
1
10
43.5165153139209
20
4.93203982368053
30
0
41
1
10
44.0682214729382
20
4.83624048971959
30
0
41
1
10
44.8985567553049
20
4.66233646088267
30
0
41
1
10
45.1758263750437
20
4.59912941584182
30
0
41
1
10
45.7293879190499
20
4.46324906146774
30
0
41
1
10
46.0057117112098
20
4.39039132965283
30
0
41
1
10
46.5582532382748
20
4.23573073696082
30
0
41
1
10
46.8342834162475
20
4.15372102811449
30
0
41
1
10
47.3864927643908
20
3.98108587740882
30
0
41
1
10
47.6626813450347
20
3.8904911693339
30
0
41
1
10
48.4911017870748
20
3.60520792782475
30
0
41
1
10
49.0457830258936
20
3.39873301042169
30
0
41
1
10
50.1517559129133
20
2.95918186965537
30
0
41
1
10
50.7035017345332
20
2.72587196782794
30
0
41
1
10
51.5315929442809
20
2.35949060165572
30
0
41
1
10
51.8078122648105
20
2.23483336156571
30
0
41
1
10
52.3602987877635
20
1.97980413419225
30
0
41
1
10
52.63718996703
20
1.85002647335921
30
0
41
1
10
53.4677803156408
20
1.45586104039145
30
0
41
1
10
54.0197098905517
20
1.18580356975457
30
0
41
1
10
55.1235998841239
20
0.638179818017278
30
0
41
1
10
55.6754559801835
20
0.360422524848019
30
0
41
1
10
56.504696278625
20
-0.0590554215979751
30
0
41
1
10
56.781738283153
20
-0.198886151355055
30
0
41
1
10
57.3347942305255
20
-0.477078559963758
30
0
41
1
10
57.6109012347393
20
-0.615901539662474
30
0
41
1
10
58.4390219232079
20
-1.02944564776922
30
0
41
1
10
58.9903853744131
20
-1.30213363869154
30
0
41
1
10
60.094758649859
20
-1.83543980959888
30
0
41
1
10
60.6488153754289
20
-2.09614399749662
30
0
41
1
10
61.7535086573576
20
-2.59595869265584
30
0
41
1
10
62.3048405802333
20
-2.83558082053605
30
0
41
1
10
63.1322932331357
20
-3.17619150722936
30
0
41
1
10
63.4083103715056
20
-3.286395605265
30
0
41
1
10
63.9607673896841
20
-3.50007351913766
30
0
41
1
10
64.237547557337
20
-3.60353276898897
30
0
41
1
10
65.0666119102553
20
-3.90191535216866
30
0
41
1
10
65.6185577677005
20
-4.083772809268
30
0
41
1
10
66.7218071145238
20
-4.41257710032346
30
0
41
1
10
67.2734671116378
20
-4.5590233792183
30
0
41
1
10
68.1032047971877
20
-4.74919222684849
30
0
41
1
10
68.3794919871908
20
-4.80759073571451
30
0
41
1
10
68.9313781248764
20
-4.91386100220208
30
0
41
1
10
69.2073026950486
20
-4.9616100290547
30
0
41
1
10
70.0345496823116
20
-5.08914064502778
30
0
41
1
10
70.5857795549432
20
-5.15288928744968
30
0
41
1
10
71.1380123048245
20
-5.19459210432822
30
0
0
SPLINE
5
BA
100
AcDbEntity
8
1
62
256
6
ByLayer
370
18
48
1
60
0
100
AcDbSpline
70
4
71
3
72
8
73
4
40
0
40
0
40
0
40
0
40
1
40
1
40
1
40
1
41
1
10
71.1380123048245
20
-5.19459210432822
30
0
41
1
10
71.1128567512214
20
-5.16807067056629
30
0
41
1
10
71.0903889355421
20
-5.1319842618812
30
0
41
1
10
71.0705120423475
20
-5.08653009050474
30
0
0
SPLINE
5
BB
100
AcDbEntity
8
1
62
256
6
ByLayer
370
13
48
1
60
0
100
AcDbSpline
70
4
71
3
72
8
73
4
40
0
40
0
40
0
40
0
40
1
40
1
40
1
40
1
41
1
10
5.31724540590437
20
-4.80041815365456
30
0
41
1
10
5.32698896096781
20
-4.7965071196538
30
0
41
1
10
5.3368754857903
20
-4.79268731918813
30
0
41
1
10
5.34690992768603
20
-4.78896266302513
30
0
0
SPLINE
5
BC
100
AcDbEntity
8
1
62
256
6
ByLayer
370
18
48
1
60
0
100
AcDbSpline
70
4
71
3
72
8
73
4
40
0
40
0
40
0
40
0
40
1
40
1
40
1
40
1
41
1
10
71.0705120423474
20
-5.08653009050474
30
0
41
1
10
71.0797574553311
20
-5.04817459606397
30
0
41
1
10
71.0862602607955
20
-5.0124206490963
30
0
41
1
10
71.0896670236484
20
-4.98250158235544
30
0
0
SPLINE
5
BD
100
AcDbEntity
8
1
62
256
6
ByLayer
370
18
48
1
60
0
100
AcDbSpline
70
4
71
3
72
10
73
6
40
0
40
0
40
0
40
0
40
0.5
40
0.5
40
1
40
1
40
1
40
1
41
1
10
71.0896670236441
20
-4.98250158239532
30
0
41
1
10
71.0855688103468
20
-4.95849134599158
30
0
41
1
10
71.0787401219831
20
-4.93855452490055
30
0
41
1
10
71.062051721115
20
-4.90599768664697
30
0
41
1
10
71.0520151642451
20
-4.89300749217423
30
0
41
1
10
71.0408686582416
20
-4.88291699405681
30
0
0
SPLINE
5
BE
100
AcDbEntity
8
1
62
256
6
ByLayer
370
18
48
1
60
0
100
AcDbSpline
70
4
71
3
72
8
73
4
40
0
40
0
40
0
40
0
40
1
40
1
40
1
40
1
41
1
10
5.42248283081508
20
3.76981309929647
30
0
41
1
10
5.39274816495038
20
3.77991846488692
30
0
41
1
10
5.36301078577131
20
3.78998410311402
30
0
41
1
10
5.33327056908669
20
3.80000965378153
30
0
0
SPLINE
5
BF
100
AcDbEntity
8
1
62
256
6
ByLayer
370
13
48
1
60
0
100
AcDbSpline
70
4
71
3
72
32
73
28
40
0
40
0
40
0
40
0
40
0.162068091247734
40
0.162068091247734
40
0.243102136871602
40
0.243102136871602
40
0.283619159683536
40
0.283619159683536
40
0.324136182495469
40
0.324136182495469
40
0.486204273743206
40
0.486204273743206
40
0.567238319367075
40
0.567238319367075
40
0.607755342179009
40
0.607755342179009
40
0.648272364990943
40
0.648272364990943
40
0.810340456238682
40
0.810340456238682
40
0.891374501862552
40
0.891374501862552
40
0.931891524674488
40
0.931891524674488
40
0.972408547486424
40
0.972408547486424
40
1
40
1
40
1
40
1
41
1
10
71.0408686582417
20
-4.88291699405681
30
0
41
1
10
69.6760415883115
20
-4.67720569732441
30
0
41
1
10
68.3283114865652
20
-4.34712007686369
30
0
41
1
10
66.3029224877039
20
-3.70079211461297
30
0
41
1
10
65.6271276167664
20
-3.46020734735339
30
0
41
1
10
64.608644640954
20
-3.06677092175883
30
0
41
1
10
64.2683655341076
20
-2.93019447264754
30
0
41
1
10
63.5855729072526
20
-2.64711111668473
30
0
41
1
10
63.243055320976
20
-2.50059223001256
30
0
41
1
10
61.5402806909071
20
-1.75331206987713
30
0
41
1
10
60.1958244966007
20
-1.10284999994451
30
0
41
1
10
58.175548914399
20
-0.110744004915887
30
0
41
1
10
57.501587542719
20
0.222846902480711
30
0
41
1
10
56.4861360228776
20
0.719832939449191
30
0
41
1
10
56.1469397242271
20
0.885002336312425
30
0
41
1
10
55.4663431794448
20
1.21272696230145
30
0
41
1
10
55.1243268478173
20
1.37549590957172
30
0
41
1
10
53.4140968771926
20
2.17679316494647
30
0
41
1
10
52.0639914562929
20
2.76793149533822
30
0
41
1
10
50.0355389236992
20
3.52804013865492
30
0
41
1
10
49.3588998068749
20
3.76051515824474
30
0
41
1
10
48.3392683648489
20
4.07162634353389
30
0
41
1
10
47.9986800590349
20
4.16917200468365
30
0
41
1
10
47.315301293738
20
4.35074212553172
30
0
41
1
10
46.9723150238448
20
4.43472712361114
30
0
41
1
10
46.398738676094
20
4.562839883441
30
0
41
1
10
46.1668269978239
20
4.61120055363668
30
0
41
1
10
45.9352658576613
20
4.65598220499618
30
0
0
SPLINE
5
C0
100
AcDbEntity
8
1
62
256
6
ByLayer
370
18
48
1
60
0
100
AcDbSpline
70
4
71
3
72
10
73
6
40
0
40
0
40
0
40
0
40
0.627950568013526
40
0.627950568013526
40
1
40
1
40
1
40
1
41
1
10
9.33666156529139
20
-5.00857768164695
30
0
41
1
10
8.84094727444403
20
-5.01057069403745
30
0
41
1
10
8.345412188295
20
-4.99525550782286
30
0
41
1
10
7.55523068568786
20
-4.94373309695087
30
0
41
1
10
7.26098407233462
20
-4.91858365572807
30
0
41
1
10
6.9662706310535
20
-4.88744186909975
30
0
0
SPLINE
5
C1
100
AcDbEntity
8
1
62
256
6
ByLayer
370
13
48
1
60
0
100
AcDbSpline
70
4
71
3
72
8
73
4
40
0
40
0
40
0
40
0
40
1
40
1
40
1
40
1
41
1
10
6.9662706306699
20
-4.88744186905919
30
0
41
1
10
6.58191465487366
20
-4.84682773304451
30
0
41
1
10
6.1967646722845
20
-4.79602148410584
30
0
41
1
10
5.81036197252393
20
-4.73499697433988
30
0
0
SPLINE
5
C2
100
AcDbEntity
8
1
62
256
6
ByLayer
370
13
48
1
60
0
100
AcDbSpline
70
4
71
3
72
24
73
20
40
0
40
0
40
0
40
0
40
0.0740404291659957
40
0.111962429173522
40
0.149884429181049
40
0.2257284291961
40
0.263650429203627
40
0.301572429211153
40
0.377416429226205
40
0.415338429233731
40
0.453260429241257
40
0.529104429256309
40
0.567026429263835
40
0.604948429271362
40
0.680792429286413
40
0.756636429301466
40
0.832480429316518
40
0.984168429346622
40
1
40
1
40
1
40
1
41
1
10
71.79515944624
20
2.37491615279694
30
0
41
1
10
71.6845805765792
20
2.37403798114883
30
0
41
1
10
71.5173767461971
20
2.37212242902333
30
0
41
1
10
71.2935600981275
20
2.36835609251469
30
0
41
1
10
71.0669813396379
20
2.36351493664495
30
0
41
1
10
70.8404194954737
20
2.35743829405462
30
0
41
1
10
70.6138727081214
20
2.35012637942267
30
0
41
1
10
70.3872933596528
20
2.34189425401095
30
0
41
1
10
70.1607316320246
20
2.33243614561238
30
0
41
1
10
69.9341853830758
20
2.32175345205263
30
0
41
1
10
69.7076064341869
20
2.31017048848687
30
0
41
1
10
69.4810450171452
20
2.29737423688317
30
0
41
1
10
69.2544988077468
20
2.2833673551074
30
0
41
1
10
69.0279193542167
20
2.26848250826066
30
0
41
1
10
68.7446935528589
20
2.24834529992338
30
0
41
1
10
68.4048457859522
20
2.22178736215736
30
0
41
1
10
67.9516513958173
20
2.18310369348515
30
0
41
1
10
67.5881923564576
20
2.14838906803609
30
0
41
1
10
67.3380374504152
20
2.12265198395937
30
0
41
1
10
67.3143959034214
20
2.120202614725
30
0
0
SPLINE
5
C3
100
AcDbEntity
8
1
62
256
6
ByLayer
370
13
48
1
60
0
100
AcDbSpline
70
4
71
3
72
27
73
23
40
0
40
0
40
0
40
0
40
0.0153637725870278
40
0.124767797855137
40
0.152118804172163
40
0.17946981048919
40
0.234171823123245
40
0.261522829440271
40
0.288873835757298
40
0.343575848391353
40
0.398277861025406
40
0.45297987365946
40
0.535032892610541
40
0.562383898927568
40
0.617085911561622
40
0.671787924195676
40
0.781191949463784
40
0.808542955780811
40
0.835893962097838
40
0.890595974731892
40
0.945297987365946
40
1
40
1
40
1
40
1
41
1
10
23.3010421571106
20
0.0255891784343589
30
0
41
1
10
23.269222177392
20
0.0328843645450263
30
0
41
1
10
23.0108184394553
20
0.0921355546919641
30
0
41
1
10
22.6958252196973
20
0.164509787090139
30
0
41
1
10
22.356060122161
20
0.242521880697211
30
0
41
1
10
22.1294814105228
20
0.294190267033968
30
0
41
1
10
21.9029199348983
20
0.345772833017008
30
0
41
1
10
21.6763735703492
20
0.397232817763893
30
0
41
1
10
21.4497942350172
20
0.448413700646256
30
0
41
1
10
21.1665689864681
20
0.512095424650965
30
0
41
1
10
20.8267217095738
20
0.588065588673117
30
0
41
1
10
20.430207712291
20
0.675824146978044
30
0
41
1
10
20.0903925418624
20
0.750357754408469
30
0
41
1
10
19.7505723711988
20
0.824065266255132
30
0
41
1
10
19.4673453842951
20
0.884760101151271
30
0
41
1
10
19.0141517624408
20
0.980441247449163
30
0
41
1
10
18.6177009504599
20
1.06273724155022
30
0
41
1
10
18.2779356885416
20
1.13202616980027
30
0
41
1
10
18.0513566076663
20
1.1775114779021
30
0
41
1
10
17.7681312682374
20
1.23358236387398
30
0
41
1
10
17.4282870371626
20
1.2996496813432
30
0
41
1
10
17.2017618866563
20
1.34291042147416
30
0
41
1
10
17.0884973257827
20
1.36429846169059
30
0
0
SPLINE
5
C4
100
AcDbEntity
8
1
62
256
6
ByLayer
370
18
48
1
60
0
100
AcDbSpline
70
4
71
3
72
10
73
6
40
0
40
0
40
0
40
0
40
0.557020873800397
40
0.557020873800397
40
1
40
1
40
1
40
1
41
1
10
41.6969845879034
20
-5.06696752556692
30
0
41
1
10
41.3075883959846
20
-5.06612609564814
30
0
41
1
10
40.9174709542
20
-5.05451331158
30
0
41
1
10
40.2149251661998
20
-5.01412397479947
30
0
41
1
10
39.9027513867801
20
-4.98933324473288
30
0
41
1
10
39.5899969972879
20
-4.9576676580518
30
0
0
SPLINE
5
C5
100
AcDbEntity
8
1
62
256
6
ByLayer
370
13
48
1
60
0
100
AcDbSpline
70
4
71
3
72
34
73
30
40
0
40
0
40
0
40
0
40
0.0035030146010174
40
0.0035030146010174
40
0.0437590111357236
40
0.0437590111357236
40
0.124271004205137
40
0.124271004205137
40
0.164527000739843
40
0.164527000739843
40
0.20478299727455
40
0.20478299727455
40
0.365806983413374
40
0.365806983413374
40
0.406062979948081
40
0.406062979948081
40
0.446318976482787
40
0.446318976482787
40
0.526830969552199
40
0.526830969552199
40
0.687854955691022
40
0.687854955691022
40
0.728110952225728
40
0.728110952225728
40
0.768366948760434
40
0.768366948760434
40
0.848878941829848
40
0.848878941829848
40
1
40
1
40
1
40
1
41
1
10
39.5899969979279
20
-4.95766765811658
30
0
41
1
10
39.5601876291494
20
-4.9546495353263
30
0
41
1
10
39.5303729858465
20
-4.95156895823143
30
0
41
1
10
39.1578721929327
20
-4.91230705292233
30
0
41
1
10
38.8153430736187
20
-4.86803517797725
30
0
41
1
10
37.7874126349984
20
-4.71156763214208
30
0
41
1
10
37.1025444121941
20
-4.57562326575828
30
0
41
1
10
36.0746506386532
20
-4.32812775706054
30
0
41
1
10
35.7318472534401
20
-4.23829943748777
30
0
41
1
10
35.0490693301056
20
-4.04594533999545
30
0
41
1
10
34.708600127471
20
-3.94332335371405
30
0
41
1
10
33.0095202088066
20
-3.40033260858866
30
0
41
1
10
31.6601821425638
20
-2.87024904804648
30
0
41
1
10
29.9613881501311
20
-2.12926320768207
30
0
41
1
10
29.6210450309154
20
-1.97711148828958
30
0
41
1
10
28.938390622379
20
-1.66626806220887
30
0
41
1
10
28.5954345462566
20
-1.50724165368604
30
0
41
1
10
27.567915818983
20
-1.02393966724531
30
0
41
1
10
26.8872135975872
20
-0.695316561154243
30
0
41
1
10
24.8507398166393
20
0.294532134798146
30
0
41
1
10
23.5004118118627
20
0.959240643162161
30
0
41
1
10
21.7969476406964
20
1.74452944615419
30
0
41
1
10
21.4554702222239
20
1.89929443843505
30
0
41
1
10
20.7703186272128
20
2.20293015009116
30
0
41
1
10
20.4270290045692
20
2.35162709939201
30
0
41
1
10
19.4022405086722
20
2.7833468298187
30
0
41
1
10
18.7226929469157
20
3.0528195692946
30
0
41
1
10
16.7712975387695
20
3.7654433660434
30
0
41
1
10
15.5023999555084
20
4.15265596426556
30
0
41
1
10
14.2216160061535
20
4.44015136092787
30
0
0
SPLINE
5
C6
100
AcDbEntity
8
1
62
256
6
ByLayer
370
18
48
1
60
0
100
AcDbSpline
70
4
71
3
72
8
73
4
40
0
40
0
40
0
40
0
40
1
40
1
40
1
40
1
41
1
10
5.57929678265171
20
3.64491340523537
30
0
41
1
10
5.52681352199909
20
3.68625576132126
30
0
41
1
10
5.47454201087609
20
3.72788869707423
30
0
41
1
10
5.42248283081659
20
3.76981309930662
30
0
0
SPLINE
5
C7
100
AcDbEntity
8
1
62
256
6
ByLayer
370
13
48
1
60
0
100
AcDbSpline
70
4
71
3
72
49
73
45
40
0
40
0
40
0
40
0
40
0.0078345660002254
40
0.0208893743423275
40
0.0339441826844301
40
0.0600537993686344
40
0.0861634160528391
40
0.112273032737044
40
0.151437457763351
40
0.164492266105453
40
0.190601882789658
40
0.216711499473862
40
0.268930732842271
40
0.281985541184374
40
0.295040349526476
40
0.32114996621068
40
0.334204774552783
40
0.347259582894885
40
0.37336919957909
40
0.399478816263294
40
0.425588432947499
40
0.464752857973806
40
0.477807666315908
40
0.503917283000113
40
0.530026899684317
40
0.582246133052727
40
0.595300941394829
40
0.608355749736931
40
0.634465366421135
40
0.647520174763238
40
0.66057498310534
40
0.686684599789545
40
0.71279421647375
40
0.738903833157954
40
0.778068258184261
40
0.791123066526363
40
0.817232683210568
40
0.843342299894773
40
0.895561533263182
40
0.908616341605284
40
0.921671149947386
40
0.947780766631591
40
0.973890383315795
40
1
40
1
40
1
40
1
41
1
10
28.2347175237836
20
-2.12089117247544
30
0
41
1
10
28.2007251169729
20
-2.12441092287722
30
0
41
1
10
28.1100895949958
20
-2.13370569333915
30
0
41
1
10
27.9628061928665
20
-2.14841847924535
30
0
41
1
10
27.7362604972151
20
-2.1702343514711
30
0
41
1
10
27.4530794297685
20
-2.19604195387038
30
0
41
1
10
27.1132391199415
20
-2.22468026657066
30
0
41
1
10
26.7167842418157
20
-2.25523216121857
30
0
41
1
10
26.376911830057
20
-2.27846827518519
30
0
41
1
10
26.0370444063984
20
-2.29925389706969
30
0
41
1
10
25.7538650251746
20
-2.31493978631821
30
0
41
1
10
25.3008084447274
20
-2.33661143305733
30
0
41
1
10
24.9042904488999
20
-2.35136853747849
30
0
41
1
10
24.564368248366
20
-2.36098409261632
30
0
41
1
10
24.3378221230917
20
-2.36637760739413
30
0
41
1
10
24.1112588536916
20
-2.37054025053166
30
0
41
1
10
23.8846804911888
20
-2.3734758557994
30
0
41
1
10
23.6581350664657
20
-2.3754601562882
30
0
41
1
10
23.3749542984237
20
-2.37633764571442
30
0
41
1
10
23.0351141407288
20
-2.37490125842692
30
0
41
1
10
22.6386592965742
20
-2.37013208388913
30
0
41
1
10
22.2987868712475
20
-2.36300691227748
30
0
41
1
10
21.9589195253044
20
-2.35335273175002
30
0
41
1
10
21.6757403673868
20
-2.34357663563117
30
0
41
1
10
21.2226843319223
20
-2.32442824297351
30
0
41
1
10
20.8261667275947
20
-2.3035853903028
30
0
41
1
10
20.486244377632
20
-2.28281835185703
30
0
41
1
10
20.259698078233
20
-2.26789674741593
30
0
41
1
10
20.0331345544948
20
-2.25181156784836
30
0
41
1
10
19.806555929856
20
-2.23458283650666
30
0
41
1
10
19.5800102538795
20
-2.21641365413365
30
0
41
1
10
19.2968292377221
20
-2.19220356295233
30
0
41
1
10
18.9569890124904
20
-2.16089178045851
30
0
41
1
10
18.5605342398753
20
-2.12151198035602
30
0
41
1
10
18.2206619294291
20
-2.0850996855157
30
0
41
1
10
17.8807946159037
20
-2.04646202934822
30
0
41
1
10
17.5976153367893
20
-2.01269829591757
30
0
41
1
10
17.1445589125362
20
-1.95562465869486
30
0
41
1
10
16.7480409969062
20
-1.90234997615832
30
0
41
1
10
16.4081188112252
20
-1.85438219314378
30
0
41
1
10
16.1815728808568
20
-1.82143670306428
30
0
41
1
10
15.8983919554116
20
-1.77902118943734
30
0
41
1
10
15.5585486863675
20
-1.72631396156183
30
0
41
1
10
15.3319488620035
20
-1.69008197570204
30
0
41
1
10
15.2186509340331
20
-1.67166732050407
30
0
0
SPLINE
5
C8
100
AcDbEntity
8
1
62
256
6
ByLayer
370
18
48
1
60
0
100
AcDbSpline
70
4
71
1
72
4
73
2
40
0
40
0
40
1
40
1
41
1
10
72.2466195378299
20
-1.07669535182114
30
0
41
1
10
72.2506553739755
20
-1.06307059733064
30
0
0
SPLINE
5
C9
100
AcDbEntity
8
1
62
256
6
ByLayer
370
18
48
1
60
0
100
AcDbSpline
70
4
71
3
72
12
73
8
40
0
40
0
40
0
40
0
40
0.249999999999992
40
0.249999999999992
40
0.499999999999984
40
0.499999999999984
40
1
40
1
40
1
40
1
41
1
10
5.32878030325634
20
-4.82251281803903
30
0
41
1
10
5.34296517898326
20
-4.83619724018249
30
0
41
1
10
5.36657891197405
20
-4.84756792266941
30
0
41
1
10
5.42189518497617
20
-4.86803053937649
30
0
41
1
10
5.45292716023252
20
-4.87671016170842
30
0
41
1
10
5.55138316496195
20
-4.90029953379167
30
0
41
1
10
5.62393798021367
20
-4.91277668248918
30
0
41
1
10
5.69878952936358
20
-4.92339600871284
30
0
0
SPLINE
5
CA
100
AcDbEntity
8
1
62
256
6
ByLayer
370
18
48
1
60
0
100
AcDbSpline
70
4
71
3
72
54
73
50
40
0
40
0
40
0
40
0
40
0.0376153434125273
40
0.0376153434125273
40
0.0752306868250547
40
0.0752306868250547
40
0.112846030237582
40
0.112846030237582
40
0.150461373650109
40
0.150461373650109
40
0.188076717062637
40
0.188076717062637
40
0.225692060475164
40
0.225692060475164
40
0.263307403887691
40
0.263307403887691
40
0.300922747300219
40
0.300922747300219
40
0.338538090712746
40
0.338538090712746
40
0.376153434125273
40
0.376153434125273
40
0.413768777537801
40
0.413768777537801
40
0.451384120950328
40
0.451384120950328
40
0.488999464362855
40
0.488999464362855
40
0.526614807775383
40
0.526614807775383
40
0.601845494600436
40
0.601845494600436
40
0.639460838012962
40
0.639460838012962
40
0.677076181425489
40
0.677076181425489
40
0.714691524838015
40
0.714691524838015
40
0.752306868250542
40
0.752306868250542
40
0.827537555075595
40
0.827537555075595
40
0.865152898488121
40
0.865152898488121
40
0.902768241900647
40
0.902768241900647
40
0.977998928725698
40
0.977998928725698
40
1
40
1
40
1
40
1
41
1
10
18.058814188183
20
2.74616111221545
30
0
41
1
10
18.336307685645
20
2.629188775648
30
0
41
1
10
18.6134678596666
20
2.5095388778922
30
0
41
1
10
19.1674943054428
20
2.26560288363572
30
0
41
1
10
19.4440709876521
20
2.14079070408295
30
0
41
1
10
19.9972313107451
20
1.88707510857176
30
0
41
1
10
20.2739611852162
20
1.75845463599265
30
0
41
1
10
20.8274853778723
20
1.4972637625506
30
0
41
1
10
21.1041527173648
20
1.36443719788466
30
0
41
1
10
21.6583222861959
20
1.09628326241255
30
0
41
1
10
21.9360193685375
20
0.960669694375497
30
0
41
1
10
22.4906685045413
20
0.687943657781688
30
0
41
1
10
22.7675809382405
20
0.550725454776909
30
0
41
1
10
23.3210907580744
20
0.275604648286759
30
0
41
1
10
23.5974766292364
20
0.137275831469253
30
0
41
1
10
24.1504980382424
20
-0.138928250369673
30
0
41
1
10
24.4272260628149
20
-0.276616946239017
30
0
41
1
10
24.9807576890252
20
-0.551891404788847
30
0
41
1
10
25.2575005799433
20
-0.689599745693386
30
0
41
1
10
25.812002849375
20
-0.963016761264953
30
0
41
1
10
26.0895846585744
20
-1.09900251895928
30
0
41
1
10
26.6436578846254
20
-1.36773611636985
30
0
41
1
10
26.9202992293452
20
-1.50086181422438
30
0
41
1
10
27.4734896912781
20
-1.76328680633986
30
0
41
1
10
27.7496966665618
20
-1.89323413170237
30
0
41
1
10
28.302641976762
20
-2.14812629601462
30
0
41
1
10
28.5793870335576
20
-2.2730756332075
30
0
41
1
10
29.132983622603
20
-2.51877100654127
30
0
41
1
10
29.4099107866889
20
-2.63948302307298
30
0
41
1
10
30.242115171514
20
-2.99229217620416
30
0
41
1
10
30.795178703422
20
-3.21517768941084
30
0
41
1
10
31.6245952704455
20
-3.52730528851399
30
0
41
1
10
31.900678824794
20
-3.62817101940953
30
0
41
1
10
32.4536608968731
20
-3.82121143842323
30
0
41
1
10
32.7304731276125
20
-3.91354486673404
30
0
41
1
10
33.2842418937812
20
-4.090460830084
30
0
41
1
10
33.56159423502
20
-4.17492664404665
30
0
41
1
10
34.1157356738146
20
-4.33412256573476
30
0
41
1
10
34.3924156384992
20
-4.40911638190454
30
0
41
1
10
35.2221241487274
20
-4.61946092258142
30
0
41
1
10
35.7740436108287
20
-4.74088127624901
30
0
41
1
10
36.6036785625791
20
-4.89158045436233
30
0
41
1
10
36.8805747816928
20
-4.9365779016772
30
0
41
1
10
37.434598405345
20
-5.01630761831314
30
0
41
1
10
37.7118041282277
20
-5.050849249224
30
0
41
1
10
38.5421087595746
20
-5.13781085353935
30
0
41
1
10
39.0944390938607
20
-5.17394769284644
30
0
41
1
10
39.8086222614768
20
-5.19199186488424
30
0
41
1
10
39.9702734734435
20
-5.19417686438157
30
0
41
1
10
40.1319848481995
20
-5.19446062467901
30
0
0
SPLINE
5
CB
100
AcDbEntity
8
1
62
256
6
ByLayer
370
18
48
1
60
0
100
AcDbSpline
70
4
71
3
72
18
73
14
40
0
40
0
40
0
40
0
40
0.0823621850598877
40
0.0823621850598877
40
0.311771638794917
40
0.311771638794917
40
0.541181092529945
40
0.541181092529945
40
0.655885819397458
40
0.655885819397458
40
0.770590546264973
40
0.770590546264973
40
1
40
1
40
1
40
1
41
1
10
63.9220705478437
20
3.48421559969302
30
0
41
1
10
64.1206007569237
20
3.55951044769779
30
0
41
1
10
64.319270343589
20
3.63297225246058
30
0
41
1
10
65.0703702400564
20
3.90319116374289
30
0
41
1
10
65.6220823238743
20
4.08488320854508
30
0
41
1
10
66.7244421205343
20
4.41330211537948
30
0
41
1
10
67.2754620018167
20
4.55950866912434
30
0
41
1
10
68.1039166916778
20
4.74934130455054
30
0
41
1
10
68.380617636532
20
4.80782601217336
30
0
41
1
10
68.9331440357121
20
4.91418242251535
30
0
41
1
10
69.2092270644661
20
4.96193090934918
30
0
41
1
10
70.0364700808109
20
5.08938801595727
30
0
41
1
10
70.5870627934369
20
5.15298619343713
30
0
41
1
10
71.1380123048245
20
5.19459210432822
30
0
0
SPLINE
5
CC
100
AcDbEntity
8
1
62
256
6
ByLayer
370
18
48
1
60
0
100
AcDbSpline
70
4
71
3
72
22
73
18
40
0
40
0
40
0
40
0
40
0.249999999999997
40
0.249999999999997
40
0.374999999999997
40
0.374999999999997
40
0.499999999999998
40
0.499999999999998
40
0.624999999999998
40
0.624999999999998
40
0.749999999999999
40
0.749999999999999
40
0.874999999999999
40
0.874999999999999
40
0.9375
40
0.9375
40
1
40
1
40
1
40
1
41
1
10
5.81177534812548
20
2.23041422335857
30
0
41
1
10
5.75310312026414
20
2.35600396810798
30
0
41
1
10
5.69569717625953
20
2.48165940546207
30
0
41
1
10
5.61450201935753
20
2.67019816596121
30
0
41
1
10
5.58826094832878
20
2.73305355965607
30
0
41
1
10
5.5388112639244
20
2.85876361928072
30
0
41
1
10
5.51549539397547
20
2.92161965559865
30
0
41
1
10
5.47564412690397
20
3.04728155686146
30
0
41
1
10
5.45888495320386
20
3.11046393329588
30
0
41
1
10
5.4435250716557
20
3.23507529956512
30
0
41
1
10
5.4465023156269
20
3.29280654805677
30
0
41
1
10
5.46958984570449
20
3.40089566170297
30
0
41
1
10
5.48875625464044
20
3.45173131850783
30
0
41
1
10
5.52148463047115
20
3.52492709906963
30
0
41
1
10
5.53320844169519
20
3.5488249370934
30
0
41
1
10
5.55736316379517
20
3.59618613979887
30
0
41
1
10
5.56861694500353
20
3.62037331364309
30
0
41
1
10
5.57929678265521
20
3.64491340523324
30
0
0
SPLINE
5
CD
100
AcDbEntity
8
1
62
256
6
ByLayer
370
18
48
1
60
0
100
AcDbSpline
70
4
71
3
72
8
73
4
40
0
40
0
40
0
40
0
40
1
40
1
40
1
40
1
41
1
10
71.1380123048245
20
-5.19459210432822
30
0
41
1
10
71.3639527768228
20
-4.63571481079381
30
0
41
1
10
71.5946050521233
20
-4.05868583492759
30
0
41
1
10
71.8217091909249
20
-3.4591804115434
30
0
0
SPLINE
5
CE
100
AcDbEntity
8
1
62
256
6
ByLayer
370
18
48
1
60
0
100
AcDbSpline
70
4
71
3
72
10
73
6
40
0
40
0
40
0
40
0
40
0.5
40
0.5
40
1
40
1
40
1
40
1
41
1
10
5.42248283084083
20
3.76981309929215
30
0
41
1
10
5.44533803539468
20
3.83589081135636
30
0
41
1
10
5.47304789587986
20
3.89962039310342
30
0
41
1
10
5.53607495909097
20
4.01985967028062
30
0
41
1
10
5.57152090250676
20
4.07679631265293
30
0
41
1
10
5.61049929620853
20
4.13087896033653
30
0
0
SPLINE
5
CF
100
AcDbEntity
8
1
62
256
6
ByLayer
370
18
48
1
60
0
100
AcDbSpline
70
4
71
3
72
40
73
36
40
0
40
0
40
0
40
0
40
0.115962161382902
40
0.115962161382902
40
0.173943242074353
40
0.173943242074353
40
0.231924322765804
40
0.231924322765804
40
0.289905403457255
40
0.289905403457255
40
0.347886484148706
40
0.347886484148706
40
0.405867564840157
40
0.405867564840157
40
0.463848645531608
40
0.463848645531608
40
0.521829726223059
40
0.521829726223059
40
0.57981080691451
40
0.57981080691451
40
0.637791887605961
40
0.637791887605961
40
0.695772968297412
40
0.695772968297412
40
0.753754048988863
40
0.753754048988863
40
0.811735129680314
40
0.811735129680314
40
0.869716210371765
40
0.869716210371765
40
0.927697291063216
40
0.927697291063216
40
0.985678371754667
40
0.985678371754667
40
1
40
1
40
1
40
1
41
1
10
70.596333052377
20
0.54342872805006
30
0
41
1
10
70.0106976056353
20
0.831318038583674
30
0
41
1
10
69.4263456834412
20
1.1168704708621
30
0
41
1
10
68.5478678016318
20
1.53372678790862
30
0
41
1
10
68.2549628529428
20
1.67124092318838
30
0
41
1
10
67.6684239804588
20
1.94220840295475
30
0
41
1
10
67.3745140781608
20
2.07591066422353
30
0
41
1
10
66.7873070048262
20
2.33703841958734
30
0
41
1
10
66.4940007326451
20
2.46462857316146
30
0
41
1
10
65.9079125758926
20
2.71408415009998
30
0
41
1
10
65.6149932858833
20
2.83565161813834
30
0
41
1
10
65.0293393123363
20
3.07138656901293
30
0
41
1
10
64.7362990387754
20
3.18491575577008
30
0
41
1
10
64.1497136528734
20
3.4049251803844
30
0
41
1
10
63.8564010114389
20
3.51154506237853
30
0
41
1
10
63.2688916376683
20
3.71615123385351
30
0
41
1
10
62.9749477626619
20
3.81398381545631
30
0
41
1
10
62.3882178454418
20
3.99987712988948
30
0
41
1
10
62.0951885330853
20
4.08807149136663
30
0
41
1
10
61.509331572788
20
4.25370274592302
30
0
41
1
10
61.2166347190442
20
4.33107953495269
30
0
41
1
10
60.6305895957135
20
4.47453132011009
30
0
41
1
10
60.3372117579105
20
4.5410155495405
30
0
41
1
10
59.7502283863802
20
4.664464607094
30
0
41
1
10
59.456108916224
20
4.72110386578214
30
0
41
1
10
58.8685963796623
20
4.82287124818143
30
0
41
1
10
58.5752636083336
20
4.86811797766768
30
0
41
1
10
57.9889801014692
20
4.94631851333654
30
0
41
1
10
57.6960545332853
20
4.97911299437217
30
0
41
1
10
57.1102565765035
20
5.0309348047596
30
0
41
1
10
56.817251143392
20
5.05020176230312
30
0
41
1
10
56.2306733634733
20
5.07880193475015
30
0
41
1
10
55.9371826462814
20
5.08763305494259
30
0
41
1
10
55.5705558973883
20
5.09052430579672
30
0
41
1
10
55.4979579109583
20
5.09068431106911
30
0
41
1
10
55.4253821618874
20
5.09044924419348
30
0
0
SPLINE
5
D0
100
AcDbEntity
8
1
62
256
6
ByLayer
370
18
48
1
60
0
100
AcDbSpline
70
4
71
3
72
42
73
38
40
0
40
0
40
0
40
0
40
0.0221802334815218
40
0.0221802334815218
40
0.0736444317193376
40
0.0736444317193376
40
0.125108629957154
40
0.125108629957154
40
0.17657282819497
40
0.17657282819497
40
0.228037026432785
40
0.228037026432785
40
0.279501224670601
40
0.279501224670601
40
0.382429621146231
40
0.382429621146231
40
0.433893819384045
40
0.433893819384045
40
0.485358017621859
40
0.485358017621859
40
0.536822215859674
40
0.536822215859674
40
0.588286414097488
40
0.588286414097488
40
0.639750612335302
40
0.639750612335302
40
0.691214810573116
40
0.691214810573116
40
0.794143207048744
40
0.794143207048744
40
0.845607405286558
40
0.845607405286558
40
0.897071603524372
40
0.897071603524372
40
0.948535801762186
40
0.948535801762186
40
1
40
1
40
1
40
1
41
1
10
31.3700952498746
20
-3.472338418009
30
0
41
1
10
31.2436236135078
20
-3.51700873652735
30
0
41
1
10
31.1172177457695
20
-3.56083551469163
30
0
41
1
10
30.6976122077906
20
-3.70329550232799
30
0
41
1
10
30.4044030102677
20
-3.79881302097547
30
0
41
1
10
29.8178903361725
20
-3.98106537170665
30
0
41
1
10
29.524433328794
20
-4.06758667022444
30
0
41
1
10
28.9371620249464
20
-4.22937237215208
30
0
41
1
10
28.6432904600837
20
-4.30515452377182
30
0
41
1
10
28.0548778652349
20
-4.44712424562755
30
0
41
1
10
27.7608311601823
20
-4.51289494378608
30
0
41
1
10
27.1737499424817
20
-4.63309696743207
30
0
41
1
10
26.8804656977642
20
-4.68657798062497
30
0
41
1
10
26.0006453110637
20
-4.83151532685815
30
0
41
1
10
25.413761827576
20
-4.9079427661556
30
0
41
1
10
24.5316942393393
20
-4.98122920117461
30
0
41
1
10
24.2373311476822
20
-5.00019641701829
30
0
41
1
10
23.6503790067754
20
-5.02679822330654
30
0
41
1
10
23.3577136789261
20
-5.03454751000467
30
0
41
1
10
22.7736765885184
20
-5.03570055776535
30
0
41
1
10
22.48243323817
20
-5.02946161308353
30
0
41
1
10
21.9001522206839
20
-5.0073639977893
30
0
41
1
10
21.6093217562973
20
-4.99088076862338
30
0
41
1
10
21.0278505680128
20
-4.9455303091039
30
0
41
1
10
20.7374904982882
20
-4.9158377858337
30
0
41
1
10
20.156528369164
20
-4.84589382882982
30
0
41
1
10
19.8657140727515
20
-4.80589610854778
30
0
41
1
10
18.9928587440969
20
-4.66804217523574
30
0
41
1
10
18.4103439341191
20
-4.55253363994632
30
0
41
1
10
17.5326046993388
20
-4.34801706430605
30
0
41
1
10
17.2392158689938
20
-4.27433702207784
30
0
41
1
10
16.6509916506863
20
-4.11589439786854
30
0
41
1
10
16.3563486073862
20
-4.03128624511834
30
0
41
1
10
15.7675738107531
20
-3.85380126040542
30
0
41
1
10
15.4731407763721
20
-3.76060108115325
30
0
41
1
10
14.8846745212563
20
-3.56400232400816
30
0
41
1
10
14.5902621168817
20
-3.46125236377435
30
0
41
1
10
14.2954671059102
20
-3.35477315817246
30
0
0
SPLINE
5
D1
100
AcDbEntity
8
1
62
256
6
ByLayer
370
18
48
1
60
0
100
AcDbSpline
70
4
71
3
72
42
73
38
40
0
40
0
40
0
40
0
40
0.015625
40
0.015625
40
0.03125
40
0.03125
40
0.0625000000000001
40
0.0625000000000001
40
0.125
40
0.125
40
0.1875
40
0.1875
40
0.25
40
0.25
40
0.3125
40
0.3125
40
0.375
40
0.375
40
0.5
40
0.5
40
0.53125
40
0.53125
40
0.5625
40
0.5625
40
0.625
40
0.625
40
0.65625
40
0.65625
40
0.6875
40
0.6875
40
0.75
40
0.75
40
0.8125
40
0.8125
40
0.875
40
0.875
40
1
40
1
40
1
40
1
41
1
10
5.33327056908678
20
3.8000096537815
30
0
41
1
10
5.32836393368279
20
3.76340650384239
30
0
41
1
10
5.32519701585517
20
3.72597538366492
30
0
41
1
10
5.32218859355964
20
3.64943076502939
30
0
41
1
10
5.32270066708597
20
3.61041139642015
30
0
41
1
10
5.32278818457917
20
3.49205177731949
30
0
41
1
10
5.32283926931234
20
3.41105606124282
30
0
41
1
10
5.32297238207792
20
3.16193315867079
30
0
41
1
10
5.32303433517981
20
2.98769446903498
30
0
41
1
10
5.32311155104051
20
2.62299634599975
30
0
41
1
10
5.323126784236
20
2.432014935713
30
0
41
1
10
5.32311547472199
20
2.03532913752784
30
0
41
1
10
5.32308918922649
20
1.83288669626219
30
0
41
1
10
5.32300307544003
20
1.42009986951896
30
0
41
1
10
5.322943226908
20
1.20975467806724
30
0
41
1
10
5.3227949979169
20
0.781064204834394
30
0
41
1
10
5.32270584940426
20
0.561228893136217
30
0
41
1
10
5.32240792961321
20
-0.0939821305312307
30
0
41
1
10
5.32216952270795
20
-0.528214237066692
30
0
41
1
10
5.32183099675595
20
-1.06774995881276
30
0
41
1
10
5.32176103652134
20
-1.17566267339782
30
0
41
1
10
5.3216188117463
20
-1.38808720640546
30
0
41
1
10
5.32154632106008
20
-1.49297254981099
30
0
41
1
10
5.32132459376174
20
-1.80372321532514
30
0
41
1
10
5.32117116959051
20
-2.00569865599701
30
0
41
1
10
5.32093092050957
20
-2.30088571849737
30
0
41
1
10
5.32084913534987
20
-2.39798151243761
30
0
41
1
10
5.32068166243428
20
-2.58952709386796
30
0
41
1
10
5.32059565433212
20
-2.68430947330552
30
0
41
1
10
5.32033348542066
20
-2.96175174392667
30
0
41
1
10
5.32015355523714
20
-3.13731198480576
30
0
41
1
10
5.31977872402965
20
-3.47023877832271
30
0
41
1
10
5.31958383571964
20
-3.62760406984367
30
0
41
1
10
5.31917288565319
20
-3.92384407883728
30
0
41
1
10
5.31895544681856
20
-4.06330072468626
30
0
41
1
10
5.31827945636005
20
-4.44179278673727
30
0
41
1
10
5.31779312571518
20
-4.64556763112159
30
0
41
1
10
5.31724540592217
20
-4.80041815364479
30
0
0
SPLINE
5
D2
100
AcDbEntity
8
1
62
256
6
ByLayer
370
18
48
1
60
0
100
AcDbSpline
70
4
71
4
72
10
73
5
40
0
40
0
40
0
40
0
40
0
40
1
40
1
40
1
40
1
40
1
41
1
10
18.0588141881829
20
2.74616111221542
30
0
41
1
10
17.8162349725829
20
2.40069544958422
30
0
41
1
10
17.5736557569828
20
2.05522978695299
30
0
41
1
10
17.3310765413828
20
1.70976412432179
30
0
41
1
10
17.0884973257827
20
1.3642984616906
30
0
0
SPLINE
5
D3
100
AcDbEntity
8
1
62
256
6
ByLayer
370
18
48
1
60
0
100
AcDbSpline
70
4
71
3
72
34
73
30
40
0
40
0
40
0
40
0
40
0.0312500000000021
40
0.0312500000000021
40
0.0625000000000041
40
0.0625000000000041
40
0.0937500000000062
40
0.0937500000000062
40
0.125000000000008
40
0.125000000000008
40
0.18750000000001
40
0.18750000000001
40
0.250000000000011
40
0.250000000000011
40
0.375000000000011
40
0.375000000000011
40
0.43750000000001
40
0.43750000000001
40
0.500000000000009
40
0.500000000000009
40
0.625000000000006
40
0.625000000000006
40
0.750000000000003
40
0.750000000000003
40
0.812500000000001
40
0.812500000000001
40
0.875
40
0.875
40
1
40
1
40
1
40
1
41
1
10
5.6104992962085
20
4.13087896033653
30
0
41
1
10
5.63861448730631
20
4.16988887917341
30
0
41
1
10
5.6738182817235
20
4.20574172796634
30
0
41
1
10
5.75596819205015
20
4.27243769085706
30
0
41
1
10
5.80175382890906
20
4.30237569715229
30
0
41
1
10
5.90026535280197
20
4.3572916258409
30
0
41
1
10
5.95303084968222
20
4.38226489172862
30
0
41
1
10
6.06417292787987
20
4.42840737113374
30
0
41
1
10
6.12235838433367
20
4.44946336526371
30
0
41
1
10
6.30039474962283
20
4.50711587584266
30
0
41
1
10
6.42480061050128
20
4.53878549965879
30
0
41
1
10
6.68149788726828
20
4.59365485611727
30
0
41
1
10
6.81449636771129
20
4.61685714834599
30
0
41
1
10
7.21710220432382
20
4.67642396737068
30
0
41
1
10
7.49052101566596
20
4.7033183596412
30
0
41
1
10
7.90595956299734
20
4.73253747173641
30
0
41
1
10
8.04535337371505
20
4.74032232247066
30
0
41
1
10
8.32583165351519
20
4.75252914447915
30
0
41
1
10
8.46723570152855
20
4.75695357361721
30
0
41
1
10
8.89167417872085
20
4.76552229353209
30
0
41
1
10
9.17280615580452
20
4.76504330332446
30
0
41
1
10
9.73168828061478
20
4.75251835353558
30
0
41
1
10
10.0094319904175
20
4.74044929573458
30
0
41
1
10
10.4234752343763
20
4.71230765858277
30
0
41
1
10
10.5610591230428
20
4.70123609559661
30
0
41
1
10
10.8353438891824
20
4.67527242716287
30
0
41
1
10
10.972353103005
20
4.66034100761345
30
0
41
1
10
11.3799042720335
20
4.60920162974787
30
0
41
1
10
11.6443392802806
20
4.56705027956997
30
0
41
1
10
11.9016731984628
20
4.51490306036317
30
0
0
SPLINE
5
D4
100
AcDbEntity
8
1
62
256
6
ByLayer
370
18
48
1
60
0
100
AcDbSpline
70
4
71
3
72
8
73
4
40
0
40
0
40
0
40
0
40
1
40
1
40
1
40
1
41
1
10
72.4236998874808
20
1.69912919261472
30
0
41
1
10
72.2217920238161
20
2.28538652018594
30
0
41
1
10
72.0211266469088
20
2.87206963907883
30
0
41
1
10
71.821709190925
20
3.45918041154326
30
0
0
SPLINE
5
D5
100
AcDbEntity
8
1
62
256
6
ByLayer
370
18
48
1
60
0
100
AcDbSpline
70
4
71
3
72
8
73
4
40
0
40
0
40
0
40
0
40
1
40
1
40
1
40
1
41
1
10
5.31724540589488
20
-4.80041815365661
30
0
41
1
10
5.31721806491117
20
-4.80814795557194
30
0
41
1
10
5.32148917571615
20
-4.81547892721872
30
0
41
1
10
5.3287803032562
20
-4.82251281803886
30
0
0
SPLINE
5
D6
100
AcDbEntity
8
1
62
256
6
ByLayer
370
18
48
1
60
0
100
AcDbSpline
70
4
71
1
72
4
73
2
40
0
40
0
40
1
40
1
41
1
10
71.0896670236403
20
-4.9825015823948
30
0
41
1
10
72.246619537835
20
-1.07669535182268
30
0
0
SPLINE
5
D7
100
AcDbEntity
8
1
62
256
6
ByLayer
370
13
48
1
60
0
100
AcDbSpline
70
4
71
3
72
34
73
30
40
0
40
0
40
0
40
0
40
0.125
40
0.125
40
0.1875
40
0.1875
40
0.25
40
0.25
40
0.3125
40
0.3125
40
0.375
40
0.4375
40
0.4375
40
0.46875
40
0.46875
40
0.5
40
0.5
40
0.625
40
0.625
40
0.6875
40
0.6875
40
0.75
40
0.75
40
0.8125
40
0.8125
40
0.875
40
0.9375
40
0.9375
40
1
40
1
40
1
40
1
41
1
10
5.81036197252393
20
-4.73499697433988
30
0
41
1
10
5.81046955372216
20
-4.61968162246947
30
0
41
1
10
5.81056251674315
20
-4.47011185084079
30
0
41
1
10
5.81068990764015
20
-4.19546545908372
30
0
41
1
10
5.81073048183896
20
-4.09500994728461
30
0
41
1
10
5.81080797228597
20
-3.87944689525205
30
0
41
1
10
5.81084495308065
20
-3.76431154200742
30
0
41
1
10
5.81091679644811
20
-3.5192812146926
30
0
41
1
10
5.81095145708917
20
-3.39001197410181
30
0
41
1
10
5.81101874436419
20
-3.12126607235658
30
0
41
1
10
5.81108424273305
20
-2.84146940418105
30
0
41
1
10
5.81114809352653
20
-2.53976488466773
30
0
41
1
10
5.81119586331306
20
-2.30506344703983
30
0
41
1
10
5.81121181297578
20
-2.22517496349855
30
0
41
1
10
5.81124344985398
20
-2.06392980701202
30
0
41
1
10
5.81125913078913
20
-1.98261689689002
30
0
41
1
10
5.81133695226924
20
-1.57267031461322
30
0
41
1
10
5.81139756562766
20
-1.23400346420541
30
0
41
1
10
5.81148528465141
20
-0.709877191897419
30
0
41
1
10
5.81151405420334
20
-0.531719606151455
30
0
41
1
10
5.81156882518891
20
-0.175855269821199
30
0
41
1
10
5.81159491890239
20
0.0023453267971831
30
0
41
1
10
5.81164360511275
20
0.3592852304063
30
0
41
1
10
5.81166611664994
20
0.537608742260517
30
0
41
1
10
5.81170571366727
20
0.888306960823485
30
0
41
1
10
5.81174011331584
20
1.234665155816
30
0
41
1
10
5.81176161155952
20
1.57244384932369
30
0
41
1
10
5.81177504059769
20
1.90583692988972
30
0
41
1
10
5.81177767514168
20
2.07069456774647
30
0
41
1
10
5.81177534812548
20
2.23041422335857
30
0
0
SPLINE
5
D8
100
AcDbEntity
8
1
62
256
6
ByLayer
370
18
48
1
60
0
100
AcDbSpline
70
4
71
3
72
8
73
4
40
0
40
0
40
0
40
0
40
1
40
1
40
1
40
1
41
1
10
72.4236998874783
20
-1.699129192622
30
0
41
1
10
72.2217914113206
20
-2.28538829862077
30
0
41
1
10
72.0211260410919
20
-2.87207142268215
30
0
41
1
10
71.8217091909249
20
-3.45918041154343
30
0
0
SPLINE
5
D9
100
AcDbEntity
8
1
62
256
6
ByLayer
370
18
48
1
60
0
100
AcDbSpline
70
4
71
3
72
18
73
14
40
0
40
0
40
0
40
0
40
0.249999999999994
40
0.249999999999994
40
0.374999999999995
40
0.374999999999995
40
0.499999999999996
40
0.499999999999996
40
0.624999999999997
40
0.624999999999997
40
0.749999999999998
40
0.749999999999998
40
1
40
1
40
1
40
1
41
1
10
72.2506553739632
20
-1.06307059733973
30
0
41
1
10
72.3057286449512
20
-1.02241111163278
30
0
41
1
10
72.3636175326816
20
-0.964290698814921
30
0
41
1
10
72.4549586744889
20
-0.85278069405885
30
0
41
1
10
72.4862818564941
20
-0.811341506531789
30
0
41
1
10
72.5499829427064
20
-0.720902776481523
30
0
41
1
10
72.5819957153238
20
-0.67244785595696
30
0
41
1
10
72.646351019586
20
-0.569468493133968
30
0
41
1
10
72.6786934638163
20
-0.514942284990553
30
0
41
1
10
72.7436966918005
20
-0.39998428727958
30
0
41
1
10
72.7765250476747
20
-0.339222864783409
30
0
41
1
10
72.8741525918081
20
-0.150563656023337
30
0
41
1
10
72.9376884101652
20
-0.0173067622925203
30
0
41
1
10
72.9995971320784
20
0.122824863166585
30
0
0
SPLINE
5
DA
100
AcDbEntity
8
1
62
256
6
ByLayer
370
18
48
1
60
0
100
AcDbSpline
70
4
71
3
72
20
73
16
40
0
40
0
40
0
40
0
40
0.25
40
0.25
40
0.375
40
0.375
40
0.437499999999999
40
0.437499999999999
40
0.499999999999997
40
0.499999999999997
40
0.749999999999999
40
0.749999999999999
40
0.874999999999999
40
0.874999999999999
40
1
40
1
40
1
40
1
41
1
10
71.0408686582416
20
-4.88291699405681
30
0
41
1
10
70.9373683281316
20
-4.78922217293547
30
0
41
1
10
70.8457950574308
20
-4.66891560137034
30
0
41
1
10
70.7269857996295
20
-4.4470653891278
30
0
41
1
10
70.6904927971779
20
-4.36617607521481
30
0
41
1
10
70.6406953413263
20
-4.23381536766985
30
0
41
1
10
70.6249079697197
20
-4.18778233287634
30
0
41
1
10
70.5953796347339
20
-4.09305420052851
30
0
41
1
10
70.5815891523816
20
-4.04423987116877
30
0
41
1
10
70.517469553405
20
-3.79296995239869
30
0
41
1
10
70.481507288289
20
-3.5691155401484
30
0
41
1
10
70.4514421080205
20
-3.19776831829265
30
0
41
1
10
70.4454379571253
20
-3.06727222376881
30
0
41
1
10
70.4419189795013
20
-2.79872940078107
30
0
41
1
10
70.444335559669
20
-2.660501899884
30
0
41
1
10
70.4508849734522
20
-2.51835926747159
30
0
0
SPLINE
5
DB
100
AcDbEntity
8
1
62
256
6
ByLayer
370
18
48
1
60
0
100
AcDbSpline
70
4
71
3
72
34
73
30
40
0
40
0
40
0
40
0
40
0.124999999999999
40
0.124999999999999
40
0.249999999999999
40
0.249999999999999
40
0.374999999999998
40
0.374999999999998
40
0.499999999999997
40
0.499999999999997
40
0.562499999999997
40
0.562499999999997
40
0.624999999999998
40
0.624999999999998
40
0.687499999999998
40
0.687499999999998
40
0.749999999999998
40
0.749999999999998
40
0.812499999999999
40
0.812499999999999
40
0.874999999999999
40
0.874999999999999
40
0.906249999999999
40
0.906249999999999
40
0.9375
40
0.9375
40
0.96875
40
0.96875
40
1
40
1
40
1
40
1
41
1
10
14.2954671059102
20
-3.35477315817246
30
0
41
1
10
13.8930445557501
20
-3.22030193577766
30
0
41
1
10
13.4931100233244
20
-3.07781098331202
30
0
41
1
10
12.6989849562879
20
-2.77364538292252
30
0
41
1
10
12.3046791257833
20
-2.61247985614307
30
0
41
1
10
11.521939051309
20
-2.27064233901612
30
0
41
1
10
11.1336884626225
20
-2.08916349282884
30
0
41
1
10
10.3642931905366
20
-1.70153385322612
30
0
41
1
10
9.98296470139724
20
-1.49618506239523
30
0
41
1
10
9.41740152064531
20
-1.16503920911188
30
0
41
1
10
9.22974283180039
20
-1.05060771359263
30
0
41
1
10
8.85789455536275
20
-0.813164716217671
30
0
41
1
10
8.67438370759209
20
-0.690715294570879
30
0
41
1
10
8.31232450129468
20
-0.438141716754984
30
0
41
1
10
8.13383033304004
20
-0.30793175607468
30
0
41
1
10
7.78305615751475
20
-0.0378494224682129
30
0
41
1
10
7.61036424364866
20
0.102356107449737
30
0
41
1
10
7.27603880188619
20
0.391285708799728
30
0
41
1
10
7.11407262051168
20
0.540212276126141
30
0
41
1
10
6.80273655685423
20
0.848812616471349
30
0
41
1
10
6.65333757971851
20
1.00846215203478
30
0
41
1
10
6.44134477250861
20
1.2582019738484
30
0
41
1
10
6.37270998120613
20
1.34321633311137
30
0
41
1
10
6.24196682113708
20
1.51474065157581
30
0
41
1
10
6.1796193854947
20
1.60151967718036
30
0
41
1
10
6.0616821154176
20
1.77732201106542
30
0
41
1
10
6.00608914357531
20
1.86634433278002
30
0
41
1
10
5.90259785172935
20
2.04691496486922
30
0
41
1
10
5.8544982111178
20
2.13896459456896
30
0
41
1
10
5.81177534812559
20
2.23041422335842
30
0
0
SPLINE
5
DC
100
AcDbEntity
8
1
62
256
6
ByLayer
370
18
48
1
60
0
100
AcDbSpline
70
4
71
3
72
8
73
4
40
0
40
0
40
0
40
0
40
1
40
1
40
1
40
1
41
1
10
72.9995971320774
20
0.122824863164453
30
0
41
1
10
73.0001342892958
20
0.0409416210547988
30
0
41
1
10
73.0001342892958
20
-0.0409416210548272
30
0
41
1
10
72.9995971320774
20
-0.122824863164482
30
0
0
SPLINE
5
DD
100
AcDbEntity
8
1
62
256
6
ByLayer
370
13
48
1
60
0
100
AcDbSpline
70
4
71
3
72
84
73
80
40
0
40
0
40
0
40
0
40
0.0312295219761567
40
0.0393057033063493
40
0.0473818846365413
40
0.0635342472969267
40
0.0716104286271192
40
0.0796866099573121
40
0.0958389726176969
40
0.103915153947889
40
0.11199133527808
40
0.128143697938467
40
0.136219879268659
40
0.144296060598852
40
0.160448423259237
40
0.176600785919621
40
0.192753148580007
40
0.225057873900777
40
0.23313405523097
40
0.241210236561161
40
0.257362599221547
40
0.265438780551739
40
0.273514961881932
40
0.289667324542317
40
0.297743505872509
40
0.305819687202702
40
0.321972049863087
40
0.330048231193279
40
0.338124412523472
40
0.354276775183857
40
0.370429137844242
40
0.386581500504627
40
0.418886225825397
40
0.426962407155588
40
0.435038588485781
40
0.451190951146167
40
0.459267132476359
40
0.467343313806552
40
0.483495676466937
40
0.491571857797129
40
0.499648039127322
40
0.515800401787707
40
0.523876583117899
40
0.531952764448092
40
0.548105127108477
40
0.564257489768861
40
0.580409852429247
40
0.612714577750017
40
0.620790759080209
40
0.628866940410402
40
0.645019303070787
40
0.653095484400979
40
0.661171665731172
40
0.677324028391556
40
0.685400209721749
40
0.693476391051942
40
0.709628753712327
40
0.717704935042519
40
0.725781116372712
40
0.741933479033096
40
0.750009660363289
40
0.758085841693482
40
0.774238204353867
40
0.782314385684059
40
0.790390567014251
40
0.806542929674637
40
0.814619111004829
40
0.822695292335023
40
0.838847654995407
40
0.846923836325599
40
0.855000017655792
40
0.871152380316177
40
0.887304742976562
40
0.903457105636947
40
0.927685649627525
40
0.935761830957717
40
0.951914193618102
40
0.968066556278486
40
1
40
1
40
1
40
1
41
1
10
55.8079598967654
20
0.0239543149492363
30
0
41
1
10
55.5889240523688
20
0.0742080882099003
30
0
41
1
10
55.3132859137773
20
0.137575607225955
30
0
41
1
10
54.9810601353989
20
0.213936352989691
30
0
41
1
10
54.7544814136622
20
0.265671514633169
30
0
41
1
10
54.5279196241244
20
0.31733586577289
30
0
41
1
10
54.3013728704586
20
0.36889252258706
30
0
41
1
10
54.0747934924217
20
0.420180931182159
30
0
41
1
10
53.8482316509674
20
0.471315666028999
30
0
41
1
10
53.6216852629137
20
0.522260511182821
30
0
41
1
10
53.3951062391622
20
0.572876768811028
30
0
41
1
10
53.1685448298584
20
0.623258503344004
30
0
41
1
10
52.9419986802205
20
0.673370263580039
30
0
41
1
10
52.7154192675035
20
0.723095469359549
30
0
41
1
10
52.4321934915256
20
0.784771997153938
30
0
41
1
10
52.0923457304717
20
0.858047594429762
30
0
41
1
10
51.6391513562735
20
0.954211751509717
30
0
41
1
10
51.2427006861438
20
1.03697774937836
30
0
41
1
10
50.9029358231951
20
1.1067022265199
30
0
41
1
10
50.6763569740856
20
1.15248735544168
30
0
41
1
10
50.4497950184251
20
1.19773144389921
30
0
41
1
10
50.22324810371
20
1.24240131123608
30
0
41
1
10
49.9966685438997
20
1.28647058198047
30
0
41
1
10
49.770106540266
20
1.32992765035121
30
0
41
1
10
49.5435600825106
20
1.37274045066667
30
0
41
1
10
49.3169810264884
20
1.4149055024447
30
0
41
1
10
49.0904196169765
20
1.45638956919421
30
0
41
1
10
48.863873469511
20
1.49716106873046
30
0
41
1
10
48.637294077964
20
1.53724005423646
30
0
41
1
10
48.3540683343536
20
1.58631000285462
30
0
41
1
10
48.0142203986958
20
1.64359900910168
30
0
41
1
10
47.5610255657687
20
1.71731375471992
30
0
41
1
10
47.1645745436878
20
1.77900266241039
30
0
41
1
10
46.8248098305529
20
1.8296675926357
30
0
41
1
10
46.5982311423542
20
1.86248478988057
30
0
41
1
10
46.3716694056421
20
1.89437606764033
30
0
41
1
10
46.1451227005433
20
1.92531563825346
30
0
41
1
10
45.9185433380045
20
1.95541452694718
30
0
41
1
10
45.6919814681715
20
1.9845360961533
30
0
41
1
10
45.465435035155
20
2.01265591421284
30
0
41
1
10
45.2388559949089
20
2.03990682761048
30
0
41
1
10
45.0122946048927
20
2.06613266380446
30
0
41
1
10
44.7857484993704
20
2.09131046946032
30
0
41
1
10
44.5591691265282
20
2.11559456019816
30
0
41
1
10
44.2759433952542
20
2.14452700353911
30
0
41
1
10
43.9360956830546
20
2.17703176120526
30
0
41
1
10
43.4829013798329
20
2.21697240392493
30
0
41
1
10
43.0864507735867
20
2.24810493122103
30
0
41
1
10
42.7466859725766
20
2.27192895930395
30
0
41
1
10
42.5201071772618
20
2.28673886811876
30
0
41
1
10
42.2935452903993
20
2.30038139655443
30
0
41
1
10
42.0669984356059
20
2.31284175871005
30
0
41
1
10
41.8404188999839
20
2.32435093771912
30
0
41
1
10
41.6138568714858
20
2.33466838573227
30
0
41
1
10
41.3873103652759
20
2.34378079104633
30
0
41
1
10
41.1607312834077
20
2.35193719161961
30
0
41
1
10
40.9341698731807
20
2.35888339847793
30
0
41
1
10
40.7076237741719
20
2.36460972250097
30
0
41
1
10
40.4810445626529
20
2.36938054157886
30
0
41
1
10
40.2544822907684
20
2.37292856504257
30
0
41
1
10
40.0279350374294
20
2.37524516603221
30
0
41
1
10
39.8013551352817
20
2.37660945987372
30
0
41
1
10
39.5747927983888
20
2.37674211184827
30
0
41
1
10
39.3482460968004
20
2.37563690692775
30
0
41
1
10
39.121666938914
20
2.3735863007457
30
0
41
1
10
38.8951056529243
20
2.3702988605921
30
0
41
1
10
38.6685599365701
20
2.36576884353735
30
0
41
1
10
38.4419812830928
20
2.36030398499918
30
0
41
1
10
38.2154198287265
20
2.3536046925046
30
0
41
1
10
37.9888734596188
20
2.34567141673145
30
0
41
1
10
37.7622941371817
20
2.3368210885236
30
0
41
1
10
37.4790689292468
20
2.324183226434
30
0
41
1
10
37.1392217216678
20
2.30656183306206
30
0
41
1
10
36.7427078066029
20
2.28305706522712
30
0
41
1
10
36.4028927134463
20
2.25991903257824
30
0
41
1
10
36.0630726275667
20
2.23433101543546
30
0
41
1
10
35.779845716093
20
2.21143045525269
30
0
41
1
10
35.329256494175
20
2.1718121480269
30
0
41
1
10
34.9920446050679
20
2.1387776628747
30
0
41
1
10
34.7681305577546
20
2.11537202932982
30
0
0
SPLINE
5
DE
100
AcDbEntity
8
1
62
256
6
ByLayer
370
18
48
1
60
0
100
AcDbSpline
70
4
71
3
72
56
73
52
40
0
40
0
40
0
40
0
40
0.0031202119927423
40
0.0031202119927423
40
0.0325562150732369
40
0.0325562150732369
40
0.0914282212342261
40
0.0914282212342261
40
0.120864224314721
40
0.120864224314721
40
0.150300227395215
40
0.150300227395215
40
0.209172233556204
40
0.209172233556204
40
0.238608236636699
40
0.238608236636699
40
0.268044239717193
40
0.268044239717193
40
0.326916245878184
40
0.326916245878184
40
0.385788252039174
40
0.385788252039174
40
0.415224255119669
40
0.415224255119669
40
0.444660258200164
40
0.444660258200164
40
0.503532264361154
40
0.503532264361154
40
0.532968267441649
40
0.532968267441649
40
0.562404270522143
40
0.562404270522143
40
0.621276276683132
40
0.621276276683132
40
0.650712279763625
40
0.650712279763625
40
0.680148282844119
40
0.680148282844119
40
0.739020289005106
40
0.739020289005106
40
0.797892295166094
40
0.797892295166094
40
0.856764301327081
40
0.856764301327081
40
0.886200304407575
40
0.886200304407575
40
0.915636307488069
40
0.915636307488069
40
0.974508313649058
40
0.974508313649058
40
1
40
1
40
1
40
1
41
1
10
8.66676681994994
20
5.13782674700968
30
0
41
1
10
8.70299208243742
20
5.13788267070711
30
0
41
1
10
8.73921220710477
20
5.13784407513958
30
0
41
1
10
9.1170652379131
20
5.13645478935868
30
0
41
1
10
9.45816411906506
20
5.12680184694844
30
0
41
1
10
10.4808557133814
20
5.07286129256414
30
0
41
1
10
11.1619562028788
20
5.00361306046139
30
0
41
1
10
12.1863938957676
20
4.85105829286783
30
0
41
1
10
12.5285470099934
20
4.79206077735986
30
0
41
1
10
13.2111840670073
20
4.65885930502438
30
0
41
1
10
13.5520361320264
20
4.58458490804594
30
0
41
1
10
14.5742420112758
20
4.33974005905418
30
0
41
1
10
15.2553285260775
20
4.14723598073755
30
0
41
1
10
16.2801199963201
20
3.81844938199956
30
0
41
1
10
16.6218803527795
20
3.70235508419933
30
0
41
1
10
17.3039790751821
20
3.45891541292391
30
0
41
1
10
17.6446377539292
20
3.33141751611672
30
0
41
1
10
18.6664718146426
20
2.93318286878437
30
0
41
1
10
19.3477036953936
20
2.64680852759639
30
0
41
1
10
20.7144912819101
20
2.04049263705218
30
0
41
1
10
21.3955131867319
20
1.72315881744205
30
0
41
1
10
22.4171401338825
20
1.23291710445596
30
0
41
1
10
22.7576962889631
20
1.06712478759337
30
0
41
1
10
23.4395545539087
20
0.73217537470012
30
0
41
1
10
23.7812267717721
20
0.562790102296589
30
0
41
1
10
24.8052803575367
20
0.0528666028845919
30
0
41
1
10
25.485893812776
20
-0.288505502454171
30
0
41
1
10
26.5072771683859
20
-0.795472821803401
30
0
41
1
10
26.8478800177735
20
-0.963484307104494
30
0
41
1
10
27.5299480452106
20
-1.29639267908982
30
0
41
1
10
27.8717253977965
20
-1.46152169185064
30
0
41
1
10
28.8948212338819
20
-1.94798681218973
30
0
41
1
10
29.5750644619997
20
-2.26081593438923
30
0
41
1
10
30.5963869365795
20
-2.70613599450445
30
0
41
1
10
30.9370209310252
20
-2.85052928120385
30
0
41
1
10
31.6193271560289
20
-3.13006153455567
30
0
41
1
10
31.960905592526
20
-3.26517136929346
30
0
41
1
10
32.983167944626
20
-3.65309898522591
30
0
41
1
10
33.6630962091323
20
-3.88911072301428
30
0
41
1
10
35.0249433083125
20
-4.30885169462209
30
0
41
1
10
35.7083351545865
20
-4.49273528911448
30
0
41
1
10
37.0703372022159
20
-4.7988498164587
30
0
41
1
10
37.7500266700424
20
-4.92149935313461
30
0
41
1
10
38.77156705714
20
-5.05694221186536
30
0
41
1
10
39.1127469647452
20
-5.09401880805532
30
0
41
1
10
39.794982333159
20
-5.15146390090695
30
0
41
1
10
40.1355083035146
20
-5.17179456570557
30
0
41
1
10
41.1563616930197
20
-5.20753154037502
30
0
41
1
10
41.8358647780088
20
-5.19767061340656
30
0
41
1
10
42.8120189423212
20
-5.13527603424814
30
0
41
1
10
43.1075993740716
20
-5.11007429273258
30
0
41
1
10
43.4028249171038
20
-5.07868241644087
30
0
0
SPLINE
5
DF
100
AcDbEntity
8
1
62
256
6
ByLayer
370
18
48
1
60
0
100
AcDbSpline
70
4
71
3
72
8
73
4
40
0
40
0
40
0
40
0
40
1
40
1
40
1
40
1
41
1
10
72.9995971320773
20
-0.122824863164794
30
0
41
1
10
72.79793921299
20
-0.640868377784301
30
0
41
1
10
72.6070660740162
20
-1.16670926337554
30
0
41
1
10
72.4236998874807
20
-1.69912919261498
30
0
0
SPLINE
5
E0
100
AcDbEntity
8
1
62
256
6
ByLayer
370
18
48
1
60
0
100
AcDbSpline
70
4
71
3
72
10
73
6
40
0
40
0
40
0
40
0
40
0.5
40
0.5
40
1
40
1
40
1
40
1
41
1
10
11.9016731984628
20
4.51490306036317
30
0
41
1
10
12.9337688635908
20
4.30575488715692
30
0
41
1
10
13.9635776127293
20
4.05402754995646
30
0
41
1
10
16.0165120541331
20
3.46674612400042
30
0
41
1
10
17.0396546430629
20
3.13121092684017
30
0
41
1
10
18.058814188183
20
2.74616111221542
30
0
0
SPLINE
5
E1
100
AcDbEntity
8
1
62
256
6
ByLayer
370
18
48
1
60
0
100
AcDbSpline
70
4
71
3
72
8
73
4
40
0
40
0
40
0
40
0
40
1
40
1
40
1
40
1
41
1
10
70.596333052377
20
0.543428728050031
30
0
41
1
10
70.8332698682386
20
0.438581105591851
30
0
41
1
10
71.0717822913567
20
0.341711772217337
30
0
41
1
10
71.3120181134018
20
0.253569089974008
30
0
0
SPLINE
5
E2
100
AcDbEntity
8
1
62
256
6
ByLayer
370
18
48
1
60
0
100
AcDbSpline
70
4
71
3
72
98
73
94
40
0
40
0
40
0
40
0
40
0.0087594470395833
40
0.0087594470395833
40
0.030124678499022
40
0.030124678499022
40
0.0514899099584606
40
0.0514899099584606
40
0.0728551414178993
40
0.0728551414178993
40
0.0942203728773379
40
0.0942203728773379
40
0.115585604336777
40
0.115585604336777
40
0.136950835796215
40
0.136950835796215
40
0.158316067255654
40
0.158316067255654
40
0.179681298715093
40
0.179681298715093
40
0.201046530174531
40
0.201046530174531
40
0.22241176163397
40
0.22241176163397
40
0.243776993093409
40
0.243776993093409
40
0.265142224552847
40
0.265142224552847
40
0.286507456012286
40
0.286507456012286
40
0.307872687471725
40
0.307872687471725
40
0.329237918931163
40
0.329237918931163
40
0.350603150390602
40
0.350603150390602
40
0.371968381850041
40
0.371968381850041
40
0.393333613309479
40
0.393333613309479
40
0.414698844768918
40
0.414698844768918
40
0.436064076228356
40
0.436064076228356
40
0.457429307687795
40
0.457429307687795
40
0.478794539147234
40
0.478794539147234
40
0.500159770606672
40
0.500159770606672
40
0.521525002066111
40
0.521525002066111
40
0.54289023352555
40
0.54289023352555
40
0.564255464984988
40
0.564255464984988
40
0.585620696444427
40
0.585620696444427
40
0.606985927903866
40
0.606985927903866
40
0.628351159363304
40
0.628351159363304
40
0.649716390822743
40
0.649716390822743
40
0.671081622282182
40
0.671081622282182
40
0.69244685374162
40
0.69244685374162
40
0.713812085201059
40
0.713812085201059
40
0.735177316660498
40
0.735177316660498
40
0.756542548119936
40
0.756542548119936
40
0.777907779579375
40
0.777907779579375
40
0.799273011038814
40
0.799273011038814
40
0.820638242498252
40
0.820638242498252
40
0.842003473957691
40
0.842003473957691
40
0.86336870541713
40
0.86336870541713
40
0.906099168336007
40
0.906099168336007
40
0.927464399795446
40
0.927464399795446
40
0.948829631254884
40
0.948829631254884
40
0.991560094173762
40
0.991560094173762
40
1
40
1
40
1
40
1
41
1
10
22.7447080397401
20
5.03310522199197
30
0
41
1
10
22.865143763657
20
5.03482885186722
30
0
41
1
10
22.9855300592971
20
5.03551069257358
30
0
41
1
10
23.3994832189507
20
5.03375010672599
30
0
41
1
10
23.6928036921335
20
5.02538900124421
30
0
41
1
10
24.2795548945643
20
4.99768928018122
30
0
41
1
10
24.5726513275096
20
4.97834410764918
30
0
41
1
10
25.1590576482016
20
4.92851125634445
30
0
41
1
10
25.4526968944191
20
4.89656501973596
30
0
41
1
10
26.0405188737892
20
4.82068769471474
30
0
41
1
10
26.3348799518158
20
4.7769140328561
30
0
41
1
10
26.9223762297376
20
4.67914521693424
30
0
41
1
10
27.2158356953487
20
4.62501344992813
30
0
41
1
10
27.8023683893812
20
4.50377500663873
30
0
41
1
10
28.0958015531819
20
4.43768354684448
30
0
41
1
10
28.6822311792996
20
4.29526249977323
30
0
41
1
10
28.9752152375627
20
4.21933461560292
30
0
41
1
10
29.5622757109265
20
4.05665480799675
30
0
41
1
10
29.8563556871696
20
3.96949152296409
30
0
41
1
10
30.4445318143073
20
3.78591019200584
30
0
41
1
10
30.7382097077368
20
3.68986815024738
30
0
41
1
10
31.3250115773033
20
3.48987843333498
30
0
41
1
10
31.6181511472955
20
3.38496062807943
30
0
41
1
10
32.2048990897159
20
3.16776655948357
30
0
41
1
10
32.4981122717473
20
3.05518234552915
30
0
41
1
10
33.0845038974262
20
2.82271617836636
30
0
41
1
10
33.3779208452412
20
2.70307447944987
30
0
41
1
10
33.965824544342
20
2.45650164056943
30
0
41
1
10
34.2601051837919
20
2.32957743910669
30
0
41
1
10
34.8474828951751
20
2.07157771180371
30
0
41
1
10
35.1407724731805
20
1.94007683654891
30
0
41
1
10
35.7272941704976
20
1.67268298497683
30
0
41
1
10
36.0204502436346
20
1.53660870689038
30
0
41
1
10
36.6068288285227
20
1.26107028755567
30
0
41
1
10
36.900070457092
20
1.12178650320328
30
0
41
1
10
37.4870783460106
20
0.840146923793185
30
0
41
1
10
37.7811930910502
20
0.697786217253565
30
0
41
1
10
38.3692995018432
20
0.412011842845345
30
0
41
1
10
38.6628916076989
20
0.268513841617477
30
0
41
1
10
39.2496058022552
20
-0.0187940259637287
30
0
41
1
10
39.5427673247311
20
-0.162457705850926
30
0
41
1
10
40.1290251386174
20
-0.449147334993853
30
0
41
1
10
40.4225183749012
20
-0.591367254289395
30
0
41
1
10
41.0090558750317
20
-0.876123050825868
30
0
41
1
10
41.3024449048508
20
-1.01790346749735
30
0
41
1
10
41.8901920780497
20
-1.29868791630423
30
0
41
1
10
42.1844173173459
20
-1.43745403868016
30
0
41
1
10
42.7715073336838
20
-1.71134842035934
30
0
41
1
10
43.0647681916991
20
-1.84665705573846
30
0
41
1
10
43.6511154877113
20
-2.11176748125158
30
0
41
1
10
43.944143621356
20
-2.24180466743627
30
0
41
1
10
44.5308115928931
20
-2.4955982103738
30
0
41
1
10
44.8240079380001
20
-2.62043626109875
30
0
41
1
10
45.4108537713613
20
-2.86417930044394
30
0
41
1
10
45.705011947522
20
-2.98253256501454
30
0
41
1
10
46.2926406756697
20
-3.21125269907873
30
0
41
1
10
46.5861083225947
20
-3.32151600174538
30
0
41
1
10
47.172695461935
20
-3.53502193833376
30
0
41
1
10
47.4656962641026
20
-3.63774256755281
30
0
41
1
10
48.0518343267032
20
-3.8331580675366
30
0
41
1
10
48.3451157562669
20
-3.92583582539601
30
0
41
1
10
48.9317869961338
20
-4.10298522457848
30
0
41
1
10
49.2250207513912
20
-4.18796995513731
30
0
41
1
10
49.8128009277334
20
-4.34573225569514
30
0
41
1
10
50.106665171404
20
-4.4189134187736
30
0
41
1
10
50.6935547880981
20
-4.55436686909215
30
0
41
1
10
50.9867073411792
20
-4.61738771477184
30
0
41
1
10
51.5727019947233
20
-4.73244460574057
30
0
41
1
10
51.8656301079947
20
-4.78366895104551
30
0
41
1
10
52.4519621577396
20
-4.87426948683969
30
0
41
1
10
52.7454298650734
20
-4.91368507376026
30
0
41
1
10
53.3322260220164
20
-4.98270645962069
30
0
41
1
10
53.6262894003502
20
-5.01115093162673
30
0
41
1
10
54.2134051999823
20
-5.0543189261966
30
0
41
1
10
54.5067181604088
20
-5.06949724868531
30
0
41
1
10
55.0927914554264
20
-5.08857613282791
30
0
41
1
10
55.3856716012706
20
-5.09247013472176
30
0
41
1
10
55.9716478493619
20
-5.08681049900832
30
0
41
1
10
56.264623439613
20
-5.07754714574318
30
0
41
1
10
56.8510128744645
20
-5.04810597436841
30
0
41
1
10
57.14432890047
20
-5.02843474901184
30
0
41
1
10
57.7318073169903
20
-4.97537111127843
30
0
41
1
10
58.0252418838282
20
-4.94194537251187
30
0
41
1
10
58.9046636738041
20
-4.82316264345198
30
0
41
1
10
59.4899941391914
20
-4.71994405627706
30
0
41
1
10
60.3686100810539
20
-4.53400587706253
30
0
41
1
10
60.6618190637661
20
-4.46726444663958
30
0
41
1
10
61.2483712718387
20
-4.3228908631063
30
0
41
1
10
61.5420622415445
20
-4.24483648669559
30
0
41
1
10
62.4215871908547
20
-3.99494961564534
30
0
41
1
10
63.0066901453963
20
-3.80803626804945
30
0
41
1
10
63.7074817745475
20
-3.56327738212102
30
0
41
1
10
63.8230760993832
20
-3.52221438520053
30
0
41
1
10
63.9387032467684
20
-3.48051694812114
30
0
0
SPLINE
5
E3
100
AcDbEntity
8
1
62
256
6
ByLayer
370
18
48
1
60
0
100
AcDbSpline
70
4
71
3
72
10
73
6
40
0
40
0
40
0
40
0
40
0.5
40
0.5
40
1
40
1
40
1
40
1
41
1
10
71.7901081922985
20
2.41434914586586
30
0
41
1
10
71.7708197210827
20
2.59182379500021
30
0
41
1
10
71.7691022922016
20
2.76691122714584
30
0
41
1
10
71.7834663309139
20
3.11466791798819
30
0
41
1
10
71.7998858520552
20
3.28729124843787
30
0
41
1
10
71.8217091909252
20
3.45918041154334
30
0
0
SPLINE
5
E4
100
AcDbEntity
8
1
62
256
6
ByLayer
370
18
48
1
60
0
100
AcDbSpline
70
4
71
3
72
18
73
14
40
0
40
0
40
0
40
0
40
0.25
40
0.25
40
0.375
40
0.375
40
0.5
40
0.5
40
0.75
40
0.75
40
0.875
40
0.875
40
1
40
1
40
1
40
1
41
1
10
70.596333052377
20
0.54342872805006
30
0
41
1
10
70.5423138256075
20
0.282222395125956
30
0
41
1
10
70.4984240629345
20
0.0203682298715933
30
0
41
1
10
70.4478077720565
20
-0.373386311471307
30
0
41
1
10
70.4334830346673
20
-0.504800742250751
30
0
41
1
10
70.4100715682034
20
-0.767964601900303
30
0
41
1
10
70.4009599695408
20
-0.900301189610303
30
0
41
1
10
70.3820437095594
20
-1.29345095943984
30
0
41
1
10
70.3805961074005
20
-1.54833363519262
30
0
41
1
10
70.3946403155253
20
-1.92017405628081
30
0
41
1
10
70.4020369546135
20
-2.04236542953592
30
0
41
1
10
70.4223215130997
20
-2.28319799566665
30
0
41
1
10
70.4352584222885
20
-2.40216799546201
30
0
41
1
10
70.4508849734522
20
-2.51835926747159
30
0
0
SPLINE
5
E5
100
AcDbEntity
8
1
62
256
6
ByLayer
370
18
48
1
60
0
100
AcDbSpline
70
4
71
4
72
10
73
5
40
0
40
0
40
0
40
0
40
0
40
1
40
1
40
1
40
1
40
1
41
1
10
15.2186509340331
20
-1.67166732050407
30
0
41
1
10
14.9878549770024
20
-2.09244377992118
30
0
41
1
10
14.7570590199716
20
-2.51322023933827
30
0
41
1
10
14.5262630629409
20
-2.93399669875535
30
0
41
1
10
14.2954671059101
20
-3.35477315817243
30
0
0
SPLINE
5
E6
100
AcDbEntity
8
1
62
256
6
ByLayer
370
18
48
1
60
0
100
AcDbSpline
70
4
71
3
72
20
73
16
40
0
40
0
40
0
40
0
40
0.127365710041814
40
0.127365710041814
40
0.301892568033451
40
0.301892568033451
40
0.476419426025087
40
0.476419426025087
40
0.650946284016724
40
0.650946284016724
40
0.82547314200836
40
0.82547314200836
40
0.91273657100418
40
0.91273657100418
40
1
40
1
40
1
40
1
41
1
10
70.8955543767869
20
0.390435351892364
30
0
41
1
10
70.9322314789065
20
0.422286032431486
30
0
41
1
10
70.9722439861914
20
0.462514331101431
30
0
41
1
10
71.074749497039
20
0.578496455307516
30
0
41
1
10
71.1379211518452
20
0.659446708704536
30
0
41
1
10
71.2697309601411
20
0.8478451393527
30
0
41
1
10
71.3391448953599
20
0.956644630223536
30
0
41
1
10
71.4744233034751
20
1.19235179576333
30
0
41
1
10
71.5411772031906
20
1.32003592929951
30
0
41
1
10
71.6650916992609
20
1.59749068500173
30
0
41
1
10
71.7207969948589
20
1.74260805913715
30
0
41
1
10
71.7789632784442
20
1.97400820001221
30
0
41
1
10
71.7938526421802
20
2.05389456650329
30
0
41
1
10
71.8078336867127
20
2.21356365765104
30
0
41
1
10
71.8070801759751
20
2.2939587370382
30
0
41
1
10
71.7951594461397
20
2.37491615279612
30
0
0
SPLINE
5
E7
100
AcDbEntity
8
1
62
256
6
ByLayer
370
18
48
1
60
0
100
AcDbSpline
70
4
71
3
72
8
73
4
40
0
40
0
40
0
40
0
40
1
40
1
40
1
40
1
41
1
10
72.2489641276889
20
-1.06136854073674
30
0
41
1
10
72.2495278651681
20
-1.06193590414577
30
0
41
1
10
72.2500916139347
20
-1.06250325633982
30
0
41
1
10
72.250655373988
20
-1.06307059731816
30
0
0
SPLINE
5
E8
100
AcDbEntity
8
1
62
256
6
ByLayer
370
18
48
1
60
0
100
AcDbSpline
70
4
71
3
72
13
73
9
40
0
40
0
40
0
40
0
40
0.231408461690751
40
0.405053555163114
40
0.520759393435628
40
0.636864394517354
40
0.810700737673876
40
1
40
1
40
1
40
1
41
1
10
23.2897387727351
20
0.0281806861926839
30
0
41
1
10
23.4391640566079
20
-0.0061001041351574
30
0
41
1
10
23.700625471265
20
-0.0741329650851128
30
0
41
1
10
24.0363607433588
20
-0.179631684426738
30
0
41
1
10
24.2979207245735
20
-0.27186542108214
30
0
41
1
10
24.5590145492085
20
-0.372093414625112
30
0
41
1
10
24.866413471474
20
-0.501328109518482
30
0
41
1
10
25.0987816713946
20
-0.611769871214449
30
0
41
1
10
25.2197218576438
20
-0.67254593556541
30
0
0
SPLINE
5
E9
100
AcDbEntity
8
1
62
256
6
ByLayer
370
18
48
1
60
0
100
AcDbSpline
70
4
71
3
72
11
73
7
40
0
40
0
40
0
40
0
40
0.207010025791335
40
0.446138744187046
40
0.717610741250492
40
1
40
1
40
1
40
1
41
1
10
55.7896654617491
20
0.0281518718549307
30
0
41
1
10
55.9260531170652
20
-0.003159477284953
30
0
41
1
10
56.2197262962484
20
-0.0787809817421419
30
0
41
1
10
56.6911896503436
20
-0.228893180784155
30
0
41
1
10
57.2110090170858
20
-0.429860802169714
30
0
41
1
10
57.5729497719693
20
-0.597809345277085
30
0
41
1
10
57.7572153434883
20
-0.690523680816369
30
0
0
SPLINE
5
EA
100
AcDbEntity
8
1
62
256
6
ByLayer
370
18
48
1
60
0
100
AcDbSpline
70
4
71
3
72
30
73
26
40
0
40
0
40
0
40
0
40
0.0443552933751175
40
0.0878022004250666
40
0.133190175627035
40
0.17087497136312
40
0.200934664022579
40
0.23657867029208
40
0.294343667836611
40
0.345023212735816
40
0.394577100835999
40
0.443039581808441
40
0.494075619781713
40
0.541169361439949
40
0.576914423083472
40
0.613829603153495
40
0.6562085526556
40
0.699654403892495
40
0.732088285258805
40
0.773709793261319
40
0.828577442284565
40
0.883761735192361
40
0.934697528995848
40
0.985423567472138
40
1
40
1
40
1
40
1
41
1
10
41.6115375470472
20
-5.06683721721984
30
0
41
1
10
41.8049505111604
20
-5.06579223268062
30
0
41
1
10
42.1931227272252
20
-5.06473549774418
30
0
41
1
10
42.8201870920411
20
-5.06521974732667
30
0
41
1
10
43.3878589450578
20
-5.07044713025024
30
0
41
1
10
43.9075313858786
20
-5.07089122640855
30
0
41
1
10
44.3863635610648
20
-5.07157879598131
30
0
41
1
10
44.9570339278349
20
-5.07257860368503
30
0
41
1
10
45.6234975273177
20
-5.07425175237174
30
0
41
1
10
46.3541631554026
20
-5.07480356117298
30
0
41
1
10
47.0418444861565
20
-5.07617917980139
30
0
41
1
10
47.7311445063851
20
-5.07795865547374
30
0
41
1
10
48.4090940300318
20
-5.07816385195125
30
0
41
1
10
49.0282242061359
20
-5.07962506065525
30
0
41
1
10
49.5820367809049
20
-5.08128884575939
30
0
41
1
10
50.1140944563468
20
-5.08165578965347
30
0
41
1
10
50.681063897463
20
-5.08137296326006
30
0
41
1
10
51.2283203208144
20
-5.08316980026697
30
0
41
1
10
51.7708116980482
20
-5.08475583833612
30
0
41
1
10
52.3668950562723
20
-5.08496451554942
30
0
41
1
10
53.0683642262149
20
-5.08617476653365
30
0
41
1
10
53.8128711025952
20
-5.08899003554114
30
0
41
1
10
54.5382384760655
20
-5.08854303669688
30
0
41
1
10
55.0758069469477
20
-5.08985253293389
30
0
41
1
10
55.3778057426965
20
-5.09031291409704
30
0
41
1
10
55.445215960578
20
-5.09042085553205
30
0
0
SPLINE
5
EB
100
AcDbEntity
8
1
62
256
6
ByLayer
370
18
48
1
60
0
100
AcDbSpline
70
4
71
3
72
26
73
22
40
0
40
0
40
0
40
0
40
0.0331731481922852
40
0.0852466788167941
40
0.128943912854059
40
0.166479075166186
40
0.216506368925195
40
0.280930555226015
40
0.343806030943929
40
0.401771209971711
40
0.474648611493658
40
0.545013859550505
40
0.606016268008919
40
0.6756205790784
40
0.734217608645441
40
0.78872669269271
40
0.837462370421472
40
0.882433029338237
40
0.917628793736285
40
0.955943544653873
40
1
40
1
40
1
40
1
41
1
10
22.9461589839328
20
5.03485823124879
30
0
41
1
10
22.8121210581226
20
5.03427350492274
30
0
41
1
10
22.4677039740969
20
5.03298217936722
30
0
41
1
10
21.9484033102639
20
5.03176494536169
30
0
41
1
10
21.4086910043149
20
5.03162235123742
30
0
41
1
10
20.8809035653319
20
5.03141847683415
30
0
41
1
10
20.2666052728679
20
5.02855790918508
30
0
41
1
10
19.5501632587546
20
5.02820156083874
30
0
41
1
10
18.8015403971154
20
5.02611413151877
30
0
41
1
10
18.0187857955695
20
5.02489620006523
30
0
41
1
10
17.2057641762268
20
5.02387311029395
30
0
41
1
10
16.3804703584682
20
5.02165243088123
30
0
41
1
10
15.5683973378766
20
5.02096737732003
30
0
41
1
10
14.8038899124349
20
5.01923532515062
30
0
41
1
10
14.0656163960349
20
5.01785269281785
30
0
41
1
10
13.4116364188183
20
5.01701839567184
30
0
41
1
10
12.8128166142238
20
5.01565985195882
30
0
41
1
10
12.2917681963402
20
5.01464313977567
30
0
41
1
10
11.8139100681974
20
5.01371844869593
30
0
41
1
10
11.3376403665233
20
5.01331082181542
30
0
41
1
10
11.0099360044291
20
5.01222364809101
30
0
41
1
10
10.8334011329653
20
5.01167626464198
30
0
0
SPLINE
5
EC
100
AcDbEntity
8
1
62
256
6
ByLayer
370
18
48
1
60
0
100
AcDbSpline
70
4
71
3
72
11
73
7
40
0
40
0
40
0
40
0
40
0.208596088170842
40
0.449121881135423
40
0.721807802903605
40
1
40
1
40
1
40
1
41
1
10
39.7656446662188
20
-0.0274637285408517
30
0
41
1
10
39.6343710428825
20
0.0026991618261434
30
0
41
1
10
39.3523605003001
20
0.0750286643114464
30
0
41
1
10
38.9015518165884
20
0.217239611334492
30
0
41
1
10
38.4094420060435
20
0.404236493380239
30
0
41
1
10
38.0684872037206
20
0.559012439566175
30
0
41
1
10
37.8967139165444
20
0.643332753719562
30
0
0
SPLINE
5
ED
100
AcDbEntity
8
1
62
256
6
ByLayer
370
18
48
1
60
0
100
AcDbSpline
70
4
71
3
72
28
73
24
40
0
40
0
40
0
40
0
40
0.0616761526027009
40
0.11560266155208
40
0.158299780696267
40
0.192015484461961
40
0.222867335271324
40
0.261474570681678
40
0.303740343268716
40
0.337840813196619
40
0.366671254424434
40
0.419489896808534
40
0.476258267665562
40
0.526548503771253
40
0.586012738351804
40
0.646303878483929
40
0.701706255913453
40
0.762190512309008
40
0.821565067235003
40
0.864745231214329
40
0.902411477556586
40
0.954735045752314
40
1
40
1
40
1
40
1
41
1
10
9.18837251181625
20
-5.00862189534925
30
0
41
1
10
9.46963124107836
20
-5.00877409065762
30
0
41
1
10
9.99680425631254
20
-5.00941155482843
30
0
41
1
10
10.7275960568424
20
-5.01124384981253
30
0
41
1
10
11.3161395132596
20
-5.01329283283698
30
0
41
1
10
11.8098192248872
20
-5.01371101802425
30
0
41
1
10
12.2826137753638
20
-5.01462725157174
30
0
41
1
10
12.7957165749324
20
-5.01562237534401
30
0
41
1
10
13.3234851356167
20
-5.01681989592728
30
0
41
1
10
13.8064550835965
20
-5.01755063665794
30
0
41
1
10
14.3378367684466
20
-5.01828222857364
30
0
41
1
10
14.9733145468886
20
-5.0197012324397
30
0
41
1
10
15.7072899995838
20
-5.02108685245346
30
0
41
1
10
16.4717895660691
20
-5.02183044635879
30
0
41
1
10
17.2524603759218
20
-5.02399144165329
30
0
41
1
10
18.0565897070862
20
-5.02491058994485
30
0
41
1
10
18.8654444435873
20
-5.02630940055644
30
0
41
1
10
19.6699378225042
20
-5.02830295816847
30
0
41
1
10
20.4188451666337
20
-5.02902663456422
30
0
41
1
10
21.0613251413039
20
-5.03193132369432
30
0
41
1
10
21.6719945895143
20
-5.03144991508418
30
0
41
1
10
22.2922164258567
20
-5.03235234603002
30
0
41
1
10
22.739871235893
20
-5.03398196439292
30
0
41
1
10
22.9475303260457
20
-5.03495662798164
30
0
0
SPLINE
5
EE
100
AcDbEntity
8
1
62
256
6
ByLayer
370
18
48
1
60
0
100
AcDbSpline
70
4
71
3
72
27
73
23
40
0
40
0
40
0
40
0
40
0.0449555789893454
40
0.103809276349275
40
0.159586779257029
40
0.219452958501846
40
0.273832793202153
40
0.314651017135754
40
0.349134312298037
40
0.395541700038533
40
0.453852149047539
40
0.503019523473564
40
0.560790475611464
40
0.632088879361029
40
0.699810566493341
40
0.760908607038752
40
0.808585373951209
40
0.863086260809967
40
0.910124037436367
40
0.946887905805478
40
0.991306638544456
40
1
40
1
40
1
40
1
41
1
10
55.4450104386126
20
5.09041292715489
30
0
41
1
10
55.2643159122699
20
5.08997969537805
30
0
41
1
10
54.8470631866176
20
5.08914806279407
30
0
41
1
10
54.2056119653743
20
5.08867643631913
30
0
41
1
10
53.5042215756359
20
5.08844165547708
30
0
41
1
10
52.8208488547862
20
5.08515256538911
30
0
41
1
10
52.1975048786866
20
5.08505079882164
30
0
41
1
10
51.6766476572758
20
5.08453688948242
30
0
41
1
10
51.1880509748409
20
5.08299297062604
30
0
41
1
10
50.6283260158639
20
5.08128720162111
30
0
41
1
10
50.0104718413563
20
5.08171007163429
30
0
41
1
10
49.3461329846039
20
5.08089369794061
30
0
41
1
10
48.6297644049139
20
5.07813978568626
30
0
41
1
10
47.838753073839
20
5.07822424416619
30
0
41
1
10
47.0344114082591
20
5.07609728219376
30
0
41
1
10
46.3249911245704
20
5.07484061252663
30
0
41
1
10
45.6687211829784
20
5.07423167451108
30
0
41
1
10
45.0689239718281
20
5.07292711991838
30
0
41
1
10
44.5132201179813
20
5.07175385472038
30
0
41
1
10
43.9974642694771
20
5.07097627548373
30
0
41
1
10
43.6373753564465
20
5.07078820981963
30
0
41
1
10
43.4278170568726
20
5.06977710145409
30
0
41
1
10
43.3935671401498
20
5.06959442047287
30
0
0
SPLINE
5
EF
100
AcDbEntity
8
1
62
256
6
ByLayer
370
18
48
1
60
0
100
AcDbSpline
70
4
71
2
72
6
73
3
40
0
40
0
40
0
40
1
40
1
40
1
41
1
10
70.9044480833394
20
0.405485355565133
30
0
41
1
10
70.621321791998
20
0.515502294262831
30
0
41
1
10
70.3468723791927
20
0.66599712458995
30
0
0
LINE
5
7B
100
AcDbEntity
8
SK1
62
256
6
ByLayer
370
18
48
1
60
0
100
AcDbLine
10
0
20
-6
30
0
11
0
21
6
31
0
39
0
210
0
220
0
230
1
0
LINE
5
7D
100
AcDbEntity
8
SK1
62
256
6
ByLayer
370
18
48
1
60
0
100
AcDbLine
10
-45
20
3
30
0
11
-45
21
-3
31
0
39
0
210
0
220
0
230
1
0
LINE
5
7E
100
AcDbEntity
8
SK1
62
256
6
ByLayer
370
18
48
1
60
0
100
AcDbLine
10
-43.267949
20
6
30
0
11
-43.267949
21
-6
31
0
39
0
210
0
220
0
230
1
0
LINE
5
7F
100
AcDbEntity
8
1
62
256
6
ByLayer
370
13
48
1
60
0
100
AcDbLine
10
1.487979
20
5.124906
30
0
11
1.487979
21
-5.124906
31
0
39
0
210
0
220
0
230
1
0
LINE
5
80
100
AcDbEntity
8
1
62
256
6
ByLayer
370
18
48
1
60
0
100
AcDbLine
10
72.24662
20
-1.076695
30
0
11
72.248964
21
-1.061369
31
0
39
0
210
0
220
0
230
1
0
LINE
5
81
100
AcDbEntity
8
1
62
256
6
ByLayer
370
18
48
1
60
0
100
AcDbLine
10
70.450885
20
-2.518359
30
0
11
72.24662
21
-1.076695
31
0
39
0
210
0
220
0
230
1
0
LINE
5
82
100
AcDbEntity
8
1
62
256
6
ByLayer
370
18
48
1
60
0
100
AcDbLine
10
0
20
-6
30
0
11
0
21
6
31
0
39
0
210
0
220
0
230
1
0
LINE
5
83
100
AcDbEntity
8
1
62
256
6
ByLayer
370
13
48
1
60
0
100
AcDbLine
10
0.743225
20
5.562452
30
0
11
0.743225
21
-5.562452
31
0
39
0
210
0
220
0
230
1
0
LINE
5
84
100
AcDbEntity
8
80
62
256
6
ByLayer
370
18
48
1
60
0
100
AcDbLine
10
0
20
0
30
0
11
-5
21
0
31
0
39
0
210
0
220
0
230
1
0
LINE
5
85
100
AcDbEntity
8
4
62
256
6
ByLayer
370
18
48
0.05
60
0
100
AcDbLine
10
73
20
0
30
0
11
0
21
0
31
0
39
0
210
0
220
0
230
1
0
LINE
5
87
100
AcDbEntity
8
SK4
62
256
6
ByLayer
370
18
48
0.05
60
0
100
AcDbLine
10
78
20
0
30
0
11
-50
21
0
31
0
39
0
210
0
220
0
230
1
0
LINE
5
89
100
AcDbEntity
8
SK1
62
256
6
ByLayer
370
18
48
1
60
0
100
AcDbLine
10
-45
20
-3
30
0
11
-43.267949
21
-6
31
0
39
0
210
0
220
0
230
1
0
LINE
5
8A
100
AcDbEntity
8
SK1
62
256
6
ByLayer
370
18
48
1
60
0
100
AcDbLine
10
-43.267949
20
6
30
0
11
-45
21
3
31
0
39
0
210
0
220
0
230
1
0
LINE
5
8B
100
AcDbEntity
8
SK1
62
256
6
ByLayer
370
18
48
1
60
0
100
AcDbLine
10
-43.267949
20
-6
30
0
11
0
21
-6
31
0
39
0
210
0
220
0
230
1
0
LINE
5
8C
100
AcDbEntity
8
SK1
62
256
6
ByLayer
370
18
48
1
60
0
100
AcDbLine
10
0
20
6
30
0
11
-43.267949
21
6
31
0
39
0
210
0
220
0
230
1
0
LINE
5
8D
100
AcDbEntity
8
1
62
256
6
ByLayer
370
18
48
1
60
0
100
AcDbLine
10
1.487979
20
-5.124906
30
0
11
8.66046
21
-5.137817
31
0
39
0
210
0
220
0
230
1
0
LINE
5
8E
100
AcDbEntity
8
1
62
256
6
ByLayer
370
18
48
1
60
0
100
AcDbLine
10
40.130622
20
-5.194463
30
0
11
41.160739
21
-5.196317
31
0
39
0
210
0
220
0
230
1
0
LINE
5
8F
100
AcDbEntity
8
1
62
256
6
ByLayer
370
18
48
1
60
0
100
AcDbLine
10
41.160739
20
5.196317
30
0
11
40.130622
21
5.194463
31
0
39
0
210
0
220
0
230
1
0
LINE
5
90
100
AcDbEntity
8
1
62
256
6
ByLayer
370
18
48
1
60
0
100
AcDbLine
10
8.66046
20
5.137817
30
0
11
1.487979
21
5.124906
31
0
39
0
210
0
220
0
230
1
0
LINE
5
91
100
AcDbEntity
8
81
62
256
6
ByLayer
370
18
48
1
60
0
100
AcDbLine
10
73
20
0
30
0
11
78
21
0
31
0
39
0
210
0
220
0
230
1
0
LINE
5
92
100
AcDbEntity
8
SK2
62
256
6
ByLayer
370
13
48
1
60
0
100
AcDbLine
10
-53.625163
20
-6
30
0
11
-53.625163
21
36.857173
31
0
39
0
210
0
220
0
230
1
0
LINE
5
94
100
AcDbEntity
8
SK2
62
256
6
ByLayer
370
13
48
1
60
0
100
AcDbLine
10
-46.5875
20
6
30
0
11
-55.625163
21
6
31
0
39
0
210
0
220
0
230
1
0
LINE
5
95
100
AcDbEntity
8
SK2
62
256
6
ByLayer
370
13
48
1
60
0
100
AcDbLine
10
-46.5875
20
-6
30
0
11
-55.625163
21
-6
31
0
39
0
210
0
220
0
230
1
0
LINE
5
96
100
AcDbEntity
8
1
62
256
6
ByLayer
370
18
48
1
60
1
100
AcDbLine
10
-53.625163
20
6
30
0
11
-53.164379
21
2.500002
31
0
39
0
210
0
220
0
230
1
0
LINE
5
97
100
AcDbEntity
8
1
62
256
6
ByLayer
370
18
48
1
60
1
100
AcDbLine
10
-53.164379
20
2.500002
30
0
11
-54.085946
21
2.499998
31
0
39
0
210
0
220
0
230
1
0
LINE
5
98
100
AcDbEntity
8
1
62
256
6
ByLayer
370
18
48
1
60
1
100
AcDbLine
10
-54.085946
20
2.499998
30
0
11
-53.625163
21
6
31
0
39
0
210
0
220
0
230
1
0
LINE
5
99
100
AcDbEntity
8
1
62
256
6
ByLayer
370
18
48
1
60
1
100
AcDbLine
10
-53.625163
20
-6
30
0
11
-54.085946
21
-2.500002
31
0
39
0
210
0
220
0
230
1
0
LINE
5
9A
100
AcDbEntity
8
1
62
256
6
ByLayer
370
18
48
1
60
1
100
AcDbLine
10
-54.085946
20
-2.500002
30
0
11
-53.164379
21
-2.499998
31
0
39
0
210
0
220
0
230
1
0
LINE
5
9B
100
AcDbEntity
8
1
62
256
6
ByLayer
370
18
48
1
60
1
100
AcDbLine
10
-53.164379
20
-2.499998
30
0
11
-53.625163
21
-6
31
0
39
0
210
0
220
0
230
1
0
LINE
5
9C
100
AcDbEntity
8
2
62
256
6
ByLayer
370
13
48
1
60
0
100
AcDbLine
10
85.083343
20
-5.25
30
0
11
85.083343
21
34.700259
31
0
39
0
210
0
220
0
230
1
0
LINE
5
9E
100
AcDbEntity
8
2
62
256
6
ByLayer
370
13
48
1
60
0
100
AcDbLine
10
72.572
20
5.25
30
0
11
87.083343
21
5.25
31
0
39
0
210
0
220
0
230
1
0
LINE
5
9F
100
AcDbEntity
8
2
62
256
6
ByLayer
370
13
48
1
60
0
100
AcDbLine
10
72.572
20
-5.25
30
0
11
87.083343
21
-5.25
31
0
39
0
210
0
220
0
230
1
0
LINE
5
A0
100
AcDbEntity
8
1
62
256
6
ByLayer
370
18
48
1
60
1
100
AcDbLine
10
85.083343
20
5.25
30
0
11
85.544126
21
1.750002
31
0
39
0
210
0
220
0
230
1
0
LINE
5
A1
100
AcDbEntity
8
1
62
256
6
ByLayer
370
18
48
1
60
1
100
AcDbLine
10
85.544126
20
1.750002
30
0
11
84.622559
21
1.749998
31
0
39
0
210
0
220
0
230
1
0
LINE
5
A2
100
AcDbEntity
8
1
62
256
6
ByLayer
370
18
48
1
60
1
100
AcDbLine
10
84.622559
20
1.749998
30
0
11
85.083343
21
5.25
31
0
39
0
210
0
220
0
230
1
0
LINE
5
A3
100
AcDbEntity
8
1
62
256
6
ByLayer
370
18
48
1
60
1
100
AcDbLine
10
85.083343
20
-5.25
30
0
11
84.622559
21
-1.750002
31
0
39
0
210
0
220
0
230
1
0
LINE
5
A4
100
AcDbEntity
8
1
62
256
6
ByLayer
370
18
48
1
60
1
100
AcDbLine
10
84.622559
20
-1.750002
30
0
11
85.544126
21
-1.749998
31
0
39
0
210
0
220
0
230
1
0
LINE
5
A5
100
AcDbEntity
8
1
62
256
6
ByLayer
370
18
48
1
60
1
100
AcDbLine
10
85.544126
20
-1.749998
30
0
11
85.083343
21
-5.25
31
0
39
0
210
0
220
0
230
1
0
LINE
5
F6
100
AcDbEntity
8
1
62
256
6
ByLayer
370
18
48
1
60
1
100
AcDbLine
10
-53.625163
20
6
30
0
11
-53.164379
21
2.500002
31
0
39
0
210
0
220
0
230
1
0
LINE
5
F7
100
AcDbEntity
8
1
62
256
6
ByLayer
370
18
48
1
60
1
100
AcDbLine
10
-53.164379
20
2.500002
30
0
11
-54.085946
21
2.499998
31
0
39
0
210
0
220
0
230
1
0
LINE
5
F8
100
AcDbEntity
8
1
62
256
6
ByLayer
370
18
48
1
60
1
100
AcDbLine
10
-54.085946
20
2.499998
30
0
11
-53.625163
21
6
31
0
39
0
210
0
220
0
230
1
0
LINE
5
FA
100
AcDbEntity
8
1
62
256
6
ByLayer
370
18
48
1
60
1
100
AcDbLine
10
-53.625163
20
-6
30
0
11
-54.085946
21
-2.500002
31
0
39
0
210
0
220
0
230
1
0
LINE
5
FB
100
AcDbEntity
8
1
62
256
6
ByLayer
370
18
48
1
60
1
100
AcDbLine
10
-54.085946
20
-2.500002
30
0
11
-53.164379
21
-2.499998
31
0
39
0
210
0
220
0
230
1
0
LINE
5
FC
100
AcDbEntity
8
1
62
256
6
ByLayer
370
18
48
1
60
1
100
AcDbLine
10
-53.164379
20
-2.499998
30
0
11
-53.625163
21
-6
31
0
39
0
210
0
220
0
230
1
0
LINE
5
100
100
AcDbEntity
8
1
62
256
6
ByLayer
370
18
48
1
60
1
100
AcDbLine
10
85.083343
20
5.25
30
0
11
85.544126
21
1.750002
31
0
39
0
210
0
220
0
230
1
0
LINE
5
101
100
AcDbEntity
8
1
62
256
6
ByLayer
370
18
48
1
60
1
100
AcDbLine
10
85.544126
20
1.750002
30
0
11
84.622559
21
1.749998
31
0
39
0
210
0
220
0
230
1
0
LINE
5
102
100
AcDbEntity
8
1
62
256
6
ByLayer
370
18
48
1
60
1
100
AcDbLine
10
84.622559
20
1.749998
30
0
11
85.083343
21
5.25
31
0
39
0
210
0
220
0
230
1
0
LINE
5
104
100
AcDbEntity
8
1
62
256
6
ByLayer
370
18
48
1
60
1
100
AcDbLine
10
85.083343
20
-5.25
30
0
11
84.622559
21
-1.750002
31
0
39
0
210
0
220
0
230
1
0
LINE
5
105
100
AcDbEntity
8
1
62
256
6
ByLayer
370
18
48
1
60
1
100
AcDbLine
10
84.622559
20
-1.750002
30
0
11
85.544126
21
-1.749998
31
0
39
0
210
0
220
0
230
1
0
LINE
5
106
100
AcDbEntity
8
1
62
256
6
ByLayer
370
18
48
1
60
1
100
AcDbLine
10
85.544126
20
-1.749998
30
0
11
85.083343
21
-5.25
31
0
39
0
210
0
220
0
230
1
0
MTEXT
5
F0
100
AcDbEntity
8
SK6
62
256
6
ByLayer
370
13
48
1
60
0
100
AcDbMText
10
-13.671593
20
37.790328
30
0
210
0
220
0
230
1
1
\W0.7280;860.1-1050-053A1-PM P1BM
40
3.5
41
0
44
1.084337
50
0
71
7
72
5
7
iso_b_vert
0
MTEXT
5
F4
100
AcDbEntity
8
SK2
62
256
6
ByLayer
370
18
48
1
60
0
100
AcDbMText
10
-55.189796
20
19.409024
30
0
210
0
220
0
230
1
1
%%c
40
3.5
41
0
44
1.084337
50
90
71
7
72
5
7
iso_b_vert
0
MTEXT
5
F5
100
AcDbEntity
8
SK2
62
256
6
ByLayer
370
18
48
1
60
0
100
AcDbMText
10
-55.189796
20
24.63168
30
0
210
0
220
0
230
1
1
\W0.6930;12,000
40
3.5
41
0
44
1.084337
50
90
71
7
72
5
7
iso_b_vert
0
MTEXT
5
FE
100
AcDbEntity
8
2
62
256
6
ByLayer
370
18
48
1
60
0
100
AcDbMText
10
83.518709
20
17.25211
30
0
210
0
220
0
230
1
1
%%c
40
3.5
41
0
44
1.084337
50
90
71
7
72
5
7
iso_b_vert
0
MTEXT
5
FF
100
AcDbEntity
8
2
62
256
6
ByLayer
370
18
48
1
60
0
100
AcDbMText
10
83.518709
20
22.474766
30
0
210
0
220
0
230
1
1
\W0.6930;10,500
40
3.5
41
0
44
1.084337
50
90
71
7
72
5
7
iso_b_vert
0
HATCH
5
F9
100
AcDbEntity
8
SK2
62
256
6
ByLayer
370
13
48
1
60
0
100
AcDbHatch
10
0
20
0
30
0
210
0
220
0
230
1
2
ANSI31
70
0
71
0
91
1
92
5
93
3
72
1
10
-53.6251625675374
20
6
11
-53.1643788259847
21
2.50000169255318
72
1
10
-53.1643788259847
20
2.50000169255318
11
-54.0859463090902
21
2.49999830744682
72
1
10
-54.0859463090902
20
2.49999830744682
11
-53.6251625675374
21
6
97
0
75
0
76
1
52
0
41
0.0062
77
0
78
1
53
45
43
0
44
0
45
-0.0139193969876572
46
0.0139193969876572
79
0
47
0
98
1
10
0
20
0
0
HATCH
5
FD
100
AcDbEntity
8
SK2
62
256
6
ByLayer
370
13
48
1
60
0
100
AcDbHatch
10
0
20
0
30
0
210
0
220
0
230
1
2
ANSI31
70
0
71
0
91
1
92
5
93
3
72
1
10
-53.6251625675374
20
-6
11
-54.0859463090902
21
-2.50000169255318
72
1
10
-54.0859463090902
20
-2.50000169255318
11
-53.1643788259847
21
-2.49999830744682
72
1
10
-53.1643788259847
20
-2.49999830744682
11
-53.6251625675374
21
-6
97
0
75
0
76
1
52
0
41
0.0062
77
0
78
1
53
45
43
0
44
0
45
-0.0139193969876572
46
0.0139193969876572
79
0
47
0
98
1
10
0
20
0
0
HATCH
5
103
100
AcDbEntity
8
2
62
256
6
ByLayer
370
13
48
1
60
0
100
AcDbHatch
10
0
20
0
30
0
210
0
220
0
230
1
2
ANSI31
70
0
71
0
91
1
92
5
93
3
72
1
10
85.083342615295
20
5.25
11
85.5441263568478
21
1.75000169255318
72
1
10
85.5441263568478
20
1.75000169255318
11
84.6225588737423
21
1.74999830744682
72
1
10
84.6225588737423
20
1.74999830744682
11
85.083342615295
21
5.25
97
0
75
0
76
1
52
0
41
0.0062
77
0
78
1
53
45
43
0
44
0
45
-0.0139193969876572
46
0.0139193969876572
79
0
47
0
98
1
10
0
20
0
0
HATCH
5
107
100
AcDbEntity
8
2
62
256
6
ByLayer
370
13
48
1
60
0
100
AcDbHatch
10
0
20
0
30
0
210
0
220
0
230
1
2
ANSI31
70
0
71
0
91
1
92
5
93
3
72
1
10
85.083342615295
20
-5.25
11
84.6225588737423
21
-1.75000169255318
72
1
10
84.6225588737423
20
-1.75000169255318
11
85.5441263568478
21
-1.74999830744682
72
1
10
85.5441263568478
20
-1.74999830744682
11
85.083342615295
21
-5.25
97
0
75
0
76
1
52
0
41
0.0062
77
0
78
1
53
45
43
0
44
0
45
-0.0139193969876572
46
0.0139193969876572
79
0
47
0
98
1
10
0
20
0
0
DIMENSION
5
109
100
AcDbEntity
8
2
62
256
6
ByLayer
370
13
48
1
60
0
100
AcDbDimension
2
_U0
10
70.9845
20
-15.463398
30
0
11
35.49225
21
-15.463398
31
0
70
32
71
1
72
1
41
1
210
0
220
0
230
1
3
Standard
100
AcDbAlignedDimension
13
0
23
0
33
0
14
70.9845
24
-5.25
34
0
50
0
100
AcDbRotatedDimension
1001
ACAD
1000
DSTYLE
1002
{
1070
   371
1070
    13
1070
   372
1070
    13
1070
   170
1070
     0
1070
   144
1040
1.0
1070
   277
1070
     2
1070
   278
1070
    44
1070
   146
1040
1.0
1070
   345
1005
16
1070
   347
1005
16
1070
   346
1005
16
1070
   344
1005
0
1070
   343
1005
0
1070
   172
1070
     1
1070
    76
1070
     0
1070
    75
1070
     0
1070
   282
1070
     0
1070
   281
1070
     0
1070
    71
1070
     0
1070
    74
1070
     0
1070
   279
1070
     0
1070
   173
1070
     1
1070
   340
1005
F1
1070
   271
1070
     2
1070
   272
1070
     2
1070
    77
1070
     1
1070
    73
1070
     1
1070
   171
1070
     3
1070
   274
1070
     4
1070
   177
1070
    35
1070
   176
1070
    35
1070
   178
1070
    35
1070
    48
1040
-0.1
1070
    41
1040
3.5
1070
   147
1040
1.75
1070
    42
1040
1.5875
1070
    44
1040
2.0
1070
   140
1040
3.5
1002
}
1001
ACAD_DSTYLE_DIM_LINETYPE
1070
   380
1005
16
1001
ACAD_DSTYLE_DIM_EXT1_LINETYPE
1070
   381
1005
16
1001
ACAD_DSTYLE_DIM_EXT2_LINETYPE
1070
   382
1005
16
0
DIMENSION
5
122
100
AcDbEntity
8
SK2
62
256
6
ByLayer
370
13
48
1
60
0
100
AcDbDimension
2
_U1
10
73
20
-34.692985
30
0
11
14
21
-34.692985
31
0
70
32
71
1
72
1
41
1
210
0
220
0
230
1
3
Standard
100
AcDbAlignedDimension
13
-45
23
-6
33
0
14
73
24
0
34
0
50
0
100
AcDbRotatedDimension
1001
ACAD
1000
DSTYLE
1002
{
1070
   371
1070
    13
1070
   372
1070
    13
1070
   170
1070
     0
1070
   144
1040
1.0
1070
   277
1070
     2
1070
   278
1070
    44
1070
   146
1040
1.0
1070
   345
1005
16
1070
   347
1005
16
1070
   346
1005
16
1070
   344
1005
0
1070
   343
1005
0
1070
   172
1070
     1
1070
    76
1070
     0
1070
    75
1070
     0
1070
   282
1070
     0
1070
   281
1070
     0
1070
    71
1070
     0
1070
    74
1070
     0
1070
   279
1070
     0
1070
   173
1070
     1
1070
   340
1005
F1
1070
   271
1070
     2
1070
   272
1070
     2
1070
    77
1070
     1
1070
    73
1070
     1
1070
   171
1070
     3
1070
   274
1070
     4
1070
   177
1070
    35
1070
   176
1070
    35
1070
   178
1070
    35
1070
    48
1040
-0.1
1070
    41
1040
3.5
1070
   147
1040
1.75
1070
    42
1040
1.5875
1070
    44
1040
2.0
1070
   140
1040
3.5
1002
}
1001
ACAD_DSTYLE_DIM_LINETYPE
1070
   380
1005
16
1001
ACAD_DSTYLE_DIM_EXT1_LINETYPE
1070
   381
1005
16
1001
ACAD_DSTYLE_DIM_EXT2_LINETYPE
1070
   382
1005
16
0
DIMENSION
5
13A
100
AcDbEntity
8
SK2
62
256
6
ByLayer
370
13
48
1
60
0
100
AcDbDimension
2
_U2
10
73
20
16.859119
30
0
11
45.74
21
16.859119
31
0
70
32
71
1
72
1
41
1
210
0
220
0
230
1
3
Standard
100
AcDbAlignedDimension
13
18.48
23
5.25
33
0
14
73
24
0
34
0
50
0
100
AcDbRotatedDimension
1001
ACAD
1000
DSTYLE
1002
{
1070
   371
1070
    13
1070
   372
1070
    13
1070
   170
1070
     0
1070
   144
1040
1.0
1070
   277
1070
     2
1070
   278
1070
    44
1070
   146
1040
1.0
1070
   345
1005
16
1070
   347
1005
16
1070
   346
1005
16
1070
   344
1005
0
1070
   343
1005
0
1070
   172
1070
     1
1070
    76
1070
     0
1070
    75
1070
     0
1070
   282
1070
     0
1070
   281
1070
     0
1070
    71
1070
     0
1070
    74
1070
     0
1070
   279
1070
     0
1070
   173
1070
     1
1070
   340
1005
F1
1070
   271
1070
     2
1070
   272
1070
     2
1070
    77
1070
     1
1070
    73
1070
     1
1070
   171
1070
     3
1070
   274
1070
     4
1070
   177
1070
    35
1070
   176
1070
    35
1070
   178
1070
    35
1070
    48
1040
-0.1
1070
    41
1040
3.5
1070
   147
1040
1.75
1070
    42
1040
1.5875
1070
    44
1040
2.0
1070
   140
1040
3.5
1002
}
1001
ACAD_DSTYLE_DIM_LINETYPE
1070
   380
1005
16
1001
ACAD_DSTYLE_DIM_EXT1_LINETYPE
1070
   381
1005
16
1001
ACAD_DSTYLE_DIM_EXT2_LINETYPE
1070
   382
1005
16
0
DIMENSION
5
152
100
AcDbEntity
8
SK2
62
256
6
ByLayer
370
13
48
1
60
0
100
AcDbDimension
2
_U3
10
70.9845
20
-18.052503
30
0
11
90.583333
21
-18.052503
31
0
70
32
71
1
72
1
41
1
210
0
220
0
230
1
3
Standard
100
AcDbAlignedDimension
13
73
23
0
33
0
14
70.9845
24
-5.25
34
0
50
0
100
AcDbRotatedDimension
1001
ACAD
1000
DSTYLE
1002
{
1070
   371
1070
    13
1070
   372
1070
    13
1070
   170
1070
     0
1070
   144
1040
1.0
1070
   277
1070
     2
1070
   278
1070
    44
1070
   146
1040
1.0
1070
   345
1005
16
1070
   347
1005
16
1070
   346
1005
16
1070
   344
1005
0
1070
   343
1005
0
1070
   172
1070
     1
1070
    76
1070
     0
1070
    75
1070
     0
1070
   282
1070
     0
1070
   281
1070
     0
1070
    71
1070
     0
1070
    74
1070
     0
1070
   279
1070
     0
1070
   173
1070
     1
1070
   340
1005
F1
1070
   271
1070
     2
1070
   272
1070
     2
1070
    77
1070
     1
1070
    73
1070
     1
1070
   171
1070
     3
1070
   274
1070
     4
1070
   177
1070
    35
1070
   176
1070
    35
1070
   178
1070
    35
1070
    48
1040
-0.1
1070
    41
1040
3.5
1070
   147
1040
1.75
1070
    42
1040
1.5875
1070
    44
1040
2.0
1070
   140
1040
3.5
1002
}
1001
ACAD_DSTYLE_DIM_LINETYPE
1070
   380
1005
16
1001
ACAD_DSTYLE_DIM_EXT1_LINETYPE
1070
   381
1005
16
1001
ACAD_DSTYLE_DIM_EXT2_LINETYPE
1070
   382
1005
16
0
DIMENSION
5
16C
100
AcDbEntity
8
SK2
62
256
6
ByLayer
370
13
48
1
60
0
100
AcDbDimension
2
_U4
10
70.9845
20
-24.343428
30
0
11
12.99225
21
-24.343428
31
0
70
32
71
1
72
1
41
1
210
0
220
0
230
1
3
Standard
100
AcDbAlignedDimension
13
-45
23
-6
33
0
14
70.9845
24
-5.25
34
0
50
0
100
AcDbRotatedDimension
1001
ACAD
1000
DSTYLE
1002
{
1070
   371
1070
    13
1070
   372
1070
    13
1070
   170
1070
     0
1070
   144
1040
1.0
1070
   277
1070
     2
1070
   278
1070
    44
1070
   146
1040
1.0
1070
   345
1005
16
1070
   347
1005
16
1070
   346
1005
16
1070
   344
1005
0
1070
   343
1005
0
1070
   172
1070
     1
1070
    76
1070
     0
1070
    75
1070
     0
1070
   282
1070
     0
1070
   281
1070
     0
1070
    71
1070
     0
1070
    74
1070
     0
1070
   279
1070
     0
1070
   173
1070
     1
1070
   340
1005
F1
1070
   271
1070
     2
1070
   272
1070
     2
1070
    77
1070
     1
1070
    73
1070
     1
1070
   171
1070
     3
1070
   274
1070
     4
1070
   177
1070
    35
1070
   176
1070
    35
1070
   178
1070
    35
1070
    48
1040
-0.1
1070
    41
1040
3.5
1070
   147
1040
1.75
1070
    42
1040
1.5875
1070
    44
1040
2.0
1070
   140
1040
3.5
1002
}
1001
ACAD_DSTYLE_DIM_LINETYPE
1070
   380
1005
16
1001
ACAD_DSTYLE_DIM_EXT1_LINETYPE
1070
   381
1005
16
1001
ACAD_DSTYLE_DIM_EXT2_LINETYPE
1070
   382
1005
16
0
ENDSEC
0
SECTION
2
OBJECTS
0
DICTIONARY
5
1f4
330
0
100
AcDbDictionary
280
0
281
1
3
ACAD_GROUP
350
1f5
3
ACAD_MLINESTYLE
350
1f6
0
DICTIONARY
5
1f5
330
0
100
AcDbDictionary
280
0
281
1
0
DICTIONARY
5
1f6
330
0
100
AcDbDictionary
280
0
281
1
3
Standard
350
18
0
MLINESTYLE
5
18
330
1f6
100
AcDbMlineStyle
2
Standard
70
0
3

62
256
51
90
52
90
71
2
49
-0.5
62
256
6
ByLayer
49
0.5
62
256
6
ByLayer
0
RASTERVARIABLES
5
1e2
330

100
AcDbRasterVariables
90
0
70
1
71
1
72
1
0
ENDSEC
0
EOF
