0
SECTION
2
HEADER
9
$ACADVER
1
AC1015
9
$DWGCODEPAGE
3
ANSI_1252
9
$HANDSEED
5
1fe
9
$ANGBASE
50
0
9
$ANGDIR
70
0
9
$ATTMODE
70
1
9
$AUNITS
70
0
9
$AUPREC
70
0
9
$CECOLOR
62
256
9
$CELTSCALE
40
1
9
$CELTYPE
6
ByLayer
9
$CELWEIGHT
370
18
9
$CLAYER
8
0
9
$CMLJUST
70
0
9
$CMLSCALE
40
1
9
$CMLSTYLE
2
Standard
9
$DIMSTYLE
2
Standard
9
$TEXTSIZE
40
0.2
9
$TEXTSTYLE
7
Standard
9
$LUNITS
70
2
9
$LUPREC
70
4
9
$EXTNAMES
290
1
9
$INSUNITS
70
4
9
$LTSCALE
40
1
9
$LWDISPLAY
290
1
9
$PDMODE
70
0
9
$PDSIZE
40
0
9
$PLINEGEN
70
0
0
ENDSEC
0
SECTION
2
CLASSES
0
CLASS
1
RASTERVARIABLES
2
AcDbRasterVariables
3
ISM
90
0
280
0
281
0
0
ENDSEC
0
SECTION
2
TABLES
0
TABLE
2
VPORT
5
1f4
100
AcDbSymbolTable
0
VPORT
5
1
100
AcDbSymbolTableRecord
100
AcDbViewportTableRecord
2
*Active
70
0
10
0
20
0
11
1
21
1
12
-1
22
1
13
0
23
0
14
0.5
24
0.5
15
10
25
10
16
0
26
0
36
1
17
0
27
0
37
0
0
ENDTAB
0
TABLE
2
LTYPE
5
1f5
100
AcDbSymbolTable
0
LTYPE
5
14
100
AcDbSymbolTableRecord
100
AcDbLinetypeTableRecord
70
0
2
ByBlock
3

72
65
73
0
40
0
0
LTYPE
5
15
100
AcDbSymbolTableRecord
100
AcDbLinetypeTableRecord
70
0
2
ByLayer
3

72
65
73
0
40
0
0
LTYPE
5
16
100
AcDbSymbolTableRecord
100
AcDbLinetypeTableRecord
70
0
2
Continuous
3
Solid line
72
65
73
0
40
0
0
LTYPE
5
6E
100
AcDbSymbolTableRecord
100
AcDbLinetypeTableRecord
70
0
2
CENTER
3
____ _ ____ _ ____ _ ____
72
65
73
4
40
47.5
49
22
74
0
49
-8.5
74
0
49
8.5
74
0
49
-8.5
74
0
0
LTYPE
5
6F
100
AcDbSymbolTableRecord
100
AcDbLinetypeTableRecord
70
0
2
DASHED
3
__ __ __ __ __ __ __ __ __
72
65
73
2
40
25.72
49
12.86
74
0
49
-12.86
74
0
0
ENDTAB
0
TABLE
2
LAYER
5
1f6
100
AcDbSymbolTable
0
LAYER
5
10
100
AcDbSymbolTableRecord
100
AcDbLayerTableRecord
2
0
70
0
62
7
6
Continuous
290
1
370
-3
390
0
0
LAYER
5
71
100
AcDbSymbolTableRecord
100
AcDbLayerTableRecord
2
80
70
0
62
-6
6
Continuous
290
1
370
-3
390
0
0
LAYER
5
73
100
AcDbSymbolTableRecord
100
AcDbLayerTableRecord
2
81
70
0
62
-3
6
Continuous
290
1
370
-3
390
0
0
LAYER
5
75
100
AcDbSymbolTableRecord
100
AcDbLayerTableRecord
2
1
70
0
62
4
6
Continuous
290
1
370
-3
390
0
0
LAYER
5
86
100
AcDbSymbolTableRecord
100
AcDbLayerTableRecord
2
4
70
0
62
-2
6
CENTER
290
1
370
-3
390
0
0
LAYER
5
9D
100
AcDbSymbolTableRecord
100
AcDbLayerTableRecord
2
2
70
0
62
7
6
Continuous
290
1
370
-3
390
0
0
LAYER
5
109
100
AcDbSymbolTableRecord
100
AcDbLayerTableRecord
2
Defpoints
70
0
62
7
6
Continuous
290
0
370
-3
390
0
0
LAYER
5
1e0
100
AcDbSymbolTableRecord
100
AcDbLayerTableRecord
2
SK1
70
0
62
4
6
Continuous
290
1
370
-3
390
0
0
LAYER
5
1e1
100
AcDbSymbolTableRecord
100
AcDbLayerTableRecord
2
SK4
70
0
62
2
6
CENTER
290
1
370
-3
390
0
0
LAYER
5
1e2
100
AcDbSymbolTableRecord
100
AcDbLayerTableRecord
2
SK2
70
0
62
7
6
Continuous
290
1
370
-3
390
0
0
LAYER
5
1e3
100
AcDbSymbolTableRecord
100
AcDbLayerTableRecord
2
SK6
70
0
62
5
6
Continuous
290
1
370
-3
390
0
0
ENDTAB
0
TABLE
2
STYLE
5
1f7
100
AcDbSymbolTable
0
STYLE
5
11
100
AcDbSymbolTableRecord
100
AcDbTextStyleTableRecord
2
Standard
3
txt
70
0
71
0
40
0
41
1
42
0
50
0
0
STYLE
5
EE
100
AcDbSymbolTableRecord
100
AcDbTextStyleTableRecord
2
iso_b_vert
3
simplex.shx
70
0
71
0
40
0
41
1
42
0
50
0
0
STYLE
5
EF
100
AcDbSymbolTableRecord
100
AcDbTextStyleTableRecord
2
DWGDirectTextStyle
3
simplex
70
0
71
0
40
0
41
1
42
0
50
0
0
ENDTAB
0
TABLE
2
DIMSTYLE
5
1f8
100
AcDbSymbolTable
100
AcDbDimStyleTable
0
DIMSTYLE
105
27
100
AcDbSymbolTableRecord
100
AcDbDimStyleTableRecord
2
Standard
70
0
3
<>
41
0.18
42
0.0625
44
0.18
140
0.18
147
0.09
73
0
74
0
77
1
271
2
275
0
278
52
280
0
340
11
0
ENDTAB
0
TABLE
2
VIEW
5
1f9
100
AcDbSymbolTable
0
ENDTAB
0
TABLE
2
UCS
5
1fa
100
AcDbSymbolTable
0
ENDTAB
0
TABLE
2
APPID
5
1fb
100
AcDbSymbolTable
0
APPID
5
12
100
AcDbSymbolTableRecord
100
AcDbRegAppTableRecord
2
ACAD
70
0
0
APPID
5
105
100
AcDbSymbolTableRecord
100
AcDbRegAppTableRecord
2
ACAD_DSTYLE_DIMBREAK
70
0
0
APPID
5
19F
100
AcDbSymbolTableRecord
100
AcDbRegAppTableRecord
2
ACAD_DSTYLE_DIM_LINETYPE
70
0
0
APPID
5
1A0
100
AcDbSymbolTableRecord
100
AcDbRegAppTableRecord
2
ACAD_DSTYLE_DIM_EXT1_LINETYPE
70
0
0
APPID
5
1A1
100
AcDbSymbolTableRecord
100
AcDbRegAppTableRecord
2
ACAD_DSTYLE_DIM_EXT2_LINETYPE
70
0
0
APPID
5
1DC
100
AcDbSymbolTableRecord
100
AcDbRegAppTableRecord
2
ACAD_MLEADERVER
70
0
0
ENDTAB
0
TABLE
2
BLOCK_RECORD
5
1fc
100
AcDbSymbolTable
0
BLOCK_RECORD
5
1F
100
AcDbSymbolTableRecord
100
AcDbBlockTableRecord
2
*Model_Space
340
0
70
0
0
BLOCK_RECORD
5
1B
100
AcDbSymbolTableRecord
100
AcDbBlockTableRecord
2
*Paper_Space
340
0
70
0
0
BLOCK_RECORD
5
23
100
AcDbSymbolTableRecord
100
AcDbBlockTableRecord
2
*Paper_Space0
340
0
70
0
0
BLOCK_RECORD
5
10A
100
AcDbSymbolTableRecord
100
AcDbBlockTableRecord
2
*D1
340
0
70
0
0
BLOCK_RECORD
5
116
100
AcDbSymbolTableRecord
100
AcDbBlockTableRecord
2
_U0
340
0
70
0
0
BLOCK_RECORD
5
122
100
AcDbSymbolTableRecord
100
AcDbBlockTableRecord
2
*D3
340
0
70
0
0
BLOCK_RECORD
5
12E
100
AcDbSymbolTableRecord
100
AcDbBlockTableRecord
2
_U1
340
0
70
0
0
BLOCK_RECORD
5
13A
100
AcDbSymbolTableRecord
100
AcDbBlockTableRecord
2
*D5
340
0
70
0
0
BLOCK_RECORD
5
146
100
AcDbSymbolTableRecord
100
AcDbBlockTableRecord
2
_U2
340
0
70
0
0
BLOCK_RECORD
5
152
100
AcDbSymbolTableRecord
100
AcDbBlockTableRecord
2
*D7
340
0
70
0
0
BLOCK_RECORD
5
160
100
AcDbSymbolTableRecord
100
AcDbBlockTableRecord
2
_U3
340
0
70
0
0
BLOCK_RECORD
5
16C
100
AcDbSymbolTableRecord
100
AcDbBlockTableRecord
2
*D9
340
0
70
0
0
BLOCK_RECORD
5
178
100
AcDbSymbolTableRecord
100
AcDbBlockTableRecord
2
_U4
340
0
70
0
0
ENDTAB
0
ENDSEC
0
SECTION
2
BLOCKS
0
BLOCK
5
20
100
AcDbEntity
8
0
100
AcDbBlockBegin
2
*Model_Space
70
0
10
0
20
0
30
0
3
*Model_Space
0
ENDBLK
5
21
100
AcDbEntity
8
0
100
AcDbBlockEnd
0
BLOCK
5
1C
100
AcDbEntity
8
0
100
AcDbBlockBegin
2
*Paper_Space
70
0
10
0
20
0
30
0
3
*Paper_Space
0
ENDBLK
5
1D
100
AcDbEntity
8
0
100
AcDbBlockEnd
0
BLOCK
5
24
100
AcDbEntity
8
0
100
AcDbBlockBegin
2
*Paper_Space0
70
0
10
0
20
0
30
0
3
*Paper_Space0
0
ENDBLK
5
25
100
AcDbEntity
8
0
100
AcDbBlockEnd
0
BLOCK
5
10B
100
AcDbEntity
8
0
100
AcDbBlockBegin
2
*D1
70
1
10
0
20
0
30
0
3
*D1
0
LINE
5
10D
100
AcDbEntity
8
0
62
256
6
ByLayer
370
-2
48
1
60
0
100
AcDbLine
10
0
20
-1.5875
30
0
11
0
21
-17.363398
31
0
39
0
210
0
220
0
230
1
0
LINE
5
10E
100
AcDbEntity
8
0
62
256
6
ByLayer
370
-2
48
1
60
0
100
AcDbLine
10
71.0232
20
-6.7375
30
0
11
71.0232
21
-17.363398
31
0
39
0
210
0
220
0
230
1
0
LINE
5
10F
100
AcDbEntity
8
0
62
256
6
ByLayer
370
-2
48
1
60
0
100
AcDbLine
10
3.5
20
-15.363398
30
0
11
67.5232
21
-15.363398
31
0
39
0
210
0
220
0
230
1
0
SOLID
5
110
100
AcDbEntity
8
0
62
256
6
ByLayer
370
-1
48
1
60
0
100
AcDbTrace
10
3.5
20
-14.780065
30
0
11
3.5
21
-15.946732
31
0
12
0
22
-15.363398
32
0
13
0
23
-15.363398
33
0
39
0
210
0
220
0
230
1
0
SOLID
5
111
100
AcDbEntity
8
0
62
256
6
ByLayer
370
-1
48
1
60
0
100
AcDbTrace
10
67.5232
20
-15.946732
30
0
11
67.5232
21
-14.780065
31
0
12
71.0232
22
-15.363398
32
0
13
71.0232
23
-15.363398
33
0
39
0
210
0
220
0
230
1
0
MTEXT
5
112
100
AcDbEntity
8
0
62
256
6
ByLayer
370
18
48
1
60
0
100
AcDbMText
10
35.5116
20
-8.363398
30
0
210
0
220
0
230
1
1
\A1;71.02
40
3.5
41
0
44
1
50
0
71
5
72
5
7
iso_b_vert
0
POINT
5
113
100
AcDbEntity
8
Defpoints
62
0
6
ByLayer
370
-1
48
1
60
0
100
AcDbPoint
10
0
20
0
30
0
39
0
210
0
220
0
230
1
50
360
0
POINT
5
114
100
AcDbEntity
8
Defpoints
62
0
6
ByLayer
370
-1
48
1
60
0
100
AcDbPoint
10
71.0232
20
-5.15
30
0
39
0
210
0
220
0
230
1
50
360
0
POINT
5
115
100
AcDbEntity
8
Defpoints
62
0
6
ByLayer
370
-1
48
1
60
0
100
AcDbPoint
10
71.0232
20
-15.363398
30
0
39
0
210
0
220
0
230
1
50
360
0
ENDBLK
5
10C
100
AcDbEntity
8
0
100
AcDbBlockEnd
0
BLOCK
5
11D
100
AcDbEntity
8
0
100
AcDbBlockBegin
2
_U0
70
0
10
0
20
0
30
0
3
_U0
0
MTEXT
5
117
100
AcDbEntity
8
2
62
256
6
ByLayer
370
13
48
1
60
0
100
AcDbMText
10
30.811735
20
-14.330765
30
0
210
0
220
0
230
1
1
\W0.6713;71,02
40
3.5
41
0
44
1.084337
50
0
71
7
72
5
7
iso_b_vert
0
LINE
5
118
100
AcDbEntity
8
2
62
256
6
ByLayer
370
13
48
1
60
0
100
AcDbLine
10
0
20
-1.5875
30
0
11
0
21
-17.363398
31
0
39
0
210
0
220
0
230
1
0
LINE
5
119
100
AcDbEntity
8
2
62
256
6
ByLayer
370
13
48
1
60
0
100
AcDbLine
10
71.0232
20
-6.7375
30
0
11
71.0232
21
-17.363398
31
0
39
0
210
0
220
0
230
1
0
LINE
5
11A
100
AcDbEntity
8
2
62
256
6
ByLayer
370
13
48
1
60
0
100
AcDbLine
10
0
20
-15.363398
30
0
11
71.0232
21
-15.363398
31
0
39
0
210
0
220
0
230
1
0
SOLID
5
11B
100
AcDbEntity
8
2
62
256
6
ByLayer
370
18
48
1
60
0
100
AcDbTrace
10
0
20
-15.363398
30
0
11
3.499998
21
-14.902615
31
0
12
3.500002
22
-15.824182
32
0
13
3.500002
23
-15.824182
33
0
39
0
210
0
220
0
230
1
0
SOLID
5
11C
100
AcDbEntity
8
2
62
256
6
ByLayer
370
18
48
1
60
0
100
AcDbTrace
10
71.0232
20
-15.363398
30
0
11
67.523202
21
-15.824182
31
0
12
67.523198
22
-14.902615
32
0
13
67.523198
23
-14.902615
33
0
39
0
210
0
220
0
230
1
0
ENDBLK
5
11E
100
AcDbEntity
8
0
100
AcDbBlockEnd
0
BLOCK
5
123
100
AcDbEntity
8
0
100
AcDbBlockBegin
2
*D3
70
1
10
0
20
0
30
0
3
*D3
0
LINE
5
125
100
AcDbEntity
8
0
62
256
6
ByLayer
370
-2
48
1
60
0
100
AcDbLine
10
-45
20
-7.5875
30
0
11
-45
21
-36.692985
31
0
39
0
210
0
220
0
230
1
0
LINE
5
126
100
AcDbEntity
8
0
62
256
6
ByLayer
370
-2
48
1
60
0
100
AcDbLine
10
73
20
-1.5875
30
0
11
73
21
-36.692985
31
0
39
0
210
0
220
0
230
1
0
LINE
5
127
100
AcDbEntity
8
0
62
256
6
ByLayer
370
-2
48
1
60
0
100
AcDbLine
10
-41.5
20
-34.692985
30
0
11
69.5
21
-34.692985
31
0
39
0
210
0
220
0
230
1
0
SOLID
5
128
100
AcDbEntity
8
0
62
256
6
ByLayer
370
-1
48
1
60
0
100
AcDbTrace
10
-41.5
20
-34.109652
30
0
11
-41.5
21
-35.276319
31
0
12
-45
22
-34.692985
32
0
13
-45
23
-34.692985
33
0
39
0
210
0
220
0
230
1
0
SOLID
5
129
100
AcDbEntity
8
0
62
256
6
ByLayer
370
-1
48
1
60
0
100
AcDbTrace
10
69.5
20
-35.276319
30
0
11
69.5
21
-34.109652
31
0
12
73
22
-34.692985
32
0
13
73
23
-34.692985
33
0
39
0
210
0
220
0
230
1
0
MTEXT
5
12A
100
AcDbEntity
8
0
62
256
6
ByLayer
370
18
48
1
60
0
100
AcDbMText
10
14
20
-27.692985
30
0
210
0
220
0
230
1
1
\A1;118.00
40
3.5
41
0
44
1
50
0
71
5
72
5
7
iso_b_vert
0
POINT
5
12B
100
AcDbEntity
8
Defpoints
62
0
6
ByLayer
370
-1
48
1
60
0
100
AcDbPoint
10
-45
20
-6
30
0
39
0
210
0
220
0
230
1
50
360
0
POINT
5
12C
100
AcDbEntity
8
Defpoints
62
0
6
ByLayer
370
-1
48
1
60
0
100
AcDbPoint
10
73
20
0
30
0
39
0
210
0
220
0
230
1
50
360
0
POINT
5
12D
100
AcDbEntity
8
Defpoints
62
0
6
ByLayer
370
-1
48
1
60
0
100
AcDbPoint
10
73
20
-34.692985
30
0
39
0
210
0
220
0
230
1
50
360
0
ENDBLK
5
124
100
AcDbEntity
8
0
100
AcDbBlockEnd
0
BLOCK
5
135
100
AcDbEntity
8
0
100
AcDbBlockBegin
2
_U1
70
0
10
0
20
0
30
0
3
_U1
0
MTEXT
5
12F
100
AcDbEntity
8
SK2
62
256
6
ByLayer
370
13
48
1
60
0
100
AcDbMText
10
8.429835
20
-33.660352
30
0
210
0
220
0
230
1
1
\W0.6440;118,00
40
3.5
41
0
44
1.084337
50
0
71
7
72
5
7
iso_b_vert
0
LINE
5
130
100
AcDbEntity
8
SK2
62
256
6
ByLayer
370
13
48
1
60
0
100
AcDbLine
10
-45
20
-7.5875
30
0
11
-45
21
-36.692985
31
0
39
0
210
0
220
0
230
1
0
LINE
5
131
100
AcDbEntity
8
SK2
62
256
6
ByLayer
370
13
48
1
60
0
100
AcDbLine
10
73
20
-1.5875
30
0
11
73
21
-36.692985
31
0
39
0
210
0
220
0
230
1
0
LINE
5
132
100
AcDbEntity
8
SK2
62
256
6
ByLayer
370
13
48
1
60
0
100
AcDbLine
10
-45
20
-34.692985
30
0
11
73
21
-34.692985
31
0
39
0
210
0
220
0
230
1
0
SOLID
5
133
100
AcDbEntity
8
SK2
62
256
6
ByLayer
370
18
48
1
60
0
100
AcDbTrace
10
-45
20
-34.692985
30
0
11
-41.500002
21
-34.232202
31
0
12
-41.499998
22
-35.153769
32
0
13
-41.499998
23
-35.153769
33
0
39
0
210
0
220
0
230
1
0
SOLID
5
134
100
AcDbEntity
8
SK2
62
256
6
ByLayer
370
18
48
1
60
0
100
AcDbTrace
10
73
20
-34.692985
30
0
11
69.500002
21
-35.153769
31
0
12
69.499998
22
-34.232202
32
0
13
69.499998
23
-34.232202
33
0
39
0
210
0
220
0
230
1
0
ENDBLK
5
136
100
AcDbEntity
8
0
100
AcDbBlockEnd
0
BLOCK
5
13B
100
AcDbEntity
8
0
100
AcDbBlockBegin
2
*D5
70
1
10
0
20
0
30
0
3
*D5
0
LINE
5
13D
100
AcDbEntity
8
0
62
256
6
ByLayer
370
-2
48
1
60
0
100
AcDbLine
10
19.52
20
6.7375
30
0
11
19.52
21
18.759119
31
0
39
0
210
0
220
0
230
1
0
LINE
5
13E
100
AcDbEntity
8
0
62
256
6
ByLayer
370
-2
48
1
60
0
100
AcDbLine
10
73
20
1.5875
30
0
11
73
21
18.759119
31
0
39
0
210
0
220
0
230
1
0
LINE
5
13F
100
AcDbEntity
8
0
62
256
6
ByLayer
370
-2
48
1
60
0
100
AcDbLine
10
23.02
20
16.759119
30
0
11
69.5
21
16.759119
31
0
39
0
210
0
220
0
230
1
0
SOLID
5
140
100
AcDbEntity
8
0
62
256
6
ByLayer
370
-1
48
1
60
0
100
AcDbTrace
10
23.02
20
17.342453
30
0
11
23.02
21
16.175786
31
0
12
19.52
22
16.759119
32
0
13
19.52
23
16.759119
33
0
39
0
210
0
220
0
230
1
0
SOLID
5
141
100
AcDbEntity
8
0
62
256
6
ByLayer
370
-1
48
1
60
0
100
AcDbTrace
10
69.5
20
16.175786
30
0
11
69.5
21
17.342453
31
0
12
73
22
16.759119
32
0
13
73
23
16.759119
33
0
39
0
210
0
220
0
230
1
0
MTEXT
5
142
100
AcDbEntity
8
0
62
256
6
ByLayer
370
18
48
1
60
0
100
AcDbMText
10
46.26
20
23.759119
30
0
210
0
220
0
230
1
1
\A1;53.48
40
3.5
41
0
44
1
50
0
71
5
72
5
7
iso_b_vert
0
POINT
5
143
100
AcDbEntity
8
Defpoints
62
0
6
ByLayer
370
-1
48
1
60
0
100
AcDbPoint
10
19.52
20
5.15
30
0
39
0
210
0
220
0
230
1
50
360
0
POINT
5
144
100
AcDbEntity
8
Defpoints
62
0
6
ByLayer
370
-1
48
1
60
0
100
AcDbPoint
10
73
20
0
30
0
39
0
210
0
220
0
230
1
50
360
0
POINT
5
145
100
AcDbEntity
8
Defpoints
62
0
6
ByLayer
370
-1
48
1
60
0
100
AcDbPoint
10
73
20
16.759119
30
0
39
0
210
0
220
0
230
1
50
360
0
ENDBLK
5
13C
100
AcDbEntity
8
0
100
AcDbBlockEnd
0
BLOCK
5
14D
100
AcDbEntity
8
0
100
AcDbBlockBegin
2
_U2
70
0
10
0
20
0
30
0
3
_U2
0
MTEXT
5
147
100
AcDbEntity
8
SK2
62
256
6
ByLayer
370
13
48
1
60
0
100
AcDbMText
10
40.938435
20
17.791753
30
0
210
0
220
0
230
1
1
\W0.7581;53,48
40
3.5
41
0
44
1.084337
50
0
71
7
72
5
7
iso_b_vert
0
LINE
5
148
100
AcDbEntity
8
SK2
62
256
6
ByLayer
370
13
48
1
60
0
100
AcDbLine
10
19.52
20
6.7375
30
0
11
19.52
21
18.759119
31
0
39
0
210
0
220
0
230
1
0
LINE
5
149
100
AcDbEntity
8
SK2
62
256
6
ByLayer
370
13
48
1
60
0
100
AcDbLine
10
73
20
1.5875
30
0
11
73
21
18.759119
31
0
39
0
210
0
220
0
230
1
0
LINE
5
14A
100
AcDbEntity
8
SK2
62
256
6
ByLayer
370
13
48
1
60
0
100
AcDbLine
10
19.52
20
16.759119
30
0
11
73
21
16.759119
31
0
39
0
210
0
220
0
230
1
0
SOLID
5
14B
100
AcDbEntity
8
SK2
62
256
6
ByLayer
370
18
48
1
60
0
100
AcDbTrace
10
19.52
20
16.759119
30
0
11
23.019998
21
17.219903
31
0
12
23.020002
22
16.298335
32
0
13
23.020002
23
16.298335
33
0
39
0
210
0
220
0
230
1
0
SOLID
5
14C
100
AcDbEntity
8
SK2
62
256
6
ByLayer
370
18
48
1
60
0
100
AcDbTrace
10
73
20
16.759119
30
0
11
69.500002
21
16.298335
31
0
12
69.499998
22
17.219903
32
0
13
69.499998
23
17.219903
33
0
39
0
210
0
220
0
230
1
0
ENDBLK
5
14E
100
AcDbEntity
8
0
100
AcDbBlockEnd
0
BLOCK
5
153
100
AcDbEntity
8
0
100
AcDbBlockBegin
2
*D7
70
1
10
0
20
0
30
0
3
*D7
0
LINE
5
155
100
AcDbEntity
8
0
62
256
6
ByLayer
370
-2
48
1
60
0
100
AcDbLine
10
73
20
-1.5875
30
0
11
73
21
-19.952503
31
0
39
0
210
0
220
0
230
1
0
LINE
5
156
100
AcDbEntity
8
0
62
256
6
ByLayer
370
-2
48
1
60
0
100
AcDbLine
10
71.0232
20
-6.7375
30
0
11
71.0232
21
-19.952503
31
0
39
0
210
0
220
0
230
1
0
LINE
5
157
100
AcDbEntity
8
0
62
256
6
ByLayer
370
-2
48
1
60
0
100
AcDbLine
10
73
20
-17.952503
30
0
11
100.666667
21
-17.952503
31
0
39
0
210
0
220
0
230
1
0
LINE
5
158
100
AcDbEntity
8
0
62
256
6
ByLayer
370
-2
48
1
60
0
100
AcDbLine
10
76.5
20
-17.952503
30
0
11
80
21
-17.952503
31
0
39
0
210
0
220
0
230
1
0
LINE
5
159
100
AcDbEntity
8
0
62
256
6
ByLayer
370
-2
48
1
60
0
100
AcDbLine
10
67.5232
20
-17.952503
30
0
11
64.0232
21
-17.952503
31
0
39
0
210
0
220
0
230
1
0
SOLID
5
15A
100
AcDbEntity
8
0
62
256
6
ByLayer
370
-1
48
1
60
0
100
AcDbTrace
10
76.5
20
-17.36917
30
0
11
76.5
21
-18.535837
31
0
12
73
22
-17.952503
32
0
13
73
23
-17.952503
33
0
39
0
210
0
220
0
230
1
0
SOLID
5
15B
100
AcDbEntity
8
0
62
256
6
ByLayer
370
-1
48
1
60
0
100
AcDbTrace
10
67.5232
20
-18.535837
30
0
11
67.5232
21
-17.36917
31
0
12
71.0232
22
-17.952503
32
0
13
71.0232
23
-17.952503
33
0
39
0
210
0
220
0
230
1
0
MTEXT
5
15C
100
AcDbEntity
8
0
62
256
6
ByLayer
370
18
48
1
60
0
100
AcDbMText
10
90.333333
20
-10.952503
30
0
210
0
220
0
230
1
1
\A1;1.98
40
3.5
41
0
44
1
50
0
71
5
72
5
7
iso_b_vert
0
POINT
5
15D
100
AcDbEntity
8
Defpoints
62
0
6
ByLayer
370
-1
48
1
60
0
100
AcDbPoint
10
73
20
0
30
0
39
0
210
0
220
0
230
1
50
360
0
POINT
5
15E
100
AcDbEntity
8
Defpoints
62
0
6
ByLayer
370
-1
48
1
60
0
100
AcDbPoint
10
71.0232
20
-5.15
30
0
39
0
210
0
220
0
230
1
50
360
0
POINT
5
15F
100
AcDbEntity
8
Defpoints
62
0
6
ByLayer
370
-1
48
1
60
0
100
AcDbPoint
10
71.0232
20
-17.952503
30
0
39
0
210
0
220
0
230
1
50
360
0
ENDBLK
5
154
100
AcDbEntity
8
0
100
AcDbBlockEnd
0
BLOCK
5
167
100
AcDbEntity
8
0
100
AcDbBlockBegin
2
_U3
70
0
10
0
20
0
30
0
3
_U3
0
MTEXT
5
161
100
AcDbEntity
8
SK2
62
256
6
ByLayer
370
13
48
1
60
0
100
AcDbMText
10
79.589293
20
-16.91987
30
0
210
0
220
0
230
1
1
\W0.6367;1,98
40
3.5
41
0
44
1.084337
50
0
71
7
72
5
7
iso_b_vert
0
LINE
5
162
100
AcDbEntity
8
SK2
62
256
6
ByLayer
370
13
48
1
60
0
100
AcDbLine
10
73
20
-1.5875
30
0
11
73
21
-19.952503
31
0
39
0
210
0
220
0
230
1
0
LINE
5
163
100
AcDbEntity
8
SK2
62
256
6
ByLayer
370
13
48
1
60
0
100
AcDbLine
10
71.0232
20
-6.7375
30
0
11
71.0232
21
-19.952503
31
0
39
0
210
0
220
0
230
1
0
LINE
5
164
100
AcDbEntity
8
SK2
62
256
6
ByLayer
370
13
48
1
60
0
100
AcDbLine
10
62.2732
20
-17.952503
30
0
11
86.559058
21
-17.952503
31
0
39
0
210
0
220
0
230
1
0
SOLID
5
165
100
AcDbEntity
8
SK2
62
256
6
ByLayer
370
18
48
1
60
0
100
AcDbTrace
10
73
20
-17.952503
30
0
11
76.499998
21
-17.491719
31
0
12
76.500002
22
-18.413287
32
0
13
76.500002
23
-18.413287
33
0
39
0
210
0
220
0
230
1
0
SOLID
5
166
100
AcDbEntity
8
SK2
62
256
6
ByLayer
370
18
48
1
60
0
100
AcDbTrace
10
71.0232
20
-17.952503
30
0
11
67.523202
21
-18.413287
31
0
12
67.523198
22
-17.491719
32
0
13
67.523198
23
-17.491719
33
0
39
0
210
0
220
0
230
1
0
ENDBLK
5
168
100
AcDbEntity
8
0
100
AcDbBlockEnd
0
BLOCK
5
16D
100
AcDbEntity
8
0
100
AcDbBlockBegin
2
*D9
70
1
10
0
20
0
30
0
3
*D9
0
LINE
5
16F
100
AcDbEntity
8
0
62
256
6
ByLayer
370
-2
48
1
60
0
100
AcDbLine
10
-45
20
-7.5875
30
0
11
-45
21
-26.343428
31
0
39
0
210
0
220
0
230
1
0
LINE
5
170
100
AcDbEntity
8
0
62
256
6
ByLayer
370
-2
48
1
60
0
100
AcDbLine
10
71.0232
20
-6.7375
30
0
11
71.0232
21
-26.343428
31
0
39
0
210
0
220
0
230
1
0
LINE
5
171
100
AcDbEntity
8
0
62
256
6
ByLayer
370
-2
48
1
60
0
100
AcDbLine
10
-41.5
20
-24.343428
30
0
11
67.5232
21
-24.343428
31
0
39
0
210
0
220
0
230
1
0
SOLID
5
172
100
AcDbEntity
8
0
62
256
6
ByLayer
370
-1
48
1
60
0
100
AcDbTrace
10
-41.5
20
-23.760095
30
0
11
-41.5
21
-24.926762
31
0
12
-45
22
-24.343428
32
0
13
-45
23
-24.343428
33
0
39
0
210
0
220
0
230
1
0
SOLID
5
173
100
AcDbEntity
8
0
62
256
6
ByLayer
370
-1
48
1
60
0
100
AcDbTrace
10
67.5232
20
-24.926762
30
0
11
67.5232
21
-23.760095
31
0
12
71.0232
22
-24.343428
32
0
13
71.0232
23
-24.343428
33
0
39
0
210
0
220
0
230
1
0
MTEXT
5
174
100
AcDbEntity
8
0
62
256
6
ByLayer
370
18
48
1
60
0
100
AcDbMText
10
13.0116
20
-17.343428
30
0
210
0
220
0
230
1
1
\A1;116.02
40
3.5
41
0
44
1
50
0
71
5
72
5
7
iso_b_vert
0
POINT
5
175
100
AcDbEntity
8
Defpoints
62
0
6
ByLayer
370
-1
48
1
60
0
100
AcDbPoint
10
-45
20
-6
30
0
39
0
210
0
220
0
230
1
50
360
0
POINT
5
176
100
AcDbEntity
8
Defpoints
62
0
6
ByLayer
370
-1
48
1
60
0
100
AcDbPoint
10
71.0232
20
-5.15
30
0
39
0
210
0
220
0
230
1
50
360
0
POINT
5
177
100
AcDbEntity
8
Defpoints
62
0
6
ByLayer
370
-1
48
1
60
0
100
AcDbPoint
10
71.0232
20
-24.343428
30
0
39
0
210
0
220
0
230
1
50
360
0
ENDBLK
5
16E
100
AcDbEntity
8
0
100
AcDbBlockEnd
0
BLOCK
5
17F
100
AcDbEntity
8
0
100
AcDbBlockBegin
2
_U4
70
0
10
0
20
0
30
0
3
_U4
0
MTEXT
5
179
100
AcDbEntity
8
SK2
62
256
6
ByLayer
370
13
48
1
60
0
100
AcDbMText
10
7.441435
20
-23.310795
30
0
210
0
220
0
230
1
1
\W0.6440;116,02
40
3.5
41
0
44
1.084337
50
0
71
7
72
5
7
iso_b_vert
0
LINE
5
17A
100
AcDbEntity
8
SK2
62
256
6
ByLayer
370
13
48
1
60
0
100
AcDbLine
10
-45
20
-7.5875
30
0
11
-45
21
-26.343428
31
0
39
0
210
0
220
0
230
1
0
LINE
5
17B
100
AcDbEntity
8
SK2
62
256
6
ByLayer
370
13
48
1
60
0
100
AcDbLine
10
71.0232
20
-6.7375
30
0
11
71.0232
21
-26.343428
31
0
39
0
210
0
220
0
230
1
0
LINE
5
17C
100
AcDbEntity
8
SK2
62
256
6
ByLayer
370
13
48
1
60
0
100
AcDbLine
10
-45
20
-24.343428
30
0
11
71.0232
21
-24.343428
31
0
39
0
210
0
220
0
230
1
0
SOLID
5
17D
100
AcDbEntity
8
SK2
62
256
6
ByLayer
370
18
48
1
60
0
100
AcDbTrace
10
-45
20
-24.343428
30
0
11
-41.500002
21
-23.882645
31
0
12
-41.499998
22
-24.804212
32
0
13
-41.499998
23
-24.804212
33
0
39
0
210
0
220
0
230
1
0
SOLID
5
17E
100
AcDbEntity
8
SK2
62
256
6
ByLayer
370
18
48
1
60
0
100
AcDbTrace
10
71.0232
20
-24.343428
30
0
11
67.523202
21
-24.804212
31
0
12
67.523198
22
-23.882645
32
0
13
67.523198
23
-23.882645
33
0
39
0
210
0
220
0
230
1
0
ENDBLK
5
180
100
AcDbEntity
8
0
100
AcDbBlockEnd
0
ENDSEC
0
SECTION
2
ENTITIES
0
ARC
5
A6
100
AcDbEntity
8
1
62
256
6
ByLayer
370
18
48
1
60
0
100
AcDbCircle
39
0
10
1.537687
20
-5.874927
30
0
40
0.849999999999998
210
0
220
0
230
1
100
AcDbArc
50
89.896868
51
154.758921
0
ARC
5
A7
100
AcDbEntity
8
1
62
256
6
ByLayer
370
18
48
1
60
0
100
AcDbCircle
39
0
10
1.537687
20
5.874927
30
0
40
0.849999999999998
210
0
220
0
230
1
100
AcDbArc
50
205.241079
51
270.103132
0
ARC
5
A8
100
AcDbEntity
8
1
62
256
6
ByLayer
370
18
48
1
60
0
100
AcDbCircle
39
0
10
0
20
-5.15
30
0
40
0.849999999999998
210
0
220
0
230
1
100
AcDbArc
50
270
51
334.758921
0
ARC
5
A9
100
AcDbEntity
8
1
62
256
6
ByLayer
370
18
48
1
60
0
100
AcDbCircle
39
0
10
0
20
5.15
30
0
40
0.849999999999998
210
0
220
0
230
1
100
AcDbArc
50
25.241079
51
90
0
ELLIPSE
5
AA
100
AcDbEntity
8
1
62
256
6
ByLayer
370
13
48
1
60
0
100
AcDbEllipse
10
5.695726
20
-4.974751
30
0
11
-0.0909042304481757
21
0.285895821736913
31
0
210
0
220
0
230
1
40
0.513463
41
0.35553256367783
42
0.567122701640945
0
ELLIPSE
5
AB
100
AcDbEntity
8
1
62
256
6
ByLayer
370
13
48
1
60
0
100
AcDbEllipse
10
117.194174
20
41.888784
30
0
11
-60.1999999999999
21
7.3721302500107E-15
31
0
210
0
220
0
230
1
40
0.99863
41
0.718968915420541
42
0.732214784579124
0
ELLIPSE
5
AC
100
AcDbEntity
8
1
62
256
6
ByLayer
370
13
48
1
60
0
100
AcDbEllipse
10
15.223411
20
-7.678708
30
0
11
-63.3364875557803
21
38.5529732037529
31
0
210
0
220
0
230
1
40
0.069294
41
-1.52864173238201
42
-1.3771750517757
0
ELLIPSE
5
AD
100
AcDbEntity
8
1
62
256
6
ByLayer
370
13
48
1
60
0
100
AcDbEllipse
10
6.015372
20
-4.953134
30
0
11
0.0463860397476427
21
0.296392198474471
31
0
210
0
220
0
230
1
40
0.427239
41
0.346135281912135
42
1.28717407177087
0
ELLIPSE
5
AE
100
AcDbEntity
8
1
62
256
6
ByLayer
370
13
48
1
60
0
100
AcDbEllipse
10
17.077698
20
-4.632406
30
0
11
-63.3364875557802
21
38.5529732037528
31
0
210
0
220
0
230
1
40
0.069294
41
-1.52864173238201
42
-1.44840856214416
0
POINT
5
70
100
AcDbEntity
8
80
62
256
6
ByLayer
370
18
48
1
60
0
100
AcDbPoint
10
0
20
0
30
0
39
0
210
0
220
0
230
1
50
360
0
POINT
5
72
100
AcDbEntity
8
81
62
256
6
ByLayer
370
18
48
1
60
0
100
AcDbPoint
10
73
20
0
30
0
39
0
210
0
220
0
230
1
50
360
0
POINT
5
74
100
AcDbEntity
8
1
62
256
6
ByLayer
370
18
48
1
60
1
100
AcDbPoint
10
71.0232
20
-5.15
30
0
39
0
210
0
220
0
230
1
50
360
0
POINT
5
76
100
AcDbEntity
8
1
62
256
6
ByLayer
370
18
48
1
60
1
100
AcDbPoint
10
-45
20
-6
30
0
39
0
210
0
220
0
230
1
50
360
0
POINT
5
77
100
AcDbEntity
8
1
62
256
6
ByLayer
370
18
48
1
60
1
100
AcDbPoint
10
19.52
20
5.15
30
0
39
0
210
0
220
0
230
1
50
360
0
POINT
5
78
100
AcDbEntity
8
1
62
256
6
ByLayer
370
18
48
1
60
1
100
AcDbPoint
10
71.0232
20
-5.15
30
0
39
0
210
0
220
0
230
1
50
360
0
POINT
5
79
100
AcDbEntity
8
1
62
256
6
ByLayer
370
18
48
1
60
1
100
AcDbPoint
10
-45
20
-6
30
0
39
0
210
0
220
0
230
1
50
360
0
POINT
5
7A
100
AcDbEntity
8
1
62
256
6
ByLayer
370
18
48
1
60
1
100
AcDbPoint
10
71.0232
20
-5.15
30
0
39
0
210
0
220
0
230
1
50
360
0
SPLINE
5
AF
100
AcDbEntity
8
1
62
256
6
ByLayer
370
18
48
1
60
0
100
AcDbSpline
70
4
71
3
72
8
73
4
40
0
40
0
40
0
40
0
40
1
40
1
40
1
40
1
41
1
10
71.1073737989698
20
-4.99017718453072
30
0
41
1
10
71.1166154256276
20
-4.95152717546705
30
0
41
1
10
71.1230576450557
20
-4.91555711945892
30
0
41
1
10
71.1263302246438
20
-4.88564014816029
30
0
0
SPLINE
5
B0
100
AcDbEntity
8
1
62
256
6
ByLayer
370
18
48
1
60
0
100
AcDbSpline
70
4
71
3
72
20
73
16
40
0
40
0
40
0
40
0
40
0.25
40
0.25
40
0.375
40
0.375
40
0.437499999999999
40
0.437499999999999
40
0.499999999999999
40
0.499999999999999
40
0.749999999999999
40
0.749999999999999
40
0.874999999999999
40
0.874999999999999
40
1
40
1
40
1
40
1
41
1
10
71.0785202997081
20
-4.78947080739607
30
0
41
1
10
70.9772052491518
20
-4.69775622974419
30
0
41
1
10
70.8875416005566
20
-4.58004088656028
30
0
41
1
10
70.7711650309897
20
-4.36303450946011
30
0
41
1
10
70.735410488375
20
-4.28392036800292
30
0
41
1
10
70.6866045277903
20
-4.15447998988074
30
0
41
1
10
70.6711263269978
20
-4.10945913328578
30
0
41
1
10
70.6421680669723
20
-4.01681131943286
30
0
41
1
10
70.628640218461
20
-3.969070291355
30
0
41
1
10
70.5657222820054
20
-3.72333183567596
30
0
41
1
10
70.5303681593459
20
-3.50442507341134
30
0
41
1
10
70.5006528230813
20
-3.14133138279081
30
0
41
1
10
70.4946684489064
20
-3.01373863165989
30
0
41
1
10
70.4909935403368
20
-2.75107303522444
30
0
41
1
10
70.4932374216791
20
-2.6158669821755
30
0
41
1
10
70.4995200689044
20
-2.47682807368463
30
0
0
SPLINE
5
B1
100
AcDbEntity
8
1
62
256
6
ByLayer
370
18
48
1
60
0
100
AcDbSpline
70
4
71
3
72
8
73
4
40
0
40
0
40
0
40
0
40
1
40
1
40
1
40
1
41
1
10
72.4236985038098
20
-1.69913072976848
30
0
41
1
10
72.2407491958171
20
-2.23040801421283
30
0
41
1
10
72.0588405821898
20
-2.76204032395683
30
0
41
1
10
71.877976849583
20
-3.2940290872474
30
0
0
SPLINE
5
B2
100
AcDbEntity
8
1
62
256
6
ByLayer
370
18
48
1
60
0
100
AcDbSpline
70
4
71
3
72
8
73
4
40
0
40
0
40
0
40
0
40
1
40
1
40
1
40
1
41
1
10
72.2595109607982
20
-1.05544956707823
30
0
41
1
10
72.2598637181758
20
-1.05580417703649
30
0
41
1
10
72.2602164799675
20
-1.0561587826038
30
0
41
1
10
72.2605692461731
20
-1.05651338378001
30
0
0
SPLINE
5
B3
100
AcDbEntity
8
1
62
256
6
ByLayer
370
18
48
1
60
0
100
AcDbSpline
70
4
71
3
72
18
73
14
40
0
40
0
40
0
40
0
40
0.249999999999998
40
0.249999999999998
40
0.374999999999999
40
0.374999999999999
40
0.499999999999999
40
0.499999999999999
40
0.749999999999999
40
0.749999999999999
40
0.875
40
0.875
40
1
40
1
40
1
40
1
41
1
10
5.53241453269902
20
2.56008811141621
30
0
41
1
10
5.48300627789519
20
2.70202564694753
30
0
41
1
10
5.44761442884595
20
2.84183716219456
30
0
41
1
10
5.41744718166927
20
3.04797234232348
30
0
41
1
10
5.41121690730248
20
3.1164432659279
30
0
41
1
10
5.4069155086446
20
3.25033848101384
30
0
41
1
10
5.40880692322136
20
3.31541758144257
30
0
41
1
10
5.42612279102991
20
3.50525751408065
30
0
41
1
10
5.45315179183967
20
3.62463595660933
30
0
41
1
10
5.51575039826002
20
3.79345394868503
30
0
41
1
10
5.54012523108014
20
3.84747249602762
30
0
41
1
10
5.59476737637203
20
3.95035234827651
30
0
41
1
10
5.62510347205011
20
3.99939901704815
30
0
41
1
10
5.65818569014738
20
4.04626933892337
30
0
0
SPLINE
5
B4
100
AcDbEntity
8
1
62
256
6
ByLayer
370
18
48
1
60
0
100
AcDbSpline
70
4
71
3
72
8
73
4
40
0
40
0
40
0
40
0
40
1
40
1
40
1
40
1
41
1
10
5.5264950969738
20
-4.73579657910958
30
0
41
1
10
5.52646396689002
20
-4.74387608299907
30
0
41
1
10
5.5315848447153
20
-4.75145940589326
30
0
41
1
10
5.54019216267383
20
-4.75868670983922
30
0
0
SPLINE
5
B5
100
AcDbEntity
8
1
62
256
6
ByLayer
370
18
48
1
60
0
100
AcDbSpline
70
4
71
3
72
8
73
4
40
0
40
0
40
0
40
0
40
1
40
1
40
1
40
1
41
1
10
70.6402100275093
20
0.527794475716263
30
0
41
1
10
70.8621152246471
20
0.428473753357309
30
0
41
1
10
71.0854472755205
20
0.336339274930367
30
0
41
1
10
71.3103315286233
20
0.252022348907616
30
0
0
SPLINE
5
B6
100
AcDbEntity
8
1
62
256
6
ByLayer
370
18
48
1
60
0
100
AcDbSpline
70
4
71
3
72
40
73
36
40
0
40
0
40
0
40
0
40
0.1157270720683
40
0.1157270720683
40
0.173590608102449
40
0.173590608102449
40
0.231454144136599
40
0.231454144136599
40
0.289317680170749
40
0.289317680170749
40
0.347181216204898
40
0.347181216204898
40
0.405044752239048
40
0.405044752239048
40
0.462908288273198
40
0.462908288273198
40
0.520771824307348
40
0.520771824307348
40
0.578635360341497
40
0.578635360341497
40
0.636498896375647
40
0.636498896375647
40
0.694362432409797
40
0.694362432409797
40
0.752225968443947
40
0.752225968443947
40
0.810089504478096
40
0.810089504478096
40
0.867953040512246
40
0.867953040512246
40
0.925816576546396
40
0.925816576546396
40
0.983680112580546
40
0.983680112580546
40
1
40
1
40
1
40
1
41
1
10
70.6402100275092
20
0.527794475716291
30
0
41
1
10
70.05438409763
20
0.810272388575584
30
0
41
1
10
69.469782456961
20
1.09052387420056
30
0
41
1
10
68.5909562730187
20
1.49965518811951
30
0
41
1
10
68.2979337576086
20
1.63463052520129
30
0
41
1
10
67.711169155481
20
1.90059691032465
30
0
41
1
10
67.4171455913254
20
2.03182750738236
30
0
41
1
10
66.830013247812
20
2.28799965920931
30
0
41
1
10
66.5367219991105
20
2.4131925497127
30
0
41
1
10
65.9506394165659
20
2.65799043667369
30
0
41
1
10
65.6577119355931
20
2.77730636139199
30
0
41
1
10
65.0720186388994
20
3.00865130391861
30
0
41
1
10
64.7789494831381
20
3.12006912410135
30
0
41
1
10
64.1923157775213
20
3.33604547143642
30
0
41
1
10
63.8989739199234
20
3.4407238763464
30
0
41
1
10
63.3114160109569
20
3.64159890257693
30
0
41
1
10
63.0174781910489
20
3.737641078791
30
0
41
1
10
62.4307238310875
20
3.92015493265052
30
0
41
1
10
62.1376776587147
20
4.0067564982638
30
0
41
1
10
61.5517883282423
20
4.1693773660584
30
0
41
1
10
61.2590731010865
20
4.24532869333837
30
0
41
1
10
60.673010909195
20
4.38621579160207
30
0
41
1
10
60.3796395037609
20
4.45156901538016
30
0
41
1
10
59.7926935213738
20
4.57291299691306
30
0
41
1
10
59.4986185354704
20
4.62859546951668
30
0
41
1
10
58.9109937837895
20
4.72868536211942
30
0
41
1
10
58.6176109107149
20
4.77319663200993
30
0
41
1
10
58.0312572079772
20
4.85009186452288
30
0
41
1
10
57.7383073625139
20
4.88232162487159
30
0
41
1
10
57.1524902592827
20
4.93327916582808
30
0
41
1
10
56.8594908906932
20
4.9523514225738
30
0
41
1
10
56.2729828885772
20
4.98068651431319
30
0
41
1
10
55.9795526540185
20
4.98946881714886
30
0
41
1
10
55.6027440121001
20
4.99251229722805
30
0
41
1
10
55.5198498951002
20
4.99265772165202
30
0
41
1
10
55.4369679046164
20
4.99230382627854
30
0
0
SPLINE
5
B7
100
AcDbEntity
8
1
62
256
6
ByLayer
370
18
48
1
60
0
100
AcDbSpline
70
4
71
3
72
46
73
42
40
0
40
0
40
0
40
0
40
0.022482875273437
40
0.022482875273437
40
0.0739311449958876
40
0.0739311449958876
40
0.125379414718338
40
0.125379414718338
40
0.176827684440789
40
0.176827684440789
40
0.228275954163239
40
0.228275954163239
40
0.27972422388569
40
0.27972422388569
40
0.331172493608141
40
0.331172493608141
40
0.382620763330591
40
0.382620763330591
40
0.434069033053042
40
0.434069033053042
40
0.485517302775493
40
0.485517302775493
40
0.536965572497943
40
0.536965572497943
40
0.588413842220394
40
0.588413842220394
40
0.639862111942845
40
0.639862111942845
40
0.691310381665296
40
0.691310381665296
40
0.742758651387746
40
0.742758651387746
40
0.794206921110197
40
0.794206921110197
40
0.845655190832648
40
0.845655190832648
40
0.897103460555098
40
0.897103460555098
40
0.948551730277549
40
0.948551730277549
40
1
40
1
40
1
40
1
41
1
10
31.4630452688339
20
-3.38407536598083
30
0
41
1
10
31.33447051454
20
-3.42878446193237
30
0
41
1
10
31.2059660929368
20
-3.47248618548832
30
0
41
1
10
30.7837288776603
20
-3.61379603267363
30
0
41
1
10
30.4900983634684
20
-3.70824627538593
30
0
41
1
10
29.9030761053639
20
-3.88824852939962
30
0
41
1
10
29.6095741582039
20
-3.97366042812126
30
0
41
1
10
29.0225391376319
20
-4.13319228343798
30
0
41
1
10
28.7291554319879
20
-4.20811332491954
30
0
41
1
10
28.1413963280049
20
-4.34855268799984
30
0
41
1
10
27.8467718647728
20
-4.41381361220556
30
0
41
1
10
27.2581271424643
20
-4.5331712799503
30
0
41
1
10
26.9642593811346
20
-4.58625726650916
30
0
41
1
10
26.3769307779241
20
-4.68259057564035
30
0
41
1
10
26.0834263080126
20
-4.72558960792657
30
0
41
1
10
25.4963585731578
20
-4.80022537908661
30
0
41
1
10
25.202772782668
20
-4.83124209835174
30
0
41
1
10
24.615624195349
20
-4.88047382515535
30
0
41
1
10
24.3218518535492
20
-4.89995328897055
30
0
41
1
10
23.733183385216
20
-4.92756820177257
30
0
41
1
10
23.4384984033535
20
-4.93583197605855
30
0
41
1
10
22.8505133360376
20
-4.93784688829851
30
0
41
1
10
22.5569935157409
20
-4.93253065898807
30
0
41
1
10
21.9698549291852
20
-4.91193020412234
30
0
41
1
10
21.6764120987398
20
-4.8961369858595
30
0
41
1
10
21.0892309833644
20
-4.85181823070548
30
0
41
1
10
20.7957276447035
20
-4.82261608118552
30
0
41
1
10
20.20809805782
20
-4.75412179750242
30
0
41
1
10
19.9135504805855
20
-4.71465282308981
30
0
41
1
10
19.3245774622175
20
-4.62358942244092
30
0
41
1
10
19.0308106186257
20
-4.57212002677991
30
0
41
1
10
18.4439919216717
20
-4.45890395955345
30
0
41
1
10
18.1508692031361
20
-4.39730491873553
30
0
41
1
10
17.5650695098479
20
-4.26340483768982
30
0
41
1
10
17.2722043590261
20
-4.19115672599057
30
0
41
1
10
16.6866996744525
20
-4.03657641592034
30
0
41
1
10
16.3940861844539
20
-3.95436089587773
30
0
41
1
10
15.808004258483
20
-3.78130432609171
30
0
41
1
10
15.5145956635362
20
-3.69023040485254
30
0
41
1
10
14.9274559525658
20
-3.49802026073914
30
0
41
1
10
14.6333774511957
20
-3.39755758914072
30
0
41
1
10
14.3386285593946
20
-3.29332388100249
30
0
0
SPLINE
5
B8
100
AcDbEntity
8
1
62
256
6
ByLayer
370
18
48
1
60
0
100
AcDbSpline
70
4
71
3
72
18
73
14
40
0
40
0
40
0
40
0
40
0.25
40
0.25
40
0.375
40
0.375
40
0.5
40
0.5
40
0.75
40
0.75
40
0.875
40
0.875
40
1
40
1
40
1
40
1
41
1
10
70.6402100275092
20
0.527794475716291
30
0
41
1
10
70.5873129367322
20
0.271347664857188
30
0
41
1
10
70.5443712358291
20
0.0142875403402343
30
0
41
1
10
70.4949158347862
20
-0.372224099505871
30
0
41
1
10
70.4809343485635
20
-0.501215552973406
30
0
41
1
10
70.4581197125464
20
-0.759515629309846
30
0
41
1
10
70.4492624249707
20
-0.889406516511542
30
0
41
1
10
70.4309646326727
20
-1.27520273001542
30
0
41
1
10
70.4297303840316
20
-1.52528809735222
30
0
41
1
10
70.4438064622311
20
-1.89008462064328
30
0
41
1
10
70.4511654874801
20
-2.00995348148868
30
0
41
1
10
70.4712776057804
20
-2.2461922779321
30
0
41
1
10
70.4840795248727
20
-2.3628860129869
30
0
41
1
10
70.4995200689044
20
-2.47682807368463
30
0
0
SPLINE
5
B9
100
AcDbEntity
8
1
62
256
6
ByLayer
370
13
48
1
60
0
100
AcDbSpline
70
4
71
3
72
89
73
85
40
0
40
0
40
0
40
0
40
0.0004017596043637
40
0.0084963622092007
40
0.0165909648140375
40
0.0327801700237113
40
0.0408747726285481
40
0.0489693752333848
40
0.0651585804430587
40
0.0732531830478954
40
0.0813477856527325
40
0.097536990862406
40
0.105631593467244
40
0.11372619607208
40
0.129915401281754
40
0.138010003886592
40
0.146104606491427
40
0.162293811701101
40
0.170388414305938
40
0.178483016910775
40
0.194672222120448
40
0.202766824725286
40
0.210861427330122
40
0.227050632539796
40
0.235145235144633
40
0.243239837749469
40
0.259429042959143
40
0.26752364556398
40
0.275618248168817
40
0.291807453378491
40
0.307996658588165
40
0.324185863797839
40
0.356564274217186
40
0.364658876822023
40
0.372753479426859
40
0.388942684636533
40
0.39703728724137
40
0.405131889846207
40
0.421321095055881
40
0.429415697660718
40
0.437510300265553
40
0.453699505475228
40
0.461794108080064
40
0.469888710684902
40
0.486077915894575
40
0.502267121104248
40
0.518456326313923
40
0.55083473673327
40
0.558929339338108
40
0.567023941942944
40
0.583213147152618
40
0.591307749757454
40
0.599402352362292
40
0.615591557571965
40
0.623686160176802
40
0.631780762781639
40
0.647969967991313
40
0.656064570596149
40
0.664159173200987
40
0.68034837841066
40
0.696537583620334
40
0.712726788830008
40
0.745105199249355
40
0.753199801854191
40
0.761294404459029
40
0.777483609668702
40
0.785578212273539
40
0.793672814878376
40
0.80986202008805
40
0.817956622692887
40
0.826051225297724
40
0.842240430507398
40
0.850335033112234
40
0.858429635717071
40
0.874618840926745
40
0.890808046136418
40
0.906997251346093
40
0.93937566176544
40
0.947470264370277
40
0.955564866975113
40
0.971754072184787
40
0.979848674789624
40
0.987943277394461
40
1
40
1
40
1
40
1
41
1
10
60.7709333926715
20
-2.10440242071951
30
0
41
1
10
60.7681220196399
20
-2.10469574852263
30
0
41
1
10
60.708667386122
20
-2.11089417525784
30
0
41
1
10
60.5925667840729
20
-2.1227982965471
30
0
41
1
10
60.3660212151741
20
-2.14522220406565
30
0
41
1
10
60.1394579758526
20
-2.16651188946358
30
0
41
1
10
59.9128792039699
20
-2.18665919928893
30
0
41
1
10
59.6863332938176
20
-2.20596702213666
30
0
41
1
10
59.4597697709333
20
-2.22411307934166
30
0
41
1
10
59.2331909379863
20
-2.24109054216717
30
0
41
1
10
59.0066453779694
20
-2.25719897401001
30
0
41
1
10
58.7800827747699
20
-2.27212095585048
30
0
41
1
10
58.5535049050153
20
-2.28585097080227
30
0
41
1
10
58.326959622841
20
-2.29868590242739
30
0
41
1
10
58.1003964303711
20
-2.31031659691783
30
0
41
1
10
57.8738174786232
20
-2.32074335007272
30
0
41
1
10
57.6472713034757
20
-2.33025555594804
30
0
41
1
10
57.4207074167102
20
-2.3385523711635
30
0
41
1
10
57.1941282077338
20
-2.34563472114041
30
0
41
1
10
56.9675822698393
20
-2.3517850627093
30
0
41
1
10
56.7410192734628
20
-2.35671212825488
30
0
41
1
10
56.5144410969634
20
-2.36041902763429
30
0
41
1
10
56.2878957032327
20
-2.36317966882129
30
0
41
1
10
56.0613326271928
20
-2.36471281968159
30
0
41
1
10
55.8347539198651
20
-2.36502317576571
30
0
41
1
10
55.608208004993
20
-2.36437695463789
30
0
41
1
10
55.3816443974124
20
-2.36250559021295
30
0
41
1
10
55.1550654785634
20
-2.35941845763472
30
0
41
1
10
54.9285199629358
20
-2.35537060436471
30
0
41
1
10
54.6453395713793
20
-2.34872128270015
30
0
41
1
10
54.305500017345
20
-2.33829655680444
30
0
41
1
10
53.8524451903678
20
-2.32078327510422
30
0
41
1
10
53.4559273077757
20
-2.30137814945292
30
0
41
1
10
53.1160041663027
20
-2.28184527449267
30
0
41
1
10
52.8894579724832
20
-2.26774711114433
30
0
41
1
10
52.6628947610552
20
-2.25248567018321
30
0
41
1
10
52.4363164383579
20
-2.23608028180593
30
0
41
1
10
52.2097709020845
20
-2.21873375519422
30
0
41
1
10
51.9832077426001
20
-2.20025442342558
30
0
41
1
10
51.7566290529449
20
-2.18066313392842
30
0
41
1
10
51.5300831609663
20
-2.16014678433621
30
0
41
1
10
51.303519567342
20
-2.13853181733441
30
0
41
1
10
51.0769406372624
20
-2.11584069521177
30
0
41
1
10
50.8503951333088
20
-2.09224408170084
30
0
41
1
10
50.5672147663545
20
-2.06133353828275
30
0
41
1
10
50.227375039673
20
-2.02212705704301
30
0
41
1
10
49.7743197588281
20
-1.96664117573451
30
0
41
1
10
49.3778015227231
20
-1.91473731392782
30
0
41
1
10
49.0378785024948
20
-1.86792831677366
30
0
41
1
10
48.8113324338051
20
-1.83574963469727
30
0
41
1
10
48.584769384015
20
-1.80265178985908
30
0
41
1
10
48.3581912170462
20
-1.76866436737035
30
0
41
1
10
48.1316458573633
20
-1.73388616455429
30
0
41
1
10
47.905082855903
20
-1.69824345305247
30
0
41
1
10
47.6785042341928
20
-1.66176715027171
30
0
41
1
10
47.4519583735619
20
-1.62453748781002
30
0
41
1
10
47.2253947800706
20
-1.58650210906754
30
0
41
1
10
46.9988158475135
20
-1.54769395700126
30
0
41
1
10
46.7722703216246
20
-1.50817384859596
30
0
41
1
10
46.4890899201009
20
-1.45775017625965
30
0
41
1
10
46.1492503607114
20
-1.3957851487659
30
0
41
1
10
45.6961955255107
20
-1.31084905413772
30
0
41
1
10
45.2996776316855
20
-1.23441273670778
30
0
41
1
10
44.9597544629147
20
-1.16750254812757
30
0
41
1
10
44.7332082361373
20
-1.12217392378608
30
0
41
1
10
44.5066449724445
20
-1.07630909690656
30
0
41
1
10
44.2800666015789
20
-1.02994481764713
30
0
41
1
10
44.0535210502196
20
-0.983061377867955
30
0
41
1
10
43.8269579195672
20
-0.93571497576707
30
0
41
1
10
43.6003792753594
20
-0.887943216750728
30
0
41
1
10
43.3738334003058
20
-0.839706706153436
30
0
41
1
10
43.1472697878432
20
-0.791083058316758
30
0
41
1
10
42.9206908143149
20
-0.742110801232855
30
0
41
1
10
42.6941452712882
20
-0.692730903344483
30
0
41
1
10
42.4109648607162
20
-0.630533723089087
30
0
41
1
10
42.0711250862915
20
-0.555325908083319
30
0
41
1
10
41.6180697360062
20
-0.453986037855799
30
0
41
1
10
41.2215514375825
20
-0.364758768025581
30
0
41
1
10
40.8816283571433
20
-0.288020989989263
30
0
41
1
10
40.6550822358033
20
-0.236501110508982
30
0
41
1
10
40.4285191182509
20
-0.184908709077234
30
0
41
1
10
40.2019408921349
20
-0.133282329527049
30
0
41
1
10
40.0043096787038
20
-0.0880979710814813
30
0
41
1
10
39.8633057250992
20
-0.0558668422913513
30
0
41
1
10
39.7789387893256
20
-0.0365896160425905
30
0
0
SPLINE
5
BA
100
AcDbEntity
8
1
62
256
6
ByLayer
370
18
48
1
60
0
100
AcDbSpline
70
4
71
3
72
10
73
6
40
0
40
0
40
0
40
0
40
0.5
40
0.5
40
1
40
1
40
1
40
1
41
1
10
71.1263302246399
20
-4.88564014819909
30
0
41
1
10
71.1221639140938
20
-4.86256549453952
30
0
41
1
10
71.1154368264314
20
-4.84332222159333
30
0
41
1
10
71.0991158819336
20
-4.81186129448301
30
0
41
1
10
71.089360905355
20
-4.79928417236883
30
0
41
1
10
71.078520299706
20
-4.78947080739425
30
0
0
SPLINE
5
BB
100
AcDbEntity
8
1
62
256
6
ByLayer
370
18
48
1
60
0
100
AcDbSpline
70
4
71
3
72
14
73
10
40
0
40
0
40
0
40
0
40
0.25
40
0.25
40
0.5
40
0.5
40
0.75
40
0.75
40
1
40
1
40
1
40
1
41
1
10
15.223410679763
20
-1.6690374933257
30
0
41
1
10
15.3347920291669
20
-1.46456318771644
30
0
41
1
10
15.4772042140526
20
-1.21305959380629
30
0
41
1
10
15.7966954250566
20
-0.664373805699881
30
0
41
1
10
15.9735674946799
20
-0.367547033135679
30
0
41
1
10
16.3275409269348
20
0.213975791799271
30
0
41
1
10
16.504412996558
20
0.498295151724165
30
0
41
1
10
16.8239042075621
20
0.999357252217436
30
0
41
1
10
16.9663163924478
20
1.21577542030119
30
0
41
1
10
17.0776977418517
20
1.37726528628437
30
0
0
SPLINE
5
BC
100
AcDbEntity
8
1
62
256
6
ByLayer
370
18
48
1
60
0
100
AcDbSpline
70
4
71
3
72
32
73
28
40
0
40
0
40
0
40
0
40
0.0312499999999987
40
0.0312499999999987
40
0.0624999999999974
40
0.0624999999999974
40
0.124999999999997
40
0.124999999999997
40
0.187499999999997
40
0.187499999999997
40
0.249999999999996
40
0.249999999999996
40
0.374999999999995
40
0.374999999999995
40
0.437499999999995
40
0.437499999999995
40
0.499999999999994
40
0.499999999999994
40
0.624999999999997
40
0.624999999999997
40
0.749999999999999
40
0.749999999999999
40
0.812499999999998
40
0.812499999999998
40
0.874999999999998
40
0.874999999999998
40
1
40
1
40
1
40
1
41
1
10
5.6581856901474
20
4.04626933892337
30
0
41
1
10
5.68600565470058
20
4.08568418980579
30
0
41
1
10
5.72152092563303
20
4.12219118889647
30
0
41
1
10
5.80380659077304
20
4.18923578858346
30
0
41
1
10
5.84984232689484
20
4.21932466233926
30
0
41
1
10
5.99896782443582
20
4.30215927019935
30
0
41
1
10
6.11380690527466
20
4.34773897306758
30
0
41
1
10
6.35304556316981
20
4.42435337250853
30
0
41
1
10
6.47870505057654
20
4.45592592193174
30
0
41
1
10
6.73841480073358
20
4.51060194238073
30
0
41
1
10
6.87265472199107
20
4.53360226545777
30
0
41
1
10
7.27745646998503
20
4.59243126256752
30
0
41
1
10
7.55298864442494
20
4.61902153433616
30
0
41
1
10
7.97235585273233
20
4.64787039781226
30
0
41
1
10
8.11318868753025
20
4.65554911132693
30
0
41
1
10
8.39679397400167
20
4.66756320959212
30
0
41
1
10
8.539442309707
20
4.67187887651775
30
0
41
1
10
8.96509529508148
20
4.6801562348866
30
0
41
1
10
9.24755381833782
20
4.67961583524087
30
0
41
1
10
9.810018790897
20
4.66707310462303
30
0
41
1
10
10.0900209005563
20
4.65505117012003
30
0
41
1
10
10.5081429541745
20
4.62694033708038
30
0
41
1
10
10.6472021686371
20
4.61587203851542
30
0
41
1
10
10.9246725372926
20
4.58987286629142
30
0
41
1
10
11.0630329720914
20
4.57492805039709
30
0
41
1
10
11.4717772496766
20
4.52414823576902
30
0
41
1
10
11.7376271840849
20
4.48225183300352
30
0
41
1
10
11.996947305315
20
4.43027338435513
30
0
0
SPLINE
5
BD
100
AcDbEntity
8
1
62
256
6
ByLayer
370
18
48
1
60
0
100
AcDbSpline
70
4
71
3
72
34
73
30
40
0
40
0
40
0
40
0
40
0.0312499999999999
40
0.0312499999999999
40
0.0624999999999998
40
0.0624999999999998
40
0.125
40
0.125
40
0.1875
40
0.1875
40
0.21875
40
0.21875
40
0.25
40
0.25
40
0.375
40
0.375
40
0.4375
40
0.4375
40
0.5
40
0.5
40
0.625
40
0.625
40
0.75
40
0.75
40
0.8125
40
0.8125
40
0.875
40
0.875
40
1
40
1
40
1
40
1
41
1
10
5.53241453269786
20
2.56008811141999
30
0
41
1
10
5.5324287925572
20
2.48078579318482
30
0
41
1
10
5.53243883263679
20
2.40002950215603
30
0
41
1
10
5.53245084391904
20
2.23555804262168
30
0
41
1
10
5.5324528000807
20
2.15157439838146
30
0
41
1
10
5.53244713221355
20
1.8975801767765
30
0
41
1
10
5.53242815978166
20
1.72544017326183
30
0
41
1
10
5.53236453496658
20
1.37571084478478
30
0
41
1
10
5.53231987285821
20
1.19812109320029
30
0
41
1
10
5.53223603149871
20
0.927626997331402
30
0
41
1
10
5.53220526581961
20
0.836775870138183
30
0
41
1
10
5.53213837901455
20
0.65367817719013
30
0
41
1
10
5.53210214413872
20
0.561163977159907
30
0
41
1
10
5.5319095265256
20
0.0984250172438692
30
0
41
1
10
5.53172130666073
20
-0.269200342132223
30
0
41
1
10
5.53139901164724
20
-0.816904495085197
30
0
41
1
10
5.53128452397453
20
-0.999170493030107
30
0
41
1
10
5.53104256066547
20
-1.36103768931707
30
0
41
1
10
5.53091693404826
20
-1.53791219299862
30
0
41
1
10
5.53052573488375
20
-2.05678706560681
30
0
41
1
10
5.53024647393508
20
-2.38718046362561
30
0
41
1
10
5.52963435916445
20
-3.01572288875195
30
0
41
1
10
5.52931235009856
20
-3.30245658316756
30
0
41
1
10
5.52878817351132
20
-3.6920948628497
30
0
41
1
10
5.52860645274714
20
-3.81521340644429
30
0
41
1
10
5.52822461595039
20
-4.04745112157525
30
0
41
1
10
5.52802702983408
20
-4.15493998798388
30
0
41
1
10
5.52741417744988
20
-4.44964772596776
30
0
41
1
10
5.52697693083275
20
-4.61074138962883
30
0
41
1
10
5.52649509697517
20
-4.73579657910608
30
0
0
SPLINE
5
BE
100
AcDbEntity
8
1
62
256
6
ByLayer
370
18
48
1
60
0
100
AcDbSpline
70
4
71
4
72
10
73
5
40
0
40
0
40
0
40
0
40
0
40
1
40
1
40
1
40
1
40
1
41
1
10
15.2234106797632
20
-1.66903749332582
30
0
41
1
10
15.0022151496711
20
-2.07510909024498
30
0
41
1
10
14.7810196195789
20
-2.48118068716414
30
0
41
1
10
14.5598240894867
20
-2.8872522840833
30
0
41
1
10
14.3386285593946
20
-3.29332388100249
30
0
0
SPLINE
5
BF
100
AcDbEntity
8
1
62
256
6
ByLayer
370
18
48
1
60
0
100
AcDbSpline
70
4
71
3
72
8
73
4
40
0
40
0
40
0
40
0
40
1
40
1
40
1
40
1
41
1
10
71.1736988683132
20
-5.09601181672343
30
0
41
1
10
71.4066711439314
20
-4.51593709638775
30
0
41
1
10
71.6446113214176
20
-3.91701543489157
30
0
41
1
10
71.877976849583
20
-3.29402908724734
30
0
0
SPLINE
5
C0
100
AcDbEntity
8
1
62
256
6
ByLayer
370
13
48
1
60
0
100
AcDbSpline
70
4
71
3
72
26
73
22
40
0
40
0
40
0
40
0
40
0.162898269048638
40
0.162898269048638
40
0.244347403572956
40
0.244347403572956
40
0.325796538097274
40
0.325796538097274
40
0.48869480714591
40
0.48869480714591
40
0.651593076194546
40
0.651593076194546
40
0.692317643456704
40
0.692317643456704
40
0.733042210718863
40
0.733042210718863
40
0.814491345243179
40
0.814491345243179
40
0.977389614291813
40
0.977389614291813
40
1
40
1
40
1
40
1
41
1
10
71.0785202997081
20
-4.78947080739607
30
0
41
1
10
69.7168181827365
20
-4.58810609806801
30
0
41
1
10
68.3729637055926
20
-4.26543787544855
30
0
41
1
10
66.3557138254052
20
-3.6348972483479
30
0
41
1
10
65.6830327758244
20
-3.40035069004804
30
0
41
1
10
64.3323094768881
20
-2.88941111351392
30
0
41
1
10
63.6538084812192
20
-2.61276210037562
30
0
41
1
10
61.6059915132275
20
-1.73263166735697
30
0
41
1
10
60.2612386014461
20
-1.0948915210904
30
0
41
1
10
57.5734451484549
20
0.199347309443738
30
0
41
1
10
56.2308515730675
20
0.856869607803276
30
0
41
1
10
54.5298944878873
20
1.63968137771113
30
0
41
1
10
54.1878187364262
20
1.79470826407683
30
0
41
1
10
53.5063700958699
20
2.09706491249776
30
0
41
1
10
53.1666634900351
20
2.24448366124068
30
0
41
1
10
52.1497260028062
20
2.67427604968083
30
0
41
1
10
51.4745945934214
20
2.94396046590228
30
0
41
1
10
49.4506795692092
20
3.6908023933529
30
0
41
1
10
48.103285937703
20
4.10564196204439
30
0
41
1
10
46.5489310499025
20
4.45054327339741
30
0
41
1
10
46.3592925851246
20
4.49040389409288
30
0
41
1
10
46.1698614883913
20
4.52794553861366
30
0
0
SPLINE
5
C1
100
AcDbEntity
8
1
62
256
6
ByLayer
370
18
48
1
60
0
100
AcDbSpline
70
4
71
3
72
10
73
6
40
0
40
0
40
0
40
0
40
0.606810445486163
40
0.606810445486163
40
1
40
1
40
1
40
1
41
1
10
9.35513855158857
20
-4.9106401533295
30
0
41
1
10
8.92085029756527
20
-4.91193943796657
30
0
41
1
10
8.48671971345487
20
-4.90023471795564
30
0
41
1
10
7.77064842986695
20
-4.85980963603802
30
0
41
1
10
7.48890825393639
20
-4.8385307121514
30
0
41
1
10
7.20680374197215
20
-4.81185742578899
30
0
0
SPLINE
5
C2
100
AcDbEntity
8
1
62
256
6
ByLayer
370
13
48
1
60
0
100
AcDbSpline
70
4
71
3
72
8
73
4
40
0
40
0
40
0
40
0
40
1
40
1
40
1
40
1
41
1
10
7.2068027473006
20
-4.81185733174169
30
0
41
1
10
6.81076415770016
20
-4.77441143756889
30
0
41
1
10
6.41400751375272
20
-4.7263340305131
30
0
41
1
10
6.01604610495943
20
-4.66759700362636
30
0
0
SPLINE
5
C3
100
AcDbEntity
8
1
62
256
6
ByLayer
370
18
48
1
60
0
100
AcDbSpline
70
4
71
3
72
8
73
4
40
0
40
0
40
0
40
0
40
1
40
1
40
1
40
1
41
1
10
71.1736988683132
20
-5.09601181672343
30
0
41
1
10
71.148971041937
20
-5.07005432397182
30
0
41
1
10
71.1269037308804
20
-5.0347209217139
30
0
41
1
10
71.1073737989697
20
-4.99017718453104
30
0
0
SPLINE
5
C4
100
AcDbEntity
8
1
62
256
6
ByLayer
370
18
48
1
60
0
100
AcDbSpline
70
4
71
1
72
4
73
2
40
0
40
0
40
1
40
1
41
1
10
72.2580442404039
20
-1.06503766036795
30
0
41
1
10
72.2605692461602
20
-1.05651338379297
30
0
0
SPLINE
5
C5
100
AcDbEntity
8
1
62
256
6
ByLayer
370
18
48
1
60
0
100
AcDbSpline
70
4
71
3
72
28
73
24
40
0
40
0
40
0
40
0
40
0.25
40
0.25
40
0.375
40
0.375
40
0.499999999999999
40
0.499999999999999
40
0.562499999999999
40
0.562499999999999
40
0.624999999999999
40
0.624999999999999
40
0.687499999999999
40
0.687499999999999
40
0.749999999999999
40
0.749999999999999
40
0.874999999999999
40
0.874999999999999
40
0.937499999999999
40
0.937499999999999
40
0.968749999999999
40
0.968749999999999
40
1
40
1
40
1
40
1
41
1
10
14.3386285593946
20
-3.29332388100252
30
0
41
1
10
13.5621850178487
20
-3.0370085394637
30
0
41
1
10
12.7951622825602
20
-2.74937579715078
30
0
41
1
10
11.6606237809023
20
-2.26386703045526
30
0
41
1
10
11.2852852507738
20
-2.09223522488705
30
0
41
1
10
10.5409368590761
20
-1.72670983732442
30
0
41
1
10
10.1717807629973
20
-1.53346770670584
30
0
41
1
10
9.62374617664227
20
-1.22282378884969
30
0
41
1
10
9.44202605599503
20
-1.11577638399876
30
0
41
1
10
9.08077756691159
20
-0.893487169263153
30
0
41
1
10
8.90176304077158
20
-0.778616395088761
30
0
41
1
10
8.54855074754468
20
-0.542351243191206
30
0
41
1
10
8.37414600435028
20
-0.420754502734411
30
0
41
1
10
8.0306987000188
20
-0.169080542559243
30
0
41
1
10
7.8612893323932
20
-0.038737810536503
30
0
41
1
10
7.36502821208285
20
0.365491333205369
30
0
41
1
10
7.05266359709054
20
0.649694362060302
30
0
41
1
10
6.62454951726301
20
1.10769533950383
30
0
41
1
10
6.48866197595299
20
1.26570469176556
30
0
41
1
10
6.29829667053093
20
1.51319329866138
30
0
41
1
10
6.23698505865121
20
1.59767548103486
30
0
41
1
10
6.12183157553571
20
1.7674940304826
30
0
41
1
10
6.06771454626647
20
1.85316134844862
30
0
41
1
10
6.01744435673419
20
1.93965610450246
30
0
0
SPLINE
5
C6
100
AcDbEntity
8
1
62
256
6
ByLayer
370
18
48
1
60
0
100
AcDbSpline
70
4
71
3
72
8
73
4
40
0
40
0
40
0
40
0
40
1
40
1
40
1
40
1
41
1
10
71.8945641368878
20
2.29485019915089
30
0
41
1
10
71.893934842452
20
2.31780350131251
30
0
41
1
10
71.8917844289846
20
2.34092812958409
30
0
41
1
10
71.8882924166796
20
2.36380278843237
30
0
0
SPLINE
5
C7
100
AcDbEntity
8
1
62
256
6
ByLayer
370
18
48
1
60
0
100
AcDbSpline
70
4
71
3
72
14
73
10
40
0
40
0
40
0
40
0
40
0.408080310181994
40
0.408080310181994
40
0.612120465272992
40
0.612120465272992
40
0.81616062036399
40
0.81616062036399
40
1
40
1
40
1
40
1
41
1
10
5.90678161416801
20
-4.85116689051966
30
0
41
1
10
6.58904305500369
20
-4.9407016903352
30
0
41
1
10
7.27054872847123
20
-4.99853015536763
30
0
41
1
10
8.29278349271317
20
-5.03603298400697
30
0
41
1
10
8.63401215798896
20
-5.04034432476303
30
0
41
1
10
9.31539204620472
20
-5.03256967496401
30
0
41
1
10
9.65554374638111
20
-5.02049840905744
30
0
41
1
10
10.3017722246784
20
-4.9821442234954
30
0
41
1
10
10.6079095485214
20
-4.95739114907659
30
0
41
1
10
10.9141217284274
20
-4.9261472347267
30
0
0
SPLINE
5
C8
100
AcDbEntity
8
1
62
256
6
ByLayer
370
18
48
1
60
0
100
AcDbSpline
70
4
71
3
72
47
73
43
40
0
40
0
40
0
40
0
40
0.0475863854768733
40
0.0475863854768733
40
0.0816011574241268
40
0.0816011574241268
40
0.11561592937138
40
0.11561592937138
40
0.183645473265889
40
0.183645473265889
40
0.251675017160397
40
0.251675017160397
40
0.319704561054906
40
0.319704561054906
40
0.387734104949414
40
0.387734104949414
40
0.455763648843922
40
0.455763648843922
40
0.489778420791177
40
0.489778420791177
40
0.523793192738431
40
0.523793192738431
40
0.591822736632939
40
0.591822736632939
40
0.625837508580194
40
0.625837508580194
40
0.659852280527448
40
0.659852280527448
40
0.727881824421957
40
0.727881824421957
40
0.761896596369213
40
0.761896596369213
40
0.795911368316468
40
0.863940912210979
40
0.863940912210979
40
0.897955684158234
40
0.897955684158234
40
0.93197045610549
40
0.93197045610549
40
0.965985228052745
40
0.965985228052745
40
1
40
1
40
1
40
1
41
1
10
41.1975141340116
20
5.09630843339261
30
0
41
1
10
41.6721927092139
20
5.09706101759764
30
0
41
1
10
42.1463729863368
20
5.08172248191451
30
0
41
1
10
42.9602001617521
20
5.02798900816879
30
0
41
1
10
43.2996481641481
20
4.99742779573521
30
0
41
1
10
43.9795414206661
20
4.92007219118884
30
0
41
1
10
44.3197838062221
20
4.87328318843555
30
0
41
1
10
45.3382521491969
20
4.70984540024267
30
0
41
1
10
46.0156462112909
20
4.56986358687288
30
0
41
1
10
47.3725537821639
20
4.2324045921286
30
0
41
1
10
48.0533859049852
20
4.03428816913703
30
0
41
1
10
49.4105216570634
20
3.58979358411756
30
0
41
1
10
50.0876798978554
20
3.34308264929442
30
0
41
1
10
51.4445816268271
20
2.80873389026075
30
0
41
1
10
52.1252651847219
20
2.52053753119262
30
0
41
1
10
53.4815448197641
20
1.91701411697935
30
0
41
1
10
54.1585660580201
20
1.60117785046538
30
0
41
1
10
55.1763945706358
20
1.11385518464664
30
0
41
1
10
55.5164471549559
20
0.948962394845552
30
0
41
1
10
56.1957293252684
20
0.616661746175339
30
0
41
1
10
56.534805438639
20
0.449401931740994
30
0
41
1
10
57.5514661252825
20
-0.0534169778170224
30
0
41
1
10
58.2284346947854
20
-0.390113769095848
30
0
41
1
10
59.2463898947999
20
-0.889853166703034
30
0
41
1
10
59.5864920706246
20
-1.05571491894551
30
0
41
1
10
60.2652490206661
20
-1.38295463799685
30
0
41
1
10
60.6041255251454
20
-1.54446885849379
30
0
41
1
10
61.620246046974
20
-2.02078319077486
30
0
41
1
10
62.2970944093129
20
-2.32713698892465
30
0
41
1
10
63.3152533971602
20
-2.76289362502712
30
0
41
1
10
63.6552097456807
20
-2.90420300481094
30
0
41
1
10
64.3333644018147
20
-3.17642949822772
30
0
41
1
10
65.3492283837119
20
-3.56968515877486
30
0
41
1
10
66.3640248330787
20
-3.9131263036173
30
0
41
1
10
67.381815548941
20
-4.21796500870678
30
0
41
1
10
67.7216915826382
20
-4.31308403727374
30
0
41
1
10
68.3996242280274
20
-4.48872208312949
30
0
41
1
10
68.7381151692564
20
-4.56937209583373
30
0
41
1
10
69.4148460479756
20
-4.71572939372376
30
0
41
1
10
69.753082752525
20
-4.78144380077043
30
0
41
1
10
70.4298555300656
20
-4.89748178640099
30
0
41
1
10
70.7681947172268
20
-4.94790417365994
30
0
41
1
10
71.1073737989697
20
-4.99017718453106
30
0
0
SPLINE
5
C9
100
AcDbEntity
8
1
62
256
6
ByLayer
370
18
48
1
60
0
100
AcDbSpline
70
4
71
3
72
10
73
6
40
0
40
0
40
0
40
0
40
0.5
40
0.5
40
1
40
1
40
1
40
1
41
1
10
11.9969473053149
20
4.43027338435516
30
0
41
1
10
13.0045127730626
20
4.22831570487864
30
0
41
1
10
14.0098608547046
20
3.98555715725416
30
0
41
1
10
16.0141855726257
20
3.41978967628072
30
0
41
1
10
17.0131775003267
20
3.09679222727547
30
0
41
1
10
18.0083940634635
20
2.72666556786115
30
0
0
SPLINE
5
CA
100
AcDbEntity
8
1
62
256
6
ByLayer
370
18
48
1
60
0
100
AcDbSpline
70
4
71
3
72
16
73
12
40
0
40
0
40
0
40
0
40
0.250000000000004
40
0.250000000000004
40
0.500000000000009
40
0.500000000000009
40
0.625000000000007
40
0.625000000000007
40
0.750000000000004
40
0.750000000000004
40
1
40
1
40
1
40
1
41
1
10
72.2605692461476
20
-1.05651338380269
30
0
41
1
10
72.3152249399932
20
-1.01428068068307
30
0
41
1
10
72.3725403671425
20
-0.955214366295223
30
0
41
1
10
72.4928389936755
20
-0.805890256890422
30
0
41
1
10
72.5563922567592
20
-0.714458293278369
30
0
41
1
10
72.6515789416263
20
-0.561023432442681
30
0
41
1
10
72.6834464363676
20
-0.50697584380174
30
0
41
1
10
72.7474468358403
20
-0.393249398299105
30
0
41
1
10
72.7796966877503
20
-0.333341623352283
30
0
41
1
10
72.8760061426726
20
-0.146704996313389
30
0
41
1
10
72.9386231065321
20
-0.0151847100804048
30
0
41
1
10
72.9995893193085
20
0.1228187544165
30
0
0
SPLINE
5
CB
100
AcDbEntity
8
1
62
256
6
ByLayer
370
13
48
1
60
0
100
AcDbSpline
70
4
71
3
72
10
73
6
40
0
40
0
40
0
40
0
40
0.5
40
0.5
40
1
40
1
40
1
40
1
41
1
10
5.55940807536857
20
-4.72298208106693
30
0
41
1
10
5.6309378822134
20
-4.69633690937857
30
0
41
1
10
5.70633434880293
20
-4.67836719617495
30
0
41
1
10
5.85895674622952
20
-4.66001578644818
30
0
41
1
10
5.93678444272615
20
-4.65935681325212
30
0
41
1
10
6.01604610495943
20
-4.66759700362636
30
0
0
SPLINE
5
CC
100
AcDbEntity
8
1
62
256
6
ByLayer
370
18
48
1
60
0
100
AcDbSpline
70
4
71
3
72
10
73
6
40
0
40
0
40
0
40
0
40
0.5
40
0.5
40
1
40
1
40
1
40
1
41
1
10
71.8882922769484
20
2.36380277605144
30
0
41
1
10
71.8642210608273
20
2.52148293523842
30
0
41
1
10
71.8557439435318
20
2.67731956793523
30
0
41
1
10
71.8555879261862
20
2.98700695395979
30
0
41
1
10
71.8641536968394
20
3.14082878327452
30
0
41
1
10
71.8779768495831
20
3.29402908724717
30
0
0
SPLINE
5
CD
100
AcDbEntity
8
1
62
256
6
ByLayer
370
18
48
1
60
0
100
AcDbSpline
70
4
71
3
72
12
73
8
40
0
40
0
40
0
40
0
40
0.249999999999991
40
0.249999999999991
40
0.499999999999983
40
0.499999999999983
40
1
40
1
40
1
40
1
41
1
10
5.54019216267395
20
-4.75868670983934
30
0
41
1
10
5.55521660609926
20
-4.77130227949485
30
0
41
1
10
5.57884892940814
20
-4.7817204363914
30
0
41
1
10
5.63396889620526
20
-4.80053020091287
30
0
41
1
10
5.6646867257038
20
-4.80850123150717
30
0
41
1
10
5.76179291436316
20
-4.83010707206242
30
0
41
1
10
5.83316167214173
20
-4.84150556954035
30
0
41
1
10
5.90678161416804
20
-4.85116689051972
30
0
0
SPLINE
5
CE
100
AcDbEntity
8
1
62
256
6
ByLayer
370
18
48
1
60
0
100
AcDbSpline
70
4
71
3
72
8
73
4
40
0
40
0
40
0
40
0
40
1
40
1
40
1
40
1
41
1
10
72.4236985038062
20
1.6991307297786
30
0
41
1
10
72.2407497077902
20
2.23040652746408
30
0
41
1
10
72.0588410890084
20
2.76203883321153
30
0
41
1
10
71.8779768495831
20
3.29402908724714
30
0
0
SPLINE
5
CF
100
AcDbEntity
8
1
62
256
6
ByLayer
370
18
48
1
60
0
100
AcDbSpline
70
4
71
3
72
20
73
16
40
0
40
0
40
0
40
0
40
0.125000000000001
40
0.125000000000001
40
0.250000000000003
40
0.250000000000003
40
0.375000000000004
40
0.375000000000004
40
0.500000000000005
40
0.500000000000005
40
0.750000000000003
40
0.750000000000003
40
0.875000000000001
40
0.875000000000001
40
1
40
1
40
1
40
1
41
1
10
72.2595109607982
20
-1.05544956707823
30
0
41
1
10
72.2024107295679
20
-1.07029251380231
30
0
41
1
10
72.1472468906307
20
-1.0724249019859
30
0
41
1
10
72.0402321104578
20
-1.05494368177898
30
0
41
1
10
71.9883199294875
20
-1.03525551322434
30
0
41
1
10
71.8878433083192
20
-0.975848661021985
30
0
41
1
10
71.8404752966903
20
-0.936890839654922
30
0
41
1
10
71.7506143845031
20
-0.843256902235879
30
0
41
1
10
71.708025386678
20
-0.788394459196553
30
0
41
1
10
71.5875908266041
20
-0.603328886953449
30
0
41
1
10
71.5190711850353
20
-0.456667198551344
30
0
41
1
10
71.4301121206839
20
-0.209333866094909
30
0
41
1
10
71.4027652184172
20
-0.122072972277351
30
0
41
1
10
71.3527423898218
20
0.0606183126576809
30
0
41
1
10
71.3303489690632
20
0.154960542664412
30
0
41
1
10
71.3103315286234
20
0.252022348907644
30
0
0
SPLINE
5
D0
100
AcDbEntity
8
1
62
256
6
ByLayer
370
13
48
1
60
0
100
AcDbSpline
70
4
71
3
72
24
73
20
40
0
40
0
40
0
40
0
40
0.094915811509638
40
0.131932632181649
40
0.168949452853661
40
0.242983094197684
40
0.279999914869695
40
0.317016735541706
40
0.391050376885729
40
0.428067197557741
40
0.465084018229751
40
0.539117659573774
40
0.576134480245787
40
0.613151300917797
40
0.68718494226182
40
0.761218583605843
40
0.835252224949866
40
0.983319507637911
40
1
40
1
40
1
40
1
41
1
10
71.8882924185259
20
2.36380277633768
30
0
41
1
10
71.743063672115
20
2.36264006291082
30
0
41
1
10
71.5412150309459
20
2.3601003054394
30
0
41
1
10
71.2827604581475
20
2.35518183257244
30
0
41
1
10
71.0561816045262
20
2.34984647041275
30
0
41
1
10
70.8296197619779
20
2.34328297698781
30
0
41
1
10
70.6030730612646
20
2.3354919025883
30
0
41
1
10
70.3764936153564
20
2.32678592068689
30
0
41
1
10
70.1499318886991
20
2.31686202247576
30
0
41
1
10
69.9233857279385
20
2.30572194217839
30
0
41
1
10
69.6968066831289
20
2.29368744684055
30
0
41
1
10
69.470245269131
20
2.28044843757828
30
0
41
1
10
69.2436991501876
20
2.266007909151
30
0
41
1
10
69.0171196020943
20
2.25069581974054
30
0
41
1
10
68.7338936791082
20
2.23003653617678
30
0
41
1
10
68.394045897683
20
2.20287182448013
30
0
41
1
10
67.9408511157867
20
2.16340690064336
30
0
41
1
10
67.5755152137899
20
2.12791629233862
30
0
41
1
10
67.3234840710386
20
2.10157842129533
30
0
41
1
10
67.2979656479556
20
2.09889200065666
30
0
0
SPLINE
5
D1
100
AcDbEntity
8
1
62
256
6
ByLayer
370
13
48
1
60
0
100
AcDbSpline
70
4
71
3
72
27
73
23
40
0
40
0
40
0
40
0
40
0.0215388974957535
40
0.130256797774003
40
0.157436272843565
40
0.184615747913128
40
0.238974698052253
40
0.266154173121815
40
0.293333648191377
40
0.347692598330502
40
0.402051548469627
40
0.456410498608752
40
0.537948923817439
40
0.565128398887002
40
0.619487349026127
40
0.673846299165252
40
0.7825641994435
40
0.809743674513063
40
0.836923149582625
40
0.89128209972175
40
0.945641049860875
40
1
40
1
40
1
40
1
41
1
10
23.3294548861614
20
0.0402197425188433
30
0
41
1
10
23.2845635955065
20
0.0504611617435841
30
0
41
1
10
23.0130865500295
20
0.112400089886961
30
0
41
1
10
22.68502514602
20
0.187382485474188
30
0
41
1
10
22.3452604818938
20
0.264956602566798
30
0
41
1
10
22.1186816739637
20
0.316323027935453
30
0
41
1
10
21.8921201996868
20
0.367592077573931
30
0
41
1
10
21.6655739223302
20
0.418727239165662
30
0
41
1
10
21.4389944897141
20
0.469574651713543
30
0
41
1
10
21.1557691173701
20
0.532825196199155
30
0
41
1
10
20.8159218260112
20
0.608256261032863
30
0
41
1
10
20.4194076648981
20
0.695359751621594
30
0
41
1
10
20.0795926567703
20
0.769306847542367
30
0
41
1
10
19.7397726213917
20
0.842407519337285
30
0
41
1
10
19.4565455024679
20
0.902583058112213
30
0
41
1
10
19.0033514941042
20
0.997406881697343
30
0
41
1
10
18.6069008637499
20
1.07892270517473
30
0
41
1
10
18.2671360342443
20
1.1475228191708
30
0
41
1
10
18.0405568566469
20
1.19254159946774
30
0
41
1
10
17.7573313911211
20
1.24801910332931
30
0
41
1
10
17.4174871580952
20
1.31335942365561
30
0
41
1
10
17.1909622134277
20
1.35612647495913
30
0
41
1
10
17.0776977418517
20
1.3772652862844
30
0
0
SPLINE
5
D2
100
AcDbEntity
8
1
62
256
6
ByLayer
370
13
48
1
60
0
100
AcDbSpline
70
4
71
3
72
31
73
27
40
0
40
0
40
0
40
0
40
0.125
40
0.125
40
0.1875
40
0.1875
40
0.25
40
0.25
40
0.3125
40
0.3125
40
0.375
40
0.4375
40
0.4375
40
0.5
40
0.5
40
0.625
40
0.625
40
0.65625
40
0.65625
40
0.6875
40
0.6875
40
0.75
40
0.75
40
0.875
40
0.875
40
1
40
1
40
1
40
1
41
1
10
6.0160461049594
20
-4.66759700362636
30
0
41
1
10
6.01615222350369
20
-4.56232051269018
30
0
41
1
10
6.016244767904
20
-4.42466630513843
30
0
41
1
10
6.01637199523074
20
-4.17073490940643
30
0
41
1
10
6.01641259643739
20
-4.07771057031741
30
0
41
1
10
6.01649029613912
20
-3.87737123364371
30
0
41
1
10
6.01652738010404
20
-3.77021889017277
30
0
41
1
10
6.01659928459216
20
-3.5419486176346
30
0
41
1
10
6.01663405082687
20
-3.42090374583691
30
0
41
1
10
6.01670123324743
20
-3.16919620698002
30
0
41
1
10
6.01676638315524
20
-2.9068923997414
30
0
41
1
10
6.01682925559842
20
-2.62367922437087
30
0
41
1
10
6.0168916143777
20
-2.32981207224103
30
0
41
1
10
6.01692268893331
20
-2.17673079729158
30
0
41
1
10
6.01701373135063
20
-1.71100394893756
30
0
41
1
10
6.01707216709184
20
-1.38989056564097
30
0
41
1
10
6.01714219110767
20
-0.97534729057179
30
0
41
1
10
6.01715603242846
20
-0.891774409163304
30
0
41
1
10
6.01718333192869
20
-0.723276331671201
30
0
41
1
10
6.01719682337466
20
-0.638128662421934
30
0
41
1
10
6.01723619442436
20
-0.383301364970862
30
0
41
1
10
6.01726107803441
20
-0.213673472961347
30
0
41
1
10
6.01733068191655
20
0.294460637675655
30
0
41
1
10
6.01737058665788
20
0.632738131136051
30
0
41
1
10
6.01742804915529
20
1.30514064540344
30
0
41
1
10
6.01744462901328
20
1.6285560650212
30
0
41
1
10
6.01744435672123
20
1.93965610451335
30
0
0
SPLINE
5
D3
100
AcDbEntity
8
1
62
256
6
ByLayer
370
13
48
1
60
0
100
AcDbSpline
70
4
71
3
72
8
73
4
40
0
40
0
40
0
40
0
40
1
40
1
40
1
40
1
41
1
10
5.52649509695351
20
-4.73579657911782
30
0
41
1
10
5.5372910199911
20
-4.7314081466269
30
0
41
1
10
5.54825982815549
20
-4.72713485281508
30
0
41
1
10
5.55940807536857
20
-4.72298208106693
30
0
0
SPLINE
5
D4
100
AcDbEntity
8
1
62
256
6
ByLayer
370
18
48
1
60
0
100
AcDbSpline
70
4
71
3
72
8
73
4
40
0
40
0
40
0
40
0
40
1
40
1
40
1
40
1
41
1
10
71.1736988683132
20
5.09601181672346
30
0
41
1
10
71.406657854751
20
4.51597018494991
30
0
41
1
10
71.6445976280685
20
3.91705199028857
30
0
41
1
10
71.8779768495831
20
3.29402908724711
30
0
0
SPLINE
5
D5
100
AcDbEntity
8
1
62
256
6
ByLayer
370
18
48
1
60
0
100
AcDbSpline
70
4
71
3
72
8
73
4
40
0
40
0
40
0
40
0
40
1
40
1
40
1
40
1
41
1
10
72.9995893193086
20
0.1228187544165
30
0
41
1
10
72.7984594177034
20
0.63940798853065
30
0
41
1
10
72.6075514888033
20
1.16522920438914
30
0
41
1
10
72.4236985038063
20
1.6991307297786
30
0
0
SPLINE
5
D6
100
AcDbEntity
8
1
62
256
6
ByLayer
370
18
48
1
60
0
100
AcDbSpline
70
4
71
3
72
22
73
18
40
0
40
0
40
0
40
0
40
0.0649422896253426
40
0.0649422896253426
40
0.251953831700272
40
0.251953831700272
40
0.4389653737752
40
0.4389653737752
40
0.625976915850129
40
0.625976915850129
40
0.719482686887597
40
0.719482686887597
40
0.812988457925065
40
0.812988457925065
40
0.906494228962532
40
0.906494228962532
40
1
40
1
40
1
40
1
41
1
10
70.9709837292118
20
0.427427066727518
30
0
41
1
10
70.9902800982564
20
0.445996279602952
30
0
41
1
10
71.0103161855022
20
0.466443495716959
30
0
41
1
10
71.0908968542566
20
0.553165529655843
30
0
41
1
10
71.1549777058381
20
0.6314356370018
30
0
41
1
10
71.2888164463328
20
0.813217491082099
30
0
41
1
10
71.3596106708853
20
0.918327799110727
30
0
41
1
10
71.4992774994967
20
1.14637873158861
30
0
41
1
10
71.5687712089816
20
1.26971865747106
30
0
41
1
10
71.6684318723409
20
1.47037883981548
30
0
41
1
10
71.7005446845056
20
1.5393313167842
30
0
41
1
10
71.7604185897965
20
1.68022680768908
30
0
41
1
10
71.7883293910154
20
1.75238938574196
30
0
41
1
10
71.8373743664857
20
1.9010036431103
30
0
41
1
10
71.858691347568
20
1.97808663971256
30
0
41
1
10
71.8883681713247
20
2.13475566204826
30
0
41
1
10
71.8967778388777
20
2.21410616617638
30
0
41
1
10
71.8945641368878
20
2.29485019915092
30
0
0
SPLINE
5
D7
100
AcDbEntity
8
1
62
256
6
ByLayer
370
13
48
1
60
0
100
AcDbSpline
70
4
71
3
72
85
73
81
40
0
40
0
40
0
40
0
40
0.0007510959486705
40
0.0330024224580418
40
0.0410652540853849
40
0.0491280857127272
40
0.0652537489674137
40
0.0733165805947569
40
0.0813794122221
40
0.0975050754767857
40
0.105567907104129
40
0.11363073873147
40
0.129756401986158
40
0.1378192336135
40
0.145882065240844
40
0.162007728495529
40
0.178133391750214
40
0.194259055004902
40
0.226510381514273
40
0.234573213141616
40
0.242636044768959
40
0.258761708023645
40
0.266824539650988
40
0.274887371278331
40
0.291013034533017
40
0.29907586616036
40
0.307138697787703
40
0.323264361042389
40
0.331327192669732
40
0.339390024297076
40
0.355515687551761
40
0.371641350806447
40
0.387767014061133
40
0.420018340570505
40
0.428081172197847
40
0.43614400382519
40
0.452269667079877
40
0.46033249870722
40
0.468395330334562
40
0.484520993589248
40
0.492583825216592
40
0.500646656843935
40
0.51677232009862
40
0.524835151725963
40
0.532897983353306
40
0.549023646607992
40
0.565149309862678
40
0.581274973117364
40
0.613526299626736
40
0.621589131254079
40
0.629651962881422
40
0.645777626136108
40
0.653840457763451
40
0.661903289390794
40
0.67802895264548
40
0.686091784272823
40
0.694154615900166
40
0.710280279154852
40
0.718343110782195
40
0.726405942409538
40
0.742531605664224
40
0.750594437291567
40
0.75865726891891
40
0.774782932173596
40
0.782845763800939
40
0.790908595428282
40
0.807034258682967
40
0.815097090310311
40
0.823159921937654
40
0.839285585192339
40
0.847348416819683
40
0.855411248447026
40
0.871536911701711
40
0.887662574956397
40
0.903788238211084
40
0.927976733093113
40
0.936039564720455
40
0.952165227975142
40
0.968290891229827
40
1
40
1
40
1
40
1
41
1
10
55.8356138751163
20
0.0387595902211615
30
0
41
1
10
55.830337063654
20
0.0399641595264199
30
0
41
1
10
55.5984799075652
20
0.0928936465650451
30
0
41
1
10
55.3100248010647
20
0.15886904534139
30
0
41
1
10
54.9702604952694
20
0.236533566388203
30
0
41
1
10
54.7436816780808
20
0.287972676418036
30
0
41
1
10
54.5171198900337
20
0.339329329366819
30
0
41
1
10
54.2905732233967
20
0.39056688645357
30
0
41
1
10
54.0639937483725
20
0.441527484401007
30
0
41
1
10
53.8374319083145
20
0.492323316368072
30
0
41
1
10
53.6108856087543
20
0.542918420044969
30
0
41
1
10
53.3843064895282
20
0.593176609852804
30
0
41
1
10
53.1577450837422
20
0.643189757648485
30
0
41
1
10
52.9311990246737
20
0.692922674075788
30
0
41
1
10
52.704619517199
20
0.742261110473293
30
0
41
1
10
52.4213936190928
20
0.80344117913944
30
0
41
1
10
52.0815458434364
20
0.876101514166805
30
0
41
1
10
51.6283510777059
20
0.971417630337782
30
0
41
1
10
51.2319005861186
20
1.05341115984697
30
0
41
1
10
50.8921361589873
20
1.12245312278784
30
0
41
1
10
50.6655572166017
20
1.16777583445164
30
0
41
1
10
50.4389952668571
20
1.21254964559517
30
0
41
1
10
50.2124484444645
20
1.25674170827932
30
0
41
1
10
49.9858687928238
20
1.30032719392997
30
0
41
1
10
49.759306794734
20
1.34329335673374
30
0
41
1
10
49.5327604272571
20
1.38560847176947
30
0
41
1
10
49.3061812767265
20
1.42727040303148
30
0
41
1
10
49.079619870864
20
1.46824501002416
30
0
41
1
10
48.8530738143383
20
1.50850108493742
30
0
41
1
10
48.6264943288807
20
1.54805979581852
30
0
41
1
10
48.3432684654606
20
1.59647201427631
30
0
41
1
10
48.0034205225543
20
1.65296132630402
30
0
41
1
10
47.5502253111072
20
1.72559495073528
30
0
41
1
10
47.1537744771576
20
1.78632367269884
30
0
41
1
10
46.8140101986551
20
1.83615720618454
30
0
41
1
10
46.5874314144256
20
1.86841643015177
30
0
41
1
10
46.3608696786543
20
1.89974679057897
30
0
41
1
10
46.134323060203
20
1.93012291058625
30
0
41
1
10
45.9077436002684
20
1.95965600690041
30
0
41
1
10
45.6811817313622
20
1.98820973411469
30
0
41
1
10
45.4546353863304
20
2.01576007814884
30
0
41
1
10
45.2280562501697
20
2.04243983840413
30
0
41
1
10
45.0014948632263
20
2.06809337797699
30
0
41
1
10
44.7749488476107
20
2.09269816663729
30
0
41
1
10
44.5483693792052
20
2.11640823243906
30
0
41
1
10
44.2651435247051
20
2.14462253997828
30
0
41
1
10
43.9252957967917
20
2.17626586136816
30
0
41
1
10
43.4721011005158
20
2.21505823569083
30
0
41
1
10
43.0756506712613
20
2.2451903055734
30
0
41
1
10
42.7358863043377
20
2.26816176016706
30
0
41
1
10
42.5093074146051
20
2.28240385369994
30
0
41
1
10
42.2827455326346
20
2.29548099756235
30
0
41
1
10
42.0561987694057
20
2.30737882242425
30
0
41
1
10
41.8296191412637
20
2.31832711547352
30
0
41
1
10
41.6030571177294
20
2.32808700135362
30
0
41
1
10
41.3765107013772
20
2.33664558874383
30
0
41
1
10
41.1499315247267
20
2.34425048583137
30
0
41
1
10
40.9233701179728
20
2.35064937945267
30
0
41
1
10
40.6968241097133
20
2.35583297317566
30
0
41
1
10
40.470244804305
20
2.36006401200325
30
0
41
1
10
40.2436825376094
20
2.36307728390505
30
0
41
1
10
40.0171353801856
20
2.36486456140952
30
0
41
1
10
39.790555391569
20
2.36570312531475
30
0
41
1
10
39.5639930664484
20
2.36531592091822
30
0
41
1
10
39.337446458424
20
2.36369713126751
30
0
41
1
10
39.110867207415
20
2.36113717602831
30
0
41
1
10
38.8843059243125
20
2.35734710654611
30
0
41
1
10
38.65776029746
20
2.35232158266851
30
0
41
1
10
38.431181547978
20
2.34636607311853
30
0
41
1
10
38.2046200943928
20
2.3391836233742
30
0
41
1
10
37.9780738118393
20
2.33077501791538
30
0
41
1
10
37.7514943915474
20
2.32145476728473
30
0
41
1
10
37.4682690591822
20
2.30823981247854
30
0
41
1
10
37.1284218363634
20
2.28994303647462
30
0
41
1
10
36.7319077563528
20
2.2656713562539
30
0
41
1
10
36.392092824224
20
2.24189904043001
30
0
41
1
10
36.0522728719689
20
2.21569645149347
30
0
41
1
10
35.769045826894
20
2.19229658720357
30
0
41
1
10
35.3196615231876
20
2.15201975810098
30
0
41
1
10
34.9836545228905
20
2.11857414729104
30
0
41
1
10
34.7609453219779
20
2.09496552310819
30
0
0
SPLINE
5
D8
100
AcDbEntity
8
1
62
256
6
ByLayer
370
18
48
1
60
0
100
AcDbSpline
70
4
71
3
72
56
73
52
40
0
40
0
40
0
40
0
40
0.0079440280943804
40
0.0079440280943804
40
0.0373644290431947
40
0.0373644290431947
40
0.0962052309408227
40
0.0962052309408227
40
0.125625631889636
40
0.125625631889636
40
0.15504603283845
40
0.15504603283845
40
0.213886834736077
40
0.213886834736077
40
0.243307235684891
40
0.243307235684891
40
0.272727636633704
40
0.272727636633704
40
0.331568438531331
40
0.331568438531331
40
0.360988839480145
40
0.360988839480145
40
0.390409240428959
40
0.390409240428959
40
0.449250042326588
40
0.449250042326588
40
0.508090844224217
40
0.508090844224217
40
0.566931646121846
40
0.566931646121846
40
0.625772448019475
40
0.625772448019475
40
0.655192848968289
40
0.655192848968289
40
0.684613249917103
40
0.684613249917103
40
0.74345405181473
40
0.74345405181473
40
0.772874452763544
40
0.772874452763544
40
0.802294853712357
40
0.802294853712357
40
0.861135655609985
40
0.861135655609985
40
0.890556056558799
40
0.890556056558799
40
0.919976457507612
40
0.919976457507612
40
0.97881725940524
40
0.97881725940524
40
1
40
1
40
1
40
1
41
1
10
8.69868950782381
20
5.03781293184042
30
0
41
1
10
8.79074227839709
20
5.03795836368044
30
0
41
1
10
8.8827758947119
20
5.03750618663375
30
0
41
1
10
9.31546766977229
20
5.03256772075238
30
0
41
1
10
9.65562686013362
20
5.02049491773397
30
0
41
1
10
10.6754755207099
20
4.959961745393
30
0
41
1
10
11.3546399479319
20
4.88720886095396
30
0
41
1
10
12.3759594330305
20
4.73085975882231
30
0
41
1
10
12.7171692767922
20
4.67082280755435
30
0
41
1
10
13.3980535498471
20
4.53599418097457
30
0
41
1
10
13.7380065547298
20
4.46114743867813
30
0
41
1
10
14.7574125879483
20
4.21533274246124
30
0
41
1
10
15.4364916381949
20
4.02317725348166
30
0
41
1
10
16.4579042691246
20
3.69647806066308
30
0
41
1
10
16.7989424981169
20
3.58118794952821
30
0
41
1
10
17.4793846688492
20
3.33986128368326
30
0
41
1
10
17.8191666399528
20
3.21365696638117
30
0
41
1
10
18.8381911188547
20
2.8200243127915
30
0
41
1
10
19.5172015193345
20
2.53772714475718
30
0
41
1
10
20.5387623830568
20
2.09039793008381
30
0
41
1
10
20.8794700363549
20
1.93753014102197
30
0
41
1
10
21.5595161022219
20
1.62670354110673
30
0
41
1
10
21.8991806283455
20
1.46854213225561
30
0
41
1
10
22.9179330276236
20
0.987463113688591
30
0
41
1
10
23.5968682838203
20
0.658120480593652
30
0
41
1
10
24.9592990738749
20
-0.0077783019898163
30
0
41
1
10
25.6386312559982
20
-0.341817173323449
30
0
41
1
10
26.9964857281476
20
-1.0018534034825
30
0
41
1
10
27.6759162748626
20
-1.32779017357555
30
0
41
1
10
29.0378065237227
20
-1.96059758554625
30
0
41
1
10
29.7164804825874
20
-2.26522892214248
30
0
41
1
10
30.7346329840719
20
-2.69807135347926
30
0
41
1
10
31.074073489325
20
-2.83827617562289
30
0
41
1
10
31.7536911270893
20
-3.10942751935272
30
0
41
1
10
32.0942419996312
20
-3.24053528076908
30
0
41
1
10
33.1148935662279
20
-3.61722443864829
30
0
41
1
10
33.7931992244219
20
-3.84580375820923
30
0
41
1
10
34.8111789334687
20
-4.14989938231389
30
0
41
1
10
35.1506198583837
20
-4.24477152378836
30
0
41
1
10
35.8303084678123
20
-4.42079291560435
30
0
41
1
10
36.1709326372214
20
-4.50202174392163
30
0
41
1
10
37.1908323201632
20
-4.7230014242368
30
0
41
1
10
37.8688040593353
20
-4.84032604152961
30
0
41
1
10
38.8866444658854
20
-4.96880051226762
30
0
41
1
10
39.2260953228561
20
-5.00370148056425
30
0
41
1
10
39.9058908679639
20
-5.05732473135305
30
0
41
1
10
40.2464357662391
20
-5.07602474732244
30
0
41
1
10
41.2656353441116
20
-5.10728684486566
30
0
41
1
10
41.9432868605336
20
-5.09515742546188
30
0
41
1
10
42.8660340182175
20
-5.03419699081743
30
0
41
1
10
43.1104004520847
20
-5.01382855409065
30
0
41
1
10
43.3549837483493
20
-4.98924557994351
30
0
0
SPLINE
5
D9
100
AcDbEntity
8
1
62
256
6
ByLayer
370
18
48
1
60
0
100
AcDbSpline
70
4
71
3
72
50
73
46
40
0
40
0
40
0
40
0
40
0.037537542010643
40
0.037537542010643
40
0.075075084021286
40
0.075075084021286
40
0.112612626031929
40
0.112612626031929
40
0.150150168042572
40
0.150150168042572
40
0.187687710053215
40
0.187687710053215
40
0.225225252063858
40
0.225225252063858
40
0.262762794074501
40
0.262762794074501
40
0.300300336085144
40
0.300300336085144
40
0.337837878095787
40
0.337837878095787
40
0.37537542010643
40
0.37537542010643
40
0.412912962117073
40
0.412912962117073
40
0.450450504127716
40
0.450450504127716
40
0.487988046138359
40
0.487988046138359
40
0.525525588149002
40
0.525525588149002
40
0.600600672170288
40
0.600600672170288
40
0.638138214180931
40
0.638138214180931
40
0.675675756191574
40
0.675675756191574
40
0.750750840212858
40
0.750750840212858
40
0.825825924234143
40
0.825825924234143
40
0.863363466244784
40
0.863363466244784
40
0.900901008255425
40
0.900901008255425
40
1
40
1
40
1
40
1
41
1
10
18.0083940634635
20
2.72666556786115
30
0
41
1
10
18.286316836887
20
2.61237191037478
30
0
41
1
10
18.5639097683537
20
2.49540500652813
30
0
41
1
10
19.118798297173
20
2.25683526008297
30
0
41
1
10
19.3958092518494
20
2.13470685133086
30
0
41
1
10
19.949831515694
20
1.88636207419313
30
0
41
1
10
20.2269841221496
20
1.76042413768485
30
0
41
1
10
20.7813342085789
20
1.50457955817828
30
0
41
1
10
21.0584103103037
20
1.37442322977535
30
0
41
1
10
21.6133687251699
20
1.11159991217963
30
0
41
1
10
21.8914306455666
20
0.978647118446645
30
0
41
1
10
22.4470350904323
20
0.711087368401621
30
0
41
1
10
22.7244140179374
20
0.57641834052356
30
0
41
1
10
23.2788414049845
20
0.306362622916765
30
0
41
1
10
23.5556693843058
20
0.170522794598128
30
0
41
1
10
24.1095532658741
20
-0.10072685809925
30
0
41
1
10
24.3866906152072
20
-0.23596912701754
30
0
41
1
10
24.9409889780536
20
-0.506443321528508
30
0
41
1
10
25.2181006965112
20
-0.641776743634438
30
0
41
1
10
25.7732871345196
20
-0.910502037787722
30
0
41
1
10
26.0513641505261
20
-1.0442809454415
30
0
41
1
10
26.606463563529
20
-1.30871952268382
30
0
41
1
10
26.8835919997228
20
-1.4397607452637
30
0
41
1
10
27.4377202846327
20
-1.69808275734627
30
0
41
1
10
27.7143617295215
20
-1.82605789330637
30
0
41
1
10
28.2681388995595
20
-2.07705007569729
30
0
41
1
10
28.545262797144
20
-2.20010755042307
30
0
41
1
10
29.0995342196044
20
-2.44216988479781
30
0
41
1
10
29.3767267256931
20
-2.56107797997004
30
0
41
1
10
30.2099113443541
20
-2.90880689688208
30
0
41
1
10
30.7645254113827
20
-3.12900348704767
30
0
41
1
10
31.5953082822257
20
-3.43721839483561
30
0
41
1
10
31.8718105154488
20
-3.536856977772
30
0
41
1
10
32.4255601143505
20
-3.72754321748815
30
0
41
1
10
32.7027011840647
20
-3.81878267165737
30
0
41
1
10
33.5341736710302
20
-4.08115371064733
30
0
41
1
10
34.0900679115588
20
-4.23971380487217
30
0
41
1
10
35.1984862614149
20
-4.51786124681257
30
0
41
1
10
35.751270520796
20
-4.63845948944268
30
0
41
1
10
36.5819118252041
20
-4.78839352677934
30
0
41
1
10
36.8590620001797
20
-4.83323823005819
30
0
41
1
10
37.4134835014284
20
-4.91284654829749
30
0
41
1
10
37.6912584673574
20
-4.94746239394786
30
0
41
1
10
38.7010221608849
20
-5.05361888678326
30
0
41
1
10
39.4308771873801
20
-5.09304052534441
30
0
41
1
10
40.1615007027693
20
-5.09441350244623
30
0
0
SPLINE
5
DA
100
AcDbEntity
8
1
62
256
6
ByLayer
370
18
48
1
60
0
100
AcDbSpline
70
4
71
3
72
20
73
16
40
0
40
0
40
0
40
0
40
0.0801376511700529
40
0.0801376511700529
40
0.195120444773795
40
0.195120444773795
40
0.310103238377537
40
0.310103238377537
40
0.540068825585022
40
0.540068825585022
40
0.655051619188766
40
0.655051619188766
40
0.77003441279251
40
0.77003441279251
40
1
40
1
40
1
40
1
41
1
10
63.9598251971494
20
3.42037646188445
30
0
41
1
10
64.1524895718505
20
3.49199859477011
30
0
41
1
10
64.345242407574
20
3.56190426375898
30
0
41
1
10
64.814886471246
20
3.72774834432758
30
0
41
1
10
65.0923502578064
20
3.82144532694085
30
0
41
1
10
65.6459448524564
20
4.00046310370317
30
0
41
1
10
65.9225036498921
20
4.08561556127592
30
0
41
1
10
66.7513078532355
20
4.32820996708807
30
0
41
1
10
67.3034018241493
20
4.4718987013614
30
0
41
1
10
68.1327686682499
20
4.6583549505325
30
0
41
1
10
68.4092716976662
20
4.71579044696921
30
0
41
1
10
68.9632480481536
20
4.82039438862822
30
0
41
1
10
69.240187381443
20
4.86737800993905
30
0
41
1
10
70.0695803741751
20
4.9927598673425
30
0
41
1
10
70.6214945048423
20
5.05523463316015
30
0
41
1
10
71.1736988683132
20
5.09601181672343
30
0
0
SPLINE
5
DB
100
AcDbEntity
8
1
62
256
6
ByLayer
370
18
48
1
60
0
100
AcDbSpline
70
4
71
4
72
10
73
5
40
0
40
0
40
0
40
0
40
0
40
1
40
1
40
1
40
1
40
1
41
1
10
18.0083940634634
20
2.72666556786115
30
0
41
1
10
17.7757199830605
20
2.38931549746695
30
0
41
1
10
17.5430459026576
20
2.05196542707276
30
0
41
1
10
17.3103718222546
20
1.71461535667856
30
0
41
1
10
17.0776977418517
20
1.37726528628437
30
0
0
SPLINE
5
DC
100
AcDbEntity
8
1
62
256
6
ByLayer
370
13
48
1
60
0
100
AcDbSpline
70
4
71
3
72
49
73
45
40
0
40
0
40
0
40
0
40
0.0134078695771624
40
0.0263893449774627
40
0.039370820377763
40
0.0653337711783642
40
0.0912967219789653
40
0.117259672779566
40
0.156204098980467
40
0.169185574380768
40
0.195148525181369
40
0.22111147598197
40
0.273037377583172
40
0.286018852983473
40
0.299000328383773
40
0.324963279184374
40
0.337944754584675
40
0.350926229984975
40
0.376889180785576
40
0.402852131586177
40
0.428815082386778
40
0.46775950858768
40
0.48074098398798
40
0.506703934788581
40
0.532666885589182
40
0.584592787190384
40
0.597574262590684
40
0.610555737990985
40
0.636518688791586
40
0.649500164191886
40
0.662481639592187
40
0.688444590392788
40
0.714407541193389
40
0.74037049199399
40
0.779314918194892
40
0.792296393595192
40
0.818259344395793
40
0.844222295196394
40
0.896148196797596
40
0.909129672197896
40
0.922111147598197
40
0.948074098398798
40
0.974037049199399
40
1
40
1
40
1
40
1
41
1
10
28.3130064445454
20
-2.09999501673028
30
0
41
1
10
28.2545053006627
20
-2.10614434826928
30
0
41
1
10
28.139360603595
20
-2.11805238536803
30
0
41
1
10
27.9675659963695
20
-2.13524304721551
30
0
41
1
10
27.7410203989381
20
-2.15710169631237
30
0
41
1
10
27.4578394565864
20
-2.18297160223162
30
0
41
1
10
27.1179991629459
20
-2.21169926547907
30
0
41
1
10
26.721544450961
20
-2.24237109211717
30
0
41
1
10
26.3816718792381
20
-2.26572853395311
30
0
41
1
10
26.0418043229478
20
-2.28664919716914
30
0
41
1
10
25.7586250761894
20
-2.30245519179098
30
0
41
1
10
25.3055688860665
20
-2.32433616788529
30
0
41
1
10
24.9090507109809
20
-2.33930184047884
30
0
41
1
10
24.5691280779319
20
-2.34911349077203
30
0
41
1
10
24.3425820478691
20
-2.35464027043241
30
0
41
1
10
24.1160187741718
20
-2.35894291714831
30
0
41
1
10
23.8894403210095
20
-2.36202515004487
30
0
41
1
10
23.6628949901657
20
-2.36415932193711
30
0
41
1
10
23.3797143425786
20
-2.36523176146389
30
0
41
1
10
23.0398741984791
20
-2.36404197767231
30
0
41
1
10
22.6434195183634
20
-2.35957343472074
30
0
41
1
10
22.3035469307272
20
-2.35272159981253
30
0
41
1
10
21.9636794474492
20
-2.34335163198094
30
0
41
1
10
21.6805004171534
20
-2.33381796950792
30
0
41
1
10
21.2274447577586
20
-2.31507059532009
30
0
41
1
10
20.8309269630649
20
-2.29459900859311
30
0
41
1
10
20.4910041797024
20
-2.2741636639019
30
0
41
1
10
20.2644579765919
20
-2.25946447220488
30
0
41
1
10
20.0378944515046
20
-2.24360679629317
30
0
41
1
10
19.8113157396746
20
-2.22661042139956
30
0
41
1
10
19.5847701609787
20
-2.20867555783954
30
0
41
1
10
19.301589268612
20
-2.18476360914221
30
0
41
1
10
18.9617490578451
20
-2.15381826822755
30
0
41
1
10
18.5652944490574
20
-2.11487410901631
30
0
41
1
10
18.2254219763167
20
-2.07884563305208
30
0
41
1
10
17.8855545275121
20
-2.04059831385783
30
0
41
1
10
17.602375380416
20
-2.00716273122356
30
0
41
1
10
17.1493193426627
20
-1.95062127451843
30
0
41
1
10
16.75280124541
20
-1.8978243006386
30
0
41
1
10
16.4128786273273
20
-1.8502730453641
30
0
41
1
10
16.1863327936778
20
-1.81760496907586
30
0
41
1
10
15.903151994325
20
-1.77553884596071
30
0
41
1
10
15.56330872723
20
-1.72325532623589
30
0
41
1
10
15.3367086970303
20
-1.68730891353658
30
0
41
1
10
15.2234106797632
20
-1.66903749332579
30
0
0
SPLINE
5
DD
100
AcDbEntity
8
1
62
256
6
ByLayer
370
18
48
1
60
0
100
AcDbSpline
70
4
71
1
72
4
73
2
40
0
40
0
40
1
40
1
41
1
10
71.1263302246361
20
-4.88564014819872
30
0
41
1
10
72.258044240409
20
-1.06503766036948
30
0
0
SPLINE
5
DE
100
AcDbEntity
8
1
62
256
6
ByLayer
370
18
48
1
60
0
100
AcDbSpline
70
4
71
3
72
70
73
66
40
0
40
0
40
0
40
0
40
0.0176817278454962
40
0.0176817278454962
40
0.0385821166147403
40
0.0385821166147403
40
0.0803828941532291
40
0.0803828941532291
40
0.101283282922474
40
0.101283282922474
40
0.122183671691719
40
0.122183671691719
40
0.143084060460964
40
0.143084060460964
40
0.163984449230208
40
0.163984449230208
40
0.247586004307187
40
0.247586004307187
40
0.268486393076432
40
0.268486393076432
40
0.289386781845676
40
0.289386781845676
40
0.331187559384165
40
0.331187559384165
40
0.372988336922655
40
0.372988336922655
40
0.414789114461144
40
0.414789114461144
40
0.435689503230389
40
0.435689503230389
40
0.456589891999634
40
0.456589891999634
40
0.498390669538124
40
0.498390669538124
40
0.519291058307369
40
0.519291058307369
40
0.540191447076613
40
0.540191447076613
40
0.561091835845858
40
0.561091835845858
40
0.581992224615102
40
0.581992224615102
40
0.623793002153593
40
0.623793002153593
40
0.665593779692083
40
0.665593779692083
40
0.707394557230573
40
0.707394557230573
40
0.728294945999817
40
0.728294945999817
40
0.749195334769062
40
0.749195334769062
40
0.83279688984604
40
0.83279688984604
40
0.853697278615285
40
0.853697278615285
40
0.874597667384529
40
0.874597667384529
40
0.91639844492302
40
0.91639844492302
40
0.937298833692265
40
0.937298833692265
40
0.95819922246151
40
0.95819922246151
40
1
40
1
40
1
40
1
41
1
10
31.4541758313568
20
3.38461387784201
30
0
41
1
10
31.6884966897386
20
3.47069331123274
30
0
41
1
10
31.9226028555864
20
3.55441618075361
30
0
41
1
10
32.4340221581698
20
3.73037334684844
30
0
41
1
10
32.7113289263171
20
3.82158583783951
30
0
41
1
10
33.5432936325871
20
4.08386625202388
30
0
41
1
10
34.0995190765968
20
4.2423039361523
30
0
41
1
10
34.9313061553886
20
4.45070270888846
30
0
41
1
10
35.2082580516505
20
4.51551864764966
30
0
41
1
10
35.7620933050416
20
4.63530038297742
30
0
41
1
10
36.0387161113954
20
4.69047656893409
30
0
41
1
10
36.5928165182784
20
4.79022463629187
30
0
41
1
10
36.8701297995915
20
4.83496456011429
30
0
41
1
10
37.4248881658747
20
4.91434132892144
30
0
41
1
10
37.7028385889771
20
4.94882713329079
30
0
41
1
10
39.09064106097
20
5.09397434674057
30
0
41
1
10
40.195164078431
20
5.12372461231752
30
0
41
1
10
41.5829544828268
20
5.05089861959507
30
0
41
1
10
41.8607402496677
20
5.0308255134602
30
0
41
1
10
42.4153337742488
20
4.98001850947486
30
0
41
1
10
42.6922624532244
20
4.94921433176793
30
0
41
1
10
43.5228790035412
20
4.84108361953474
30
0
41
1
10
44.0756819943463
20
4.74755642004544
30
0
41
1
10
45.1843175062093
20
4.52102617927926
30
0
41
1
10
45.7400835933721
20
4.38708303113029
30
0
41
1
10
46.8483558212534
20
4.08371821414678
30
0
41
1
10
47.4015591036973
20
3.91407998147258
30
0
41
1
10
48.231383127302
20
3.63429338199944
30
0
41
1
10
48.5082501957704
20
3.53716130528835
30
0
41
1
10
49.0627547126848
20
3.33557874163461
30
0
41
1
10
49.340456212514
20
3.23069288182751
30
0
41
1
10
50.1727511590102
20
2.90658077322604
30
0
41
1
10
50.7260321963024
20
2.67727036397193
30
0
41
1
10
51.5557601977633
20
2.31720371919232
30
0
41
1
10
51.8324193466578
20
2.19471365945265
30
0
41
1
10
52.3856949211346
20
1.94438147299391
30
0
41
1
10
52.6626670686192
20
1.81719996968545
30
0
41
1
10
53.2173826884752
20
1.55902128283577
30
0
41
1
10
53.4950372946061
20
1.42770879404566
30
0
41
1
10
54.0493202493707
20
1.16301361214804
30
0
41
1
10
54.3260777768097
20
1.02922840788924
30
0
41
1
10
55.1559402922538
20
0.625039885227721
30
0
41
1
10
55.7087944980564
20
0.352129942807864
30
0
41
1
10
56.8156186692018
20
-0.196803395190869
30
0
41
1
10
57.371376105471
20
-0.471454199142613
30
0
41
1
10
58.47883842853
20
-1.01421013752315
30
0
41
1
10
59.031465369561
20
-1.28225779811646
30
0
41
1
10
59.8609892324325
20
-1.67489648966188
30
0
41
1
10
60.1376156809741
20
-1.80416397923747
30
0
41
1
10
60.6914401830351
20
-2.05882403154121
30
0
41
1
10
60.9688194020527
20
-2.18447825840502
30
0
41
1
10
62.3549922171508
20
-2.79909170430466
30
0
41
1
10
63.4576427177712
20
-3.2495419191103
30
0
41
1
10
64.8423937269657
20
-3.73717685997698
30
0
41
1
10
65.1200598054657
20
-3.83065906499772
30
0
41
1
10
65.6732295677741
20
-4.00900660765947
30
0
41
1
10
65.9492899856672
20
-4.09371120518264
30
0
41
1
10
66.7756880256603
20
-4.33479806907866
30
0
41
1
10
67.325013242745
20
-4.4771742519693
30
0
41
1
10
68.1484072872174
20
-4.66165211979526
30
0
41
1
10
68.4226001613971
20
-4.71843875863462
30
0
41
1
10
68.9713632101579
20
-4.82178990089312
30
0
41
1
10
69.2460291588244
20
-4.86831249114428
30
0
41
1
10
70.0703491496542
20
-4.99277218894341
30
0
41
1
10
70.620883561864
20
-5.05518951846057
30
0
41
1
10
71.1736988683132
20
-5.09601181672346
30
0
0
SPLINE
5
DF
100
AcDbEntity
8
1
62
256
6
ByLayer
370
18
48
1
60
0
100
AcDbSpline
70
4
71
3
72
8
73
4
40
0
40
0
40
0
40
0
40
1
40
1
40
1
40
1
41
1
10
72.9995893193085
20
-0.122818754416471
30
0
41
1
10
72.7978967202699
20
-0.640853240747447
30
0
41
1
10
72.6070442443928
20
-1.16670222134604
30
0
41
1
10
72.4236985038062
20
-1.69913072977877
30
0
0
SPLINE
5
E0
100
AcDbEntity
8
1
62
256
6
ByLayer
370
18
48
1
60
0
100
AcDbSpline
70
4
71
3
72
16
73
12
40
0
40
0
40
0
40
0
40
0.25
40
0.25
40
0.5
40
0.5
40
0.75
40
0.75
40
0.875
40
0.875
40
1
40
1
40
1
40
1
41
1
10
6.01744435672126
20
1.93965610451335
30
0
41
1
10
5.98488138287269
20
1.99568387177749
30
0
41
1
10
5.95180566549624
20
2.05159302194377
30
0
41
1
10
5.88379297845032
20
2.16295848830043
30
0
41
1
10
5.84892135081975
20
2.21843166459709
30
0
41
1
10
5.77503617138089
20
2.32833653351057
30
0
41
1
10
5.73623038613158
20
2.38314762106947
30
0
41
1
10
5.66970073165515
20
2.46065155219958
30
0
41
1
10
5.64580111712556
20
2.48603160617157
30
0
41
1
10
5.59274822909393
20
2.53086732317436
30
0
41
1
10
5.56288204021888
20
2.55034502475826
30
0
41
1
10
5.53241453271116
20
2.56008811141564
30
0
0
SPLINE
5
E1
100
AcDbEntity
8
1
62
256
6
ByLayer
370
18
48
1
60
0
100
AcDbSpline
70
4
71
3
72
8
73
4
40
0
40
0
40
0
40
0
40
1
40
1
40
1
40
1
41
1
10
72.9995893193085
20
0.1228187544165
30
0
41
1
10
73.0001368935521
20
0.0409395848054999
30
0
41
1
10
73.0001368935521
20
-0.0409395848054999
30
0
41
1
10
72.9995893193085
20
-0.1228187544165
30
0
0
SPLINE
5
E2
100
AcDbEntity
8
1
62
256
6
ByLayer
370
18
48
1
60
0
100
AcDbSpline
70
4
71
3
72
8
73
4
40
0
40
0
40
0
40
0
40
1
40
1
40
1
40
1
41
1
10
41.7368093465234
20
-4.96891290466581
30
0
41
1
10
41.0827975501174
20
-4.96750341074329
30
0
41
1
10
40.4280475361647
20
-4.93628252707731
30
0
41
1
10
39.7703610130766
20
-4.87527837492937
30
0
0
SPLINE
5
E3
100
AcDbEntity
8
1
62
256
6
ByLayer
370
13
48
1
60
0
100
AcDbSpline
70
4
71
3
72
34
73
30
40
0
40
0
40
0
40
0
40
0.0439626654835467
40
0.0439626654835467
40
0.0826952894547894
40
0.0826952894547894
40
0.121427913426032
40
0.121427913426032
40
0.160160537397274
40
0.160160537397274
40
0.198893161368517
40
0.198893161368517
40
0.353823657253483
40
0.353823657253483
40
0.431288905195966
40
0.431288905195966
40
0.508754153138448
40
0.508754153138448
40
0.663684649023414
40
0.663684649023414
40
0.702417272994657
40
0.702417272994657
40
0.7411498969659
40
0.7411498969659
40
0.818615144908386
40
0.818615144908386
40
0.973545640793359
40
0.973545640793359
40
1
40
1
40
1
40
1
41
1
10
39.7703610130394
20
-4.87527837492587
30
0
41
1
10
39.3855705056115
20
-4.8395868747406
30
0
41
1
10
38.9997748220455
20
-4.79370046985264
30
0
41
1
10
38.2713609398531
20
-4.68822018672617
30
0
41
1
10
37.92907856726
20
-4.63092199811439
30
0
41
1
10
37.2456717157563
20
-4.50156440731564
30
0
41
1
10
36.904033149538
20
-4.42946114689209
30
0
41
1
10
36.2203800327776
20
-4.27097719902349
30
0
41
1
10
35.8783060811254
20
-4.18452440282013
30
0
41
1
10
35.1969467776954
20
-3.99909257445657
30
0
41
1
10
34.8571788892145
20
-3.90002810192655
30
0
41
1
10
33.1616174926188
20
-3.37525435200681
30
0
41
1
10
31.8151702477199
20
-2.86106715788614
30
0
41
1
10
29.7821821063833
20
-1.99661782544075
30
0
41
1
10
29.1017756214228
20
-1.69285662563257
30
0
41
1
10
27.7335153958618
20
-1.06391461425534
30
0
41
1
10
27.0538039612586
20
-0.742823292655345
30
0
41
1
10
25.0208729079128
20
0.225222632028561
30
0
41
1
10
23.6736767887474
20
0.876457017876675
30
0
41
1
10
21.9760591494716
20
1.64725864274024
30
0
41
1
10
21.6358498434355
20
1.79924894734015
30
0
41
1
10
20.9534564100688
20
2.09760648781807
30
0
41
1
10
20.6106142181199
20
2.24425746038818
30
0
41
1
10
19.5864981599653
20
2.67068651370306
30
0
41
1
10
18.9076865549919
20
2.93726813128657
30
0
41
1
10
16.8761723774574
20
3.67375154921044
30
0
41
1
10
15.5280892765067
20
4.07923193521106
30
0
41
1
10
13.9352783707854
20
4.42376093303133
30
0
41
1
10
13.7026065472214
20
4.4707690332435
30
0
41
1
10
13.469461763318
20
4.51439373163541
30
0
0
SPLINE
5
E4
100
AcDbEntity
8
1
62
256
6
ByLayer
370
18
48
1
60
0
100
AcDbSpline
70
4
71
3
72
98
73
94
40
0
40
0
40
0
40
0
40
0.0081419690776306
40
0.0081419690776306
40
0.0295154427611108
40
0.0295154427611108
40
0.050888916444591
40
0.050888916444591
40
0.0722623901280712
40
0.0722623901280712
40
0.0936358638115514
40
0.0936358638115514
40
0.115009337495032
40
0.115009337495032
40
0.136382811178512
40
0.136382811178512
40
0.157756284861992
40
0.157756284861992
40
0.179129758545472
40
0.179129758545472
40
0.200503232228952
40
0.200503232228952
40
0.221876705912432
40
0.221876705912432
40
0.243250179595912
40
0.243250179595912
40
0.264623653279393
40
0.264623653279393
40
0.285997126962873
40
0.285997126962873
40
0.307370600646353
40
0.307370600646353
40
0.328744074329833
40
0.328744074329833
40
0.350117548013314
40
0.350117548013314
40
0.371491021696794
40
0.371491021696794
40
0.392864495380274
40
0.392864495380274
40
0.414237969063754
40
0.414237969063754
40
0.435611442747234
40
0.435611442747234
40
0.456984916430714
40
0.456984916430714
40
0.478358390114195
40
0.478358390114195
40
0.499731863797675
40
0.499731863797675
40
0.521105337481155
40
0.521105337481155
40
0.563852284848115
40
0.563852284848115
40
0.585225758531595
40
0.585225758531595
40
0.606599232215076
40
0.606599232215076
40
0.627972705898556
40
0.627972705898556
40
0.649346179582036
40
0.649346179582036
40
0.670719653265516
40
0.670719653265516
40
0.692093126948996
40
0.692093126948996
40
0.713466600632476
40
0.713466600632476
40
0.734840074315956
40
0.734840074315956
40
0.756213547999437
40
0.756213547999437
40
0.777587021682917
40
0.777587021682917
40
0.798960495366397
40
0.798960495366397
40
0.820333969049877
40
0.820333969049877
40
0.841707442733357
40
0.841707442733357
40
0.863080916416838
40
0.863080916416838
40
0.905827863783799
40
0.905827863783799
40
0.927201337467279
40
0.927201337467279
40
0.94857481115076
40
0.94857481115076
40
0.969948284834241
40
0.969948284834241
40
0.991321758517721
40
0.991321758517721
40
1
40
1
40
1
40
1
41
1
10
22.8093424053135
20
4.93531802824685
30
0
41
1
10
22.9212503752786
20
4.93669307426256
30
0
41
1
10
23.0331199296621
20
4.93722370852331
30
0
41
1
10
23.4384791640222
20
4.93582525615466
30
0
41
1
10
23.7317010935228
20
4.92760427569428
30
0
41
1
10
24.3182115608588
20
4.90015722864882
30
0
41
1
10
24.61118228497
20
4.88078236829134
30
0
41
1
10
25.1972265946914
20
4.83176996509414
30
0
41
1
10
25.4905772374154
20
4.80088568437856
30
0
41
1
10
26.0778167970798
20
4.72637602253272
30
0
41
1
10
26.3719626888734
20
4.68334785768775
30
0
41
1
10
26.9595156382215
20
4.58709196985669
30
0
41
1
10
27.2529681591941
20
4.53413002426393
30
0
41
1
10
27.8393584795083
20
4.41540227622858
30
0
41
1
10
28.132654221019
20
4.350529454298
30
0
41
1
10
28.7187522541849
20
4.21070753821974
30
0
41
1
10
29.0115526689841
20
4.13604170130165
30
0
41
1
10
29.5980035735463
20
3.97693593594928
30
0
41
1
10
29.8915623567968
20
3.89166307087911
30
0
41
1
10
30.4792424326539
20
3.71168675742459
30
0
41
1
10
30.7732329880916
20
3.61721319295211
30
0
41
1
10
31.3600637798954
20
3.42100642269872
30
0
41
1
10
31.6531382468667
20
3.31838322695532
30
0
41
1
10
32.2396093798948
20
3.10544469540952
30
0
41
1
10
32.5326401795936
20
2.99504311620447
30
0
41
1
10
33.1185301478978
20
2.76719257324743
30
0
41
1
10
33.4115988553885
20
2.65008183559712
30
0
41
1
10
33.9986217111168
20
2.40874094057097
30
0
41
1
10
34.2926404046443
20
2.28434749842458
30
0
41
1
10
34.880210249731
20
2.03119734378112
30
0
41
1
10
35.1735361715773
20
1.90223032358705
30
0
41
1
10
35.7599439488957
20
1.64016543428176
30
0
41
1
10
36.0529371573392
20
1.50680323234374
30
0
41
1
10
36.6388702600685
20
1.2367938025028
30
0
41
1
10
36.9318305139307
20
1.10034899888038
30
0
41
1
10
37.5180204402965
20
0.824553445746176
30
0
41
1
10
37.8113588810091
20
0.685329280623307
30
0
41
1
10
38.3989825607518
20
0.405340872453166
30
0
41
1
10
38.6929891835755
20
0.264434008260167
30
0
41
1
10
39.2798362759918
20
-0.0173277324820731
30
0
41
1
10
39.5729577743307
20
-0.158206274713706
30
0
41
1
10
40.1589016773377
20
-0.439256622598379
30
0
41
1
10
40.4521330363354
20
-0.578587239238516
30
0
41
1
10
41.0380205183692
20
-0.857430831241857
30
0
41
1
10
41.3309536116126
20
-0.99631596215275
30
0
41
1
10
41.9175576885657
20
-1.27119657797041
30
0
41
1
10
42.2115250114078
20
-1.40723031370811
30
0
41
1
10
42.7990292321076
20
-1.67595923453047
30
0
41
1
10
43.0924180242407
20
-1.80867840111014
30
0
41
1
10
43.6787303549905
20
-2.06883037234766
30
0
41
1
10
43.9716250545926
20
-2.19636505494984
30
0
41
1
10
44.850890709185
20
-2.56944967209648
30
0
41
1
10
45.4361824419914
20
-2.80969436744715
30
0
41
1
10
46.3170674749699
20
-3.14626470690661
30
0
41
1
10
46.6111082629136
20
-3.25460370939436
30
0
41
1
10
47.1980400245739
20
-3.46408944456755
30
0
41
1
10
47.491088443621
20
-3.5650606078641
30
0
41
1
10
48.0770394420633
20
-3.7568685195813
30
0
41
1
10
48.3700636669205
20
-3.84780653843956
30
0
41
1
10
48.9560462465106
20
-4.02130924082667
30
0
41
1
10
49.2488228134523
20
-4.10459737771288
30
0
41
1
10
49.835313752556
20
-4.25939007266697
30
0
41
1
10
50.1290875647174
20
-4.33133727847189
30
0
41
1
10
50.7167017183414
20
-4.4645422365405
30
0
41
1
10
51.0100947673372
20
-4.52629251272845
30
0
41
1
10
51.5963243933529
20
-4.63948935919396
30
0
41
1
10
51.8892196795154
20
-4.6899378751711
30
0
41
1
10
52.475103120356
20
-4.77905681877604
30
0
41
1
10
52.7682570511634
20
-4.81768704799541
30
0
41
1
10
53.354146614832
20
-4.88540712110759
30
0
41
1
10
53.6472511465986
20
-4.91356713276372
30
0
41
1
10
54.2343624505953
20
-4.95633296640122
30
0
41
1
10
54.5284618482261
20
-4.97139999479478
30
0
41
1
10
55.1152072901659
20
-4.99034430957249
30
0
41
1
10
55.4082944546074
20
-4.99430290577786
30
0
41
1
10
55.9943274764572
20
-4.98911734310579
30
0
41
1
10
56.2871713749455
20
-4.98016769946182
30
0
41
1
10
56.8730333273165
20
-4.95152243394148
30
0
41
1
10
57.1659568316537
20
-4.9323127268591
30
0
41
1
10
57.7522569265643
20
-4.88089344743392
30
0
41
1
10
58.0460189460968
20
-4.84835721192047
30
0
41
1
10
58.927372957509
20
-4.73215535476564
30
0
41
1
10
59.5133687349555
20
-4.63096358358513
30
0
41
1
10
60.3920586161855
20
-4.44884462266282
30
0
41
1
10
60.6851253645276
20
-4.38344871839612
30
0
41
1
10
61.2710957815835
20
-4.24228718847939
30
0
41
1
10
61.5640706532889
20
-4.16612241544772
30
0
41
1
10
62.1511103045353
20
-4.00286703489743
30
0
41
1
10
62.4450609887676
20
-3.91584814458739
30
0
41
1
10
63.0317478918814
20
-3.73304187084443
30
0
41
1
10
63.3248019051764
20
-3.63714365387764
30
0
41
1
10
63.7365703016836
20
-3.49619372843912
30
0
41
1
10
63.8554568764906
20
-3.45477987247318
30
0
41
1
10
63.9743475398553
20
-3.41271775242853
30
0
0
SPLINE
5
E5
100
AcDbEntity
8
1
62
256
6
ByLayer
370
18
48
1
60
0
100
AcDbSpline
70
4
71
3
72
28
73
24
40
0
40
0
40
0
40
0
40
0.0551456175111713
40
0.104921486441425
40
0.143729464036509
40
0.175584824215109
40
0.201926321934499
40
0.225778761995268
40
0.260611393930626
40
0.301702174295771
40
0.337264159364367
40
0.365356665734505
40
0.403487666372708
40
0.450998722487648
40
0.491935238282163
40
0.524535033402891
40
0.564201856239716
40
0.6101487562844
40
0.684875541588462
40
0.779142829801578
40
0.868812915460636
40
0.967153660679949
40
1
40
1
40
1
40
1
41
1
10
9.2318023032754
20
-4.910664541892
30
0
41
1
10
9.48312285327833
20
-4.91110258720028
30
0
41
1
10
9.96139742663792
20
-4.91203700186983
30
0
41
1
10
10.6197516735949
20
-4.9129546233915
30
0
41
1
10
11.1672914830266
20
-4.91484268658431
30
0
41
1
10
11.6081718443831
20
-4.91551859410953
30
0
41
1
10
11.9838137251013
20
-4.91603008333141
30
0
41
1
10
12.3715739980723
20
-4.91677052349576
30
0
41
1
10
12.8277675076993
20
-4.91758763327763
30
0
41
1
10
13.3372895165147
20
-4.91877839658653
30
0
41
1
10
13.8160666843806
20
-4.91960488115618
30
0
41
1
10
14.28130497097
20
-4.92024352662423
30
0
41
1
10
14.8011615609022
20
-4.92113115012856
30
0
41
1
10
15.3797224741141
20
-4.92253804194905
30
0
41
1
10
15.9330029335331
20
-4.92336842627486
30
0
41
1
10
16.4504282607673
20
-4.92395043064539
30
0
41
1
10
16.9907562306757
20
-4.92503279042256
30
0
41
1
10
17.723645831778
20
-4.92686605924311
30
0
41
1
10
18.7059967112465
20
-4.92770055484945
30
0
41
1
10
19.8888018793608
20
-4.93034550501923
30
0
41
1
10
21.1767495978145
20
-4.93372289512987
30
0
41
1
10
22.1861581575789
20
-4.93374060000474
30
0
41
1
10
22.7857411317055
20
-4.93589273284019
30
0
41
1
10
22.9358825461184
20
-4.9364790938973
30
0
0
SPLINE
5
E6
100
AcDbEntity
8
1
62
256
6
ByLayer
370
18
48
1
60
0
100
AcDbSpline
70
4
71
3
72
13
73
9
40
0
40
0
40
0
40
0
40
0.231922110869542
40
0.405935091156075
40
0.521872553735
40
0.638203695058416
40
0.812368473480107
40
1
40
1
40
1
40
1
41
1
10
23.3181513305525
20
0.0427985331345724
30
0
41
1
10
23.4617460731849
20
0.010018283585481
30
0
41
1
10
23.712998331229
20
-0.054849277295915
30
0
41
1
10
24.0356267488033
20
-0.155070684180742
30
0
41
1
10
24.2869470352092
20
-0.242509002080453
30
0
41
1
10
24.5377864230251
20
-0.337397691670304
30
0
41
1
10
24.831882599375
20
-0.45904292331474
30
0
41
1
10
25.0539136741879
20
-0.56273950488216
30
0
41
1
10
25.1688872506316
20
-0.619457715425682
30
0
0
SPLINE
5
E7
100
AcDbEntity
8
1
62
256
6
ByLayer
370
18
48
1
60
0
100
AcDbSpline
70
4
71
3
72
11
73
7
40
0
40
0
40
0
40
0
40
0.220427973877085
40
0.465869107123047
40
0.736512557656471
40
1
40
1
40
1
40
1
41
1
10
39.8027313014039
20
-0.0420262285949207
30
0
41
1
10
39.6711281377299
20
-0.0119486560864743
30
0
41
1
10
39.3932126480937
20
0.0591458695940048
30
0
41
1
10
38.9545779290335
20
0.19706367765346
30
0
41
1
10
38.4912153284912
20
0.371699558455475
30
0
41
1
10
38.1746010608515
20
0.513338867016103
30
0
41
1
10
38.0186073858559
20
0.588423546720009
30
0
0
SPLINE
5
E8
100
AcDbEntity
8
1
62
256
6
ByLayer
370
18
48
1
60
0
100
AcDbSpline
70
4
71
3
72
28
73
24
40
0
40
0
40
0
40
0
40
0.0430758134645785
40
0.0778309500012756
40
0.108124792373384
40
0.139266370831137
40
0.171755239617671
40
0.203883070602906
40
0.248890944616201
40
0.296114639892342
40
0.350024794078183
40
0.448352910533518
40
0.534365535302861
40
0.630822415956809
40
0.697605598800695
40
0.746855394537765
40
0.804254748052754
40
0.838709134216273
40
0.868784122363807
40
0.898628058083751
40
0.941422794228867
40
0.997915481352106
40
1
40
1
40
1
40
1
41
1
10
41.65114145017
20
-4.96883983323659
30
0
41
1
10
41.8395236167403
20
-4.96809090668276
30
0
41
1
10
42.1843166142772
20
-4.96757110302315
30
0
41
1
10
42.6916144320818
20
-4.96623269044451
30
0
41
1
10
43.1225000810139
20
-4.97110662062354
30
0
41
1
10
43.5530716114823
20
-4.97220601249151
30
0
41
1
10
43.9948136151055
20
-4.97308528231341
30
0
41
1
10
44.5014083141089
20
-4.973706681805
30
0
41
1
10
45.0760364208172
20
-4.97477259002682
30
0
41
1
10
45.7513357135738
20
-4.97637273417033
30
0
41
1
10
46.6729999853541
20
-4.97702154999519
30
0
41
1
10
47.7739052574054
20
-4.98008935912438
30
0
41
1
10
49.0714253140608
20
-4.98126430859708
30
0
41
1
10
50.2231695561174
20
-4.98362932476147
30
0
41
1
10
51.2050494934051
20
-4.98487107660745
30
0
41
1
10
52.006447504187
20
-4.98722351955712
30
0
41
1
10
52.6584637772885
20
-4.98694056555354
30
0
41
1
10
53.2218711829726
20
-4.98873267367816
30
0
41
1
10
53.65795335309
20
-4.99031133969169
30
0
41
1
10
54.1325644478358
20
-4.99077074500465
30
0
41
1
10
54.7292335794418
20
-4.99073167474037
30
0
41
1
10
55.1976822547771
20
-4.99209903087305
30
0
41
1
10
55.4683396033926
20
-4.99241076850984
30
0
41
1
10
55.4779711589025
20
-4.99242184987631
30
0
0
SPLINE
5
E9
100
AcDbEntity
8
1
62
256
6
ByLayer
370
18
48
1
60
0
100
AcDbSpline
70
4
71
3
72
11
73
7
40
0
40
0
40
0
40
0
40
0.207031206350145
40
0.446130935732209
40
0.717512269243383
40
1
40
1
40
1
40
1
41
1
10
55.8178122011219
20
0.042823470639803
30
0
41
1
10
55.9489240733377
20
0.0128775952557021
30
0
41
1
10
56.2311783637568
20
-0.0592414635865737
30
0
41
1
10
56.6841433356746
20
-0.201775602032768
30
0
41
1
10
57.1835715505451
20
-0.391981372158511
30
0
41
1
10
57.5313326302533
20
-0.550552719066616
30
0
41
1
10
57.7084358305552
20
-0.638036807792076
30
0
0
SPLINE
5
EA
100
AcDbEntity
8
1
62
256
6
ByLayer
370
18
48
1
60
0
100
AcDbSpline
70
4
71
3
72
29
73
25
40
0
40
0
40
0
40
0
40
0.0288532254082512
40
0.0686907153643945
40
0.109008169806146
40
0.153348421769886
40
0.201463843280538
40
0.25339074117317
40
0.300241016040608
40
0.334743628881898
40
0.369677472431719
40
0.434870222495111
40
0.496240309356101
40
0.555563140617562
40
0.628291786635202
40
0.703164487922561
40
0.751330704153029
40
0.796601252429115
40
0.847692031316588
40
0.899153604685345
40
0.921990911196195
40
0.942446794842731
40
0.972116529092374
40
1
40
1
40
1
40
1
41
1
10
22.9882128047646
20
4.9367554629352
30
0
41
1
10
22.8720024120588
20
4.936222512624
30
0
41
1
10
22.5953712049491
20
4.93516272171863
30
0
41
1
10
22.156412961566
20
4.9344752135444
30
0
41
1
10
21.6554151956619
20
4.93427192909317
30
0
41
1
10
21.1208285583456
20
4.93367667480626
30
0
41
1
10
20.539253745327
20
4.93104616973531
30
0
41
1
10
19.947992616924
20
4.93058683744474
30
0
41
1
10
19.4117267913929
20
4.9296641484793
30
0
41
1
10
18.9438698828086
20
4.9284231840463
30
0
41
1
10
18.4016059283274
20
4.92729710835721
30
0
41
1
10
17.7513600104909
20
4.92689604045424
30
0
41
1
10
17.0027689631353
20
4.92502977712761
30
0
41
1
10
16.22378826899
20
4.92359636507206
30
0
41
1
10
15.3904348898338
20
4.92268818681177
30
0
41
1
10
14.6020258653695
20
4.92065009168942
30
0
41
1
10
13.9241822180116
20
4.91977628919648
30
0
41
1
10
13.3421298043721
20
4.9188040965723
30
0
41
1
10
12.7467999583432
20
4.91739859843267
30
0
41
1
10
12.2418275525768
20
4.91656401074064
30
0
41
1
10
11.8602255985904
20
4.91600054091865
30
0
41
1
10
11.5663979657991
20
4.91551242724685
30
0
41
1
10
11.2522634575156
20
4.91485190158298
30
0
41
1
10
11.0204847526159
20
4.91432903367402
30
0
41
1
10
10.9081895434511
20
4.91408214119352
30
0
0
SPLINE
5
EB
100
AcDbEntity
8
1
62
256
6
ByLayer
370
18
48
1
60
0
100
AcDbSpline
70
4
71
3
72
27
73
23
40
0
40
0
40
0
40
0
40
0.0500148038657953
40
0.108997347818849
40
0.166462142469373
40
0.212331916042913
40
0.260964931923815
40
0.313158385524315
40
0.357435934940882
40
0.393983728862587
40
0.439898720348749
40
0.50578531757122
40
0.554970497089816
40
0.612007578816569
40
0.678839597986434
40
0.737037838382617
40
0.800202207970577
40
0.846317377238832
40
0.884903115367187
40
0.916928694495969
40
0.954837872528877
40
1
40
1
40
1
40
1
41
1
10
55.4575057058374
20
4.99237870655679
30
0
41
1
10
55.255573015819
20
4.99186919437122
30
0
41
1
10
54.8154940401122
20
4.99094224169841
30
0
41
1
10
54.1433792373838
20
4.99081850842506
30
0
41
1
10
53.4879738460136
20
4.99002202324417
30
0
41
1
10
52.874369871234
20
4.98729949393149
30
0
41
1
10
52.2820447580016
20
4.98708567036968
30
0
41
1
10
51.6961491927418
20
4.98663412622403
30
0
41
1
10
51.1590520586477
20
4.98473015228854
30
0
41
1
10
50.647304840219
20
4.98361489689384
30
0
41
1
10
50.0483044662921
20
4.98376141948009
30
0
41
1
10
49.3982788804769
20
4.98280838541277
30
0
41
1
10
48.7033459210872
20
4.9803463473348
30
0
41
1
10
48.0045920929787
20
4.98026721646062
30
0
41
1
10
47.2694479130399
20
4.97870481439691
30
0
41
1
10
46.5095604263793
20
4.97689136111026
30
0
41
1
10
45.833331528594
20
4.97645173960575
30
0
41
1
10
45.2362705985221
20
4.9752175310517
30
0
41
1
10
44.765039912421
20
4.9741026027429
30
0
41
1
10
44.3275226589777
20
4.97328580037419
30
0
41
1
10
43.8625170642796
20
4.97295799998588
30
0
41
1
10
43.5306397793496
20
4.97208806531572
30
0
41
1
10
43.3491761873922
20
4.97165549251875
30
0
0
SPLINE
5
EC
100
AcDbEntity
8
1
62
256
6
ByLayer
370
18
48
1
60
0
100
AcDbSpline
70
4
71
1
72
4
73
2
40
0
40
0
40
1
40
1
41
1
10
71.0392219213347
20
0.361550400398926
30
0
41
1
10
70.4613290347133
20
0.61402359338831
30
0
0
LINE
5
7B
100
AcDbEntity
8
SK1
62
256
6
ByLayer
370
18
48
1
60
0
100
AcDbLine
10
0
20
-6
30
0
11
0
21
6
31
0
39
0
210
0
220
0
230
1
0
LINE
5
7D
100
AcDbEntity
8
SK1
62
256
6
ByLayer
370
18
48
1
60
0
100
AcDbLine
10
-45
20
3
30
0
11
-45
21
-3
31
0
39
0
210
0
220
0
230
1
0
LINE
5
7E
100
AcDbEntity
8
SK1
62
256
6
ByLayer
370
18
48
1
60
0
100
AcDbLine
10
-43.267949
20
6
30
0
11
-43.267949
21
-6
31
0
39
0
210
0
220
0
230
1
0
LINE
5
7F
100
AcDbEntity
8
1
62
256
6
ByLayer
370
18
48
1
60
0
100
AcDbLine
10
0
20
-6
30
0
11
0
21
6
31
0
39
0
210
0
220
0
230
1
0
LINE
5
80
100
AcDbEntity
8
1
62
256
6
ByLayer
370
13
48
1
60
0
100
AcDbLine
10
1.539217
20
5.024929
30
0
11
1.539217
21
-5.024929
31
0
39
0
210
0
220
0
230
1
0
LINE
5
81
100
AcDbEntity
8
1
62
256
6
ByLayer
370
18
48
1
60
0
100
AcDbLine
10
72.258044
20
-1.065038
30
0
11
72.259511
21
-1.05545
31
0
39
0
210
0
220
0
230
1
0
LINE
5
82
100
AcDbEntity
8
1
62
256
6
ByLayer
370
13
48
1
60
0
100
AcDbLine
10
0.768843
20
5.512464
30
0
11
0.768843
21
-5.512464
31
0
39
0
210
0
220
0
230
1
0
LINE
5
83
100
AcDbEntity
8
1
62
256
6
ByLayer
370
18
48
1
60
0
100
AcDbLine
10
70.49952
20
-2.476828
30
0
11
72.258044
21
-1.065038
31
0
39
0
210
0
220
0
230
1
0
LINE
5
84
100
AcDbEntity
8
80
62
256
6
ByLayer
370
18
48
1
60
0
100
AcDbLine
10
0
20
0
30
0
11
-5
21
0
31
0
39
0
210
0
220
0
230
1
0
LINE
5
85
100
AcDbEntity
8
4
62
256
6
ByLayer
370
18
48
0.05
60
0
100
AcDbLine
10
73
20
0
30
0
11
0
21
0
31
0
39
0
210
0
220
0
230
1
0
LINE
5
87
100
AcDbEntity
8
SK4
62
256
6
ByLayer
370
18
48
0.05
60
0
100
AcDbLine
10
78
20
0
30
0
11
-50
21
0
31
0
39
0
210
0
220
0
230
1
0
LINE
5
89
100
AcDbEntity
8
SK1
62
256
6
ByLayer
370
18
48
1
60
0
100
AcDbLine
10
-43.267949
20
-6
30
0
11
0
21
-6
31
0
39
0
210
0
220
0
230
1
0
LINE
5
8A
100
AcDbEntity
8
SK1
62
256
6
ByLayer
370
18
48
1
60
0
100
AcDbLine
10
0
20
6
30
0
11
-43.267949
21
6
31
0
39
0
210
0
220
0
230
1
0
LINE
5
8B
100
AcDbEntity
8
SK1
62
256
6
ByLayer
370
18
48
1
60
0
100
AcDbLine
10
-45
20
-3
30
0
11
-43.267949
21
-6
31
0
39
0
210
0
220
0
230
1
0
LINE
5
8C
100
AcDbEntity
8
SK1
62
256
6
ByLayer
370
18
48
1
60
0
100
AcDbLine
10
-43.267949
20
6
30
0
11
-45
21
3
31
0
39
0
210
0
220
0
230
1
0
LINE
5
8D
100
AcDbEntity
8
1
62
256
6
ByLayer
370
18
48
1
60
0
100
AcDbLine
10
1.539217
20
-5.024929
30
0
11
8.693447
21
-5.037806
31
0
39
0
210
0
220
0
230
1
0
LINE
5
8E
100
AcDbEntity
8
1
62
256
6
ByLayer
370
18
48
1
60
0
100
AcDbLine
10
40.161751
20
-5.094449
30
0
11
41.193142
21
-5.096306
31
0
39
0
210
0
220
0
230
1
0
LINE
5
8F
100
AcDbEntity
8
1
62
256
6
ByLayer
370
18
48
1
60
0
100
AcDbLine
10
41.193142
20
5.096306
30
0
11
40.161751
21
5.094449
31
0
39
0
210
0
220
0
230
1
0
LINE
5
90
100
AcDbEntity
8
1
62
256
6
ByLayer
370
18
48
1
60
0
100
AcDbLine
10
8.693447
20
5.037806
30
0
11
1.539217
21
5.024929
31
0
39
0
210
0
220
0
230
1
0
LINE
5
91
100
AcDbEntity
8
81
62
256
6
ByLayer
370
18
48
1
60
0
100
AcDbLine
10
73
20
0
30
0
11
78
21
0
31
0
39
0
210
0
220
0
230
1
0
LINE
5
92
100
AcDbEntity
8
SK2
62
256
6
ByLayer
370
13
48
1
60
0
100
AcDbLine
10
-53.625163
20
-6
30
0
11
-53.625163
21
36.857173
31
0
39
0
210
0
220
0
230
1
0
LINE
5
94
100
AcDbEntity
8
SK2
62
256
6
ByLayer
370
13
48
1
60
0
100
AcDbLine
10
-46.5875
20
6
30
0
11
-55.625163
21
6
31
0
39
0
210
0
220
0
230
1
0
LINE
5
95
100
AcDbEntity
8
SK2
62
256
6
ByLayer
370
13
48
1
60
0
100
AcDbLine
10
-46.5875
20
-6
30
0
11
-55.625163
21
-6
31
0
39
0
210
0
220
0
230
1
0
LINE
5
96
100
AcDbEntity
8
1
62
256
6
ByLayer
370
18
48
1
60
1
100
AcDbLine
10
-53.625163
20
6
30
0
11
-53.164379
21
2.500002
31
0
39
0
210
0
220
0
230
1
0
LINE
5
97
100
AcDbEntity
8
1
62
256
6
ByLayer
370
18
48
1
60
1
100
AcDbLine
10
-53.164379
20
2.500002
30
0
11
-54.085946
21
2.499998
31
0
39
0
210
0
220
0
230
1
0
LINE
5
98
100
AcDbEntity
8
1
62
256
6
ByLayer
370
18
48
1
60
1
100
AcDbLine
10
-54.085946
20
2.499998
30
0
11
-53.625163
21
6
31
0
39
0
210
0
220
0
230
1
0
LINE
5
99
100
AcDbEntity
8
1
62
256
6
ByLayer
370
18
48
1
60
1
100
AcDbLine
10
-53.625163
20
-6
30
0
11
-54.085946
21
-2.500002
31
0
39
0
210
0
220
0
230
1
0
LINE
5
9A
100
AcDbEntity
8
1
62
256
6
ByLayer
370
18
48
1
60
1
100
AcDbLine
10
-54.085946
20
-2.500002
30
0
11
-53.164379
21
-2.499998
31
0
39
0
210
0
220
0
230
1
0
LINE
5
9B
100
AcDbEntity
8
1
62
256
6
ByLayer
370
18
48
1
60
1
100
AcDbLine
10
-53.164379
20
-2.499998
30
0
11
-53.625163
21
-6
31
0
39
0
210
0
220
0
230
1
0
LINE
5
9C
100
AcDbEntity
8
2
62
256
6
ByLayer
370
13
48
1
60
0
100
AcDbLine
10
85.083343
20
-5.15
30
0
11
85.083343
21
34.600259
31
0
39
0
210
0
220
0
230
1
0
LINE
5
9E
100
AcDbEntity
8
2
62
256
6
ByLayer
370
13
48
1
60
0
100
AcDbLine
10
72.6107
20
5.15
30
0
11
87.083343
21
5.15
31
0
39
0
210
0
220
0
230
1
0
LINE
5
9F
100
AcDbEntity
8
2
62
256
6
ByLayer
370
13
48
1
60
0
100
AcDbLine
10
72.6107
20
-5.15
30
0
11
87.083343
21
-5.15
31
0
39
0
210
0
220
0
230
1
0
LINE
5
A0
100
AcDbEntity
8
1
62
256
6
ByLayer
370
18
48
1
60
1
100
AcDbLine
10
85.083343
20
5.15
30
0
11
85.544126
21
1.650002
31
0
39
0
210
0
220
0
230
1
0
LINE
5
A1
100
AcDbEntity
8
1
62
256
6
ByLayer
370
18
48
1
60
1
100
AcDbLine
10
85.544126
20
1.650002
30
0
11
84.622559
21
1.649998
31
0
39
0
210
0
220
0
230
1
0
LINE
5
A2
100
AcDbEntity
8
1
62
256
6
ByLayer
370
18
48
1
60
1
100
AcDbLine
10
84.622559
20
1.649998
30
0
11
85.083343
21
5.15
31
0
39
0
210
0
220
0
230
1
0
LINE
5
A3
100
AcDbEntity
8
1
62
256
6
ByLayer
370
18
48
1
60
1
100
AcDbLine
10
85.083343
20
-5.15
30
0
11
84.622559
21
-1.650002
31
0
39
0
210
0
220
0
230
1
0
LINE
5
A4
100
AcDbEntity
8
1
62
256
6
ByLayer
370
18
48
1
60
1
100
AcDbLine
10
84.622559
20
-1.650002
30
0
11
85.544126
21
-1.649998
31
0
39
0
210
0
220
0
230
1
0
LINE
5
A5
100
AcDbEntity
8
1
62
256
6
ByLayer
370
18
48
1
60
1
100
AcDbLine
10
85.544126
20
-1.649998
30
0
11
85.083343
21
-5.15
31
0
39
0
210
0
220
0
230
1
0
LINE
5
F3
100
AcDbEntity
8
1
62
256
6
ByLayer
370
18
48
1
60
1
100
AcDbLine
10
-53.625163
20
6
30
0
11
-53.164379
21
2.500002
31
0
39
0
210
0
220
0
230
1
0
LINE
5
F4
100
AcDbEntity
8
1
62
256
6
ByLayer
370
18
48
1
60
1
100
AcDbLine
10
-53.164379
20
2.500002
30
0
11
-54.085946
21
2.499998
31
0
39
0
210
0
220
0
230
1
0
LINE
5
F5
100
AcDbEntity
8
1
62
256
6
ByLayer
370
18
48
1
60
1
100
AcDbLine
10
-54.085946
20
2.499998
30
0
11
-53.625163
21
6
31
0
39
0
210
0
220
0
230
1
0
LINE
5
F7
100
AcDbEntity
8
1
62
256
6
ByLayer
370
18
48
1
60
1
100
AcDbLine
10
-53.625163
20
-6
30
0
11
-54.085946
21
-2.500002
31
0
39
0
210
0
220
0
230
1
0
LINE
5
F8
100
AcDbEntity
8
1
62
256
6
ByLayer
370
18
48
1
60
1
100
AcDbLine
10
-54.085946
20
-2.500002
30
0
11
-53.164379
21
-2.499998
31
0
39
0
210
0
220
0
230
1
0
LINE
5
F9
100
AcDbEntity
8
1
62
256
6
ByLayer
370
18
48
1
60
1
100
AcDbLine
10
-53.164379
20
-2.499998
30
0
11
-53.625163
21
-6
31
0
39
0
210
0
220
0
230
1
0
LINE
5
FD
100
AcDbEntity
8
1
62
256
6
ByLayer
370
18
48
1
60
1
100
AcDbLine
10
85.083343
20
5.15
30
0
11
85.544126
21
1.650002
31
0
39
0
210
0
220
0
230
1
0
LINE
5
FE
100
AcDbEntity
8
1
62
256
6
ByLayer
370
18
48
1
60
1
100
AcDbLine
10
85.544126
20
1.650002
30
0
11
84.622559
21
1.649998
31
0
39
0
210
0
220
0
230
1
0
LINE
5
FF
100
AcDbEntity
8
1
62
256
6
ByLayer
370
18
48
1
60
1
100
AcDbLine
10
84.622559
20
1.649998
30
0
11
85.083343
21
5.15
31
0
39
0
210
0
220
0
230
1
0
LINE
5
101
100
AcDbEntity
8
1
62
256
6
ByLayer
370
18
48
1
60
1
100
AcDbLine
10
85.083343
20
-5.15
30
0
11
84.622559
21
-1.650002
31
0
39
0
210
0
220
0
230
1
0
LINE
5
102
100
AcDbEntity
8
1
62
256
6
ByLayer
370
18
48
1
60
1
100
AcDbLine
10
84.622559
20
-1.650002
30
0
11
85.544126
21
-1.649998
31
0
39
0
210
0
220
0
230
1
0
LINE
5
103
100
AcDbEntity
8
1
62
256
6
ByLayer
370
18
48
1
60
1
100
AcDbLine
10
85.544126
20
-1.649998
30
0
11
85.083343
21
-5.15
31
0
39
0
210
0
220
0
230
1
0
MTEXT
5
ED
100
AcDbEntity
8
SK6
62
256
6
ByLayer
370
13
48
1
60
0
100
AcDbMText
10
-13.671593
20
37.690328
30
0
210
0
220
0
230
1
1
\W0.7280;860.1-1030-053A1-PM P1BM
40
3.5
41
0
44
1.084337
50
0
71
7
72
5
7
iso_b_vert
0
MTEXT
5
F1
100
AcDbEntity
8
SK2
62
256
6
ByLayer
370
18
48
1
60
0
100
AcDbMText
10
-55.189796
20
19.409024
30
0
210
0
220
0
230
1
1
%%c
40
3.5
41
0
44
1.084337
50
90
71
7
72
5
7
iso_b_vert
0
MTEXT
5
F2
100
AcDbEntity
8
SK2
62
256
6
ByLayer
370
18
48
1
60
0
100
AcDbMText
10
-55.189796
20
24.63168
30
0
210
0
220
0
230
1
1
\W0.6930;12,000
40
3.5
41
0
44
1.084337
50
90
71
7
72
5
7
iso_b_vert
0
MTEXT
5
FB
100
AcDbEntity
8
2
62
256
6
ByLayer
370
18
48
1
60
0
100
AcDbMText
10
83.518709
20
17.15211
30
0
210
0
220
0
230
1
1
%%c
40
3.5
41
0
44
1.084337
50
90
71
7
72
5
7
iso_b_vert
0
MTEXT
5
FC
100
AcDbEntity
8
2
62
256
6
ByLayer
370
18
48
1
60
0
100
AcDbMText
10
83.518709
20
22.374766
30
0
210
0
220
0
230
1
1
\W0.6930;10,300
40
3.5
41
0
44
1.084337
50
90
71
7
72
5
7
iso_b_vert
0
HATCH
5
F6
100
AcDbEntity
8
SK2
62
256
6
ByLayer
370
13
48
1
60
0
100
AcDbHatch
10
0
20
0
30
0
210
0
220
0
230
1
2
ANSI31
70
0
71
0
91
1
92
5
93
3
72
1
10
-53.6251625675374
20
6
11
-53.1643788259847
21
2.50000169255318
72
1
10
-53.1643788259847
20
2.50000169255318
11
-54.0859463090902
21
2.49999830744682
72
1
10
-54.0859463090902
20
2.49999830744682
11
-53.6251625675374
21
6
97
0
75
0
76
1
52
0
41
0.0062
77
0
78
1
53
45
43
0
44
0
45
-0.0139193969876572
46
0.0139193969876572
79
0
47
0
98
1
10
0
20
0
0
HATCH
5
FA
100
AcDbEntity
8
SK2
62
256
6
ByLayer
370
13
48
1
60
0
100
AcDbHatch
10
0
20
0
30
0
210
0
220
0
230
1
2
ANSI31
70
0
71
0
91
1
92
5
93
3
72
1
10
-53.6251625675374
20
-6
11
-54.0859463090902
21
-2.50000169255318
72
1
10
-54.0859463090902
20
-2.50000169255318
11
-53.1643788259847
21
-2.49999830744682
72
1
10
-53.1643788259847
20
-2.49999830744682
11
-53.6251625675374
21
-6
97
0
75
0
76
1
52
0
41
0.0062
77
0
78
1
53
45
43
0
44
0
45
-0.0139193969876572
46
0.0139193969876572
79
0
47
0
98
1
10
0
20
0
0
HATCH
5
100
100
AcDbEntity
8
2
62
256
6
ByLayer
370
13
48
1
60
0
100
AcDbHatch
10
0
20
0
30
0
210
0
220
0
230
1
2
ANSI31
70
0
71
0
91
1
92
5
93
3
72
1
10
85.083342615295
20
5.15000000000001
11
85.5441263568478
21
1.65000169255319
72
1
10
85.5441263568478
20
1.65000169255319
11
84.6225588737423
21
1.64999830744682
72
1
10
84.6225588737423
20
1.64999830744682
11
85.083342615295
21
5.15000000000001
97
0
75
0
76
1
52
0
41
0.0062
77
0
78
1
53
45
43
0
44
0
45
-0.0139193969876572
46
0.0139193969876572
79
0
47
0
98
1
10
0
20
0
0
HATCH
5
104
100
AcDbEntity
8
2
62
256
6
ByLayer
370
13
48
1
60
0
100
AcDbHatch
10
0
20
0
30
0
210
0
220
0
230
1
2
ANSI31
70
0
71
0
91
1
92
5
93
3
72
1
10
85.083342615295
20
-5.14999999999998
11
84.6225588737423
21
-1.65000169255316
72
1
10
84.6225588737423
20
-1.65000169255316
11
85.5441263568478
21
-1.64999830744679
72
1
10
85.5441263568478
20
-1.64999830744679
11
85.083342615295
21
-5.14999999999998
97
0
75
0
76
1
52
0
41
0.0062
77
0
78
1
53
45
43
0
44
0
45
-0.0139193969876572
46
0.0139193969876572
79
0
47
0
98
1
10
0
20
0
0
DIMENSION
5
106
100
AcDbEntity
8
2
62
256
6
ByLayer
370
13
48
1
60
0
100
AcDbDimension
2
_U0
10
71.0232
20
-15.363398
30
0
11
35.5116
21
-15.363398
31
0
70
32
71
1
72
1
41
1
210
0
220
0
230
1
3
Standard
100
AcDbAlignedDimension
13
0
23
0
33
0
14
71.0232
24
-5.15
34
0
50
0
100
AcDbRotatedDimension
1001
ACAD
1000
DSTYLE
1002
{
1070
   371
1070
    13
1070
   372
1070
    13
1070
   170
1070
     0
1070
   144
1040
1.0
1070
   277
1070
     2
1070
   278
1070
    44
1070
   146
1040
1.0
1070
   345
1005
16
1070
   347
1005
16
1070
   346
1005
16
1070
   344
1005
0
1070
   343
1005
0
1070
   172
1070
     1
1070
    76
1070
     0
1070
    75
1070
     0
1070
   282
1070
     0
1070
   281
1070
     0
1070
    71
1070
     0
1070
    74
1070
     0
1070
   279
1070
     0
1070
   173
1070
     1
1070
   340
1005
EE
1070
   271
1070
     2
1070
   272
1070
     2
1070
    77
1070
     1
1070
    73
1070
     1
1070
   171
1070
     3
1070
   274
1070
     4
1070
   177
1070
    35
1070
   176
1070
    35
1070
   178
1070
    35
1070
    48
1040
-0.1
1070
    41
1040
3.5
1070
   147
1040
1.75
1070
    42
1040
1.5875
1070
    44
1040
2.0
1070
   140
1040
3.5
1002
}
1001
ACAD_DSTYLE_DIM_LINETYPE
1070
   380
1005
16
1001
ACAD_DSTYLE_DIM_EXT1_LINETYPE
1070
   381
1005
16
1001
ACAD_DSTYLE_DIM_EXT2_LINETYPE
1070
   382
1005
16
0
DIMENSION
5
11F
100
AcDbEntity
8
SK2
62
256
6
ByLayer
370
13
48
1
60
0
100
AcDbDimension
2
_U1
10
73
20
-34.692985
30
0
11
14
21
-34.692985
31
0
70
32
71
1
72
1
41
1
210
0
220
0
230
1
3
Standard
100
AcDbAlignedDimension
13
-45
23
-6
33
0
14
73
24
0
34
0
50
0
100
AcDbRotatedDimension
1001
ACAD
1000
DSTYLE
1002
{
1070
   371
1070
    13
1070
   372
1070
    13
1070
   170
1070
     0
1070
   144
1040
1.0
1070
   277
1070
     2
1070
   278
1070
    44
1070
   146
1040
1.0
1070
   345
1005
16
1070
   347
1005
16
1070
   346
1005
16
1070
   344
1005
0
1070
   343
1005
0
1070
   172
1070
     1
1070
    76
1070
     0
1070
    75
1070
     0
1070
   282
1070
     0
1070
   281
1070
     0
1070
    71
1070
     0
1070
    74
1070
     0
1070
   279
1070
     0
1070
   173
1070
     1
1070
   340
1005
EE
1070
   271
1070
     2
1070
   272
1070
     2
1070
    77
1070
     1
1070
    73
1070
     1
1070
   171
1070
     3
1070
   274
1070
     4
1070
   177
1070
    35
1070
   176
1070
    35
1070
   178
1070
    35
1070
    48
1040
-0.1
1070
    41
1040
3.5
1070
   147
1040
1.75
1070
    42
1040
1.5875
1070
    44
1040
2.0
1070
   140
1040
3.5
1002
}
1001
ACAD_DSTYLE_DIM_LINETYPE
1070
   380
1005
16
1001
ACAD_DSTYLE_DIM_EXT1_LINETYPE
1070
   381
1005
16
1001
ACAD_DSTYLE_DIM_EXT2_LINETYPE
1070
   382
1005
16
0
DIMENSION
5
137
100
AcDbEntity
8
SK2
62
256
6
ByLayer
370
13
48
1
60
0
100
AcDbDimension
2
_U2
10
73
20
16.759119
30
0
11
46.26
21
16.759119
31
0
70
32
71
1
72
1
41
1
210
0
220
0
230
1
3
Standard
100
AcDbAlignedDimension
13
19.52
23
5.15
33
0
14
73
24
0
34
0
50
0
100
AcDbRotatedDimension
1001
ACAD
1000
DSTYLE
1002
{
1070
   371
1070
    13
1070
   372
1070
    13
1070
   170
1070
     0
1070
   144
1040
1.0
1070
   277
1070
     2
1070
   278
1070
    44
1070
   146
1040
1.0
1070
   345
1005
16
1070
   347
1005
16
1070
   346
1005
16
1070
   344
1005
0
1070
   343
1005
0
1070
   172
1070
     1
1070
    76
1070
     0
1070
    75
1070
     0
1070
   282
1070
     0
1070
   281
1070
     0
1070
    71
1070
     0
1070
    74
1070
     0
1070
   279
1070
     0
1070
   173
1070
     1
1070
   340
1005
EE
1070
   271
1070
     2
1070
   272
1070
     2
1070
    77
1070
     1
1070
    73
1070
     1
1070
   171
1070
     3
1070
   274
1070
     4
1070
   177
1070
    35
1070
   176
1070
    35
1070
   178
1070
    35
1070
    48
1040
-0.1
1070
    41
1040
3.5
1070
   147
1040
1.75
1070
    42
1040
1.5875
1070
    44
1040
2.0
1070
   140
1040
3.5
1002
}
1001
ACAD_DSTYLE_DIM_LINETYPE
1070
   380
1005
16
1001
ACAD_DSTYLE_DIM_EXT1_LINETYPE
1070
   381
1005
16
1001
ACAD_DSTYLE_DIM_EXT2_LINETYPE
1070
   382
1005
16
0
DIMENSION
5
14F
100
AcDbEntity
8
SK2
62
256
6
ByLayer
370
13
48
1
60
0
100
AcDbDimension
2
_U3
10
71.0232
20
-17.952503
30
0
11
90.333333
21
-17.952503
31
0
70
32
71
1
72
1
41
1
210
0
220
0
230
1
3
Standard
100
AcDbAlignedDimension
13
73
23
0
33
0
14
71.0232
24
-5.15
34
0
50
0
100
AcDbRotatedDimension
1001
ACAD
1000
DSTYLE
1002
{
1070
   371
1070
    13
1070
   372
1070
    13
1070
   170
1070
     0
1070
   144
1040
1.0
1070
   277
1070
     2
1070
   278
1070
    44
1070
   146
1040
1.0
1070
   345
1005
16
1070
   347
1005
16
1070
   346
1005
16
1070
   344
1005
0
1070
   343
1005
0
1070
   172
1070
     1
1070
    76
1070
     0
1070
    75
1070
     0
1070
   282
1070
     0
1070
   281
1070
     0
1070
    71
1070
     0
1070
    74
1070
     0
1070
   279
1070
     0
1070
   173
1070
     1
1070
   340
1005
EE
1070
   271
1070
     2
1070
   272
1070
     2
1070
    77
1070
     1
1070
    73
1070
     1
1070
   171
1070
     3
1070
   274
1070
     4
1070
   177
1070
    35
1070
   176
1070
    35
1070
   178
1070
    35
1070
    48
1040
-0.1
1070
    41
1040
3.5
1070
   147
1040
1.75
1070
    42
1040
1.5875
1070
    44
1040
2.0
1070
   140
1040
3.5
1002
}
1001
ACAD_DSTYLE_DIM_LINETYPE
1070
   380
1005
16
1001
ACAD_DSTYLE_DIM_EXT1_LINETYPE
1070
   381
1005
16
1001
ACAD_DSTYLE_DIM_EXT2_LINETYPE
1070
   382
1005
16
0
DIMENSION
5
169
100
AcDbEntity
8
SK2
62
256
6
ByLayer
370
13
48
1
60
0
100
AcDbDimension
2
_U4
10
71.0232
20
-24.343428
30
0
11
13.0116
21
-24.343428
31
0
70
32
71
1
72
1
41
1
210
0
220
0
230
1
3
Standard
100
AcDbAlignedDimension
13
-45
23
-6
33
0
14
71.0232
24
-5.15
34
0
50
0
100
AcDbRotatedDimension
1001
ACAD
1000
DSTYLE
1002
{
1070
   371
1070
    13
1070
   372
1070
    13
1070
   170
1070
     0
1070
   144
1040
1.0
1070
   277
1070
     2
1070
   278
1070
    44
1070
   146
1040
1.0
1070
   345
1005
16
1070
   347
1005
16
1070
   346
1005
16
1070
   344
1005
0
1070
   343
1005
0
1070
   172
1070
     1
1070
    76
1070
     0
1070
    75
1070
     0
1070
   282
1070
     0
1070
   281
1070
     0
1070
    71
1070
     0
1070
    74
1070
     0
1070
   279
1070
     0
1070
   173
1070
     1
1070
   340
1005
EE
1070
   271
1070
     2
1070
   272
1070
     2
1070
    77
1070
     1
1070
    73
1070
     1
1070
   171
1070
     3
1070
   274
1070
     4
1070
   177
1070
    35
1070
   176
1070
    35
1070
   178
1070
    35
1070
    48
1040
-0.1
1070
    41
1040
3.5
1070
   147
1040
1.75
1070
    42
1040
1.5875
1070
    44
1040
2.0
1070
   140
1040
3.5
1002
}
1001
ACAD_DSTYLE_DIM_LINETYPE
1070
   380
1005
16
1001
ACAD_DSTYLE_DIM_EXT1_LINETYPE
1070
   381
1005
16
1001
ACAD_DSTYLE_DIM_EXT2_LINETYPE
1070
   382
1005
16
0
ENDSEC
0
SECTION
2
OBJECTS
0
DICTIONARY
5
1f1
330
0
100
AcDbDictionary
280
0
281
1
3
ACAD_GROUP
350
1f2
3
ACAD_MLINESTYLE
350
1f3
0
DICTIONARY
5
1f2
330
0
100
AcDbDictionary
280
0
281
1
0
DICTIONARY
5
1f3
330
0
100
AcDbDictionary
280
0
281
1
3
Standard
350
18
0
MLINESTYLE
5
18
330
1f3
100
AcDbMlineStyle
2
Standard
70
0
3

62
256
51
90
52
90
71
2
49
-0.5
62
256
6
ByLayer
49
0.5
62
256
6
ByLayer
0
RASTERVARIABLES
5
1df
330

100
AcDbRasterVariables
90
0
70
1
71
1
72
1
0
ENDSEC
0
EOF
