0
SECTION
2
HEADER
9
$ACADVER
1
AC1015
9
$DWGCODEPAGE
3
ANSI_1252
9
$HANDSEED
5
21a
9
$ANGBASE
50
0
9
$ANGDIR
70
0
9
$ATTMODE
70
1
9
$AUNITS
70
0
9
$AUPREC
70
0
9
$CECOLOR
62
256
9
$CELTSCALE
40
1
9
$CELTYPE
6
ByLayer
9
$CELWEIGHT
370
18
9
$CLAYER
8
0
9
$CMLJUST
70
0
9
$CMLSCALE
40
1
9
$CMLSTYLE
2
Standard
9
$DIMSTYLE
2
Standard
9
$TEXTSIZE
40
0.2
9
$TEXTSTYLE
7
Standard
9
$LUNITS
70
2
9
$LUPREC
70
4
9
$EXTNAMES
290
1
9
$INSUNITS
70
4
9
$LTSCALE
40
1
9
$LWDISPLAY
290
1
9
$PDMODE
70
0
9
$PDSIZE
40
0
9
$PLINEGEN
70
0
0
ENDSEC
0
SECTION
2
CLASSES
0
CLASS
1
RASTERVARIABLES
2
AcDbRasterVariables
3
ISM
90
0
280
0
281
0
0
ENDSEC
0
SECTION
2
TABLES
0
TABLE
2
VPORT
5
210
100
AcDbSymbolTable
0
VPORT
5
1
100
AcDbSymbolTableRecord
100
AcDbViewportTableRecord
2
*Active
70
0
10
0
20
0
11
1
21
1
12
-1
22
1
13
0
23
0
14
0.5
24
0.5
15
10
25
10
16
0
26
0
36
1
17
0
27
0
37
0
0
ENDTAB
0
TABLE
2
LTYPE
5
211
100
AcDbSymbolTable
0
LTYPE
5
14
100
AcDbSymbolTableRecord
100
AcDbLinetypeTableRecord
70
0
2
ByBlock
3

72
65
73
0
40
0
0
LTYPE
5
15
100
AcDbSymbolTableRecord
100
AcDbLinetypeTableRecord
70
0
2
ByLayer
3

72
65
73
0
40
0
0
LTYPE
5
16
100
AcDbSymbolTableRecord
100
AcDbLinetypeTableRecord
70
0
2
Continuous
3
Solid line
72
65
73
0
40
0
0
LTYPE
5
6E
100
AcDbSymbolTableRecord
100
AcDbLinetypeTableRecord
70
0
2
CENTER
3
____ _ ____ _ ____ _ ____
72
65
73
4
40
47.5
49
22
74
0
49
-8.5
74
0
49
8.5
74
0
49
-8.5
74
0
0
LTYPE
5
6F
100
AcDbSymbolTableRecord
100
AcDbLinetypeTableRecord
70
0
2
DASHED
3
__ __ __ __ __ __ __ __ __
72
65
73
2
40
25.72
49
12.86
74
0
49
-12.86
74
0
0
ENDTAB
0
TABLE
2
LAYER
5
212
100
AcDbSymbolTable
0
LAYER
5
10
100
AcDbSymbolTableRecord
100
AcDbLayerTableRecord
2
0
70
0
62
7
6
Continuous
290
1
370
-3
390
0
0
LAYER
5
71
100
AcDbSymbolTableRecord
100
AcDbLayerTableRecord
2
80
70
0
62
-6
6
Continuous
290
1
370
-3
390
0
0
LAYER
5
73
100
AcDbSymbolTableRecord
100
AcDbLayerTableRecord
2
81
70
0
62
-3
6
Continuous
290
1
370
-3
390
0
0
LAYER
5
75
100
AcDbSymbolTableRecord
100
AcDbLayerTableRecord
2
1
70
0
62
4
6
Continuous
290
1
370
-3
390
0
0
LAYER
5
86
100
AcDbSymbolTableRecord
100
AcDbLayerTableRecord
2
4
70
0
62
-2
6
CENTER
290
1
370
-3
390
0
0
LAYER
5
A1
100
AcDbSymbolTableRecord
100
AcDbLayerTableRecord
2
2
70
0
62
7
6
Continuous
290
1
370
-3
390
0
0
LAYER
5
125
100
AcDbSymbolTableRecord
100
AcDbLayerTableRecord
2
Defpoints
70
0
62
7
6
Continuous
290
0
370
-3
390
0
0
LAYER
5
1fc
100
AcDbSymbolTableRecord
100
AcDbLayerTableRecord
2
SK1
70
0
62
4
6
Continuous
290
1
370
-3
390
0
0
LAYER
5
1fd
100
AcDbSymbolTableRecord
100
AcDbLayerTableRecord
2
SK4
70
0
62
2
6
CENTER
290
1
370
-3
390
0
0
LAYER
5
1fe
100
AcDbSymbolTableRecord
100
AcDbLayerTableRecord
2
SK2
70
0
62
7
6
Continuous
290
1
370
-3
390
0
0
LAYER
5
1ff
100
AcDbSymbolTableRecord
100
AcDbLayerTableRecord
2
SK6
70
0
62
5
6
Continuous
290
1
370
-3
390
0
0
ENDTAB
0
TABLE
2
STYLE
5
213
100
AcDbSymbolTable
0
STYLE
5
11
100
AcDbSymbolTableRecord
100
AcDbTextStyleTableRecord
2
Standard
3
txt
70
0
71
0
40
0
41
1
42
0
50
0
0
STYLE
5
10A
100
AcDbSymbolTableRecord
100
AcDbTextStyleTableRecord
2
iso_b_vert
3
simplex.shx
70
0
71
0
40
0
41
1
42
0
50
0
0
STYLE
5
10B
100
AcDbSymbolTableRecord
100
AcDbTextStyleTableRecord
2
DWGDirectTextStyle
3
simplex
70
0
71
0
40
0
41
1
42
0
50
0
0
ENDTAB
0
TABLE
2
DIMSTYLE
5
214
100
AcDbSymbolTable
100
AcDbDimStyleTable
0
DIMSTYLE
105
27
100
AcDbSymbolTableRecord
100
AcDbDimStyleTableRecord
2
Standard
70
0
3
<>
41
0.18
42
0.0625
44
0.18
140
0.18
147
0.09
73
0
74
0
77
1
271
2
275
0
278
52
280
0
340
11
0
ENDTAB
0
TABLE
2
VIEW
5
215
100
AcDbSymbolTable
0
ENDTAB
0
TABLE
2
UCS
5
216
100
AcDbSymbolTable
0
ENDTAB
0
TABLE
2
APPID
5
217
100
AcDbSymbolTable
0
APPID
5
12
100
AcDbSymbolTableRecord
100
AcDbRegAppTableRecord
2
ACAD
70
0
0
APPID
5
121
100
AcDbSymbolTableRecord
100
AcDbRegAppTableRecord
2
ACAD_DSTYLE_DIMBREAK
70
0
0
APPID
5
1BB
100
AcDbSymbolTableRecord
100
AcDbRegAppTableRecord
2
ACAD_DSTYLE_DIM_LINETYPE
70
0
0
APPID
5
1BC
100
AcDbSymbolTableRecord
100
AcDbRegAppTableRecord
2
ACAD_DSTYLE_DIM_EXT1_LINETYPE
70
0
0
APPID
5
1BD
100
AcDbSymbolTableRecord
100
AcDbRegAppTableRecord
2
ACAD_DSTYLE_DIM_EXT2_LINETYPE
70
0
0
APPID
5
1F8
100
AcDbSymbolTableRecord
100
AcDbRegAppTableRecord
2
ACAD_MLEADERVER
70
0
0
ENDTAB
0
TABLE
2
BLOCK_RECORD
5
218
100
AcDbSymbolTable
0
BLOCK_RECORD
5
1F
100
AcDbSymbolTableRecord
100
AcDbBlockTableRecord
2
*Model_Space
340
0
70
0
0
BLOCK_RECORD
5
1B
100
AcDbSymbolTableRecord
100
AcDbBlockTableRecord
2
*Paper_Space
340
0
70
0
0
BLOCK_RECORD
5
23
100
AcDbSymbolTableRecord
100
AcDbBlockTableRecord
2
*Paper_Space0
340
0
70
0
0
BLOCK_RECORD
5
126
100
AcDbSymbolTableRecord
100
AcDbBlockTableRecord
2
*D1
340
0
70
0
0
BLOCK_RECORD
5
132
100
AcDbSymbolTableRecord
100
AcDbBlockTableRecord
2
_U0
340
0
70
0
0
BLOCK_RECORD
5
13E
100
AcDbSymbolTableRecord
100
AcDbBlockTableRecord
2
*D3
340
0
70
0
0
BLOCK_RECORD
5
14A
100
AcDbSymbolTableRecord
100
AcDbBlockTableRecord
2
_U1
340
0
70
0
0
BLOCK_RECORD
5
156
100
AcDbSymbolTableRecord
100
AcDbBlockTableRecord
2
*D5
340
0
70
0
0
BLOCK_RECORD
5
162
100
AcDbSymbolTableRecord
100
AcDbBlockTableRecord
2
_U2
340
0
70
0
0
BLOCK_RECORD
5
16E
100
AcDbSymbolTableRecord
100
AcDbBlockTableRecord
2
*D7
340
0
70
0
0
BLOCK_RECORD
5
17C
100
AcDbSymbolTableRecord
100
AcDbBlockTableRecord
2
_U3
340
0
70
0
0
BLOCK_RECORD
5
188
100
AcDbSymbolTableRecord
100
AcDbBlockTableRecord
2
*D9
340
0
70
0
0
BLOCK_RECORD
5
194
100
AcDbSymbolTableRecord
100
AcDbBlockTableRecord
2
_U4
340
0
70
0
0
ENDTAB
0
ENDSEC
0
SECTION
2
BLOCKS
0
BLOCK
5
20
100
AcDbEntity
8
0
100
AcDbBlockBegin
2
*Model_Space
70
0
10
0
20
0
30
0
3
*Model_Space
0
ENDBLK
5
21
100
AcDbEntity
8
0
100
AcDbBlockEnd
0
BLOCK
5
1C
100
AcDbEntity
8
0
100
AcDbBlockBegin
2
*Paper_Space
70
0
10
0
20
0
30
0
3
*Paper_Space
0
ENDBLK
5
1D
100
AcDbEntity
8
0
100
AcDbBlockEnd
0
BLOCK
5
24
100
AcDbEntity
8
0
100
AcDbBlockBegin
2
*Paper_Space0
70
0
10
0
20
0
30
0
3
*Paper_Space0
0
ENDBLK
5
25
100
AcDbEntity
8
0
100
AcDbBlockEnd
0
BLOCK
5
127
100
AcDbEntity
8
0
100
AcDbBlockBegin
2
*D1
70
1
10
0
20
0
30
0
3
*D1
0
LINE
5
129
100
AcDbEntity
8
0
62
256
6
ByLayer
370
-2
48
1
60
0
100
AcDbLine
10
0
20
-1.5875
30
0
11
0
21
-17.463398
31
0
39
0
210
0
220
0
230
1
0
LINE
5
12A
100
AcDbEntity
8
0
62
256
6
ByLayer
370
-2
48
1
60
0
100
AcDbLine
10
115.9845
20
-6.8375
30
0
11
115.9845
21
-17.463398
31
0
39
0
210
0
220
0
230
1
0
LINE
5
12B
100
AcDbEntity
8
0
62
256
6
ByLayer
370
-2
48
1
60
0
100
AcDbLine
10
3.5
20
-15.463398
30
0
11
112.4845
21
-15.463398
31
0
39
0
210
0
220
0
230
1
0
SOLID
5
12C
100
AcDbEntity
8
0
62
256
6
ByLayer
370
-1
48
1
60
0
100
AcDbTrace
10
3.5
20
-14.880065
30
0
11
3.5
21
-16.046732
31
0
12
0
22
-15.463398
32
0
13
0
23
-15.463398
33
0
39
0
210
0
220
0
230
1
0
SOLID
5
12D
100
AcDbEntity
8
0
62
256
6
ByLayer
370
-1
48
1
60
0
100
AcDbTrace
10
112.4845
20
-16.046732
30
0
11
112.4845
21
-14.880065
31
0
12
115.9845
22
-15.463398
32
0
13
115.9845
23
-15.463398
33
0
39
0
210
0
220
0
230
1
0
MTEXT
5
12E
100
AcDbEntity
8
0
62
256
6
ByLayer
370
18
48
1
60
0
100
AcDbMText
10
57.99225
20
-8.463398
30
0
210
0
220
0
230
1
1
\A1;115.98
40
3.5
41
0
44
1
50
0
71
5
72
5
7
iso_b_vert
0
POINT
5
12F
100
AcDbEntity
8
Defpoints
62
0
6
ByLayer
370
-1
48
1
60
0
100
AcDbPoint
10
0
20
0
30
0
39
0
210
0
220
0
230
1
50
360
0
POINT
5
130
100
AcDbEntity
8
Defpoints
62
0
6
ByLayer
370
-1
48
1
60
0
100
AcDbPoint
10
115.9845
20
-5.25
30
0
39
0
210
0
220
0
230
1
50
360
0
POINT
5
131
100
AcDbEntity
8
Defpoints
62
0
6
ByLayer
370
-1
48
1
60
0
100
AcDbPoint
10
115.9845
20
-15.463398
30
0
39
0
210
0
220
0
230
1
50
360
0
ENDBLK
5
128
100
AcDbEntity
8
0
100
AcDbBlockEnd
0
BLOCK
5
139
100
AcDbEntity
8
0
100
AcDbBlockBegin
2
_U0
70
0
10
0
20
0
30
0
3
_U0
0
MTEXT
5
133
100
AcDbEntity
8
2
62
256
6
ByLayer
370
13
48
1
60
0
100
AcDbMText
10
52.422085
20
-14.430765
30
0
210
0
220
0
230
1
1
\W0.6440;115,98
40
3.5
41
0
44
1.084337
50
0
71
7
72
5
7
iso_b_vert
0
LINE
5
134
100
AcDbEntity
8
2
62
256
6
ByLayer
370
13
48
1
60
0
100
AcDbLine
10
0
20
-1.5875
30
0
11
0
21
-17.463398
31
0
39
0
210
0
220
0
230
1
0
LINE
5
135
100
AcDbEntity
8
2
62
256
6
ByLayer
370
13
48
1
60
0
100
AcDbLine
10
115.9845
20
-6.8375
30
0
11
115.9845
21
-17.463398
31
0
39
0
210
0
220
0
230
1
0
LINE
5
136
100
AcDbEntity
8
2
62
256
6
ByLayer
370
13
48
1
60
0
100
AcDbLine
10
0
20
-15.463398
30
0
11
115.9845
21
-15.463398
31
0
39
0
210
0
220
0
230
1
0
SOLID
5
137
100
AcDbEntity
8
2
62
256
6
ByLayer
370
18
48
1
60
0
100
AcDbTrace
10
0
20
-15.463398
30
0
11
3.499998
21
-15.002615
31
0
12
3.500002
22
-15.924182
32
0
13
3.500002
23
-15.924182
33
0
39
0
210
0
220
0
230
1
0
SOLID
5
138
100
AcDbEntity
8
2
62
256
6
ByLayer
370
18
48
1
60
0
100
AcDbTrace
10
115.9845
20
-15.463398
30
0
11
112.484502
21
-15.924182
31
0
12
112.484498
22
-15.002615
32
0
13
112.484498
23
-15.002615
33
0
39
0
210
0
220
0
230
1
0
ENDBLK
5
13A
100
AcDbEntity
8
0
100
AcDbBlockEnd
0
BLOCK
5
13F
100
AcDbEntity
8
0
100
AcDbBlockBegin
2
*D3
70
1
10
0
20
0
30
0
3
*D3
0
LINE
5
141
100
AcDbEntity
8
0
62
256
6
ByLayer
370
-2
48
1
60
0
100
AcDbLine
10
-45
20
-7.5875
30
0
11
-45
21
-36.692985
31
0
39
0
210
0
220
0
230
1
0
LINE
5
142
100
AcDbEntity
8
0
62
256
6
ByLayer
370
-2
48
1
60
0
100
AcDbLine
10
118
20
-1.5875
30
0
11
118
21
-36.692985
31
0
39
0
210
0
220
0
230
1
0
LINE
5
143
100
AcDbEntity
8
0
62
256
6
ByLayer
370
-2
48
1
60
0
100
AcDbLine
10
-41.5
20
-34.692985
30
0
11
114.5
21
-34.692985
31
0
39
0
210
0
220
0
230
1
0
SOLID
5
144
100
AcDbEntity
8
0
62
256
6
ByLayer
370
-1
48
1
60
0
100
AcDbTrace
10
-41.5
20
-34.109652
30
0
11
-41.5
21
-35.276319
31
0
12
-45
22
-34.692985
32
0
13
-45
23
-34.692985
33
0
39
0
210
0
220
0
230
1
0
SOLID
5
145
100
AcDbEntity
8
0
62
256
6
ByLayer
370
-1
48
1
60
0
100
AcDbTrace
10
114.5
20
-35.276319
30
0
11
114.5
21
-34.109652
31
0
12
118
22
-34.692985
32
0
13
118
23
-34.692985
33
0
39
0
210
0
220
0
230
1
0
MTEXT
5
146
100
AcDbEntity
8
0
62
256
6
ByLayer
370
18
48
1
60
0
100
AcDbMText
10
36.5
20
-27.692985
30
0
210
0
220
0
230
1
1
\A1;163.00
40
3.5
41
0
44
1
50
0
71
5
72
5
7
iso_b_vert
0
POINT
5
147
100
AcDbEntity
8
Defpoints
62
0
6
ByLayer
370
-1
48
1
60
0
100
AcDbPoint
10
-45
20
-6
30
0
39
0
210
0
220
0
230
1
50
360
0
POINT
5
148
100
AcDbEntity
8
Defpoints
62
0
6
ByLayer
370
-1
48
1
60
0
100
AcDbPoint
10
118
20
0
30
0
39
0
210
0
220
0
230
1
50
360
0
POINT
5
149
100
AcDbEntity
8
Defpoints
62
0
6
ByLayer
370
-1
48
1
60
0
100
AcDbPoint
10
118
20
-34.692985
30
0
39
0
210
0
220
0
230
1
50
360
0
ENDBLK
5
140
100
AcDbEntity
8
0
100
AcDbBlockEnd
0
BLOCK
5
151
100
AcDbEntity
8
0
100
AcDbBlockBegin
2
_U1
70
0
10
0
20
0
30
0
3
_U1
0
MTEXT
5
14B
100
AcDbEntity
8
SK2
62
256
6
ByLayer
370
13
48
1
60
0
100
AcDbMText
10
30.492401
20
-33.660352
30
0
210
0
220
0
230
1
1
\W0.6930;163,00
40
3.5
41
0
44
1.084337
50
0
71
7
72
5
7
iso_b_vert
0
LINE
5
14C
100
AcDbEntity
8
SK2
62
256
6
ByLayer
370
13
48
1
60
0
100
AcDbLine
10
-45
20
-7.5875
30
0
11
-45
21
-36.692985
31
0
39
0
210
0
220
0
230
1
0
LINE
5
14D
100
AcDbEntity
8
SK2
62
256
6
ByLayer
370
13
48
1
60
0
100
AcDbLine
10
118
20
-1.5875
30
0
11
118
21
-36.692985
31
0
39
0
210
0
220
0
230
1
0
LINE
5
14E
100
AcDbEntity
8
SK2
62
256
6
ByLayer
370
13
48
1
60
0
100
AcDbLine
10
-45
20
-34.692985
30
0
11
118
21
-34.692985
31
0
39
0
210
0
220
0
230
1
0
SOLID
5
14F
100
AcDbEntity
8
SK2
62
256
6
ByLayer
370
18
48
1
60
0
100
AcDbTrace
10
-45
20
-34.692985
30
0
11
-41.500002
21
-34.232202
31
0
12
-41.499998
22
-35.153769
32
0
13
-41.499998
23
-35.153769
33
0
39
0
210
0
220
0
230
1
0
SOLID
5
150
100
AcDbEntity
8
SK2
62
256
6
ByLayer
370
18
48
1
60
0
100
AcDbTrace
10
118
20
-34.692985
30
0
11
114.500002
21
-35.153769
31
0
12
114.499998
22
-34.232202
32
0
13
114.499998
23
-34.232202
33
0
39
0
210
0
220
0
230
1
0
ENDBLK
5
152
100
AcDbEntity
8
0
100
AcDbBlockEnd
0
BLOCK
5
157
100
AcDbEntity
8
0
100
AcDbBlockBegin
2
*D5
70
1
10
0
20
0
30
0
3
*D5
0
LINE
5
159
100
AcDbEntity
8
0
62
256
6
ByLayer
370
-2
48
1
60
0
100
AcDbLine
10
31.98
20
6.8375
30
0
11
31.98
21
18.859119
31
0
39
0
210
0
220
0
230
1
0
LINE
5
15A
100
AcDbEntity
8
0
62
256
6
ByLayer
370
-2
48
1
60
0
100
AcDbLine
10
118
20
1.5875
30
0
11
118
21
18.859119
31
0
39
0
210
0
220
0
230
1
0
LINE
5
15B
100
AcDbEntity
8
0
62
256
6
ByLayer
370
-2
48
1
60
0
100
AcDbLine
10
35.48
20
16.859119
30
0
11
114.5
21
16.859119
31
0
39
0
210
0
220
0
230
1
0
SOLID
5
15C
100
AcDbEntity
8
0
62
256
6
ByLayer
370
-1
48
1
60
0
100
AcDbTrace
10
35.48
20
17.442453
30
0
11
35.48
21
16.275786
31
0
12
31.98
22
16.859119
32
0
13
31.98
23
16.859119
33
0
39
0
210
0
220
0
230
1
0
SOLID
5
15D
100
AcDbEntity
8
0
62
256
6
ByLayer
370
-1
48
1
60
0
100
AcDbTrace
10
114.5
20
16.275786
30
0
11
114.5
21
17.442453
31
0
12
118
22
16.859119
32
0
13
118
23
16.859119
33
0
39
0
210
0
220
0
230
1
0
MTEXT
5
15E
100
AcDbEntity
8
0
62
256
6
ByLayer
370
18
48
1
60
0
100
AcDbMText
10
74.99
20
23.859119
30
0
210
0
220
0
230
1
1
\A1;86.02
40
3.5
41
0
44
1
50
0
71
5
72
5
7
iso_b_vert
0
POINT
5
15F
100
AcDbEntity
8
Defpoints
62
0
6
ByLayer
370
-1
48
1
60
0
100
AcDbPoint
10
31.98
20
5.25
30
0
39
0
210
0
220
0
230
1
50
360
0
POINT
5
160
100
AcDbEntity
8
Defpoints
62
0
6
ByLayer
370
-1
48
1
60
0
100
AcDbPoint
10
118
20
0
30
0
39
0
210
0
220
0
230
1
50
360
0
POINT
5
161
100
AcDbEntity
8
Defpoints
62
0
6
ByLayer
370
-1
48
1
60
0
100
AcDbPoint
10
118
20
16.859119
30
0
39
0
210
0
220
0
230
1
50
360
0
ENDBLK
5
158
100
AcDbEntity
8
0
100
AcDbBlockEnd
0
BLOCK
5
169
100
AcDbEntity
8
0
100
AcDbBlockBegin
2
_U2
70
0
10
0
20
0
30
0
3
_U2
0
MTEXT
5
163
100
AcDbEntity
8
SK2
62
256
6
ByLayer
370
13
48
1
60
0
100
AcDbMText
10
69.852701
20
17.891753
30
0
210
0
220
0
230
1
1
\W0.7317;86,02
40
3.5
41
0
44
1.084337
50
0
71
7
72
5
7
iso_b_vert
0
LINE
5
164
100
AcDbEntity
8
SK2
62
256
6
ByLayer
370
13
48
1
60
0
100
AcDbLine
10
31.98
20
6.8375
30
0
11
31.98
21
18.859119
31
0
39
0
210
0
220
0
230
1
0
LINE
5
165
100
AcDbEntity
8
SK2
62
256
6
ByLayer
370
13
48
1
60
0
100
AcDbLine
10
118
20
1.5875
30
0
11
118
21
18.859119
31
0
39
0
210
0
220
0
230
1
0
LINE
5
166
100
AcDbEntity
8
SK2
62
256
6
ByLayer
370
13
48
1
60
0
100
AcDbLine
10
31.98
20
16.859119
30
0
11
118
21
16.859119
31
0
39
0
210
0
220
0
230
1
0
SOLID
5
167
100
AcDbEntity
8
SK2
62
256
6
ByLayer
370
18
48
1
60
0
100
AcDbTrace
10
31.98
20
16.859119
30
0
11
35.479998
21
17.319903
31
0
12
35.480002
22
16.398335
32
0
13
35.480002
23
16.398335
33
0
39
0
210
0
220
0
230
1
0
SOLID
5
168
100
AcDbEntity
8
SK2
62
256
6
ByLayer
370
18
48
1
60
0
100
AcDbTrace
10
118
20
16.859119
30
0
11
114.500002
21
16.398335
31
0
12
114.499998
22
17.319903
32
0
13
114.499998
23
17.319903
33
0
39
0
210
0
220
0
230
1
0
ENDBLK
5
16A
100
AcDbEntity
8
0
100
AcDbBlockEnd
0
BLOCK
5
16F
100
AcDbEntity
8
0
100
AcDbBlockBegin
2
*D7
70
1
10
0
20
0
30
0
3
*D7
0
LINE
5
171
100
AcDbEntity
8
0
62
256
6
ByLayer
370
-2
48
1
60
0
100
AcDbLine
10
118
20
-1.5875
30
0
11
118
21
-20.052503
31
0
39
0
210
0
220
0
230
1
0
LINE
5
172
100
AcDbEntity
8
0
62
256
6
ByLayer
370
-2
48
1
60
0
100
AcDbLine
10
115.9845
20
-6.8375
30
0
11
115.9845
21
-20.052503
31
0
39
0
210
0
220
0
230
1
0
LINE
5
173
100
AcDbEntity
8
0
62
256
6
ByLayer
370
-2
48
1
60
0
100
AcDbLine
10
118
20
-18.052503
30
0
11
146.166667
21
-18.052503
31
0
39
0
210
0
220
0
230
1
0
LINE
5
174
100
AcDbEntity
8
0
62
256
6
ByLayer
370
-2
48
1
60
0
100
AcDbLine
10
121.5
20
-18.052503
30
0
11
125
21
-18.052503
31
0
39
0
210
0
220
0
230
1
0
LINE
5
175
100
AcDbEntity
8
0
62
256
6
ByLayer
370
-2
48
1
60
0
100
AcDbLine
10
112.4845
20
-18.052503
30
0
11
108.9845
21
-18.052503
31
0
39
0
210
0
220
0
230
1
0
SOLID
5
176
100
AcDbEntity
8
0
62
256
6
ByLayer
370
-1
48
1
60
0
100
AcDbTrace
10
121.5
20
-17.46917
30
0
11
121.5
21
-18.635837
31
0
12
118
22
-18.052503
32
0
13
118
23
-18.052503
33
0
39
0
210
0
220
0
230
1
0
SOLID
5
177
100
AcDbEntity
8
0
62
256
6
ByLayer
370
-1
48
1
60
0
100
AcDbTrace
10
112.4845
20
-18.635837
30
0
11
112.4845
21
-17.46917
31
0
12
115.9845
22
-18.052503
32
0
13
115.9845
23
-18.052503
33
0
39
0
210
0
220
0
230
1
0
MTEXT
5
178
100
AcDbEntity
8
0
62
256
6
ByLayer
370
18
48
1
60
0
100
AcDbMText
10
135.583333
20
-11.052503
30
0
210
0
220
0
230
1
1
\A1;2.02
40
3.5
41
0
44
1
50
0
71
5
72
5
7
iso_b_vert
0
POINT
5
179
100
AcDbEntity
8
Defpoints
62
0
6
ByLayer
370
-1
48
1
60
0
100
AcDbPoint
10
118
20
0
30
0
39
0
210
0
220
0
230
1
50
360
0
POINT
5
17A
100
AcDbEntity
8
Defpoints
62
0
6
ByLayer
370
-1
48
1
60
0
100
AcDbPoint
10
115.9845
20
-5.25
30
0
39
0
210
0
220
0
230
1
50
360
0
POINT
5
17B
100
AcDbEntity
8
Defpoints
62
0
6
ByLayer
370
-1
48
1
60
0
100
AcDbPoint
10
115.9845
20
-18.052503
30
0
39
0
210
0
220
0
230
1
50
360
0
ENDBLK
5
170
100
AcDbEntity
8
0
100
AcDbBlockEnd
0
BLOCK
5
183
100
AcDbEntity
8
0
100
AcDbBlockBegin
2
_U3
70
0
10
0
20
0
30
0
3
_U3
0
MTEXT
5
17D
100
AcDbEntity
8
SK2
62
256
6
ByLayer
370
13
48
1
60
0
100
AcDbMText
10
124.15186
20
-17.01987
30
0
210
0
220
0
230
1
1
\W0.7150;2,02
40
3.5
41
0
44
1.084337
50
0
71
7
72
5
7
iso_b_vert
0
LINE
5
17E
100
AcDbEntity
8
SK2
62
256
6
ByLayer
370
13
48
1
60
0
100
AcDbLine
10
118
20
-1.5875
30
0
11
118
21
-20.052503
31
0
39
0
210
0
220
0
230
1
0
LINE
5
17F
100
AcDbEntity
8
SK2
62
256
6
ByLayer
370
13
48
1
60
0
100
AcDbLine
10
115.9845
20
-6.8375
30
0
11
115.9845
21
-20.052503
31
0
39
0
210
0
220
0
230
1
0
LINE
5
180
100
AcDbEntity
8
SK2
62
256
6
ByLayer
370
13
48
1
60
0
100
AcDbLine
10
107.2345
20
-18.052503
30
0
11
131.996491
21
-18.052503
31
0
39
0
210
0
220
0
230
1
0
SOLID
5
181
100
AcDbEntity
8
SK2
62
256
6
ByLayer
370
18
48
1
60
0
100
AcDbTrace
10
118
20
-18.052503
30
0
11
121.499998
21
-17.591719
31
0
12
121.500002
22
-18.513287
32
0
13
121.500002
23
-18.513287
33
0
39
0
210
0
220
0
230
1
0
SOLID
5
182
100
AcDbEntity
8
SK2
62
256
6
ByLayer
370
18
48
1
60
0
100
AcDbTrace
10
115.9845
20
-18.052503
30
0
11
112.484502
21
-18.513287
31
0
12
112.484498
22
-17.591719
32
0
13
112.484498
23
-17.591719
33
0
39
0
210
0
220
0
230
1
0
ENDBLK
5
184
100
AcDbEntity
8
0
100
AcDbBlockEnd
0
BLOCK
5
189
100
AcDbEntity
8
0
100
AcDbBlockBegin
2
*D9
70
1
10
0
20
0
30
0
3
*D9
0
LINE
5
18B
100
AcDbEntity
8
0
62
256
6
ByLayer
370
-2
48
1
60
0
100
AcDbLine
10
-45
20
-7.5875
30
0
11
-45
21
-26.343428
31
0
39
0
210
0
220
0
230
1
0
LINE
5
18C
100
AcDbEntity
8
0
62
256
6
ByLayer
370
-2
48
1
60
0
100
AcDbLine
10
115.9845
20
-6.8375
30
0
11
115.9845
21
-26.343428
31
0
39
0
210
0
220
0
230
1
0
LINE
5
18D
100
AcDbEntity
8
0
62
256
6
ByLayer
370
-2
48
1
60
0
100
AcDbLine
10
-41.5
20
-24.343428
30
0
11
112.4845
21
-24.343428
31
0
39
0
210
0
220
0
230
1
0
SOLID
5
18E
100
AcDbEntity
8
0
62
256
6
ByLayer
370
-1
48
1
60
0
100
AcDbTrace
10
-41.5
20
-23.760095
30
0
11
-41.5
21
-24.926762
31
0
12
-45
22
-24.343428
32
0
13
-45
23
-24.343428
33
0
39
0
210
0
220
0
230
1
0
SOLID
5
18F
100
AcDbEntity
8
0
62
256
6
ByLayer
370
-1
48
1
60
0
100
AcDbTrace
10
112.4845
20
-24.926762
30
0
11
112.4845
21
-23.760095
31
0
12
115.9845
22
-24.343428
32
0
13
115.9845
23
-24.343428
33
0
39
0
210
0
220
0
230
1
0
MTEXT
5
190
100
AcDbEntity
8
0
62
256
6
ByLayer
370
18
48
1
60
0
100
AcDbMText
10
35.49225
20
-17.343428
30
0
210
0
220
0
230
1
1
\A1;160.98
40
3.5
41
0
44
1
50
0
71
5
72
5
7
iso_b_vert
0
POINT
5
191
100
AcDbEntity
8
Defpoints
62
0
6
ByLayer
370
-1
48
1
60
0
100
AcDbPoint
10
-45
20
-6
30
0
39
0
210
0
220
0
230
1
50
360
0
POINT
5
192
100
AcDbEntity
8
Defpoints
62
0
6
ByLayer
370
-1
48
1
60
0
100
AcDbPoint
10
115.9845
20
-5.25
30
0
39
0
210
0
220
0
230
1
50
360
0
POINT
5
193
100
AcDbEntity
8
Defpoints
62
0
6
ByLayer
370
-1
48
1
60
0
100
AcDbPoint
10
115.9845
20
-24.343428
30
0
39
0
210
0
220
0
230
1
50
360
0
ENDBLK
5
18A
100
AcDbEntity
8
0
100
AcDbBlockEnd
0
BLOCK
5
19B
100
AcDbEntity
8
0
100
AcDbBlockBegin
2
_U4
70
0
10
0
20
0
30
0
3
_U4
0
MTEXT
5
195
100
AcDbEntity
8
SK2
62
256
6
ByLayer
370
13
48
1
60
0
100
AcDbMText
10
29.484651
20
-23.310795
30
0
210
0
220
0
230
1
1
\W0.6930;160,98
40
3.5
41
0
44
1.084337
50
0
71
7
72
5
7
iso_b_vert
0
LINE
5
196
100
AcDbEntity
8
SK2
62
256
6
ByLayer
370
13
48
1
60
0
100
AcDbLine
10
-45
20
-7.5875
30
0
11
-45
21
-26.343428
31
0
39
0
210
0
220
0
230
1
0
LINE
5
197
100
AcDbEntity
8
SK2
62
256
6
ByLayer
370
13
48
1
60
0
100
AcDbLine
10
115.9845
20
-6.8375
30
0
11
115.9845
21
-26.343428
31
0
39
0
210
0
220
0
230
1
0
LINE
5
198
100
AcDbEntity
8
SK2
62
256
6
ByLayer
370
13
48
1
60
0
100
AcDbLine
10
-45
20
-24.343428
30
0
11
115.9845
21
-24.343428
31
0
39
0
210
0
220
0
230
1
0
SOLID
5
199
100
AcDbEntity
8
SK2
62
256
6
ByLayer
370
18
48
1
60
0
100
AcDbTrace
10
-45
20
-24.343428
30
0
11
-41.500002
21
-23.882645
31
0
12
-41.499998
22
-24.804212
32
0
13
-41.499998
23
-24.804212
33
0
39
0
210
0
220
0
230
1
0
SOLID
5
19A
100
AcDbEntity
8
SK2
62
256
6
ByLayer
370
18
48
1
60
0
100
AcDbTrace
10
115.9845
20
-24.343428
30
0
11
112.484502
21
-24.804212
31
0
12
112.484498
22
-23.882645
32
0
13
112.484498
23
-23.882645
33
0
39
0
210
0
220
0
230
1
0
ENDBLK
5
19C
100
AcDbEntity
8
0
100
AcDbBlockEnd
0
ENDSEC
0
SECTION
2
ENTITIES
0
ARC
5
AA
100
AcDbEntity
8
1
62
256
6
ByLayer
370
18
48
1
60
0
100
AcDbCircle
39
0
10
1.528559
20
-5.893981
30
0
40
0.850000000000003
210
0
220
0
230
1
100
AcDbArc
50
89.896868
51
154.046874
0
ARC
5
AB
100
AcDbEntity
8
1
62
256
6
ByLayer
370
18
48
1
60
0
100
AcDbCircle
39
0
10
1.528559
20
5.893981
30
0
40
0.850000000000003
210
0
220
0
230
1
100
AcDbArc
50
205.953126
51
270.103132
0
ARC
5
AC
100
AcDbEntity
8
1
62
256
6
ByLayer
370
18
48
1
60
0
100
AcDbCircle
39
0
10
0
20
-5.15
30
0
40
0.849999999999997
210
0
220
0
230
1
100
AcDbArc
50
270
51
334.046874
0
ARC
5
AD
100
AcDbEntity
8
1
62
256
6
ByLayer
370
18
48
1
60
0
100
AcDbCircle
39
0
10
0
20
5.15
30
0
40
0.849999999999997
210
0
220
0
230
1
100
AcDbArc
50
25.953126
51
90
0
ELLIPSE
5
AE
100
AcDbEntity
8
1
62
256
6
ByLayer
370
13
48
1
60
0
100
AcDbEllipse
10
5.809475
20
-0.171969
30
0
11
0.135115705057517
21
0.267850231000106
31
0
210
0
220
0
230
1
40
0.013184
41
1.5403631170442
42
2.48986380036281
0
ELLIPSE
5
AF
100
AcDbEntity
8
1
62
256
6
ByLayer
370
13
48
1
60
0
100
AcDbEllipse
10
5.489367
20
-0.014602
30
0
11
-0.130842845841146
21
-0.269963237668002
31
0
210
0
220
0
230
1
40
0.419043
41
-1.37323734022765
42
-1.14616944078626
0
ELLIPSE
5
B0
100
AcDbEntity
8
1
62
256
6
ByLayer
370
13
48
1
60
0
100
AcDbEllipse
10
15.218651
20
-67.846481
30
0
11
42.7014069185467
21
60.6170953273867
31
0
210
0
220
0
230
1
40
0.768539
41
0.867174307572515
42
0.892450541368691
0
ELLIPSE
5
B1
100
AcDbEntity
8
1
62
256
6
ByLayer
370
13
48
1
60
0
100
AcDbEllipse
10
162.194174
20
41.888784
30
0
11
-60.1999999999998
21
7.37213025001069E-15
31
0
210
0
220
0
230
1
40
0.99863
41
0.716344390617162
42
0.73221481896009
0
ELLIPSE
5
B2
100
AcDbEntity
8
1
62
256
6
ByLayer
370
13
48
1
60
0
100
AcDbEllipse
10
17.088497
20
69.163685
30
0
11
-42.7014069185465
21
60.6170953273868
31
0
210
0
220
0
230
1
40
0.768539
41
2.3196437063806
42
2.39967989127318
0
ELLIPSE
5
B3
100
AcDbEntity
8
1
62
256
6
ByLayer
370
18
48
1
60
0
100
AcDbEllipse
10
5.808117
20
5.922568
30
0
11
-1
21
1.22460635382238E-16
31
0
210
0
220
0
230
1
40
1
41
1.06830751696673
42
1.57662968074756
0
ELLIPSE
5
B4
100
AcDbEntity
8
1
62
256
6
ByLayer
370
18
48
1
60
0
100
AcDbEllipse
10
5.808117
20
-5.922568
30
0
11
-1
21
1.22460635382238E-16
31
0
210
0
220
0
230
1
40
1
41
-1.56972748370012
42
-1.0696603982804
0
POINT
5
70
100
AcDbEntity
8
80
62
256
6
ByLayer
370
18
48
1
60
0
100
AcDbPoint
10
0
20
0
30
0
39
0
210
0
220
0
230
1
50
360
0
POINT
5
72
100
AcDbEntity
8
81
62
256
6
ByLayer
370
18
48
1
60
0
100
AcDbPoint
10
118
20
0
30
0
39
0
210
0
220
0
230
1
50
360
0
POINT
5
74
100
AcDbEntity
8
1
62
256
6
ByLayer
370
18
48
1
60
1
100
AcDbPoint
10
115.9845
20
-5.25
30
0
39
0
210
0
220
0
230
1
50
360
0
POINT
5
76
100
AcDbEntity
8
1
62
256
6
ByLayer
370
18
48
1
60
1
100
AcDbPoint
10
-45
20
-6
30
0
39
0
210
0
220
0
230
1
50
360
0
POINT
5
77
100
AcDbEntity
8
1
62
256
6
ByLayer
370
18
48
1
60
1
100
AcDbPoint
10
31.98
20
5.25
30
0
39
0
210
0
220
0
230
1
50
360
0
POINT
5
78
100
AcDbEntity
8
1
62
256
6
ByLayer
370
18
48
1
60
1
100
AcDbPoint
10
115.9845
20
-5.25
30
0
39
0
210
0
220
0
230
1
50
360
0
POINT
5
79
100
AcDbEntity
8
1
62
256
6
ByLayer
370
18
48
1
60
1
100
AcDbPoint
10
-45
20
-6
30
0
39
0
210
0
220
0
230
1
50
360
0
POINT
5
7A
100
AcDbEntity
8
1
62
256
6
ByLayer
370
18
48
1
60
1
100
AcDbPoint
10
115.9845
20
-5.25
30
0
39
0
210
0
220
0
230
1
50
360
0
SPLINE
5
B5
100
AcDbEntity
8
1
62
256
6
ByLayer
370
18
48
1
60
0
100
AcDbSpline
70
4
71
3
72
8
73
4
40
0
40
0
40
0
40
0
40
1
40
1
40
1
40
1
41
1
10
117.423699887462
20
1.69912919263606
30
0
41
1
10
117.221764619379
20
2.28546609136191
30
0
41
1
10
117.021072175355
20
2.87222889700004
30
0
41
1
10
116.821627991771
20
3.45941947255957
30
0
0
SPLINE
5
B6
100
AcDbEntity
8
1
62
256
6
ByLayer
370
18
48
1
60
0
100
AcDbSpline
70
4
71
1
72
4
73
2
40
0
40
0
40
1
40
1
41
1
10
116.089669286193
20
-4.982493944109
30
0
41
1
10
117.246619537806
20
-1.07669535181995
30
0
0
SPLINE
5
B7
100
AcDbEntity
8
1
62
256
6
ByLayer
370
13
48
1
60
0
100
AcDbSpline
70
4
71
3
72
90
73
86
40
0
40
0
40
0
40
0
40
0.0053305505319727
40
0.0114800860082552
40
0.0237791569608176
40
0.0360782279133826
40
0.0545268343422291
40
0.0606763698185126
40
0.0729754407710766
40
0.0852745117236427
40
0.103723118152488
40
0.109872653628771
40
0.122171724581335
40
0.134470795533899
40
0.152919401962748
40
0.159068937439028
40
0.171368008391592
40
0.183667079344158
40
0.202115685773003
40
0.208265221249286
40
0.22056429220185
40
0.232863363154415
40
0.251311969583259
40
0.257461505059544
40
0.269760576012109
40
0.282059646964672
40
0.300508253393518
40
0.306657788869801
40
0.318956859822366
40
0.331255930774928
40
0.349704537203776
40
0.355854072680059
40
0.368153143632623
40
0.380452214585188
40
0.398900821014033
40
0.405050356490317
40
0.417349427442881
40
0.429648498395446
40
0.448097104824292
40
0.454246640300574
40
0.466545711253138
40
0.478844782205704
40
0.497293388634549
40
0.503442924110832
40
0.515741995063397
40
0.528041066015961
40
0.546489672444807
40
0.55263920792109
40
0.564938278873654
40
0.577237349826218
40
0.595685956255066
40
0.601835491731347
40
0.614134562683911
40
0.626433633636476
40
0.644882240065324
40
0.651031775541605
40
0.66333084649417
40
0.675629917446734
40
0.694078523875581
40
0.700228059351863
40
0.712527130304427
40
0.724826201256991
40
0.743274807685839
40
0.749424343162121
40
0.761723414114685
40
0.774022485067248
40
0.792471091496096
40
0.798620626972378
40
0.810919697924943
40
0.823218768877507
40
0.841667375306354
40
0.847816910782636
40
0.8601159817352
40
0.872415052687765
40
0.890863659116612
40
0.897013194592894
40
0.909312265545458
40
0.921611336498023
40
0.940059942926869
40
0.946209478403152
40
0.958508549355716
40
0.970807620308281
40
0.989256226737126
40
0.995405762213409
40
1
40
1
40
1
40
1
41
1
10
73.2093301017863
20
-2.12357209432173
30
0
41
1
10
73.1720817889443
20
-2.12741271343026
30
0
41
1
10
73.0918621362399
20
-2.13559632149202
30
0
41
1
10
72.9257017786194
20
-2.15215340817304
30
0
41
1
10
72.7108725297567
20
-2.17269664231537
30
0
41
1
10
72.4101065052538
20
-2.19986732013891
30
0
41
1
10
72.1522758986833
20
-2.2214922599187
30
0
41
1
10
71.8944513521103
20
-2.24175134975221
30
0
41
1
10
71.6796223132906
20
-2.25772396925854
30
0
41
1
10
71.3788566675032
20
-2.27843536131056
30
0
41
1
10
71.1210264133944
20
-2.29447371107852
30
0
41
1
10
70.8632021746945
20
-2.30909938448565
30
0
41
1
10
70.6483732484419
20
-2.32033898465818
30
0
41
1
10
70.3476074644345
20
-2.33437697986196
30
0
41
1
10
70.0897768736016
20
-2.34466261157473
30
0
41
1
10
69.8319522144529
20
-2.35350753193475
30
0
41
1
10
69.6171230068781
20
-2.35990472196036
30
0
41
1
10
69.3163570125279
20
-2.36713719226691
30
0
41
1
10
69.0585263680604
20
-2.37157510024295
30
0
41
1
10
68.8007016906182
20
-2.37455502599309
30
0
41
1
10
68.5858724743823
20
-2.37604613539364
30
0
41
1
10
68.2851065045196
20
-2.3763977605102
30
0
41
1
10
68.0272759488435
20
-2.37494012618779
30
0
41
1
10
67.7694514483436
20
-2.37202445374982
30
0
41
1
10
67.554622447389
20
-2.36859624433586
30
0
41
1
10
67.2538568522378
20
-2.36206784505464
30
0
41
1
10
66.9960266323095
20
-2.35473253896211
30
0
41
1
10
66.7382024133183
20
-2.3459503008705
30
0
41
1
10
66.5233734904785
20
-2.33763410973742
30
0
41
1
10
66.2226076896935
20
-2.32428405602173
30
0
41
1
10
65.9647770674421
20
-2.31113827858712
30
0
41
1
10
65.7069523699387
20
-2.29657424866573
30
0
41
1
10
65.4921231293768
20
-2.28345342209116
30
0
41
1
10
65.1913570935557
20
-2.26341838549879
30
0
41
1
10
64.9335264233121
20
-2.24459697039703
30
0
41
1
10
64.6757017341292
20
-2.22439774164246
30
0
41
1
10
64.4608725162372
20
-2.20660208969548
30
0
41
1
10
64.1601065533987
20
-2.18007819997538
30
0
41
1
10
63.902276009925
20
-2.15576534512868
30
0
41
1
10
63.6444515216621
20
-2.1301309810498
30
0
41
1
10
63.4296225298026
20
-2.10783866163536
30
0
41
1
10
63.1288569415947
20
-2.07509325211225
30
0
41
1
10
62.871026717533
20
-2.04553413171808
30
0
41
1
10
62.6132024814228
20
-2.01472118407853
30
0
41
1
10
62.3983735375392
20
-1.98815364589183
30
0
41
1
10
62.0976077018581
20
-1.94951002546733
30
0
41
1
10
61.8397770486424
20
-1.91499559659852
30
0
41
1
10
61.5819523256275
20
-1.8793080330183
30
0
41
1
10
61.3671230668287
20
-1.84872817434666
30
0
41
1
10
61.0663570133613
20
-1.80456960852825
30
0
41
1
10
60.8085263409634
20
-1.76544229341667
30
0
41
1
10
60.550701665025
20
-1.7252333447039
30
0
41
1
10
60.335872470115
20
-1.69094308841017
30
0
41
1
10
60.0351065573355
20
-1.64170514761162
30
0
41
1
10
59.7772760695995
20
-1.59835155064747
30
0
41
1
10
59.5194516402655
20
-1.55402033962281
30
0
41
1
10
59.3046226944607
20
-1.51636145034593
30
0
41
1
10
59.0038571560339
20
-1.46253674056703
30
0
41
1
10
58.746026953733
20
-1.4153918124791
30
0
41
1
10
58.4882027152818
20
-1.36738315747218
30
0
41
1
10
58.2733737586055
20
-1.32673328579159
30
0
41
1
10
57.9726078958009
20
-1.2688603307765
30
0
41
1
10
57.7147772141024
20
-1.21839362197508
30
0
41
1
10
57.4569524654672
20
-1.16718295236535
30
0
41
1
10
57.2421231836407
20
-1.12394287953339
30
0
41
1
10
56.9413570941386
20
-1.06259025948177
30
0
41
1
10
56.6835263922633
20
-1.00929666811723
30
0
41
1
10
56.4257016934119
20
-0.955386947227453
30
0
41
1
10
56.2108724882136
20
-0.909982095913648
30
0
41
1
10
55.9101065775881
20
-0.845754960732819
30
0
41
1
10
55.6522761050995
20
-0.790162003141745
30
0
41
1
10
55.3944516977118
20
-0.734088609828092
30
0
41
1
10
55.1796227673869
20
-0.686971040429057
30
0
41
1
10
54.8788572358101
20
-0.620511055840382
30
0
41
1
10
54.6210270209144
20
-0.563176592614553
30
0
41
1
10
54.3632027500772
20
-0.505504280098677
30
0
41
1
10
54.1483737619393
20
-0.457149808207248
30
0
41
1
10
53.8476078602405
20
-0.389127729950246
30
0
41
1
10
53.5897771540054
20
-0.330627110690131
30
0
41
1
10
53.3319523940002
20
-0.271928466607846
30
0
41
1
10
53.1171231053121
20
-0.222812691380938
30
0
41
1
10
52.8163570074867
20
-0.153892343779774
30
0
41
1
10
52.5585263046137
20
-0.0947941172919116
30
0
41
1
10
52.3545402664501
20
-0.0479937973038886
30
0
41
1
10
52.2794716043674
20
-0.03074890584287
30
0
41
1
10
52.2473713836825
20
-0.0233723912160713
30
0
0
SPLINE
5
B8
100
AcDbEntity
8
1
62
256
6
ByLayer
370
18
48
1
60
0
100
AcDbSpline
70
4
71
3
72
10
73
6
40
0
40
0
40
0
40
0
40
0.5
40
0.5
40
1
40
1
40
1
40
1
41
1
10
116.089669286205
20
-4.98249394411195
30
0
41
1
10
116.085570355234
20
-4.95848902485295
30
0
41
1
10
116.078741604925
20
-4.93855726854716
30
0
41
1
10
116.06205377021
20
-4.9060088030914
30
0
41
1
10
116.052017831859
20
-4.89302216484447
30
0
41
1
10
116.040872329305
20
-4.88293468258601
30
0
0
SPLINE
5
B9
100
AcDbEntity
8
1
62
256
6
ByLayer
370
18
48
1
60
0
100
AcDbSpline
70
4
71
3
72
8
73
4
40
0
40
0
40
0
40
0
40
1
40
1
40
1
40
1
41
1
10
116.13801175876
20
5.19459152861143
30
0
41
1
10
116.363918259946
20
4.63583682369315
30
0
41
1
10
116.594584109977
20
4.05899801582746
30
0
41
1
10
116.821627991771
20
3.45941947255955
30
0
0
SPLINE
5
BA
100
AcDbEntity
8
1
62
256
6
ByLayer
370
18
48
1
60
0
100
AcDbSpline
70
4
71
3
72
12
73
8
40
0
40
0
40
0
40
0
40
0.25
40
0.25
40
0.5
40
0.5
40
1
40
1
40
1
40
1
41
1
10
5.33238288258846
20
-0.0758623061421417
30
0
41
1
10
5.34818498420384
20
-0.114142133149301
30
0
41
1
10
5.37212320591058
20
-0.146917924929227
30
0
41
1
10
5.42749905220683
20
-0.207395778766681
30
0
41
1
10
5.45834812497702
20
-0.233978394829023
30
0
41
1
10
5.55540432060607
20
-0.307247543846472
30
0
41
1
10
5.62653239398196
20
-0.348117223921889
30
0
41
1
10
5.69991089649295
20
-0.383839179229057
30
0
0
SPLINE
5
BB
100
AcDbEntity
8
1
62
256
6
ByLayer
370
18
48
1
60
0
100
AcDbSpline
70
4
71
3
72
10
73
6
40
0
40
0
40
0
40
0
40
0.5
40
0.5
40
1
40
1
40
1
40
1
41
1
10
5.5517035766506
20
-4.54722240688994
30
0
41
1
10
5.57351815127092
20
-4.50275016806813
30
0
41
1
10
5.60093097098525
20
-4.45544389542357
30
0
41
1
10
5.66458207491331
20
-4.35823263306202
30
0
41
1
10
5.7008854268413
20
-4.30811665217141
30
0
41
1
10
5.74117380079454
20
-4.25666246723731
30
0
0
SPLINE
5
BC
100
AcDbEntity
8
1
62
256
6
ByLayer
370
18
48
1
60
0
100
AcDbSpline
70
4
71
3
72
18
73
14
40
0
40
0
40
0
40
0
40
0.0679589609572406
40
0.0679589609572406
40
0.135917921914481
40
0.135917921914481
40
0.271835843828962
40
0.271835843828962
40
0.543671687657925
40
0.543671687657925
40
0.815507531486887
40
0.815507531486887
40
1
40
1
40
1
40
1
41
1
10
5.32929368536855
20
-4.49819683616542
30
0
41
1
10
5.32448613123177
20
-4.52255039611163
30
0
41
1
10
5.32136914714977
20
-4.54626654138178
30
0
41
1
10
5.3183659262765
20
-4.59236867891184
30
0
41
1
10
5.31882784272571
20
-4.61474429352205
30
0
41
1
10
5.31881821041651
20
-4.67913371275935
30
0
41
1
10
5.31880617607828
20
-4.71866940280304
30
0
41
1
10
5.31875545831787
20
-4.82732701045362
30
0
41
1
10
5.31870220192556
20
-4.88653875058381
30
0
41
1
10
5.31856732110305
20
-4.97869951373727
30
0
41
1
10
5.31848554945361
20
-5.01167764998635
30
0
41
1
10
5.31833278248385
20
-5.04396878604297
30
0
41
1
10
5.3182676153618
20
-5.05054212592006
30
0
41
1
10
5.31820061919109
20
-5.05080071861332
30
0
0
SPLINE
5
BD
100
AcDbEntity
8
1
62
256
6
ByLayer
370
18
48
1
60
0
100
AcDbSpline
70
4
71
3
72
18
73
14
40
0
40
0
40
0
40
0
40
0.249999999999999
40
0.249999999999999
40
0.374999999999999
40
0.374999999999999
40
0.499999999999999
40
0.499999999999999
40
0.749999999999999
40
0.749999999999999
40
0.875
40
0.875
40
1
40
1
40
1
40
1
41
1
10
115.596176854372
20
0.543599193357352
30
0
41
1
10
115.542135689135
20
0.282369149700003
30
0
41
1
10
115.498230829773
20
0.0204893453592945
30
0
41
1
10
115.447601078179
20
-0.373306481570722
30
0
41
1
10
115.433273387974
20
-0.50473514720116
30
0
41
1
10
115.409858971506
20
-0.767928436389326
30
0
41
1
10
115.400747354286
20
-0.900281284654994
30
0
41
1
10
115.381835740395
20
-1.2934706420634
30
0
41
1
10
115.380396672596
20
-1.54837594550804
30
0
41
1
10
115.394459499578
20
-1.92024618557474
30
0
41
1
10
115.401863334258
20
-2.04244679834338
30
0
41
1
10
115.422164047897
20
-2.28329658062722
30
0
41
1
10
115.435110018592
20
-2.40227481121079
30
0
41
1
10
115.450745903926
20
-2.51847091622128
30
0
0
SPLINE
5
BE
100
AcDbEntity
8
1
62
256
6
ByLayer
370
18
48
1
60
0
100
AcDbSpline
70
4
71
3
72
34
73
30
40
0
40
0
40
0
40
0
40
0.0260733038237694
40
0.0260733038237694
40
0.107233861838455
40
0.107233861838455
40
0.147814140845798
40
0.147814140845798
40
0.188394419853141
40
0.188394419853141
40
0.350715535882512
40
0.350715535882512
40
0.391295814889855
40
0.391295814889855
40
0.431876093897198
40
0.431876093897198
40
0.513036651911884
40
0.513036651911884
40
0.553616930919227
40
0.553616930919227
40
0.59419720992657
40
0.59419720992657
40
0.675357767941256
40
0.675357767941256
40
0.756518325955942
40
0.756518325955942
40
0.837678883970628
40
0.837678883970628
40
1
40
1
40
1
40
1
41
1
10
5.31820060337117
20
5.05080077955577
30
0
41
1
10
5.31816889083558
20
5.05092271296306
30
0
41
1
10
5.31813676851687
20
5.04962978690449
30
0
41
1
10
5.31800365789951
20
5.0385661564188
30
0
41
1
10
5.31790053249594
20
5.01665200814273
30
0
41
1
10
5.31774844276671
20
4.96325840062912
30
0
41
1
10
5.31769816743656
20
4.94202998640873
30
0
41
1
10
5.31759936747557
20
4.89254736692823
30
0
41
1
10
5.31755100726417
20
4.8643445144462
30
0
41
1
10
5.31731881486064
20
4.70781729345123
30
0
41
1
10
5.31716230334791
20
4.53250700666996
30
0
41
1
10
5.31701797015444
20
4.25030978106813
30
0
41
1
10
5.31699155684225
20
4.1904836167065
30
0
41
1
10
5.31694444870797
20
4.06600474714202
30
0
41
1
10
5.31692365825012
20
4.00120919585419
30
0
41
1
10
5.31686909980789
20
3.79930667826161
30
0
41
1
10
5.31684319115632
20
3.654713595895
30
0
41
1
10
5.31681731786108
20
3.42288680706864
30
0
41
1
10
5.31681084723564
20
3.34311421863362
30
0
41
1
10
5.31680161173233
20
3.17849113476041
30
0
41
1
10
5.31679884508318
20
3.09335485267633
30
0
41
1
10
5.31679504033713
20
2.83224397596228
30
0
41
1
10
5.3167984747194
20
2.65164547442123
30
0
41
1
10
5.31680913340472
20
2.27784605900294
30
0
41
1
10
5.31681638002968
20
2.08464407379555
30
0
41
1
10
5.31682546758765
20
1.68545576895758
30
0
41
1
10
5.31682722270722
20
1.47809948300949
30
0
41
1
10
5.31680873686366
20
0.853346871212011
30
0
41
1
10
5.31676545263761
20
0.42954408420664
30
0
41
1
10
5.31665074876454
20
-0.0016016569655903
30
0
0
SPLINE
5
BF
100
AcDbEntity
8
1
62
256
6
ByLayer
370
18
48
1
60
0
100
AcDbSpline
70
4
71
3
72
8
73
4
40
0
40
0
40
0
40
0
40
1
40
1
40
1
40
1
41
1
10
116.13801175876
20
-5.19459152861143
30
0
41
1
10
116.363931117713
20
-4.63580502143242
30
0
41
1
10
116.594597383215
20
-4.05896296379942
30
0
41
1
10
116.821627991771
20
-3.45941947255977
30
0
0
SPLINE
5
C0
100
AcDbEntity
8
1
62
256
6
ByLayer
370
18
48
1
60
0
100
AcDbSpline
70
4
71
3
72
14
73
10
40
0
40
0
40
0
40
0
40
0.5
40
0.5
40
0.75
40
0.75
40
0.875
40
0.875
40
1
40
1
40
1
40
1
41
1
10
5.81060933577663
20
-4.83634185231648
30
0
41
1
10
5.75952211083202
20
-4.79970596611938
30
0
41
1
10
5.72249122626579
20
-4.75531289001205
30
0
41
1
10
5.70680944241144
20
-4.66621893981474
30
0
41
1
10
5.70822961095286
20
-4.63276691263994
30
0
41
1
10
5.72053533473849
20
-4.57681883425172
30
0
41
1
10
5.72628967735062
20
-4.55731834948369
30
0
41
1
10
5.74061016907365
20
-4.51711430358569
30
0
41
1
10
5.74956002333545
20
-4.49619307428321
30
0
41
1
10
5.75881212934235
20
-4.47513344680212
30
0
0
SPLINE
5
C1
100
AcDbEntity
8
1
62
256
6
ByLayer
370
18
48
1
60
0
100
AcDbSpline
70
4
71
3
72
18
73
14
40
0
40
0
40
0
40
0
40
0.249999999999988
40
0.249999999999988
40
0.37499999999999
40
0.37499999999999
40
0.499999999999992
40
0.499999999999992
40
0.624999999999994
40
0.624999999999994
40
0.749999999999996
40
0.749999999999996
40
1
40
1
40
1
40
1
41
1
10
117.250655373885
20
-1.06307059737779
30
0
41
1
10
117.30572864487
20
-1.0224111116861
30
0
41
1
10
117.363617532669
20
-0.964290698805428
30
0
41
1
10
117.454958674476
20
-0.852780694049386
30
0
41
1
10
117.486281856482
20
-0.811341506521046
30
0
41
1
10
117.549982942693
20
-0.72090277647257
30
0
41
1
10
117.58199571531
20
-0.672447855948775
30
0
41
1
10
117.646351019571
20
-0.569468493126777
30
0
41
1
10
117.678693463801
20
-0.51494228498359
30
0
41
1
10
117.743696691785
20
-0.399984287272417
30
0
41
1
10
117.77652504766
20
-0.339222864775252
30
0
41
1
10
117.874152591792
20
-0.15056365601842
30
0
41
1
10
117.937688410148
20
-0.0173067622886833
30
0
41
1
10
117.999597132061
20
0.122824863170706
30
0
0
SPLINE
5
C2
100
AcDbEntity
8
1
62
256
6
ByLayer
370
18
48
1
60
0
100
AcDbSpline
70
4
71
3
72
8
73
4
40
0
40
0
40
0
40
0
40
1
40
1
40
1
40
1
41
1
10
5.75881212934237
20
-4.47513344680212
30
0
41
1
10
5.6894313924729
20
-4.49947087410695
30
0
41
1
10
5.62039495107575
20
-4.52350139000592
30
0
41
1
10
5.55170357663619
20
-4.54722240689648
30
0
0
SPLINE
5
C3
100
AcDbEntity
8
1
62
256
6
ByLayer
370
18
48
1
60
0
100
AcDbSpline
70
4
71
1
72
4
73
2
40
0
40
0
40
1
40
1
41
1
10
117.246619537788
20
-1.07669535181463
30
0
41
1
10
117.250655373927
20
-1.06307059734658
30
0
0
SPLINE
5
C4
100
AcDbEntity
8
1
62
256
6
ByLayer
370
18
48
1
60
0
100
AcDbSpline
70
4
71
3
72
28
73
24
40
0
40
0
40
0
40
0
40
0.223473106053642
40
0.223473106053642
40
0.320538967796936
40
0.320538967796936
40
0.41760482954023
40
0.41760482954023
40
0.514670691283524
40
0.514670691283524
40
0.611736553026818
40
0.611736553026818
40
0.708802414770112
40
0.708802414770112
40
0.75733534564176
40
0.75733534564176
40
0.805868276513408
40
0.805868276513408
40
0.902934138256704
40
0.902934138256704
40
0.951467069128352
40
0.951467069128352
40
1
40
1
40
1
40
1
41
1
10
10.8579935407906
20
-3.59613059555247
30
0
41
1
10
10.4019539264788
20
-3.76448879239993
30
0
41
1
10
9.95101158805417
20
-3.92654593917175
30
0
41
1
10
9.31309296331614
20
-4.1463466288607
30
0
41
1
10
9.1206828933569
20
-4.21142437741796
30
0
41
1
10
8.7415001584564
20
-4.33647934481291
30
0
41
1
10
8.55453397945234
20
-4.39652497208078
30
0
41
1
10
8.18673038704327
20
-4.51044611420673
30
0
41
1
10
8.00587576826757
20
-4.56434457128708
30
0
41
1
10
7.65140504186138
20
-4.66444266601701
30
0
41
1
10
7.4788911740381
20
-4.7103320818488
30
0
41
1
10
7.14651381732628
20
-4.79128350781551
30
0
41
1
10
6.98643639290631
20
-4.82642106482953
30
0
41
1
10
6.75788305692592
20
-4.86855445877342
30
0
41
1
10
6.68363664630161
20
-4.88082535519791
30
0
41
1
10
6.53961554295191
20
-4.90118755953571
30
0
41
1
10
6.47007998472054
20
-4.9092311177557
30
0
41
1
10
6.27208100038723
20
-4.92577336725691
30
0
41
1
10
6.15320622108544
20
-4.92694369920272
30
0
41
1
10
6.00062092902735
20
-4.90875406614296
30
0
41
1
10
5.95432605801275
20
-4.89929886960232
30
0
41
1
10
5.87372008857369
20
-4.87332104390387
30
0
41
1
10
5.8390992191456
20
-4.85677263762179
30
0
41
1
10
5.81060933578135
20
-4.83634185231611
30
0
0
SPLINE
5
C5
100
AcDbEntity
8
1
62
256
6
ByLayer
370
18
48
1
60
0
100
AcDbSpline
70
4
71
3
72
8
73
4
40
0
40
0
40
0
40
0
40
1
40
1
40
1
40
1
41
1
10
117.248964127689
20
-1.06136854073696
30
0
41
1
10
117.249527865163
20
-1.06193590414051
30
0
41
1
10
117.250091613924
20
-1.06250325632905
30
0
41
1
10
117.250655373972
20
-1.0630705973019
30
0
0
SPLINE
5
C6
100
AcDbEntity
8
1
62
256
6
ByLayer
370
18
48
1
60
0
100
AcDbSpline
70
4
71
3
72
10
73
6
40
0
40
0
40
0
40
0
40
0.73295468454817
40
0.73295468454817
40
1
40
1
40
1
40
1
41
1
10
86.7344871629793
20
-5.06656716419982
30
0
41
1
10
86.218802503799
20
-5.0663413407691
30
0
41
1
10
85.7021961250687
20
-5.04725227516508
30
0
41
1
10
84.9946180578152
20
-4.99523577330055
30
0
41
1
10
84.8053912488851
20
-4.97881684836401
30
0
41
1
10
84.6158376466418
20
-4.95986397633288
30
0
0
SPLINE
5
C7
100
AcDbEntity
8
1
62
256
6
ByLayer
370
13
48
1
60
0
100
AcDbSpline
70
4
71
3
72
40
73
36
40
0
40
0
40
0
40
0
40
0.0115697257748676
40
0.0115697257748676
40
0.0453992678242833
40
0.0453992678242833
40
0.113058351923117
40
0.113058351923117
40
0.248376520120786
40
0.248376520120786
40
0.31603560421962
40
0.31603560421962
40
0.349865146269036
40
0.349865146269036
40
0.383694688318453
40
0.383694688318453
40
0.519012856516121
40
0.519012856516121
40
0.586671940614955
40
0.586671940614955
40
0.654331024713789
40
0.654331024713789
40
0.721990108812623
40
0.721990108812623
40
0.755819650862041
40
0.755819650862041
40
0.789649192911458
40
0.789649192911458
40
0.924967361109123
40
0.924967361109123
40
0.958796903158541
40
0.958796903158541
40
0.992626445207957
40
0.992626445207957
40
1
40
1
40
1
40
1
41
1
10
84.6158376471327
20
-4.95986397638202
30
0
41
1
10
84.5173155763014
20
-4.95001306256034
30
0
41
1
10
84.4187052226616
20
-4.93947760607202
30
0
41
1
10
84.0313841207686
20
-4.89544746779663
30
0
41
1
10
83.7426023310159
20
-4.85686848811963
30
0
41
1
10
82.8796176042439
20
-4.72490984552266
30
0
41
1
10
82.3069504199793
20
-4.61499503711877
30
0
41
1
10
80.5925738956303
20
-4.22482870376234
30
0
41
1
10
79.4542723149702
20
-3.88379594715295
30
0
41
1
10
77.7362890931385
20
-3.27297486505972
30
0
41
1
10
77.1617653987365
20
-3.05288695204322
30
0
41
1
10
76.2951328353436
20
-2.70105555187757
30
0
41
1
10
76.0064977113886
20
-2.58061847220276
30
0
41
1
10
75.4310713010381
20
-2.33494013227062
30
0
41
1
10
75.1440211660469
20
-2.20955764163631
30
0
41
1
10
73.7111842033706
20
-1.57178093629267
30
0
41
1
10
72.5722617535915
20
-1.0273477646854
30
0
41
1
10
70.8575063072411
20
-0.195169734402441
30
0
41
1
10
70.2847697120093
20
0.0846438332638968
30
0
41
1
10
69.1342569447494
20
0.643344976140298
30
0
41
1
10
68.554972494706
20
0.922612553621633
30
0
41
1
10
67.4008459339006
20
1.46775934830691
30
0
41
1
10
66.824735198975
20
1.7339880696716
30
0
41
1
10
65.9598292944434
20
2.11971347277142
30
0
41
1
10
65.6713760636779
20
2.2459511264974
30
0
41
1
10
65.0937986833497
20
2.49305273251349
30
0
41
1
10
64.8044098108349
20
2.61411093659692
30
0
41
1
10
63.3595843209818
20
3.20228522364042
30
0
41
1
10
62.2096662873863
20
3.61824651716043
30
0
41
1
10
60.764581047516
20
4.04718195047337
30
0
41
1
10
60.4750967098462
20
4.12839189737892
30
0
41
1
10
59.8967748420735
20
4.28069642718339
30
0
41
1
10
59.6077367213267
20
4.35190511273004
30
0
41
1
10
59.2555773286373
20
4.43232850078809
30
0
41
1
10
59.1925361641783
20
4.44647692415217
30
0
41
1
10
59.1294848668131
20
4.46037743321583
30
0
0
SPLINE
5
C8
100
AcDbEntity
8
1
62
256
6
ByLayer
370
18
48
1
60
0
100
AcDbSpline
70
4
71
3
72
14
73
10
40
0
40
0
40
0
40
0
40
0.154622549548093
40
0.154622549548093
40
0.574790251936051
40
0.574790251936051
40
0.994957954324003
40
0.994957954324003
40
1
40
1
40
1
40
1
41
1
10
21.7163751419304
20
-4.94968491230452
30
0
41
1
10
21.6105587506831
20
-4.94948800315811
30
0
41
1
10
21.5046785728125
20
-4.94851395111678
30
0
41
1
10
21.1108103211625
20
-4.94199328708231
30
0
41
1
10
20.822374249087
20
-4.93148333580615
30
0
41
1
10
20.2440393465355
20
-4.89881402290246
30
0
41
1
10
19.953727727934
20
-4.8766149738459
30
0
41
1
10
19.6604003300426
20
-4.84843428730238
30
0
41
1
10
19.656922164867
20
-4.84809931000043
30
0
41
1
10
19.6534440473466
20
-4.84776351615008
30
0
0
SPLINE
5
C9
100
AcDbEntity
8
1
62
256
6
ByLayer
370
13
48
1
60
0
100
AcDbSpline
70
4
71
3
72
18
73
14
40
0
40
0
40
0
40
0
40
0.249437074015409
40
0.249437074015409
40
0.37453089501284
40
0.37453089501284
40
0.499624716010271
40
0.499624716010271
40
0.749812358005136
40
0.749812358005136
40
0.874906179002568
40
0.874906179002568
40
1
40
1
40
1
40
1
41
1
10
19.6534440458978
20
-4.84776351601025
30
0
41
1
10
18.4975573019981
20
-4.73616876445862
30
0
41
1
10
17.3469337800522
20
-4.53439115444331
30
0
41
1
10
15.6094504862602
20
-4.10911375489326
30
0
41
1
10
15.0319997112565
20
-3.94788487735571
30
0
41
1
10
13.8810093759184
20
-3.59179752536406
30
0
41
1
10
13.3072874155246
20
-3.39676835056469
30
0
41
1
10
11.5874138318584
20
-2.76833851697225
30
0
41
1
10
10.4420638439214
20
-2.29191368575599
30
0
41
1
10
8.70895815736509
20
-1.52053124255377
30
0
41
1
10
8.12747029546597
20
-1.25348999022617
30
0
41
1
10
6.96838395978429
20
-0.712245595235146
30
0
41
1
10
6.38959386731159
20
-0.437595023386507
30
0
41
1
10
5.81005646079601
20
-0.162038212042319
30
0
0
SPLINE
5
CA
100
AcDbEntity
8
1
62
256
6
ByLayer
370
18
48
1
60
0
100
AcDbSpline
70
4
71
3
72
8
73
4
40
0
40
0
40
0
40
0
40
1
40
1
40
1
40
1
41
1
10
117.99959713206
20
0.122824863169115
30
0
41
1
10
117.798514189514
20
0.639391307762708
30
0
41
1
10
117.607584581673
20
1.16520373052762
30
0
41
1
10
117.423699887462
20
1.69912919263615
30
0
0
SPLINE
5
CB
100
AcDbEntity
8
1
62
256
6
ByLayer
370
13
48
1
60
0
100
AcDbSpline
70
4
71
3
72
10
73
6
40
0
40
0
40
0
40
0
40
0.5
40
0.5
40
1
40
1
40
1
40
1
41
1
10
5.81005646079601
20
-0.162038212042319
30
0
41
1
10
5.73066945947892
20
-0.135615746657294
30
0
41
1
10
5.65272273657132
20
-0.110290410881532
30
0
41
1
10
5.49987615094221
20
-0.0610084274184999
30
0
41
1
10
5.42437313849948
20
-0.0368620878575427
30
0
41
1
10
5.35276027284436
20
-0.013827324762218
30
0
0
SPLINE
5
CC
100
AcDbEntity
8
1
62
256
6
ByLayer
370
18
48
1
60
0
100
AcDbSpline
70
4
71
3
72
8
73
4
40
0
40
0
40
0
40
0
40
1
40
1
40
1
40
1
41
1
10
5.55170357663587
20
-4.54722240688875
30
0
41
1
10
5.4775682532221
20
-4.53124934820491
30
0
41
1
10
5.4034323285976
20
-4.51490758902779
30
0
41
1
10
5.32929368536841
20
-4.49819683616542
30
0
0
SPLINE
5
CD
100
AcDbEntity
8
1
62
256
6
ByLayer
370
18
48
1
60
0
100
AcDbSpline
70
4
71
3
72
8
73
4
40
0
40
0
40
0
40
0
40
1
40
1
40
1
40
1
41
1
10
116.13801175876
20
-5.19459152861145
30
0
41
1
10
116.112856808124
20
-5.16807055182312
30
0
41
1
10
116.090389475946
20
-5.13198503228926
30
0
41
1
10
116.070512953099
20
-5.08653217318738
30
0
0
SPLINE
5
CE
100
AcDbEntity
8
1
62
256
6
ByLayer
370
13
48
1
60
0
100
AcDbSpline
70
4
71
3
72
25
73
21
40
0
40
0
40
0
40
0
40
0.0425636407900727
40
0.128484998276025
40
0.15712545077134
40
0.214406355761974
40
0.27168726075261
40
0.357608618238562
40
0.386249070733878
40
0.443529975724512
40
0.500810880715148
40
0.586732238201097
40
0.615372690696415
40
0.672653595687049
40
0.729934500677683
40
0.815855858163635
40
0.844496310658953
40
0.901777215649587
40
0.95905812064022
40
1
40
1
40
1
40
1
41
1
10
116.795656724716
20
2.37491155151906
30
0
41
1
10
116.731795796633
20
2.37438447756699
30
0
41
1
10
116.539024308633
20
2.37238934714838
30
0
41
1
10
116.303308045354
20
2.36849955693984
30
0
41
1
10
116.045507461788
20
2.36275927878299
30
0
41
1
10
115.830649115827
20
2.35699506474165
30
0
41
1
10
115.529852763312
20
2.34722260317033
30
0
41
1
10
115.272058677841
20
2.33708762412891
30
0
41
1
10
115.014258597251
20
2.32549194905232
30
0
41
1
10
114.799400489344
20
2.31487683166733
30
0
41
1
10
114.498604182368
20
2.29835241161569
30
0
41
1
10
114.240809893351
20
2.28246231845813
30
0
41
1
10
113.983009492951
20
2.26514873916002
30
0
41
1
10
113.768151054121
20
2.24980345985813
30
0
41
1
10
113.467354212296
20
2.22670644123971
30
0
41
1
10
113.209559450242
20
2.20522541425632
30
0
41
1
10
112.951758637301
20
2.18236680756269
30
0
41
1
10
112.736899920402
20
2.16244112368625
30
0
41
1
10
112.503588313169
20
2.13959811607532
30
0
41
1
10
112.356231011839
20
2.12453003293439
30
0
41
1
10
112.294809437413
20
2.11813739040107
30
0
0
SPLINE
5
CF
100
AcDbEntity
8
1
62
256
6
ByLayer
370
13
48
1
60
0
100
AcDbSpline
70
4
71
3
72
89
73
85
40
0
40
0
40
0
40
0
40
0.0080642339288403
40
0.0264187753987789
40
0.0325369558887594
40
0.0447733168687174
40
0.0570096778486765
40
0.0753642193186129
40
0.0814823998085935
40
0.0937187607885525
40
0.105955121768511
40
0.12430966323845
40
0.130427843728429
40
0.142664204708387
40
0.154900565688347
40
0.173255107158283
40
0.179373287648263
40
0.191609648628222
40
0.20384600960818
40
0.222200551078118
40
0.228318731568097
40
0.240555092548056
40
0.252791453528014
40
0.271145994997953
40
0.277264175487932
40
0.28950053646789
40
0.301736897447849
40
0.320091438917788
40
0.326209619407766
40
0.338445980387725
40
0.350682341367684
40
0.369036882837621
40
0.375155063327601
40
0.387391424307559
40
0.399627785287518
40
0.417982326757456
40
0.424100507247435
40
0.436336868227394
40
0.448573229207351
40
0.466927770677291
40
0.47304595116727
40
0.485282312147228
40
0.497518673127187
40
0.515873214597125
40
0.521991395087104
40
0.534227756067062
40
0.546464117047021
40
0.56481865851696
40
0.570936839006939
40
0.583173199986897
40
0.595409560966856
40
0.613764102436794
40
0.619882282926773
40
0.632118643906732
40
0.64435500488669
40
0.662709546356628
40
0.668827726846608
40
0.681064087826566
40
0.693300448806525
40
0.711654990276463
40
0.717773170766442
40
0.730009531746401
40
0.742245892726359
40
0.760600434196297
40
0.766718614686276
40
0.778954975666235
40
0.791191336646194
40
0.809545878116132
40
0.815664058606111
40
0.82790041958607
40
0.840136780566028
40
0.858491322035966
40
0.864609502525945
40
0.876845863505905
40
0.889082224485864
40
0.907436765955801
40
0.913554946445781
40
0.925791307425739
40
0.938027668405697
40
0.956382209875635
40
0.962500390365615
40
0.974736751345572
40
0.986973112325532
40
1
40
1
40
1
40
1
41
1
10
68.305241510272
20
0.0246849625160053
30
0
41
1
10
68.248602576106
20
0.0376837522024971
30
0
41
1
10
68.0630537450983
20
0.0802697471654596
30
0
41
1
10
67.8345586841274
20
0.132758914437858
30
0
41
1
10
67.5767583847796
20
0.19189746806893
30
0
41
1
10
67.3619001215603
20
0.241016965028194
30
0
41
1
10
67.0611036534186
20
0.309597239819965
30
0
41
1
10
66.803309328374
20
0.368257764846504
30
0
41
1
10
66.5455090207129
20
0.42669094709214
30
0
41
1
10
66.3306507348251
20
0.47512668285276
30
0
41
1
10
66.0298541936928
20
0.542581975902692
30
0
41
1
10
65.7720597418584
20
0.600103731924491
30
0
41
1
10
65.5142592332441
20
0.657252089117406
30
0
41
1
10
65.2994007212853
20
0.704521936948139
30
0
41
1
10
64.9986038054545
20
0.770178945768435
30
0
41
1
10
64.7408090341434
20
0.825987427604416
30
0
41
1
10
64.4830082733149
20
0.881281869069198
30
0
41
1
10
64.2681497133553
20
0.926916509981026
30
0
41
1
10
63.9673530450228
20
0.990124916084937
30
0
41
1
10
63.7095587029338
20
1.04366796651757
30
0
41
1
10
63.4517584291004
20
1.09656061796832
30
0
41
1
10
63.2369001841204
20
1.14010723862336
30
0
41
1
10
62.9361037336273
20
1.20023944230661
30
0
41
1
10
62.6783094107371
20
1.25098570974666
30
0
41
1
10
62.4205090898299
20
1.30095279588994
30
0
41
1
10
62.2056507809567
20
1.34198100704427
30
0
41
1
10
61.9048541897579
20
1.39844318661198
30
0
41
1
10
61.6470596821775
20
1.44589098303044
30
0
41
1
10
61.3892591146256
20
1.4924367646289
30
0
41
1
10
61.1744005566056
20
1.53053813078762
30
0
41
1
10
60.8736035909872
20
1.58276626467193
30
0
41
1
10
60.6158087979134
20
1.62644022221843
30
0
41
1
10
60.3580080394277
20
1.6690980850004
30
0
41
1
10
60.1431494922636
20
1.70389057441744
30
0
41
1
10
59.8423528510587
20
1.75136166329835
30
0
41
1
10
59.584558537456
20
1.79082612070681
30
0
41
1
10
59.3267582892456
20
1.82917300070255
30
0
41
1
10
59.1119000672957
20
1.86031347146252
30
0
41
1
10
58.8111036528418
20
1.90256189872823
30
0
41
1
10
58.553309359433
20
1.93743129086559
30
0
41
1
10
58.2955090614419
20
1.97109229094914
30
0
41
1
10
58.0806507628583
20
1.99827578607406
30
0
41
1
10
57.7798541695049
20
2.0348865115721
30
0
41
1
10
57.522059646674
20
2.06481658231527
30
0
41
1
10
57.2642590571717
20
2.09345765143251
30
0
41
1
10
57.049400483669
20
2.11641321270207
30
0
41
1
10
56.7486035112
20
2.14701892821537
30
0
41
1
10
56.4908087307239
20
2.17170665980467
30
0
41
1
10
56.2330080046306
20
2.19503540506585
30
0
41
1
10
56.0181494889337
20
2.21352701064106
30
0
41
1
10
55.7173528866293
20
2.23781259982272
30
0
41
1
10
55.4595585975662
20
2.2570063361326
30
0
41
1
10
55.2017583607259
20
2.27479063748745
30
0
41
1
10
54.9869001456376
20
2.28863887409545
30
0
41
1
10
54.6861037395073
20
2.30637464770083
30
0
41
1
10
54.4283094470964
20
2.31989627972678
30
0
41
1
10
54.1705091411349
20
2.33197018815139
30
0
41
1
10
53.9556508243133
20
2.34104441513375
30
0
41
1
10
53.6548541838148
20
2.35206047970547
30
0
41
1
10
53.3970596038911
20
2.35977782878689
30
0
41
1
10
53.1392589501224
20
2.36602141871106
30
0
41
1
10
52.9244003278591
20
2.37023025571829
30
0
41
1
10
52.6236033091017
20
2.37441246258402
30
0
41
1
10
52.3658085164623
20
2.37624095630406
30
0
41
1
10
52.1080078073657
20
2.37658039849762
30
0
41
1
10
51.8931493149045
20
2.37586958589665
30
0
41
1
10
51.5923527463788
20
2.37315856123388
30
0
41
1
10
51.3345584840804
20
2.36906912933517
30
0
41
1
10
51.0767582653657
20
2.36349939759881
30
0
41
1
10
50.8619000670139
20
2.35788163295436
30
0
41
1
10
50.5611036920276
20
2.34832061993739
30
0
41
1
10
50.3033094289728
20
2.33837184025034
30
0
41
1
10
50.0455091497215
20
2.32696334676652
30
0
41
1
10
49.8306508466988
20
2.31650394353798
30
0
41
1
10
49.5298542068857
20
2.30019629900224
30
0
41
1
10
49.2720596118079
20
2.28448974894442
30
0
41
1
10
49.0142589335451
20
2.26735603794554
30
0
41
1
10
48.7994002945986
20
2.25215768494737
30
0
41
1
10
48.4986032713033
20
2.22926015015844
30
0
41
1
10
48.2408084965586
20
2.20794253658707
30
0
41
1
10
47.9830078274153
20
2.18523943735877
30
0
41
1
10
47.7681493708692
20
2.16543773520576
30
0
41
1
10
47.5047715238709
20
2.139798140956
30
0
41
1
10
47.3273533621871
20
2.12159746920571
30
0
41
1
10
47.2358690094902
20
2.11196398085678
30
0
0
SPLINE
5
D0
100
AcDbEntity
8
1
62
256
6
ByLayer
370
18
48
1
60
0
100
AcDbSpline
70
4
71
3
72
50
73
46
40
0
40
0
40
0
40
0
40
0.0222104306919539
40
0.0222104306919539
40
0.0444208613839078
40
0.0444208613839078
40
0.0888417227678145
40
0.0888417227678145
40
0.177683445535628
40
0.177683445535628
40
0.222104306919535
40
0.222104306919535
40
0.244314737611488
40
0.244314737611488
40
0.266525168303441
40
0.266525168303441
40
0.355366891071251
40
0.355366891071251
40
0.444208613839062
40
0.444208613839062
40
0.466419044531015
40
0.466419044531015
40
0.488629475222967
40
0.488629475222967
40
0.533050336606873
40
0.533050336606873
40
0.621892059374686
40
0.621892059374686
40
0.666312920758592
40
0.666312920758592
40
0.688523351450544
40
0.688523351450544
40
0.710733782142497
40
0.710733782142497
40
0.799575504910312
40
0.799575504910312
40
0.888417227678126
40
0.888417227678126
40
0.91062765837008
40
0.91062765837008
40
0.932838089062033
40
0.932838089062033
40
0.97725895044594
40
0.97725895044594
40
1
40
1
40
1
40
1
41
1
10
18.0305867595594
20
4.97252688195687
30
0
41
1
10
18.2891439365318
20
4.9982566253122
30
0
41
1
10
18.5471130112934
20
5.01917846825148
30
0
41
1
10
19.0621987614359
20
5.05156580442807
30
0
41
1
10
19.3189642393111
20
5.06310869390998
30
0
41
1
10
20.088334381499
20
5.08360994263828
30
0
41
1
10
20.5995753233831
20
5.0785678210041
30
0
41
1
10
22.1311204202302
20
5.0080963507443
30
0
41
1
10
23.149585450959
20
4.88725082317205
30
0
41
1
10
24.6861691736422
20
4.6003155981418
30
0
41
1
10
25.1997963910423
20
4.48703024201356
30
0
41
1
10
25.9741789636999
20
4.29166722042893
30
0
41
1
10
26.2330400144151
20
4.22235829027991
30
0
41
1
10
26.7483807538963
20
4.07629084584156
30
0
41
1
10
27.0055387701011
20
3.99968755449135
30
0
41
1
10
28.2886288343925
20
3.59884348166764
30
0
41
1
10
29.307401674011
20
3.22223673952425
30
0
41
1
10
31.3470739654623
20
2.38599046898514
30
0
41
1
10
32.3675898229728
20
1.92564530282024
30
0
41
1
10
33.6555225736732
20
1.31759163961866
30
0
41
1
10
33.9140641999358
20
1.19384812175935
30
0
41
1
10
34.4301515508197
20
0.945451657119719
30
0
41
1
10
34.6874489517409
20
0.820385888459924
30
0
41
1
10
35.4578061234301
20
0.444080597635491
30
0
41
1
10
35.9693019162641
20
0.191668164264684
30
0
41
1
10
37.5007629782145
20
-0.563572947389162
30
0
41
1
10
38.5172510029591
20
-1.06531495614897
30
0
41
1
10
40.049075764763
20
-1.7868979692569
30
0
41
1
10
40.560655071552
20
-2.02268347400971
30
0
41
1
10
41.3313361740419
20
-2.36547169054668
30
0
41
1
10
41.5889055899503
20
-2.47768049795053
30
0
41
1
10
42.1051330941339
20
-2.69847695464208
30
0
41
1
10
42.3631481787059
20
-2.80632750054761
30
0
41
1
10
43.6490566111623
20
-3.3302493384619
30
0
41
1
10
44.6678810911292
20
-3.70340648654243
30
0
41
1
10
46.7049708759598
20
-4.33155395382929
30
0
41
1
10
47.7221966842571
20
-4.58786977627409
30
0
41
1
10
49.0041505235128
20
-4.82174293867587
30
0
41
1
10
49.2609029837175
20
-4.8643222532537
30
0
41
1
10
49.7758806313217
20
-4.94043269363937
30
0
41
1
10
50.034404907435
20
-4.97406778325109
30
0
41
1
10
50.8068607326574
20
-5.06074962157322
30
0
41
1
10
51.3192948323191
20
-5.09962905779875
30
0
41
1
10
52.091934933761
20
-5.13004793127971
30
0
41
1
10
52.3531272667105
20
-5.13542018872189
30
0
41
1
10
52.6140571770769
20
-5.1358973132262
30
0
0
SPLINE
5
D1
100
AcDbEntity
8
1
62
256
6
ByLayer
370
18
48
1
60
0
100
AcDbSpline
70
4
71
3
72
50
73
46
40
0
40
0
40
0
40
0
40
0.0755719756739686
40
0.0755719756739686
40
0.114089810020887
40
0.114089810020887
40
0.152607644367805
40
0.152607644367805
40
0.229643313061642
40
0.229643313061642
40
0.306678981755478
40
0.306678981755478
40
0.325937898928938
40
0.325937898928938
40
0.345196816102399
40
0.345196816102399
40
0.383714650449318
40
0.383714650449318
40
0.460750319143154
40
0.460750319143154
40
0.499268153490071
40
0.499268153490071
40
0.51852707066353
40
0.51852707066353
40
0.537785987836989
40
0.537785987836989
40
0.614821656530825
40
0.614821656530825
40
0.691857325224661
40
0.691857325224661
40
0.711116242398119
40
0.711116242398119
40
0.730375159571577
40
0.730375159571577
40
0.768892993918495
40
0.768892993918495
40
0.845928662612329
40
0.845928662612329
40
0.922964331306164
40
0.922964331306164
40
0.942223248479623
40
0.942223248479623
40
0.961482165653082
40
0.961482165653082
40
1
40
1
40
1
40
1
41
1
10
76.4128450594873
20
3.44763764922692
30
0
41
1
10
77.4114421063276
20
3.82155768923221
30
0
41
1
10
78.4061409907985
20
4.14646674394425
30
0
41
1
10
79.9146842930114
20
4.54574209983645
30
0
41
1
10
80.425179483299
20
4.66485928014816
30
0
41
1
10
81.4505936032499
20
4.86911515760156
30
0
41
1
10
81.9669236107122
20
4.95431011576022
30
0
41
1
10
83.5047620499411
20
5.15237243879852
30
0
41
1
10
84.5208084466005
20
5.20934776111423
30
0
41
1
10
86.5519245825582
20
5.1730690238748
30
0
41
1
10
87.5671456305972
20
5.07986100967645
30
0
41
1
10
88.8464027871706
20
4.87109446597626
30
0
41
1
10
89.1028902879055
20
4.82483230951493
30
0
41
1
10
89.6169109689965
20
4.72295024088987
30
0
41
1
10
89.8746007383082
20
4.66750019655862
30
0
41
1
10
90.6443484305108
20
4.48906730480843
30
0
41
1
10
91.1548943126347
20
4.35351718410735
30
0
41
1
10
92.6824736937433
20
3.90206657314178
30
0
41
1
10
93.6957053724121
20
3.54176524531343
30
0
41
1
10
95.2198627427256
20
2.92978949690607
30
0
41
1
10
95.7287843435316
20
2.71411251066053
30
0
41
1
10
96.4951624214924
20
2.37573957439881
30
0
41
1
10
96.7509654462873
20
2.26017550566405
30
0
41
1
10
97.2640542766978
20
2.02492105200025
30
0
41
1
10
97.5216905356826
20
1.90478493867798
30
0
41
1
10
98.8055962304816
20
1.29698825612229
30
0
41
1
10
99.8224333266783
20
0.789804497629632
30
0
41
1
10
101.851856622446
20
-0.233324214616715
30
0
41
1
10
102.865254696196
20
-0.747621333339396
30
0
41
1
10
104.140126919914
20
-1.37408524285019
30
0
41
1
10
104.395651461612
20
-1.49826557932167
30
0
41
1
10
104.907743503546
20
-1.74451765260304
30
0
41
1
10
105.164527565954
20
-1.86674860406336
30
0
41
1
10
105.935861532211
20
-2.22755917265479
30
0
41
1
10
106.447165545212
20
-2.45970347513946
30
0
41
1
10
107.975670270161
20
-3.12546972280339
30
0
41
1
10
108.988422284439
20
-3.5268135554397
30
0
41
1
10
111.016880802842
20
-4.22138012271697
30
0
41
1
10
112.033576744238
20
-4.51324411018624
30
0
41
1
10
113.317510938608
20
-4.79451451778928
30
0
41
1
10
113.574620088617
20
-4.84639282505449
30
0
41
1
10
114.08786356185
20
-4.94092896582373
30
0
41
1
10
114.344102158945
20
-4.98375215427191
30
0
41
1
10
115.112968230657
20
-5.09808648622803
30
0
41
1
10
115.625173225073
20
-5.155855391892
30
0
41
1
10
116.13801175876
20
-5.19459152861143
30
0
0
SPLINE
5
D2
100
AcDbEntity
8
1
62
256
6
ByLayer
370
18
48
1
60
0
100
AcDbSpline
70
4
71
3
72
8
73
4
40
0
40
0
40
0
40
0
40
1
40
1
40
1
40
1
41
1
10
115.596176854372
20
0.54359919335738
30
0
41
1
10
115.83316531785
20
0.438694205446154
30
0
41
1
10
116.07172897911
20
0.341764345027798
30
0
41
1
10
116.312017976855
20
0.253569754935455
30
0
0
SPLINE
5
D3
100
AcDbEntity
8
1
62
256
6
ByLayer
370
18
48
1
60
0
100
AcDbSpline
70
4
71
3
72
32
73
28
40
0
40
0
40
0
40
0
40
0.0401854156119118
40
0.0401854156119118
40
0.0744645079114855
40
0.0744645079114855
40
0.108743600211059
40
0.108743600211059
40
0.177301784810208
40
0.177301784810208
40
0.245859969409356
40
0.245859969409356
40
0.314418154008505
40
0.314418154008505
40
0.451534523206804
40
0.451534523206804
40
0.588650892405103
40
0.588650892405103
40
0.657209077004252
40
0.657209077004252
40
0.725767261603402
40
0.725767261603402
40
0.862883630801701
40
0.862883630801701
40
0.93144181540085
40
0.93144181540085
40
1
40
1
40
1
40
1
41
1
10
6.18770839214713
20
4.92330143573406
30
0
41
1
10
6.25513313359031
20
4.92424425634508
30
0
41
1
10
6.32795242245734
20
4.92113987232068
30
0
41
1
10
6.47146005250923
20
4.90908592362061
30
0
41
1
10
6.54121424526093
20
4.90098657703652
30
0
41
1
10
6.68511661658479
20
4.88059052235749
30
0
41
1
10
6.7592832734621
20
4.86831235820733
30
0
41
1
10
6.98754101522584
20
4.82618496111016
30
0
41
1
10
7.14734650021612
20
4.79108843093391
30
0
41
1
10
7.47904997869878
20
4.71028565606244
30
0
41
1
10
7.65096738276662
20
4.66455895500732
30
0
41
1
10
8.00495295582033
20
4.56461243442357
30
0
41
1
10
8.18578997306994
20
4.51072241379072
30
0
41
1
10
8.73452372424248
20
4.34080581551416
30
0
41
1
10
9.11018477953468
20
4.21614605908906
30
0
41
1
10
9.8758409436301
20
3.95255721702904
30
0
41
1
10
10.2660569616894
20
3.81327869501999
30
0
41
1
10
10.8611195894267
20
3.59524569870459
30
0
41
1
10
11.0613197928735
20
3.52099229878036
30
0
41
1
10
11.4632416945964
20
3.37050619157424
30
0
41
1
10
11.6649115042415
20
3.29429340256448
30
0
41
1
10
12.2718836408218
20
3.06321515361716
30
0
41
1
10
12.6791565982616
20
2.90587627236661
30
0
41
1
10
13.2932912613219
20
2.66709233633426
30
0
41
1
10
13.4986017635776
20
2.58681254183384
30
0
41
1
10
13.9105032575291
20
2.42449671651352
30
0
41
1
10
14.1170386743659
20
2.34266487462779
30
0
41
1
10
14.3241145668153
20
2.26028480541436
30
0
0
SPLINE
5
D4
100
AcDbEntity
8
1
62
256
6
ByLayer
370
18
48
1
60
0
100
AcDbSpline
70
4
71
3
72
8
73
4
40
0
40
0
40
0
40
0
40
1
40
1
40
1
40
1
41
1
10
117.999597132061
20
-0.122824863164794
30
0
41
1
10
117.797939212973
20
-0.640868377791122
30
0
41
1
10
117.607066073998
20
-1.16670926338949
30
0
41
1
10
117.423699887462
20
-1.69912919263641
30
0
0
SPLINE
5
D5
100
AcDbEntity
8
1
62
256
6
ByLayer
370
18
48
1
60
0
100
AcDbSpline
70
4
71
3
72
20
73
16
40
0
40
0
40
0
40
0
40
0.127213171226444
40
0.127213171226444
40
0.301770536981155
40
0.301770536981155
40
0.476327902735866
40
0.476327902735866
40
0.650885268490577
40
0.650885268490577
40
0.825442634245289
40
0.825442634245289
40
0.912721317122644
40
0.912721317122644
40
1
40
1
40
1
40
1
41
1
10
115.895796582746
20
0.390397788358427
30
0
41
1
10
115.93241747183
20
0.422244021113215
30
0
41
1
10
115.972364146009
20
0.462448537447216
30
0
41
1
10
116.0747782334
20
0.578412491428111
30
0
41
1
10
116.137929980513
20
0.659384275683152
30
0
41
1
10
116.269725805517
20
0.847825004533661
30
0
41
1
10
116.339140157889
20
0.956638290013899
30
0
41
1
10
116.474446068043
20
1.19235783354907
30
0
41
1
10
116.541231129105
20
1.32005061516276
30
0
41
1
10
116.665240197435
20
1.5974876044537
30
0
41
1
10
116.72101884036
20
1.74259338285242
30
0
41
1
10
116.779327149162
20
1.9739871267283
30
0
41
1
10
116.794269145409
20
2.05387203929166
30
0
41
1
10
116.808329840349
20
2.21354344653744
30
0
41
1
10
116.807604383039
20
2.29394322167053
30
0
41
1
10
116.795656724716
20
2.37491155151906
30
0
0
SPLINE
5
D6
100
AcDbEntity
8
1
62
256
6
ByLayer
370
18
48
1
60
0
100
AcDbSpline
70
4
71
3
72
64
73
60
40
0
40
0
40
0
40
0
40
0.0268168165512847
40
0.0268168165512847
40
0.0536336331025695
40
0.0536336331025695
40
0.0804504496538542
40
0.0804504496538542
40
0.107267266205139
40
0.107267266205139
40
0.160900899307708
40
0.160900899307708
40
0.214534532410278
40
0.214534532410278
40
0.241351348961562
40
0.241351348961562
40
0.268168165512847
40
0.268168165512847
40
0.294984982064132
40
0.294984982064132
40
0.321801798615417
40
0.321801798615417
40
0.348618615166702
40
0.348618615166702
40
0.375435431717986
40
0.375435431717986
40
0.402252248269271
40
0.402252248269271
40
0.429069064820556
40
0.429069064820556
40
0.45588588137184
40
0.45588588137184
40
0.482702697923125
40
0.482702697923125
40
0.536336331025694
40
0.536336331025694
40
0.563153147576979
40
0.563153147576979
40
0.589969964128264
40
0.589969964128264
40
0.643603597230835
40
0.643603597230835
40
0.697237230333405
40
0.697237230333405
40
0.750870863435976
40
0.750870863435976
40
0.777687679987261
40
0.777687679987261
40
0.804504496538546
40
0.804504496538546
40
0.831321313089832
40
0.831321313089832
40
0.858138129641117
40
0.858138129641117
40
0.911771762743688
40
0.911771762743688
40
0.965405395846258
40
0.965405395846258
40
1
40
1
40
1
40
1
41
1
10
14.3241145668153
20
2.26028480541439
30
0
41
1
10
14.5911554897574
20
2.14741576481723
30
0
41
1
10
14.8573443933464
20
2.03234083015386
30
0
41
1
10
15.388301295438
20
1.79839155135477
30
0
41
1
10
15.653418092084
20
1.68024454316745
30
0
41
1
10
16.1824991947127
20
1.44075484761737
30
0
41
1
10
16.4465995549779
20
1.31971299015865
30
0
41
1
10
16.9742301906827
20
1.07562680962454
30
0
41
1
10
17.2375827680501
20
0.952104554365519
30
0
41
1
10
18.0275894435326
20
0.580274152319276
30
0
41
1
10
18.5535496050387
20
0.329325729951591
30
0
41
1
10
19.6061753525439
20
-0.174271249587292
30
0
41
1
10
20.1328155016179
20
-0.426878183406472
30
0
41
1
10
20.9255416644384
20
-0.802434855506249
30
0
41
1
10
21.1901290571182
20
-0.927294655972815
30
0
41
1
10
21.7202326316559
20
-1.17572571288017
30
0
41
1
10
21.9858838419911
20
-1.2990371928625
30
0
41
1
10
22.5185353448046
20
-1.54366819179077
30
0
41
1
10
22.785626650041
20
-1.66457370651651
30
0
41
1
10
23.3175170325937
20
-1.90274528706786
30
0
41
1
10
23.582774371943
20
-2.02012935884244
30
0
41
1
10
24.1123954644209
20
-2.24926909808349
30
0
41
1
10
24.376572690886
20
-2.36145918950618
30
0
41
1
10
24.9044566089207
20
-2.58109026708499
30
0
41
1
10
25.1680721449754
20
-2.68873041195118
30
0
41
1
10
25.6946856549964
20
-2.89798993053458
30
0
41
1
10
25.957913999442
20
-2.99937549308407
30
0
41
1
10
26.4840231316714
20
-3.19671911196107
30
0
41
1
10
26.7469616721718
20
-3.2930039423772
30
0
41
1
10
27.2731140737392
20
-3.47816915186064
30
0
41
1
10
27.5361571193922
20
-3.56737991737253
30
0
41
1
10
28.0629432294471
20
-3.73849074431942
30
0
41
1
10
28.326461227542
20
-3.82108442534306
30
0
41
1
10
29.1179006080146
20
-4.0580103568937
30
0
41
1
10
29.6473129471282
20
-4.19942685522423
30
0
41
1
10
30.4447415347002
20
-4.38946564676408
30
0
41
1
10
30.7116513077286
20
-4.44854915853037
30
0
41
1
10
31.2441622007692
20
-4.55690612574836
30
0
41
1
10
31.5096523776244
20
-4.60654038338029
30
0
41
1
10
32.3046561773136
20
-4.74290384734763
30
0
41
1
10
32.8324861301717
20
-4.81332705480702
30
0
41
1
10
33.8859840947387
20
-4.91910053168945
30
0
41
1
10
34.4116125380602
20
-4.95204959721934
30
0
41
1
10
35.4631875583151
20
-4.98118052873906
30
0
41
1
10
35.9891486759562
20
-4.97570828094027
30
0
41
1
10
36.7796850717955
20
-4.93943439498264
30
0
41
1
10
37.0434527593048
20
-4.92270763467502
30
0
41
1
10
37.572076552209
20
-4.87893353598096
30
0
41
1
10
37.8367500039286
20
-4.85187284685574
30
0
41
1
10
38.3674459475561
20
-4.78879143591587
30
0
41
1
10
38.6333535152843
20
-4.75269920517525
30
0
41
1
10
39.1664256158346
20
-4.67035086275018
30
0
41
1
10
39.4323121895257
20
-4.62437843933452
30
0
41
1
10
40.2278722148829
20
-4.47341624648953
30
0
41
1
10
40.755915304129
20
-4.35571109138041
30
0
41
1
10
41.8097009194236
20
-4.08694016158648
30
0
41
1
10
42.335267658468
20
-3.93699559367181
30
0
41
1
10
43.1995777096921
20
-3.66469397152977
30
0
41
1
10
43.5384363987245
20
-3.55216584362057
30
0
41
1
10
43.8775990719079
20
-3.43395841311423
30
0
0
SPLINE
5
D7
100
AcDbEntity
8
1
62
256
6
ByLayer
370
18
48
1
60
0
100
AcDbSpline
70
4
71
3
72
94
73
90
40
0
40
0
40
0
40
0
40
0.0062479203654934
40
0.0062479203654934
40
0.0255298408022283
40
0.0255298408022283
40
0.0448117612389629
40
0.0448117612389629
40
0.0640936816756978
40
0.0640936816756978
40
0.0833756021124325
40
0.0833756021124325
40
0.121939442985902
40
0.121939442985902
40
0.160503283859371
40
0.160503283859371
40
0.179785204296106
40
0.179785204296106
40
0.19906712473284
40
0.19906712473284
40
0.218349045169575
40
0.218349045169575
40
0.237630965606309
40
0.237630965606309
40
0.256912886043044
40
0.256912886043044
40
0.276194806479778
40
0.276194806479778
40
0.295476726916513
40
0.295476726916513
40
0.314758647353248
40
0.314758647353248
40
0.334040567789983
40
0.334040567789983
40
0.353322488226719
40
0.353322488226719
40
0.372604408663454
40
0.372604408663454
40
0.391886329100189
40
0.391886329100189
40
0.43045016997366
40
0.43045016997366
40
0.449732090410395
40
0.449732090410395
40
0.46901401084713
40
0.46901401084713
40
0.488295931283864
40
0.488295931283864
40
0.507577851720599
40
0.507577851720599
40
0.526859772157333
40
0.526859772157333
40
0.546141692594068
40
0.546141692594068
40
0.565423613030802
40
0.565423613030802
40
0.584705533467537
40
0.584705533467537
40
0.623269374341006
40
0.623269374341006
40
0.642551294777741
40
0.642551294777741
40
0.661833215214477
40
0.661833215214477
40
0.700397056087947
40
0.700397056087947
40
0.738960896961418
40
0.738960896961418
40
0.758242817398153
40
0.758242817398153
40
0.777524737834888
40
0.777524737834888
40
0.796806658271623
40
0.796806658271623
40
0.816088578708357
40
0.816088578708357
40
0.854652419581827
40
0.854652419581827
40
0.873934340018562
40
0.873934340018562
40
0.893216260455297
40
0.893216260455297
40
0.931780101328766
40
0.931780101328766
40
0.9510620217655
40
0.9510620217655
40
0.970343942202235
40
0.970343942202235
40
1
40
1
40
1
40
1
41
1
10
67.9565587156945
20
5.0328265616738
30
0
41
1
10
68.0425686414248
20
5.03294597662037
30
0
41
1
10
68.1285560763469
20
5.03253922263127
30
0
41
1
10
68.4798576815415
20
5.02885609539229
30
0
41
1
10
68.7448346349722
20
5.02153363337126
30
0
41
1
10
69.274930892158
20
4.99678163367866
30
0
41
1
10
69.5399116747419
20
4.97912028590852
30
0
41
1
10
70.0699576170082
20
4.93412181430534
30
0
41
1
10
70.3351866377258
20
4.9070998307426
30
0
41
1
10
70.8658374834307
20
4.84322893250737
30
0
41
1
10
71.1317046423835
20
4.80616123836731
30
0
41
1
10
71.9289574911169
20
4.68059292828195
30
0
41
1
10
72.4575542739102
20
4.57934884081169
30
0
41
1
10
73.5112045024787
20
4.34083942554995
30
0
41
1
10
74.0364424035615
20
4.20548396795965
30
0
41
1
10
74.8233469805118
20
3.97784177236144
30
0
41
1
10
75.0854423802399
20
3.89784908687457
30
0
41
1
10
75.6098223995201
20
3.73133130714788
30
0
41
1
10
75.871881488226
20
3.64439426096931
30
0
41
1
10
76.3964808709071
20
3.46318505703584
30
0
41
1
10
76.6590264341006
20
3.36897591507974
30
0
41
1
10
77.184421162915
20
3.17400742711567
30
0
41
1
10
77.4474771762406
20
3.07363557421962
30
0
41
1
10
77.9743376889632
20
2.86614349131926
30
0
41
1
10
78.2382236386169
20
2.759029969897
30
0
41
1
10
78.7672713202861
20
2.5395349345176
30
0
41
1
10
79.0321845603465
20
2.42685065574813
30
0
41
1
10
79.5637258143062
20
2.19657038958383
30
0
41
1
10
79.8288116225704
20
2.0792624562207
30
0
41
1
10
80.3575683252716
20
1.84118968223172
30
0
41
1
10
80.6215204850628
20
1.72091393405333
30
0
41
1
10
81.1481726243487
20
1.4768231564816
30
0
41
1
10
81.4110398325708
20
1.35334120324086
30
0
41
1
10
81.9362445440627
20
1.10450669757614
30
0
41
1
10
82.1984151825625
20
0.97882769332594
30
0
41
1
10
82.7226552188276
20
0.726419051444253
30
0
41
1
10
82.9845648875156
20
0.599269129851905
30
0
41
1
10
83.5083203387107
20
0.344053555545287
30
0
41
1
10
83.7702971786675
20
0.2162626616838
30
0
41
1
10
84.5560016685117
20
-0.168700274899265
30
0
41
1
10
85.080593370423
20
-0.42564625459778
30
0
41
1
10
85.8696063244574
20
-0.80874635084092
30
0
41
1
10
86.1329025375971
20
-0.936253181240318
30
0
41
1
10
86.6609556959593
20
-1.18918134045367
30
0
41
1
10
86.925628934882
20
-1.31469120642049
30
0
41
1
10
87.4559176875613
20
-1.5644926779031
30
0
41
1
10
87.7215990741987
20
-1.68835824549444
30
0
41
1
10
88.2516137105551
20
-1.93122632306802
30
0
41
1
10
88.5163000909324
20
-2.0507012251191
30
0
41
1
10
89.0456116373875
20
-2.2854455651466
30
0
41
1
10
89.3099996241774
20
-2.40107194248131
30
0
41
1
10
89.8390890784748
20
-2.62666099209304
30
0
41
1
10
90.1037287919177
20
-2.73670423339175
30
0
41
1
10
90.6330715059788
20
-2.95265511971073
30
0
41
1
10
90.897953467512
20
-3.05834353971522
30
0
41
1
10
91.4282770723768
20
-3.26320395763423
30
0
41
1
10
91.6937138713031
20
-3.36194519277564
30
0
41
1
10
92.487070023319
20
-3.64695755032577
30
0
41
1
10
93.0134073792166
20
-3.82237835095575
30
0
41
1
10
93.8008826146103
20
-4.06375883201008
30
0
41
1
10
94.0631688752142
20
-4.14066526395328
30
0
41
1
10
94.5870379172742
20
-4.28651563940488
30
0
41
1
10
94.8488317537057
20
-4.35453391131836
30
0
41
1
10
95.6341258026328
20
-4.54559805153886
30
0
41
1
10
96.1574078625375
20
-4.65622376259211
30
0
41
1
10
97.2058226193648
20
-4.84183595697448
30
0
41
1
10
97.7308850106186
20
-4.91789347506153
30
0
41
1
10
98.5219040964103
20
-5.00094831324927
30
0
41
1
10
98.786059912586
20
-5.02374914957858
30
0
41
1
10
99.3158247549038
20
-5.06018786479586
30
0
41
1
10
99.5811898867324
20
-5.07358282521511
30
0
41
1
10
100.10973447575
20
-5.08949627207801
30
0
41
1
10
100.373413035292
20
-5.09226063983124
30
0
41
1
10
100.899615741107
20
-5.08911086089202
30
0
41
1
10
101.162335195306
20
-5.08296390124886
30
0
41
1
10
101.949084879159
20
-5.04775802664042
30
0
41
1
10
102.472122307494
20
-5.00415851715289
30
0
41
1
10
103.256515222407
20
-4.91131050311427
30
0
41
1
10
103.517923765137
20
-4.87564267004711
30
0
41
1
10
104.040717264978
20
-4.79535999522875
30
0
41
1
10
104.302273440531
20
-4.75121431801861
30
0
41
1
10
105.08730912798
20
-4.60363818867506
30
0
41
1
10
105.611746604295
20
-4.48487816671607
30
0
41
1
10
106.40168185512
20
-4.28180897430951
30
0
41
1
10
106.665479032687
20
-4.20972488490128
30
0
41
1
10
107.194234254057
20
-4.05748690247768
30
0
41
1
10
107.459715546948
20
-3.97745656177847
30
0
41
1
10
108.130509207274
20
-3.76462085659486
30
0
41
1
10
108.535367770679
20
-3.62676225284011
30
0
41
1
10
108.939219088184
20
-3.481342447065
30
0
0
SPLINE
5
D8
100
AcDbEntity
8
1
62
256
6
ByLayer
370
18
48
1
60
0
100
AcDbSpline
70
4
71
3
72
60
73
56
40
0
40
0
40
0
40
0
40
0.0031386929824353
40
0.0031386929824353
40
0.0529593379465335
40
0.0529593379465335
40
0.077869660428583
40
0.077869660428583
40
0.102779982910633
40
0.102779982910633
40
0.152600627874732
40
0.152600627874732
40
0.177510950356781
40
0.177510950356781
40
0.202421272838831
40
0.202421272838831
40
0.252241917802931
40
0.252241917802931
40
0.302062562767031
40
0.302062562767031
40
0.326972885249081
40
0.326972885249081
40
0.351883207731131
40
0.351883207731131
40
0.401703852695229
40
0.401703852695229
40
0.451524497659327
40
0.451524497659327
40
0.501345142623426
40
0.501345142623426
40
0.526255465105475
40
0.526255465105475
40
0.551165787587525
40
0.551165787587525
40
0.600986432551623
40
0.600986432551623
40
0.650807077515722
40
0.650807077515722
40
0.750448367443919
40
0.750448367443919
40
0.775358689925969
40
0.775358689925969
40
0.800269012408018
40
0.800269012408018
40
0.850089657372117
40
0.850089657372117
40
0.899910302336216
40
0.899910302336216
40
0.949730947300314
40
0.949730947300314
40
0.974641269782363
40
0.974641269782363
40
0.999551592264413
40
0.999551592264413
40
1
40
1
40
1
40
1
41
1
10
21.1673224801182
20
5.07932825172162
30
0
41
1
10
21.2036243207105
20
5.07938363708587
30
0
41
1
10
21.2399226034517
20
5.07934519879225
30
0
41
1
10
21.8523321379813
20
5.07711415077947
30
0
41
1
10
22.4276743211448
20
5.05138198121332
30
0
41
1
10
23.2917942226943
20
4.97772123875424
30
0
41
1
10
23.5800214730984
20
4.94732570028904
30
0
41
1
10
24.1572535929771
20
4.87495218596359
30
0
41
1
10
24.4460723239046
20
4.83297876483706
30
0
41
1
10
25.3108269424186
20
4.69055945232336
30
0
41
1
10
25.8860817183491
20
4.57342027780405
30
0
41
1
10
26.7495475812576
20
4.36659785660268
30
0
41
1
10
27.037453011346
20
4.29246207910805
30
0
41
1
10
27.6138070007714
20
4.13415041837061
30
0
41
1
10
27.9025317784688
20
4.04989982365143
30
0
41
1
10
28.7681628661419
20
3.78341602699407
30
0
41
1
10
29.343581661635
20
3.58758509234704
30
0
41
1
10
30.4944142041941
20
3.1645138295741
30
0
41
1
10
31.0697165962894
20
2.93710219578907
30
0
41
1
10
31.9350166324021
20
2.57609057751128
30
0
41
1
10
32.2237367074363
20
2.45243541729013
30
0
41
1
10
32.799955034671
20
2.20010402535624
30
0
41
1
10
33.0877605123881
20
2.07134128677816
30
0
41
1
10
33.9508380002792
20
1.678349381788
30
0
41
1
10
34.5257083325556
20
1.40729044612954
30
0
41
1
10
35.677753898451
20
0.853450104320274
30
0
41
1
10
36.2552650150436
20
0.570240806789997
30
0
41
1
10
37.4064041071701
20
0.0029441491211628
30
0
41
1
10
37.9810592230379
20
-0.281889130531567
30
0
41
1
10
38.8441741183417
20
-0.705818234813989
30
0
41
1
10
39.1320413851376
20
-0.846628225945352
30
0
41
1
10
39.7085088233533
20
-1.12641804511247
30
0
41
1
10
39.9970913177464
20
-1.26534400706166
30
0
41
1
10
40.8610249094568
20
-1.67644211359811
30
0
41
1
10
41.4356700154144
20
-1.94363719843514
30
0
41
1
10
42.5856747955897
20
-2.45799782632622
30
0
41
1
10
43.1614681916353
20
-2.70559092912848
30
0
41
1
10
44.8911048593114
20
-3.4082006198114
30
0
41
1
10
46.0374491922786
20
-3.81966734793008
30
0
41
1
10
47.4779060203611
20
-4.23963684674268
30
0
41
1
10
47.7663632072928
20
-4.31890476841284
30
0
41
1
10
48.3420059487998
20
-4.46698697424645
30
0
41
1
10
48.6295015604048
20
-4.53587208354003
30
0
41
1
10
49.4916834274688
20
-4.72647299522365
30
0
41
1
10
50.0659716677872
20
-4.83221376584123
30
0
41
1
10
51.2167193263472
20
-4.99846595036303
30
0
41
1
10
51.793694062641
20
-5.05890643859439
30
0
41
1
10
52.9436430455842
20
-5.13206904779184
30
0
41
1
10
53.5177406719218
20
-5.14499821931554
30
0
41
1
10
54.3799014946871
20
-5.12868239104816
30
0
41
1
10
54.6674643900775
20
-5.11729462035376
30
0
41
1
10
55.2433321173827
20
-5.08261088210608
30
0
41
1
10
55.5316219652413
20
-5.05930035711486
30
0
41
1
10
55.8244748547175
20
-5.02966744274448
30
0
41
1
10
55.8296531456336
20
-5.02914157239238
30
0
41
1
10
55.8348313344356
20
-5.02861381874595
30
0
0
SPLINE
5
D9
100
AcDbEntity
8
1
62
256
6
ByLayer
370
18
48
1
60
0
100
AcDbSpline
70
4
71
3
72
50
73
46
40
0
40
0
40
0
40
0
40
0.0225979780684784
40
0.0225979780684784
40
0.0800922146526889
40
0.0800922146526889
40
0.108839332944793
40
0.108839332944793
40
0.137586451236897
40
0.137586451236897
40
0.195080687821103
40
0.195080687821103
40
0.252574924405309
40
0.252574924405309
40
0.310069160989515
40
0.310069160989515
40
0.367563397573721
40
0.367563397573721
40
0.396310515865825
40
0.396310515865825
40
0.425057634157929
40
0.425057634157929
40
0.482551870742135
40
0.482551870742135
40
0.540046107326341
40
0.540046107326341
40
0.597540343910547
40
0.597540343910547
40
0.62628746220265
40
0.62628746220265
40
0.655034580494753
40
0.655034580494753
40
0.712528817078961
40
0.712528817078961
40
0.770023053663169
40
0.770023053663169
40
0.885011526831584
40
0.885011526831584
40
0.913758645123688
40
0.913758645123688
40
0.942505763415792
40
0.942505763415792
40
0.971252881707896
40
0.971252881707896
40
1
40
1
40
1
40
1
41
1
10
86.1607069780414
20
5.19629198225343
30
0
41
1
10
86.3865852937228
20
5.1966969652884
30
0
41
1
10
86.6124216706221
20
5.19339601889052
30
0
41
1
10
87.4118962688605
20
5.16852214401473
30
0
41
1
10
87.9846903655466
20
5.12673942348556
30
0
41
1
10
88.8445517053063
20
5.02896315983782
30
0
41
1
10
89.1312842386462
20
4.99052215579076
30
0
41
1
10
89.7053655847764
20
4.90209189328502
30
0
41
1
10
89.9929999059573
20
4.85203562602868
30
0
41
1
10
90.8545536522718
20
4.68537419773457
30
0
41
1
10
91.427494995384
20
4.55238348545964
30
0
41
1
10
92.5734506960619
20
4.24562896047831
30
0
41
1
10
93.1464027357806
20
4.07177272165725
30
0
41
1
10
94.2957393173564
20
3.68682313085546
30
0
41
1
10
94.8692374686908
20
3.47684367937387
30
0
41
1
10
96.0149470389381
20
3.02693454637918
30
0
41
1
10
96.5874225956096
20
2.78684218160853
30
0
41
1
10
97.4481946525095
20
2.4081938388328
30
0
41
1
10
97.7357278629017
20
2.27879159917234
30
0
41
1
10
98.3096969594701
20
2.01540919804168
30
0
41
1
10
98.5963171709028
20
1.88136455864208
30
0
41
1
10
99.4556868783495
20
1.47331224938014
30
0
41
1
10
100.027965338864
20
1.19342252552269
30
0
41
1
10
101.174375295028
20
0.623908498349579
30
0
41
1
10
101.749434893882
20
0.333903003372967
30
0
41
1
10
102.895714704407
20
-0.244996965513849
30
0
41
1
10
103.467815802585
20
-0.534362438398858
30
0
41
1
10
104.326856418375
20
-0.963426414116242
30
0
41
1
10
104.613352227957
20
-1.10561573422538
30
0
41
1
10
105.187054322579
20
-1.38751445051622
30
0
41
1
10
105.474422686347
20
-1.52731715315824
30
0
41
1
10
106.33469743895
20
-1.94022302844127
30
0
41
1
10
106.906867298334
20
-2.20726545553896
30
0
41
1
10
108.051620599769
20
-2.71930929464787
30
0
41
1
10
108.624514349881
20
-2.96451282770678
30
0
41
1
10
110.346589093392
20
-3.65741131916076
30
0
41
1
10
111.487829206433
20
-4.05776152289565
30
0
41
1
10
112.92174480173
20
-4.459749093993
30
0
41
1
10
113.208879396684
20
-4.53520335198866
30
0
41
1
10
113.781898095447
20
-4.67522085926618
30
0
41
1
10
114.068087005317
20
-4.73986636122402
30
0
41
1
10
114.640223889697
20
-4.85812562645424
30
0
41
1
10
114.926170452489
20
-4.91174172524541
30
0
41
1
10
115.498171701196
20
-5.00767913174815
30
0
41
1
10
115.784054817459
20
-5.05008552516259
30
0
41
1
10
116.070512953099
20
-5.08653217318735
30
0
0
SPLINE
5
DA
100
AcDbEntity
8
1
62
256
6
ByLayer
370
13
48
1
60
0
100
AcDbSpline
70
4
71
3
72
90
73
86
40
0
40
0
40
0
40
0
40
0.0026822036944085
40
0.0088017414837579
40
0.0210408170624562
40
0.0332798926411545
40
0.0516385060092022
40
0.0577580437985516
40
0.0699971193772499
40
0.0822361949559482
40
0.100594808323996
40
0.106714346113345
40
0.118953421692043
40
0.131192497270742
40
0.14955111063879
40
0.155670648428139
40
0.167909724006837
40
0.180148799585536
40
0.198507412953583
40
0.204626950742932
40
0.216866026321631
40
0.229105101900329
40
0.247463715268377
40
0.253583253057726
40
0.265822328636425
40
0.278061404215123
40
0.29642001758317
40
0.302539555372519
40
0.314778630951218
40
0.327017706529916
40
0.345376319897964
40
0.351495857687313
40
0.363734933266011
40
0.37597400884471
40
0.394332622212757
40
0.400452160002107
40
0.412691235580805
40
0.424930311159504
40
0.443288924527551
40
0.4494084623169
40
0.461647537895599
40
0.473886613474297
40
0.492245226842345
40
0.498364764631694
40
0.510603840210392
40
0.52284291578909
40
0.541201529157138
40
0.547321066946488
40
0.559560142525186
40
0.571799218103884
40
0.590157831471932
40
0.596277369261281
40
0.60851644483998
40
0.620755520418678
40
0.639114133786726
40
0.645233671576075
40
0.657472747154773
40
0.669711822733472
40
0.688070436101519
40
0.694189973890869
40
0.706429049469567
40
0.718668125048265
40
0.737026738416313
40
0.743146276205662
40
0.755385351784361
40
0.767624427363059
40
0.785983040731106
40
0.792102578520455
40
0.804341654099154
40
0.816580729677852
40
0.8349393430459
40
0.841058880835249
40
0.853297956413944
40
0.865537031992647
40
0.883895645360694
40
0.890015183150043
40
0.902254258728741
40
0.914493334307438
40
0.932851947675491
40
0.938971485464836
40
0.951210561043535
40
0.963449636622232
40
0.981808249990282
40
0.98792778777963
40
1
40
1
40
1
40
1
41
1
10
100.805122944991
20
0.0247471606691931
30
0
41
1
10
100.78629068687
20
0.0290764321039205
30
0
41
1
10
100.724491958348
20
0.0432832602675148
30
0
41
1
10
100.576759059986
20
0.0772429154659448
30
0
41
1
10
100.361900238835
20
0.126511764999634
30
0
41
1
10
100.061103068495
20
0.195383867606296
30
0
41
1
10
99.8033082992816
20
0.254381152129752
30
0
41
1
10
99.5455077702921
20
0.313224917996791
30
0
41
1
10
99.3306494641086
20
0.362051455725946
30
0
41
1
10
99.0298531289407
20
0.430138144748639
30
0
41
1
10
98.7720590214487
20
0.4882877291883
30
0
41
1
10
98.5142588872702
20
0.546134700820289
30
0
41
1
10
98.2994007408438
20
0.594032381720722
30
0
41
1
10
97.9986044184423
20
0.660647746244279
30
0
41
1
10
97.740810153586
20
0.717359596307517
30
0
41
1
10
97.4830098093877
20
0.773623883438204
30
0
41
1
10
97.2681514135257
20
0.82010922722631
30
0
41
1
10
96.9673545996656
20
0.884583823755747
30
0
41
1
10
96.7095598307571
20
0.939291031836773
30
0
41
1
10
96.4517589844484
20
0.993412391009456
30
0
41
1
10
96.2369002451557
20
1.03802378870929
30
0
41
1
10
95.936103203059
20
1.09971952870623
30
0
41
1
10
95.6783085553259
20
1.15188284964952
30
0
41
1
10
95.4205081549449
20
1.20332937830929
30
0
41
1
10
95.2056499469917
20
1.24562942226623
30
0
41
1
10
94.9048537194159
20
1.30394200949712
30
0
41
1
10
94.6470596741924
20
1.35304968907238
30
0
41
1
10
94.3892595786262
20
1.40131424763092
30
0
41
1
10
94.1744014491922
20
1.44088399956382
30
0
41
1
10
93.8736051229779
20
1.49523316599155
30
0
41
1
10
93.6158108267377
20
1.54079468143172
30
0
41
1
10
93.3580104303944
20
1.58539498624546
30
0
41
1
10
93.1431519787099
20
1.6218392674952
30
0
41
1
10
92.8423550662596
20
1.67168255151964
30
0
41
1
10
92.5845601934746
20
1.7132432961705
30
0
41
1
10
92.3267592312403
20
1.75373421543403
30
0
41
1
10
92.1119003859018
20
1.78668909969002
30
0
41
1
10
91.8111031780165
20
1.83152817974579
30
0
41
1
10
91.5533083730672
20
1.86867182793458
30
0
41
1
10
91.295507804794
20
1.90464685626952
30
0
41
1
10
91.0806494751732
20
1.93378092000111
30
0
41
1
10
90.7798531343562
20
1.97316548071436
30
0
41
1
10
90.522059047012
20
2.00552145756992
30
0
41
1
10
90.26425895042
20
2.0366258229665
30
0
41
1
10
90.0494008417943
20
2.06165483595774
30
0
41
1
10
89.7486045766121
20
2.09520449763133
30
0
41
1
10
89.4908103619723
20
2.12246243488357
30
0
41
1
10
89.2330100634921
20
2.14839704196822
30
0
41
1
10
89.0181517083111
20
2.1690793989344
30
0
41
1
10
88.7173549592045
20
2.19646835860388
30
0
41
1
10
88.4595602493388
20
2.21836118533272
30
0
41
1
10
88.2017594610782
20
2.23886976091865
30
0
41
1
10
87.9869007598992
20
2.25499958303896
30
0
41
1
10
87.6861037382425
20
2.27595206790363
30
0
41
1
10
87.4283090693457
20
2.29225565803162
30
0
41
1
10
87.1705086139684
20
2.3071248402664
30
0
41
1
10
86.9556503103057
20
2.31853202923597
30
0
41
1
10
86.6548538549747
20
2.33282561120367
30
0
41
1
10
86.3970595485559
20
2.34336833166543
30
0
41
1
10
86.1392591767228
20
2.35244650791151
30
0
41
1
10
85.9244008018256
20
2.35901878759506
30
0
41
1
10
85.623604119213
20
2.36651767530125
30
0
41
1
10
85.3658095373972
20
2.37120178780134
30
0
41
1
10
85.1080089014363
20
2.37440301784531
30
0
41
1
10
84.893150369256
20
2.37607608576533
30
0
41
1
10
84.5923536035163
20
2.37670469650814
30
0
41
1
10
84.3345590686541
20
2.37548251050882
30
0
41
1
10
84.0767585515991
20
2.37277655776162
30
0
41
1
10
83.8619001137462
20
2.36953743599017
30
0
41
1
10
83.5611034729636
20
2.36329654658434
30
0
41
1
10
83.3033090962208
20
2.356185622026
30
0
41
1
10
83.0455088468038
20
2.34760111736469
30
0
41
1
10
82.8306506474696
20
2.33948049354899
30
0
41
1
10
82.52985423977
20
2.3264271866463
30
0
41
1
10
82.2720598994323
20
2.31349377302052
30
0
41
1
10
82.0142594717922
20
2.29911488814639
30
0
41
1
10
81.799401029876
20
2.28619522831039
30
0
41
1
10
81.4986042261884
20
2.26646386495264
30
0
41
1
10
81.2408095416831
20
2.24783974957813
30
0
41
1
10
80.9830088375336
20
2.22780840362691
30
0
41
1
10
80.7681502798758
20
2.21021389380505
30
0
41
1
10
80.4673535293972
20
2.1839918647029
30
0
41
1
10
80.2095590505595
20
2.15985543385949
30
0
41
1
10
79.9529301992722
20
2.13448494027918
30
0
41
1
10
79.8251870291646
20
2.12135502528932
30
0
41
1
10
79.7404161070371
20
2.11243109152588
30
0
0
SPLINE
5
DB
100
AcDbEntity
8
1
62
256
6
ByLayer
370
13
48
1
60
0
100
AcDbSpline
70
4
71
3
72
80
73
76
40
0
40
0
40
0
40
0
40
0.001528825990673
40
0.0084148340872892
40
0.0221868502805212
40
0.0359588664737532
40
0.0566168907636014
40
0.0635028988602177
40
0.0772749150534496
40
0.0910469312466816
40
0.11170495553653
40
0.118590963633146
40
0.132362979826379
40
0.14613499601961
40
0.166793020309458
40
0.173679028406074
40
0.187451044599307
40
0.201223060792538
40
0.221881085082387
40
0.228767093179002
40
0.242539109372234
40
0.256311125565466
40
0.276969149855315
40
0.283855157951931
40
0.297627174145163
40
0.311399190338395
40
0.332057214628244
40
0.338943222724859
40
0.352715238918092
40
0.366487255111323
40
0.387145279401171
40
0.394031287497788
40
0.40780330369102
40
0.421575319884252
40
0.4422333441741
40
0.449119352270716
40
0.462891368463948
40
0.47666338465718
40
0.497321408947028
40
0.504207417043645
40
0.517979433236877
40
0.531751449430109
40
0.552409473719957
40
0.559295481816573
40
0.573067498009805
40
0.586839514203037
40
0.607497538492885
40
0.614383546589501
40
0.628155562782733
40
0.641927578975965
40
0.662585603265814
40
0.66947161136243
40
0.683243627555662
40
0.697015643748894
40
0.717673668038742
40
0.724559676135358
40
0.73833169232859
40
0.752103708521822
40
0.772761732811671
40
0.779647740908286
40
0.793419757101518
40
0.807191773294751
40
0.827849797584599
40
0.834735805681215
40
0.848507821874447
40
0.862279838067679
40
0.882937862357527
40
0.889823870454143
40
0.903595886647375
40
0.917367902840608
40
0.938025927130455
40
0.944911935227072
40
0.951797943323688
40
0.972455967613536
40
1
40
1
40
1
40
1
41
1
10
35.8084926215617
20
0.0239417232206165
30
0
41
1
10
35.7989532482278
20
0.0261348944516726
30
0
41
1
10
35.7464474002875
20
0.038206443236703
30
0
41
1
10
35.6080076628805
20
0.0700344829867276
30
0
41
1
10
35.3931492945952
20
0.119316589066926
30
0
41
1
10
35.0923528723167
20
0.188215616695885
30
0
41
1
10
34.8345586974677
20
0.247241823376953
30
0
41
1
10
34.5767585149958
20
0.306115899723721
30
0
41
1
10
34.3619003407758
20
0.354967965886004
30
0
41
1
10
34.061104007884
20
0.423091466799974
30
0
41
1
10
33.803309772956
20
0.48127459795657
30
0
41
1
10
33.5455095016656
20
0.539158099383797
30
0
41
1
10
33.3306511755011
20
0.58708849664859
30
0
41
1
10
33.0298544463444
20
0.653754064888005
30
0
41
1
10
32.7720597300857
20
0.710513970569621
30
0
41
1
10
32.5142589096793
20
0.766831028889526
30
0
41
1
10
32.2994001707693
20
0.813363458604044
30
0
41
1
10
31.9986030820407
20
0.877909913369307
30
0
41
1
10
31.7408083383445
20
0.932685436512826
30
0
41
1
10
31.4830077876623
20
0.986881153359064
30
0
41
1
10
31.2681494458189
20
1.03155847116036
30
0
41
1
10
30.9673530508924
20
1.09335266800855
30
0
41
1
10
30.7095588883924
20
1.14560582459083
30
0
41
1
10
30.4517587068563
20
1.19714531693827
30
0
41
1
10
30.2369005282824
20
1.23952448847143
30
0
41
1
10
29.9361041809962
20
1.29795095541533
30
0
41
1
10
29.678309923046
20
1.34715975615791
30
0
41
1
10
29.420509618213
20
1.39552854275098
30
0
41
1
10
29.2056512597876
20
1.43518716574579
30
0
41
1
10
28.9048544834039
20
1.48966438185457
30
0
41
1
10
28.6470597275132
20
1.53533946182836
30
0
41
1
10
28.3892588722144
20
1.58005629785745
30
0
41
1
10
28.1744001092705
20
1.61659942824201
30
0
41
1
10
27.8736029998578
20
1.66658420160382
30
0
41
1
10
27.6158082545964
20
1.70826952027013
30
0
41
1
10
27.358007718678
20
1.74888754120153
30
0
41
1
10
27.1431493953378
20
1.78194983415244
30
0
41
1
10
26.8423530304863
20
1.82694310931797
30
0
41
1
10
26.5845588961756
20
1.86422417042098
30
0
41
1
10
26.326758741517
20
1.90034204272072
30
0
41
1
10
26.1119005829312
20
1.92959865531279
30
0
41
1
10
25.811104255993
20
1.96916056553613
30
0
41
1
10
25.5533100050627
20
2.00167398749195
30
0
41
1
10
25.2955096953902
20
2.03293899419438
30
0
41
1
10
25.0806513315839
20
2.05810352714536
30
0
41
1
10
24.7798545532364
20
2.09184527481096
30
0
41
1
10
24.5220598017995
20
2.11926957395687
30
0
41
1
10
24.264258957543
20
2.14537065326752
30
0
41
1
10
24.0494002053319
20
2.16619135096414
30
0
41
1
10
23.7486031110289
20
2.19377253626194
30
0
41
1
10
23.4908083795492
20
2.21582781003991
30
0
41
1
10
23.2330078585818
20
2.23649568404775
30
0
41
1
10
23.0181495475613
20
2.25275585133065
30
0
41
1
10
22.7173531980427
20
2.27388919672589
30
0
41
1
10
22.4595590742822
20
2.2903490730381
30
0
41
1
10
22.2017589277923
20
2.30537871879181
30
0
41
1
10
21.9869007688848
20
2.31692264457834
30
0
41
1
10
21.6861044220752
20
2.33141307829257
30
0
41
1
10
21.4283101337108
20
2.34213010074532
30
0
41
1
10
21.1705097687154
20
2.35138624425607
30
0
41
1
10
20.9556513590223
20
2.35810874483016
30
0
41
1
10
20.6548545309872
20
2.36582150339623
30
0
41
1
10
20.3970597530545
20
2.37069262543164
30
0
41
1
10
20.1392588985571
20
2.37408310943249
30
0
41
1
10
19.9244001409743
20
2.37591491312574
30
0
41
1
10
19.6236030381163
20
2.37676532870213
30
0
41
1
10
19.3658083004038
20
2.37573017258126
30
0
41
1
10
19.1080077753058
20
2.37320500437724
30
0
41
1
10
18.8931494636761
20
2.37011160458166
30
0
41
1
10
18.5923531192011
20
2.36406866126498
30
0
41
1
10
18.3345590051451
20
2.35712411729346
30
0
41
1
10
18.1197386140761
20
2.35013835724726
30
0
41
1
10
17.9048665261995
20
2.34243131743133
30
0
41
1
10
17.5610581984129
20
2.32813793417679
30
0
41
1
10
17.2603342240367
20
2.31290090927189
30
0
41
1
10
17.0884973257829
20
2.30324826471354
30
0
0
SPLINE
5
DC
100
AcDbEntity
8
1
62
256
6
ByLayer
370
18
48
1
60
0
100
AcDbSpline
70
4
71
3
72
8
73
4
40
0
40
0
40
0
40
0
40
1
40
1
40
1
40
1
41
1
10
116.070512953099
20
-5.08653217318738
30
0
41
1
10
116.079759571559
20
-5.04817251111947
30
0
41
1
10
116.086262965359
20
-5.01241463099461
30
0
41
1
10
116.089669286221
20
-4.98249394397325
30
0
0
SPLINE
5
DD
100
AcDbEntity
8
1
62
256
6
ByLayer
370
18
48
1
60
0
100
AcDbSpline
70
4
71
3
72
8
73
4
40
0
40
0
40
0
40
0
40
1
40
1
40
1
40
1
41
1
10
117.423699887459
20
-1.69912919264345
30
0
41
1
10
117.221764006718
20
-2.28546787028
30
0
41
1
10
117.021071569375
20
-2.87223068108867
30
0
41
1
10
116.821627991771
20
-3.45941947255977
30
0
0
SPLINE
5
DE
100
AcDbEntity
8
1
62
256
6
ByLayer
370
18
48
1
60
0
100
AcDbSpline
70
4
71
3
72
10
73
6
40
0
40
0
40
0
40
0
40
0.5
40
0.5
40
1
40
1
40
1
40
1
41
1
10
116.790662401448
20
2.41371344152697
30
0
41
1
10
116.771193170541
20
2.59133924018957
30
0
41
1
10
116.769333732367
20
2.76657599978316
30
0
41
1
10
116.783499931422
20
3.11462313357566
30
0
41
1
10
116.799853165502
20
3.28738906422618
30
0
41
1
10
116.821627991771
20
3.45941947255955
30
0
0
SPLINE
5
DF
100
AcDbEntity
8
1
62
256
6
ByLayer
370
13
48
1
60
0
100
AcDbSpline
70
4
71
3
72
32
73
28
40
0
40
0
40
0
40
0
40
0.137400387870379
40
0.137400387870379
40
0.274800775740757
40
0.274800775740757
40
0.309150872708354
40
0.309150872708354
40
0.343500969675951
40
0.343500969675951
40
0.412201163611147
40
0.412201163611147
40
0.549601551481536
40
0.549601551481536
40
0.61830174541673
40
0.61830174541673
40
0.652651842384326
40
0.652651842384326
40
0.687001939351923
40
0.687001939351923
40
0.824402327222315
40
0.824402327222315
40
0.961802715092707
40
0.961802715092707
40
0.996152812060305
40
0.996152812060305
40
1
40
1
40
1
40
1
41
1
10
116.0408723293
20
-4.88293468258235
30
0
41
1
10
114.890572344687
20
-4.70967146003076
30
0
41
1
10
113.753089252485
20
-4.44808029815772
30
0
41
1
10
111.48029305486
20
-3.77706148627973
30
0
41
1
10
110.344915745131
20
-3.36762903641409
30
0
41
1
10
108.912124528285
20
-2.78373106347828
30
0
41
1
10
108.624885860343
20
-2.66334837744449
30
0
41
1
10
108.048632195401
20
-2.41599261062927
30
0
41
1
10
107.760394963718
20
-2.28936195062363
30
0
41
1
10
106.899393250906
20
-1.90383378206548
30
0
41
1
10
106.328526863246
20
-1.63841908174672
30
0
41
1
10
104.62089257917
20
-0.826155587044894
30
0
41
1
10
103.488959995579
20
-0.26352586175949
30
0
41
1
10
101.783096053171
20
0.575168663521168
30
0
41
1
10
101.213168349006
20
0.85391036997413
30
0
41
1
10
100.354023932662
20
1.26596972285355
30
0
41
1
10
100.066948167472
20
1.40234372811798
30
0
41
1
10
99.4909874722065
20
1.67225319595823
30
0
41
1
10
99.2020982865438
20
1.80577506054391
30
0
41
1
10
97.7642091855466
20
2.45896446136734
30
0
41
1
10
96.6252030687167
20
2.93969593797129
30
0
41
1
10
94.3455135253806
20
3.77779753541361
30
0
41
1
10
93.2050645709316
20
4.13529866637509
30
0
41
1
10
91.7634006240853
20
4.48279172166079
30
0
41
1
10
91.4745276572457
20
4.54719019106159
30
0
41
1
10
91.1546876354552
20
4.61250094501264
30
0
41
1
10
91.122482299323
20
4.61900971354885
30
0
41
1
10
91.0902853141935
20
4.62544922243529
30
0
0
SPLINE
5
E0
100
AcDbEntity
8
1
62
256
6
ByLayer
370
18
48
1
60
0
100
AcDbSpline
70
4
71
3
72
12
73
8
40
0
40
0
40
0
40
0
40
0.0165424818748792
40
0.0165424818748792
40
0.84367187192281
40
0.84367187192281
40
1
40
1
40
1
40
1
41
1
10
54.1846006660959
20
-5.0080831894962
30
0
41
1
10
54.1731640007161
20
-5.00804881315537
30
0
41
1
10
54.1617271041886
20
-5.00800524183862
30
0
41
1
10
53.578429330473
20
-5.00531405294245
30
0
41
1
10
53.0059480040044
20
-4.9796647389345
30
0
41
1
10
52.3228082437546
20
-4.9218440169613
30
0
41
1
10
52.2141402738165
20
-4.91182864632452
30
0
41
1
10
52.1053869079138
20
-4.90099179437496
30
0
0
SPLINE
5
E1
100
AcDbEntity
8
1
62
256
6
ByLayer
370
13
48
1
60
0
100
AcDbSpline
70
4
71
3
72
38
73
34
40
0
40
0
40
0
40
0
40
0.0207623855263465
40
0.0207623855263465
40
0.0541424520877547
40
0.0541424520877547
40
0.187662718333388
40
0.187662718333388
40
0.321182984579022
40
0.321182984579022
40
0.35456305114043
40
0.35456305114043
40
0.387943117701838
40
0.387943117701838
40
0.454703250824655
40
0.454703250824655
40
0.588223517070288
40
0.588223517070288
40
0.621603583631697
40
0.621603583631697
40
0.654983650193106
40
0.654983650193106
40
0.721743783315923
40
0.721743783315923
40
0.855264049561558
40
0.855264049561558
40
0.922024182684376
40
0.922024182684376
40
0.955404249245785
40
0.955404249245785
40
0.988784315807193
40
0.988784315807193
40
1
40
1
40
1
40
1
41
1
10
52.1053879027457
20
-4.90099189350607
30
0
41
1
10
51.9264348599447
20
-4.88315992364059
30
0
41
1
10
51.7472505946966
20
-4.86310366865095
30
0
41
1
10
51.2792956309005
20
-4.80503530930494
30
0
41
1
10
50.9895328714087
20
-4.76342688471752
30
0
41
1
10
49.5444083374668
20
-4.52829244107014
30
0
41
1
10
48.400350374532
20
-4.25393803462086
30
0
41
1
10
46.1125782977532
20
-3.56251025614273
30
0
41
1
10
44.9690045083654
20
-3.14530314881191
30
0
41
1
10
43.5249489301395
20
-2.55596577069179
30
0
41
1
10
43.2349088251404
20
-2.43447472199966
30
0
41
1
10
42.6568851480124
20
-2.18694662941289
30
0
41
1
10
42.3686112442215
20
-2.06084659775158
30
0
41
1
10
41.5054143887741
20
-1.67675261664431
30
0
41
1
10
40.932228986945
20
-1.41274850466269
30
0
41
1
10
39.2147435803714
20
-0.606835339801165
30
0
41
1
10
38.072867077062
20
-0.0502989225420833
30
0
41
1
10
36.6345065946139
20
0.637949395591107
30
0
41
1
10
36.3462936412397
20
0.775246978399707
30
0
41
1
10
35.7684342584973
20
1.04838405519803
30
0
41
1
10
35.4782576959128
20
1.18441682593513
30
0
41
1
10
34.6107414558485
20
1.58621372119427
30
0
41
1
10
34.0354225655208
20
1.84646937005482
30
0
41
1
10
32.3137330057372
20
2.59535640962585
30
0
41
1
10
31.1719730563921
20
3.05277228378893
30
0
41
1
10
29.4505415742876
20
3.64501872921969
30
0
41
1
10
28.8753858393956
20
3.82704808075081
30
0
41
1
10
28.0081534173015
20
4.07288172973836
30
0
41
1
10
27.7178536881157
20
4.15051160420043
30
0
41
1
10
27.139209177156
20
4.29523163308698
30
0
41
1
10
26.8506196143474
20
4.36239570938821
30
0
41
1
10
26.4657952704974
20
4.44504919320454
30
0
41
1
10
26.369076778865
20
4.46523900202342
30
0
41
1
10
26.2724148183512
20
4.48482797847933
30
0
0
SPLINE
5
E2
100
AcDbEntity
8
1
62
256
6
ByLayer
370
18
48
1
60
0
100
AcDbSpline
70
4
71
3
72
30
73
26
40
0
40
0
40
0
40
0
40
0.0982125328569719
40
0.0982125328569719
40
0.196425065713944
40
0.196425065713944
40
0.294637598570916
40
0.294637598570916
40
0.343743864999402
40
0.343743864999402
40
0.392850131427888
40
0.392850131427888
40
0.589275197141834
40
0.589275197141834
40
0.687487729998807
40
0.687487729998807
40
0.785700262855779
40
0.785700262855779
40
0.834806529284264
40
0.834806529284264
40
0.883912795712749
40
0.883912795712749
40
0.982125328569719
40
0.982125328569719
40
1
40
1
40
1
40
1
41
1
10
5.69991089648178
20
-0.383839179223656
30
0
41
1
10
6.27831064498281
20
-0.665414426177335
30
0
41
1
10
6.85630149996013
20
-0.945347659408441
30
0
41
1
10
8.01156589651981
20
-1.49389370533382
30
0
41
1
10
8.59009783241751
20
-1.76297371331384
30
0
41
1
10
9.74391883270087
20
-2.281088549298
30
0
41
1
10
10.3198719592194
20
-2.53009453172328
30
0
41
1
10
11.1843519709136
20
-2.88498681033607
30
0
41
1
10
11.4726072007334
20
-3.00017346765011
30
0
41
1
10
12.0496939906449
20
-3.22363741399286
30
0
41
1
10
12.3388128060602
20
-3.33202733535987
30
0
41
1
10
13.7824451262822
20
-3.85314827256795
30
0
41
1
10
14.9316106305441
20
-4.20345924692825
30
0
41
1
10
16.6642784737547
20
-4.60656002612993
30
0
41
1
10
17.2412651191287
20
-4.7197220862158
30
0
41
1
10
18.3932062993247
20
-4.90115235806908
30
0
41
1
10
18.9686917304535
20
-4.96953420521828
30
0
41
1
10
19.833777449434
20
-5.03712765883884
30
0
41
1
10
20.1227409152073
20
-5.05384393672566
30
0
41
1
10
20.700052433218
20
-5.07540783789796
30
0
41
1
10
20.9883116243873
20
-5.08026393741329
30
0
41
1
10
21.8524915826277
20
-5.07710936151051
30
0
41
1
10
22.42783945092
20
-5.05137251502347
30
0
41
1
10
23.1087727872666
20
-4.99332181579339
30
0
41
1
10
23.2136451635574
20
-4.98360933804528
30
0
41
1
10
23.3185520795487
20
-4.97312525823435
30
0
0
SPLINE
5
E3
100
AcDbEntity
8
1
62
256
6
ByLayer
370
18
48
1
60
0
100
AcDbSpline
70
4
71
3
72
58
73
54
40
0
40
0
40
0
40
0
40
0.01236282733572
40
0.01236282733572
40
0.0371878117666035
40
0.0371878117666035
40
0.0620127961974873
40
0.0620127961974873
40
0.111662765059256
40
0.111662765059256
40
0.161312733921024
40
0.161312733921024
40
0.210962702782792
40
0.210962702782792
40
0.260612671644561
40
0.260612671644561
40
0.285437656075446
40
0.285437656075446
40
0.31026264050633
40
0.31026264050633
40
0.359912609368099
40
0.359912609368099
40
0.409562578229869
40
0.409562578229869
40
0.459212547091638
40
0.459212547091638
40
0.484037531522522
40
0.484037531522522
40
0.508862515953406
40
0.508862515953406
40
0.558512484815175
40
0.558512484815175
40
0.583337469246059
40
0.583337469246059
40
0.608162453676943
40
0.608162453676943
40
0.70746239140048
40
0.70746239140048
40
0.732287375831364
40
0.732287375831364
40
0.757112360262248
40
0.757112360262248
40
0.806762329124017
40
0.806762329124017
40
0.831587313554902
40
0.831587313554902
40
0.856412297985786
40
0.856412297985786
40
0.906062266847554
40
0.906062266847554
40
0.955712235709321
40
0.955712235709321
40
1
40
1
40
1
40
1
41
1
10
53.6637339843815
20
5.13782139623461
30
0
41
1
10
53.8067940852066
20
5.13805937588086
30
0
41
1
10
53.9498721645827
20
5.13682368936966
30
0
41
1
10
54.3803821778133
20
5.12866670122938
30
0
41
1
10
54.6679482234901
20
5.11727216297007
30
0
41
1
10
55.2438224873338
20
5.0825746532166
30
0
41
1
10
55.5321146846802
20
5.0592572005024
30
0
41
1
10
56.3951456127708
20
4.97190954540326
30
0
41
1
10
56.9692252187955
20
4.89042034371309
30
0
41
1
10
58.117996329441
20
4.68291801774106
30
0
41
1
10
58.6932508336719
20
4.55676329226111
30
0
41
1
10
59.8450736240661
20
4.26278232512433
30
0
41
1
10
60.419365504541
20
4.09566876786087
30
0
41
1
10
61.5677235998035
20
3.72504866608668
30
0
41
1
10
62.1418639430051
20
3.52164438103227
30
0
41
1
10
63.005195963046
20
3.19227360540614
30
0
41
1
10
63.2933015648161
20
3.07848815943865
30
0
41
1
10
63.8683418176382
20
2.84453767790342
30
0
41
1
10
64.1555456780486
20
2.72422167944075
30
0
41
1
10
65.0167578115017
20
2.35421160006186
30
0
41
1
10
65.5904890531422
20
2.09566955970385
30
0
41
1
10
66.7400548901867
20
1.56006152724686
30
0
41
1
10
67.3164088887874
20
1.28299035982693
30
0
41
1
10
68.465036712264
20
0.720935219497022
30
0
41
1
10
69.0385411472023
20
0.435602355214826
30
0
41
1
10
69.8997958174381
20
0.0055674932092415
30
0
41
1
10
70.1870782954522
20
-0.138053614081457
30
0
41
1
10
70.7624231028296
20
-0.425074843746756
30
0
41
1
10
71.0503454713757
20
-0.568463421636238
30
0
41
1
10
71.9123052113436
20
-0.995444448452758
30
0
41
1
10
72.4857827380722
20
-1.27622681312872
30
0
41
1
10
73.3464184562978
20
-1.68737081443058
30
0
41
1
10
73.6334002697205
20
-1.82268282739741
30
0
41
1
10
74.2079533187823
20
-2.08909600189114
30
0
41
1
10
74.4957767975432
20
-2.22036840275854
30
0
41
1
10
75.9336783160566
20
-2.86281627872111
30
0
41
1
10
77.0777136008669
20
-3.33053603494801
30
0
41
1
10
78.5153755922545
20
-3.83220653514655
30
0
41
1
10
78.8030883904381
20
-3.92827002389853
30
0
41
1
10
79.3774093061745
20
-4.11075622906336
30
0
41
1
10
79.6642543274539
20
-4.19730839975185
30
0
41
1
10
80.5244482793228
20
-4.44219372075952
30
0
41
1
10
81.09761444023
20
-4.58558656988683
30
0
41
1
10
81.9590359151692
20
-4.76862018551574
30
0
41
1
10
82.2467659593556
20
-4.82431968548104
30
0
41
1
10
82.8215844371982
20
-4.92428555204629
30
0
41
1
10
83.1086121630204
20
-4.96856717527402
30
0
41
1
10
83.9690313325287
20
-5.08409392147786
30
0
41
1
10
84.5419272069106
20
-5.13792614167764
30
0
41
1
10
85.6892606135117
20
-5.19804734864152
30
0
41
1
10
86.2648857424875
20
-5.20423109724717
30
0
41
1
10
87.3507192701437
20
-5.17040563561255
30
0
41
1
10
87.8617631074112
20
-5.13542029830836
30
0
41
1
10
88.373029297847
20
-5.08176994741524
30
0
0
SPLINE
5
E4
100
AcDbEntity
8
1
62
256
6
ByLayer
370
13
48
1
60
0
100
AcDbSpline
70
4
71
3
72
30
73
26
40
0
40
0
40
0
40
0
40
0.139468460749367
40
0.139468460749367
40
0.20920269112405
40
0.20920269112405
40
0.278936921498733
40
0.278936921498733
40
0.4184053822481
40
0.4184053822481
40
0.488139612622784
40
0.488139612622784
40
0.557873842997467
40
0.557873842997467
40
0.697342303746834
40
0.697342303746834
40
0.836810764496201
40
0.836810764496201
40
0.871677879683542
40
0.871677879683542
40
0.906544994870884
40
0.906544994870884
40
0.976279225245567
40
0.976279225245567
40
1
40
1
40
1
40
1
41
1
10
5.81005646079598
20
-0.16203821204229
30
0
41
1
10
5.8100707964183
20
0.208067013728794
30
0
41
1
10
5.8100711449554
20
0.573700757229091
30
0
41
1
10
5.81006403395136
20
1.11557411124693
30
0
41
1
10
5.81006034774134
20
1.29565633694458
30
0
41
1
10
5.81005255157254
20
1.64792985470572
30
0
41
1
10
5.8100484363529
20
1.82078573544814
30
0
41
1
10
5.81003831554148
20
2.3286350061268
30
0
41
1
10
5.81003489712765
20
2.64418045123793
30
0
41
1
10
5.81004278284581
20
3.08423431545759
30
0
41
1
10
5.81004754157649
20
3.22532279033587
30
0
41
1
10
5.81006228355528
20
3.49587486070402
30
0
41
1
10
5.81007213053931
20
3.6227595310942
30
0
41
1
10
5.81010928456757
20
3.97913257019513
30
0
41
1
10
5.81014435152269
20
4.18466300189229
30
0
41
1
10
5.81023258895385
20
4.52920699260395
30
0
41
1
10
5.81028435195435
20
4.66280600083505
30
0
41
1
10
5.81035202557558
20
4.78138902506387
30
0
41
1
10
5.8103656879108
20
4.80262587509688
30
0
41
1
10
5.81039276473146
20
4.83976524885549
30
0
41
1
10
5.81040621738998
20
4.85573822974607
30
0
41
1
10
5.810445982891
20
4.89601484779857
30
0
41
1
10
5.81047171054774
20
4.91269927651621
30
0
41
1
10
5.81050384825099
20
4.92157095745344
30
0
41
1
10
5.81051180381903
20
4.92265833788929
30
0
41
1
10
5.81051951411064
20
4.92257036958117
30
0
0
SPLINE
5
E5
100
AcDbEntity
8
1
62
256
6
ByLayer
370
13
48
1
60
0
100
AcDbSpline
70
4
71
3
72
8
73
4
40
0
40
0
40
0
40
0
40
1
40
1
40
1
40
1
41
1
10
5.31665074877697
20
-0.0016016569665851
30
0
41
1
10
5.32847585357544
20
-0.0058102044823443
30
0
41
1
10
5.34050947754531
20
-0.0098867735098622
30
0
41
1
10
5.35276027284436
20
-0.013827324762218
30
0
0
SPLINE
5
E6
100
AcDbEntity
8
1
62
256
6
ByLayer
370
18
48
1
60
0
100
AcDbSpline
70
4
71
3
72
32
73
28
40
0
40
0
40
0
40
0
40
0.0156250000000008
40
0.0156250000000008
40
0.0312500000000017
40
0.0312500000000017
40
0.0625000000000015
40
0.0625000000000015
40
0.125000000000001
40
0.125000000000001
40
0.187500000000001
40
0.187500000000001
40
0.250000000000001
40
0.250000000000001
40
0.3125
40
0.3125
40
0.375
40
0.375
40
0.500000000000002
40
0.500000000000002
40
0.625000000000005
40
0.625000000000005
40
0.687500000000005
40
0.687500000000005
40
0.750000000000004
40
0.750000000000004
40
1
40
1
40
1
40
1
41
1
10
5.74117380079454
20
-4.25666246723731
30
0
41
1
10
5.75506581149654
20
-4.23892032434034
30
0
41
1
10
5.77100482191366
20
-4.22115899113385
30
0
41
1
10
5.80575870417994
20
-4.18656382721144
30
0
41
1
10
5.82463957395055
20
-4.16962711126706
30
0
41
1
10
5.88523482517419
20
-4.11980834266504
30
0
41
1
10
5.93087450543243
20
-4.08791254809594
30
0
41
1
10
6.08044685599774
20
-3.99570307882189
30
0
41
1
10
6.19214107839912
20
-3.94147356772527
30
0
41
1
10
6.42971419881957
20
-3.84279300967131
30
0
41
1
10
6.55637251730735
20
-3.79834364874452
30
0
41
1
10
6.81359274465513
20
-3.71940635750002
30
0
41
1
10
6.94505530165137
20
-3.6845633049177
30
0
41
1
10
7.21229829177611
20
-3.62243201884141
30
0
41
1
10
7.34809650937484
20
-3.59516666907157
30
0
41
1
10
7.62334054279515
20
-3.547425782983
30
0
41
1
10
7.76290993563615
20
-3.52697223139816
30
0
41
1
10
8.18072231337555
20
-3.47582010785993
30
0
41
1
10
8.46010764098776
20
-3.45484534325206
30
0
41
1
10
9.02030318645313
20
-3.43623975331818
30
0
41
1
10
9.30111897025711
20
-3.43868040246412
30
0
41
1
10
9.72339343243715
20
-3.45944565111736
30
0
41
1
10
9.86467204704437
20
-3.46926178218615
30
0
41
1
10
10.1459259697303
20
-3.49446149690411
30
0
41
1
10
10.285495965328
20
-3.50979356873043
30
0
41
1
10
10.9781246817383
20
-3.59943074696278
30
0
41
1
10
11.515620346901
20
-3.71321395333465
30
0
41
1
10
12.0359382764229
20
-3.85777283812718
30
0
0
SPLINE
5
E7
100
AcDbEntity
8
1
62
256
6
ByLayer
370
18
48
1
60
0
100
AcDbSpline
70
4
71
3
72
8
73
4
40
0
40
0
40
0
40
0
40
1
40
1
40
1
40
1
41
1
10
116.795656724716
20
2.37491155151906
30
0
41
1
10
116.793753312237
20
2.38781082644212
30
0
41
1
10
116.792083444838
20
2.40074867839638
30
0
41
1
10
116.790662401448
20
2.41371344152691
30
0
0
SPLINE
5
E8
100
AcDbEntity
8
1
62
256
6
ByLayer
370
13
48
1
60
0
100
AcDbSpline
70
4
71
3
72
89
73
85
40
0
40
0
40
0
40
0
40
0.010703407740754
40
0.0291769113778722
40
0.0353347459235786
40
0.0476504150149908
40
0.0599660841064031
40
0.0784395877435212
40
0.0845974222892271
40
0.0969130913806393
40
0.109228760472052
40
0.12770226410917
40
0.133860098654876
40
0.146175767746288
40
0.158491436837701
40
0.176964940474819
40
0.183122775020525
40
0.195438444111937
40
0.207754113203349
40
0.226227616840467
40
0.232385451386174
40
0.244701120477586
40
0.257016789568998
40
0.275490293206116
40
0.281648127751822
40
0.293963796843234
40
0.306279465934647
40
0.324752969571765
40
0.330910804117471
40
0.343226473208883
40
0.355542142300296
40
0.374015645937414
40
0.38017348048312
40
0.392489149574532
40
0.404804818665944
40
0.423278322303062
40
0.429436156848769
40
0.441751825940181
40
0.454067495031593
40
0.472540998668711
40
0.478698833214417
40
0.491014502305829
40
0.503330171397242
40
0.52180367503436
40
0.527961509580066
40
0.540277178671478
40
0.552592847762891
40
0.571066351400009
40
0.577224185945715
40
0.589539855037127
40
0.601855524128539
40
0.620329027765657
40
0.626486862311364
40
0.638802531402776
40
0.651118200494188
40
0.669591704131306
40
0.675749538677012
40
0.688065207768425
40
0.700380876859837
40
0.718854380496955
40
0.725012215042661
40
0.737327884134074
40
0.749643553225486
40
0.768117056862604
40
0.77427489140831
40
0.786590560499722
40
0.798906229591134
40
0.817379733228252
40
0.823537567773959
40
0.835853236865371
40
0.848168905956783
40
0.866642409593901
40
0.872800244139607
40
0.88511591323102
40
0.897431582322432
40
0.91590508595955
40
0.922062920505256
40
0.934378589596669
40
0.946694258688081
40
0.965167762325199
40
0.971325596870905
40
0.983641265962317
40
0.995956935053729
40
1
40
1
40
1
40
1
41
1
10
105.677124587591
20
-2.12690911125742
30
0
41
1
10
105.6024414673
20
-2.13455192341689
30
0
41
1
10
105.398856832868
20
-2.15492814398297
30
0
41
1
10
105.152276938413
20
-2.17811990891369
30
0
41
1
10
104.89445205736
20
-2.20102936504364
30
0
41
1
10
104.67962268696
20
-2.21923139715102
30
0
41
1
10
104.378856501187
20
-2.24309325773373
30
0
41
1
10
104.121025780715
20
-2.26185742407753
30
0
41
1
10
103.863201149515
20
-2.27923379167655
30
0
41
1
10
103.648372058593
20
-2.29278587882124
30
0
41
1
10
103.347606382324
20
-2.31008651188407
30
0
41
1
10
103.08977615845
20
-2.32318625767022
30
0
41
1
10
102.8319520025
20
-2.3348592621897
30
0
41
1
10
102.617123235278
20
-2.34362531897421
30
0
41
1
10
102.316357779698
20
-2.35418449335691
30
0
41
1
10
102.05852744716
20
-2.36147581166748
30
0
41
1
10
101.80070287381
20
-2.36731033699417
30
0
41
1
10
101.585873595301
20
-2.37118405309656
30
0
41
1
10
101.285107332286
20
-2.37486967026615
30
0
41
1
10
101.027276383135
20
-2.37626270988918
30
0
41
1
10
100.769451474137
20
-2.37619554772513
30
0
41
1
10
100.554622091356
20
-2.37514320904913
30
0
41
1
10
100.253855901576
20
-2.37193680209927
30
0
41
1
10
99.9960251914584
20
-2.36743960002193
30
0
41
1
10
99.73820057944
20
-2.36149117054862
30
0
41
1
10
99.523371515587
20
-2.35553690313407
30
0
41
1
10
99.2226059022289
20
-2.34548439728977
30
0
41
1
10
98.9647757561341
20
-2.33514836631153
30
0
41
1
10
98.7069516948349
20
-2.32338038144965
30
0
41
1
10
98.4921230121181
20
-2.31258292511265
30
0
41
1
10
98.1913576783863
20
-2.29577884060979
30
0
41
1
10
97.9335274522397
20
-2.2796971100457
30
0
41
1
10
97.675702984344
20
-2.26221309719429
30
0
41
1
10
97.4608737867353
20
-2.24666625038933
30
0
41
1
10
97.1601076179468
20
-2.22325822965431
30
0
41
1
10
96.9022767301652
20
-2.20157765942776
30
0
41
1
10
96.6444518675044
20
-2.17854626354142
30
0
41
1
10
96.4296225101552
20
-2.15840616824758
30
0
41
1
10
96.1288563286014
20
-2.12863656363689
30
0
41
1
10
95.8710255981686
20
-2.10158512608197
30
0
41
1
10
95.6132009455102
20
-2.07324652297706
30
0
41
1
10
95.3983718375711
20
-2.04872107791786
30
0
41
1
10
95.0976061474138
20
-2.01289369097546
30
0
41
1
10
94.8397759209623
20
-1.98074409519128
30
0
41
1
10
94.5819517703382
20
-1.94738163800164
30
0
41
1
10
94.3671230057774
20
-1.91871464660224
30
0
41
1
10
94.0663575438249
20
-1.87718316486104
30
0
41
1
10
93.8085271962202
20
-1.84025042602607
30
0
41
1
10
93.5507025997406
20
-1.8021894066645
30
0
41
1
10
93.3358733039211
20
-1.76965954045556
30
0
41
1
10
93.0351070275619
20
-1.72282765263248
30
0
41
1
10
92.7772760775247
20
-1.68147223268249
30
0
41
1
10
92.5194511762597
20
-1.63908714708106
30
0
41
1
10
92.3046218019222
20
-1.60301664177325
30
0
41
1
10
92.0038556241813
20
-1.55135099929731
30
0
41
1
10
91.7460249251275
20
-1.50598665622692
30
0
41
1
10
91.4882003246054
20
-1.45970141714281
30
0
41
1
10
91.2733712724793
20
-1.42045070034823
30
0
41
1
10
90.9726056808953
20
-1.36446722407305
30
0
41
1
10
90.7147755583017
20
-1.31554679434549
30
0
41
1
10
90.4569515235817
20
-1.26582354257775
30
0
41
1
10
90.2421228650467
20
-1.22378456314402
30
0
41
1
10
89.9413575688503
20
-1.16404248673089
30
0
41
1
10
89.6835273784301
20
-1.11205505534295
30
0
41
1
10
89.4257029498082
20
-1.05939142645551
30
0
41
1
10
89.2108737756309
20
-1.01498533084958
30
0
41
1
10
88.9101076124891
20
-0.952082435162936
30
0
41
1
10
88.6522767045631
20
-0.897545767312863
30
0
41
1
10
88.3944518043224
20
-0.84246234612192
30
0
41
1
10
88.1796224091797
20
-0.796125219921038
30
0
41
1
10
87.8788561704177
20
-0.730675749053376
30
0
41
1
10
87.6210253897792
20
-0.674120696686799
30
0
41
1
10
87.3632006914141
20
-0.617154744877553
30
0
41
1
10
87.1483715428052
20
-0.569339779918778
30
0
41
1
10
86.8476057879143
20
-0.501986323082235
30
0
41
1
10
86.58977550244
20
-0.443970934402103
30
0
41
1
10
86.3319512937893
20
-0.385686993821764
30
0
41
1
10
86.117122491132
20
-0.336869558760071
30
0
41
1
10
85.8163570087588
20
-0.268284648506068
30
0
41
1
10
85.5585266823301
20
-0.209391500944179
30
0
41
1
10
85.3007021408557
20
-0.150377649073079
30
0
41
1
10
85.0858729407452
20
-0.101052146323099
30
0
41
1
10
84.8857959526016
20
-0.0550711027144075
30
0
41
1
10
84.7716447771533
20
-0.0288555162889566
30
0
41
1
10
84.7434319608417
20
-0.022377208884933
30
0
0
SPLINE
5
E9
100
AcDbEntity
8
1
62
256
6
ByLayer
370
13
48
1
60
0
100
AcDbSpline
70
4
71
3
72
90
73
86
40
0
40
0
40
0
40
0
40
0.0005699179936284
40
0.0128441761408224
40
0.0312555633616117
40
0.0373926924352079
40
0.0496669505824009
40
0.0619412087295938
40
0.0803525959503836
40
0.0864897250239798
40
0.0987639831711722
40
0.111038241318366
40
0.129449628539155
40
0.135586757612751
40
0.147861015759944
40
0.160135273907138
40
0.178546661127926
40
0.184683790201523
40
0.196958048348716
40
0.209232306495908
40
0.227643693716698
40
0.233780822790294
40
0.246055080937487
40
0.25832933908468
40
0.27674072630547
40
0.282877855379066
40
0.295152113526259
40
0.307426371673452
40
0.325837758894242
40
0.331974887967838
40
0.344249146115031
40
0.356523404262224
40
0.374934791483013
40
0.381071920556609
40
0.393346178703803
40
0.405620436850995
40
0.424031824071785
40
0.430168953145381
40
0.442443211292575
40
0.454717469439767
40
0.473128856660556
40
0.479265985734153
40
0.491540243881345
40
0.503814502028539
40
0.522225889249328
40
0.528363018322924
40
0.540637276470117
40
0.55291153461731
40
0.5713229218381
40
0.577460050911696
40
0.589734309058889
40
0.602008567206082
40
0.620419954426871
40
0.626557083500468
40
0.638831341647661
40
0.651105599794853
40
0.669516987015643
40
0.67565411608924
40
0.687928374236433
40
0.700202632383625
40
0.718614019604414
40
0.724751148678011
40
0.737025406825204
40
0.749299664972397
40
0.767711052193186
40
0.773848181266782
40
0.786122439413975
40
0.798396697561168
40
0.816808084781958
40
0.822945213855554
40
0.835219472002747
40
0.84749373014994
40
0.86590511737073
40
0.872042246444326
40
0.884316504591519
40
0.896590762738712
40
0.915002149959501
40
0.921139279033098
40
0.933413537180291
40
0.945687795327484
40
0.964099182548273
40
0.970236311621869
40
0.982510569769062
40
0.994784827916255
40
1
40
1
40
1
40
1
41
1
10
40.7540923994694
20
-2.11894549474872
30
0
41
1
10
40.7501023885466
20
-2.11935992405731
30
0
41
1
10
40.6601799532468
20
-2.12868910876981
30
0
41
1
10
40.4413569377142
20
-2.15080124308082
30
0
41
1
10
40.1835261836611
20
-2.17522188771096
30
0
41
1
10
39.9257014525215
20
-2.19830615335422
30
0
41
1
10
39.7108722577584
20
-2.21665617214694
30
0
41
1
10
39.410106437758
20
-2.24072765772178
30
0
41
1
10
39.1522761042482
20
-2.25967236059077
30
0
41
1
10
38.8944518674815
20
-2.27722858381898
30
0
41
1
10
38.6796230612597
20
-2.29093006618808
30
0
41
1
10
38.3788576207805
20
-2.30843706641576
30
0
41
1
10
38.121027385754
20
-2.32170896966233
30
0
41
1
10
37.8632029942718
20
-2.33354896255753
30
0
41
1
10
37.6483738849728
20
-2.34245087107078
30
0
41
1
10
37.3476078386689
20
-2.35319741018722
30
0
41
1
10
37.0897770449192
20
-2.36065014526844
30
0
41
1
10
36.8319522493251
20
-2.36665203296155
30
0
41
1
10
36.6171229349756
20
-2.37067022748025
30
0
41
1
10
36.3163567871495
20
-2.37456513356759
30
0
41
1
10
36.0585260448159
20
-2.37614285089927
30
0
41
1
10
35.8007013319519
20
-2.37626253044752
30
0
41
1
10
35.5858721601812
20
-2.37536702414528
30
0
41
1
10
35.2851063860128
20
-2.37238076042075
30
0
41
1
10
35.027276101577
20
-2.36807144040304
30
0
41
1
10
34.7694519170517
20
-2.36230910629141
30
0
41
1
10
34.5546231485492
20
-2.3565086970886
30
0
41
1
10
34.253857739721
20
-2.34666776208053
30
0
41
1
10
33.9960275066368
20
-2.33650757719411
30
0
41
1
10
33.7382030917837
20
-2.32490987183755
30
0
41
1
10
33.5233739562643
20
-2.31425072984317
30
0
41
1
10
33.2226078745709
20
-2.29763582190716
30
0
41
1
10
32.9647770541364
20
-2.2817140688756
30
0
41
1
10
32.7069522397638
20
-2.2643918819098
30
0
41
1
10
32.4921229102068
20
-2.24898187926533
30
0
41
1
10
32.1913567391468
20
-2.22576770812881
30
0
41
1
10
31.933525978796
20
-2.20425441139881
30
0
41
1
10
31.6757012532474
20
-2.18138998073479
30
0
41
1
10
31.4608720756261
20
-2.16138870133636
30
0
41
1
10
31.1601063007823
20
-2.13181200684616
30
0
41
1
10
30.9022760216897
20
-2.10492363880212
30
0
41
1
10
30.6444518451664
20
-2.07674570842366
30
0
41
1
10
30.4296230802213
20
-2.05235255790387
30
0
41
1
10
30.1288576648887
20
-2.01670653848353
30
0
41
1
10
29.8710274132262
20
-1.98470757841207
30
0
41
1
10
29.6132029670168
20
-1.95149128842905
30
0
41
1
10
29.3983738050609
20
-1.92294322320748
30
0
41
1
10
29.097607696021
20
-1.88157362395566
30
0
41
1
10
28.8397768632398
20
-1.84477564981398
30
0
41
1
10
28.5819520479312
20
-1.80684751528304
30
0
41
1
10
28.3671227227267
20
-1.77442744363356
30
0
41
1
10
28.066356566058
20
-1.72774699159351
30
0
41
1
10
27.8085258287249
20
-1.68651856131746
30
0
41
1
10
27.550701136713
20
-1.64425784160764
30
0
41
1
10
27.3358719913473
20
-1.60828926710448
30
0
41
1
10
27.0351062637232
20
-1.55676304392318
30
0
41
1
10
26.777276024257
20
-1.51151463858878
30
0
41
1
10
26.5194518826212
20
-1.46534244902077
30
0
41
1
10
26.3046231417067
20
-1.42618402956515
30
0
41
1
10
26.0038577470557
20
-1.37032608215799
30
0
41
1
10
25.7460274969592
20
-1.321509301172
30
0
41
1
10
25.4882030359896
20
-1.27188646344447
30
0
41
1
10
25.2733738555343
20
-1.2299290585477
30
0
41
1
10
24.9726077164251
20
-1.17029627034685
30
0
41
1
10
24.7147768554594
20
-1.11839622258589
30
0
41
1
10
24.4569520132771
20
-1.06581356904798
30
0
41
1
10
24.2421226680871
20
-1.02147052198129
30
0
41
1
10
23.941356491072
20
-0.958648381482647
30
0
41
1
10
23.6835257467181
20
-0.904173763015308
30
0
41
1
10
23.4257010595429
20
-0.849147478423674
30
0
41
1
10
23.210871919556
20
-0.80285496089499
30
0
41
1
10
22.9101061938945
20
-0.737463304970589
30
0
41
1
10
22.652275949975
20
-0.680953849952317
30
0
41
1
10
22.3944517972989
20
-0.624031249639273
30
0
41
1
10
22.1796230456534
20
-0.576251007195168
30
0
41
1
10
21.8788576358953
20
-0.508944509640315
30
0
41
1
10
21.6210273720195
20
-0.450968658846165
30
0
41
1
10
21.363202896102
20
-0.392724575546453
30
0
41
1
10
21.1483737033297
20
-0.34394057394519
30
0
41
1
10
20.8476075488914
20
-0.275400541866844
30
0
41
1
10
20.5897766773782
20
-0.216541223388987
30
0
41
1
10
20.3319518270296
20
-0.157553969851136
30
0
41
1
10
20.1171224821616
20
-0.10824512637015
30
0
41
1
10
19.9087442167666
20
-0.0603658084161509
30
0
41
1
10
19.7862907083207
20
-0.0322479244157421
30
0
41
1
10
19.7497758189312
20
-0.0238646353666354
30
0
0
SPLINE
5
EA
100
AcDbEntity
8
1
62
256
6
ByLayer
370
18
48
1
60
0
100
AcDbSpline
70
4
71
3
72
12
73
8
40
0
40
0
40
0
40
0
40
0.5
40
0.5
40
0.75
40
0.75
40
1
40
1
40
1
40
1
41
1
10
12.0359382764229
20
-3.85777283812706
30
0
41
1
10
13.0297083008364
20
-4.13386996705248
30
0
41
1
10
14.0283655097222
20
-4.36453665183907
30
0
41
1
10
15.5318733865478
20
-4.64551644596958
30
0
41
1
10
16.0344031808743
20
-4.72817774153009
30
0
41
1
10
17.0348812793753
20
-4.86906273667853
30
0
41
1
10
17.5335727380054
20
-4.92745477726641
30
0
41
1
10
18.0305867595594
20
-4.97252688195692
30
0
0
SPLINE
5
EB
100
AcDbEntity
8
1
62
256
6
ByLayer
370
13
48
1
60
0
100
AcDbSpline
70
4
71
3
72
10
73
6
40
0
40
0
40
0
40
0
40
0.424011318991424
40
0.424011318991424
40
1
40
1
40
1
40
1
41
1
10
5.81051428883822
20
-4.92245226203573
30
0
41
1
10
5.81053120819712
20
-4.92340186104428
30
0
41
1
10
5.81054702467989
20
-4.91885830022409
30
0
41
1
10
5.81058068240696
20
-4.89492647161839
30
0
41
1
10
5.81059719898647
20
-4.87057846004845
30
0
41
1
10
5.81060933577663
20
-4.83634185231648
30
0
0
SPLINE
5
EC
100
AcDbEntity
8
1
62
256
6
ByLayer
370
18
48
1
60
0
100
AcDbSpline
70
4
71
3
72
10
73
6
40
0
40
0
40
0
40
0
40
0.204709972877186
40
0.204709972877186
40
1
40
1
40
1
40
1
41
1
10
16.5439559266133
20
1.26323508100432
30
0
41
1
10
16.5874158916737
20
1.31949858463068
30
0
41
1
10
16.6300241631288
20
1.37944267455825
30
0
41
1
10
16.8325742089995
20
1.68868239373288
30
0
41
1
10
16.9761813750602
20
1.98501673075231
30
0
41
1
10
17.0884973257828
20
2.30324826471352
30
0
0
SPLINE
5
ED
100
AcDbEntity
8
1
62
256
6
ByLayer
370
18
48
1
60
0
100
AcDbSpline
70
4
71
3
72
8
73
4
40
0
40
0
40
0
40
0
40
1
40
1
40
1
40
1
41
1
10
117.99959713206
20
0.122824863168603
30
0
41
1
10
118.000134289278
20
0.0409416210600284
30
0
41
1
10
118.000134289278
20
-0.040941621048546
30
0
41
1
10
117.99959713206
20
-0.122824863157121
30
0
0
SPLINE
5
EE
100
AcDbEntity
8
1
62
256
6
ByLayer
370
18
48
1
60
0
100
AcDbSpline
70
4
71
3
72
12
73
8
40
0
40
0
40
0
40
0
40
0.5
40
0.5
40
0.75
40
0.75
40
1
40
1
40
1
40
1
41
1
10
12.0359382764229
20
3.85777283812703
30
0
41
1
10
13.0297083008364
20
4.13386996705248
30
0
41
1
10
14.0283655097222
20
4.36453665183905
30
0
41
1
10
15.5318733865478
20
4.64551644596958
30
0
41
1
10
16.0344031808743
20
4.72817774153009
30
0
41
1
10
17.0348812793753
20
4.86906273667853
30
0
41
1
10
17.5335727380054
20
4.92745477726638
30
0
41
1
10
18.0305867595594
20
4.97252688195692
30
0
0
SPLINE
5
EF
100
AcDbEntity
8
1
62
256
6
ByLayer
370
18
48
1
60
0
100
AcDbSpline
70
4
71
3
72
12
73
8
40
0
40
0
40
0
40
0
40
0.371466926753453
40
0.371466926753453
40
0.742933853506906
40
0.742933853506906
40
1
40
1
40
1
40
1
41
1
10
18.0305867595594
20
-4.97252688195687
30
0
41
1
10
18.2891546839758
20
-4.99825769482021
30
0
41
1
10
18.5471344669032
20
-5.01918020485712
30
0
41
1
10
19.0622415375158
20
-5.05156810650615
30
0
41
1
10
19.3190175948353
20
-5.06311089363555
30
0
41
1
10
19.7529679166542
20
-5.07467296253807
30
0
41
1
10
19.9302506710049
20
-5.07716156246684
30
0
41
1
10
20.1073723878449
20
-5.07742076881775
30
0
0
SPLINE
5
F0
100
AcDbEntity
8
1
62
256
6
ByLayer
370
18
48
1
60
0
100
AcDbSpline
70
4
71
3
72
52
73
48
40
0
40
0
40
0
40
0
40
0.0433244240482219
40
0.0433244240482219
40
0.117701451460897
40
0.117701451460897
40
0.136295708314065
40
0.136295708314065
40
0.154889965167234
40
0.154889965167234
40
0.192078478873571
40
0.192078478873571
40
0.266455506286245
40
0.266455506286245
40
0.303644019992583
40
0.303644019992583
40
0.322238276845751
40
0.322238276845751
40
0.340832533698919
40
0.340832533698919
40
0.41520956111159
40
0.41520956111159
40
0.489586588524262
40
0.489586588524262
40
0.526775102230598
40
0.526775102230598
40
0.545369359083766
40
0.545369359083766
40
0.563963615936935
40
0.563963615936935
40
0.638340643349609
40
0.638340643349609
40
0.712717670762284
40
0.712717670762284
40
0.731311927615452
40
0.731311927615452
40
0.74990618446862
40
0.74990618446862
40
0.787094698174957
40
0.787094698174957
40
0.86147172558763
40
0.86147172558763
40
0.898660239293966
40
0.898660239293966
40
0.935848753000303
40
0.935848753000303
40
1
40
1
40
1
40
1
41
1
10
43.9054133418301
20
3.41148417060686
30
0
41
1
10
44.5008272069035
20
3.63192382583128
30
0
41
1
10
45.0942453398156
20
3.83490293076866
30
0
41
1
10
46.7061552465218
20
4.33187658762802
30
0
41
1
10
47.7234266574166
20
4.5881520984959
30
0
41
1
10
49.0054416440637
20
4.82196395595062
30
0
41
1
10
49.2622062927062
20
4.86453055445841
30
0
41
1
10
49.7772102817591
20
4.94061344681865
30
0
41
1
10
50.0357448936443
20
4.97423440889037
30
0
41
1
10
50.8082264352745
20
5.06087023137272
30
0
41
1
10
51.3206783608371
20
5.09971762855085
30
0
41
1
10
52.8538051994692
20
5.15997445300195
30
0
41
1
10
53.8694237612885
20
5.1249345903158
30
0
41
1
10
55.3975964807322
20
4.96246268986471
30
0
41
1
10
55.9075485365
20
4.88995520333518
30
0
41
1
10
56.6749923035025
20
4.75412092402277
30
0
41
1
10
56.9313531352634
20
4.70443906878617
30
0
41
1
10
57.4451028416083
20
4.59611195448605
30
0
41
1
10
57.7026876849647
20
4.53737835610838
30
0
41
1
10
58.9925087299477
20
4.22304852926328
30
0
41
1
10
60.0125740020527
20
3.90674924930121
30
0
41
1
10
62.0488132050426
20
3.17373877816419
30
0
41
1
10
63.0639642600272
20
2.75551164770951
30
0
41
1
10
64.5966027541625
20
2.07390575121852
30
0
41
1
10
65.108982717266
20
1.83742351985128
30
0
41
1
10
65.881362113679
20
1.47131879226231
30
0
41
1
10
66.1394414822829
20
1.34766390332695
30
0
41
1
10
66.6534129236031
20
1.09905350260809
30
0
41
1
10
66.909649094088
20
0.973612859327716
30
0
41
1
10
68.1891113050625
20
0.34496421928722
30
0
41
1
10
69.2046252495367
20
-0.167923046669813
30
0
41
1
10
71.2385166631179
20
-1.17467932774005
30
0
41
1
10
72.2561295654637
20
-1.67010870646206
30
0
41
1
10
73.5407672924059
20
-2.25546627019847
30
0
41
1
10
73.7987797272864
20
-2.37109397060499
30
0
41
1
10
74.3132835182177
20
-2.59732564046141
30
0
41
1
10
74.569998085249
20
-2.70762409497513
30
0
41
1
10
75.3381406316425
20
-3.03093530629025
30
0
41
1
10
75.8481629802154
20
-3.23525110908122
30
0
41
1
10
77.3753632027435
20
-3.80978880319262
30
0
41
1
10
78.389275228797
20
-4.14211220305486
30
0
41
1
10
79.9172510164092
20
-4.54636653365995
30
0
41
1
10
80.4277738060299
20
-4.66543342616066
30
0
41
1
10
81.4532419855364
20
-4.86958503051977
30
0
41
1
10
81.9695938795592
20
-4.95471907941959
30
0
41
1
10
83.3665179110792
20
-5.13445492364534
30
0
41
1
10
84.2439855926225
20
-5.19238601110223
30
0
41
1
10
85.1202108469882
20
-5.19443719777652
30
0
0
SPLINE
5
F1
100
AcDbEntity
8
1
62
256
6
ByLayer
370
18
48
1
60
0
100
AcDbSpline
70
4
71
3
72
16
73
12
40
0
40
0
40
0
40
0
40
0.15344110531532
40
0.15344110531532
40
0.57672055265767
40
0.57672055265767
40
0.682540414493252
40
0.682540414493252
40
0.788360276328835
40
0.788360276328835
40
1
40
1
40
1
40
1
41
1
10
108.903622153136
20
3.47708281051595
30
0
41
1
10
109.271279816645
20
3.61659363494584
30
0
41
1
10
109.638764907588
20
3.749548304515
30
0
41
1
10
111.020722733213
20
4.22255600872603
30
0
41
1
10
112.037477640359
20
4.51427698880761
30
0
41
1
10
113.321499123258
20
4.79534319648599
30
0
41
1
10
113.57857346852
20
4.84716445712462
30
0
41
1
10
114.091522667935
20
4.94155885501595
30
0
41
1
10
114.347524289345
20
4.98429819088014
30
0
41
1
10
115.115401926519
20
5.09837341541635
30
0
41
1
10
115.626578239553
20
5.15596151658707
30
0
41
1
10
116.13801175876
20
5.19459152861143
30
0
0
SPLINE
5
F2
100
AcDbEntity
8
1
62
256
6
ByLayer
370
18
48
1
60
0
100
AcDbSpline
70
4
71
3
72
20
73
16
40
0
40
0
40
0
40
0
40
0.249999999999994
40
0.249999999999994
40
0.374999999999994
40
0.374999999999994
40
0.437499999999993
40
0.437499999999993
40
0.499999999999993
40
0.499999999999993
40
0.749999999999997
40
0.749999999999997
40
0.874999999999998
40
0.874999999999998
40
1
40
1
40
1
40
1
41
1
10
116.040872329301
20
-4.88293468258235
30
0
41
1
10
115.937363365973
20
-4.78925161840399
30
0
41
1
10
115.845780024526
20
-4.66895878125976
30
0
41
1
10
115.726953510772
20
-4.44713205438165
30
0
41
1
10
115.69045438256
20
-4.36625108217689
30
0
41
1
10
115.640647188268
20
-4.23390360427285
30
0
41
1
10
115.624855405889
20
-4.18787210054504
30
0
41
1
10
115.595318320531
20
-4.09314592552403
30
0
41
1
10
115.581523714744
20
-4.04433294044802
30
0
41
1
10
115.517384506037
20
-3.79307191824262
30
0
41
1
10
115.481409736403
20
-3.56923154402568
30
0
41
1
10
115.451326636207
20
-3.19792229067548
30
0
41
1
10
115.44531579885
20
-3.06743733113609
30
0
41
1
10
115.44178565208
20
-2.79886777337993
30
0
41
1
10
115.444198481374
20
-2.66062689130757
30
0
41
1
10
115.450745903926
20
-2.51847091622128
30
0
0
SPLINE
5
F3
100
AcDbEntity
8
1
62
256
6
ByLayer
370
18
48
1
60
0
100
AcDbSpline
70
4
71
3
72
8
73
4
40
0
40
0
40
0
40
0
40
1
40
1
40
1
40
1
41
1
10
10.8523108235692
20
3.59189779971814
30
0
41
1
10
11.2561138179111
20
3.66059908216167
30
0
41
1
10
11.6507334543583
20
3.75075215647291
30
0
41
1
10
12.0359382764229
20
3.85777283812718
30
0
0
SPLINE
5
F4
100
AcDbEntity
8
1
62
256
6
ByLayer
370
18
48
1
60
0
100
AcDbSpline
70
4
71
3
72
36
73
32
40
0
40
0
40
0
40
0
40
0.104101649826239
40
0.104101649826239
40
0.156152474739358
40
0.156152474739358
40
0.208203299652478
40
0.208203299652478
40
0.312304949478717
40
0.312304949478717
40
0.416406599304955
40
0.416406599304955
40
0.468457424218075
40
0.468457424218075
40
0.520508249131194
40
0.520508249131194
40
0.572559074044314
40
0.572559074044314
40
0.624609898957433
40
0.624609898957433
40
0.728711548783677
40
0.728711548783677
40
0.780762373696796
40
0.780762373696796
40
0.832813198609916
40
0.832813198609916
40
0.936914848436154
40
0.936914848436154
40
0.988965673349276
40
0.988965673349276
40
1
40
1
40
1
40
1
41
1
10
115.596176854372
20
0.543599193357352
30
0
41
1
10
115.07091063825
20
0.801818784363718
30
0
41
1
10
114.547632960372
20
1.05674649497732
30
0
41
1
10
113.764328865121
20
1.43141290749054
30
0
41
1
10
113.503376314285
20
1.55473173077911
30
0
41
1
10
112.981888289642
20
1.79810048519076
30
0
41
1
10
112.721355034868
20
1.91816677044716
30
0
41
1
10
111.939286963502
20
2.27189974908325
30
0
41
1
10
111.41785815274
20
2.50017497473686
30
0
41
1
10
110.372629613587
20
2.93668932246274
30
0
41
1
10
109.848688337421
20
3.14517095248681
30
0
41
1
10
109.058974140921
20
3.43906907718798
30
0
41
1
10
108.795239162208
20
3.53415686944001
30
0
41
1
10
108.266056232713
20
3.71742263623196
30
0
41
1
10
108.000333185823
20
3.80579948241984
30
0
41
1
10
107.471567440282
20
3.97381541178555
30
0
41
1
10
107.207824936535
20
4.05343175102627
30
0
41
1
10
106.681647291253
20
4.20520408362302
30
0
41
1
10
106.419086026813
20
4.2771341488245
30
0
41
1
10
105.632628092128
20
4.47989102036053
30
0
41
1
10
105.110250702701
20
4.59868069147751
30
0
41
1
10
104.327936155508
20
4.74669005533227
30
0
41
1
10
104.06721959142
20
4.79097723625151
30
0
41
1
10
103.546005875928
20
4.87161198960288
30
0
41
1
10
103.285352382625
20
4.90753110282265
30
0
41
1
10
102.502984771861
20
5.00117851968793
30
0
41
1
10
101.981091071122
20
5.04538740315991
30
0
41
1
10
101.195776649198
20
5.08189360459363
30
0
41
1
10
100.933460419754
20
5.08848590216411
30
0
41
1
10
100.615021743519
20
5.09087270867312
30
0
41
1
10
100.559296123569
20
5.09109530601549
30
0
41
1
10
100.503542790886
20
5.09111553020514
30
0
0
SPLINE
5
F5
100
AcDbEntity
8
1
62
256
6
ByLayer
370
18
48
1
60
0
100
AcDbSpline
70
4
71
3
72
104
73
100
40
0
40
0
40
0
40
0
40
0.0074250413090479
40
0.0074250413090479
40
0.0267606732644692
40
0.0267606732644692
40
0.0460963052198907
40
0.0460963052198907
40
0.0847675691307334
40
0.0847675691307334
40
0.123438833041576
40
0.123438833041576
40
0.142774464996998
40
0.142774464996998
40
0.162110096952419
40
0.162110096952419
40
0.18144572890784
40
0.18144572890784
40
0.200781360863262
40
0.200781360863262
40
0.220116992818683
40
0.220116992818683
40
0.239452624774105
40
0.239452624774105
40
0.258788256729526
40
0.258788256729526
40
0.278123888684947
40
0.278123888684947
40
0.297459520640369
40
0.297459520640369
40
0.31679515259579
40
0.31679515259579
40
0.336130784551212
40
0.336130784551212
40
0.355466416506633
40
0.355466416506633
40
0.374802048462055
40
0.374802048462055
40
0.394137680417476
40
0.394137680417476
40
0.413473312372897
40
0.413473312372897
40
0.432808944328319
40
0.432808944328319
40
0.45214457628374
40
0.45214457628374
40
0.471480208239161
40
0.471480208239161
40
0.490815840194583
40
0.490815840194583
40
0.510151472150004
40
0.510151472150004
40
0.529487104105426
40
0.529487104105426
40
0.548822736060847
40
0.548822736060847
40
0.568158368016269
40
0.568158368016269
40
0.58749399997169
40
0.58749399997169
40
0.606829631927111
40
0.606829631927111
40
0.626165263882533
40
0.626165263882533
40
0.645500895837954
40
0.645500895837954
40
0.664836527793376
40
0.664836527793376
40
0.684172159748797
40
0.684172159748797
40
0.703507791704218
40
0.703507791704218
40
0.72284342365964
40
0.72284342365964
40
0.742179055615061
40
0.742179055615061
40
0.761514687570483
40
0.761514687570483
40
0.780850319525904
40
0.780850319525904
40
0.800185951481325
40
0.800185951481325
40
0.819521583436747
40
0.819521583436747
40
0.858192847347589
40
0.858192847347589
40
0.877528479303011
40
0.877528479303011
40
0.896864111258432
40
0.896864111258432
40
0.916199743213854
40
0.916199743213854
40
0.935535375169275
40
0.935535375169275
40
0.954871007124696
40
0.954871007124696
40
0.974206639080118
40
0.974206639080118
40
1
40
1
40
1
40
1
41
1
10
76.4488440152345
20
-3.44342984381535
30
0
41
1
10
76.3479364608991
20
-3.47935016091788
30
0
41
1
10
76.2470648457411
20
-3.51475493549222
30
0
41
1
10
75.8836585653837
20
-3.64042699885471
30
0
41
1
10
75.6213769710444
20
-3.727557136771
30
0
41
1
10
75.096614458426
20
-3.89440192140648
30
0
41
1
10
74.8343574074926
20
-3.97453774789329
30
0
41
1
10
74.0471056288075
20
-4.20262964761477
30
0
41
1
10
73.5217912592381
20
-4.3382106926652
30
0
41
1
10
72.468262501813
20
-4.57715248577637
30
0
41
1
10
71.9398975709098
20
-4.67859739022998
30
0
41
1
10
71.143210614423
20
-4.80448095516186
30
0
41
1
10
70.8767917057128
20
-4.84176963122766
30
0
41
1
10
70.3463988474607
20
-4.90588534304592
30
0
41
1
10
70.0817156012298
20
-4.93296976554174
30
0
41
1
10
69.5535088136875
20
-4.97811258501784
30
0
41
1
10
69.2898618514911
20
-4.99586532598653
30
0
41
1
10
68.7632979799435
20
-5.02087718534318
30
0
41
1
10
68.5005158438534
20
-5.02835678345741
30
0
41
1
10
67.9750246273224
20
-5.03440763823755
30
0
41
1
10
67.7125270117753
20
-5.03284489656443
30
0
41
1
10
67.1877481035902
20
-5.01878321006006
30
0
41
1
10
66.9253161773871
20
-5.00672856081695
30
0
41
1
10
66.40052623516
20
-4.97395425616486
30
0
41
1
10
66.1379797747813
20
-4.95287946571253
30
0
41
1
10
65.6124933580893
20
-4.90041562316995
30
0
41
1
10
65.3496273396308
20
-4.86889154505911
30
0
41
1
10
64.8229337643421
20
-4.79780403491722
30
0
41
1
10
64.5593256551069
20
-4.7576714557043
30
0
41
1
10
64.0309741933688
20
-4.66746152883505
30
0
41
1
10
63.7661799768216
20
-4.61715356645044
30
0
41
1
10
63.2355616001146
20
-4.5082333734002
30
0
41
1
10
62.9690042742717
20
-4.44936016084674
30
0
41
1
10
62.4376519726077
20
-4.32267332146472
30
0
41
1
10
62.1727162164232
20
-4.25501101930234
30
0
41
1
10
61.6436947270536
20
-4.1121650969684
30
0
41
1
10
61.3797954745003
20
-4.03687970250223
30
0
41
1
10
60.8525975676997
20
-3.87901797265374
30
0
41
1
10
60.589435255104
20
-3.79598821457904
30
0
41
1
10
60.063678815381
20
-3.62288939463102
30
0
41
1
10
59.8008638421836
20
-3.53338969571851
30
0
41
1
10
59.2757114967324
20
-3.34743253077207
30
0
41
1
10
59.0132495447177
20
-3.25091272177943
30
0
41
1
10
58.4881158624653
20
-3.0519199797611
30
0
41
1
10
58.2256321902838
20
-2.94919100071718
30
0
41
1
10
57.7000325417728
20
-2.73915542490062
30
0
41
1
10
57.4370870908802
20
-2.63123424740809
30
0
41
1
10
56.9105548252304
20
-2.40973460783235
30
0
41
1
10
56.6468315561506
20
-2.29669484884224
30
0
41
1
10
56.1187389769821
20
-2.06579899291782
30
0
41
1
10
55.8541804240323
20
-1.94828341110721
30
0
41
1
10
55.3237314802428
20
-1.70851223373796
30
0
41
1
10
55.0577572169601
20
-1.58627859857188
30
0
41
1
10
54.5251999602282
20
-1.33955158045814
30
0
41
1
10
54.2593184995228
20
-1.21486910744892
30
0
41
1
10
53.7280097090179
20
-0.963288485051152
30
0
41
1
10
53.4624697997062
20
-0.836700482733818
30
0
41
1
10
52.9316374888273
20
-0.582024014072033
30
0
41
1
10
52.6661305109868
20
-0.454370969582641
30
0
41
1
10
52.1351496203355
20
-0.197770408050872
30
0
41
1
10
51.8696053997986
20
-0.0689680331203704
30
0
41
1
10
51.3378014877119
20
0.188110707118653
30
0
41
1
10
51.0715255750765
20
0.317042192537002
30
0
41
1
10
50.539131579387
20
0.573414174199144
30
0
41
1
10
50.2738068804765
20
0.700691357237787
30
0
41
1
10
49.7440730957569
20
0.953336899793129
30
0
41
1
10
49.4795463055498
20
1.07832926790772
30
0
41
1
10
48.9515797087114
20
1.32612933585963
30
0
41
1
10
48.6880921695893
20
1.44839005903643
30
0
41
1
10
48.1614486724037
20
1.68945155929418
30
0
41
1
10
47.8984631758844
20
1.80870003014081
30
0
41
1
10
47.3724801388511
20
2.04290126974428
30
0
41
1
10
47.1096898763353
20
2.158042679624
30
0
41
1
10
46.5840787266818
20
2.38353007306657
30
0
41
1
10
46.3210963843272
20
2.49405586531469
30
0
41
1
10
45.7950849328367
20
2.71083217918454
30
0
41
1
10
45.5318529729498
20
2.81667995737251
30
0
41
1
10
45.0047570405904
20
3.02202438123203
30
0
41
1
10
44.7409963096003
20
3.12224984282926
30
0
41
1
10
44.2123492222273
20
3.31658450526328
30
0
41
1
10
43.9476511198463
20
3.41077665503684
30
0
41
1
10
43.4169307569366
20
3.59229540317222
30
0
41
1
10
43.1505872004653
20
3.6798930328961
30
0
41
1
10
42.3519274143396
20
3.93218767465271
30
0
41
1
10
41.8224350819608
20
4.08345270867628
30
0
41
1
10
41.0303397685896
20
4.28583426651977
30
0
41
1
10
40.7668433642376
20
4.3492348219965
30
0
41
1
10
40.2402585389302
20
4.46658568170665
30
0
41
1
10
39.9772334345608
20
4.52078532323011
30
0
41
1
10
39.4515140943288
20
4.62091397518813
30
0
41
1
10
39.1886484943429
20
4.66658766225163
30
0
41
1
10
38.663198044746
20
4.74838791348958
30
0
41
1
10
38.4004554776629
20
4.78444986545526
30
0
41
1
10
37.874541181916
20
4.84774603484053
30
0
41
1
10
37.6115701066841
20
4.87510827278768
30
0
41
1
10
37.0848009708877
20
4.91975943436637
30
0
41
1
10
36.8211479333039
20
4.93701212382237
30
0
41
1
10
36.2048030746489
20
4.96641914990869
30
0
41
1
10
35.8517421767503
20
4.97497265640186
30
0
41
1
10
35.4975382322057
20
4.97463219483907
30
0
0
SPLINE
5
F6
100
AcDbEntity
8
1
62
256
6
ByLayer
370
18
48
1
60
0
100
AcDbSpline
70
4
71
4
72
10
73
5
40
0
40
0
40
0
40
0
40
0
40
1
40
1
40
1
40
1
40
1
41
1
10
18.0305867595594
20
4.9725268819569
30
0
41
1
10
17.7950644011152
20
4.30520722764604
30
0
41
1
10
17.5595420426711
20
3.63788757333521
30
0
41
1
10
17.324019684227
20
2.97056791902438
30
0
41
1
10
17.0884973257829
20
2.30324826471352
30
0
0
SPLINE
5
F7
100
AcDbEntity
8
1
62
256
6
ByLayer
370
18
48
1
60
0
100
AcDbSpline
70
4
71
3
72
8
73
4
40
0
40
0
40
0
40
0
40
1
40
1
40
1
40
1
41
1
10
5.31665074877102
20
-0.001601656964425
30
0
41
1
10
5.31664386694573
20
-0.027468871286402
30
0
41
1
10
5.32256497142845
20
-0.0520788911301509
30
0
41
1
10
5.33238288258838
20
-0.0758623061418007
30
0
0
SPLINE
5
F8
100
AcDbEntity
8
1
62
256
6
ByLayer
370
18
48
1
60
0
100
AcDbSpline
70
4
71
3
72
16
73
12
40
0
40
0
40
0
40
0
40
0.25
40
0.25
40
0.5
40
0.5
40
0.75
40
0.75
40
0.875
40
0.875
40
1
40
1
40
1
40
1
41
1
10
117.248964127689
20
-1.06136854073694
30
0
41
1
10
117.135934250333
20
-1.08700723910036
30
0
41
1
10
117.03066940365
20
-1.06402146054054
30
0
41
1
10
116.832369538319
20
-0.941466948863649
30
0
41
1
10
116.744347226154
20
-0.84479529491469
30
0
41
1
10
116.58574832319
20
-0.597314694975694
30
0
41
1
10
116.518135287318
20
-0.450962709978654
30
0
41
1
10
116.430388471066
20
-0.204979774406354
30
0
41
1
10
116.403465455023
20
-0.118485106459786
30
0
41
1
10
116.354041713167
20
0.0630607823691776
30
0
41
1
10
116.331829296601
20
0.157092248662792
30
0
41
1
10
116.312017976854
20
0.25356975493537
30
0
0
SPLINE
5
F9
100
AcDbEntity
8
1
62
256
6
ByLayer
370
18
48
1
60
0
100
AcDbSpline
70
4
71
3
72
29
73
25
40
0
40
0
40
0
40
0
40
0.0043274400883222
40
0.0374255624491892
40
0.0673001072842001
40
0.106195672945714
40
0.15352061258897
40
0.196016995744395
40
0.238475691875707
40
0.287255296269807
40
0.322010353054946
40
0.352572621919171
40
0.39384516131278
40
0.457720539266345
40
0.511674132671693
40
0.567746713260871
40
0.625241047981669
40
0.688338358146432
40
0.771000684882852
40
0.823450695361404
40
0.868553871890494
40
0.918524061351729
40
0.971423298877675
40
1
40
1
40
1
40
1
41
1
10
35.478686995224
20
4.97476365411413
30
0
41
1
10
35.4611354349798
20
4.97473845851201
30
0
41
1
10
35.309342003425
20
4.97451132629686
30
0
41
1
10
35.0363769780282
20
4.97375077223154
30
0
41
1
10
34.6232184000674
20
4.97283465015622
30
0
41
1
10
34.1523433329999
20
4.97232759803154
30
0
41
1
10
33.630287291391
20
4.97154936308712
30
0
41
1
10
33.0937730278755
20
4.97008015787398
30
0
41
1
10
32.5513574990046
20
4.96970861390332
30
0
41
1
10
32.0403401894281
20
4.96922810523742
30
0
41
1
10
31.5775757007456
20
4.96765692394467
30
0
41
1
10
31.1452571936199
20
4.96716432051912
30
0
41
1
10
30.5948301157072
20
4.96670139913425
30
0
41
1
10
29.9495321203685
20
4.96458749330009
30
0
41
1
10
29.2442035368429
20
4.96400273701335
30
0
41
1
10
28.5647559791407
20
4.96270173384934
30
0
41
1
10
27.8482280768519
20
4.96090636349933
30
0
41
1
10
27.0238606039618
20
4.96023242870032
30
0
41
1
10
26.2199427378433
20
4.9579589030923
30
0
41
1
10
25.4890106899793
20
4.95718592979429
30
0
41
1
10
24.8906571719517
20
4.95571701492736
30
0
41
1
10
24.2906118794296
20
4.95473704917541
30
0
41
1
10
23.7573726477501
20
4.95377800844341
30
0
41
1
10
23.4294078404023
20
4.95282231379423
30
0
41
1
10
23.3149637075221
20
4.95224482194689
30
0
0
SPLINE
5
FA
100
AcDbEntity
8
1
62
256
6
ByLayer
370
18
48
1
60
0
100
AcDbSpline
70
4
71
3
72
11
73
7
40
0
40
0
40
0
40
0
40
0.224174308352687
40
0.470948134873153
40
0.74070280748121
40
1
40
1
40
1
40
1
41
1
10
84.7663055707808
20
-0.0276297250831306
30
0
41
1
10
84.635867187671
20
0.0020550082118405
30
0
41
1
10
84.3576353575556
20
0.0735853101637645
30
0
41
1
10
83.9040678886696
20
0.216169741283892
30
0
41
1
10
83.4175739098104
20
0.400778242218109
30
0
41
1
10
83.0799680734371
20
0.554400983948597
30
0
41
1
10
82.9129232461842
20
0.636104393946368
30
0
0
SPLINE
5
FB
100
AcDbEntity
8
1
62
256
6
ByLayer
370
18
48
1
60
0
100
AcDbSpline
70
4
71
3
72
11
73
7
40
0
40
0
40
0
40
0
40
0.212103118809822
40
0.456230885107391
40
0.732597642001895
40
1
40
1
40
1
40
1
41
1
10
68.2923165142439
20
0.0276512963582718
30
0
41
1
10
68.4309976001689
20
-0.0042660990858678
30
0
41
1
10
68.7281550641349
20
-0.0809390086618578
30
0
41
1
10
69.2008057809198
20
-0.232315634665639
30
0
41
1
10
69.7055781848239
20
-0.427816953208236
30
0
41
1
10
70.0515494985373
20
-0.588638972984398
30
0
41
1
10
70.2210898547515
20
-0.673797632450572
30
0
0
SPLINE
5
FC
100
AcDbEntity
8
1
62
256
6
ByLayer
370
18
48
1
60
0
100
AcDbSpline
70
4
71
2
72
6
73
3
40
0
40
0
40
0
40
1
40
1
40
1
41
1
10
35.7924058341428
20
0.0276402017087491
30
0
41
1
10
36.7456220465858
20
-0.188812973474796
30
0
41
1
10
37.6880197730173
20
-0.661673359528692
30
0
0
SPLINE
5
FD
100
AcDbEntity
8
1
62
256
6
ByLayer
370
18
48
1
60
0
100
AcDbSpline
70
4
71
2
72
6
73
3
40
0
40
0
40
0
40
1
40
1
40
1
41
1
10
6.306071592889
20
4.9214692767523
30
0
41
1
10
6.05630483907331
20
4.92159688176241
30
0
41
1
10
5.81054862441761
20
4.92123712801077
30
0
0
SPLINE
5
FE
100
AcDbEntity
8
1
62
256
6
ByLayer
370
18
48
1
60
0
100
AcDbSpline
70
4
71
2
72
6
73
3
40
0
40
0
40
0
40
1
40
1
40
1
41
1
10
100.792064778844
20
0.0277490559606974
30
0
41
1
10
101.78500685327
20
-0.200626806793224
30
0
41
1
10
102.76135695588
20
-0.693581593154448
30
0
0
SPLINE
5
FF
100
AcDbEntity
8
1
62
256
6
ByLayer
370
18
48
1
60
0
100
AcDbSpline
70
4
71
3
72
8
73
4
40
0
40
0
40
0
40
0
40
1
40
1
40
1
40
1
41
1
10
115.691841192126
20
0.504326486221828
30
0
41
1
10
115.580324984934
20
0.554361507135525
30
0
41
1
10
115.465839861951
20
0.607854707599017
30
0
41
1
10
115.347889054245
20
0.66547420215224
30
0
0
SPLINE
5
100
100
AcDbEntity
8
1
62
256
6
ByLayer
370
18
48
1
60
0
100
AcDbSpline
70
4
71
2
72
6
73
3
40
0
40
0
40
0
40
1
40
1
40
1
41
1
10
52.2655826814271
20
-0.0275570130297069
30
0
41
1
10
51.3395826714157
20
0.184763847679079
30
0
41
1
10
50.4485314059027
20
0.622162492729103
30
0
0
SPLINE
5
101
100
AcDbEntity
8
1
62
256
6
ByLayer
370
18
48
1
60
0
100
AcDbSpline
70
4
71
1
72
4
73
2
40
0
40
0
40
1
40
1
41
1
10
116.286353691433
20
0.264760026182472
30
0
41
1
10
116.265133668024
20
0.272565326081036
30
0
0
SPLINE
5
102
100
AcDbEntity
8
1
62
256
6
ByLayer
370
18
48
1
60
0
100
AcDbSpline
70
4
71
3
72
23
73
19
40
0
40
0
40
0
40
0
40
0.0266837922855155
40
0.0929269542578361
40
0.15439962691135
40
0.218711092071661
40
0.279162066625346
40
0.339383136976496
40
0.409136188147184
40
0.526218437304555
40
0.64738562867259
40
0.765354711066266
40
0.813824601992423
40
0.854831339066288
40
0.88867738399426
40
0.930458719830419
40
0.979459007274957
40
1
40
1
40
1
40
1
41
1
10
67.9569749307918
20
5.03286289647374
30
0
41
1
10
67.8490567527432
20
5.03277594443497
30
0
41
1
10
67.4732294379392
20
5.03242387615057
30
0
41
1
10
66.8487853736167
20
5.03021104694727
30
0
41
1
10
66.0721731425706
20
5.03019173442507
30
0
41
1
10
65.318980060825
20
5.0275044271695
30
0
41
1
10
64.5708436176719
20
5.02719585632789
30
0
41
1
10
63.8007025536337
20
5.02524871252663
30
0
41
1
10
62.8015252365745
20
5.02362274825075
30
0
41
1
10
61.5558600953266
20
5.02138793476144
30
0
41
1
10
60.1152001919927
20
5.01870562476844
30
0
41
1
10
58.9520331415201
20
5.01683508012181
30
0
41
1
10
58.1130416377876
20
5.01499289764243
30
0
41
1
10
57.6143366121541
20
5.01448324345623
30
0
41
1
10
57.1432447977078
20
5.01330562021951
30
0
41
1
10
56.6389515443457
20
5.01244037948643
30
0
41
1
10
56.1901952782365
20
5.01186372933256
30
0
41
1
10
55.9124438803444
20
5.01093921776254
30
0
41
1
10
55.8305556003708
20
5.0105888689194
30
0
0
SPLINE
5
103
100
AcDbEntity
8
1
62
256
6
ByLayer
370
18
48
1
60
0
100
AcDbSpline
70
4
71
3
72
29
73
25
40
0
40
0
40
0
40
0
40
0.0483745944904001
40
0.0880467618025354
40
0.121821473226909
40
0.150983700100328
40
0.176813159596199
40
0.20795784730217
40
0.268424762011957
40
0.333173036645183
40
0.386757792994718
40
0.426801793692337
40
0.48380350669082
40
0.547462989411828
40
0.600406343612395
40
0.643453871302288
40
0.683142007524968
40
0.725885927408846
40
0.77607451823299
40
0.836997289154038
40
0.889807388697138
40
0.938421210185061
40
0.996134654239937
40
1
40
1
40
1
40
1
41
1
10
86.6088456820132
20
-5.06642008547365
30
0
41
1
10
86.8230773033531
20
-5.06562650619429
30
0
41
1
10
87.2166107470586
20
-5.06510923052957
30
0
41
1
10
87.7873244896425
20
-5.0650184528196
30
0
41
1
10
88.2477056317418
20
-5.06924872026445
30
0
41
1
10
88.6546034533716
20
-5.06999698220295
30
0
41
1
10
89.0522863062488
20
-5.07073348609467
30
0
41
1
10
89.5945330350625
20
-5.07180050693634
30
0
41
1
10
90.3166598455235
20
-5.07231415143116
30
0
41
1
10
91.142347933369
20
-5.075284983053
30
0
41
1
10
91.8737441732115
20
-5.07597942063512
30
0
41
1
10
92.5693609113727
20
-5.07648569490422
30
0
41
1
10
93.3115028905756
20
-5.0768845113476
30
0
41
1
10
94.1132171562905
20
-5.07931275889666
30
0
41
1
10
94.8504806227331
20
-5.0816498082618
30
0
41
1
10
95.4770488387907
20
-5.08173354280487
30
0
41
1
10
96.05651528415
20
-5.08249865288207
30
0
41
1
10
96.6689643262744
20
-5.0833871171223
30
0
41
1
10
97.3794741924447
20
-5.08488675639072
30
0
41
1
10
98.136467985511
20
-5.08767331992675
30
0
41
1
10
98.8861941732172
20
-5.08796799363179
30
0
41
1
10
99.6210925245554
20
-5.09043297883073
30
0
41
1
10
100.129953702026
20
-5.09021294494212
30
0
41
1
10
100.414325327548
20
-5.09101714480312
30
0
41
1
10
100.432175547896
20
-5.09106832201309
30
0
0
SPLINE
5
104
100
AcDbEntity
8
1
62
256
6
ByLayer
370
18
48
1
60
0
100
AcDbSpline
70
4
71
3
72
29
73
25
40
0
40
0
40
0
40
0
40
0.0435271571367489
40
0.0834876041401185
40
0.119188465692964
40
0.156882234659884
40
0.196625609420453
40
0.233818571715303
40
0.2735152866668
40
0.319158531217639
40
0.36933966260248
40
0.41197448211304
40
0.461673647734569
40
0.509151779132504
40
0.555429638438344
40
0.600200336462235
40
0.653572378583606
40
0.704997155102519
40
0.74857637867481
40
0.811395640587334
40
0.86741052414567
40
0.927940518836883
40
0.970751852012244
40
1
40
1
40
1
40
1
41
1
10
21.6769955862221
20
-4.94932695753351
30
0
41
1
10
21.8690011748268
20
-4.9486562766057
30
0
41
1
10
22.2407965615104
20
-4.94818365069705
30
0
41
1
10
22.7987534115348
20
-4.94762953898893
30
0
41
1
10
23.3061142962338
20
-4.95281859855055
30
0
41
1
10
23.8261808379435
20
-4.95389453685581
30
0
41
1
10
24.3543959378932
20
-4.95482896880242
30
0
41
1
10
24.8921496967002
20
-4.95572460186139
30
0
41
1
10
25.4570827537637
20
-4.9571125982053
30
0
41
1
10
26.0819225093049
20
-4.95787508885914
30
0
41
1
10
26.7202857500554
20
-4.9591496273091
30
0
41
1
10
27.3773686402841
20
-4.96075162134721
30
0
41
1
10
28.0219705739855
20
-4.96104021518471
30
0
41
1
10
28.6833816464459
20
-4.96311603365558
30
0
41
1
10
29.3220708970273
20
-4.96401255215301
30
0
41
1
10
29.9879352628451
20
-4.9647222176111
30
0
41
1
10
30.6775265973953
20
-4.96698343984767
30
0
41
1
10
31.3616277930007
20
-4.96707395923332
30
0
41
1
10
32.0892836490069
20
-4.96950514305354
30
0
41
1
10
32.8381061639552
20
-4.96952030443811
30
0
41
1
10
33.6650780672132
20
-4.97174583544742
30
0
41
1
10
34.3998018730886
20
-4.97240934452134
30
0
41
1
10
35.0111106097858
20
-4.97376907683011
30
0
41
1
10
35.3433469841958
20
-4.97441344353064
30
0
41
1
10
35.4781983001166
20
-4.97468399946928
30
0
0
SPLINE
5
105
100
AcDbEntity
8
1
62
256
6
ByLayer
370
18
48
1
60
0
100
AcDbSpline
70
4
71
3
72
25
73
21
40
0
40
0
40
0
40
0
40
0.0501366202981524
40
0.0953207741614539
40
0.139374739472182
40
0.180145130898319
40
0.216062503382589
40
0.244784417948787
40
0.274852945236954
40
0.312946236601205
40
0.350316324428131
40
0.38343498474595
40
0.476228219638902
40
0.563026700044604
40
0.642694429660641
40
0.719369595784258
40
0.783974703010305
40
0.855235910436282
40
0.924043592952435
40
1
40
1
40
1
40
1
41
1
10
54.1060918776983
20
-5.00795284842926
30
0
41
1
10
54.3243412667272
20
-5.00612002887738
30
0
41
1
10
54.7455096866144
20
-5.00425125670404
30
0
41
1
10
55.4003966219128
20
-5.00772936423112
30
0
41
1
10
55.9863146291255
20
-5.01172995598768
30
0
41
1
10
56.5442481103926
20
-5.01227309687621
30
0
41
1
10
57.0321129357228
20
-5.01308185685116
30
0
41
1
10
57.4707175085039
20
-5.01415918824148
30
0
41
1
10
57.9189697964897
20
-5.01481406094132
30
0
41
1
10
58.4078734894358
20
-5.01555165016555
30
0
41
1
10
58.9107448360572
20
-5.0167669007385
30
0
41
1
10
59.6669976277591
20
-5.01820701468426
30
0
41
1
10
60.6521726979366
20
-5.02023042725116
30
0
41
1
10
61.8529548387368
20
-5.02172764375857
30
0
41
1
10
62.9790796435475
20
-5.02379632411288
30
0
41
1
10
64.0024147896482
20
-5.02619261642101
30
0
41
1
10
64.9868166424776
20
-5.02708944868547
30
0
41
1
10
65.9347775227188
20
-5.02987862138113
30
0
41
1
10
66.9353016436642
20
-5.03055360784415
30
0
41
1
10
67.6057875349455
20
-5.0319651161744
30
0
41
1
10
67.9575864178266
20
-5.03274533502955
30
0
0
SPLINE
5
106
100
AcDbEntity
8
1
62
256
6
ByLayer
370
18
48
1
60
0
100
AcDbSpline
70
4
71
3
72
25
73
21
40
0
40
0
40
0
40
0
40
0.0119141855060646
40
0.0582281191530609
40
0.111359199147017
40
0.171238163210371
40
0.224407338310736
40
0.260635409143448
40
0.29332407528007
40
0.335789306571712
40
0.430756295861861
40
0.515067290105817
40
0.588420343269263
40
0.673645180957269
40
0.764591790633074
40
0.826415948665286
40
0.883584441714199
40
0.941477445344387
40
0.975621361775026
40
1
40
1
40
1
40
1
41
1
10
100.440750445398
20
5.09115480132741
30
0
41
1
10
100.392801822868
20
5.09102645614658
30
0
41
1
10
100.158462786029
20
5.09043014697656
30
0
41
1
10
99.7102959481759
20
5.0904330165003
30
0
41
1
10
99.0690968119936
20
5.0885205031671
30
0
41
1
10
98.4003119186931
20
5.08770462816568
30
0
41
1
10
97.7995564330556
20
5.0865824392306
30
0
41
1
10
97.3082213353692
20
5.08478908081295
30
0
41
1
10
96.8599686822546
20
5.08376175906525
30
0
41
1
10
96.1753250053605
20
5.08257275223903
30
0
41
1
10
95.2829735011664
20
5.08182259676911
30
0
41
1
10
94.2661940734126
20
5.08011385767779
30
0
41
1
10
93.2888740356831
20
5.07666568664226
30
0
41
1
10
92.284629018894
20
5.07629348963789
30
0
41
1
10
91.3268893126275
20
5.07582169890483
30
0
41
1
10
90.481820907257
20
5.07273654678946
30
0
41
1
10
89.7705001379908
20
5.07206203343233
30
0
41
1
10
89.1686501194538
20
5.07089462126723
30
0
41
1
10
88.703061072591
20
5.07011973902465
30
0
41
1
10
88.4680803661342
20
5.06962188749847
30
0
41
1
10
88.370105988114
20
5.06941507341108
30
0
0
SPLINE
5
107
100
AcDbEntity
8
1
62
256
6
ByLayer
370
18
48
1
60
0
100
AcDbSpline
70
4
71
3
72
11
73
7
40
0
40
0
40
0
40
0
40
0.222387715306934
40
0.476213864315161
40
0.761663462353297
40
1
40
1
40
1
40
1
41
1
10
19.7649855484576
20
-0.0273566443555637
30
0
41
1
10
19.6271942723789
20
0.0044740491500477
30
0
41
1
10
19.3351600582032
20
0.0796454589955715
30
0
41
1
10
18.8801766871696
20
0.224814655629899
30
0
41
1
10
18.4238993058202
20
0.398765676567535
30
0
41
1
10
18.1215810779534
20
0.53652217931085
30
0
41
1
10
17.9850847451028
20
0.603193869520197
30
0
0
SPLINE
5
108
100
AcDbEntity
8
1
62
256
6
ByLayer
370
18
48
1
60
0
100
AcDbSpline
70
4
71
1
72
4
73
2
40
0
40
0
40
1
40
1
41
1
10
5.8105026623806
20
-4.92201736438093
30
0
41
1
10
6.24690554457413
20
-4.92290883946723
30
0
0
LINE
5
7B
100
AcDbEntity
8
SK1
62
256
6
ByLayer
370
18
48
1
60
0
100
AcDbLine
10
-45
20
3
30
0
11
-45
21
-3
31
0
39
0
210
0
220
0
230
1
0
LINE
5
7D
100
AcDbEntity
8
SK1
62
256
6
ByLayer
370
18
48
1
60
0
100
AcDbLine
10
-43.267949
20
6
30
0
11
-43.267949
21
-6
31
0
39
0
210
0
220
0
230
1
0
LINE
5
7E
100
AcDbEntity
8
SK1
62
256
6
ByLayer
370
18
48
1
60
0
100
AcDbLine
10
0
20
-6
30
0
11
0
21
6
31
0
39
0
210
0
220
0
230
1
0
LINE
5
7F
100
AcDbEntity
8
1
62
256
6
ByLayer
370
18
48
1
60
0
100
AcDbLine
10
115.450746
20
-2.518471
30
0
11
117.24662
21
-1.076695
31
0
39
0
210
0
220
0
230
1
0
LINE
5
80
100
AcDbEntity
8
1
62
256
6
ByLayer
370
13
48
1
60
0
100
AcDbLine
10
1.530089
20
5.043982
30
0
11
1.530089
21
-5.043982
31
0
39
0
210
0
220
0
230
1
0
LINE
5
81
100
AcDbEntity
8
1
62
256
6
ByLayer
370
18
48
1
60
0
100
AcDbLine
10
117.24662
20
-1.076695
30
0
11
117.248964
21
-1.061369
31
0
39
0
210
0
220
0
230
1
0
LINE
5
82
100
AcDbEntity
8
1
62
256
6
ByLayer
370
18
48
1
60
0
100
AcDbLine
10
0
20
-6
30
0
11
0
21
6
31
0
39
0
210
0
220
0
230
1
0
LINE
5
83
100
AcDbEntity
8
1
62
256
6
ByLayer
370
13
48
1
60
0
100
AcDbLine
10
0.76428
20
5.52199
30
0
11
0.76428
21
-5.52199
31
0
39
0
210
0
220
0
230
1
0
LINE
5
84
100
AcDbEntity
8
80
62
256
6
ByLayer
370
18
48
1
60
0
100
AcDbLine
10
0
20
0
30
0
11
-5
21
0
31
0
39
0
210
0
220
0
230
1
0
LINE
5
85
100
AcDbEntity
8
4
62
256
6
ByLayer
370
18
48
0.05
60
0
100
AcDbLine
10
118
20
0
30
0
11
0
21
0
31
0
39
0
210
0
220
0
230
1
0
LINE
5
87
100
AcDbEntity
8
SK4
62
256
6
ByLayer
370
18
48
0.05
60
0
100
AcDbLine
10
123
20
0
30
0
11
-50
21
0
31
0
39
0
210
0
220
0
230
1
0
LINE
5
89
100
AcDbEntity
8
SK1
62
256
6
ByLayer
370
18
48
1
60
0
100
AcDbLine
10
-45
20
-3
30
0
11
-43.267949
21
-6
31
0
39
0
210
0
220
0
230
1
0
LINE
5
8A
100
AcDbEntity
8
SK1
62
256
6
ByLayer
370
18
48
1
60
0
100
AcDbLine
10
-43.267949
20
6
30
0
11
-45
21
3
31
0
39
0
210
0
220
0
230
1
0
LINE
5
8B
100
AcDbEntity
8
SK1
62
256
6
ByLayer
370
18
48
1
60
0
100
AcDbLine
10
-43.267949
20
-6
30
0
11
0
21
-6
31
0
39
0
210
0
220
0
230
1
0
LINE
5
8C
100
AcDbEntity
8
SK1
62
256
6
ByLayer
370
18
48
1
60
0
100
AcDbLine
10
0
20
6
30
0
11
-43.267949
21
6
31
0
39
0
210
0
220
0
230
1
0
LINE
5
8D
100
AcDbEntity
8
1
62
256
6
ByLayer
370
18
48
1
60
0
100
AcDbLine
10
1.530089
20
-5.043982
30
0
11
5.31816
21
-5.050801
31
0
39
0
210
0
220
0
230
1
0
LINE
5
8E
100
AcDbEntity
8
1
62
256
6
ByLayer
370
18
48
1
60
0
100
AcDbLine
10
20.099984
20
-5.077408
30
0
11
21.16121
21
-5.079318
31
0
39
0
210
0
220
0
230
1
0
LINE
5
8F
100
AcDbEntity
8
1
62
256
6
ByLayer
370
18
48
1
60
0
100
AcDbLine
10
52.614966
20
-5.135935
30
0
11
53.659906
21
-5.137816
31
0
39
0
210
0
220
0
230
1
0
LINE
5
90
100
AcDbEntity
8
1
62
256
6
ByLayer
370
18
48
1
60
0
100
AcDbLine
10
85.131244
20
-5.194464
30
0
11
86.159813
21
-5.196316
31
0
39
0
210
0
220
0
230
1
0
LINE
5
91
100
AcDbEntity
8
1
62
256
6
ByLayer
370
18
48
1
60
0
100
AcDbLine
10
86.159813
20
5.196316
30
0
11
85.131244
21
5.194464
31
0
39
0
210
0
220
0
230
1
0
LINE
5
92
100
AcDbEntity
8
1
62
256
6
ByLayer
370
18
48
1
60
0
100
AcDbLine
10
53.659906
20
5.137816
30
0
11
52.614966
21
5.135935
31
0
39
0
210
0
220
0
230
1
0
LINE
5
93
100
AcDbEntity
8
1
62
256
6
ByLayer
370
18
48
1
60
0
100
AcDbLine
10
21.16121
20
5.079318
30
0
11
20.099984
21
5.077408
31
0
39
0
210
0
220
0
230
1
0
LINE
5
94
100
AcDbEntity
8
1
62
256
6
ByLayer
370
18
48
1
60
0
100
AcDbLine
10
5.31816
20
5.050801
30
0
11
1.530089
21
5.043982
31
0
39
0
210
0
220
0
230
1
0
LINE
5
95
100
AcDbEntity
8
81
62
256
6
ByLayer
370
18
48
1
60
0
100
AcDbLine
10
118
20
0
30
0
11
123
21
0
31
0
39
0
210
0
220
0
230
1
0
LINE
5
96
100
AcDbEntity
8
SK2
62
256
6
ByLayer
370
13
48
1
60
0
100
AcDbLine
10
-53.625163
20
-6
30
0
11
-53.625163
21
36.857173
31
0
39
0
210
0
220
0
230
1
0
LINE
5
98
100
AcDbEntity
8
SK2
62
256
6
ByLayer
370
13
48
1
60
0
100
AcDbLine
10
-46.5875
20
6
30
0
11
-55.625163
21
6
31
0
39
0
210
0
220
0
230
1
0
LINE
5
99
100
AcDbEntity
8
SK2
62
256
6
ByLayer
370
13
48
1
60
0
100
AcDbLine
10
-46.5875
20
-6
30
0
11
-55.625163
21
-6
31
0
39
0
210
0
220
0
230
1
0
LINE
5
9A
100
AcDbEntity
8
1
62
256
6
ByLayer
370
18
48
1
60
1
100
AcDbLine
10
-53.625163
20
6
30
0
11
-53.164379
21
2.500002
31
0
39
0
210
0
220
0
230
1
0
LINE
5
9B
100
AcDbEntity
8
1
62
256
6
ByLayer
370
18
48
1
60
1
100
AcDbLine
10
-53.164379
20
2.500002
30
0
11
-54.085946
21
2.499998
31
0
39
0
210
0
220
0
230
1
0
LINE
5
9C
100
AcDbEntity
8
1
62
256
6
ByLayer
370
18
48
1
60
1
100
AcDbLine
10
-54.085946
20
2.499998
30
0
11
-53.625163
21
6
31
0
39
0
210
0
220
0
230
1
0
LINE
5
9D
100
AcDbEntity
8
1
62
256
6
ByLayer
370
18
48
1
60
1
100
AcDbLine
10
-53.625163
20
-6
30
0
11
-54.085946
21
-2.500002
31
0
39
0
210
0
220
0
230
1
0
LINE
5
9E
100
AcDbEntity
8
1
62
256
6
ByLayer
370
18
48
1
60
1
100
AcDbLine
10
-54.085946
20
-2.500002
30
0
11
-53.164379
21
-2.499998
31
0
39
0
210
0
220
0
230
1
0
LINE
5
9F
100
AcDbEntity
8
1
62
256
6
ByLayer
370
18
48
1
60
1
100
AcDbLine
10
-53.164379
20
-2.499998
30
0
11
-53.625163
21
-6
31
0
39
0
210
0
220
0
230
1
0
LINE
5
A0
100
AcDbEntity
8
2
62
256
6
ByLayer
370
13
48
1
60
0
100
AcDbLine
10
130.083343
20
-5.25
30
0
11
130.083343
21
34.700259
31
0
39
0
210
0
220
0
230
1
0
LINE
5
A2
100
AcDbEntity
8
2
62
256
6
ByLayer
370
13
48
1
60
0
100
AcDbLine
10
117.572
20
5.25
30
0
11
132.083343
21
5.25
31
0
39
0
210
0
220
0
230
1
0
LINE
5
A3
100
AcDbEntity
8
2
62
256
6
ByLayer
370
13
48
1
60
0
100
AcDbLine
10
117.572
20
-5.25
30
0
11
132.083343
21
-5.25
31
0
39
0
210
0
220
0
230
1
0
LINE
5
A4
100
AcDbEntity
8
1
62
256
6
ByLayer
370
18
48
1
60
1
100
AcDbLine
10
130.083343
20
5.25
30
0
11
130.544126
21
1.750002
31
0
39
0
210
0
220
0
230
1
0
LINE
5
A5
100
AcDbEntity
8
1
62
256
6
ByLayer
370
18
48
1
60
1
100
AcDbLine
10
130.544126
20
1.750002
30
0
11
129.622559
21
1.749998
31
0
39
0
210
0
220
0
230
1
0
LINE
5
A6
100
AcDbEntity
8
1
62
256
6
ByLayer
370
18
48
1
60
1
100
AcDbLine
10
129.622559
20
1.749998
30
0
11
130.083343
21
5.25
31
0
39
0
210
0
220
0
230
1
0
LINE
5
A7
100
AcDbEntity
8
1
62
256
6
ByLayer
370
18
48
1
60
1
100
AcDbLine
10
130.083343
20
-5.25
30
0
11
129.622559
21
-1.750002
31
0
39
0
210
0
220
0
230
1
0
LINE
5
A8
100
AcDbEntity
8
1
62
256
6
ByLayer
370
18
48
1
60
1
100
AcDbLine
10
129.622559
20
-1.750002
30
0
11
130.544126
21
-1.749998
31
0
39
0
210
0
220
0
230
1
0
LINE
5
A9
100
AcDbEntity
8
1
62
256
6
ByLayer
370
18
48
1
60
1
100
AcDbLine
10
130.544126
20
-1.749998
30
0
11
130.083343
21
-5.25
31
0
39
0
210
0
220
0
230
1
0
LINE
5
10F
100
AcDbEntity
8
1
62
256
6
ByLayer
370
18
48
1
60
1
100
AcDbLine
10
-53.625163
20
6
30
0
11
-53.164379
21
2.500002
31
0
39
0
210
0
220
0
230
1
0
LINE
5
110
100
AcDbEntity
8
1
62
256
6
ByLayer
370
18
48
1
60
1
100
AcDbLine
10
-53.164379
20
2.500002
30
0
11
-54.085946
21
2.499998
31
0
39
0
210
0
220
0
230
1
0
LINE
5
111
100
AcDbEntity
8
1
62
256
6
ByLayer
370
18
48
1
60
1
100
AcDbLine
10
-54.085946
20
2.499998
30
0
11
-53.625163
21
6
31
0
39
0
210
0
220
0
230
1
0
LINE
5
113
100
AcDbEntity
8
1
62
256
6
ByLayer
370
18
48
1
60
1
100
AcDbLine
10
-53.625163
20
-6
30
0
11
-54.085946
21
-2.500002
31
0
39
0
210
0
220
0
230
1
0
LINE
5
114
100
AcDbEntity
8
1
62
256
6
ByLayer
370
18
48
1
60
1
100
AcDbLine
10
-54.085946
20
-2.500002
30
0
11
-53.164379
21
-2.499998
31
0
39
0
210
0
220
0
230
1
0
LINE
5
115
100
AcDbEntity
8
1
62
256
6
ByLayer
370
18
48
1
60
1
100
AcDbLine
10
-53.164379
20
-2.499998
30
0
11
-53.625163
21
-6
31
0
39
0
210
0
220
0
230
1
0
LINE
5
119
100
AcDbEntity
8
1
62
256
6
ByLayer
370
18
48
1
60
1
100
AcDbLine
10
130.083343
20
5.25
30
0
11
130.544126
21
1.750002
31
0
39
0
210
0
220
0
230
1
0
LINE
5
11A
100
AcDbEntity
8
1
62
256
6
ByLayer
370
18
48
1
60
1
100
AcDbLine
10
130.544126
20
1.750002
30
0
11
129.622559
21
1.749998
31
0
39
0
210
0
220
0
230
1
0
LINE
5
11B
100
AcDbEntity
8
1
62
256
6
ByLayer
370
18
48
1
60
1
100
AcDbLine
10
129.622559
20
1.749998
30
0
11
130.083343
21
5.25
31
0
39
0
210
0
220
0
230
1
0
LINE
5
11D
100
AcDbEntity
8
1
62
256
6
ByLayer
370
18
48
1
60
1
100
AcDbLine
10
130.083343
20
-5.25
30
0
11
129.622559
21
-1.750002
31
0
39
0
210
0
220
0
230
1
0
LINE
5
11E
100
AcDbEntity
8
1
62
256
6
ByLayer
370
18
48
1
60
1
100
AcDbLine
10
129.622559
20
-1.750002
30
0
11
130.544126
21
-1.749998
31
0
39
0
210
0
220
0
230
1
0
LINE
5
11F
100
AcDbEntity
8
1
62
256
6
ByLayer
370
18
48
1
60
1
100
AcDbLine
10
130.544126
20
-1.749998
30
0
11
130.083343
21
-5.25
31
0
39
0
210
0
220
0
230
1
0
MTEXT
5
109
100
AcDbEntity
8
SK6
62
256
6
ByLayer
370
13
48
1
60
0
100
AcDbMText
10
8.828407
20
37.790328
30
0
210
0
220
0
230
1
1
\W0.7280;860.1-1050-098A1-PM P1BM
40
3.5
41
0
44
1.084337
50
0
71
7
72
5
7
iso_b_vert
0
MTEXT
5
10D
100
AcDbEntity
8
SK2
62
256
6
ByLayer
370
18
48
1
60
0
100
AcDbMText
10
-55.189796
20
19.409024
30
0
210
0
220
0
230
1
1
%%c
40
3.5
41
0
44
1.084337
50
90
71
7
72
5
7
iso_b_vert
0
MTEXT
5
10E
100
AcDbEntity
8
SK2
62
256
6
ByLayer
370
18
48
1
60
0
100
AcDbMText
10
-55.189796
20
24.63168
30
0
210
0
220
0
230
1
1
\W0.6930;12,000
40
3.5
41
0
44
1.084337
50
90
71
7
72
5
7
iso_b_vert
0
MTEXT
5
117
100
AcDbEntity
8
2
62
256
6
ByLayer
370
18
48
1
60
0
100
AcDbMText
10
128.518709
20
17.25211
30
0
210
0
220
0
230
1
1
%%c
40
3.5
41
0
44
1.084337
50
90
71
7
72
5
7
iso_b_vert
0
MTEXT
5
118
100
AcDbEntity
8
2
62
256
6
ByLayer
370
18
48
1
60
0
100
AcDbMText
10
128.518709
20
22.474766
30
0
210
0
220
0
230
1
1
\W0.6930;10,500
40
3.5
41
0
44
1.084337
50
90
71
7
72
5
7
iso_b_vert
0
HATCH
5
112
100
AcDbEntity
8
SK2
62
256
6
ByLayer
370
13
48
1
60
0
100
AcDbHatch
10
0
20
0
30
0
210
0
220
0
230
1
2
ANSI31
70
0
71
0
91
1
92
5
93
3
72
1
10
-53.6251625675374
20
6
11
-53.1643788259847
21
2.50000169255318
72
1
10
-53.1643788259847
20
2.50000169255318
11
-54.0859463090902
21
2.49999830744682
72
1
10
-54.0859463090902
20
2.49999830744682
11
-53.6251625675374
21
6
97
0
75
0
76
1
52
0
41
0.0062
77
0
78
1
53
45
43
0
44
0
45
-0.0139193969876572
46
0.0139193969876572
79
0
47
0
98
1
10
0
20
0
0
HATCH
5
116
100
AcDbEntity
8
SK2
62
256
6
ByLayer
370
13
48
1
60
0
100
AcDbHatch
10
0
20
0
30
0
210
0
220
0
230
1
2
ANSI31
70
0
71
0
91
1
92
5
93
3
72
1
10
-53.6251625675374
20
-6
11
-54.0859463090902
21
-2.50000169255318
72
1
10
-54.0859463090902
20
-2.50000169255318
11
-53.1643788259847
21
-2.49999830744682
72
1
10
-53.1643788259847
20
-2.49999830744682
11
-53.6251625675374
21
-6
97
0
75
0
76
1
52
0
41
0.0062
77
0
78
1
53
45
43
0
44
0
45
-0.0139193969876572
46
0.0139193969876572
79
0
47
0
98
1
10
0
20
0
0
HATCH
5
11C
100
AcDbEntity
8
2
62
256
6
ByLayer
370
13
48
1
60
0
100
AcDbHatch
10
0
20
0
30
0
210
0
220
0
230
1
2
ANSI31
70
0
71
0
91
1
92
5
93
3
72
1
10
130.083342615295
20
5.25
11
130.544126356848
21
1.75000169255318
72
1
10
130.544126356848
20
1.75000169255318
11
129.622558873742
21
1.74999830744682
72
1
10
129.622558873742
20
1.74999830744682
11
130.083342615295
21
5.25
97
0
75
0
76
1
52
0
41
0.0062
77
0
78
1
53
45
43
0
44
0
45
-0.0139193969876572
46
0.0139193969876572
79
0
47
0
98
1
10
0
20
0
0
HATCH
5
120
100
AcDbEntity
8
2
62
256
6
ByLayer
370
13
48
1
60
0
100
AcDbHatch
10
0
20
0
30
0
210
0
220
0
230
1
2
ANSI31
70
0
71
0
91
1
92
5
93
3
72
1
10
130.083342615295
20
-5.25
11
129.622558873742
21
-1.75000169255318
72
1
10
129.622558873742
20
-1.75000169255318
11
130.544126356848
21
-1.74999830744682
72
1
10
130.544126356848
20
-1.74999830744682
11
130.083342615295
21
-5.25
97
0
75
0
76
1
52
0
41
0.0062
77
0
78
1
53
45
43
0
44
0
45
-0.0139193969876572
46
0.0139193969876572
79
0
47
0
98
1
10
0
20
0
0
DIMENSION
5
122
100
AcDbEntity
8
2
62
256
6
ByLayer
370
13
48
1
60
0
100
AcDbDimension
2
_U0
10
115.9845
20
-15.463398
30
0
11
57.99225
21
-15.463398
31
0
70
32
71
1
72
1
41
1
210
0
220
0
230
1
3
Standard
100
AcDbAlignedDimension
13
0
23
0
33
0
14
115.9845
24
-5.25
34
0
50
0
100
AcDbRotatedDimension
1001
ACAD
1000
DSTYLE
1002
{
1070
   371
1070
    13
1070
   372
1070
    13
1070
   170
1070
     0
1070
   144
1040
1.0
1070
   277
1070
     2
1070
   278
1070
    44
1070
   146
1040
1.0
1070
   345
1005
16
1070
   347
1005
16
1070
   346
1005
16
1070
   344
1005
0
1070
   343
1005
0
1070
   172
1070
     1
1070
    76
1070
     0
1070
    75
1070
     0
1070
   282
1070
     0
1070
   281
1070
     0
1070
    71
1070
     0
1070
    74
1070
     0
1070
   279
1070
     0
1070
   173
1070
     1
1070
   340
1005
10A
1070
   271
1070
     2
1070
   272
1070
     2
1070
    77
1070
     1
1070
    73
1070
     1
1070
   171
1070
     3
1070
   274
1070
     4
1070
   177
1070
    35
1070
   176
1070
    35
1070
   178
1070
    35
1070
    48
1040
-0.1
1070
    41
1040
3.5
1070
   147
1040
1.75
1070
    42
1040
1.5875
1070
    44
1040
2.0
1070
   140
1040
3.5
1002
}
1001
ACAD_DSTYLE_DIM_LINETYPE
1070
   380
1005
16
1001
ACAD_DSTYLE_DIM_EXT1_LINETYPE
1070
   381
1005
16
1001
ACAD_DSTYLE_DIM_EXT2_LINETYPE
1070
   382
1005
16
0
DIMENSION
5
13B
100
AcDbEntity
8
SK2
62
256
6
ByLayer
370
13
48
1
60
0
100
AcDbDimension
2
_U1
10
118
20
-34.692985
30
0
11
36.5
21
-34.692985
31
0
70
32
71
1
72
1
41
1
210
0
220
0
230
1
3
Standard
100
AcDbAlignedDimension
13
-45
23
-6
33
0
14
118
24
0
34
0
50
0
100
AcDbRotatedDimension
1001
ACAD
1000
DSTYLE
1002
{
1070
   371
1070
    13
1070
   372
1070
    13
1070
   170
1070
     0
1070
   144
1040
1.0
1070
   277
1070
     2
1070
   278
1070
    44
1070
   146
1040
1.0
1070
   345
1005
16
1070
   347
1005
16
1070
   346
1005
16
1070
   344
1005
0
1070
   343
1005
0
1070
   172
1070
     1
1070
    76
1070
     0
1070
    75
1070
     0
1070
   282
1070
     0
1070
   281
1070
     0
1070
    71
1070
     0
1070
    74
1070
     0
1070
   279
1070
     0
1070
   173
1070
     1
1070
   340
1005
10A
1070
   271
1070
     2
1070
   272
1070
     2
1070
    77
1070
     1
1070
    73
1070
     1
1070
   171
1070
     3
1070
   274
1070
     4
1070
   177
1070
    35
1070
   176
1070
    35
1070
   178
1070
    35
1070
    48
1040
-0.1
1070
    41
1040
3.5
1070
   147
1040
1.75
1070
    42
1040
1.5875
1070
    44
1040
2.0
1070
   140
1040
3.5
1002
}
1001
ACAD_DSTYLE_DIM_LINETYPE
1070
   380
1005
16
1001
ACAD_DSTYLE_DIM_EXT1_LINETYPE
1070
   381
1005
16
1001
ACAD_DSTYLE_DIM_EXT2_LINETYPE
1070
   382
1005
16
0
DIMENSION
5
153
100
AcDbEntity
8
SK2
62
256
6
ByLayer
370
13
48
1
60
0
100
AcDbDimension
2
_U2
10
118
20
16.859119
30
0
11
74.99
21
16.859119
31
0
70
32
71
1
72
1
41
1
210
0
220
0
230
1
3
Standard
100
AcDbAlignedDimension
13
31.98
23
5.25
33
0
14
118
24
0
34
0
50
0
100
AcDbRotatedDimension
1001
ACAD
1000
DSTYLE
1002
{
1070
   371
1070
    13
1070
   372
1070
    13
1070
   170
1070
     0
1070
   144
1040
1.0
1070
   277
1070
     2
1070
   278
1070
    44
1070
   146
1040
1.0
1070
   345
1005
16
1070
   347
1005
16
1070
   346
1005
16
1070
   344
1005
0
1070
   343
1005
0
1070
   172
1070
     1
1070
    76
1070
     0
1070
    75
1070
     0
1070
   282
1070
     0
1070
   281
1070
     0
1070
    71
1070
     0
1070
    74
1070
     0
1070
   279
1070
     0
1070
   173
1070
     1
1070
   340
1005
10A
1070
   271
1070
     2
1070
   272
1070
     2
1070
    77
1070
     1
1070
    73
1070
     1
1070
   171
1070
     3
1070
   274
1070
     4
1070
   177
1070
    35
1070
   176
1070
    35
1070
   178
1070
    35
1070
    48
1040
-0.1
1070
    41
1040
3.5
1070
   147
1040
1.75
1070
    42
1040
1.5875
1070
    44
1040
2.0
1070
   140
1040
3.5
1002
}
1001
ACAD_DSTYLE_DIM_LINETYPE
1070
   380
1005
16
1001
ACAD_DSTYLE_DIM_EXT1_LINETYPE
1070
   381
1005
16
1001
ACAD_DSTYLE_DIM_EXT2_LINETYPE
1070
   382
1005
16
0
DIMENSION
5
16B
100
AcDbEntity
8
SK2
62
256
6
ByLayer
370
13
48
1
60
0
100
AcDbDimension
2
_U3
10
115.9845
20
-18.052503
30
0
11
135.583333
21
-18.052503
31
0
70
32
71
1
72
1
41
1
210
0
220
0
230
1
3
Standard
100
AcDbAlignedDimension
13
118
23
0
33
0
14
115.9845
24
-5.25
34
0
50
0
100
AcDbRotatedDimension
1001
ACAD
1000
DSTYLE
1002
{
1070
   371
1070
    13
1070
   372
1070
    13
1070
   170
1070
     0
1070
   144
1040
1.0
1070
   277
1070
     2
1070
   278
1070
    44
1070
   146
1040
1.0
1070
   345
1005
16
1070
   347
1005
16
1070
   346
1005
16
1070
   344
1005
0
1070
   343
1005
0
1070
   172
1070
     1
1070
    76
1070
     0
1070
    75
1070
     0
1070
   282
1070
     0
1070
   281
1070
     0
1070
    71
1070
     0
1070
    74
1070
     0
1070
   279
1070
     0
1070
   173
1070
     1
1070
   340
1005
10A
1070
   271
1070
     2
1070
   272
1070
     2
1070
    77
1070
     1
1070
    73
1070
     1
1070
   171
1070
     3
1070
   274
1070
     4
1070
   177
1070
    35
1070
   176
1070
    35
1070
   178
1070
    35
1070
    48
1040
-0.1
1070
    41
1040
3.5
1070
   147
1040
1.75
1070
    42
1040
1.5875
1070
    44
1040
2.0
1070
   140
1040
3.5
1002
}
1001
ACAD_DSTYLE_DIM_LINETYPE
1070
   380
1005
16
1001
ACAD_DSTYLE_DIM_EXT1_LINETYPE
1070
   381
1005
16
1001
ACAD_DSTYLE_DIM_EXT2_LINETYPE
1070
   382
1005
16
0
DIMENSION
5
185
100
AcDbEntity
8
SK2
62
256
6
ByLayer
370
13
48
1
60
0
100
AcDbDimension
2
_U4
10
115.9845
20
-24.343428
30
0
11
35.49225
21
-24.343428
31
0
70
32
71
1
72
1
41
1
210
0
220
0
230
1
3
Standard
100
AcDbAlignedDimension
13
-45
23
-6
33
0
14
115.9845
24
-5.25
34
0
50
0
100
AcDbRotatedDimension
1001
ACAD
1000
DSTYLE
1002
{
1070
   371
1070
    13
1070
   372
1070
    13
1070
   170
1070
     0
1070
   144
1040
1.0
1070
   277
1070
     2
1070
   278
1070
    44
1070
   146
1040
1.0
1070
   345
1005
16
1070
   347
1005
16
1070
   346
1005
16
1070
   344
1005
0
1070
   343
1005
0
1070
   172
1070
     1
1070
    76
1070
     0
1070
    75
1070
     0
1070
   282
1070
     0
1070
   281
1070
     0
1070
    71
1070
     0
1070
    74
1070
     0
1070
   279
1070
     0
1070
   173
1070
     1
1070
   340
1005
10A
1070
   271
1070
     2
1070
   272
1070
     2
1070
    77
1070
     1
1070
    73
1070
     1
1070
   171
1070
     3
1070
   274
1070
     4
1070
   177
1070
    35
1070
   176
1070
    35
1070
   178
1070
    35
1070
    48
1040
-0.1
1070
    41
1040
3.5
1070
   147
1040
1.75
1070
    42
1040
1.5875
1070
    44
1040
2.0
1070
   140
1040
3.5
1002
}
1001
ACAD_DSTYLE_DIM_LINETYPE
1070
   380
1005
16
1001
ACAD_DSTYLE_DIM_EXT1_LINETYPE
1070
   381
1005
16
1001
ACAD_DSTYLE_DIM_EXT2_LINETYPE
1070
   382
1005
16
0
ENDSEC
0
SECTION
2
OBJECTS
0
DICTIONARY
5
20d
330
0
100
AcDbDictionary
280
0
281
1
3
ACAD_GROUP
350
20e
3
ACAD_MLINESTYLE
350
20f
0
DICTIONARY
5
20e
330
0
100
AcDbDictionary
280
0
281
1
0
DICTIONARY
5
20f
330
0
100
AcDbDictionary
280
0
281
1
3
Standard
350
18
0
MLINESTYLE
5
18
330
20f
100
AcDbMlineStyle
2
Standard
70
0
3

62
256
51
90
52
90
71
2
49
-0.5
62
256
6
ByLayer
49
0.5
62
256
6
ByLayer
0
RASTERVARIABLES
5
1fb
330

100
AcDbRasterVariables
90
0
70
1
71
1
72
1
0
ENDSEC
0
EOF
