0
SECTION
2
HEADER
9
$ACADVER
1
AC1015
9
$DWGCODEPAGE
3
ANSI_1252
9
$HANDSEED
5
201
9
$ANGBASE
50
0
9
$ANGDIR
70
0
9
$ATTMODE
70
1
9
$AUNITS
70
0
9
$AUPREC
70
0
9
$CECOLOR
62
256
9
$CELTSCALE
40
1
9
$CELTYPE
6
ByLayer
9
$CELWEIGHT
370
18
9
$CLAYER
8
0
9
$CMLJUST
70
0
9
$CMLSCALE
40
1
9
$CMLSTYLE
2
Standard
9
$DIMSTYLE
2
Standard
9
$TEXTSIZE
40
0.2
9
$TEXTSTYLE
7
Standard
9
$LUNITS
70
2
9
$LUPREC
70
4
9
$EXTNAMES
290
1
9
$INSUNITS
70
4
9
$LTSCALE
40
1
9
$LWDISPLAY
290
1
9
$PDMODE
70
0
9
$PDSIZE
40
0
9
$PLINEGEN
70
0
0
ENDSEC
0
SECTION
2
CLASSES
0
CLASS
1
RASTERVARIABLES
2
AcDbRasterVariables
3
ISM
90
0
280
0
281
0
0
ENDSEC
0
SECTION
2
TABLES
0
TABLE
2
VPORT
5
1f7
100
AcDbSymbolTable
0
VPORT
5
1
100
AcDbSymbolTableRecord
100
AcDbViewportTableRecord
2
*Active
70
0
10
0
20
0
11
1
21
1
12
-1
22
1
13
0
23
0
14
0.5
24
0.5
15
10
25
10
16
0
26
0
36
1
17
0
27
0
37
0
0
ENDTAB
0
TABLE
2
LTYPE
5
1f8
100
AcDbSymbolTable
0
LTYPE
5
14
100
AcDbSymbolTableRecord
100
AcDbLinetypeTableRecord
70
0
2
ByBlock
3

72
65
73
0
40
0
0
LTYPE
5
15
100
AcDbSymbolTableRecord
100
AcDbLinetypeTableRecord
70
0
2
ByLayer
3

72
65
73
0
40
0
0
LTYPE
5
16
100
AcDbSymbolTableRecord
100
AcDbLinetypeTableRecord
70
0
2
Continuous
3
Solid line
72
65
73
0
40
0
0
LTYPE
5
6E
100
AcDbSymbolTableRecord
100
AcDbLinetypeTableRecord
70
0
2
CENTER
3
____ _ ____ _ ____ _ ____
72
65
73
4
40
47.5
49
22
74
0
49
-8.5
74
0
49
8.5
74
0
49
-8.5
74
0
0
LTYPE
5
6F
100
AcDbSymbolTableRecord
100
AcDbLinetypeTableRecord
70
0
2
DASHED
3
__ __ __ __ __ __ __ __ __
72
65
73
2
40
25.72
49
12.86
74
0
49
-12.86
74
0
0
ENDTAB
0
TABLE
2
LAYER
5
1f9
100
AcDbSymbolTable
0
LAYER
5
10
100
AcDbSymbolTableRecord
100
AcDbLayerTableRecord
2
0
70
0
62
7
6
Continuous
290
1
370
-3
390
0
0
LAYER
5
71
100
AcDbSymbolTableRecord
100
AcDbLayerTableRecord
2
80
70
0
62
-6
6
Continuous
290
1
370
-3
390
0
0
LAYER
5
73
100
AcDbSymbolTableRecord
100
AcDbLayerTableRecord
2
81
70
0
62
-3
6
Continuous
290
1
370
-3
390
0
0
LAYER
5
75
100
AcDbSymbolTableRecord
100
AcDbLayerTableRecord
2
1
70
0
62
4
6
Continuous
290
1
370
-3
390
0
0
LAYER
5
86
100
AcDbSymbolTableRecord
100
AcDbLayerTableRecord
2
4
70
0
62
-2
6
CENTER
290
1
370
-3
390
0
0
LAYER
5
9D
100
AcDbSymbolTableRecord
100
AcDbLayerTableRecord
2
2
70
0
62
7
6
Continuous
290
1
370
-3
390
0
0
LAYER
5
10C
100
AcDbSymbolTableRecord
100
AcDbLayerTableRecord
2
Defpoints
70
0
62
7
6
Continuous
290
0
370
-3
390
0
0
LAYER
5
1e3
100
AcDbSymbolTableRecord
100
AcDbLayerTableRecord
2
SK1
70
0
62
4
6
Continuous
290
1
370
-3
390
0
0
LAYER
5
1e4
100
AcDbSymbolTableRecord
100
AcDbLayerTableRecord
2
SK4
70
0
62
2
6
CENTER
290
1
370
-3
390
0
0
LAYER
5
1e5
100
AcDbSymbolTableRecord
100
AcDbLayerTableRecord
2
SK2
70
0
62
7
6
Continuous
290
1
370
-3
390
0
0
LAYER
5
1e6
100
AcDbSymbolTableRecord
100
AcDbLayerTableRecord
2
SK6
70
0
62
5
6
Continuous
290
1
370
-3
390
0
0
ENDTAB
0
TABLE
2
STYLE
5
1fa
100
AcDbSymbolTable
0
STYLE
5
11
100
AcDbSymbolTableRecord
100
AcDbTextStyleTableRecord
2
Standard
3
txt
70
0
71
0
40
0
41
1
42
0
50
0
0
STYLE
5
F1
100
AcDbSymbolTableRecord
100
AcDbTextStyleTableRecord
2
iso_b_vert
3
simplex.shx
70
0
71
0
40
0
41
1
42
0
50
0
0
STYLE
5
F2
100
AcDbSymbolTableRecord
100
AcDbTextStyleTableRecord
2
DWGDirectTextStyle
3
simplex
70
0
71
0
40
0
41
1
42
0
50
0
0
ENDTAB
0
TABLE
2
DIMSTYLE
5
1fb
100
AcDbSymbolTable
100
AcDbDimStyleTable
0
DIMSTYLE
105
27
100
AcDbSymbolTableRecord
100
AcDbDimStyleTableRecord
2
Standard
70
0
3
<>
41
0.18
42
0.0625
44
0.18
140
0.18
147
0.09
73
0
74
0
77
1
271
2
275
0
278
52
280
0
340
11
0
ENDTAB
0
TABLE
2
VIEW
5
1fc
100
AcDbSymbolTable
0
ENDTAB
0
TABLE
2
UCS
5
1fd
100
AcDbSymbolTable
0
ENDTAB
0
TABLE
2
APPID
5
1fe
100
AcDbSymbolTable
0
APPID
5
12
100
AcDbSymbolTableRecord
100
AcDbRegAppTableRecord
2
ACAD
70
0
0
APPID
5
108
100
AcDbSymbolTableRecord
100
AcDbRegAppTableRecord
2
ACAD_DSTYLE_DIMBREAK
70
0
0
APPID
5
1A2
100
AcDbSymbolTableRecord
100
AcDbRegAppTableRecord
2
ACAD_DSTYLE_DIM_LINETYPE
70
0
0
APPID
5
1A3
100
AcDbSymbolTableRecord
100
AcDbRegAppTableRecord
2
ACAD_DSTYLE_DIM_EXT1_LINETYPE
70
0
0
APPID
5
1A4
100
AcDbSymbolTableRecord
100
AcDbRegAppTableRecord
2
ACAD_DSTYLE_DIM_EXT2_LINETYPE
70
0
0
APPID
5
1DF
100
AcDbSymbolTableRecord
100
AcDbRegAppTableRecord
2
ACAD_MLEADERVER
70
0
0
ENDTAB
0
TABLE
2
BLOCK_RECORD
5
1ff
100
AcDbSymbolTable
0
BLOCK_RECORD
5
1F
100
AcDbSymbolTableRecord
100
AcDbBlockTableRecord
2
*Model_Space
340
0
70
0
0
BLOCK_RECORD
5
1B
100
AcDbSymbolTableRecord
100
AcDbBlockTableRecord
2
*Paper_Space
340
0
70
0
0
BLOCK_RECORD
5
23
100
AcDbSymbolTableRecord
100
AcDbBlockTableRecord
2
*Paper_Space0
340
0
70
0
0
BLOCK_RECORD
5
10D
100
AcDbSymbolTableRecord
100
AcDbBlockTableRecord
2
*D1
340
0
70
0
0
BLOCK_RECORD
5
119
100
AcDbSymbolTableRecord
100
AcDbBlockTableRecord
2
_U0
340
0
70
0
0
BLOCK_RECORD
5
125
100
AcDbSymbolTableRecord
100
AcDbBlockTableRecord
2
*D3
340
0
70
0
0
BLOCK_RECORD
5
131
100
AcDbSymbolTableRecord
100
AcDbBlockTableRecord
2
_U1
340
0
70
0
0
BLOCK_RECORD
5
13D
100
AcDbSymbolTableRecord
100
AcDbBlockTableRecord
2
*D5
340
0
70
0
0
BLOCK_RECORD
5
149
100
AcDbSymbolTableRecord
100
AcDbBlockTableRecord
2
_U2
340
0
70
0
0
BLOCK_RECORD
5
155
100
AcDbSymbolTableRecord
100
AcDbBlockTableRecord
2
*D7
340
0
70
0
0
BLOCK_RECORD
5
163
100
AcDbSymbolTableRecord
100
AcDbBlockTableRecord
2
_U3
340
0
70
0
0
BLOCK_RECORD
5
16F
100
AcDbSymbolTableRecord
100
AcDbBlockTableRecord
2
*D9
340
0
70
0
0
BLOCK_RECORD
5
17B
100
AcDbSymbolTableRecord
100
AcDbBlockTableRecord
2
_U4
340
0
70
0
0
ENDTAB
0
ENDSEC
0
SECTION
2
BLOCKS
0
BLOCK
5
20
100
AcDbEntity
8
0
100
AcDbBlockBegin
2
*Model_Space
70
0
10
0
20
0
30
0
3
*Model_Space
0
ENDBLK
5
21
100
AcDbEntity
8
0
100
AcDbBlockEnd
0
BLOCK
5
1C
100
AcDbEntity
8
0
100
AcDbBlockBegin
2
*Paper_Space
70
0
10
0
20
0
30
0
3
*Paper_Space
0
ENDBLK
5
1D
100
AcDbEntity
8
0
100
AcDbBlockEnd
0
BLOCK
5
24
100
AcDbEntity
8
0
100
AcDbBlockBegin
2
*Paper_Space0
70
0
10
0
20
0
30
0
3
*Paper_Space0
0
ENDBLK
5
25
100
AcDbEntity
8
0
100
AcDbBlockEnd
0
BLOCK
5
10E
100
AcDbEntity
8
0
100
AcDbBlockBegin
2
*D1
70
1
10
0
20
0
30
0
3
*D1
0
LINE
5
110
100
AcDbEntity
8
0
62
256
6
ByLayer
370
-2
48
1
60
0
100
AcDbLine
10
0
20
-1.5875
30
0
11
0
21
-17.463398
31
0
39
0
210
0
220
0
230
1
0
LINE
5
111
100
AcDbEntity
8
0
62
256
6
ByLayer
370
-2
48
1
60
0
100
AcDbLine
10
70.9845
20
-6.8375
30
0
11
70.9845
21
-17.463398
31
0
39
0
210
0
220
0
230
1
0
LINE
5
112
100
AcDbEntity
8
0
62
256
6
ByLayer
370
-2
48
1
60
0
100
AcDbLine
10
3.5
20
-15.463398
30
0
11
67.4845
21
-15.463398
31
0
39
0
210
0
220
0
230
1
0
SOLID
5
113
100
AcDbEntity
8
0
62
256
6
ByLayer
370
-1
48
1
60
0
100
AcDbTrace
10
3.5
20
-14.880065
30
0
11
3.5
21
-16.046732
31
0
12
0
22
-15.463398
32
0
13
0
23
-15.463398
33
0
39
0
210
0
220
0
230
1
0
SOLID
5
114
100
AcDbEntity
8
0
62
256
6
ByLayer
370
-1
48
1
60
0
100
AcDbTrace
10
67.4845
20
-16.046732
30
0
11
67.4845
21
-14.880065
31
0
12
70.9845
22
-15.463398
32
0
13
70.9845
23
-15.463398
33
0
39
0
210
0
220
0
230
1
0
MTEXT
5
115
100
AcDbEntity
8
0
62
256
6
ByLayer
370
18
48
1
60
0
100
AcDbMText
10
35.49225
20
-8.463398
30
0
210
0
220
0
230
1
1
\A1;70.98
40
3.5
41
0
44
1
50
0
71
5
72
5
7
iso_b_vert
0
POINT
5
116
100
AcDbEntity
8
Defpoints
62
0
6
ByLayer
370
-1
48
1
60
0
100
AcDbPoint
10
0
20
0
30
0
39
0
210
0
220
0
230
1
50
360
0
POINT
5
117
100
AcDbEntity
8
Defpoints
62
0
6
ByLayer
370
-1
48
1
60
0
100
AcDbPoint
10
70.9845
20
-5.25
30
0
39
0
210
0
220
0
230
1
50
360
0
POINT
5
118
100
AcDbEntity
8
Defpoints
62
0
6
ByLayer
370
-1
48
1
60
0
100
AcDbPoint
10
70.9845
20
-15.463398
30
0
39
0
210
0
220
0
230
1
50
360
0
ENDBLK
5
10F
100
AcDbEntity
8
0
100
AcDbBlockEnd
0
BLOCK
5
120
100
AcDbEntity
8
0
100
AcDbBlockBegin
2
_U0
70
0
10
0
20
0
30
0
3
_U0
0
MTEXT
5
11A
100
AcDbEntity
8
2
62
256
6
ByLayer
370
13
48
1
60
0
100
AcDbMText
10
30.354951
20
-14.430765
30
0
210
0
220
0
230
1
1
\W0.7317;70,98
40
3.5
41
0
44
1.084337
50
0
71
7
72
5
7
iso_b_vert
0
LINE
5
11B
100
AcDbEntity
8
2
62
256
6
ByLayer
370
13
48
1
60
0
100
AcDbLine
10
0
20
-1.5875
30
0
11
0
21
-17.463398
31
0
39
0
210
0
220
0
230
1
0
LINE
5
11C
100
AcDbEntity
8
2
62
256
6
ByLayer
370
13
48
1
60
0
100
AcDbLine
10
70.9845
20
-6.8375
30
0
11
70.9845
21
-17.463398
31
0
39
0
210
0
220
0
230
1
0
LINE
5
11D
100
AcDbEntity
8
2
62
256
6
ByLayer
370
13
48
1
60
0
100
AcDbLine
10
0
20
-15.463398
30
0
11
70.9845
21
-15.463398
31
0
39
0
210
0
220
0
230
1
0
SOLID
5
11E
100
AcDbEntity
8
2
62
256
6
ByLayer
370
18
48
1
60
0
100
AcDbTrace
10
0
20
-15.463398
30
0
11
3.499998
21
-15.002615
31
0
12
3.500002
22
-15.924182
32
0
13
3.500002
23
-15.924182
33
0
39
0
210
0
220
0
230
1
0
SOLID
5
11F
100
AcDbEntity
8
2
62
256
6
ByLayer
370
18
48
1
60
0
100
AcDbTrace
10
70.9845
20
-15.463398
30
0
11
67.484502
21
-15.924182
31
0
12
67.484498
22
-15.002615
32
0
13
67.484498
23
-15.002615
33
0
39
0
210
0
220
0
230
1
0
ENDBLK
5
121
100
AcDbEntity
8
0
100
AcDbBlockEnd
0
BLOCK
5
126
100
AcDbEntity
8
0
100
AcDbBlockBegin
2
*D3
70
1
10
0
20
0
30
0
3
*D3
0
LINE
5
128
100
AcDbEntity
8
0
62
256
6
ByLayer
370
-2
48
1
60
0
100
AcDbLine
10
-45
20
-7.5875
30
0
11
-45
21
-36.692985
31
0
39
0
210
0
220
0
230
1
0
LINE
5
129
100
AcDbEntity
8
0
62
256
6
ByLayer
370
-2
48
1
60
0
100
AcDbLine
10
73
20
-1.5875
30
0
11
73
21
-36.692985
31
0
39
0
210
0
220
0
230
1
0
LINE
5
12A
100
AcDbEntity
8
0
62
256
6
ByLayer
370
-2
48
1
60
0
100
AcDbLine
10
-41.5
20
-34.692985
30
0
11
69.5
21
-34.692985
31
0
39
0
210
0
220
0
230
1
0
SOLID
5
12B
100
AcDbEntity
8
0
62
256
6
ByLayer
370
-1
48
1
60
0
100
AcDbTrace
10
-41.5
20
-34.109652
30
0
11
-41.5
21
-35.276319
31
0
12
-45
22
-34.692985
32
0
13
-45
23
-34.692985
33
0
39
0
210
0
220
0
230
1
0
SOLID
5
12C
100
AcDbEntity
8
0
62
256
6
ByLayer
370
-1
48
1
60
0
100
AcDbTrace
10
69.5
20
-35.276319
30
0
11
69.5
21
-34.109652
31
0
12
73
22
-34.692985
32
0
13
73
23
-34.692985
33
0
39
0
210
0
220
0
230
1
0
MTEXT
5
12D
100
AcDbEntity
8
0
62
256
6
ByLayer
370
18
48
1
60
0
100
AcDbMText
10
14
20
-27.692985
30
0
210
0
220
0
230
1
1
\A1;118.00
40
3.5
41
0
44
1
50
0
71
5
72
5
7
iso_b_vert
0
POINT
5
12E
100
AcDbEntity
8
Defpoints
62
0
6
ByLayer
370
-1
48
1
60
0
100
AcDbPoint
10
-45
20
-6
30
0
39
0
210
0
220
0
230
1
50
360
0
POINT
5
12F
100
AcDbEntity
8
Defpoints
62
0
6
ByLayer
370
-1
48
1
60
0
100
AcDbPoint
10
73
20
0
30
0
39
0
210
0
220
0
230
1
50
360
0
POINT
5
130
100
AcDbEntity
8
Defpoints
62
0
6
ByLayer
370
-1
48
1
60
0
100
AcDbPoint
10
73
20
-34.692985
30
0
39
0
210
0
220
0
230
1
50
360
0
ENDBLK
5
127
100
AcDbEntity
8
0
100
AcDbBlockEnd
0
BLOCK
5
138
100
AcDbEntity
8
0
100
AcDbBlockBegin
2
_U1
70
0
10
0
20
0
30
0
3
_U1
0
MTEXT
5
132
100
AcDbEntity
8
SK2
62
256
6
ByLayer
370
13
48
1
60
0
100
AcDbMText
10
8.429835
20
-33.660352
30
0
210
0
220
0
230
1
1
\W0.6440;118,00
40
3.5
41
0
44
1.084337
50
0
71
7
72
5
7
iso_b_vert
0
LINE
5
133
100
AcDbEntity
8
SK2
62
256
6
ByLayer
370
13
48
1
60
0
100
AcDbLine
10
-45
20
-7.5875
30
0
11
-45
21
-36.692985
31
0
39
0
210
0
220
0
230
1
0
LINE
5
134
100
AcDbEntity
8
SK2
62
256
6
ByLayer
370
13
48
1
60
0
100
AcDbLine
10
73
20
-1.5875
30
0
11
73
21
-36.692985
31
0
39
0
210
0
220
0
230
1
0
LINE
5
135
100
AcDbEntity
8
SK2
62
256
6
ByLayer
370
13
48
1
60
0
100
AcDbLine
10
-45
20
-34.692985
30
0
11
73
21
-34.692985
31
0
39
0
210
0
220
0
230
1
0
SOLID
5
136
100
AcDbEntity
8
SK2
62
256
6
ByLayer
370
18
48
1
60
0
100
AcDbTrace
10
-45
20
-34.692985
30
0
11
-41.500002
21
-34.232202
31
0
12
-41.499998
22
-35.153769
32
0
13
-41.499998
23
-35.153769
33
0
39
0
210
0
220
0
230
1
0
SOLID
5
137
100
AcDbEntity
8
SK2
62
256
6
ByLayer
370
18
48
1
60
0
100
AcDbTrace
10
73
20
-34.692985
30
0
11
69.500002
21
-35.153769
31
0
12
69.499998
22
-34.232202
32
0
13
69.499998
23
-34.232202
33
0
39
0
210
0
220
0
230
1
0
ENDBLK
5
139
100
AcDbEntity
8
0
100
AcDbBlockEnd
0
BLOCK
5
13E
100
AcDbEntity
8
0
100
AcDbBlockBegin
2
*D5
70
1
10
0
20
0
30
0
3
*D5
0
LINE
5
140
100
AcDbEntity
8
0
62
256
6
ByLayer
370
-2
48
1
60
0
100
AcDbLine
10
18.48
20
6.8375
30
0
11
18.48
21
18.859119
31
0
39
0
210
0
220
0
230
1
0
LINE
5
141
100
AcDbEntity
8
0
62
256
6
ByLayer
370
-2
48
1
60
0
100
AcDbLine
10
73
20
1.5875
30
0
11
73
21
18.859119
31
0
39
0
210
0
220
0
230
1
0
LINE
5
142
100
AcDbEntity
8
0
62
256
6
ByLayer
370
-2
48
1
60
0
100
AcDbLine
10
21.98
20
16.859119
30
0
11
69.5
21
16.859119
31
0
39
0
210
0
220
0
230
1
0
SOLID
5
143
100
AcDbEntity
8
0
62
256
6
ByLayer
370
-1
48
1
60
0
100
AcDbTrace
10
21.98
20
17.442453
30
0
11
21.98
21
16.275786
31
0
12
18.48
22
16.859119
32
0
13
18.48
23
16.859119
33
0
39
0
210
0
220
0
230
1
0
SOLID
5
144
100
AcDbEntity
8
0
62
256
6
ByLayer
370
-1
48
1
60
0
100
AcDbTrace
10
69.5
20
16.275786
30
0
11
69.5
21
17.442453
31
0
12
73
22
16.859119
32
0
13
73
23
16.859119
33
0
39
0
210
0
220
0
230
1
0
MTEXT
5
145
100
AcDbEntity
8
0
62
256
6
ByLayer
370
18
48
1
60
0
100
AcDbMText
10
45.74
20
23.859119
30
0
210
0
220
0
230
1
1
\A1;54.52
40
3.5
41
0
44
1
50
0
71
5
72
5
7
iso_b_vert
0
POINT
5
146
100
AcDbEntity
8
Defpoints
62
0
6
ByLayer
370
-1
48
1
60
0
100
AcDbPoint
10
18.48
20
5.25
30
0
39
0
210
0
220
0
230
1
50
360
0
POINT
5
147
100
AcDbEntity
8
Defpoints
62
0
6
ByLayer
370
-1
48
1
60
0
100
AcDbPoint
10
73
20
0
30
0
39
0
210
0
220
0
230
1
50
360
0
POINT
5
148
100
AcDbEntity
8
Defpoints
62
0
6
ByLayer
370
-1
48
1
60
0
100
AcDbPoint
10
73
20
16.859119
30
0
39
0
210
0
220
0
230
1
50
360
0
ENDBLK
5
13F
100
AcDbEntity
8
0
100
AcDbBlockEnd
0
BLOCK
5
150
100
AcDbEntity
8
0
100
AcDbBlockBegin
2
_U2
70
0
10
0
20
0
30
0
3
_U2
0
MTEXT
5
14A
100
AcDbEntity
8
SK2
62
256
6
ByLayer
370
13
48
1
60
0
100
AcDbMText
10
40.418435
20
17.891753
30
0
210
0
220
0
230
1
1
\W0.7581;54,52
40
3.5
41
0
44
1.084337
50
0
71
7
72
5
7
iso_b_vert
0
LINE
5
14B
100
AcDbEntity
8
SK2
62
256
6
ByLayer
370
13
48
1
60
0
100
AcDbLine
10
18.48
20
6.8375
30
0
11
18.48
21
18.859119
31
0
39
0
210
0
220
0
230
1
0
LINE
5
14C
100
AcDbEntity
8
SK2
62
256
6
ByLayer
370
13
48
1
60
0
100
AcDbLine
10
73
20
1.5875
30
0
11
73
21
18.859119
31
0
39
0
210
0
220
0
230
1
0
LINE
5
14D
100
AcDbEntity
8
SK2
62
256
6
ByLayer
370
13
48
1
60
0
100
AcDbLine
10
18.48
20
16.859119
30
0
11
73
21
16.859119
31
0
39
0
210
0
220
0
230
1
0
SOLID
5
14E
100
AcDbEntity
8
SK2
62
256
6
ByLayer
370
18
48
1
60
0
100
AcDbTrace
10
18.48
20
16.859119
30
0
11
21.979998
21
17.319903
31
0
12
21.980002
22
16.398335
32
0
13
21.980002
23
16.398335
33
0
39
0
210
0
220
0
230
1
0
SOLID
5
14F
100
AcDbEntity
8
SK2
62
256
6
ByLayer
370
18
48
1
60
0
100
AcDbTrace
10
73
20
16.859119
30
0
11
69.500002
21
16.398335
31
0
12
69.499998
22
17.319903
32
0
13
69.499998
23
17.319903
33
0
39
0
210
0
220
0
230
1
0
ENDBLK
5
151
100
AcDbEntity
8
0
100
AcDbBlockEnd
0
BLOCK
5
156
100
AcDbEntity
8
0
100
AcDbBlockBegin
2
*D7
70
1
10
0
20
0
30
0
3
*D7
0
LINE
5
158
100
AcDbEntity
8
0
62
256
6
ByLayer
370
-2
48
1
60
0
100
AcDbLine
10
73
20
-1.5875
30
0
11
73
21
-20.052503
31
0
39
0
210
0
220
0
230
1
0
LINE
5
159
100
AcDbEntity
8
0
62
256
6
ByLayer
370
-2
48
1
60
0
100
AcDbLine
10
70.9845
20
-6.8375
30
0
11
70.9845
21
-20.052503
31
0
39
0
210
0
220
0
230
1
0
LINE
5
15A
100
AcDbEntity
8
0
62
256
6
ByLayer
370
-2
48
1
60
0
100
AcDbLine
10
73
20
-18.052503
30
0
11
101.166667
21
-18.052503
31
0
39
0
210
0
220
0
230
1
0
LINE
5
15B
100
AcDbEntity
8
0
62
256
6
ByLayer
370
-2
48
1
60
0
100
AcDbLine
10
76.5
20
-18.052503
30
0
11
80
21
-18.052503
31
0
39
0
210
0
220
0
230
1
0
LINE
5
15C
100
AcDbEntity
8
0
62
256
6
ByLayer
370
-2
48
1
60
0
100
AcDbLine
10
67.4845
20
-18.052503
30
0
11
63.9845
21
-18.052503
31
0
39
0
210
0
220
0
230
1
0
SOLID
5
15D
100
AcDbEntity
8
0
62
256
6
ByLayer
370
-1
48
1
60
0
100
AcDbTrace
10
76.5
20
-17.46917
30
0
11
76.5
21
-18.635837
31
0
12
73
22
-18.052503
32
0
13
73
23
-18.052503
33
0
39
0
210
0
220
0
230
1
0
SOLID
5
15E
100
AcDbEntity
8
0
62
256
6
ByLayer
370
-1
48
1
60
0
100
AcDbTrace
10
67.4845
20
-18.635837
30
0
11
67.4845
21
-17.46917
31
0
12
70.9845
22
-18.052503
32
0
13
70.9845
23
-18.052503
33
0
39
0
210
0
220
0
230
1
0
MTEXT
5
15F
100
AcDbEntity
8
0
62
256
6
ByLayer
370
18
48
1
60
0
100
AcDbMText
10
90.583333
20
-11.052503
30
0
210
0
220
0
230
1
1
\A1;2.02
40
3.5
41
0
44
1
50
0
71
5
72
5
7
iso_b_vert
0
POINT
5
160
100
AcDbEntity
8
Defpoints
62
0
6
ByLayer
370
-1
48
1
60
0
100
AcDbPoint
10
73
20
0
30
0
39
0
210
0
220
0
230
1
50
360
0
POINT
5
161
100
AcDbEntity
8
Defpoints
62
0
6
ByLayer
370
-1
48
1
60
0
100
AcDbPoint
10
70.9845
20
-5.25
30
0
39
0
210
0
220
0
230
1
50
360
0
POINT
5
162
100
AcDbEntity
8
Defpoints
62
0
6
ByLayer
370
-1
48
1
60
0
100
AcDbPoint
10
70.9845
20
-18.052503
30
0
39
0
210
0
220
0
230
1
50
360
0
ENDBLK
5
157
100
AcDbEntity
8
0
100
AcDbBlockEnd
0
BLOCK
5
16A
100
AcDbEntity
8
0
100
AcDbBlockBegin
2
_U3
70
0
10
0
20
0
30
0
3
_U3
0
MTEXT
5
164
100
AcDbEntity
8
SK2
62
256
6
ByLayer
370
13
48
1
60
0
100
AcDbMText
10
79.15186
20
-17.01987
30
0
210
0
220
0
230
1
1
\W0.7150;2,02
40
3.5
41
0
44
1.084337
50
0
71
7
72
5
7
iso_b_vert
0
LINE
5
165
100
AcDbEntity
8
SK2
62
256
6
ByLayer
370
13
48
1
60
0
100
AcDbLine
10
73
20
-1.5875
30
0
11
73
21
-20.052503
31
0
39
0
210
0
220
0
230
1
0
LINE
5
166
100
AcDbEntity
8
SK2
62
256
6
ByLayer
370
13
48
1
60
0
100
AcDbLine
10
70.9845
20
-6.8375
30
0
11
70.9845
21
-20.052503
31
0
39
0
210
0
220
0
230
1
0
LINE
5
167
100
AcDbEntity
8
SK2
62
256
6
ByLayer
370
13
48
1
60
0
100
AcDbLine
10
62.2345
20
-18.052503
30
0
11
86.996491
21
-18.052503
31
0
39
0
210
0
220
0
230
1
0
SOLID
5
168
100
AcDbEntity
8
SK2
62
256
6
ByLayer
370
18
48
1
60
0
100
AcDbTrace
10
73
20
-18.052503
30
0
11
76.499998
21
-17.591719
31
0
12
76.500002
22
-18.513287
32
0
13
76.500002
23
-18.513287
33
0
39
0
210
0
220
0
230
1
0
SOLID
5
169
100
AcDbEntity
8
SK2
62
256
6
ByLayer
370
18
48
1
60
0
100
AcDbTrace
10
70.9845
20
-18.052503
30
0
11
67.484502
21
-18.513287
31
0
12
67.484498
22
-17.591719
32
0
13
67.484498
23
-17.591719
33
0
39
0
210
0
220
0
230
1
0
ENDBLK
5
16B
100
AcDbEntity
8
0
100
AcDbBlockEnd
0
BLOCK
5
170
100
AcDbEntity
8
0
100
AcDbBlockBegin
2
*D9
70
1
10
0
20
0
30
0
3
*D9
0
LINE
5
172
100
AcDbEntity
8
0
62
256
6
ByLayer
370
-2
48
1
60
0
100
AcDbLine
10
-45
20
-7.5875
30
0
11
-45
21
-26.343428
31
0
39
0
210
0
220
0
230
1
0
LINE
5
173
100
AcDbEntity
8
0
62
256
6
ByLayer
370
-2
48
1
60
0
100
AcDbLine
10
70.9845
20
-6.8375
30
0
11
70.9845
21
-26.343428
31
0
39
0
210
0
220
0
230
1
0
LINE
5
174
100
AcDbEntity
8
0
62
256
6
ByLayer
370
-2
48
1
60
0
100
AcDbLine
10
-41.5
20
-24.343428
30
0
11
67.4845
21
-24.343428
31
0
39
0
210
0
220
0
230
1
0
SOLID
5
175
100
AcDbEntity
8
0
62
256
6
ByLayer
370
-1
48
1
60
0
100
AcDbTrace
10
-41.5
20
-23.760095
30
0
11
-41.5
21
-24.926762
31
0
12
-45
22
-24.343428
32
0
13
-45
23
-24.343428
33
0
39
0
210
0
220
0
230
1
0
SOLID
5
176
100
AcDbEntity
8
0
62
256
6
ByLayer
370
-1
48
1
60
0
100
AcDbTrace
10
67.4845
20
-24.926762
30
0
11
67.4845
21
-23.760095
31
0
12
70.9845
22
-24.343428
32
0
13
70.9845
23
-24.343428
33
0
39
0
210
0
220
0
230
1
0
MTEXT
5
177
100
AcDbEntity
8
0
62
256
6
ByLayer
370
18
48
1
60
0
100
AcDbMText
10
12.99225
20
-17.343428
30
0
210
0
220
0
230
1
1
\A1;115.98
40
3.5
41
0
44
1
50
0
71
5
72
5
7
iso_b_vert
0
POINT
5
178
100
AcDbEntity
8
Defpoints
62
0
6
ByLayer
370
-1
48
1
60
0
100
AcDbPoint
10
-45
20
-6
30
0
39
0
210
0
220
0
230
1
50
360
0
POINT
5
179
100
AcDbEntity
8
Defpoints
62
0
6
ByLayer
370
-1
48
1
60
0
100
AcDbPoint
10
70.9845
20
-5.25
30
0
39
0
210
0
220
0
230
1
50
360
0
POINT
5
17A
100
AcDbEntity
8
Defpoints
62
0
6
ByLayer
370
-1
48
1
60
0
100
AcDbPoint
10
70.9845
20
-24.343428
30
0
39
0
210
0
220
0
230
1
50
360
0
ENDBLK
5
171
100
AcDbEntity
8
0
100
AcDbBlockEnd
0
BLOCK
5
182
100
AcDbEntity
8
0
100
AcDbBlockBegin
2
_U4
70
0
10
0
20
0
30
0
3
_U4
0
MTEXT
5
17C
100
AcDbEntity
8
SK2
62
256
6
ByLayer
370
13
48
1
60
0
100
AcDbMText
10
7.422085
20
-23.310795
30
0
210
0
220
0
230
1
1
\W0.6440;115,98
40
3.5
41
0
44
1.084337
50
0
71
7
72
5
7
iso_b_vert
0
LINE
5
17D
100
AcDbEntity
8
SK2
62
256
6
ByLayer
370
13
48
1
60
0
100
AcDbLine
10
-45
20
-7.5875
30
0
11
-45
21
-26.343428
31
0
39
0
210
0
220
0
230
1
0
LINE
5
17E
100
AcDbEntity
8
SK2
62
256
6
ByLayer
370
13
48
1
60
0
100
AcDbLine
10
70.9845
20
-6.8375
30
0
11
70.9845
21
-26.343428
31
0
39
0
210
0
220
0
230
1
0
LINE
5
17F
100
AcDbEntity
8
SK2
62
256
6
ByLayer
370
13
48
1
60
0
100
AcDbLine
10
-45
20
-24.343428
30
0
11
70.9845
21
-24.343428
31
0
39
0
210
0
220
0
230
1
0
SOLID
5
180
100
AcDbEntity
8
SK2
62
256
6
ByLayer
370
18
48
1
60
0
100
AcDbTrace
10
-45
20
-24.343428
30
0
11
-41.500002
21
-23.882645
31
0
12
-41.499998
22
-24.804212
32
0
13
-41.499998
23
-24.804212
33
0
39
0
210
0
220
0
230
1
0
SOLID
5
181
100
AcDbEntity
8
SK2
62
256
6
ByLayer
370
18
48
1
60
0
100
AcDbTrace
10
70.9845
20
-24.343428
30
0
11
67.484502
21
-24.804212
31
0
12
67.484498
22
-23.882645
32
0
13
67.484498
23
-23.882645
33
0
39
0
210
0
220
0
230
1
0
ENDBLK
5
183
100
AcDbEntity
8
0
100
AcDbBlockEnd
0
ENDSEC
0
SECTION
2
ENTITIES
0
ARC
5
A6
100
AcDbEntity
8
1
62
256
6
ByLayer
370
18
48
1
60
0
100
AcDbCircle
39
0
10
1.486449
20
-5.974905
30
0
40
0.850000000000002
210
0
220
0
230
1
100
AcDbArc
50
89.896868
51
150.971922
0
ARC
5
A7
100
AcDbEntity
8
1
62
256
6
ByLayer
370
18
48
1
60
0
100
AcDbCircle
39
0
10
1.486449
20
5.974905
30
0
40
0.850000000000002
210
0
220
0
230
1
100
AcDbArc
50
209.028078
51
270.103132
0
ARC
5
A8
100
AcDbEntity
8
1
62
256
6
ByLayer
370
18
48
1
60
0
100
AcDbCircle
39
0
10
0
20
-5.15
30
0
40
0.850000000000002
210
0
220
0
230
1
100
AcDbArc
50
270
51
330.971922
0
ARC
5
A9
100
AcDbEntity
8
1
62
256
6
ByLayer
370
18
48
1
60
0
100
AcDbCircle
39
0
10
0
20
5.15
30
0
40
0.850000000000002
210
0
220
0
230
1
100
AcDbArc
50
29.028078
51
90
0
ELLIPSE
5
AA
100
AcDbEntity
8
1
62
256
6
ByLayer
370
13
48
1
60
0
100
AcDbEllipse
10
117.194174
20
41.888784
30
0
11
-60.1999999999999
21
7.3721302500107E-15
31
0
210
0
220
0
230
1
40
0.99863
41
0.716330370272915
42
0.732214818960566
0
ELLIPSE
5
AB
100
AcDbEntity
8
1
62
256
6
ByLayer
370
13
48
1
60
0
100
AcDbEllipse
10
5.485272
20
-5.038214
30
0
11
-0.0896339345182972
21
0.286296625517608
31
0
210
0
220
0
230
1
40
0.524585
41
0.374512062033373
42
0.569785697079483
0
ELLIPSE
5
AC
100
AcDbEntity
8
1
62
256
6
ByLayer
370
13
48
1
60
0
100
AcDbEllipse
10
17.088497
20
-4.901456
30
0
11
-63.1337992247459
21
38.8840043488611
31
0
210
0
220
0
230
1
40
0.072023
41
-1.52646667180176
42
-1.44429889419457
0
ELLIPSE
5
AD
100
AcDbEntity
8
1
62
256
6
ByLayer
370
13
48
1
60
0
100
AcDbEllipse
10
15.218651
20
-7.937422
30
0
11
-63.133799224746
21
38.8840043488612
31
0
210
0
220
0
230
1
40
0.072023
41
-1.52646667180176
42
-1.37383713731457
0
ELLIPSE
5
AE
100
AcDbEntity
8
1
62
256
6
ByLayer
370
13
48
1
60
0
100
AcDbEllipse
10
5.809689
20
-5.019003
30
0
11
0.049497278682129
21
0.295888525298065
31
0
210
0
220
0
230
1
40
0.431245
41
0.365118953843908
42
1.31467565226798
0
POINT
5
70
100
AcDbEntity
8
80
62
256
6
ByLayer
370
18
48
1
60
0
100
AcDbPoint
10
0
20
0
30
0
39
0
210
0
220
0
230
1
50
360
0
POINT
5
72
100
AcDbEntity
8
81
62
256
6
ByLayer
370
18
48
1
60
0
100
AcDbPoint
10
73
20
0
30
0
39
0
210
0
220
0
230
1
50
360
0
POINT
5
74
100
AcDbEntity
8
1
62
256
6
ByLayer
370
18
48
1
60
1
100
AcDbPoint
10
70.9845
20
-5.25
30
0
39
0
210
0
220
0
230
1
50
360
0
POINT
5
76
100
AcDbEntity
8
1
62
256
6
ByLayer
370
18
48
1
60
1
100
AcDbPoint
10
-45
20
-6
30
0
39
0
210
0
220
0
230
1
50
360
0
POINT
5
77
100
AcDbEntity
8
1
62
256
6
ByLayer
370
18
48
1
60
1
100
AcDbPoint
10
18.48
20
5.25
30
0
39
0
210
0
220
0
230
1
50
360
0
POINT
5
78
100
AcDbEntity
8
1
62
256
6
ByLayer
370
18
48
1
60
1
100
AcDbPoint
10
70.9845
20
-5.25
30
0
39
0
210
0
220
0
230
1
50
360
0
POINT
5
79
100
AcDbEntity
8
1
62
256
6
ByLayer
370
18
48
1
60
1
100
AcDbPoint
10
-45
20
-6
30
0
39
0
210
0
220
0
230
1
50
360
0
POINT
5
7A
100
AcDbEntity
8
1
62
256
6
ByLayer
370
18
48
1
60
1
100
AcDbPoint
10
70.9845
20
-5.25
30
0
39
0
210
0
220
0
230
1
50
360
0
SPLINE
5
AF
100
AcDbEntity
8
1
62
256
6
ByLayer
370
13
48
1
60
0
100
AcDbSpline
70
4
71
3
72
32
73
28
40
0
40
0
40
0
40
0
40
0.162068091246171
40
0.162068091246171
40
0.243102136869256
40
0.243102136869256
40
0.283619159680799
40
0.283619159680799
40
0.324136182492341
40
0.324136182492341
40
0.486204273738512
40
0.486204273738512
40
0.567238319361597
40
0.567238319361597
40
0.60775534217314
40
0.60775534217314
40
0.648272364984682
40
0.648272364984682
40
0.810340456230852
40
0.810340456230852
40
0.891374501853936
40
0.891374501853936
40
0.931891524665479
40
0.931891524665479
40
0.972408547477021
40
0.972408547477021
40
1
40
1
40
1
40
1
41
1
10
71.0408686582416
20
-4.88291699405681
30
0
41
1
10
69.6760415883115
20
-4.67720569732438
30
0
41
1
10
68.3283114865653
20
-4.34712007686366
30
0
41
1
10
66.3029224877039
20
-3.700792114613
30
0
41
1
10
65.6271276167664
20
-3.46020734735339
30
0
41
1
10
64.6086446409539
20
-3.06677092175883
30
0
41
1
10
64.2683655341076
20
-2.93019447264754
30
0
41
1
10
63.5855729072526
20
-2.64711111668473
30
0
41
1
10
63.243055320976
20
-2.50059223001256
30
0
41
1
10
61.5402806909071
20
-1.75331206987713
30
0
41
1
10
60.1958244966008
20
-1.10284999994454
30
0
41
1
10
58.1755489143991
20
-0.110744004915887
30
0
41
1
10
57.501587542719
20
0.222846902480683
30
0
41
1
10
56.4861360228776
20
0.719832939449162
30
0
41
1
10
56.1469397242271
20
0.885002336312397
30
0
41
1
10
55.4663431794448
20
1.21272696230139
30
0
41
1
10
55.1243268478173
20
1.3754959095717
30
0
41
1
10
53.4140968771927
20
2.17679316494642
30
0
41
1
10
52.0639914562929
20
2.76793149533819
30
0
41
1
10
50.0355389236992
20
3.52804013865486
30
0
41
1
10
49.358899806875
20
3.76051515824477
30
0
41
1
10
48.3392683648489
20
4.07162634353384
30
0
41
1
10
47.9986800590349
20
4.16917200468362
30
0
41
1
10
47.315301293738
20
4.3507421255317
30
0
41
1
10
46.9723150238449
20
4.43472712361111
30
0
41
1
10
46.3987386760126
20
4.56283988345916
30
0
41
1
10
46.1668269976614
20
4.61120055367056
30
0
41
1
10
45.9352658574179
20
4.65598220504327
30
0
0
SPLINE
5
B0
100
AcDbEntity
8
1
62
256
6
ByLayer
370
18
48
1
60
0
100
AcDbSpline
70
4
71
3
72
10
73
6
40
0
40
0
40
0
40
0
40
0.627950569012464
40
0.627950569012464
40
1
40
1
40
1
40
1
41
1
10
9.33666156767126
20
-5.00857768163746
30
0
41
1
10
8.84094727603008
20
-5.01057069408651
30
0
41
1
10
8.34541218908907
20
-4.99525550787462
30
0
41
1
10
7.55523068647443
20
-4.94373309700214
30
0
41
1
10
7.2609840739091
20
-4.91858365586262
30
0
41
1
10
6.96627063341893
20
-4.88744186934966
30
0
0
SPLINE
5
B1
100
AcDbEntity
8
1
62
256
6
ByLayer
370
13
48
1
60
0
100
AcDbSpline
70
4
71
3
72
8
73
4
40
0
40
0
40
0
40
0
40
1
40
1
40
1
40
1
41
1
10
6.96627061751138
20
-4.88744186766871
30
0
41
1
10
6.58191464608325
20
-4.8468277318849
30
0
41
1
10
6.19676466787499
20
-4.79602148340939
30
0
41
1
10
5.81036197252396
20
-4.73499697433985
30
0
0
SPLINE
5
B2
100
AcDbEntity
8
1
62
256
6
ByLayer
370
18
48
1
60
0
100
AcDbSpline
70
4
71
3
72
8
73
4
40
0
40
0
40
0
40
0
40
1
40
1
40
1
40
1
41
1
10
72.4236998874808
20
1.69912919261472
30
0
41
1
10
72.2217920238161
20
2.28538652018594
30
0
41
1
10
72.0211266469088
20
2.87206963907883
30
0
41
1
10
71.821709190925
20
3.45918041154326
30
0
0
SPLINE
5
B3
100
AcDbEntity
8
1
62
256
6
ByLayer
370
18
48
1
60
0
100
AcDbSpline
70
4
71
3
72
18
73
14
40
0
40
0
40
0
40
0
40
0.25
40
0.25
40
0.375
40
0.375
40
0.5
40
0.5
40
0.750000000000001
40
0.750000000000001
40
0.875
40
0.875
40
1
40
1
40
1
40
1
41
1
10
70.5963330523771
20
0.543428728050003
30
0
41
1
10
70.5423138256077
20
0.282222395125928
30
0
41
1
10
70.4984240629346
20
0.0203682298715648
30
0
41
1
10
70.4478077720566
20
-0.373386311471336
30
0
41
1
10
70.4334830346675
20
-0.504800742250751
30
0
41
1
10
70.4100715682035
20
-0.767964601900303
30
0
41
1
10
70.400959969541
20
-0.900301189610303
30
0
41
1
10
70.3820437095596
20
-1.29345095943981
30
0
41
1
10
70.3805961074006
20
-1.54833363519259
30
0
41
1
10
70.3946403155254
20
-1.92017405628079
30
0
41
1
10
70.4020369546136
20
-2.04236542953589
30
0
41
1
10
70.4223215130999
20
-2.28319799566663
30
0
41
1
10
70.4352584222885
20
-2.40216799546195
30
0
41
1
10
70.4508849734521
20
-2.51835926747154
30
0
0
SPLINE
5
B4
100
AcDbEntity
8
1
62
256
6
ByLayer
370
18
48
1
60
0
100
AcDbSpline
70
4
71
3
72
8
73
4
40
0
40
0
40
0
40
0
40
1
40
1
40
1
40
1
41
1
10
71.0705120423475
20
-5.08653009050474
30
0
41
1
10
71.0797574553311
20
-5.04817459606397
30
0
41
1
10
71.0862602607955
20
-5.01242064909624
30
0
41
1
10
71.0896670236484
20
-4.98250158235538
30
0
0
SPLINE
5
B5
100
AcDbEntity
8
1
62
256
6
ByLayer
370
18
48
1
60
0
100
AcDbSpline
70
4
71
3
72
10
73
6
40
0
40
0
40
0
40
0
40
0.5
40
0.5
40
1
40
1
40
1
40
1
41
1
10
71.0896670236441
20
-4.98250158239532
30
0
41
1
10
71.0855688103469
20
-4.95849134599158
30
0
41
1
10
71.0787401219831
20
-4.93855452490055
30
0
41
1
10
71.062051721115
20
-4.90599768664697
30
0
41
1
10
71.0520151642451
20
-4.89300749217423
30
0
41
1
10
71.0408686582416
20
-4.88291699405681
30
0
0
SPLINE
5
B6
100
AcDbEntity
8
1
62
256
6
ByLayer
370
13
48
1
60
0
100
AcDbSpline
70
4
71
3
72
84
73
80
40
0
40
0
40
0
40
0
40
0.0312295220721547
40
0.0393057034024048
40
0.0473818847326544
40
0.063534247393155
40
0.0716104287234052
40
0.0796866100536556
40
0.0958389727141557
40
0.103915154044406
40
0.111991335374654
40
0.128143698035156
40
0.136219879365406
40
0.144296060695656
40
0.160448423356156
40
0.176600786016655
40
0.192753148677157
40
0.225057873998157
40
0.233134055328408
40
0.241210236658657
40
0.257362599319158
40
0.265438780649407
40
0.273514961979658
40
0.289667324640158
40
0.297743505970408
40
0.305819687300658
40
0.321972049961158
40
0.330048231291408
40
0.338124412621659
40
0.354276775282159
40
0.370429137942659
40
0.386581500603159
40
0.41888622592416
40
0.426962407254409
40
0.435038588584659
40
0.45119095124516
40
0.45926713257541
40
0.46734331390566
40
0.48349567656616
40
0.491571857896411
40
0.49964803922666
40
0.515800401887161
40
0.523876583217411
40
0.531952764547661
40
0.548105127208161
40
0.564257489868661
40
0.580409852529162
40
0.612714577850162
40
0.620790759180412
40
0.628866940510662
40
0.645019303171163
40
0.653095484501412
40
0.661171665831663
40
0.677324028492163
40
0.685400209822413
40
0.693476391152663
40
0.709628753813163
40
0.717704935143413
40
0.725781116473663
40
0.741933479134163
40
0.750009660464414
40
0.758085841794664
40
0.774238204455164
40
0.782314385785414
40
0.790390567115664
40
0.806542929776164
40
0.814619111106415
40
0.822695292436666
40
0.838847655097165
40
0.846923836427415
40
0.855000017757665
40
0.871152380418165
40
0.887304743078665
40
0.903457105739166
40
0.927685649729917
40
0.935761831060166
40
0.951914193720667
40
0.968066556381166
40
1
40
1
40
1
40
1
41
1
10
55.8079598987806
20
0.0239543144868719
30
0
41
1
10
55.5889240537121
20
0.07420808790107
30
0
41
1
10
55.3132859144488
20
0.137575607071596
30
0
41
1
10
54.9810601353989
20
0.213936352989691
30
0
41
1
10
54.7544814136622
20
0.265671514633169
30
0
41
1
10
54.5279196241244
20
0.31733586577289
30
0
41
1
10
54.3013728704586
20
0.36889252258706
30
0
41
1
10
54.0747934924217
20
0.420180931182159
30
0
41
1
10
53.8482316509674
20
0.471315666028999
30
0
41
1
10
53.6216852629137
20
0.522260511182821
30
0
41
1
10
53.3951062391622
20
0.572876768811028
30
0
41
1
10
53.1685448298584
20
0.623258503344004
30
0
41
1
10
52.9419986802205
20
0.673370263580039
30
0
41
1
10
52.7154192675035
20
0.723095469359549
30
0
41
1
10
52.4321934915256
20
0.784771997153938
30
0
41
1
10
52.0923457304717
20
0.858047594429762
30
0
41
1
10
51.6391513562735
20
0.954211751509717
30
0
41
1
10
51.2427006861438
20
1.03697774937836
30
0
41
1
10
50.9029358231951
20
1.1067022265199
30
0
41
1
10
50.6763569740856
20
1.15248735544168
30
0
41
1
10
50.4497950184251
20
1.19773144389921
30
0
41
1
10
50.22324810371
20
1.24240131123608
30
0
41
1
10
49.9966685438997
20
1.28647058198047
30
0
41
1
10
49.770106540266
20
1.32992765035121
30
0
41
1
10
49.5435600825106
20
1.37274045066667
30
0
41
1
10
49.3169810264884
20
1.4149055024447
30
0
41
1
10
49.0904196169765
20
1.45638956919421
30
0
41
1
10
48.863873469511
20
1.49716106873046
30
0
41
1
10
48.637294077964
20
1.53724005423646
30
0
41
1
10
48.3540683343536
20
1.58631000285462
30
0
41
1
10
48.0142203986958
20
1.64359900910168
30
0
41
1
10
47.5610255657687
20
1.71731375471992
30
0
41
1
10
47.1645745436878
20
1.77900266241039
30
0
41
1
10
46.8248098305529
20
1.8296675926357
30
0
41
1
10
46.5982311423542
20
1.86248478988057
30
0
41
1
10
46.3716694056421
20
1.89437606764033
30
0
41
1
10
46.1451227005433
20
1.92531563825346
30
0
41
1
10
45.9185433380045
20
1.95541452694718
30
0
41
1
10
45.6919814681715
20
1.9845360961533
30
0
41
1
10
45.465435035155
20
2.01265591421284
30
0
41
1
10
45.2388559949089
20
2.03990682761048
30
0
41
1
10
45.0122946048927
20
2.06613266380446
30
0
41
1
10
44.7857484993704
20
2.09131046946032
30
0
41
1
10
44.5591691265282
20
2.11559456019816
30
0
41
1
10
44.2759433952542
20
2.14452700353911
30
0
41
1
10
43.9360956830546
20
2.17703176120526
30
0
41
1
10
43.4829013798329
20
2.21697240392493
30
0
41
1
10
43.0864507735867
20
2.24810493122103
30
0
41
1
10
42.7466859725766
20
2.27192895930395
30
0
41
1
10
42.5201071772618
20
2.28673886811876
30
0
41
1
10
42.2935452903993
20
2.30038139655443
30
0
41
1
10
42.0669984356059
20
2.31284175871005
30
0
41
1
10
41.8404188999839
20
2.32435093771912
30
0
41
1
10
41.6138568714858
20
2.33466838573227
30
0
41
1
10
41.3873103652759
20
2.34378079104633
30
0
41
1
10
41.1607312834077
20
2.35193719161961
30
0
41
1
10
40.9341698731807
20
2.35888339847793
30
0
41
1
10
40.7076237741719
20
2.36460972250097
30
0
41
1
10
40.4810445626529
20
2.36938054157886
30
0
41
1
10
40.2544822907684
20
2.37292856504257
30
0
41
1
10
40.0279350374294
20
2.37524516603221
30
0
41
1
10
39.8013551352817
20
2.37660945987372
30
0
41
1
10
39.5747927983888
20
2.37674211184827
30
0
41
1
10
39.3482460968004
20
2.37563690692772
30
0
41
1
10
39.121666938914
20
2.3735863007457
30
0
41
1
10
38.8951056529243
20
2.3702988605921
30
0
41
1
10
38.6685599365701
20
2.36576884353735
30
0
41
1
10
38.4419812830928
20
2.36030398499918
30
0
41
1
10
38.2154198287265
20
2.3536046925046
30
0
41
1
10
37.9888734596188
20
2.34567141673145
30
0
41
1
10
37.7622941371817
20
2.3368210885236
30
0
41
1
10
37.4790689292468
20
2.324183226434
30
0
41
1
10
37.1392217216678
20
2.30656183306206
30
0
41
1
10
36.7427078066029
20
2.28305706522712
30
0
41
1
10
36.4028927134463
20
2.25991903257824
30
0
41
1
10
36.0630726275667
20
2.23433101543546
30
0
41
1
10
35.779845716093
20
2.21143045525269
30
0
41
1
10
35.3292564948968
20
2.17181214809037
30
0
41
1
10
34.9920446065112
20
2.13877766301607
30
0
41
1
10
34.7681305599193
20
2.11537202955608
30
0
0
SPLINE
5
B7
100
AcDbEntity
8
1
62
256
6
ByLayer
370
18
48
1
60
0
100
AcDbSpline
70
4
71
3
72
8
73
4
40
0
40
0
40
0
40
0
40
1
40
1
40
1
40
1
41
1
10
71.1380123048245
20
-5.19459210432822
30
0
41
1
10
71.3639527768228
20
-4.63571481079381
30
0
41
1
10
71.5946050521233
20
-4.05868583492759
30
0
41
1
10
71.8217091909249
20
-3.4591804115434
30
0
0
SPLINE
5
B8
100
AcDbEntity
8
1
62
256
6
ByLayer
370
18
48
1
60
0
100
AcDbSpline
70
4
71
3
72
12
73
8
40
0
40
0
40
0
40
0
40
0.249999999999992
40
0.249999999999992
40
0.499999999999984
40
0.499999999999984
40
1
40
1
40
1
40
1
41
1
10
5.32878030325634
20
-4.82251281803903
30
0
41
1
10
5.34296517898329
20
-4.83619724018251
30
0
41
1
10
5.36657891197407
20
-4.84756792266941
30
0
41
1
10
5.42189518497619
20
-4.86803053937649
30
0
41
1
10
5.45292716023252
20
-4.87671016170842
30
0
41
1
10
5.55138316496195
20
-4.90029953379167
30
0
41
1
10
5.62393798021361
20
-4.91277668248915
30
0
41
1
10
5.69878952936352
20
-4.92339600871281
30
0
0
SPLINE
5
B9
100
AcDbEntity
8
1
62
256
6
ByLayer
370
18
48
1
60
0
100
AcDbSpline
70
4
71
3
72
8
73
4
40
0
40
0
40
0
40
0
40
1
40
1
40
1
40
1
41
1
10
71.1380123048245
20
5.19459210432822
30
0
41
1
10
71.363939921912
20
4.6357466081856
30
0
41
1
10
71.594591837499
20
4.05872071865531
30
0
41
1
10
71.821709190925
20
3.45918041154323
30
0
0
SPLINE
5
BA
100
AcDbEntity
8
1
62
256
6
ByLayer
370
18
48
1
60
0
100
AcDbSpline
70
4
71
3
72
8
73
4
40
0
40
0
40
0
40
0
40
1
40
1
40
1
40
1
41
1
10
5.31724540592256
20
-4.80041815364723
30
0
41
1
10
5.31721806493954
20
-4.80814795555904
30
0
41
1
10
5.3214891757184
20
-4.81547892722091
30
0
41
1
10
5.3287803032562
20
-4.82251281803889
30
0
0
SPLINE
5
BB
100
AcDbEntity
8
1
62
256
6
ByLayer
370
18
48
1
60
0
100
AcDbSpline
70
4
71
3
72
8
73
4
40
0
40
0
40
0
40
0
40
1
40
1
40
1
40
1
41
1
10
70.5963330523771
20
0.543428728050003
30
0
41
1
10
70.8332698682387
20
0.438581105591823
30
0
41
1
10
71.0717822913567
20
0.341711772217337
30
0
41
1
10
71.3120181134017
20
0.253569089974008
30
0
0
SPLINE
5
BC
100
AcDbEntity
8
1
62
256
6
ByLayer
370
13
48
1
60
0
100
AcDbSpline
70
4
71
3
72
88
73
84
40
0
40
0
40
0
40
0
40
0.0051611888726996
40
0.0132699796524888
40
0.0294875612120676
40
0.0375963519918569
40
0.0457051427716464
40
0.0619227243312249
40
0.0700315151110145
40
0.0781403058908037
40
0.0943578874503825
40
0.102466678230173
40
0.110575469009962
40
0.12679305056954
40
0.134901841349331
40
0.143010632129118
40
0.159228213688697
40
0.167337004468487
40
0.175445795248277
40
0.191663376807855
40
0.199772167587645
40
0.207880958367433
40
0.224098539927012
40
0.232207330706802
40
0.24031612148659
40
0.25653370304617
40
0.264642493825959
40
0.272751284605748
40
0.288968866165327
40
0.305186447724906
40
0.321404029284485
40
0.353839192403642
40
0.361947983183431
40
0.37005677396322
40
0.386274355522799
40
0.394383146302589
40
0.402491937082379
40
0.418709518641957
40
0.426818309421747
40
0.434927100201534
40
0.451144681761114
40
0.459253472540904
40
0.467362263320693
40
0.483579844880272
40
0.499797426439849
40
0.51601500799943
40
0.548450171118587
40
0.556558961898377
40
0.564667752678165
40
0.580885334237744
40
0.588994125017533
40
0.597102915797323
40
0.613320497356902
40
0.621429288136691
40
0.62953807891648
40
0.645755660476059
40
0.653864451255848
40
0.661973242035638
40
0.678190823595217
40
0.694408405154795
40
0.710625986714374
40
0.743061149833532
40
0.75116994061332
40
0.75927873139311
40
0.775496312952689
40
0.783605103732478
40
0.791713894512268
40
0.807931476071846
40
0.816040266851636
40
0.824149057631425
40
0.840366639191004
40
0.848475429970793
40
0.856584220750583
40
0.872801802310161
40
0.88901938386974
40
0.905236965429319
40
0.937672128548476
40
0.945780919328265
40
0.953889710108055
40
0.970107291667634
40
0.978216082447423
40
0.986324873227212
40
1
40
1
40
1
40
1
41
1
10
60.6959684564556
20
-2.12489292927177
30
0
41
1
10
60.6599152548479
20
-2.12859958145205
30
0
41
1
10
60.5672192509001
20
-2.13802942838578
30
0
41
1
10
60.361261316064
20
-2.15837978015657
30
0
41
1
10
60.1346980773636
20
-2.17962270023222
30
0
41
1
10
59.9081193931604
20
-2.19971584609277
30
0
41
1
10
59.6815733865849
20
-2.21896552993243
30
0
41
1
10
59.4550098662826
20
-2.23704607911134
30
0
41
1
10
59.2284311236186
20
-2.25395071097222
30
0
41
1
10
59.0018854691118
20
-2.26998243249992
30
0
41
1
10
58.7753228693607
20
-2.28482040296328
30
0
41
1
10
58.5487450905997
20
-2.29845914788288
30
0
41
1
10
58.3221997153589
20
-2.31119903949315
30
0
41
1
10
58.0956365267682
20
-2.32272752666728
30
0
41
1
10
57.8690576612594
20
-2.33304502208293
30
0
41
1
10
57.6425113862587
20
-2.34244437595078
30
0
41
1
10
57.4159474978213
20
-2.35062137242403
30
0
41
1
10
57.1893683782499
20
-2.35757704898018
30
0
41
1
10
56.9628223464719
20
-2.36359728570508
30
0
41
1
10
56.7362593552236
20
-2.36838746935422
30
0
41
1
10
56.5096812703179
20
-2.37195081960201
30
0
41
1
10
56.2831357840381
20
-2.37456463200587
30
0
41
1
10
56.0565727129039
20
-2.37594435664837
30
0
41
1
10
55.8299940953095
20
-2.37609479556789
30
0
41
1
10
55.6034480853613
20
-2.37528554055461
30
0
41
1
10
55.3768844809156
20
-2.37324478236008
30
0
41
1
10
55.1503056527446
20
-2.36998206706741
30
0
41
1
10
54.9237600431306
20
-2.36575573421001
30
0
41
1
10
54.6405795318395
20
-2.35887632632108
30
0
41
1
10
54.3007399704316
20
-2.3481639194585
30
0
41
1
10
53.8476847647435
20
-2.33025470405087
30
0
41
1
10
53.4511670704198
20
-2.31048254730072
30
0
41
1
10
53.1112443643697
20
-2.2906214430586
30
0
41
1
10
52.8846980751017
20
-2.27630313214712
30
0
41
1
10
52.6581348651656
20
-2.26081638650612
30
0
41
1
10
52.431556629496
20
-2.24418077209433
30
0
41
1
10
52.2050109962387
20
-2.22660201034591
30
0
41
1
10
51.9784478381512
20
-2.20788569916232
30
0
41
1
10
51.7518692369871
20
-2.18805291870484
30
0
41
1
10
51.5253232495364
20
-2.16729333492523
30
0
41
1
10
51.2987596594292
20
-2.14543079466611
30
0
41
1
10
51.0721808199152
20
-2.12248799051267
30
0
41
1
10
50.8456352212052
20
-2.09863820897681
30
0
41
1
10
50.5624547321244
20
-2.06740686740764
30
0
41
1
10
50.2226149908394
20
-2.02780819788532
30
0
41
1
10
49.7695593184722
20
-1.97179297528584
30
0
41
1
10
49.3730412609057
20
-1.91941361995623
30
0
41
1
10
49.0331186764829
20
-1.87218980753704
30
0
41
1
10
48.8065725145197
20
-1.83973481322215
30
0
41
1
10
48.5800094706451
20
-1.80635804623071
30
0
41
1
10
48.3534313959964
20
-1.77208934811156
30
0
41
1
10
48.1268859444857
20
-1.73702946137593
30
0
41
1
10
47.9003229485698
20
-1.70110290118703
30
0
41
1
10
47.6737444171366
20
-1.66434083975125
30
0
41
1
10
47.4471984620006
20
-1.6268252788455
30
0
41
1
10
47.2206348721596
20
-1.58850230554557
30
0
41
1
10
46.9940560305403
20
-1.5494051427448
30
0
41
1
10
46.7675104107434
20
-1.50959617301712
30
0
41
1
10
46.4843298894134
20
-1.45881040995084
30
0
41
1
10
46.1444903227748
20
-1.39640917057204
30
0
41
1
10
45.6914351090622
20
-1.3108919531339
30
0
41
1
10
45.2949174033627
20
-1.23394485016215
30
0
41
1
10
44.9549946692134
20
-1.166596794588
30
0
41
1
10
44.7284483464087
20
-1.12097795008538
30
0
41
1
10
44.5018850836579
20
-1.07482316619905
30
0
41
1
10
44.2753067994387
20
-1.02816947386233
30
0
41
1
10
44.0487611506869
20
-0.980997869177401
30
0
41
1
10
43.8221980209621
20
-0.933364059901976
30
0
41
1
10
43.5956194647367
20
-0.885305931311137
30
0
41
1
10
43.3690734937709
20
-0.836784568589962
30
0
41
1
10
43.1425098843802
20
-0.787877321036632
30
0
41
1
10
42.9159310007549
20
-0.738622996885738
30
0
41
1
10
42.6893853621661
20
-0.688962817782141
30
0
41
1
10
42.4062048283697
20
-0.62641779182195
30
0
41
1
10
42.0663650382301
20
-0.550796694222441
30
0
41
1
10
41.6133092949006
20
-0.448913169025417
30
0
41
1
10
41.2167911734648
20
-0.359218336067897
30
0
41
1
10
40.8768685271003
20
-0.282086986726171
30
0
41
1
10
40.650322311345
20
-0.230307624702846
30
0
41
1
10
40.4237591986845
20
-0.178458841282463
30
0
41
1
10
40.1971810641306
20
-0.126579431540819
30
0
41
1
10
39.9883935268479
20
-0.0786137235602382
30
0
41
1
10
39.8362318364063
20
-0.0436666972360626
30
0
41
1
10
39.7407066813988
20
-0.0217389769162253
30
0
0
SPLINE
5
BD
100
AcDbEntity
8
1
62
256
6
ByLayer
370
18
48
1
60
0
100
AcDbSpline
70
4
71
3
72
8
73
4
40
0
40
0
40
0
40
0
40
1
40
1
40
1
40
1
41
1
10
72.4236998874783
20
-1.69912919262197
30
0
41
1
10
72.2217914113206
20
-2.28538829862077
30
0
41
1
10
72.0211260410919
20
-2.87207142268215
30
0
41
1
10
71.8217091909249
20
-3.45918041154343
30
0
0
SPLINE
5
BE
100
AcDbEntity
8
1
62
256
6
ByLayer
370
18
48
1
60
0
100
AcDbSpline
70
4
71
3
72
22
73
18
40
0
40
0
40
0
40
0
40
0.250000000000004
40
0.250000000000004
40
0.375000000000004
40
0.375000000000004
40
0.500000000000003
40
0.500000000000003
40
0.625000000000003
40
0.625000000000003
40
0.750000000000002
40
0.750000000000002
40
0.875000000000001
40
0.875000000000001
40
0.937500000000001
40
0.937500000000001
40
1
40
1
40
1
40
1
41
1
10
5.81177534812542
20
2.23041422335905
30
0
41
1
10
5.75310312026414
20
2.3560039681083
30
0
41
1
10
5.69569717625967
20
2.48165940546221
30
0
41
1
10
5.61450201935784
20
2.67019816596115
30
0
41
1
10
5.58826094832909
20
2.7330535596559
30
0
41
1
10
5.53881126392483
20
2.85876361928044
30
0
41
1
10
5.51549539397604
20
2.92161965559828
30
0
41
1
10
5.47564412690468
20
3.04728155686092
30
0
41
1
10
5.45888495320457
20
3.11046393329522
30
0
41
1
10
5.44352507165638
20
3.23507529956439
30
0
41
1
10
5.44650231562758
20
3.29280654805612
30
0
41
1
10
5.46958984570506
20
3.40089566170263
30
0
41
1
10
5.48875625464089
20
3.45173131850766
30
0
41
1
10
5.52148463047149
20
3.52492709906949
30
0
41
1
10
5.53320844169554
20
3.54882493709326
30
0
41
1
10
5.55736316379552
20
3.59618613979873
30
0
41
1
10
5.56861694500384
20
3.62037331364294
30
0
41
1
10
5.57929678265549
20
3.6449134052331
30
0
0
SPLINE
5
BF
100
AcDbEntity
8
1
62
256
6
ByLayer
370
13
48
1
60
0
100
AcDbSpline
70
4
71
3
72
10
73
6
40
0
40
0
40
0
40
0
40
0.5
40
0.5
40
1
40
1
40
1
40
1
41
1
10
5.34690992768606
20
-4.7889626630251
30
0
41
1
10
5.41933852560732
20
-4.76207809620735
30
0
41
1
10
5.49585466464674
20
-4.7441044013112
30
0
41
1
10
5.65079920333022
20
-4.72623242013344
30
0
41
1
10
5.72984098820129
20
-4.72604367727268
30
0
41
1
10
5.81036197252393
20
-4.73499697433985
30
0
0
SPLINE
5
C0
100
AcDbEntity
8
1
62
256
6
ByLayer
370
18
48
1
60
0
100
AcDbSpline
70
4
71
3
72
10
73
6
40
0
40
0
40
0
40
0
40
0.557020874565994
40
0.557020874565994
40
1
40
1
40
1
40
1
41
1
10
41.6969845895225
20
-5.06696752557042
30
0
41
1
10
41.307588397066
20
-5.06612609568032
30
0
41
1
10
40.9174709547424
20
-5.05451331161115
30
0
41
1
10
40.2149251667341
20
-5.01412397483014
30
0
41
1
10
39.902751387852
20
-4.98933324481797
30
0
41
1
10
39.5899969988987
20
-4.95766765821486
30
0
0
SPLINE
5
C1
100
AcDbEntity
8
1
62
256
6
ByLayer
370
13
48
1
60
0
100
AcDbSpline
70
4
71
3
72
34
73
30
40
0
40
0
40
0
40
0
40
0.0035030146440502
40
0.0035030146440502
40
0.043759011179104
40
0.043759011179104
40
0.124271004249212
40
0.124271004249212
40
0.164527000784266
40
0.164527000784266
40
0.20478299731932
40
0.20478299731932
40
0.365806983459535
40
0.365806983459535
40
0.406062979994589
40
0.406062979994589
40
0.446318976529643
40
0.446318976529643
40
0.526830969599751
40
0.526830969599751
40
0.687854955739968
40
0.687854955739968
40
0.728110952275022
40
0.728110952275022
40
0.768366948810077
40
0.768366948810077
40
0.848878941880187
40
0.848878941880187
40
1
40
1
40
1
40
1
41
1
10
39.5899969990259
20
-4.95766765822771
30
0
41
1
10
39.5601876298815
20
-4.95464953540193
30
0
41
1
10
39.5303729862126
20
-4.95156895827
30
0
41
1
10
39.1578721929328
20
-4.9123070529223
30
0
41
1
10
38.8153430736188
20
-4.86803517797722
30
0
41
1
10
37.7874126349984
20
-4.71156763214205
30
0
41
1
10
37.1025444121941
20
-4.57562326575828
30
0
41
1
10
36.0746506386533
20
-4.32812775706054
30
0
41
1
10
35.7318472534401
20
-4.23829943748774
30
0
41
1
10
35.0490693301056
20
-4.04594533999543
30
0
41
1
10
34.7086001274711
20
-3.94332335371405
30
0
41
1
10
33.0095202088067
20
-3.40033260858857
30
0
41
1
10
31.6601821425637
20
-2.8702490480465
30
0
41
1
10
29.9613881501311
20
-2.12926320768202
30
0
41
1
10
29.6210450309155
20
-1.97711148828952
30
0
41
1
10
28.9383906223791
20
-1.66626806220879
30
0
41
1
10
28.5954345462566
20
-1.50724165368598
30
0
41
1
10
27.567915818983
20
-1.02393966724531
30
0
41
1
10
26.8872135975873
20
-0.695316561154186
30
0
41
1
10
24.8507398166393
20
0.294532134798146
30
0
41
1
10
23.5004118118627
20
0.959240643162246
30
0
41
1
10
21.7969476406965
20
1.74452944615425
30
0
41
1
10
21.4554702222239
20
1.89929443843508
30
0
41
1
10
20.7703186272128
20
2.20293015009119
30
0
41
1
10
20.4270290045692
20
2.35162709939206
30
0
41
1
10
19.4022405086722
20
2.78334682981873
30
0
41
1
10
18.7226929469157
20
3.05281956929463
30
0
41
1
10
16.7712975392046
20
3.76544336588452
30
0
41
1
10
15.5023999563759
20
4.15265596400093
30
0
41
1
10
14.2216160074667
20
4.44015136063314
30
0
0
SPLINE
5
C2
100
AcDbEntity
8
1
62
256
6
ByLayer
370
18
48
1
60
0
100
AcDbSpline
70
4
71
3
72
8
73
4
40
0
40
0
40
0
40
0
40
1
40
1
40
1
40
1
41
1
10
72.2489641276889
20
-1.06136854073674
30
0
41
1
10
72.2495278651681
20
-1.06193590414577
30
0
41
1
10
72.2500916139347
20
-1.06250325633979
30
0
41
1
10
72.250655373988
20
-1.06307059731813
30
0
0
SPLINE
5
C3
100
AcDbEntity
8
1
62
256
6
ByLayer
370
18
48
1
60
0
100
AcDbSpline
70
4
71
3
72
14
73
10
40
0
40
0
40
0
40
0
40
0.398644796572272
40
0.398644796572272
40
0.597967194858407
40
0.597967194858407
40
0.797289593144541
40
0.797289593144541
40
1
40
1
40
1
40
1
41
1
10
5.69878952934761
20
-4.92339600871057
30
0
41
1
10
6.38297522722425
20
-5.02046268543094
30
0
41
1
10
7.0663769428422
20
-5.08516761347857
30
0
41
1
10
8.09147350173924
20
-5.13180458665559
30
0
41
1
10
8.43366823672122
20
-5.13896531609117
30
0
41
1
10
9.11691757072288
20
-5.13645751113904
30
0
41
1
10
9.45800182578424
20
-5.12680752233356
30
0
41
1
10
10.1455610534002
20
-5.09054891076894
30
0
41
1
10
10.4920582976248
20
-5.06366027795977
30
0
41
1
10
10.8387115575025
20
-5.02827459197863
30
0
0
SPLINE
5
C4
100
AcDbEntity
8
1
62
256
6
ByLayer
370
18
48
1
60
0
100
AcDbSpline
70
4
71
3
72
52
73
48
40
0
40
0
40
0
40
0
40
0.0449875697309778
40
0.0449875697309778
40
0.0790951565263006
40
0.0790951565263006
40
0.113202743321623
40
0.113202743321623
40
0.18141791691227
40
0.18141791691227
40
0.215525503707593
40
0.215525503707593
40
0.249633090502916
40
0.249633090502916
40
0.317848264093563
40
0.317848264093563
40
0.351955850888885
40
0.351955850888885
40
0.386063437684208
40
0.386063437684208
40
0.420171024479531
40
0.420171024479531
40
0.454278611274854
40
0.454278611274854
40
0.522493784865499
40
0.522493784865499
40
0.556601371660822
40
0.556601371660822
40
0.590708958456145
40
0.590708958456145
40
0.658924132046789
40
0.658924132046789
40
0.693031718842111
40
0.693031718842111
40
0.727139305637434
40
0.727139305637434
40
0.795354479228076
40
0.795354479228076
40
0.829462066023398
40
0.829462066023398
40
0.863569652818719
40
0.863569652818719
40
0.931784826409359
40
0.931784826409359
40
0.96589241320468
40
0.96589241320468
40
1
40
1
40
1
40
1
41
1
10
41.1692113913368
20
5.19632540326032
30
0
41
1
10
41.6177561731163
20
5.19694241345385
30
0
41
1
10
42.0662450041828
20
5.18291050039588
30
0
41
1
10
42.8560503221046
20
5.13248764468042
30
0
41
1
10
43.1974610714048
20
5.10228008617602
30
0
41
1
10
43.878938559607
20
5.02542243969793
30
0
41
1
10
44.219161657575
20
4.97878777236343
30
0
41
1
10
45.2393748221975
20
4.81499805809432
30
0
41
1
10
45.9187812479381
20
4.67385613110184
30
0
41
1
10
46.9409142392103
20
4.41728807391914
30
0
41
1
10
47.2822047583193
20
4.32425642711576
30
0
41
1
10
47.9630493671489
20
4.12477920265673
30
0
41
1
10
48.3030406342918
20
4.0182589777329
30
0
41
1
10
49.3228152175225
20
3.67980143193955
30
0
41
1
10
50.002201987847
20
3.42868593729577
30
0
41
1
10
51.0248161109172
20
3.01959064780345
30
0
41
1
10
51.3655852417315
20
2.87811930134723
30
0
41
1
10
52.0458877743403
20
2.58663040746524
30
0
41
1
10
52.385682375648
20
2.4365306870148
30
0
41
1
10
53.065264577102
20
2.12887200556892
30
0
41
1
10
53.4050561324909
20
1.9713215106928
30
0
41
1
10
54.085252168193
20
1.64987375127933
30
0
41
1
10
54.4259292820335
20
1.48588714864303
30
0
41
1
10
55.4483139709639
20
0.987302330873916
30
0
41
1
10
56.1274245587168
20
0.647091745212691
30
0
41
1
10
57.1465554603349
20
0.133323348652965
30
0
41
1
10
57.4863699540169
20
-0.0384541440205624
30
0
41
1
10
58.1667705469926
20
-0.381933601508678
30
0
41
1
10
58.5078045534592
20
-0.553773696619942
30
0
41
1
10
59.5290612124118
20
-1.06507602236633
30
0
41
1
10
60.207813854678
20
-1.40049057376777
30
0
41
1
10
61.2267763105547
20
-1.88780759252765
30
0
41
1
10
61.5666196297867
20
-2.04751962389511
30
0
41
1
10
62.2472645845546
20
-2.36038759230596
30
0
41
1
10
62.5881861796615
20
-2.51354179483863
30
0
41
1
10
63.6084311452699
20
-2.95905101803322
30
0
41
1
10
64.286831340565
20
-3.23830613892289
30
0
41
1
10
65.3059044834741
20
-3.62399583761714
30
0
41
1
10
65.6458673107366
20
-3.74699398624398
30
0
41
1
10
66.326890575641
20
-3.98098823565525
30
0
41
1
10
66.6671146079222
20
-4.09166215129414
30
0
41
1
10
67.6850606349025
20
-4.40259819880632
30
0
41
1
10
68.3613258547085
20
-4.58211580851247
30
0
41
1
10
69.3760811209353
20
-4.80607856565157
30
0
41
1
10
69.7144047962018
20
-4.87317481985608
30
0
41
1
10
70.391767901514
20
-4.99172784851535
30
0
41
1
10
70.7306042285032
20
-5.04328642845221
30
0
41
1
10
71.0705120423475
20
-5.08653009050471
30
0
0
SPLINE
5
C5
100
AcDbEntity
8
1
62
256
6
ByLayer
370
18
48
1
60
0
100
AcDbSpline
70
4
71
3
72
10
73
6
40
0
40
0
40
0
40
0
40
0.5
40
0.5
40
1
40
1
40
1
40
1
41
1
10
11.9016731984628
20
4.51490306036317
30
0
41
1
10
12.9337688635908
20
4.30575488715692
30
0
41
1
10
13.9635776127293
20
4.05402754995646
30
0
41
1
10
16.0165120541331
20
3.46674612400042
30
0
41
1
10
17.0396546430629
20
3.13121092684017
30
0
41
1
10
18.058814188183
20
2.74616111221542
30
0
0
SPLINE
5
C6
100
AcDbEntity
8
1
62
256
6
ByLayer
370
18
48
1
60
0
100
AcDbSpline
70
4
71
3
72
8
73
4
40
0
40
0
40
0
40
0
40
1
40
1
40
1
40
1
41
1
10
71.7951594461398
20
2.37491615279615
30
0
41
1
10
71.7932292426686
20
2.38802477005953
30
0
41
1
10
71.791540194084
20
2.40117319160819
30
0
41
1
10
71.7901081922985
20
2.41434914586557
30
0
0
SPLINE
5
C7
100
AcDbEntity
8
1
62
256
6
ByLayer
370
18
48
1
60
0
100
AcDbSpline
70
4
71
3
72
56
73
52
40
0
40
0
40
0
40
0
40
0.0031202119976533
40
0.0031202119976533
40
0.0325562150799232
40
0.0325562150799232
40
0.0914282212444628
40
0.0914282212444628
40
0.120864224326733
40
0.120864224326733
40
0.150300227409003
40
0.150300227409003
40
0.209172233573544
40
0.209172233573544
40
0.238608236655814
40
0.238608236655814
40
0.268044239738084
40
0.268044239738084
40
0.326916245902626
40
0.326916245902626
40
0.385788252067167
40
0.385788252067167
40
0.415224255149438
40
0.415224255149438
40
0.444660258231709
40
0.444660258231709
40
0.50353226439625
40
0.50353226439625
40
0.53296826747852
40
0.53296826747852
40
0.562404270560791
40
0.562404270560791
40
0.621276276725333
40
0.621276276725333
40
0.650712279807603
40
0.650712279807603
40
0.680148282889874
40
0.680148282889874
40
0.739020289054413
40
0.739020289054413
40
0.797892295218953
40
0.797892295218953
40
0.856764301383493
40
0.856764301383493
40
0.886200304465763
40
0.886200304465763
40
0.915636307548033
40
0.915636307548033
40
0.974508313712573
40
0.974508313712573
40
1
40
1
40
1
40
1
41
1
10
8.66676681978547
20
5.1378267470094
30
0
41
1
10
8.70299208232777
20
5.13788267070723
30
0
41
1
10
8.73921220704997
20
5.13784407513978
30
0
41
1
10
9.11706523791307
20
5.13645478935868
30
0
41
1
10
9.45816411906503
20
5.12680184694844
30
0
41
1
10
10.4808557133814
20
5.07286129256417
30
0
41
1
10
11.1619562028788
20
5.00361306046139
30
0
41
1
10
12.1863938957676
20
4.85105829286786
30
0
41
1
10
12.5285470099933
20
4.79206077735986
30
0
41
1
10
13.2111840670073
20
4.65885930502441
30
0
41
1
10
13.5520361320264
20
4.58458490804597
30
0
41
1
10
14.5742420112758
20
4.33974005905421
30
0
41
1
10
15.2553285260775
20
4.14723598073758
30
0
41
1
10
16.2801199963201
20
3.81844938199959
30
0
41
1
10
16.6218803527795
20
3.70235508419935
30
0
41
1
10
17.3039790751821
20
3.45891541292394
30
0
41
1
10
17.6446377539292
20
3.33141751611674
30
0
41
1
10
18.6664718146425
20
2.9331828687844
30
0
41
1
10
19.3477036953935
20
2.64680852759642
30
0
41
1
10
20.7144912819101
20
2.04049263705224
30
0
41
1
10
21.3955131867318
20
1.72315881744205
30
0
41
1
10
22.4171401338825
20
1.23291710445602
30
0
41
1
10
22.7576962889631
20
1.06712478759343
30
0
41
1
10
23.4395545539087
20
0.732175374700176
30
0
41
1
10
23.7812267717721
20
0.562790102296731
30
0
41
1
10
24.8052803575366
20
0.0528666028845066
30
0
41
1
10
25.485893812776
20
-0.288505502454171
30
0
41
1
10
26.5072771683859
20
-0.795472821803372
30
0
41
1
10
26.8478800177735
20
-0.963484307104466
30
0
41
1
10
27.5299480452107
20
-1.29639267908974
30
0
41
1
10
27.8717253977966
20
-1.46152169185058
30
0
41
1
10
28.8948212338818
20
-1.94798681218967
30
0
41
1
10
29.5750644619996
20
-2.26081593438929
30
0
41
1
10
30.5963869365794
20
-2.70613599450439
30
0
41
1
10
30.9370209310251
20
-2.85052928120393
30
0
41
1
10
31.619327156029
20
-3.13006153455555
30
0
41
1
10
31.960905592526
20
-3.26517136929343
30
0
41
1
10
32.983167944626
20
-3.65309898522597
30
0
41
1
10
33.6630962091323
20
-3.8891107230142
30
0
41
1
10
35.0249433083125
20
-4.30885169462209
30
0
41
1
10
35.7083351545865
20
-4.49273528911448
30
0
41
1
10
37.0703372022159
20
-4.79884981645867
30
0
41
1
10
37.7500266700425
20
-4.92149935313455
30
0
41
1
10
38.7715670571399
20
-5.05694221186536
30
0
41
1
10
39.1127469647451
20
-5.0940188080553
30
0
41
1
10
39.794982333159
20
-5.15146390090695
30
0
41
1
10
40.1355083035146
20
-5.17179456570557
30
0
41
1
10
41.1563616930198
20
-5.20753154037502
30
0
41
1
10
41.8358647780088
20
-5.19767061340656
30
0
41
1
10
42.8120189415685
20
-5.13527603429628
30
0
41
1
10
43.1075993725629
20
-5.11007429286119
30
0
41
1
10
43.4028249148436
20
-5.07868241668117
30
0
0
SPLINE
5
C8
100
AcDbEntity
8
1
62
256
6
ByLayer
370
13
48
1
60
0
100
AcDbSpline
70
4
71
3
72
8
73
4
40
0
40
0
40
0
40
0
40
1
40
1
40
1
40
1
41
1
10
5.31724540590409
20
-4.80041815365465
30
0
41
1
10
5.32698896096764
20
-4.79650711965385
30
0
41
1
10
5.33687548579022
20
-4.79268731918813
30
0
41
1
10
5.34690992768606
20
-4.7889626630251
30
0
0
SPLINE
5
C9
100
AcDbEntity
8
1
62
256
6
ByLayer
370
13
48
1
60
0
100
AcDbSpline
70
4
71
3
72
34
73
30
40
0
40
0
40
0
40
0
40
0.125
40
0.125
40
0.1875
40
0.1875
40
0.25
40
0.25
40
0.3125
40
0.3125
40
0.375
40
0.4375
40
0.4375
40
0.46875
40
0.46875
40
0.5
40
0.5
40
0.625
40
0.625
40
0.6875
40
0.6875
40
0.75
40
0.75
40
0.8125
40
0.8125
40
0.875
40
0.9375
40
0.9375
40
1
40
1
40
1
40
1
41
1
10
5.81036197252393
20
-4.73499697433985
30
0
41
1
10
5.81046955372213
20
-4.61968162247638
30
0
41
1
10
5.81056251674315
20
-4.47011185084907
30
0
41
1
10
5.81068990764018
20
-4.19546545906081
30
0
41
1
10
5.8107304818389
20
-4.09500994725065
30
0
41
1
10
5.81080797228594
20
-3.87944689524309
30
0
41
1
10
5.81084495308065
20
-3.76431154200395
30
0
41
1
10
5.81091679644811
20
-3.51928121467864
30
0
41
1
10
5.81095145708912
20
-3.39001197414643
30
0
41
1
10
5.81101874436413
20
-3.12126607245463
30
0
41
1
10
5.81108424402476
20
-2.84146889847909
30
0
41
1
10
5.81114809352647
20
-2.53976488479012
30
0
41
1
10
5.81119586331306
20
-2.30506344713203
30
0
41
1
10
5.81121181297567
20
-2.22517496357375
30
0
41
1
10
5.81124344985386
20
-2.06392980713645
30
0
41
1
10
5.81125913078904
20
-1.98261689703608
30
0
41
1
10
5.81133695226916
20
-1.57267031485182
30
0
41
1
10
5.81139756562754
20
-1.23400346446886
30
0
41
1
10
5.8114852846513
20
-0.709877192108621
30
0
41
1
10
5.81151405420326
20
-0.531719606376157
30
0
41
1
10
5.81156882518883
20
-0.175855269962
30
0
41
1
10
5.81159491890233
20
0.0023453267830291
30
0
41
1
10
5.81164360511272
20
0.359285230816795
30
0
41
1
10
5.81166611664989
20
0.537608742054033
30
0
41
1
10
5.81170571366712
20
0.888306960090688
30
0
41
1
10
5.81174011039016
20
1.23466502690204
30
0
41
1
10
5.81176161155943
20
1.57244384875571
30
0
41
1
10
5.81177504059767
20
1.90583692997126
30
0
41
1
10
5.81177767514163
20
2.07069456781508
30
0
41
1
10
5.81177534812542
20
2.23041422335902
30
0
0
SPLINE
5
CA
100
AcDbEntity
8
1
62
256
6
ByLayer
370
18
48
1
60
0
100
AcDbSpline
70
4
71
3
72
14
73
10
40
0
40
0
40
0
40
0
40
0.25
40
0.25
40
0.5
40
0.5
40
0.75
40
0.75
40
1
40
1
40
1
40
1
41
1
10
15.218650934033
20
-1.67166732050396
30
0
41
1
10
15.3309668847556
20
-1.46689810058717
30
0
41
1
10
15.4745740508163
20
-1.215440874672
30
0
41
1
10
15.7967461137647
20
-0.667521467675556
30
0
41
1
10
15.9751023175846
20
-0.371414211788419
30
0
41
1
10
16.3320459422311
20
0.2081353359074
30
0
41
1
10
16.5104021460509
20
0.49120221349807
30
0
41
1
10
16.8325742089994
20
0.989468593105386
30
0
41
1
10
16.9761813750601
20
1.20434533361868
30
0
41
1
10
17.0884973257827
20
1.3642984616906
30
0
0
SPLINE
5
CB
100
AcDbEntity
8
1
62
256
6
ByLayer
370
18
48
1
60
0
100
AcDbSpline
70
4
71
3
72
20
73
16
40
0
40
0
40
0
40
0
40
0.127365710050562
40
0.127365710050562
40
0.301892568040449
40
0.301892568040449
40
0.476419426030336
40
0.476419426030336
40
0.650946284020223
40
0.650946284020223
40
0.82547314201011
40
0.82547314201011
40
0.912736571005055
40
0.912736571005055
40
1
40
1
40
1
40
1
41
1
10
70.8955543767783
20
0.390435351884833
30
0
41
1
10
70.9322314789002
20
0.422286032425149
30
0
41
1
10
70.9722439861879
20
0.462514331097566
30
0
41
1
10
71.074749497039
20
0.578496455307516
30
0
41
1
10
71.1379211518452
20
0.659446708704536
30
0
41
1
10
71.2697309601411
20
0.8478451393527
30
0
41
1
10
71.3391448953599
20
0.956644630223536
30
0
41
1
10
71.4744233034751
20
1.19235179576333
30
0
41
1
10
71.5411772031906
20
1.32003592929951
30
0
41
1
10
71.6650916992609
20
1.59749068500173
30
0
41
1
10
71.7207969948589
20
1.74260805913715
30
0
41
1
10
71.7789632784442
20
1.97400820001221
30
0
41
1
10
71.7938526421802
20
2.05389456650329
30
0
41
1
10
71.8078336867127
20
2.21356365765104
30
0
41
1
10
71.8070801759751
20
2.2939587370382
30
0
41
1
10
71.7951594461397
20
2.37491615279612
30
0
0
SPLINE
5
CC
100
AcDbEntity
8
1
62
256
6
ByLayer
370
18
48
1
60
0
100
AcDbSpline
70
4
71
1
72
4
73
2
40
0
40
0
40
1
40
1
41
1
10
72.2466195378299
20
-1.07669535182114
30
0
41
1
10
72.2506553739755
20
-1.06307059733061
30
0
0
SPLINE
5
CD
100
AcDbEntity
8
1
62
256
6
ByLayer
370
18
48
1
60
0
100
AcDbSpline
70
4
71
3
72
18
73
14
40
0
40
0
40
0
40
0
40
0.249999999999994
40
0.249999999999994
40
0.374999999999995
40
0.374999999999995
40
0.499999999999996
40
0.499999999999996
40
0.624999999999997
40
0.624999999999997
40
0.749999999999998
40
0.749999999999998
40
1
40
1
40
1
40
1
41
1
10
72.2506553739632
20
-1.06307059733973
30
0
41
1
10
72.3057286449512
20
-1.02241111163278
30
0
41
1
10
72.3636175326816
20
-0.964290698814921
30
0
41
1
10
72.4549586744889
20
-0.852780694058822
30
0
41
1
10
72.4862818564941
20
-0.811341506531789
30
0
41
1
10
72.5499829427064
20
-0.720902776481495
30
0
41
1
10
72.5819957153239
20
-0.67244785595696
30
0
41
1
10
72.646351019586
20
-0.569468493133968
30
0
41
1
10
72.6786934638163
20
-0.514942284990553
30
0
41
1
10
72.7436966918005
20
-0.39998428727958
30
0
41
1
10
72.7765250476747
20
-0.339222864783409
30
0
41
1
10
72.8741525918081
20
-0.150563656023337
30
0
41
1
10
72.9376884101652
20
-0.0173067622925203
30
0
41
1
10
72.9995971320784
20
0.122824863166585
30
0
0
SPLINE
5
CE
100
AcDbEntity
8
1
62
256
6
ByLayer
370
18
48
1
60
0
100
AcDbSpline
70
4
71
3
72
72
73
68
40
0
40
0
40
0
40
0
40
0.0191986312477898
40
0.0191986312477898
40
0.0400667454765608
40
0.0400667454765608
40
0.0609348597053317
40
0.0609348597053317
40
0.0818029739341027
40
0.0818029739341027
40
0.123539202391645
40
0.123539202391645
40
0.144407316620416
40
0.144407316620416
40
0.165275430849186
40
0.165275430849186
40
0.207011659306728
40
0.207011659306728
40
0.24874788776427
40
0.24874788776427
40
0.290484116221812
40
0.290484116221812
40
0.332220344679354
40
0.332220344679354
40
0.353088458908125
40
0.353088458908125
40
0.373956573136896
40
0.373956573136896
40
0.394824687365667
40
0.394824687365667
40
0.415692801594438
40
0.415692801594438
40
0.45742903005198
40
0.45742903005198
40
0.499165258509522
40
0.499165258509522
40
0.520033372738293
40
0.520033372738293
40
0.540901486967064
40
0.540901486967064
40
0.582637715424605
40
0.582637715424605
40
0.624373943882146
40
0.624373943882146
40
0.645242058110916
40
0.645242058110916
40
0.666110172339686
40
0.666110172339686
40
0.707846400797225
40
0.707846400797225
40
0.749582629254765
40
0.749582629254765
40
0.791318857712304
40
0.791318857712304
40
0.812186971941074
40
0.812186971941074
40
0.833055086169843
40
0.833055086169843
40
0.874791314627382
40
0.874791314627382
40
0.91652754308492
40
0.91652754308492
40
0.93739565731369
40
0.93739565731369
40
0.95826377154246
40
0.95826377154246
40
1
40
1
40
1
40
1
41
1
10
31.4133767180606
20
3.44776245135466
30
0
41
1
10
31.6676574907154
20
3.5430078909109
30
0
41
1
10
31.9216634108583
20
3.63548567707079
30
0
41
1
10
32.4524807784556
20
3.82081121102021
30
0
41
1
10
32.7292696339547
20
3.9131487005325
30
0
41
1
10
33.2829924291772
20
4.09007328278207
30
0
41
1
10
33.5603205089422
20
4.17454633749253
30
0
41
1
10
34.1144184179012
20
4.33375845773159
30
0
41
1
10
34.3910765990806
20
4.40876117621306
30
0
41
1
10
35.2207186072213
20
4.61913595418372
30
0
41
1
10
35.7725941893289
20
4.74057967372559
30
0
41
1
10
36.6021574882416
20
4.89132324191584
30
0
41
1
10
36.8790304525127
20
4.93633581057344
30
0
41
1
10
37.4330069596639
20
5.01609832702661
30
0
41
1
10
37.710191077038
20
5.05065885818735
30
0
41
1
10
38.5404309913725
20
5.13767784132997
30
0
41
1
10
39.0927146341806
20
5.17385707160111
30
0
41
1
10
40.1977913793167
20
5.20187130648333
30
0
41
1
10
40.7508993453889
20
5.19369207179992
30
0
41
1
10
41.8591368655096
20
5.13269125812224
30
0
41
1
10
42.4116294170897
20
5.08002662589476
30
0
41
1
10
43.5165153139209
20
4.93203982368053
30
0
41
1
10
44.0682214729382
20
4.83624048971959
30
0
41
1
10
44.8985567553049
20
4.66233646088267
30
0
41
1
10
45.1758263750437
20
4.59912941584179
30
0
41
1
10
45.72938791905
20
4.46324906146776
30
0
41
1
10
46.0057117112098
20
4.39039132965283
30
0
41
1
10
46.5582532382747
20
4.23573073696085
30
0
41
1
10
46.8342834162475
20
4.15372102811446
30
0
41
1
10
47.3864927643908
20
3.98108587740884
30
0
41
1
10
47.6626813450347
20
3.8904911693339
30
0
41
1
10
48.4911017870748
20
3.60520792782481
30
0
41
1
10
49.0457830258936
20
3.39873301042172
30
0
41
1
10
50.1517559129133
20
2.95918186965537
30
0
41
1
10
50.7035017345332
20
2.725871967828
30
0
41
1
10
51.5315929442808
20
2.35949060165569
30
0
41
1
10
51.8078122648105
20
2.23483336156571
30
0
41
1
10
52.3602987877636
20
1.97980413419225
30
0
41
1
10
52.6371899670301
20
1.85002647335926
30
0
41
1
10
53.4677803156408
20
1.45586104039134
30
0
41
1
10
54.0197098905517
20
1.18580356975465
30
0
41
1
10
55.1235998841238
20
0.638179818017221
30
0
41
1
10
55.6754559801836
20
0.360422524848076
30
0
41
1
10
56.504696278625
20
-0.0590554215980035
30
0
41
1
10
56.7817382831529
20
-0.198886151355026
30
0
41
1
10
57.3347942305254
20
-0.477078559963758
30
0
41
1
10
57.6109012347395
20
-0.61590153966236
30
0
41
1
10
58.4390219232077
20
-1.02944564776945
30
0
41
1
10
58.9903853744131
20
-1.30213363869163
30
0
41
1
10
60.0947586498591
20
-1.83543980959877
30
0
41
1
10
60.6488153754289
20
-2.09614399749665
30
0
41
1
10
61.7535086573577
20
-2.59595869265579
30
0
41
1
10
62.3048405802333
20
-2.83558082053602
30
0
41
1
10
63.1322932331357
20
-3.17619150722936
30
0
41
1
10
63.4083103715055
20
-3.28639560526497
30
0
41
1
10
63.9607673896841
20
-3.50007351913769
30
0
41
1
10
64.237547557337
20
-3.60353276898894
30
0
41
1
10
65.0666119102553
20
-3.90191535216866
30
0
41
1
10
65.6185577677005
20
-4.08377280926806
30
0
41
1
10
66.7218071145238
20
-4.41257710032343
30
0
41
1
10
67.2734671116377
20
-4.55902337921833
30
0
41
1
10
68.1032047971877
20
-4.74919222684846
30
0
41
1
10
68.3794919871907
20
-4.80759073571451
30
0
41
1
10
68.9313781248764
20
-4.91386100220208
30
0
41
1
10
69.2073026950487
20
-4.96161002905467
30
0
41
1
10
70.0345496823116
20
-5.08914064502781
30
0
41
1
10
70.5857795549432
20
-5.15288928744968
30
0
41
1
10
71.1380123048245
20
-5.19459210432822
30
0
0
SPLINE
5
CF
100
AcDbEntity
8
1
62
256
6
ByLayer
370
18
48
1
60
0
100
AcDbSpline
70
4
71
3
72
10
73
6
40
0
40
0
40
0
40
0
40
0.5
40
0.5
40
1
40
1
40
1
40
1
41
1
10
71.7901081922985
20
2.41434914586586
30
0
41
1
10
71.7708197210827
20
2.59182379500021
30
0
41
1
10
71.7691022922016
20
2.76691122714587
30
0
41
1
10
71.7834663309139
20
3.11466791798819
30
0
41
1
10
71.7998858520552
20
3.28729124843784
30
0
41
1
10
71.8217091909252
20
3.45918041154331
30
0
0
SPLINE
5
D0
100
AcDbEntity
8
1
62
256
6
ByLayer
370
18
48
1
60
0
100
AcDbSpline
70
4
71
3
72
8
73
4
40
0
40
0
40
0
40
0
40
1
40
1
40
1
40
1
41
1
10
72.9995971320774
20
0.122824863164453
30
0
41
1
10
73.0001342892958
20
0.0409416210547988
30
0
41
1
10
73.0001342892958
20
-0.0409416210548272
30
0
41
1
10
72.9995971320774
20
-0.122824863164482
30
0
0
SPLINE
5
D1
100
AcDbEntity
8
1
62
256
6
ByLayer
370
18
48
1
60
0
100
AcDbSpline
70
4
71
3
72
16
73
12
40
0
40
0
40
0
40
0
40
0.250000000000001
40
0.250000000000001
40
0.500000000000002
40
0.500000000000002
40
0.750000000000003
40
0.750000000000003
40
0.875000000000001
40
0.875000000000001
40
1
40
1
40
1
40
1
41
1
10
72.248964127689
20
-1.06136854073674
30
0
41
1
10
72.1359342827934
20
-1.08700723173718
30
0
41
1
10
72.030669464221
20
-1.06402147304877
30
0
41
1
10
71.8323696485927
20
-0.941467041941877
30
0
41
1
10
71.7443473537606
20
-0.844795446011346
30
0
41
1
10
71.5857484688643
20
-0.59731497031251
30
0
41
1
10
71.5181354378059
20
-0.450963055602813
30
0
41
1
10
71.4303886226168
20
-0.204980237373803
30
0
41
1
10
71.4034656058826
20
-0.118485610563852
30
0
41
1
10
71.3540418603741
20
0.0630601915974296
30
0
41
1
10
71.3318294383237
20
0.157091623496825
30
0
41
1
10
71.3120181134016
20
0.253569089973922
30
0
0
SPLINE
5
D2
100
AcDbEntity
8
1
62
256
6
ByLayer
370
13
48
1
60
0
100
AcDbSpline
70
4
71
3
72
49
73
45
40
0
40
0
40
0
40
0
40
0.007834565894952
40
0.0208893742384393
40
0.0339441825819271
40
0.0600537992689016
40
0.0861634159558767
40
0.112273032642852
40
0.151437457673314
40
0.164492266016802
40
0.190601882703777
40
0.216711499390751
40
0.268930732764702
40
0.281985541108189
40
0.295040349451676
40
0.321149966138651
40
0.334204774482139
40
0.347259582825626
40
0.373369199512601
40
0.399478816199576
40
0.425588432886551
40
0.464752857917014
40
0.477807666260501
40
0.503917282947476
40
0.530026899634451
40
0.582246133008401
40
0.595300941351888
40
0.608355749695376
40
0.634465366382351
40
0.647520174725838
40
0.660574983069326
40
0.686684599756301
40
0.712794216443276
40
0.73890383313025
40
0.778068258160713
40
0.791123066504201
40
0.817232683191175
40
0.843342299878151
40
0.8955615332521
40
0.908616341595588
40
0.921671149939075
40
0.94778076662605
40
0.973890383313025
40
1
40
1
40
1
40
1
41
1
10
28.2347175224025
20
-2.12089117261846
30
0
41
1
10
28.2007251160522
20
-2.12441092297163
30
0
41
1
10
28.1100895945354
20
-2.13370569338514
30
0
41
1
10
27.9628061928665
20
-2.14841847924535
30
0
41
1
10
27.7362604972151
20
-2.1702343514711
30
0
41
1
10
27.4530794297685
20
-2.19604195387038
30
0
41
1
10
27.1132391199415
20
-2.22468026657066
30
0
41
1
10
26.7167842418157
20
-2.25523216121857
30
0
41
1
10
26.376911830057
20
-2.27846827518519
30
0
41
1
10
26.0370444063984
20
-2.29925389706969
30
0
41
1
10
25.7538650251746
20
-2.31493978631821
30
0
41
1
10
25.3008084447274
20
-2.33661143305733
30
0
41
1
10
24.9042904488999
20
-2.35136853747849
30
0
41
1
10
24.564368248366
20
-2.36098409261632
30
0
41
1
10
24.3378221230917
20
-2.36637760739413
30
0
41
1
10
24.1112588536916
20
-2.37054025053166
30
0
41
1
10
23.8846804911888
20
-2.3734758557994
30
0
41
1
10
23.6581350664657
20
-2.3754601562882
30
0
41
1
10
23.3749542984237
20
-2.37633764571442
30
0
41
1
10
23.0351141407288
20
-2.37490125842692
30
0
41
1
10
22.6386592965742
20
-2.37013208388913
30
0
41
1
10
22.2987868712475
20
-2.36300691227748
30
0
41
1
10
21.9589195253044
20
-2.35335273175002
30
0
41
1
10
21.6757403673868
20
-2.34357663563117
30
0
41
1
10
21.2226843319223
20
-2.32442824297351
30
0
41
1
10
20.8261667275947
20
-2.3035853903028
30
0
41
1
10
20.486244377632
20
-2.28281835185703
30
0
41
1
10
20.259698078233
20
-2.26789674741593
30
0
41
1
10
20.0331345544948
20
-2.25181156784836
30
0
41
1
10
19.806555929856
20
-2.23458283650666
30
0
41
1
10
19.5800102538795
20
-2.21641365413365
30
0
41
1
10
19.2968292377221
20
-2.19220356295236
30
0
41
1
10
18.9569890124904
20
-2.16089178045851
30
0
41
1
10
18.5605342398753
20
-2.12151198035602
30
0
41
1
10
18.2206619294291
20
-2.0850996855157
30
0
41
1
10
17.8807946159037
20
-2.04646202934822
30
0
41
1
10
17.5976153367893
20
-2.01269829591757
30
0
41
1
10
17.1445589125362
20
-1.95562465869486
30
0
41
1
10
16.7480409969062
20
-1.90234997615832
30
0
41
1
10
16.4081188112252
20
-1.85438219314378
30
0
41
1
10
16.1815728808568
20
-1.82143670306428
30
0
41
1
10
15.8983919554116
20
-1.77902118943734
30
0
41
1
10
15.5585486863675
20
-1.72631396156183
30
0
41
1
10
15.3319488620035
20
-1.69008197570204
30
0
41
1
10
15.2186509340331
20
-1.67166732050407
30
0
0
SPLINE
5
D3
100
AcDbEntity
8
1
62
256
6
ByLayer
370
13
48
1
60
0
100
AcDbSpline
70
4
71
3
72
24
73
20
40
0
40
0
40
0
40
0
40
0.0740404291657786
40
0.111962429173188
40
0.149884429180596
40
0.225728429195416
40
0.263650429202825
40
0.301572429210234
40
0.377416429225053
40
0.415338429232463
40
0.453260429239871
40
0.52910442925469
40
0.5670264292621
40
0.604948429269508
40
0.680792429284327
40
0.756636429299145
40
0.832480429313965
40
0.984168429343602
40
1
40
1
40
1
40
1
41
1
10
71.79515944624
20
2.37491615279694
30
0
41
1
10
71.6845805765792
20
2.37403798114883
30
0
41
1
10
71.5173767461971
20
2.37212242902333
30
0
41
1
10
71.2935600981275
20
2.36835609251469
30
0
41
1
10
71.0669813396379
20
2.36351493664495
30
0
41
1
10
70.8404194954737
20
2.35743829405462
30
0
41
1
10
70.6138727081214
20
2.35012637942267
30
0
41
1
10
70.3872933596528
20
2.34189425401095
30
0
41
1
10
70.1607316320246
20
2.33243614561238
30
0
41
1
10
69.9341853830758
20
2.32175345205263
30
0
41
1
10
69.7076064341869
20
2.31017048848687
30
0
41
1
10
69.4810450171452
20
2.29737423688317
30
0
41
1
10
69.2544988077468
20
2.2833673551074
30
0
41
1
10
69.0279193542167
20
2.26848250826066
30
0
41
1
10
68.7446935528589
20
2.24834529992338
30
0
41
1
10
68.4048457859522
20
2.22178736215736
30
0
41
1
10
67.9516513958173
20
2.18310369348515
30
0
41
1
10
67.5881923564531
20
2.14838906803567
30
0
41
1
10
67.3380374504061
20
2.12265198395846
30
0
41
1
10
67.3143959034076
20
2.12020261472361
30
0
0
SPLINE
5
D4
100
AcDbEntity
8
1
62
256
6
ByLayer
370
13
48
1
60
0
100
AcDbSpline
70
4
71
3
72
27
73
23
40
0
40
0
40
0
40
0
40
0.0153637723867748
40
0.124767797677133
40
0.152118803999723
40
0.179469810322313
40
0.234171822967492
40
0.261522829290081
40
0.288873835612671
40
0.34357584825785
40
0.39827786090303
40
0.452979873548208
40
0.535032892515977
40
0.562383898838567
40
0.617085911483745
40
0.671787924128925
40
0.781191949419283
40
0.808542955741873
40
0.835893962064463
40
0.890595974709642
40
0.945297987354821
40
1
40
1
40
1
40
1
41
1
10
23.3010421558469
20
0.0255891787240614
30
0
41
1
10
23.2692221765495
20
0.0328843647381802
30
0
41
1
10
23.0108184390341
20
0.0921355547887116
30
0
41
1
10
22.6958252196973
20
0.164509787090139
30
0
41
1
10
22.356060122161
20
0.242521880697211
30
0
41
1
10
22.1294814105228
20
0.294190267033968
30
0
41
1
10
21.9029199348983
20
0.345772833017008
30
0
41
1
10
21.6763735703492
20
0.397232817763893
30
0
41
1
10
21.4497942350172
20
0.448413700646256
30
0
41
1
10
21.1665689864681
20
0.512095424650965
30
0
41
1
10
20.8267217095738
20
0.588065588673117
30
0
41
1
10
20.430207712291
20
0.675824146978044
30
0
41
1
10
20.0903925418624
20
0.750357754408469
30
0
41
1
10
19.7505723711988
20
0.824065266255132
30
0
41
1
10
19.4673453842951
20
0.884760101151271
30
0
41
1
10
19.0141517624408
20
0.980441247449163
30
0
41
1
10
18.6177009504599
20
1.06273724155022
30
0
41
1
10
18.2779356885416
20
1.13202616980027
30
0
41
1
10
18.0513566076663
20
1.1775114779021
30
0
41
1
10
17.7681312682374
20
1.23358236387398
30
0
41
1
10
17.4282870371626
20
1.2996496813432
30
0
41
1
10
17.2017618866563
20
1.34291042147416
30
0
41
1
10
17.0884973257827
20
1.36429846169059
30
0
0
SPLINE
5
D5
100
AcDbEntity
8
1
62
256
6
ByLayer
370
18
48
1
60
0
100
AcDbSpline
70
4
71
3
72
40
73
36
40
0
40
0
40
0
40
0
40
0.115962161382864
40
0.115962161382864
40
0.173943242074295
40
0.173943242074295
40
0.231924322765727
40
0.231924322765727
40
0.289905403457159
40
0.289905403457159
40
0.347886484148591
40
0.347886484148591
40
0.405867564840023
40
0.405867564840023
40
0.463848645531454
40
0.463848645531454
40
0.521829726222886
40
0.521829726222886
40
0.579810806914318
40
0.579810806914318
40
0.63779188760575
40
0.63779188760575
40
0.695772968297181
40
0.695772968297181
40
0.753754048988613
40
0.753754048988613
40
0.811735129680045
40
0.811735129680045
40
0.869716210371477
40
0.869716210371477
40
0.927697291062909
40
0.927697291062909
40
0.98567837175434
40
0.98567837175434
40
1
40
1
40
1
40
1
41
1
10
70.5963330523771
20
0.543428728050031
30
0
41
1
10
70.0106976056354
20
0.831318038583731
30
0
41
1
10
69.4263456834412
20
1.11687047086201
30
0
41
1
10
68.5478678016318
20
1.53372678790856
30
0
41
1
10
68.2549628529428
20
1.67124092318832
30
0
41
1
10
67.6684239804588
20
1.94220840295469
30
0
41
1
10
67.3745140781608
20
2.07591066422336
30
0
41
1
10
66.7873070048263
20
2.33703841958734
30
0
41
1
10
66.4940007326452
20
2.46462857316135
30
0
41
1
10
65.9079125758927
20
2.71408415009987
30
0
41
1
10
65.6149932858834
20
2.8356516181382
30
0
41
1
10
65.0293393123364
20
3.07138656901282
30
0
41
1
10
64.7362990387755
20
3.18491575576999
30
0
41
1
10
64.1497136528736
20
3.4049251803842
30
0
41
1
10
63.856401011439
20
3.51154506237836
30
0
41
1
10
63.2688916376684
20
3.71615123385337
30
0
41
1
10
62.9749477626619
20
3.81398381545614
30
0
41
1
10
62.3882178454418
20
3.99987712988934
30
0
41
1
10
62.0951885330854
20
4.08807149136649
30
0
41
1
10
61.5093315727881
20
4.25370274592285
30
0
41
1
10
61.2166347190445
20
4.33107953495252
30
0
41
1
10
60.6305895957138
20
4.47453132010989
30
0
41
1
10
60.3372117579106
20
4.54101554954028
30
0
41
1
10
59.7502283863804
20
4.66446460709381
30
0
41
1
10
59.4561089162242
20
4.72110386578194
30
0
41
1
10
58.8685963796625
20
4.82287124818123
30
0
41
1
10
58.5752636083337
20
4.86811797766748
30
0
41
1
10
57.9889801014695
20
4.94631851333639
30
0
41
1
10
57.6960545332854
20
4.979112994372
30
0
41
1
10
57.1102565765037
20
5.03093480475945
30
0
41
1
10
56.8172511433922
20
5.05020176230298
30
0
41
1
10
56.2306733634734
20
5.07880193475003
30
0
41
1
10
55.9371826462815
20
5.08763305494242
30
0
41
1
10
55.5705558973867
20
5.09052430579655
30
0
41
1
10
55.4979579109551
20
5.09068431106891
30
0
41
1
10
55.4253821618824
20
5.09044924419325
30
0
0
SPLINE
5
D6
100
AcDbEntity
8
1
62
256
6
ByLayer
370
18
48
1
60
0
100
AcDbSpline
70
4
71
3
72
42
73
38
40
0
40
0
40
0
40
0
40
0.0221802334908901
40
0.0221802334908901
40
0.0736444317282119
40
0.0736444317282119
40
0.125108629965534
40
0.125108629965534
40
0.176572828202856
40
0.176572828202856
40
0.228037026440178
40
0.228037026440178
40
0.279501224677499
40
0.279501224677499
40
0.382429621152141
40
0.382429621152141
40
0.433893819389462
40
0.433893819389462
40
0.485358017626782
40
0.485358017626782
40
0.536822215864103
40
0.536822215864103
40
0.588286414101424
40
0.588286414101424
40
0.639750612338744
40
0.639750612338744
40
0.691214810576065
40
0.691214810576065
40
0.794143207050709
40
0.794143207050709
40
0.845607405288032
40
0.845607405288032
40
0.897071603525355
40
0.897071603525355
40
0.948535801762677
40
0.948535801762677
40
1
40
1
40
1
40
1
41
1
10
31.3700952500386
20
-3.47233841795102
30
0
41
1
10
31.2436236136172
20
-3.5170087364894
30
0
41
1
10
31.1172177458242
20
-3.56083551467299
30
0
41
1
10
30.6976122077908
20
-3.7032955023279
30
0
41
1
10
30.4044030102678
20
-3.79881302097536
30
0
41
1
10
29.8178903361727
20
-3.98106537170654
30
0
41
1
10
29.5244333287941
20
-4.0675866702243
30
0
41
1
10
28.9371620249465
20
-4.22937237215191
30
0
41
1
10
28.6432904600839
20
-4.30515452377162
30
0
41
1
10
28.0548778652351
20
-4.44712424562738
30
0
41
1
10
27.7608311601825
20
-4.51289494378594
30
0
41
1
10
27.1737499424819
20
-4.63309696743198
30
0
41
1
10
26.8804656977645
20
-4.68657798062489
30
0
41
1
10
26.0006453110639
20
-4.83151532685801
30
0
41
1
10
25.4137618275762
20
-4.90794276615532
30
0
41
1
10
24.5316942393394
20
-4.98122920117444
30
0
41
1
10
24.2373311476824
20
-5.00019641701815
30
0
41
1
10
23.6503790067756
20
-5.02679822330643
30
0
41
1
10
23.3577136789264
20
-5.03454751000459
30
0
41
1
10
22.7736765885187
20
-5.03570055776527
30
0
41
1
10
22.4824332381703
20
-5.02946161308341
30
0
41
1
10
21.9001522206842
20
-5.00736399778916
30
0
41
1
10
21.6093217562977
20
-4.99088076862324
30
0
41
1
10
21.0278505680132
20
-4.94553030910379
30
0
41
1
10
20.7374904982887
20
-4.91583778583365
30
0
41
1
10
20.1565283691644
20
-4.84589382882982
30
0
41
1
10
19.8657140727519
20
-4.80589610854776
30
0
41
1
10
18.9928587440971
20
-4.66804217523574
30
0
41
1
10
18.4103439341193
20
-4.55253363994629
30
0
41
1
10
17.532604699339
20
-4.34801706430594
30
0
41
1
10
17.2392158689939
20
-4.27433702207776
30
0
41
1
10
16.6509916506863
20
-4.11589439786843
30
0
41
1
10
16.3563486073862
20
-4.03128624511825
30
0
41
1
10
15.7675738107531
20
-3.85380126040536
30
0
41
1
10
15.4731407763721
20
-3.7606010811532
30
0
41
1
10
14.8846745212564
20
-3.5640023240081
30
0
41
1
10
14.5902621168817
20
-3.46125236377426
30
0
41
1
10
14.2954671059102
20
-3.35477315817238
30
0
0
SPLINE
5
D7
100
AcDbEntity
8
1
62
256
6
ByLayer
370
18
48
1
60
0
100
AcDbSpline
70
4
71
3
72
34
73
30
40
0
40
0
40
0
40
0
40
0.125000000000001
40
0.125000000000001
40
0.250000000000002
40
0.250000000000002
40
0.375000000000003
40
0.375000000000003
40
0.500000000000004
40
0.500000000000004
40
0.562500000000003
40
0.562500000000003
40
0.625000000000003
40
0.625000000000003
40
0.687500000000002
40
0.687500000000002
40
0.750000000000002
40
0.750000000000002
40
0.812500000000001
40
0.812500000000001
40
0.875000000000001
40
0.875000000000001
40
0.906250000000001
40
0.906250000000001
40
0.9375
40
0.9375
40
0.96875
40
0.96875
40
1
40
1
40
1
40
1
41
1
10
14.2954671059102
20
-3.35477315817238
30
0
41
1
10
13.8930445557501
20
-3.2203019357776
30
0
41
1
10
13.4931100233244
20
-3.07781098331193
30
0
41
1
10
12.6989849562879
20
-2.77364538292244
30
0
41
1
10
12.3046791257832
20
-2.61247985614298
30
0
41
1
10
11.5219390513089
20
-2.27064233901603
30
0
41
1
10
11.1336884626224
20
-2.08916349282867
30
0
41
1
10
10.3642931905365
20
-1.70153385322592
30
0
41
1
10
9.98296470139712
20
-1.49618506239506
30
0
41
1
10
9.41740152064517
20
-1.16503920911171
30
0
41
1
10
9.22974283180025
20
-1.05060771359246
30
0
41
1
10
8.85789455536258
20
-0.813164716217472
30
0
41
1
10
8.67438370759191
20
-0.69071529457068
30
0
41
1
10
8.31232450129451
20
-0.438141716754785
30
0
41
1
10
8.13383033303981
20
-0.30793175607451
30
0
41
1
10
7.78305615751455
20
-0.0378494224679855
30
0
41
1
10
7.61036424364846
20
0.102356107449964
30
0
41
1
10
7.27603880188602
20
0.391285708800012
30
0
41
1
10
7.11407262051148
20
0.540212276126425
30
0
41
1
10
6.80273655685409
20
0.848812616471662
30
0
41
1
10
6.65333757971837
20
1.00846215203512
30
0
41
1
10
6.4413447725085
20
1.25820197384877
30
0
41
1
10
6.37270998120604
20
1.34321633311174
30
0
41
1
10
6.24196682113703
20
1.51474065157618
30
0
41
1
10
6.17961938549462
20
1.60151967718073
30
0
41
1
10
6.06168211541751
20
1.77732201106579
30
0
41
1
10
6.00608914357525
20
1.86634433278042
30
0
41
1
10
5.9025978517293
20
2.04691496486962
30
0
41
1
10
5.85449821111771
20
2.13896459456939
30
0
41
1
10
5.81177534812554
20
2.23041422335885
30
0
0
SPLINE
5
D8
100
AcDbEntity
8
1
62
256
6
ByLayer
370
18
48
1
60
0
100
AcDbSpline
70
4
71
4
72
10
73
5
40
0
40
0
40
0
40
0
40
0
40
1
40
1
40
1
40
1
40
1
41
1
10
15.2186509340331
20
-1.67166732050407
30
0
41
1
10
14.9878549770024
20
-2.09244377992116
30
0
41
1
10
14.7570590199716
20
-2.51322023933821
30
0
41
1
10
14.5262630629409
20
-2.93399669875529
30
0
41
1
10
14.2954671059102
20
-3.35477315817235
30
0
0
SPLINE
5
D9
100
AcDbEntity
8
1
62
256
6
ByLayer
370
18
48
1
60
0
100
AcDbSpline
70
4
71
3
72
8
73
4
40
0
40
0
40
0
40
0
40
1
40
1
40
1
40
1
41
1
10
5.57929678265188
20
3.64491340523514
30
0
41
1
10
5.49436793527869
20
3.68890622926222
30
0
41
1
10
5.41059082903109
20
3.74149581747497
30
0
41
1
10
5.33327056908649
20
3.80000965378167
30
0
0
SPLINE
5
DA
100
AcDbEntity
8
1
62
256
6
ByLayer
370
18
48
1
60
0
100
AcDbSpline
70
4
71
3
72
20
73
16
40
0
40
0
40
0
40
0
40
0.250000000000002
40
0.250000000000002
40
0.375000000000004
40
0.375000000000004
40
0.437500000000004
40
0.437500000000004
40
0.500000000000004
40
0.500000000000004
40
0.750000000000002
40
0.750000000000002
40
0.875000000000001
40
0.875000000000001
40
1
40
1
40
1
40
1
41
1
10
71.0408686582416
20
-4.88291699405681
30
0
41
1
10
70.9373683281316
20
-4.7892221729355
30
0
41
1
10
70.8457950574308
20
-4.66891560137034
30
0
41
1
10
70.7269857996296
20
-4.4470653891278
30
0
41
1
10
70.690492797178
20
-4.36617607521481
30
0
41
1
10
70.6406953413264
20
-4.23381536766982
30
0
41
1
10
70.6249079697197
20
-4.18778233287631
30
0
41
1
10
70.595379634734
20
-4.09305420052848
30
0
41
1
10
70.5815891523817
20
-4.04423987116874
30
0
41
1
10
70.517469553405
20
-3.79296995239866
30
0
41
1
10
70.481507288289
20
-3.56911554014835
30
0
41
1
10
70.4514421080206
20
-3.19776831829259
30
0
41
1
10
70.4454379571253
20
-3.06727222376875
30
0
41
1
10
70.4419189795013
20
-2.79872940078101
30
0
41
1
10
70.444335559669
20
-2.66050189988394
30
0
41
1
10
70.4508849734522
20
-2.51835926747154
30
0
0
SPLINE
5
DB
100
AcDbEntity
8
1
62
256
6
ByLayer
370
18
48
1
60
0
100
AcDbSpline
70
4
71
3
72
42
73
38
40
0
40
0
40
0
40
0
40
0.015625
40
0.015625
40
0.03125
40
0.03125
40
0.0624999999999999
40
0.0624999999999999
40
0.125
40
0.125
40
0.1875
40
0.1875
40
0.25
40
0.25
40
0.3125
40
0.3125
40
0.375
40
0.375
40
0.5
40
0.5
40
0.53125
40
0.53125
40
0.5625
40
0.5625
40
0.624999999999999
40
0.624999999999999
40
0.656249999999999
40
0.656249999999999
40
0.687499999999999
40
0.687499999999999
40
0.75
40
0.75
40
0.8125
40
0.8125
40
0.875
40
0.875
40
1
40
1
40
1
40
1
41
1
10
5.33327056908661
20
3.80000965378164
30
0
41
1
10
5.32836393368265
20
3.76340650384273
30
0
41
1
10
5.32519701585505
20
3.7259753836656
30
0
41
1
10
5.32218859355947
20
3.64943076503093
30
0
41
1
10
5.3227006670858
20
3.61041139642128
30
0
41
1
10
5.322788184579
20
3.49205177732014
30
0
41
1
10
5.32283926931214
20
3.41105606124324
30
0
41
1
10
5.32297238207775
20
3.16193315867079
30
0
41
1
10
5.32303433517964
20
2.98769446903506
30
0
41
1
10
5.32311155104031
20
2.62299634600095
30
0
41
1
10
5.3231267842358
20
2.43201493571758
30
0
41
1
10
5.32311547472182
20
2.03532913752997
30
0
41
1
10
5.32308918922627
20
1.83288669626361
30
0
41
1
10
5.3230030754398
20
1.42009986952021
30
0
41
1
10
5.32294322690777
20
1.20975467806897
30
0
41
1
10
5.32279499791667
20
0.781064204838401
30
0
41
1
10
5.32270584940403
20
0.561228893140992
30
0
41
1
10
5.32240792961301
20
-0.0939821305297812
30
0
41
1
10
5.32216952270778
20
-0.528214237064759
30
0
41
1
10
5.32183099675575
20
-1.06774995880696
30
0
41
1
10
5.32176103652111
20
-1.17566267339242
30
0
41
1
10
5.32161881174608
20
-1.38808720640139
30
0
41
1
10
5.32154632105988
20
-1.4929725498074
30
0
41
1
10
5.32132459376152
20
-1.80372321532252
30
0
41
1
10
5.32117116959034
20
-2.00569865599439
30
0
41
1
10
5.3209309205094
20
-2.30088571849387
30
0
41
1
10
5.32084913534973
20
-2.39798151243369
30
0
41
1
10
5.32068166243414
20
-2.58952709386293
30
0
41
1
10
5.32059565433201
20
-2.68430947329963
30
0
41
1
10
5.32033348542052
20
-2.96175174392292
30
0
41
1
10
5.32015355523703
20
-3.13731198480275
30
0
41
1
10
5.31977872402953
20
-3.4702387783201
30
0
41
1
10
5.31958383571953
20
-3.62760406984074
30
0
41
1
10
5.3191728856531
20
-3.92384407883304
30
0
41
1
10
5.31895544681851
20
-4.06330072468234
30
0
41
1
10
5.31827945635996
20
-4.44179278673647
30
0
41
1
10
5.31779312571513
20
-4.64556763112145
30
0
41
1
10
5.31724540592211
20
-4.80041815364476
30
0
0
SPLINE
5
DC
100
AcDbEntity
8
1
62
256
6
ByLayer
370
18
48
1
60
0
100
AcDbSpline
70
4
71
3
72
98
73
94
40
0
40
0
40
0
40
0
40
0.0087594470103832
40
0.0087594470103832
40
0.0301246784699554
40
0.0301246784699554
40
0.0514899099295275
40
0.0514899099295275
40
0.0728551413890996
40
0.0728551413890996
40
0.0942203728486718
40
0.0942203728486718
40
0.115585604308244
40
0.115585604308244
40
0.136950835767816
40
0.136950835767816
40
0.158316067227388
40
0.158316067227388
40
0.17968129868696
40
0.17968129868696
40
0.201046530146533
40
0.201046530146533
40
0.222411761606105
40
0.222411761606105
40
0.243776993065677
40
0.243776993065677
40
0.265142224525249
40
0.265142224525249
40
0.286507455984821
40
0.286507455984821
40
0.307872687444393
40
0.307872687444393
40
0.329237918903965
40
0.329237918903965
40
0.350603150363537
40
0.350603150363537
40
0.371968381823109
40
0.371968381823109
40
0.393333613282682
40
0.393333613282682
40
0.414698844742254
40
0.414698844742254
40
0.436064076201826
40
0.436064076201826
40
0.457429307661398
40
0.457429307661398
40
0.47879453912097
40
0.47879453912097
40
0.500159770580542
40
0.500159770580542
40
0.521525002040114
40
0.521525002040114
40
0.542890233499687
40
0.542890233499687
40
0.564255464959259
40
0.564255464959259
40
0.585620696418831
40
0.585620696418831
40
0.606985927878403
40
0.606985927878403
40
0.628351159337975
40
0.628351159337975
40
0.649716390797547
40
0.649716390797547
40
0.671081622257119
40
0.671081622257119
40
0.692446853716692
40
0.692446853716692
40
0.713812085176264
40
0.713812085176264
40
0.735177316635836
40
0.735177316635836
40
0.756542548095408
40
0.756542548095408
40
0.77790777955498
40
0.77790777955498
40
0.799273011014552
40
0.799273011014552
40
0.820638242474124
40
0.820638242474124
40
0.842003473933696
40
0.842003473933696
40
0.863368705393268
40
0.863368705393268
40
0.906099168312413
40
0.906099168312413
40
0.927464399771985
40
0.927464399771985
40
0.948829631231557
40
0.948829631231557
40
0.991560094150701
40
0.991560094150701
40
1
40
1
40
1
40
1
41
1
10
22.7447080409467
20
5.03310522200925
30
0
41
1
10
22.865143764461
20
5.03482885187182
30
0
41
1
10
22.985530059699
20
5.03551069257193
30
0
41
1
10
23.3994832189507
20
5.03375010672605
30
0
41
1
10
23.6928036921334
20
5.02538900124423
30
0
41
1
10
24.2795548945642
20
4.99768928018122
30
0
41
1
10
24.5726513275095
20
4.97834410764918
30
0
41
1
10
25.1590576482015
20
4.92851125634439
30
0
41
1
10
25.4526968944191
20
4.89656501973593
30
0
41
1
10
26.0405188737892
20
4.82068769471476
30
0
41
1
10
26.3348799518158
20
4.77691403285613
30
0
41
1
10
26.9223762297376
20
4.67914521693427
30
0
41
1
10
27.2158356953486
20
4.62501344992816
30
0
41
1
10
27.8023683893811
20
4.50377500663873
30
0
41
1
10
28.0958015531818
20
4.43768354684451
30
0
41
1
10
28.6822311792995
20
4.29526249977326
30
0
41
1
10
28.9752152375626
20
4.21933461560295
30
0
41
1
10
29.5622757109264
20
4.05665480799678
30
0
41
1
10
29.8563556871695
20
3.96949152296412
30
0
41
1
10
30.4445318143072
20
3.7859101920059
30
0
41
1
10
30.7382097077366
20
3.68986815024738
30
0
41
1
10
31.3250115773031
20
3.48987843333504
30
0
41
1
10
31.6181511472953
20
3.38496062807943
30
0
41
1
10
32.2048990897158
20
3.16776655948365
30
0
41
1
10
32.4981122717471
20
3.0551823455292
30
0
41
1
10
33.084503897426
20
2.82271617836642
30
0
41
1
10
33.3779208452411
20
2.70307447944995
30
0
41
1
10
33.9658245443418
20
2.45650164056946
30
0
41
1
10
34.2601051837917
20
2.32957743910674
30
0
41
1
10
34.8474828951749
20
2.0715777118038
30
0
41
1
10
35.1407724731804
20
1.94007683654897
30
0
41
1
10
35.7272941704975
20
1.67268298497689
30
0
41
1
10
36.0204502436344
20
1.53660870689049
30
0
41
1
10
36.6068288285225
20
1.26107028755575
30
0
41
1
10
36.9000704570918
20
1.12178650320334
30
0
41
1
10
37.4870783460104
20
0.840146923793299
30
0
41
1
10
37.7811930910499
20
0.697786217253679
30
0
41
1
10
38.3692995018431
20
0.412011842845459
30
0
41
1
10
38.6628916076987
20
0.268513841617533
30
0
41
1
10
39.2496058022551
20
-0.0187940259635866
30
0
41
1
10
39.5427673247309
20
-0.162457705850841
30
0
41
1
10
40.1290251386171
20
-0.449147334993739
30
0
41
1
10
40.422518374901
20
-0.591367254289253
30
0
41
1
10
41.0090558750314
20
-0.876123050825754
30
0
41
1
10
41.3024449048506
20
-1.01790346749721
30
0
41
1
10
41.8901920780494
20
-1.29868791630409
30
0
41
1
10
42.1844173173456
20
-1.43745403868004
30
0
41
1
10
42.7715073336835
20
-1.71134842035917
30
0
41
1
10
43.0647681916988
20
-1.84665705573835
30
0
41
1
10
43.6511154877109
20
-2.11176748125138
30
0
41
1
10
43.9441436213557
20
-2.24180466743613
30
0
41
1
10
44.5308115928928
20
-2.49559821037366
30
0
41
1
10
44.8240079379998
20
-2.62043626109858
30
0
41
1
10
45.4108537713608
20
-2.86417930044377
30
0
41
1
10
45.7050119475216
20
-2.98253256501431
30
0
41
1
10
46.2926406756693
20
-3.21125269907858
30
0
41
1
10
46.5861083225943
20
-3.32151600174527
30
0
41
1
10
47.1726954619346
20
-3.53502193833359
30
0
41
1
10
47.4656962641023
20
-3.63774256755263
30
0
41
1
10
48.0518343267027
20
-3.83315806753649
30
0
41
1
10
48.3451157562664
20
-3.92583582539587
30
0
41
1
10
48.9317869961334
20
-4.1029852245783
30
0
41
1
10
49.2250207513908
20
-4.18796995513716
30
0
41
1
10
49.812800927733
20
-4.345732255695
30
0
41
1
10
50.1066651714035
20
-4.41891341877346
30
0
41
1
10
50.6935547880977
20
-4.55436686909195
30
0
41
1
10
50.9867073411788
20
-4.61738771477167
30
0
41
1
10
51.5727019947228
20
-4.73244460574045
30
0
41
1
10
51.8656301079943
20
-4.7836689510454
30
0
41
1
10
52.451962157739
20
-4.87426948683961
30
0
41
1
10
52.7454298650729
20
-4.91368507376009
30
0
41
1
10
53.3322260220159
20
-4.98270645962054
30
0
41
1
10
53.6262894003497
20
-5.01115093162664
30
0
41
1
10
54.2134051999818
20
-5.05431892619654
30
0
41
1
10
54.5067181604082
20
-5.06949724868522
30
0
41
1
10
55.092791455426
20
-5.0885761328278
30
0
41
1
10
55.3856716012701
20
-5.09247013472171
30
0
41
1
10
55.9716478493615
20
-5.08681049900829
30
0
41
1
10
56.2646234396124
20
-5.07754714574313
30
0
41
1
10
56.8510128744639
20
-5.04810597436838
30
0
41
1
10
57.1443289004694
20
-5.02843474901181
30
0
41
1
10
57.7318073169897
20
-4.97537111127841
30
0
41
1
10
58.0252418838276
20
-4.94194537251187
30
0
41
1
10
58.9046636738035
20
-4.82316264345201
30
0
41
1
10
59.4899941391908
20
-4.71994405627711
30
0
41
1
10
60.3686100810532
20
-4.53400587706264
30
0
41
1
10
60.6618190637654
20
-4.46726444663972
30
0
41
1
10
61.2483712718381
20
-4.32289086310644
30
0
41
1
10
61.5420622415438
20
-4.2448364866957
30
0
41
1
10
62.4215871908541
20
-3.99494961564554
30
0
41
1
10
63.0066901453957
20
-3.80803626804968
30
0
41
1
10
63.7074817748619
20
-3.56327738201114
30
0
41
1
10
63.8230761000127
20
-3.52221438497682
30
0
41
1
10
63.9387032477134
20
-3.48051694778033
30
0
0
SPLINE
5
DD
100
AcDbEntity
8
1
62
256
6
ByLayer
370
18
48
1
60
0
100
AcDbSpline
70
4
71
3
72
8
73
4
40
0
40
0
40
0
40
0
40
1
40
1
40
1
40
1
41
1
10
5.42248283082483
20
3.76981309929323
30
0
41
1
10
5.39274816495683
20
3.77991846488482
30
0
41
1
10
5.36301078577441
20
3.78998410311306
30
0
41
1
10
5.33327056908649
20
3.80000965378167
30
0
0
SPLINE
5
DE
100
AcDbEntity
8
1
62
256
6
ByLayer
370
18
48
1
60
0
100
AcDbSpline
70
4
71
3
72
8
73
4
40
0
40
0
40
0
40
0
40
1
40
1
40
1
40
1
41
1
10
71.1380123048245
20
-5.19459210432822
30
0
41
1
10
71.1128567512214
20
-5.16807067056629
30
0
41
1
10
71.0903889355421
20
-5.1319842618812
30
0
41
1
10
71.0705120423475
20
-5.08653009050471
30
0
0
SPLINE
5
DF
100
AcDbEntity
8
1
62
256
6
ByLayer
370
18
48
1
60
0
100
AcDbSpline
70
4
71
3
72
8
73
4
40
0
40
0
40
0
40
0
40
1
40
1
40
1
40
1
41
1
10
5.57929678265199
20
3.64491340523526
30
0
41
1
10
5.52681352200236
20
3.68625576131879
30
0
41
1
10
5.47454201088235
20
3.72788869706938
30
0
41
1
10
5.42248283082574
20
3.76981309929934
30
0
0
SPLINE
5
E0
100
AcDbEntity
8
1
62
256
6
ByLayer
370
18
48
1
60
0
100
AcDbSpline
70
4
71
3
72
54
73
50
40
0
40
0
40
0
40
0
40
0.03761534341236
40
0.03761534341236
40
0.0752306868247201
40
0.0752306868247201
40
0.11284603023708
40
0.11284603023708
40
0.15046137364944
40
0.15046137364944
40
0.1880767170618
40
0.1880767170618
40
0.22569206047416
40
0.22569206047416
40
0.26330740388652
40
0.26330740388652
40
0.30092274729888
40
0.30092274729888
40
0.33853809071124
40
0.33853809071124
40
0.3761534341236
40
0.3761534341236
40
0.41376877753596
40
0.41376877753596
40
0.45138412094832
40
0.45138412094832
40
0.48899946436068
40
0.48899946436068
40
0.526614807773041
40
0.526614807773041
40
0.601845494597759
40
0.601845494597759
40
0.639460838010118
40
0.639460838010118
40
0.677076181422478
40
0.677076181422478
40
0.714691524834837
40
0.714691524834837
40
0.752306868247196
40
0.752306868247196
40
0.827537555071915
40
0.827537555071915
40
0.865152898484273
40
0.865152898484273
40
0.902768241896632
40
0.902768241896632
40
0.977998928721349
40
0.977998928721349
40
1
40
1
40
1
40
1
41
1
10
18.058814188183
20
2.74616111221545
30
0
41
1
10
18.336307685645
20
2.629188775648
30
0
41
1
10
18.6134678596666
20
2.5095388778922
30
0
41
1
10
19.1674943054428
20
2.26560288363572
30
0
41
1
10
19.4440709876521
20
2.14079070408295
30
0
41
1
10
19.9972313107451
20
1.88707510857176
30
0
41
1
10
20.2739611852162
20
1.75845463599265
30
0
41
1
10
20.8274853778723
20
1.4972637625506
30
0
41
1
10
21.1041527173648
20
1.36443719788466
30
0
41
1
10
21.6583222861959
20
1.09628326241255
30
0
41
1
10
21.9360193685375
20
0.960669694375497
30
0
41
1
10
22.4906685045413
20
0.687943657781688
30
0
41
1
10
22.7675809382405
20
0.550725454776909
30
0
41
1
10
23.3210907580744
20
0.275604648286759
30
0
41
1
10
23.5974766292364
20
0.137275831469253
30
0
41
1
10
24.1504980382424
20
-0.138928250369673
30
0
41
1
10
24.4272260628149
20
-0.276616946239017
30
0
41
1
10
24.9807576890252
20
-0.551891404788847
30
0
41
1
10
25.2575005799433
20
-0.689599745693386
30
0
41
1
10
25.812002849375
20
-0.963016761264953
30
0
41
1
10
26.0895846585744
20
-1.09900251895928
30
0
41
1
10
26.6436578846254
20
-1.36773611636985
30
0
41
1
10
26.9202992293452
20
-1.50086181422438
30
0
41
1
10
27.4734896912781
20
-1.76328680633986
30
0
41
1
10
27.7496966665618
20
-1.89323413170237
30
0
41
1
10
28.302641976762
20
-2.14812629601462
30
0
41
1
10
28.5793870335576
20
-2.2730756332075
30
0
41
1
10
29.132983622603
20
-2.51877100654127
30
0
41
1
10
29.4099107866889
20
-2.63948302307298
30
0
41
1
10
30.242115171514
20
-2.99229217620416
30
0
41
1
10
30.795178703422
20
-3.21517768941084
30
0
41
1
10
31.6245952704455
20
-3.52730528851399
30
0
41
1
10
31.900678824794
20
-3.62817101940953
30
0
41
1
10
32.4536608968731
20
-3.82121143842323
30
0
41
1
10
32.7304731276125
20
-3.91354486673404
30
0
41
1
10
33.2842418937812
20
-4.090460830084
30
0
41
1
10
33.56159423502
20
-4.17492664404665
30
0
41
1
10
34.1157356738146
20
-4.33412256573476
30
0
41
1
10
34.3924156384992
20
-4.40911638190454
30
0
41
1
10
35.2221241487274
20
-4.61946092258142
30
0
41
1
10
35.7740436108287
20
-4.74088127624898
30
0
41
1
10
36.6036785625791
20
-4.89158045436233
30
0
41
1
10
36.8805747816928
20
-4.9365779016772
30
0
41
1
10
37.434598405345
20
-5.01630761831314
30
0
41
1
10
37.7118041282277
20
-5.050849249224
30
0
41
1
10
38.5421087595746
20
-5.13781085353935
30
0
41
1
10
39.0944390938607
20
-5.17394769284644
30
0
41
1
10
39.8086222615095
20
-5.19199186488507
30
0
41
1
10
39.9702734735088
20
-5.19417686438246
30
0
41
1
10
40.1319848482975
20
-5.19446062467915
30
0
0
SPLINE
5
E1
100
AcDbEntity
8
1
62
256
6
ByLayer
370
18
48
1
60
0
100
AcDbSpline
70
4
71
3
72
18
73
14
40
0
40
0
40
0
40
0
40
0.0823621850246108
40
0.0823621850246108
40
0.311771638768459
40
0.311771638768459
40
0.541181092512307
40
0.541181092512307
40
0.65588581938423
40
0.65588581938423
40
0.770590546256153
40
0.770590546256153
40
1
40
1
40
1
40
1
41
1
10
63.9220705481217
20
3.48421559979846
30
0
41
1
10
64.1206007571092
20
3.55951044776637
30
0
41
1
10
64.3192703436816
20
3.63297225249389
30
0
41
1
10
65.0703702400564
20
3.90319116374289
30
0
41
1
10
65.6220823238743
20
4.08488320854508
30
0
41
1
10
66.7244421205343
20
4.41330211537948
30
0
41
1
10
67.2754620018167
20
4.55950866912434
30
0
41
1
10
68.1039166916778
20
4.74934130455054
30
0
41
1
10
68.380617636532
20
4.80782601217336
30
0
41
1
10
68.9331440357121
20
4.91418242251535
30
0
41
1
10
69.2092270644661
20
4.96193090934918
30
0
41
1
10
70.0364700808109
20
5.08938801595727
30
0
41
1
10
70.5870627934369
20
5.15298619343713
30
0
41
1
10
71.1380123048245
20
5.19459210432822
30
0
0
SPLINE
5
E2
100
AcDbEntity
8
1
62
256
6
ByLayer
370
18
48
1
60
0
100
AcDbSpline
70
4
71
3
72
34
73
30
40
0
40
0
40
0
40
0
40
0.0312500000000021
40
0.0312500000000021
40
0.0625000000000041
40
0.0625000000000041
40
0.0937500000000062
40
0.0937500000000062
40
0.125000000000008
40
0.125000000000008
40
0.18750000000001
40
0.18750000000001
40
0.250000000000011
40
0.250000000000011
40
0.375000000000011
40
0.375000000000011
40
0.43750000000001
40
0.43750000000001
40
0.500000000000009
40
0.500000000000009
40
0.625000000000006
40
0.625000000000006
40
0.750000000000003
40
0.750000000000003
40
0.812500000000001
40
0.812500000000001
40
0.875
40
0.875
40
1
40
1
40
1
40
1
41
1
10
5.6104992962085
20
4.13087896033653
30
0
41
1
10
5.63861448730631
20
4.16988887917341
30
0
41
1
10
5.6738182817235
20
4.20574172796634
30
0
41
1
10
5.75596819205015
20
4.27243769085706
30
0
41
1
10
5.80175382890906
20
4.30237569715229
30
0
41
1
10
5.90026535280197
20
4.3572916258409
30
0
41
1
10
5.95303084968222
20
4.38226489172862
30
0
41
1
10
6.06417292787987
20
4.42840737113374
30
0
41
1
10
6.12235838433367
20
4.44946336526371
30
0
41
1
10
6.30039474962283
20
4.50711587584266
30
0
41
1
10
6.42480061050128
20
4.53878549965879
30
0
41
1
10
6.68149788726828
20
4.59365485611727
30
0
41
1
10
6.81449636771129
20
4.61685714834599
30
0
41
1
10
7.21710220432382
20
4.67642396737068
30
0
41
1
10
7.49052101566596
20
4.7033183596412
30
0
41
1
10
7.90595956299734
20
4.73253747173641
30
0
41
1
10
8.04535337371505
20
4.74032232247066
30
0
41
1
10
8.32583165351519
20
4.75252914447915
30
0
41
1
10
8.46723570152855
20
4.75695357361721
30
0
41
1
10
8.89167417872085
20
4.76552229353209
30
0
41
1
10
9.17280615580452
20
4.76504330332446
30
0
41
1
10
9.73168828061478
20
4.75251835353558
30
0
41
1
10
10.0094319904175
20
4.74044929573458
30
0
41
1
10
10.4234752343763
20
4.71230765858277
30
0
41
1
10
10.5610591230428
20
4.70123609559661
30
0
41
1
10
10.8353438891824
20
4.67527242716287
30
0
41
1
10
10.972353103005
20
4.66034100761345
30
0
41
1
10
11.3799042720335
20
4.60920162974787
30
0
41
1
10
11.6443392802806
20
4.56705027956997
30
0
41
1
10
11.9016731984628
20
4.51490306036317
30
0
0
SPLINE
5
E3
100
AcDbEntity
8
1
62
256
6
ByLayer
370
18
48
1
60
0
100
AcDbSpline
70
4
71
3
72
8
73
4
40
0
40
0
40
0
40
0
40
1
40
1
40
1
40
1
41
1
10
72.9995971320773
20
-0.122824863164794
30
0
41
1
10
72.79793921299
20
-0.640868377784273
30
0
41
1
10
72.6070660740162
20
-1.16670926337554
30
0
41
1
10
72.4236998874807
20
-1.69912919261498
30
0
0
SPLINE
5
E4
100
AcDbEntity
8
1
62
256
6
ByLayer
370
18
48
1
60
0
100
AcDbSpline
70
4
71
1
72
4
73
2
40
0
40
0
40
1
40
1
41
1
10
71.0896670236403
20
-4.9825015823948
30
0
41
1
10
72.246619537835
20
-1.07669535182268
30
0
0
SPLINE
5
E5
100
AcDbEntity
8
1
62
256
6
ByLayer
370
18
48
1
60
0
100
AcDbSpline
70
4
71
4
72
10
73
5
40
0
40
0
40
0
40
0
40
0
40
1
40
1
40
1
40
1
40
1
41
1
10
18.0588141881829
20
2.74616111221542
30
0
41
1
10
17.8162349725829
20
2.40069544958422
30
0
41
1
10
17.5736557569828
20
2.05522978695299
30
0
41
1
10
17.3310765413828
20
1.70976412432179
30
0
41
1
10
17.0884973257827
20
1.3642984616906
30
0
0
SPLINE
5
E6
100
AcDbEntity
8
1
62
256
6
ByLayer
370
18
48
1
60
0
100
AcDbSpline
70
4
71
3
72
10
73
6
40
0
40
0
40
0
40
0
40
0.499999999999999
40
0.499999999999999
40
1
40
1
40
1
40
1
41
1
10
5.42248283084029
20
3.76981309929064
30
0
41
1
10
5.44533803539417
20
3.83589081135514
30
0
41
1
10
5.4730478958794
20
3.89962039310248
30
0
41
1
10
5.53607495909074
20
4.0198596702802
30
0
41
1
10
5.57152090250662
20
4.07679631265273
30
0
41
1
10
5.61049929620853
20
4.1308789603365
30
0
0
SPLINE
5
E7
100
AcDbEntity
8
1
62
256
6
ByLayer
370
18
48
1
60
0
100
AcDbSpline
70
4
71
3
72
8
73
4
40
0
40
0
40
0
40
0
40
1
40
1
40
1
40
1
41
1
10
72.9995971320772
20
0.122824863164993
30
0
41
1
10
72.7985141895323
20
0.639391307753158
30
0
41
1
10
72.6075845816916
20
1.16520373051222
30
0
41
1
10
72.4236998874808
20
1.69912919261469
30
0
0
SPLINE
5
E8
100
AcDbEntity
8
1
62
256
6
ByLayer
370
18
48
1
60
0
100
AcDbSpline
70
4
71
3
72
13
73
9
40
0
40
0
40
0
40
0
40
0.231408461690746
40
0.405053555163107
40
0.520759393435621
40
0.636864394517347
40
0.810700737673872
40
1
40
1
40
1
40
1
41
1
10
23.2897387727351
20
0.0281806861926839
30
0
41
1
10
23.4391640566079
20
-0.0061001041351574
30
0
41
1
10
23.7006254712649
20
-0.0741329650850844
30
0
41
1
10
24.0363607433587
20
-0.179631684426738
30
0
41
1
10
24.2979207245735
20
-0.271865421082111
30
0
41
1
10
24.5590145492084
20
-0.372093414625084
30
0
41
1
10
24.8664134714739
20
-0.501328109518482
30
0
41
1
10
25.0987816713945
20
-0.61176987121442
30
0
41
1
10
25.2197218576438
20
-0.67254593556541
30
0
0
SPLINE
5
E9
100
AcDbEntity
8
1
62
256
6
ByLayer
370
18
48
1
60
0
100
AcDbSpline
70
4
71
3
72
11
73
7
40
0
40
0
40
0
40
0
40
0.207010025791324
40
0.446138744187038
40
0.717610741250485
40
1
40
1
40
1
40
1
41
1
10
55.7896654617491
20
0.0281518718549307
30
0
41
1
10
55.9260531170652
20
-0.003159477284953
30
0
41
1
10
56.2197262962483
20
-0.0787809817421419
30
0
41
1
10
56.6911896503436
20
-0.228893180784155
30
0
41
1
10
57.2110090170858
20
-0.429860802169714
30
0
41
1
10
57.5729497719693
20
-0.597809345277113
30
0
41
1
10
57.7572153434884
20
-0.690523680816426
30
0
0
SPLINE
5
EA
100
AcDbEntity
8
1
62
256
6
ByLayer
370
18
48
1
60
0
100
AcDbSpline
70
4
71
3
72
30
73
26
40
0
40
0
40
0
40
0
40
0.0443552933751242
40
0.0878022004250759
40
0.133190175627047
40
0.170874971363124
40
0.200934664022575
40
0.236578670292069
40
0.294343667836615
40
0.345023212735811
40
0.394577100835984
40
0.443039581808432
40
0.494075619781698
40
0.541169361439931
40
0.576914423083463
40
0.613829603153488
40
0.656208552655593
40
0.699654403892493
40
0.732088285258804
40
0.773709793261313
40
0.828577442284549
40
0.883761735192336
40
0.934697528995829
40
0.985423567472123
40
1
40
1
40
1
40
1
41
1
10
41.6115375470471
20
-5.06683721721984
30
0
41
1
10
41.8049505111603
20
-5.06579223268059
30
0
41
1
10
42.1931227272251
20
-5.06473549774415
30
0
41
1
10
42.8201870920411
20
-5.06521974732664
30
0
41
1
10
43.3878589450577
20
-5.07044713025024
30
0
41
1
10
43.9075313858785
20
-5.07089122640855
30
0
41
1
10
44.3863635610646
20
-5.07157879598131
30
0
41
1
10
44.9570339278347
20
-5.072578603685
30
0
41
1
10
45.6234975273176
20
-5.07425175237171
30
0
41
1
10
46.3541631554024
20
-5.07480356117296
30
0
41
1
10
47.0418444861564
20
-5.07617917980139
30
0
41
1
10
47.7311445063849
20
-5.07795865547374
30
0
41
1
10
48.4090940300315
20
-5.07816385195125
30
0
41
1
10
49.0282242061356
20
-5.07962506065522
30
0
41
1
10
49.5820367809048
20
-5.08128884575936
30
0
41
1
10
50.1140944563466
20
-5.08165578965344
30
0
41
1
10
50.6810638974629
20
-5.08137296325998
30
0
41
1
10
51.2283203208143
20
-5.08316980026692
30
0
41
1
10
51.7708116980481
20
-5.08475583833612
30
0
41
1
10
52.3668950562722
20
-5.08496451554939
30
0
41
1
10
53.0683642262146
20
-5.0861747665335
30
0
41
1
10
53.8128711025948
20
-5.08899003554114
30
0
41
1
10
54.5382384760653
20
-5.08854303669682
30
0
41
1
10
55.0758069469473
20
-5.08985253293383
30
0
41
1
10
55.3778057426966
20
-5.09031291409696
30
0
41
1
10
55.445215960578
20
-5.09042085553196
30
0
0
SPLINE
5
EB
100
AcDbEntity
8
1
62
256
6
ByLayer
370
18
48
1
60
0
100
AcDbSpline
70
4
71
3
72
26
73
22
40
0
40
0
40
0
40
0
40
0.033173148192001
40
0.0852466788160466
40
0.128943912852914
40
0.166479075164703
40
0.216506368923272
40
0.280930555223513
40
0.343806030940862
40
0.40177120996813
40
0.474648611489441
40
0.545013859545669
40
0.606016268003514
40
0.675620579072373
40
0.734217608638892
40
0.788726692685677
40
0.837462370414004
40
0.882433029330366
40
0.917628793728101
40
0.955943544645348
40
1
40
1
40
1
40
1
41
1
10
22.9461589839328
20
5.03485823124885
30
0
41
1
10
22.8121210581225
20
5.03427350492277
30
0
41
1
10
22.4677039740968
20
5.03298217936722
30
0
41
1
10
21.9484033102638
20
5.03176494536166
30
0
41
1
10
21.4086910043149
20
5.03162235123742
30
0
41
1
10
20.8809035653318
20
5.03141847683418
30
0
41
1
10
20.2666052728678
20
5.02855790918511
30
0
41
1
10
19.5501632587546
20
5.02820156083871
30
0
41
1
10
18.8015403971154
20
5.02611413151877
30
0
41
1
10
18.0187857955694
20
5.02489620006523
30
0
41
1
10
17.2057641762266
20
5.02387311029395
30
0
41
1
10
16.3804703584681
20
5.02165243088123
30
0
41
1
10
15.5683973378764
20
5.02096737732006
30
0
41
1
10
14.8038899124349
20
5.01923532515062
30
0
41
1
10
14.0656163960349
20
5.01785269281788
30
0
41
1
10
13.4116364188183
20
5.01701839567184
30
0
41
1
10
12.8128166142238
20
5.01565985195882
30
0
41
1
10
12.2917681963402
20
5.01464313977567
30
0
41
1
10
11.8139100681974
20
5.01371844869593
30
0
41
1
10
11.3376403664871
20
5.0133108218154
30
0
41
1
10
11.0099360043581
20
5.01222364809075
30
0
41
1
10
10.833401132858
20
5.01167626464164
30
0
0
SPLINE
5
EC
100
AcDbEntity
8
1
62
256
6
ByLayer
370
18
48
1
60
0
100
AcDbSpline
70
4
71
3
72
11
73
7
40
0
40
0
40
0
40
0
40
0.208596088170857
40
0.449121881135447
40
0.721807802903634
40
1
40
1
40
1
40
1
41
1
10
39.7656446662187
20
-0.0274637285408232
30
0
41
1
10
39.6343710428824
20
0.0026991618261718
30
0
41
1
10
39.3523605003002
20
0.0750286643114464
30
0
41
1
10
38.9015518165886
20
0.217239611334406
30
0
41
1
10
38.4094420060441
20
0.404236493380012
30
0
41
1
10
38.0684872037213
20
0.559012439565805
30
0
41
1
10
37.8967139165453
20
0.643332753719108
30
0
0
SPLINE
5
ED
100
AcDbEntity
8
1
62
256
6
ByLayer
370
18
48
1
60
0
100
AcDbSpline
70
4
71
3
72
28
73
24
40
0
40
0
40
0
40
0
40
0.0616761526026857
40
0.115602661552058
40
0.158299780696244
40
0.19201548446194
40
0.222867335271304
40
0.261474570681657
40
0.303740343268698
40
0.337840813196597
40
0.366671254424413
40
0.419489896808514
40
0.476258267665556
40
0.526548503771273
40
0.586012738351802
40
0.646303878483911
40
0.701706255913432
40
0.762190512308986
40
0.821565067234985
40
0.864745231214313
40
0.902411477556566
40
0.954735045752294
40
1
40
1
40
1
40
1
41
1
10
9.18837251181645
20
-5.00862189534925
30
0
41
1
10
9.4696312410785
20
-5.0087740906576
30
0
41
1
10
9.99680425631254
20
-5.00941155482843
30
0
41
1
10
10.7275960568423
20
-5.0112438498125
30
0
41
1
10
11.3161395132595
20
-5.01329283283695
30
0
41
1
10
11.809819224887
20
-5.01371101802422
30
0
41
1
10
12.2826137753637
20
-5.01462725157168
30
0
41
1
10
12.7957165749323
20
-5.01562237534395
30
0
41
1
10
13.3234851356165
20
-5.01681989592723
30
0
41
1
10
13.8064550835964
20
-5.01755063665789
30
0
41
1
10
14.3378367684464
20
-5.01828222857355
30
0
41
1
10
14.9733145468885
20
-5.01970123243962
30
0
41
1
10
15.7072899995838
20
-5.02108685245338
30
0
41
1
10
16.4717895660693
20
-5.02183044635873
30
0
41
1
10
17.2524603759219
20
-5.02399144165318
30
0
41
1
10
18.0565897070861
20
-5.02491058994474
30
0
41
1
10
18.8654444435871
20
-5.02630940055636
30
0
41
1
10
19.669937822504
20
-5.02830295816844
30
0
41
1
10
20.4188451666336
20
-5.02902663456413
30
0
41
1
10
21.0613251413038
20
-5.03193132369418
30
0
41
1
10
21.6719945895141
20
-5.03144991508404
30
0
41
1
10
22.2922164258566
20
-5.03235234602991
30
0
41
1
10
22.7398712358931
20
-5.03398196439284
30
0
41
1
10
22.9475303260458
20
-5.03495662798156
30
0
0
SPLINE
5
EE
100
AcDbEntity
8
1
62
256
6
ByLayer
370
18
48
1
60
0
100
AcDbSpline
70
4
71
3
72
27
73
23
40
0
40
0
40
0
40
0
40
0.0449555789887135
40
0.103809276347799
40
0.159586779254754
40
0.21945295849872
40
0.273832793198241
40
0.314651017131242
40
0.349134312293025
40
0.395541700032855
40
0.453852149041016
40
0.503019523466305
40
0.560790475603373
40
0.632088879351933
40
0.699810566483249
40
0.760908607027794
40
0.808585373939576
40
0.86308626079753
40
0.910124037423253
40
0.946887905791848
40
0.9913066385302
40
1
40
1
40
1
40
1
41
1
10
55.4450104386128
20
5.09041292715466
30
0
41
1
10
55.26431591227
20
5.08997969537779
30
0
41
1
10
54.8470631866176
20
5.08914806279375
30
0
41
1
10
54.2056119653742
20
5.08867643631893
30
0
41
1
10
53.5042215756358
20
5.088441655477
30
0
41
1
10
52.8208488547861
20
5.08515256538891
30
0
41
1
10
52.1975048786864
20
5.08505079882153
30
0
41
1
10
51.6766476572758
20
5.08453688948231
30
0
41
1
10
51.1880509748408
20
5.08299297062587
30
0
41
1
10
50.6283260158639
20
5.08128720162094
30
0
41
1
10
50.0104718413564
20
5.08171007163418
30
0
41
1
10
49.3461329846041
20
5.08089369794052
30
0
41
1
10
48.6297644049142
20
5.07813978568618
30
0
41
1
10
47.8387530738393
20
5.07822424416611
30
0
41
1
10
47.0344114082594
20
5.07609728219364
30
0
41
1
10
46.3249911245707
20
5.07484061252654
30
0
41
1
10
45.6687211829786
20
5.07423167451103
30
0
41
1
10
45.0689239718283
20
5.07292711991829
30
0
41
1
10
44.5132201179816
20
5.07175385472033
30
0
41
1
10
43.9974642694773
20
5.07097627548367
30
0
41
1
10
43.6373753563889
20
5.07078820981954
30
0
41
1
10
43.4278170567591
20
5.0697771014535
30
0
41
1
10
43.3935671399798
20
5.06959442047193
30
0
0
SPLINE
5
EF
100
AcDbEntity
8
1
62
256
6
ByLayer
370
18
48
1
60
0
100
AcDbSpline
70
4
71
2
72
6
73
3
40
0
40
0
40
0
40
1
40
1
40
1
41
1
10
70.9044480833402
20
0.405485355564821
30
0
41
1
10
70.6213217919989
20
0.515502294262461
30
0
41
1
10
70.3468723791935
20
0.66599712458958
30
0
0
LINE
5
7B
100
AcDbEntity
8
SK1
62
256
6
ByLayer
370
18
48
1
60
0
100
AcDbLine
10
-43.267949
20
6
30
0
11
-43.267949
21
-6
31
0
39
0
210
0
220
0
230
1
0
LINE
5
7D
100
AcDbEntity
8
SK1
62
256
6
ByLayer
370
18
48
1
60
0
100
AcDbLine
10
0
20
-6
30
0
11
0
21
6
31
0
39
0
210
0
220
0
230
1
0
LINE
5
7E
100
AcDbEntity
8
SK1
62
256
6
ByLayer
370
18
48
1
60
0
100
AcDbLine
10
-45
20
3
30
0
11
-45
21
-3
31
0
39
0
210
0
220
0
230
1
0
LINE
5
7F
100
AcDbEntity
8
1
62
256
6
ByLayer
370
18
48
1
60
0
100
AcDbLine
10
70.450885
20
-2.518359
30
0
11
72.24662
21
-1.076695
31
0
39
0
210
0
220
0
230
1
0
LINE
5
80
100
AcDbEntity
8
1
62
256
6
ByLayer
370
18
48
1
60
0
100
AcDbLine
10
72.24662
20
-1.076695
30
0
11
72.248964
21
-1.061369
31
0
39
0
210
0
220
0
230
1
0
LINE
5
81
100
AcDbEntity
8
1
62
256
6
ByLayer
370
13
48
1
60
0
100
AcDbLine
10
0.743225
20
5.562452
30
0
11
0.743225
21
-5.562452
31
0
39
0
210
0
220
0
230
1
0
LINE
5
82
100
AcDbEntity
8
1
62
256
6
ByLayer
370
13
48
1
60
0
100
AcDbLine
10
1.487979
20
5.124906
30
0
11
1.487979
21
-5.124906
31
0
39
0
210
0
220
0
230
1
0
LINE
5
83
100
AcDbEntity
8
1
62
256
6
ByLayer
370
18
48
1
60
0
100
AcDbLine
10
0
20
-6
30
0
11
0
21
6
31
0
39
0
210
0
220
0
230
1
0
LINE
5
84
100
AcDbEntity
8
80
62
256
6
ByLayer
370
18
48
1
60
0
100
AcDbLine
10
0
20
0
30
0
11
-5
21
0
31
0
39
0
210
0
220
0
230
1
0
LINE
5
85
100
AcDbEntity
8
4
62
256
6
ByLayer
370
18
48
0.05
60
0
100
AcDbLine
10
73
20
0
30
0
11
0
21
0
31
0
39
0
210
0
220
0
230
1
0
LINE
5
87
100
AcDbEntity
8
SK4
62
256
6
ByLayer
370
18
48
0.05
60
0
100
AcDbLine
10
78
20
0
30
0
11
-50
21
0
31
0
39
0
210
0
220
0
230
1
0
LINE
5
89
100
AcDbEntity
8
SK1
62
256
6
ByLayer
370
18
48
1
60
0
100
AcDbLine
10
-45
20
-3
30
0
11
-43.267949
21
-6
31
0
39
0
210
0
220
0
230
1
0
LINE
5
8A
100
AcDbEntity
8
SK1
62
256
6
ByLayer
370
18
48
1
60
0
100
AcDbLine
10
-43.267949
20
6
30
0
11
-45
21
3
31
0
39
0
210
0
220
0
230
1
0
LINE
5
8B
100
AcDbEntity
8
SK1
62
256
6
ByLayer
370
18
48
1
60
0
100
AcDbLine
10
-43.267949
20
-6
30
0
11
0
21
-6
31
0
39
0
210
0
220
0
230
1
0
LINE
5
8C
100
AcDbEntity
8
SK1
62
256
6
ByLayer
370
18
48
1
60
0
100
AcDbLine
10
0
20
6
30
0
11
-43.267949
21
6
31
0
39
0
210
0
220
0
230
1
0
LINE
5
8D
100
AcDbEntity
8
1
62
256
6
ByLayer
370
18
48
1
60
0
100
AcDbLine
10
1.487979
20
-5.124906
30
0
11
8.66046
21
-5.137817
31
0
39
0
210
0
220
0
230
1
0
LINE
5
8E
100
AcDbEntity
8
1
62
256
6
ByLayer
370
18
48
1
60
0
100
AcDbLine
10
40.130622
20
-5.194463
30
0
11
41.160739
21
-5.196317
31
0
39
0
210
0
220
0
230
1
0
LINE
5
8F
100
AcDbEntity
8
1
62
256
6
ByLayer
370
18
48
1
60
0
100
AcDbLine
10
41.160739
20
5.196317
30
0
11
40.130622
21
5.194463
31
0
39
0
210
0
220
0
230
1
0
LINE
5
90
100
AcDbEntity
8
1
62
256
6
ByLayer
370
18
48
1
60
0
100
AcDbLine
10
8.66046
20
5.137817
30
0
11
1.487979
21
5.124906
31
0
39
0
210
0
220
0
230
1
0
LINE
5
91
100
AcDbEntity
8
81
62
256
6
ByLayer
370
18
48
1
60
0
100
AcDbLine
10
73
20
0
30
0
11
78
21
0
31
0
39
0
210
0
220
0
230
1
0
LINE
5
92
100
AcDbEntity
8
SK2
62
256
6
ByLayer
370
13
48
1
60
0
100
AcDbLine
10
-53.625163
20
-6
30
0
11
-53.625163
21
36.857173
31
0
39
0
210
0
220
0
230
1
0
LINE
5
94
100
AcDbEntity
8
SK2
62
256
6
ByLayer
370
13
48
1
60
0
100
AcDbLine
10
-46.5875
20
6
30
0
11
-55.625163
21
6
31
0
39
0
210
0
220
0
230
1
0
LINE
5
95
100
AcDbEntity
8
SK2
62
256
6
ByLayer
370
13
48
1
60
0
100
AcDbLine
10
-46.5875
20
-6
30
0
11
-55.625163
21
-6
31
0
39
0
210
0
220
0
230
1
0
LINE
5
96
100
AcDbEntity
8
1
62
256
6
ByLayer
370
18
48
1
60
1
100
AcDbLine
10
-53.625163
20
6
30
0
11
-53.164379
21
2.500002
31
0
39
0
210
0
220
0
230
1
0
LINE
5
97
100
AcDbEntity
8
1
62
256
6
ByLayer
370
18
48
1
60
1
100
AcDbLine
10
-53.164379
20
2.500002
30
0
11
-54.085946
21
2.499998
31
0
39
0
210
0
220
0
230
1
0
LINE
5
98
100
AcDbEntity
8
1
62
256
6
ByLayer
370
18
48
1
60
1
100
AcDbLine
10
-54.085946
20
2.499998
30
0
11
-53.625163
21
6
31
0
39
0
210
0
220
0
230
1
0
LINE
5
99
100
AcDbEntity
8
1
62
256
6
ByLayer
370
18
48
1
60
1
100
AcDbLine
10
-53.625163
20
-6
30
0
11
-54.085946
21
-2.500002
31
0
39
0
210
0
220
0
230
1
0
LINE
5
9A
100
AcDbEntity
8
1
62
256
6
ByLayer
370
18
48
1
60
1
100
AcDbLine
10
-54.085946
20
-2.500002
30
0
11
-53.164379
21
-2.499998
31
0
39
0
210
0
220
0
230
1
0
LINE
5
9B
100
AcDbEntity
8
1
62
256
6
ByLayer
370
18
48
1
60
1
100
AcDbLine
10
-53.164379
20
-2.499998
30
0
11
-53.625163
21
-6
31
0
39
0
210
0
220
0
230
1
0
LINE
5
9C
100
AcDbEntity
8
2
62
256
6
ByLayer
370
13
48
1
60
0
100
AcDbLine
10
85.083343
20
-5.25
30
0
11
85.083343
21
34.700259
31
0
39
0
210
0
220
0
230
1
0
LINE
5
9E
100
AcDbEntity
8
2
62
256
6
ByLayer
370
13
48
1
60
0
100
AcDbLine
10
72.572
20
5.25
30
0
11
87.083343
21
5.25
31
0
39
0
210
0
220
0
230
1
0
LINE
5
9F
100
AcDbEntity
8
2
62
256
6
ByLayer
370
13
48
1
60
0
100
AcDbLine
10
72.572
20
-5.25
30
0
11
87.083343
21
-5.25
31
0
39
0
210
0
220
0
230
1
0
LINE
5
A0
100
AcDbEntity
8
1
62
256
6
ByLayer
370
18
48
1
60
1
100
AcDbLine
10
85.083343
20
5.25
30
0
11
85.544126
21
1.750002
31
0
39
0
210
0
220
0
230
1
0
LINE
5
A1
100
AcDbEntity
8
1
62
256
6
ByLayer
370
18
48
1
60
1
100
AcDbLine
10
85.544126
20
1.750002
30
0
11
84.622559
21
1.749998
31
0
39
0
210
0
220
0
230
1
0
LINE
5
A2
100
AcDbEntity
8
1
62
256
6
ByLayer
370
18
48
1
60
1
100
AcDbLine
10
84.622559
20
1.749998
30
0
11
85.083343
21
5.25
31
0
39
0
210
0
220
0
230
1
0
LINE
5
A3
100
AcDbEntity
8
1
62
256
6
ByLayer
370
18
48
1
60
1
100
AcDbLine
10
85.083343
20
-5.25
30
0
11
84.622559
21
-1.750002
31
0
39
0
210
0
220
0
230
1
0
LINE
5
A4
100
AcDbEntity
8
1
62
256
6
ByLayer
370
18
48
1
60
1
100
AcDbLine
10
84.622559
20
-1.750002
30
0
11
85.544126
21
-1.749998
31
0
39
0
210
0
220
0
230
1
0
LINE
5
A5
100
AcDbEntity
8
1
62
256
6
ByLayer
370
18
48
1
60
1
100
AcDbLine
10
85.544126
20
-1.749998
30
0
11
85.083343
21
-5.25
31
0
39
0
210
0
220
0
230
1
0
LINE
5
F6
100
AcDbEntity
8
1
62
256
6
ByLayer
370
18
48
1
60
1
100
AcDbLine
10
-53.625163
20
6
30
0
11
-53.164379
21
2.500002
31
0
39
0
210
0
220
0
230
1
0
LINE
5
F7
100
AcDbEntity
8
1
62
256
6
ByLayer
370
18
48
1
60
1
100
AcDbLine
10
-53.164379
20
2.500002
30
0
11
-54.085946
21
2.499998
31
0
39
0
210
0
220
0
230
1
0
LINE
5
F8
100
AcDbEntity
8
1
62
256
6
ByLayer
370
18
48
1
60
1
100
AcDbLine
10
-54.085946
20
2.499998
30
0
11
-53.625163
21
6
31
0
39
0
210
0
220
0
230
1
0
LINE
5
FA
100
AcDbEntity
8
1
62
256
6
ByLayer
370
18
48
1
60
1
100
AcDbLine
10
-53.625163
20
-6
30
0
11
-54.085946
21
-2.500002
31
0
39
0
210
0
220
0
230
1
0
LINE
5
FB
100
AcDbEntity
8
1
62
256
6
ByLayer
370
18
48
1
60
1
100
AcDbLine
10
-54.085946
20
-2.500002
30
0
11
-53.164379
21
-2.499998
31
0
39
0
210
0
220
0
230
1
0
LINE
5
FC
100
AcDbEntity
8
1
62
256
6
ByLayer
370
18
48
1
60
1
100
AcDbLine
10
-53.164379
20
-2.499998
30
0
11
-53.625163
21
-6
31
0
39
0
210
0
220
0
230
1
0
LINE
5
100
100
AcDbEntity
8
1
62
256
6
ByLayer
370
18
48
1
60
1
100
AcDbLine
10
85.083343
20
5.25
30
0
11
85.544126
21
1.750002
31
0
39
0
210
0
220
0
230
1
0
LINE
5
101
100
AcDbEntity
8
1
62
256
6
ByLayer
370
18
48
1
60
1
100
AcDbLine
10
85.544126
20
1.750002
30
0
11
84.622559
21
1.749998
31
0
39
0
210
0
220
0
230
1
0
LINE
5
102
100
AcDbEntity
8
1
62
256
6
ByLayer
370
18
48
1
60
1
100
AcDbLine
10
84.622559
20
1.749998
30
0
11
85.083343
21
5.25
31
0
39
0
210
0
220
0
230
1
0
LINE
5
104
100
AcDbEntity
8
1
62
256
6
ByLayer
370
18
48
1
60
1
100
AcDbLine
10
85.083343
20
-5.25
30
0
11
84.622559
21
-1.750002
31
0
39
0
210
0
220
0
230
1
0
LINE
5
105
100
AcDbEntity
8
1
62
256
6
ByLayer
370
18
48
1
60
1
100
AcDbLine
10
84.622559
20
-1.750002
30
0
11
85.544126
21
-1.749998
31
0
39
0
210
0
220
0
230
1
0
LINE
5
106
100
AcDbEntity
8
1
62
256
6
ByLayer
370
18
48
1
60
1
100
AcDbLine
10
85.544126
20
-1.749998
30
0
11
85.083343
21
-5.25
31
0
39
0
210
0
220
0
230
1
0
MTEXT
5
F0
100
AcDbEntity
8
SK6
62
256
6
ByLayer
370
13
48
1
60
0
100
AcDbMText
10
-14.109026
20
37.790328
30
0
210
0
220
0
230
1
1
\W0.7386;860.1-1050-053A0-PM P1BM
40
3.5
41
0
44
1.084337
50
0
71
7
72
5
7
iso_b_vert
0
MTEXT
5
F4
100
AcDbEntity
8
SK2
62
256
6
ByLayer
370
18
48
1
60
0
100
AcDbMText
10
-55.189796
20
19.409024
30
0
210
0
220
0
230
1
1
%%c
40
3.5
41
0
44
1.084337
50
90
71
7
72
5
7
iso_b_vert
0
MTEXT
5
F5
100
AcDbEntity
8
SK2
62
256
6
ByLayer
370
18
48
1
60
0
100
AcDbMText
10
-55.189796
20
24.63168
30
0
210
0
220
0
230
1
1
\W0.6930;12,000
40
3.5
41
0
44
1.084337
50
90
71
7
72
5
7
iso_b_vert
0
MTEXT
5
FE
100
AcDbEntity
8
2
62
256
6
ByLayer
370
18
48
1
60
0
100
AcDbMText
10
83.518709
20
17.25211
30
0
210
0
220
0
230
1
1
%%c
40
3.5
41
0
44
1.084337
50
90
71
7
72
5
7
iso_b_vert
0
MTEXT
5
FF
100
AcDbEntity
8
2
62
256
6
ByLayer
370
18
48
1
60
0
100
AcDbMText
10
83.518709
20
22.474766
30
0
210
0
220
0
230
1
1
\W0.6930;10,500
40
3.5
41
0
44
1.084337
50
90
71
7
72
5
7
iso_b_vert
0
HATCH
5
F9
100
AcDbEntity
8
SK2
62
256
6
ByLayer
370
13
48
1
60
0
100
AcDbHatch
10
0
20
0
30
0
210
0
220
0
230
1
2
ANSI31
70
0
71
0
91
1
92
5
93
3
72
1
10
-53.6251625675374
20
6
11
-53.1643788259847
21
2.50000169255318
72
1
10
-53.1643788259847
20
2.50000169255318
11
-54.0859463090902
21
2.49999830744682
72
1
10
-54.0859463090902
20
2.49999830744682
11
-53.6251625675374
21
6
97
0
75
0
76
1
52
0
41
0.0062
77
0
78
1
53
45
43
0
44
0
45
-0.0139193969876572
46
0.0139193969876572
79
0
47
0
98
1
10
0
20
0
0
HATCH
5
FD
100
AcDbEntity
8
SK2
62
256
6
ByLayer
370
13
48
1
60
0
100
AcDbHatch
10
0
20
0
30
0
210
0
220
0
230
1
2
ANSI31
70
0
71
0
91
1
92
5
93
3
72
1
10
-53.6251625675374
20
-6
11
-54.0859463090902
21
-2.50000169255318
72
1
10
-54.0859463090902
20
-2.50000169255318
11
-53.1643788259847
21
-2.49999830744682
72
1
10
-53.1643788259847
20
-2.49999830744682
11
-53.6251625675374
21
-6
97
0
75
0
76
1
52
0
41
0.0062
77
0
78
1
53
45
43
0
44
0
45
-0.0139193969876572
46
0.0139193969876572
79
0
47
0
98
1
10
0
20
0
0
HATCH
5
103
100
AcDbEntity
8
2
62
256
6
ByLayer
370
13
48
1
60
0
100
AcDbHatch
10
0
20
0
30
0
210
0
220
0
230
1
2
ANSI31
70
0
71
0
91
1
92
5
93
3
72
1
10
85.083342615295
20
5.25
11
85.5441263568478
21
1.75000169255318
72
1
10
85.5441263568478
20
1.75000169255318
11
84.6225588737423
21
1.74999830744682
72
1
10
84.6225588737423
20
1.74999830744682
11
85.083342615295
21
5.25
97
0
75
0
76
1
52
0
41
0.0062
77
0
78
1
53
45
43
0
44
0
45
-0.0139193969876572
46
0.0139193969876572
79
0
47
0
98
1
10
0
20
0
0
HATCH
5
107
100
AcDbEntity
8
2
62
256
6
ByLayer
370
13
48
1
60
0
100
AcDbHatch
10
0
20
0
30
0
210
0
220
0
230
1
2
ANSI31
70
0
71
0
91
1
92
5
93
3
72
1
10
85.083342615295
20
-5.25
11
84.6225588737423
21
-1.75000169255318
72
1
10
84.6225588737423
20
-1.75000169255318
11
85.5441263568478
21
-1.74999830744682
72
1
10
85.5441263568478
20
-1.74999830744682
11
85.083342615295
21
-5.25
97
0
75
0
76
1
52
0
41
0.0062
77
0
78
1
53
45
43
0
44
0
45
-0.0139193969876572
46
0.0139193969876572
79
0
47
0
98
1
10
0
20
0
0
DIMENSION
5
109
100
AcDbEntity
8
2
62
256
6
ByLayer
370
13
48
1
60
0
100
AcDbDimension
2
_U0
10
70.9845
20
-15.463398
30
0
11
35.49225
21
-15.463398
31
0
70
32
71
1
72
1
41
1
210
0
220
0
230
1
3
Standard
100
AcDbAlignedDimension
13
0
23
0
33
0
14
70.9845
24
-5.25
34
0
50
0
100
AcDbRotatedDimension
1001
ACAD
1000
DSTYLE
1002
{
1070
   371
1070
    13
1070
   372
1070
    13
1070
   170
1070
     0
1070
   144
1040
1.0
1070
   277
1070
     2
1070
   278
1070
    44
1070
   146
1040
1.0
1070
   345
1005
16
1070
   347
1005
16
1070
   346
1005
16
1070
   344
1005
0
1070
   343
1005
0
1070
   172
1070
     1
1070
    76
1070
     0
1070
    75
1070
     0
1070
   282
1070
     0
1070
   281
1070
     0
1070
    71
1070
     0
1070
    74
1070
     0
1070
   279
1070
     0
1070
   173
1070
     1
1070
   340
1005
F1
1070
   271
1070
     2
1070
   272
1070
     2
1070
    77
1070
     1
1070
    73
1070
     1
1070
   171
1070
     3
1070
   274
1070
     4
1070
   177
1070
    35
1070
   176
1070
    35
1070
   178
1070
    35
1070
    48
1040
-0.1
1070
    41
1040
3.5
1070
   147
1040
1.75
1070
    42
1040
1.5875
1070
    44
1040
2.0
1070
   140
1040
3.5
1002
}
1001
ACAD_DSTYLE_DIM_LINETYPE
1070
   380
1005
16
1001
ACAD_DSTYLE_DIM_EXT1_LINETYPE
1070
   381
1005
16
1001
ACAD_DSTYLE_DIM_EXT2_LINETYPE
1070
   382
1005
16
0
DIMENSION
5
122
100
AcDbEntity
8
SK2
62
256
6
ByLayer
370
13
48
1
60
0
100
AcDbDimension
2
_U1
10
73
20
-34.692985
30
0
11
14
21
-34.692985
31
0
70
32
71
1
72
1
41
1
210
0
220
0
230
1
3
Standard
100
AcDbAlignedDimension
13
-45
23
-6
33
0
14
73
24
0
34
0
50
0
100
AcDbRotatedDimension
1001
ACAD
1000
DSTYLE
1002
{
1070
   371
1070
    13
1070
   372
1070
    13
1070
   170
1070
     0
1070
   144
1040
1.0
1070
   277
1070
     2
1070
   278
1070
    44
1070
   146
1040
1.0
1070
   345
1005
16
1070
   347
1005
16
1070
   346
1005
16
1070
   344
1005
0
1070
   343
1005
0
1070
   172
1070
     1
1070
    76
1070
     0
1070
    75
1070
     0
1070
   282
1070
     0
1070
   281
1070
     0
1070
    71
1070
     0
1070
    74
1070
     0
1070
   279
1070
     0
1070
   173
1070
     1
1070
   340
1005
F1
1070
   271
1070
     2
1070
   272
1070
     2
1070
    77
1070
     1
1070
    73
1070
     1
1070
   171
1070
     3
1070
   274
1070
     4
1070
   177
1070
    35
1070
   176
1070
    35
1070
   178
1070
    35
1070
    48
1040
-0.1
1070
    41
1040
3.5
1070
   147
1040
1.75
1070
    42
1040
1.5875
1070
    44
1040
2.0
1070
   140
1040
3.5
1002
}
1001
ACAD_DSTYLE_DIM_LINETYPE
1070
   380
1005
16
1001
ACAD_DSTYLE_DIM_EXT1_LINETYPE
1070
   381
1005
16
1001
ACAD_DSTYLE_DIM_EXT2_LINETYPE
1070
   382
1005
16
0
DIMENSION
5
13A
100
AcDbEntity
8
SK2
62
256
6
ByLayer
370
13
48
1
60
0
100
AcDbDimension
2
_U2
10
73
20
16.859119
30
0
11
45.74
21
16.859119
31
0
70
32
71
1
72
1
41
1
210
0
220
0
230
1
3
Standard
100
AcDbAlignedDimension
13
18.48
23
5.25
33
0
14
73
24
0
34
0
50
0
100
AcDbRotatedDimension
1001
ACAD
1000
DSTYLE
1002
{
1070
   371
1070
    13
1070
   372
1070
    13
1070
   170
1070
     0
1070
   144
1040
1.0
1070
   277
1070
     2
1070
   278
1070
    44
1070
   146
1040
1.0
1070
   345
1005
16
1070
   347
1005
16
1070
   346
1005
16
1070
   344
1005
0
1070
   343
1005
0
1070
   172
1070
     1
1070
    76
1070
     0
1070
    75
1070
     0
1070
   282
1070
     0
1070
   281
1070
     0
1070
    71
1070
     0
1070
    74
1070
     0
1070
   279
1070
     0
1070
   173
1070
     1
1070
   340
1005
F1
1070
   271
1070
     2
1070
   272
1070
     2
1070
    77
1070
     1
1070
    73
1070
     1
1070
   171
1070
     3
1070
   274
1070
     4
1070
   177
1070
    35
1070
   176
1070
    35
1070
   178
1070
    35
1070
    48
1040
-0.1
1070
    41
1040
3.5
1070
   147
1040
1.75
1070
    42
1040
1.5875
1070
    44
1040
2.0
1070
   140
1040
3.5
1002
}
1001
ACAD_DSTYLE_DIM_LINETYPE
1070
   380
1005
16
1001
ACAD_DSTYLE_DIM_EXT1_LINETYPE
1070
   381
1005
16
1001
ACAD_DSTYLE_DIM_EXT2_LINETYPE
1070
   382
1005
16
0
DIMENSION
5
152
100
AcDbEntity
8
SK2
62
256
6
ByLayer
370
13
48
1
60
0
100
AcDbDimension
2
_U3
10
70.9845
20
-18.052503
30
0
11
90.583333
21
-18.052503
31
0
70
32
71
1
72
1
41
1
210
0
220
0
230
1
3
Standard
100
AcDbAlignedDimension
13
73
23
0
33
0
14
70.9845
24
-5.25
34
0
50
0
100
AcDbRotatedDimension
1001
ACAD
1000
DSTYLE
1002
{
1070
   371
1070
    13
1070
   372
1070
    13
1070
   170
1070
     0
1070
   144
1040
1.0
1070
   277
1070
     2
1070
   278
1070
    44
1070
   146
1040
1.0
1070
   345
1005
16
1070
   347
1005
16
1070
   346
1005
16
1070
   344
1005
0
1070
   343
1005
0
1070
   172
1070
     1
1070
    76
1070
     0
1070
    75
1070
     0
1070
   282
1070
     0
1070
   281
1070
     0
1070
    71
1070
     0
1070
    74
1070
     0
1070
   279
1070
     0
1070
   173
1070
     1
1070
   340
1005
F1
1070
   271
1070
     2
1070
   272
1070
     2
1070
    77
1070
     1
1070
    73
1070
     1
1070
   171
1070
     3
1070
   274
1070
     4
1070
   177
1070
    35
1070
   176
1070
    35
1070
   178
1070
    35
1070
    48
1040
-0.1
1070
    41
1040
3.5
1070
   147
1040
1.75
1070
    42
1040
1.5875
1070
    44
1040
2.0
1070
   140
1040
3.5
1002
}
1001
ACAD_DSTYLE_DIM_LINETYPE
1070
   380
1005
16
1001
ACAD_DSTYLE_DIM_EXT1_LINETYPE
1070
   381
1005
16
1001
ACAD_DSTYLE_DIM_EXT2_LINETYPE
1070
   382
1005
16
0
DIMENSION
5
16C
100
AcDbEntity
8
SK2
62
256
6
ByLayer
370
13
48
1
60
0
100
AcDbDimension
2
_U4
10
70.9845
20
-24.343428
30
0
11
12.99225
21
-24.343428
31
0
70
32
71
1
72
1
41
1
210
0
220
0
230
1
3
Standard
100
AcDbAlignedDimension
13
-45
23
-6
33
0
14
70.9845
24
-5.25
34
0
50
0
100
AcDbRotatedDimension
1001
ACAD
1000
DSTYLE
1002
{
1070
   371
1070
    13
1070
   372
1070
    13
1070
   170
1070
     0
1070
   144
1040
1.0
1070
   277
1070
     2
1070
   278
1070
    44
1070
   146
1040
1.0
1070
   345
1005
16
1070
   347
1005
16
1070
   346
1005
16
1070
   344
1005
0
1070
   343
1005
0
1070
   172
1070
     1
1070
    76
1070
     0
1070
    75
1070
     0
1070
   282
1070
     0
1070
   281
1070
     0
1070
    71
1070
     0
1070
    74
1070
     0
1070
   279
1070
     0
1070
   173
1070
     1
1070
   340
1005
F1
1070
   271
1070
     2
1070
   272
1070
     2
1070
    77
1070
     1
1070
    73
1070
     1
1070
   171
1070
     3
1070
   274
1070
     4
1070
   177
1070
    35
1070
   176
1070
    35
1070
   178
1070
    35
1070
    48
1040
-0.1
1070
    41
1040
3.5
1070
   147
1040
1.75
1070
    42
1040
1.5875
1070
    44
1040
2.0
1070
   140
1040
3.5
1002
}
1001
ACAD_DSTYLE_DIM_LINETYPE
1070
   380
1005
16
1001
ACAD_DSTYLE_DIM_EXT1_LINETYPE
1070
   381
1005
16
1001
ACAD_DSTYLE_DIM_EXT2_LINETYPE
1070
   382
1005
16
0
ENDSEC
0
SECTION
2
OBJECTS
0
DICTIONARY
5
1f4
330
0
100
AcDbDictionary
280
0
281
1
3
ACAD_GROUP
350
1f5
3
ACAD_MLINESTYLE
350
1f6
0
DICTIONARY
5
1f5
330
0
100
AcDbDictionary
280
0
281
1
0
DICTIONARY
5
1f6
330
0
100
AcDbDictionary
280
0
281
1
3
Standard
350
18
0
MLINESTYLE
5
18
330
1f6
100
AcDbMlineStyle
2
Standard
70
0
3

62
256
51
90
52
90
71
2
49
-0.5
62
256
6
ByLayer
49
0.5
62
256
6
ByLayer
0
RASTERVARIABLES
5
1e2
330

100
AcDbRasterVariables
90
0
70
1
71
1
72
1
0
ENDSEC
0
EOF
