0
SECTION
2
HEADER
9
$ACADVER
1
AC1015
9
$DWGCODEPAGE
3
ANSI_1252
9
$HANDSEED
5
1fe
9
$ANGBASE
50
0
9
$ANGDIR
70
0
9
$ATTMODE
70
1
9
$AUNITS
70
0
9
$AUPREC
70
0
9
$CECOLOR
62
256
9
$CELTSCALE
40
1
9
$CELTYPE
6
ByLayer
9
$CELWEIGHT
370
18
9
$CLAYER
8
0
9
$CMLJUST
70
0
9
$CMLSCALE
40
1
9
$CMLSTYLE
2
Standard
9
$DIMSTYLE
2
Standard
9
$TEXTSIZE
40
0.2
9
$TEXTSTYLE
7
Standard
9
$LUNITS
70
2
9
$LUPREC
70
4
9
$EXTNAMES
290
1
9
$INSUNITS
70
4
9
$LTSCALE
40
1
9
$LWDISPLAY
290
1
9
$PDMODE
70
0
9
$PDSIZE
40
0
9
$PLINEGEN
70
0
0
ENDSEC
0
SECTION
2
CLASSES
0
CLASS
1
RASTERVARIABLES
2
AcDbRasterVariables
3
ISM
90
0
280
0
281
0
0
ENDSEC
0
SECTION
2
TABLES
0
TABLE
2
VPORT
5
1f4
100
AcDbSymbolTable
0
VPORT
5
1
100
AcDbSymbolTableRecord
100
AcDbViewportTableRecord
2
*Active
70
0
10
0
20
0
11
1
21
1
12
-1
22
1
13
0
23
0
14
0.5
24
0.5
15
10
25
10
16
0
26
0
36
1
17
0
27
0
37
0
0
ENDTAB
0
TABLE
2
LTYPE
5
1f5
100
AcDbSymbolTable
0
LTYPE
5
14
100
AcDbSymbolTableRecord
100
AcDbLinetypeTableRecord
70
0
2
ByBlock
3

72
65
73
0
40
0
0
LTYPE
5
15
100
AcDbSymbolTableRecord
100
AcDbLinetypeTableRecord
70
0
2
ByLayer
3

72
65
73
0
40
0
0
LTYPE
5
16
100
AcDbSymbolTableRecord
100
AcDbLinetypeTableRecord
70
0
2
Continuous
3
Solid line
72
65
73
0
40
0
0
LTYPE
5
6E
100
AcDbSymbolTableRecord
100
AcDbLinetypeTableRecord
70
0
2
CENTER
3
____ _ ____ _ ____ _ ____
72
65
73
4
40
47.5
49
22
74
0
49
-8.5
74
0
49
8.5
74
0
49
-8.5
74
0
0
LTYPE
5
6F
100
AcDbSymbolTableRecord
100
AcDbLinetypeTableRecord
70
0
2
DASHED
3
__ __ __ __ __ __ __ __ __
72
65
73
2
40
25.72
49
12.86
74
0
49
-12.86
74
0
0
ENDTAB
0
TABLE
2
LAYER
5
1f6
100
AcDbSymbolTable
0
LAYER
5
10
100
AcDbSymbolTableRecord
100
AcDbLayerTableRecord
2
0
70
0
62
7
6
Continuous
290
1
370
-3
390
0
0
LAYER
5
71
100
AcDbSymbolTableRecord
100
AcDbLayerTableRecord
2
80
70
0
62
-6
6
Continuous
290
1
370
-3
390
0
0
LAYER
5
73
100
AcDbSymbolTableRecord
100
AcDbLayerTableRecord
2
81
70
0
62
-3
6
Continuous
290
1
370
-3
390
0
0
LAYER
5
75
100
AcDbSymbolTableRecord
100
AcDbLayerTableRecord
2
1
70
0
62
4
6
Continuous
290
1
370
-3
390
0
0
LAYER
5
86
100
AcDbSymbolTableRecord
100
AcDbLayerTableRecord
2
4
70
0
62
-2
6
CENTER
290
1
370
-3
390
0
0
LAYER
5
9D
100
AcDbSymbolTableRecord
100
AcDbLayerTableRecord
2
2
70
0
62
7
6
Continuous
290
1
370
-3
390
0
0
LAYER
5
109
100
AcDbSymbolTableRecord
100
AcDbLayerTableRecord
2
Defpoints
70
0
62
7
6
Continuous
290
0
370
-3
390
0
0
LAYER
5
1e0
100
AcDbSymbolTableRecord
100
AcDbLayerTableRecord
2
SK1
70
0
62
4
6
Continuous
290
1
370
-3
390
0
0
LAYER
5
1e1
100
AcDbSymbolTableRecord
100
AcDbLayerTableRecord
2
SK4
70
0
62
2
6
CENTER
290
1
370
-3
390
0
0
LAYER
5
1e2
100
AcDbSymbolTableRecord
100
AcDbLayerTableRecord
2
SK2
70
0
62
7
6
Continuous
290
1
370
-3
390
0
0
LAYER
5
1e3
100
AcDbSymbolTableRecord
100
AcDbLayerTableRecord
2
SK6
70
0
62
5
6
Continuous
290
1
370
-3
390
0
0
ENDTAB
0
TABLE
2
STYLE
5
1f7
100
AcDbSymbolTable
0
STYLE
5
11
100
AcDbSymbolTableRecord
100
AcDbTextStyleTableRecord
2
Standard
3
txt
70
0
71
0
40
0
41
1
42
0
50
0
0
STYLE
5
EE
100
AcDbSymbolTableRecord
100
AcDbTextStyleTableRecord
2
iso_b_vert
3
simplex.shx
70
0
71
0
40
0
41
1
42
0
50
0
0
STYLE
5
EF
100
AcDbSymbolTableRecord
100
AcDbTextStyleTableRecord
2
DWGDirectTextStyle
3
simplex
70
0
71
0
40
0
41
1
42
0
50
0
0
ENDTAB
0
TABLE
2
DIMSTYLE
5
1f8
100
AcDbSymbolTable
100
AcDbDimStyleTable
0
DIMSTYLE
105
27
100
AcDbSymbolTableRecord
100
AcDbDimStyleTableRecord
2
Standard
70
0
3
<>
41
0.18
42
0.0625
44
0.18
140
0.18
147
0.09
73
0
74
0
77
1
271
2
275
0
278
52
280
0
340
11
0
ENDTAB
0
TABLE
2
VIEW
5
1f9
100
AcDbSymbolTable
0
ENDTAB
0
TABLE
2
UCS
5
1fa
100
AcDbSymbolTable
0
ENDTAB
0
TABLE
2
APPID
5
1fb
100
AcDbSymbolTable
0
APPID
5
12
100
AcDbSymbolTableRecord
100
AcDbRegAppTableRecord
2
ACAD
70
0
0
APPID
5
105
100
AcDbSymbolTableRecord
100
AcDbRegAppTableRecord
2
ACAD_DSTYLE_DIMBREAK
70
0
0
APPID
5
19F
100
AcDbSymbolTableRecord
100
AcDbRegAppTableRecord
2
ACAD_DSTYLE_DIM_LINETYPE
70
0
0
APPID
5
1A0
100
AcDbSymbolTableRecord
100
AcDbRegAppTableRecord
2
ACAD_DSTYLE_DIM_EXT1_LINETYPE
70
0
0
APPID
5
1A1
100
AcDbSymbolTableRecord
100
AcDbRegAppTableRecord
2
ACAD_DSTYLE_DIM_EXT2_LINETYPE
70
0
0
APPID
5
1DC
100
AcDbSymbolTableRecord
100
AcDbRegAppTableRecord
2
ACAD_MLEADERVER
70
0
0
ENDTAB
0
TABLE
2
BLOCK_RECORD
5
1fc
100
AcDbSymbolTable
0
BLOCK_RECORD
5
1F
100
AcDbSymbolTableRecord
100
AcDbBlockTableRecord
2
*Model_Space
340
0
70
0
0
BLOCK_RECORD
5
1B
100
AcDbSymbolTableRecord
100
AcDbBlockTableRecord
2
*Paper_Space
340
0
70
0
0
BLOCK_RECORD
5
23
100
AcDbSymbolTableRecord
100
AcDbBlockTableRecord
2
*Paper_Space0
340
0
70
0
0
BLOCK_RECORD
5
10A
100
AcDbSymbolTableRecord
100
AcDbBlockTableRecord
2
*D1
340
0
70
0
0
BLOCK_RECORD
5
116
100
AcDbSymbolTableRecord
100
AcDbBlockTableRecord
2
_U0
340
0
70
0
0
BLOCK_RECORD
5
122
100
AcDbSymbolTableRecord
100
AcDbBlockTableRecord
2
*D3
340
0
70
0
0
BLOCK_RECORD
5
12E
100
AcDbSymbolTableRecord
100
AcDbBlockTableRecord
2
_U1
340
0
70
0
0
BLOCK_RECORD
5
13A
100
AcDbSymbolTableRecord
100
AcDbBlockTableRecord
2
*D5
340
0
70
0
0
BLOCK_RECORD
5
146
100
AcDbSymbolTableRecord
100
AcDbBlockTableRecord
2
_U2
340
0
70
0
0
BLOCK_RECORD
5
152
100
AcDbSymbolTableRecord
100
AcDbBlockTableRecord
2
*D7
340
0
70
0
0
BLOCK_RECORD
5
160
100
AcDbSymbolTableRecord
100
AcDbBlockTableRecord
2
_U3
340
0
70
0
0
BLOCK_RECORD
5
16C
100
AcDbSymbolTableRecord
100
AcDbBlockTableRecord
2
*D9
340
0
70
0
0
BLOCK_RECORD
5
178
100
AcDbSymbolTableRecord
100
AcDbBlockTableRecord
2
_U4
340
0
70
0
0
ENDTAB
0
ENDSEC
0
SECTION
2
BLOCKS
0
BLOCK
5
20
100
AcDbEntity
8
0
100
AcDbBlockBegin
2
*Model_Space
70
0
10
0
20
0
30
0
3
*Model_Space
0
ENDBLK
5
21
100
AcDbEntity
8
0
100
AcDbBlockEnd
0
BLOCK
5
1C
100
AcDbEntity
8
0
100
AcDbBlockBegin
2
*Paper_Space
70
0
10
0
20
0
30
0
3
*Paper_Space
0
ENDBLK
5
1D
100
AcDbEntity
8
0
100
AcDbBlockEnd
0
BLOCK
5
24
100
AcDbEntity
8
0
100
AcDbBlockBegin
2
*Paper_Space0
70
0
10
0
20
0
30
0
3
*Paper_Space0
0
ENDBLK
5
25
100
AcDbEntity
8
0
100
AcDbBlockEnd
0
BLOCK
5
10B
100
AcDbEntity
8
0
100
AcDbBlockBegin
2
*D1
70
1
10
0
20
0
30
0
3
*D1
0
LINE
5
10D
100
AcDbEntity
8
0
62
256
6
ByLayer
370
-2
48
1
60
0
100
AcDbLine
10
0
20
-1.5875
30
0
11
0
21
-17.263398
31
0
39
0
210
0
220
0
230
1
0
LINE
5
10E
100
AcDbEntity
8
0
62
256
6
ByLayer
370
-2
48
1
60
0
100
AcDbLine
10
71.0619
20
-6.6375
30
0
11
71.0619
21
-17.263398
31
0
39
0
210
0
220
0
230
1
0
LINE
5
10F
100
AcDbEntity
8
0
62
256
6
ByLayer
370
-2
48
1
60
0
100
AcDbLine
10
3.5
20
-15.263398
30
0
11
67.5619
21
-15.263398
31
0
39
0
210
0
220
0
230
1
0
SOLID
5
110
100
AcDbEntity
8
0
62
256
6
ByLayer
370
-1
48
1
60
0
100
AcDbTrace
10
3.5
20
-14.680065
30
0
11
3.5
21
-15.846732
31
0
12
0
22
-15.263398
32
0
13
0
23
-15.263398
33
0
39
0
210
0
220
0
230
1
0
SOLID
5
111
100
AcDbEntity
8
0
62
256
6
ByLayer
370
-1
48
1
60
0
100
AcDbTrace
10
67.5619
20
-15.846732
30
0
11
67.5619
21
-14.680065
31
0
12
71.0619
22
-15.263398
32
0
13
71.0619
23
-15.263398
33
0
39
0
210
0
220
0
230
1
0
MTEXT
5
112
100
AcDbEntity
8
0
62
256
6
ByLayer
370
18
48
1
60
0
100
AcDbMText
10
35.53095
20
-8.263398
30
0
210
0
220
0
230
1
1
\A1;71.06
40
3.5
41
0
44
1
50
0
71
5
72
5
7
iso_b_vert
0
POINT
5
113
100
AcDbEntity
8
Defpoints
62
0
6
ByLayer
370
-1
48
1
60
0
100
AcDbPoint
10
0
20
0
30
0
39
0
210
0
220
0
230
1
50
360
0
POINT
5
114
100
AcDbEntity
8
Defpoints
62
0
6
ByLayer
370
-1
48
1
60
0
100
AcDbPoint
10
71.0619
20
-5.05
30
0
39
0
210
0
220
0
230
1
50
360
0
POINT
5
115
100
AcDbEntity
8
Defpoints
62
0
6
ByLayer
370
-1
48
1
60
0
100
AcDbPoint
10
71.0619
20
-15.263398
30
0
39
0
210
0
220
0
230
1
50
360
0
ENDBLK
5
10C
100
AcDbEntity
8
0
100
AcDbBlockEnd
0
BLOCK
5
11D
100
AcDbEntity
8
0
100
AcDbBlockBegin
2
_U0
70
0
10
0
20
0
30
0
3
_U0
0
MTEXT
5
117
100
AcDbEntity
8
2
62
256
6
ByLayer
370
13
48
1
60
0
100
AcDbMText
10
30.831085
20
-14.230765
30
0
210
0
220
0
230
1
1
\W0.6713;71,06
40
3.5
41
0
44
1.084337
50
0
71
7
72
5
7
iso_b_vert
0
LINE
5
118
100
AcDbEntity
8
2
62
256
6
ByLayer
370
13
48
1
60
0
100
AcDbLine
10
0
20
-1.5875
30
0
11
0
21
-17.263398
31
0
39
0
210
0
220
0
230
1
0
LINE
5
119
100
AcDbEntity
8
2
62
256
6
ByLayer
370
13
48
1
60
0
100
AcDbLine
10
71.0619
20
-6.6375
30
0
11
71.0619
21
-17.263398
31
0
39
0
210
0
220
0
230
1
0
LINE
5
11A
100
AcDbEntity
8
2
62
256
6
ByLayer
370
13
48
1
60
0
100
AcDbLine
10
0
20
-15.263398
30
0
11
71.0619
21
-15.263398
31
0
39
0
210
0
220
0
230
1
0
SOLID
5
11B
100
AcDbEntity
8
2
62
256
6
ByLayer
370
18
48
1
60
0
100
AcDbTrace
10
0
20
-15.263398
30
0
11
3.499998
21
-14.802615
31
0
12
3.500002
22
-15.724182
32
0
13
3.500002
23
-15.724182
33
0
39
0
210
0
220
0
230
1
0
SOLID
5
11C
100
AcDbEntity
8
2
62
256
6
ByLayer
370
18
48
1
60
0
100
AcDbTrace
10
71.0619
20
-15.263398
30
0
11
67.561902
21
-15.724182
31
0
12
67.561898
22
-14.802615
32
0
13
67.561898
23
-14.802615
33
0
39
0
210
0
220
0
230
1
0
ENDBLK
5
11E
100
AcDbEntity
8
0
100
AcDbBlockEnd
0
BLOCK
5
123
100
AcDbEntity
8
0
100
AcDbBlockBegin
2
*D3
70
1
10
0
20
0
30
0
3
*D3
0
LINE
5
125
100
AcDbEntity
8
0
62
256
6
ByLayer
370
-2
48
1
60
0
100
AcDbLine
10
-45
20
-7.5875
30
0
11
-45
21
-36.692985
31
0
39
0
210
0
220
0
230
1
0
LINE
5
126
100
AcDbEntity
8
0
62
256
6
ByLayer
370
-2
48
1
60
0
100
AcDbLine
10
73
20
-1.5875
30
0
11
73
21
-36.692985
31
0
39
0
210
0
220
0
230
1
0
LINE
5
127
100
AcDbEntity
8
0
62
256
6
ByLayer
370
-2
48
1
60
0
100
AcDbLine
10
-41.5
20
-34.692985
30
0
11
69.5
21
-34.692985
31
0
39
0
210
0
220
0
230
1
0
SOLID
5
128
100
AcDbEntity
8
0
62
256
6
ByLayer
370
-1
48
1
60
0
100
AcDbTrace
10
-41.5
20
-34.109652
30
0
11
-41.5
21
-35.276319
31
0
12
-45
22
-34.692985
32
0
13
-45
23
-34.692985
33
0
39
0
210
0
220
0
230
1
0
SOLID
5
129
100
AcDbEntity
8
0
62
256
6
ByLayer
370
-1
48
1
60
0
100
AcDbTrace
10
69.5
20
-35.276319
30
0
11
69.5
21
-34.109652
31
0
12
73
22
-34.692985
32
0
13
73
23
-34.692985
33
0
39
0
210
0
220
0
230
1
0
MTEXT
5
12A
100
AcDbEntity
8
0
62
256
6
ByLayer
370
18
48
1
60
0
100
AcDbMText
10
14
20
-27.692985
30
0
210
0
220
0
230
1
1
\A1;118.00
40
3.5
41
0
44
1
50
0
71
5
72
5
7
iso_b_vert
0
POINT
5
12B
100
AcDbEntity
8
Defpoints
62
0
6
ByLayer
370
-1
48
1
60
0
100
AcDbPoint
10
-45
20
-6
30
0
39
0
210
0
220
0
230
1
50
360
0
POINT
5
12C
100
AcDbEntity
8
Defpoints
62
0
6
ByLayer
370
-1
48
1
60
0
100
AcDbPoint
10
73
20
0
30
0
39
0
210
0
220
0
230
1
50
360
0
POINT
5
12D
100
AcDbEntity
8
Defpoints
62
0
6
ByLayer
370
-1
48
1
60
0
100
AcDbPoint
10
73
20
-34.692985
30
0
39
0
210
0
220
0
230
1
50
360
0
ENDBLK
5
124
100
AcDbEntity
8
0
100
AcDbBlockEnd
0
BLOCK
5
135
100
AcDbEntity
8
0
100
AcDbBlockBegin
2
_U1
70
0
10
0
20
0
30
0
3
_U1
0
MTEXT
5
12F
100
AcDbEntity
8
SK2
62
256
6
ByLayer
370
13
48
1
60
0
100
AcDbMText
10
8.429835
20
-33.660352
30
0
210
0
220
0
230
1
1
\W0.6440;118,00
40
3.5
41
0
44
1.084337
50
0
71
7
72
5
7
iso_b_vert
0
LINE
5
130
100
AcDbEntity
8
SK2
62
256
6
ByLayer
370
13
48
1
60
0
100
AcDbLine
10
-45
20
-7.5875
30
0
11
-45
21
-36.692985
31
0
39
0
210
0
220
0
230
1
0
LINE
5
131
100
AcDbEntity
8
SK2
62
256
6
ByLayer
370
13
48
1
60
0
100
AcDbLine
10
73
20
-1.5875
30
0
11
73
21
-36.692985
31
0
39
0
210
0
220
0
230
1
0
LINE
5
132
100
AcDbEntity
8
SK2
62
256
6
ByLayer
370
13
48
1
60
0
100
AcDbLine
10
-45
20
-34.692985
30
0
11
73
21
-34.692985
31
0
39
0
210
0
220
0
230
1
0
SOLID
5
133
100
AcDbEntity
8
SK2
62
256
6
ByLayer
370
18
48
1
60
0
100
AcDbTrace
10
-45
20
-34.692985
30
0
11
-41.500002
21
-34.232202
31
0
12
-41.499998
22
-35.153769
32
0
13
-41.499998
23
-35.153769
33
0
39
0
210
0
220
0
230
1
0
SOLID
5
134
100
AcDbEntity
8
SK2
62
256
6
ByLayer
370
18
48
1
60
0
100
AcDbTrace
10
73
20
-34.692985
30
0
11
69.500002
21
-35.153769
31
0
12
69.499998
22
-34.232202
32
0
13
69.499998
23
-34.232202
33
0
39
0
210
0
220
0
230
1
0
ENDBLK
5
136
100
AcDbEntity
8
0
100
AcDbBlockEnd
0
BLOCK
5
13B
100
AcDbEntity
8
0
100
AcDbBlockBegin
2
*D5
70
1
10
0
20
0
30
0
3
*D5
0
LINE
5
13D
100
AcDbEntity
8
0
62
256
6
ByLayer
370
-2
48
1
60
0
100
AcDbLine
10
20.56
20
6.6375
30
0
11
20.56
21
18.659119
31
0
39
0
210
0
220
0
230
1
0
LINE
5
13E
100
AcDbEntity
8
0
62
256
6
ByLayer
370
-2
48
1
60
0
100
AcDbLine
10
73
20
1.5875
30
0
11
73
21
18.659119
31
0
39
0
210
0
220
0
230
1
0
LINE
5
13F
100
AcDbEntity
8
0
62
256
6
ByLayer
370
-2
48
1
60
0
100
AcDbLine
10
24.06
20
16.659119
30
0
11
69.5
21
16.659119
31
0
39
0
210
0
220
0
230
1
0
SOLID
5
140
100
AcDbEntity
8
0
62
256
6
ByLayer
370
-1
48
1
60
0
100
AcDbTrace
10
24.06
20
17.242453
30
0
11
24.06
21
16.075786
31
0
12
20.56
22
16.659119
32
0
13
20.56
23
16.659119
33
0
39
0
210
0
220
0
230
1
0
SOLID
5
141
100
AcDbEntity
8
0
62
256
6
ByLayer
370
-1
48
1
60
0
100
AcDbTrace
10
69.5
20
16.075786
30
0
11
69.5
21
17.242453
31
0
12
73
22
16.659119
32
0
13
73
23
16.659119
33
0
39
0
210
0
220
0
230
1
0
MTEXT
5
142
100
AcDbEntity
8
0
62
256
6
ByLayer
370
18
48
1
60
0
100
AcDbMText
10
46.78
20
23.659119
30
0
210
0
220
0
230
1
1
\A1;52.44
40
3.5
41
0
44
1
50
0
71
5
72
5
7
iso_b_vert
0
POINT
5
143
100
AcDbEntity
8
Defpoints
62
0
6
ByLayer
370
-1
48
1
60
0
100
AcDbPoint
10
20.56
20
5.05
30
0
39
0
210
0
220
0
230
1
50
360
0
POINT
5
144
100
AcDbEntity
8
Defpoints
62
0
6
ByLayer
370
-1
48
1
60
0
100
AcDbPoint
10
73
20
0
30
0
39
0
210
0
220
0
230
1
50
360
0
POINT
5
145
100
AcDbEntity
8
Defpoints
62
0
6
ByLayer
370
-1
48
1
60
0
100
AcDbPoint
10
73
20
16.659119
30
0
39
0
210
0
220
0
230
1
50
360
0
ENDBLK
5
13C
100
AcDbEntity
8
0
100
AcDbBlockEnd
0
BLOCK
5
14D
100
AcDbEntity
8
0
100
AcDbBlockBegin
2
_U2
70
0
10
0
20
0
30
0
3
_U2
0
MTEXT
5
147
100
AcDbEntity
8
SK2
62
256
6
ByLayer
370
13
48
1
60
0
100
AcDbMText
10
41.274168
20
17.691753
30
0
210
0
220
0
230
1
1
\W0.7756;52,44
40
3.5
41
0
44
1.084337
50
0
71
7
72
5
7
iso_b_vert
0
LINE
5
148
100
AcDbEntity
8
SK2
62
256
6
ByLayer
370
13
48
1
60
0
100
AcDbLine
10
20.56
20
6.6375
30
0
11
20.56
21
18.659119
31
0
39
0
210
0
220
0
230
1
0
LINE
5
149
100
AcDbEntity
8
SK2
62
256
6
ByLayer
370
13
48
1
60
0
100
AcDbLine
10
73
20
1.5875
30
0
11
73
21
18.659119
31
0
39
0
210
0
220
0
230
1
0
LINE
5
14A
100
AcDbEntity
8
SK2
62
256
6
ByLayer
370
13
48
1
60
0
100
AcDbLine
10
20.56
20
16.659119
30
0
11
73
21
16.659119
31
0
39
0
210
0
220
0
230
1
0
SOLID
5
14B
100
AcDbEntity
8
SK2
62
256
6
ByLayer
370
18
48
1
60
0
100
AcDbTrace
10
20.56
20
16.659119
30
0
11
24.059998
21
17.119903
31
0
12
24.060002
22
16.198335
32
0
13
24.060002
23
16.198335
33
0
39
0
210
0
220
0
230
1
0
SOLID
5
14C
100
AcDbEntity
8
SK2
62
256
6
ByLayer
370
18
48
1
60
0
100
AcDbTrace
10
73
20
16.659119
30
0
11
69.500002
21
16.198335
31
0
12
69.499998
22
17.119903
32
0
13
69.499998
23
17.119903
33
0
39
0
210
0
220
0
230
1
0
ENDBLK
5
14E
100
AcDbEntity
8
0
100
AcDbBlockEnd
0
BLOCK
5
153
100
AcDbEntity
8
0
100
AcDbBlockBegin
2
*D7
70
1
10
0
20
0
30
0
3
*D7
0
LINE
5
155
100
AcDbEntity
8
0
62
256
6
ByLayer
370
-2
48
1
60
0
100
AcDbLine
10
73
20
-1.5875
30
0
11
73
21
-19.852503
31
0
39
0
210
0
220
0
230
1
0
LINE
5
156
100
AcDbEntity
8
0
62
256
6
ByLayer
370
-2
48
1
60
0
100
AcDbLine
10
71.0619
20
-6.6375
30
0
11
71.0619
21
-19.852503
31
0
39
0
210
0
220
0
230
1
0
LINE
5
157
100
AcDbEntity
8
0
62
256
6
ByLayer
370
-2
48
1
60
0
100
AcDbLine
10
73
20
-17.852503
30
0
11
100.833333
21
-17.852503
31
0
39
0
210
0
220
0
230
1
0
LINE
5
158
100
AcDbEntity
8
0
62
256
6
ByLayer
370
-2
48
1
60
0
100
AcDbLine
10
76.5
20
-17.852503
30
0
11
80
21
-17.852503
31
0
39
0
210
0
220
0
230
1
0
LINE
5
159
100
AcDbEntity
8
0
62
256
6
ByLayer
370
-2
48
1
60
0
100
AcDbLine
10
67.5619
20
-17.852503
30
0
11
64.0619
21
-17.852503
31
0
39
0
210
0
220
0
230
1
0
SOLID
5
15A
100
AcDbEntity
8
0
62
256
6
ByLayer
370
-1
48
1
60
0
100
AcDbTrace
10
76.5
20
-17.26917
30
0
11
76.5
21
-18.435837
31
0
12
73
22
-17.852503
32
0
13
73
23
-17.852503
33
0
39
0
210
0
220
0
230
1
0
SOLID
5
15B
100
AcDbEntity
8
0
62
256
6
ByLayer
370
-1
48
1
60
0
100
AcDbTrace
10
67.5619
20
-18.435837
30
0
11
67.5619
21
-17.26917
31
0
12
71.0619
22
-17.852503
32
0
13
71.0619
23
-17.852503
33
0
39
0
210
0
220
0
230
1
0
MTEXT
5
15C
100
AcDbEntity
8
0
62
256
6
ByLayer
370
18
48
1
60
0
100
AcDbMText
10
90.416667
20
-10.852503
30
0
210
0
220
0
230
1
1
\A1;1.94
40
3.5
41
0
44
1
50
0
71
5
72
5
7
iso_b_vert
0
POINT
5
15D
100
AcDbEntity
8
Defpoints
62
0
6
ByLayer
370
-1
48
1
60
0
100
AcDbPoint
10
73
20
0
30
0
39
0
210
0
220
0
230
1
50
360
0
POINT
5
15E
100
AcDbEntity
8
Defpoints
62
0
6
ByLayer
370
-1
48
1
60
0
100
AcDbPoint
10
71.0619
20
-5.05
30
0
39
0
210
0
220
0
230
1
50
360
0
POINT
5
15F
100
AcDbEntity
8
Defpoints
62
0
6
ByLayer
370
-1
48
1
60
0
100
AcDbPoint
10
71.0619
20
-17.852503
30
0
39
0
210
0
220
0
230
1
50
360
0
ENDBLK
5
154
100
AcDbEntity
8
0
100
AcDbBlockEnd
0
BLOCK
5
167
100
AcDbEntity
8
0
100
AcDbBlockBegin
2
_U3
70
0
10
0
20
0
30
0
3
_U3
0
MTEXT
5
161
100
AcDbEntity
8
SK2
62
256
6
ByLayer
370
13
48
1
60
0
100
AcDbMText
10
79.405026
20
-16.81987
30
0
210
0
220
0
230
1
1
\W0.6611;1,94
40
3.5
41
0
44
1.084337
50
0
71
7
72
5
7
iso_b_vert
0
LINE
5
162
100
AcDbEntity
8
SK2
62
256
6
ByLayer
370
13
48
1
60
0
100
AcDbLine
10
73
20
-1.5875
30
0
11
73
21
-19.852503
31
0
39
0
210
0
220
0
230
1
0
LINE
5
163
100
AcDbEntity
8
SK2
62
256
6
ByLayer
370
13
48
1
60
0
100
AcDbLine
10
71.0619
20
-6.6375
30
0
11
71.0619
21
-19.852503
31
0
39
0
210
0
220
0
230
1
0
LINE
5
164
100
AcDbEntity
8
SK2
62
256
6
ByLayer
370
13
48
1
60
0
100
AcDbLine
10
62.3119
20
-17.852503
30
0
11
86.743324
21
-17.852503
31
0
39
0
210
0
220
0
230
1
0
SOLID
5
165
100
AcDbEntity
8
SK2
62
256
6
ByLayer
370
18
48
1
60
0
100
AcDbTrace
10
73
20
-17.852503
30
0
11
76.499998
21
-17.391719
31
0
12
76.500002
22
-18.313287
32
0
13
76.500002
23
-18.313287
33
0
39
0
210
0
220
0
230
1
0
SOLID
5
166
100
AcDbEntity
8
SK2
62
256
6
ByLayer
370
18
48
1
60
0
100
AcDbTrace
10
71.0619
20
-17.852503
30
0
11
67.561902
21
-18.313287
31
0
12
67.561898
22
-17.391719
32
0
13
67.561898
23
-17.391719
33
0
39
0
210
0
220
0
230
1
0
ENDBLK
5
168
100
AcDbEntity
8
0
100
AcDbBlockEnd
0
BLOCK
5
16D
100
AcDbEntity
8
0
100
AcDbBlockBegin
2
*D9
70
1
10
0
20
0
30
0
3
*D9
0
LINE
5
16F
100
AcDbEntity
8
0
62
256
6
ByLayer
370
-2
48
1
60
0
100
AcDbLine
10
-45
20
-7.5875
30
0
11
-45
21
-26.343428
31
0
39
0
210
0
220
0
230
1
0
LINE
5
170
100
AcDbEntity
8
0
62
256
6
ByLayer
370
-2
48
1
60
0
100
AcDbLine
10
71.0619
20
-6.6375
30
0
11
71.0619
21
-26.343428
31
0
39
0
210
0
220
0
230
1
0
LINE
5
171
100
AcDbEntity
8
0
62
256
6
ByLayer
370
-2
48
1
60
0
100
AcDbLine
10
-41.5
20
-24.343428
30
0
11
67.5619
21
-24.343428
31
0
39
0
210
0
220
0
230
1
0
SOLID
5
172
100
AcDbEntity
8
0
62
256
6
ByLayer
370
-1
48
1
60
0
100
AcDbTrace
10
-41.5
20
-23.760095
30
0
11
-41.5
21
-24.926762
31
0
12
-45
22
-24.343428
32
0
13
-45
23
-24.343428
33
0
39
0
210
0
220
0
230
1
0
SOLID
5
173
100
AcDbEntity
8
0
62
256
6
ByLayer
370
-1
48
1
60
0
100
AcDbTrace
10
67.5619
20
-24.926762
30
0
11
67.5619
21
-23.760095
31
0
12
71.0619
22
-24.343428
32
0
13
71.0619
23
-24.343428
33
0
39
0
210
0
220
0
230
1
0
MTEXT
5
174
100
AcDbEntity
8
0
62
256
6
ByLayer
370
18
48
1
60
0
100
AcDbMText
10
13.03095
20
-17.343428
30
0
210
0
220
0
230
1
1
\A1;116.06
40
3.5
41
0
44
1
50
0
71
5
72
5
7
iso_b_vert
0
POINT
5
175
100
AcDbEntity
8
Defpoints
62
0
6
ByLayer
370
-1
48
1
60
0
100
AcDbPoint
10
-45
20
-6
30
0
39
0
210
0
220
0
230
1
50
360
0
POINT
5
176
100
AcDbEntity
8
Defpoints
62
0
6
ByLayer
370
-1
48
1
60
0
100
AcDbPoint
10
71.0619
20
-5.05
30
0
39
0
210
0
220
0
230
1
50
360
0
POINT
5
177
100
AcDbEntity
8
Defpoints
62
0
6
ByLayer
370
-1
48
1
60
0
100
AcDbPoint
10
71.0619
20
-24.343428
30
0
39
0
210
0
220
0
230
1
50
360
0
ENDBLK
5
16E
100
AcDbEntity
8
0
100
AcDbBlockEnd
0
BLOCK
5
17F
100
AcDbEntity
8
0
100
AcDbBlockBegin
2
_U4
70
0
10
0
20
0
30
0
3
_U4
0
MTEXT
5
179
100
AcDbEntity
8
SK2
62
256
6
ByLayer
370
13
48
1
60
0
100
AcDbMText
10
7.460785
20
-23.310795
30
0
210
0
220
0
230
1
1
\W0.6440;116,06
40
3.5
41
0
44
1.084337
50
0
71
7
72
5
7
iso_b_vert
0
LINE
5
17A
100
AcDbEntity
8
SK2
62
256
6
ByLayer
370
13
48
1
60
0
100
AcDbLine
10
-45
20
-7.5875
30
0
11
-45
21
-26.343428
31
0
39
0
210
0
220
0
230
1
0
LINE
5
17B
100
AcDbEntity
8
SK2
62
256
6
ByLayer
370
13
48
1
60
0
100
AcDbLine
10
71.0619
20
-6.6375
30
0
11
71.0619
21
-26.343428
31
0
39
0
210
0
220
0
230
1
0
LINE
5
17C
100
AcDbEntity
8
SK2
62
256
6
ByLayer
370
13
48
1
60
0
100
AcDbLine
10
-45
20
-24.343428
30
0
11
71.0619
21
-24.343428
31
0
39
0
210
0
220
0
230
1
0
SOLID
5
17D
100
AcDbEntity
8
SK2
62
256
6
ByLayer
370
18
48
1
60
0
100
AcDbTrace
10
-45
20
-24.343428
30
0
11
-41.500002
21
-23.882645
31
0
12
-41.499998
22
-24.804212
32
0
13
-41.499998
23
-24.804212
33
0
39
0
210
0
220
0
230
1
0
SOLID
5
17E
100
AcDbEntity
8
SK2
62
256
6
ByLayer
370
18
48
1
60
0
100
AcDbTrace
10
71.0619
20
-24.343428
30
0
11
67.561902
21
-24.804212
31
0
12
67.561898
22
-23.882645
32
0
13
67.561898
23
-23.882645
33
0
39
0
210
0
220
0
230
1
0
ENDBLK
5
180
100
AcDbEntity
8
0
100
AcDbBlockEnd
0
ENDSEC
0
SECTION
2
ENTITIES
0
ARC
5
A6
100
AcDbEntity
8
1
62
256
6
ByLayer
370
18
48
1
60
0
100
AcDbCircle
39
0
10
1.580967
20
5.774936
30
0
40
0.850000000000003
210
0
220
0
230
1
100
AcDbArc
50
201.568248
51
270.103132
0
ARC
5
A7
100
AcDbEntity
8
1
62
256
6
ByLayer
370
18
48
1
60
0
100
AcDbCircle
39
0
10
0
20
-5.15
30
0
40
0.850000000000003
210
0
220
0
230
1
100
AcDbArc
50
270
51
338.431752
0
ARC
5
A8
100
AcDbEntity
8
1
62
256
6
ByLayer
370
18
48
1
60
0
100
AcDbCircle
39
0
10
1.580967
20
-5.774936
30
0
40
0.850000000000003
210
0
220
0
230
1
100
AcDbArc
50
89.896868
51
158.431752
0
ARC
5
A9
100
AcDbEntity
8
1
62
256
6
ByLayer
370
18
48
1
60
0
100
AcDbCircle
39
0
10
0
20
5.15
30
0
40
0.850000000000003
210
0
220
0
230
1
100
AcDbArc
50
21.568248
51
90
0
ELLIPSE
5
AA
100
AcDbEntity
8
1
62
256
6
ByLayer
370
13
48
1
60
0
100
AcDbEllipse
10
15.228286
20
-7.433641
30
0
11
-63.5392398192859
21
38.2178937402374
31
0
210
0
220
0
230
1
40
0.066701
41
-1.5306979875758
42
-1.38039877797776
0
ELLIPSE
5
AB
100
AcDbEntity
8
1
62
256
6
ByLayer
370
13
48
1
60
0
100
AcDbEllipse
10
6.221054
20
-4.88497
30
0
11
0.0433334714639526
21
0.296853853353604
31
0
210
0
220
0
230
1
40
0.422979
41
0.327247971593451
42
1.25971457938877
0
ELLIPSE
5
AC
100
AcDbEntity
8
1
62
256
6
ByLayer
370
13
48
1
60
0
100
AcDbEllipse
10
5.906237
20
-4.908785
30
0
11
-0.0920366615210547
21
0.285533278158709
31
0
210
0
220
0
230
1
40
0.502172
41
0.336783043584939
42
0.564239932362169
0
ELLIPSE
5
AD
100
AcDbEntity
8
1
62
256
6
ByLayer
370
13
48
1
60
0
100
AcDbEllipse
10
117.194174
20
41.888784
30
0
11
-60.1999999999999
21
7.3721302500107E-15
31
0
210
0
220
0
230
1
40
0.99863
41
0.721268382358538
42
0.732214748841801
0
ELLIPSE
5
AE
100
AcDbEntity
8
1
62
256
6
ByLayer
370
13
48
1
60
0
100
AcDbEllipse
10
17.066783
20
-4.377045
30
0
11
-63.5392398192858
21
38.2178937402374
31
0
210
0
220
0
230
1
40
0.066701
41
-1.5306979875758
42
-1.45242454032494
0
POINT
5
70
100
AcDbEntity
8
80
62
256
6
ByLayer
370
18
48
1
60
0
100
AcDbPoint
10
0
20
0
30
0
39
0
210
0
220
0
230
1
50
360
0
POINT
5
72
100
AcDbEntity
8
81
62
256
6
ByLayer
370
18
48
1
60
0
100
AcDbPoint
10
73
20
0
30
0
39
0
210
0
220
0
230
1
50
360
0
POINT
5
74
100
AcDbEntity
8
1
62
256
6
ByLayer
370
18
48
1
60
1
100
AcDbPoint
10
71.0619
20
-5.05
30
0
39
0
210
0
220
0
230
1
50
360
0
POINT
5
76
100
AcDbEntity
8
1
62
256
6
ByLayer
370
18
48
1
60
1
100
AcDbPoint
10
-45
20
-6
30
0
39
0
210
0
220
0
230
1
50
360
0
POINT
5
77
100
AcDbEntity
8
1
62
256
6
ByLayer
370
18
48
1
60
1
100
AcDbPoint
10
20.56
20
5.05
30
0
39
0
210
0
220
0
230
1
50
360
0
POINT
5
78
100
AcDbEntity
8
1
62
256
6
ByLayer
370
18
48
1
60
1
100
AcDbPoint
10
71.0619
20
-5.05
30
0
39
0
210
0
220
0
230
1
50
360
0
POINT
5
79
100
AcDbEntity
8
1
62
256
6
ByLayer
370
18
48
1
60
1
100
AcDbPoint
10
-45
20
-6
30
0
39
0
210
0
220
0
230
1
50
360
0
POINT
5
7A
100
AcDbEntity
8
1
62
256
6
ByLayer
370
18
48
1
60
1
100
AcDbPoint
10
71.0619
20
-5.05
30
0
39
0
210
0
220
0
230
1
50
360
0
SPLINE
5
AF
100
AcDbEntity
8
1
62
256
6
ByLayer
370
18
48
1
60
0
100
AcDbSpline
70
4
71
3
72
8
73
4
40
0
40
0
40
0
40
0
40
1
40
1
40
1
40
1
41
1
10
5.73577356721026
20
-4.66876593396626
30
0
41
1
10
5.73573886103335
20
-4.67708019569568
30
0
41
1
10
5.74181927645415
20
-4.6849121732148
30
0
41
1
10
5.75178655594269
20
-4.69222653705239
30
0
0
SPLINE
5
B0
100
AcDbEntity
8
1
62
256
6
ByLayer
370
18
48
1
60
0
100
AcDbSpline
70
4
71
4
72
10
73
5
40
0
40
0
40
0
40
0
40
0
40
1
40
1
40
1
40
1
40
1
41
1
10
15.2282864435899
20
-1.66683218622478
30
0
41
1
10
15.0165820797036
20
-2.05833817043478
30
0
41
1
10
14.8048777158174
20
-2.44984415464478
30
0
41
1
10
14.5931733519312
20
-2.84135013885478
30
0
41
1
10
14.3814689880449
20
-3.23285612306478
30
0
0
SPLINE
5
B1
100
AcDbEntity
8
1
62
256
6
ByLayer
370
18
48
1
60
0
100
AcDbSpline
70
4
71
3
72
20
73
16
40
0
40
0
40
0
40
0
40
0.250000000000001
40
0.250000000000001
40
0.374999999999999
40
0.374999999999999
40
0.4375
40
0.4375
40
0.5
40
0.5
40
0.75
40
0.75
40
0.875
40
0.875
40
1
40
1
40
1
40
1
41
1
10
71.1161539451858
20
-4.69600868124948
30
0
41
1
10
71.0169833735806
20
-4.60623455926233
30
0
41
1
10
70.9292266707538
20
-4.491077466588
30
0
41
1
10
70.8153072967029
20
-4.27894444184599
30
0
41
1
10
70.7803041616231
20
-4.20162856013138
30
0
41
1
10
70.7325122240327
20
-4.0751741565295
30
0
41
1
10
70.7173407832211
20
-4.03116449208281
30
0
41
1
10
70.6889392699548
20
-3.94055912178848
30
0
41
1
10
70.6756693538333
20
-3.89387493912727
30
0
41
1
10
70.6139370795622
20
-3.65360129741288
30
0
41
1
10
70.5792024362103
20
-3.43963798954405
30
0
41
1
10
70.5498473868228
20
-3.0849334233836
30
0
41
1
10
70.543882410215
20
-2.96031361426299
30
0
41
1
10
70.54004687668
20
-2.7034660701195
30
0
41
1
10
70.5421179309277
20
-2.57126023497003
30
0
41
1
10
70.5481340072735
20
-2.43531386537143
30
0
0
SPLINE
5
B2
100
AcDbEntity
8
1
62
256
6
ByLayer
370
13
48
1
60
0
100
AcDbSpline
70
4
71
3
72
85
73
81
40
0
40
0
40
0
40
0
40
0.0025029418004455
40
0.0347014528170275
40
0.0427510805711731
40
0.0508007083253181
40
0.0668999638336101
40
0.0749495915877557
40
0.0829992193419016
40
0.0990984748501927
40
0.107148102604339
40
0.115197730358482
40
0.131296985866775
40
0.139346613620921
40
0.147396241375066
40
0.163495496883358
40
0.179594752391648
40
0.19569400789994
40
0.227892518916523
40
0.235942146670669
40
0.243991774424813
40
0.260091029933105
40
0.268140657687251
40
0.276190285441397
40
0.292289540949688
40
0.300339168703833
40
0.308388796457979
40
0.32448805196627
40
0.332537679720415
40
0.340587307474562
40
0.356686562982853
40
0.372785818491144
40
0.388885073999435
40
0.421083585016018
40
0.429133212770163
40
0.437182840524309
40
0.4532820960326
40
0.461331723786746
40
0.469381351540892
40
0.485480607049183
40
0.493530234803329
40
0.501579862557474
40
0.517679118065766
40
0.525728745819911
40
0.533778373574057
40
0.549877629082348
40
0.565976884590639
40
0.582076140098931
40
0.614274651115513
40
0.622324278869659
40
0.630373906623804
40
0.646473162132096
40
0.654522789886241
40
0.662572417640387
40
0.678671673148678
40
0.686721300902824
40
0.694770928656969
40
0.71087018416526
40
0.718919811919406
40
0.726969439673552
40
0.743068695181843
40
0.751118322935989
40
0.759167950690135
40
0.775267206198426
40
0.783316833952571
40
0.791366461706717
40
0.807465717215008
40
0.815515344969154
40
0.8235649727233
40
0.839664228231591
40
0.847713855985737
40
0.855763483739882
40
0.871862739248173
40
0.887961994756465
40
0.904061250264757
40
0.928210133527193
40
0.936259761281338
40
0.95235901678963
40
0.968458272297921
40
1
40
1
40
1
40
1
41
1
10
55.8617079072912
20
0.0534894418069597
30
0
41
1
10
55.8440944328005
20
0.0574900788546129
30
0
41
1
10
55.5998986744743
20
0.11295954987375
30
0
41
1
10
55.2991093631351
20
0.181399643508427
30
0
41
1
10
54.9593454959633
20
0.258632587715282
30
0
41
1
10
54.7327665826155
20
0.30977414348382
30
0
41
1
10
54.506204796099
20
0.36082186111514
30
0
41
1
10
54.2796582171743
20
0.411739348194799
30
0
41
1
10
54.0530786444794
20
0.462371353336549
30
0
41
1
10
53.8265168058598
20
0.51282776750483
30
0
41
1
10
53.5999705954718
20
0.563072883154744
30
0
41
1
10
53.3733913800772
20
0.61297294558767
30
0
41
1
10
53.1468299778403
20
0.662617715485906
30
0
41
1
10
52.9202840100167
20
0.711972266252813
30
0
41
1
10
52.693704407094
20
0.760924596872511
30
0
41
1
10
52.4104783859956
20
0.821609374637487
30
0
41
1
10
52.0706305957144
20
0.89365638877828
30
0
41
1
10
51.6174354356282
20
0.988127774159321
30
0
41
1
10
51.2209851239262
20
1.06935266150745
30
0
41
1
10
50.881221135814
20
1.13771605024564
30
0
41
1
10
50.654642099446
20
1.18257914776555
30
0
41
1
10
50.42808015565
20
1.22688574607119
30
0
41
1
10
50.2015334262517
20
1.27060332878909
30
0
41
1
10
49.9749536820803
20
1.31370852436458
30
0
41
1
10
49.7483916895513
20
1.35618753403034
30
0
41
1
10
49.5218454129981
20
1.39800897231725
30
0
41
1
10
49.2952661672304
20
1.43917195663831
30
0
41
1
10
49.0687047650115
20
1.47964152935298
30
0
41
1
10
48.8421588000631
20
1.51938685442803
30
0
41
1
10
48.6155792199647
20
1.55843012384693
30
0
41
1
10
48.3323532358176
20
1.60619095671739
30
0
41
1
10
47.9925052855768
20
1.66188866983844
30
0
41
1
10
47.5393096927179
20
1.73345257704258
30
0
41
1
10
47.1428590482037
20
1.79323191419698
30
0
41
1
10
46.803095207522
20
1.84224387784675
30
0
41
1
10
46.5765163265531
20
1.8739518091813
30
0
41
1
10
46.3499545917624
20
1.90472815284371
30
0
41
1
10
46.1234080606449
20
1.93454793795331
30
0
41
1
10
45.896828502635
20
1.96352248456892
30
0
41
1
10
45.6702666347032
20
1.99151582075265
30
0
41
1
10
45.4437203783412
20
2.01850434514952
30
0
41
1
10
45.2171411455791
20
2.04462072393647
30
0
41
1
10
44.9905797617465
20
2.06970993499751
30
0
41
1
10
44.7640338367181
20
2.09374986628165
30
0
41
1
10
44.537454272063
20
2.11689417433294
30
0
41
1
10
44.2542282934785
20
2.14440090262942
30
0
41
1
10
43.9143805498394
20
2.1751958099467
30
0
41
1
10
43.4611854577026
20
2.21285768509224
30
0
41
1
10
43.0647352067965
20
2.24200543033017
30
0
41
1
10
42.7249712771674
20
2.2641385187187
30
0
41
1
10
42.4983922923139
20
2.27782232846698
30
0
41
1
10
42.2718304152719
20
2.29034376097581
30
0
41
1
10
42.0452837442846
20
2.30168885719851
30
0
41
1
10
41.8187040229279
20
2.31208613644852
30
0
41
1
10
41.5921420043805
20
2.32129845929756
30
0
41
1
10
41.3655956785382
20
2.32931334852884
30
0
41
1
10
41.1390164063828
20
2.33637691394289
30
0
41
1
10
40.9124550031009
20
2.34223877738196
30
0
41
1
10
40.6859090862297
20
2.34689002789522
30
0
41
1
10
40.4593296862014
20
2.35059171334995
30
0
41
1
10
40.2327674247033
20
2.35308075523275
30
0
41
1
10
40.0062203638871
20
2.35434931826142
30
0
41
1
10
39.7796402881384
20
2.3546727888881
30
0
41
1
10
39.5530779748484
20
2.35377644288453
30
0
41
1
10
39.3265314610345
20
2.35165485420523
30
0
41
1
10
39.0999521161563
20
2.34859635131982
30
0
41
1
10
38.8733908359077
20
2.34431451560416
30
0
41
1
10
38.6468452991953
20
2.33880440259258
30
0
41
1
10
38.4202664529895
20
2.33236916341249
30
0
41
1
10
38.1937050002047
20
2.32471452226536
30
0
41
1
10
37.9671588048694
20
2.3158415893819
30
0
41
1
10
37.7405792860232
20
2.30606240949157
30
0
41
1
10
37.4573538283502
20
2.29228412312835
30
0
41
1
10
37.1175065902271
20
2.27332850840767
30
0
41
1
10
36.7209923440729
20
2.24830918936225
30
0
41
1
10
36.3811775741814
20
2.22391911464072
30
0
41
1
10
36.0413577565751
20
2.19711843170477
30
0
41
1
10
35.7581305769516
20
2.17323293039245
30
0
41
1
10
35.3095583896361
20
2.13228732622366
30
0
41
1
10
34.9743636607144
20
2.09840661583427
30
0
41
1
10
34.7524667333158
20
2.0745615767253
30
0
0
SPLINE
5
B3
100
AcDbEntity
8
1
62
256
6
ByLayer
370
13
48
1
60
0
100
AcDbSpline
70
4
71
3
72
49
73
45
40
0
40
0
40
0
40
0
40
0.0190574826074852
40
0.031964620994229
40
0.0448717593809723
40
0.0706860361544594
40
0.096500312927947
40
0.122314589701434
40
0.161036004861665
40
0.173943143248408
40
0.199757420021896
40
0.225571696795383
40
0.277200250342358
40
0.290107388729101
40
0.303014527115845
40
0.328828803889332
40
0.341735942276076
40
0.354643080662819
40
0.380457357436306
40
0.406271634209794
40
0.432085910983281
40
0.470807326143512
40
0.483714464530256
40
0.509528741303743
40
0.53534301807723
40
0.586971571624204
40
0.599878710010948
40
0.612785848397692
40
0.638600125171179
40
0.651507263557922
40
0.664414401944666
40
0.690228678718153
40
0.716042955491641
40
0.741857232265128
40
0.780578647425359
40
0.793485785812102
40
0.819300062585589
40
0.845114339359077
40
0.896742892906051
40
0.909650031292795
40
0.922557169679538
40
0.948371446453026
40
0.974185723226513
40
1
40
1
40
1
40
1
41
1
10
28.3932693158553
20
-2.07861526488509
30
0
41
1
10
28.3096407261352
20
-2.08754229666647
30
0
41
1
10
28.1693675267935
20
-2.10217858376444
30
0
41
1
10
27.9724418187485
20
-2.12192711018219
30
0
41
1
10
27.7458963202305
20
-2.14383951459158
30
0
41
1
10
27.4627155038452
20
-2.16978553579264
30
0
41
1
10
27.1228752264483
20
-2.19861923258367
30
0
41
1
10
26.7264206817929
20
-2.22943059713788
30
0
41
1
10
26.3865479488871
20
-2.25292625386862
30
0
41
1
10
26.0466802589292
20
-2.27399890539047
30
0
41
1
10
25.7635011475736
20
-2.28993918273218
30
0
41
1
10
25.3104453505689
20
-2.31205223367124
30
0
41
1
10
24.9139269948343
20
-2.32724635828677
30
0
41
1
10
24.5740039260612
20
-2.33727109722881
30
0
41
1
10
24.3474579919151
20
-2.34294249411008
30
0
41
1
10
24.1208947138904
20
-2.34739646922199
30
0
41
1
10
23.8943161694036
20
-2.35063661804557
30
0
41
1
10
23.6677709331438
20
-2.35293194280939
30
0
41
1
10
23.3845904069076
20
-2.35421338632602
30
0
41
1
10
23.0447502764966
20
-2.35328696475463
30
0
41
1
10
22.6482957616564
20
-2.34913848616904
30
0
41
1
10
22.3084230105468
20
-2.3425764631173
30
0
41
1
10
21.9685553889729
20
-2.33350702769962
30
0
41
1
10
21.6853764873031
20
-2.32422931006292
30
0
41
1
10
21.2323212068733
20
-2.30590433727556
30
0
41
1
10
20.835803220498
20
-2.28582234718951
30
0
41
1
10
20.4958800005691
20
-2.26573409986568
30
0
41
1
10
20.2693338944719
20
-2.25126752689556
30
0
41
1
10
20.0427703680145
20
-2.23564743009044
30
0
41
1
10
19.8161915683285
20
-2.21889334952331
30
0
41
1
10
19.5896460876126
20
-2.20120265805403
30
0
41
1
10
19.3064653199158
20
-2.17760099089443
30
0
41
1
10
18.9666251236815
20
-2.14703635452659
30
0
41
1
10
18.5701706799238
20
-2.1085441133404
30
0
41
1
10
18.2302980436825
20
-2.07291298868083
30
0
41
1
10
17.8904304585765
20
-2.03506918827574
30
0
41
1
10
17.6072514444466
20
-2.00197252020936
30
0
41
1
10
17.1541957960044
20
-1.94597996806561
30
0
41
1
10
16.7576775157541
20
-1.89367465551425
30
0
41
1
10
16.4177544620775
20
-1.84655137472561
30
0
41
1
10
16.1912087258683
20
-1.81416820509904
30
0
41
1
10
15.9080280535394
20
-1.77246057353841
30
0
41
1
10
15.5681847883926
20
-1.7206112471689
30
0
41
1
10
15.3415845508204
20
-1.68495710063547
30
0
41
1
10
15.2282864435899
20
-1.66683218622478
30
0
0
SPLINE
5
B4
100
AcDbEntity
8
1
62
256
6
ByLayer
370
18
48
1
60
0
100
AcDbSpline
70
4
71
3
72
8
73
4
40
0
40
0
40
0
40
0
40
1
40
1
40
1
40
1
41
1
10
71.9858537058328
20
2.19093276786737
30
0
41
1
10
71.9927690387913
20
2.24458665687041
30
0
41
1
10
71.9904384085095
20
2.29908702512756
30
0
41
1
10
71.9806707961874
20
2.3528178168738
30
0
0
SPLINE
5
B5
100
AcDbEntity
8
1
62
256
6
ByLayer
370
18
48
1
60
0
100
AcDbSpline
70
4
71
3
72
100
73
96
40
0
40
0
40
0
40
0
40
0.0043377568890011
40
0.0043377568890011
40
0.047290313944796
40
0.047290313944796
40
0.0687665924726935
40
0.0687665924726935
40
0.0902428710005909
40
0.0902428710005909
40
0.111719149528488
40
0.111719149528488
40
0.133195428056386
40
0.133195428056386
40
0.154671706584283
40
0.154671706584283
40
0.176147985112181
40
0.176147985112181
40
0.197624263640078
40
0.197624263640078
40
0.219100542167976
40
0.219100542167976
40
0.240576820695873
40
0.240576820695873
40
0.262053099223771
40
0.262053099223771
40
0.283529377751668
40
0.283529377751668
40
0.305005656279566
40
0.305005656279566
40
0.326481934807463
40
0.326481934807463
40
0.347958213335361
40
0.347958213335361
40
0.369434491863258
40
0.369434491863258
40
0.390910770391156
40
0.390910770391156
40
0.412387048919053
40
0.412387048919053
40
0.43386332744695
40
0.43386332744695
40
0.455339605974848
40
0.455339605974848
40
0.476815884502745
40
0.476815884502745
40
0.498292163030643
40
0.498292163030643
40
0.51976844155854
40
0.51976844155854
40
0.541244720086438
40
0.541244720086438
40
0.562720998614335
40
0.562720998614335
40
0.584197277142233
40
0.584197277142233
40
0.60567355567013
40
0.60567355567013
40
0.627149834198028
40
0.627149834198028
40
0.648626112725925
40
0.648626112725925
40
0.670102391253823
40
0.670102391253823
40
0.69157866978172
40
0.69157866978172
40
0.713054948309618
40
0.713054948309618
40
0.734531226837515
40
0.734531226837515
40
0.756007505365413
40
0.756007505365413
40
0.77748378389331
40
0.77748378389331
40
0.798960062421208
40
0.798960062421208
40
0.820436340949105
40
0.820436340949105
40
0.841912619477003
40
0.841912619477003
40
0.8633888980049
40
0.8633888980049
40
0.884865176532798
40
0.884865176532798
40
0.906341455060695
40
0.906341455060695
40
0.927817733588593
40
0.927817733588593
40
0.94929401211649
40
0.94929401211649
40
0.970770290644388
40
0.970770290644388
40
0.992246569172285
40
0.992246569172285
40
1
40
1
40
1
40
1
41
1
10
23.0143132566039
20
4.83850638406994
30
0
41
1
10
23.0736840111839
20
4.8387473203411
30
0
41
1
10
23.1330413980569
20
4.83876061425585
30
0
41
1
10
23.7799552449856
20
4.83638055696122
30
0
41
1
10
24.3664289475583
20
4.80683453327984
30
0
41
1
10
25.2458916045979
20
4.73366952192512
30
0
41
1
10
25.5392828091761
20
4.70361927645587
30
0
41
1
10
26.1265669344397
20
4.63004635717721
30
0
41
1
10
26.4205715304379
20
4.5874537959163
30
0
41
1
10
27.0087635695989
20
4.49241256721123
30
0
41
1
10
27.3025138095621
20
4.44064153059978
30
0
41
1
10
27.8893628485287
20
4.32365951346162
30
0
41
1
10
28.1828455824355
20
4.25951451114224
30
0
41
1
10
28.7692202233764
20
4.12184808915714
30
0
41
1
10
29.0621372998624
20
4.04827448676537
30
0
41
1
10
29.6486631093534
20
3.89202414726631
30
0
41
1
10
29.942167075662
20
3.80835671056366
30
0
41
1
10
30.5296695518674
20
3.63153356704745
30
0
41
1
10
30.8239743545052
20
3.53850525266216
30
0
41
1
10
31.4114480735633
20
3.34544520034572
30
0
41
1
10
31.7047839218092
20
3.24478841760035
30
0
41
1
10
32.291616915466
20
3.03557880911691
30
0
41
1
10
32.5847649746225
20
2.92705035801933
30
0
41
1
10
33.1707985407557
20
2.70322453282557
30
0
41
1
10
33.4638798986664
20
2.58831536268198
30
0
41
1
10
34.0507126154239
20
2.35160428061599
30
0
41
1
10
34.3443077070654
20
2.22967925904834
30
0
41
1
10
34.9322868683654
20
1.98102246475494
30
0
41
1
10
35.2261015488829
20
1.85428006424155
30
0
41
1
10
35.8130061360772
20
1.5969956725871
30
0
41
1
10
36.1061623913577
20
1.46612028373181
30
0
41
1
10
36.6922621616479
20
1.20118535070094
30
0
41
1
10
36.9852511423528
20
1.06732366028868
30
0
41
1
10
37.5713042705612
20
0.796961191976635
30
0
41
1
10
37.8644830664252
20
0.660492519670669
30
0
41
1
10
38.4516030061177
20
0.386180243356876
30
0
41
1
10
38.7456729323524
20
0.248012304722352
30
0
41
1
10
39.3331844693422
20
-0.0284756913448803
30
0
41
1
10
39.6265566242556
20
-0.16671578963556
30
0
41
1
10
40.212794381187
20
-0.442341398581078
30
0
41
1
10
40.5060576731041
20
-0.578904390338579
30
0
41
1
10
41.0918791662482
20
-0.852077473509326
30
0
41
1
10
41.3846927228316
20
-0.988117184160842
30
0
41
1
10
41.9708072592883
20
-1.2572441428155
30
0
41
1
10
42.2641713869107
20
-1.39025189659327
30
0
41
1
10
42.8514822570503
20
-1.65337639891979
30
0
41
1
10
43.1454771589822
20
-1.78359226711643
30
0
41
1
10
43.7322569884487
20
-2.03859951641411
30
0
41
1
10
44.0252661673867
20
-2.16354987834708
30
0
41
1
10
44.6114327375066
20
-2.40709284363354
30
0
41
1
10
44.9042145929698
20
-2.52654155291876
30
0
41
1
10
45.4897174135191
20
-2.76015867033721
30
0
41
1
10
45.7826079271181
20
-2.87347782920375
30
0
41
1
10
46.3689502218967
20
-3.0927431564657
30
0
41
1
10
46.6625740451641
20
-3.19859373453218
30
0
41
1
10
47.2501579755013
20
-3.40365517404891
30
0
41
1
10
47.543434516157
20
-3.50258530299169
30
0
41
1
10
48.1295474536878
20
-3.69029154809698
30
0
41
1
10
48.4225249479986
20
-3.77919786882481
30
0
41
1
10
49.0081765131904
20
-3.94863061782567
30
0
41
1
10
49.3007019628251
20
-4.0299117676706
30
0
41
1
10
49.886349241328
20
-4.18107129860792
30
0
41
1
10
50.179324346978
20
-4.25119895332531
30
0
41
1
10
50.7661339471415
20
-4.38112970545697
30
0
41
1
10
51.0600619733825
20
-4.44140931470662
30
0
41
1
10
51.6467028836225
20
-4.55197825591515
30
0
41
1
10
51.9396510882211
20
-4.60126087642976
30
0
41
1
10
52.5253813053543
20
-4.68808925889655
30
0
41
1
10
52.8182949775323
20
-4.72564062546061
30
0
41
1
10
53.4035015943319
20
-4.79131567014736
30
0
41
1
10
53.696121369378
20
-4.81870445445154
30
0
41
1
10
54.2819052759498
20
-4.86012781476802
30
0
41
1
10
54.5751794738308
20
-4.8746461858193
30
0
41
1
10
55.1622908979031
20
-4.89274741572157
30
0
41
1
10
55.4557309356663
20
-4.89637239919324
30
0
41
1
10
56.0418723578999
20
-4.89083545300241
30
0
41
1
10
56.3346150621663
20
-4.88180872604917
30
0
41
1
10
56.9200059688692
20
-4.85322480031073
30
0
41
1
10
57.2125810215485
20
-4.83413464370392
30
0
41
1
10
57.7978196415303
20
-4.78348641693793
30
0
41
1
10
58.0906309897761
20
-4.75154522751157
30
0
41
1
10
58.6770104571121
20
-4.67544245902803
30
0
41
1
10
58.9708103976433
20
-4.63135469732075
30
0
41
1
10
59.5576686233541
20
-4.53259657949363
30
0
41
1
10
59.8507166027788
20
-4.477832234461
30
0
41
1
10
60.4364236173231
20
-4.35841436966325
30
0
41
1
10
60.7293102413645
20
-4.29412596395898
30
0
41
1
10
61.3146288382329
20
-4.15556471378443
30
0
41
1
10
61.6071152886871
20
-4.0808983021299
30
0
41
1
10
62.1927966226922
20
-3.92097974805958
30
0
41
1
10
62.4858743874137
20
-3.8358143471327
30
0
41
1
10
63.0729027915685
20
-3.65627451752985
30
0
41
1
10
63.3664718159105
20
-3.56198071595941
30
0
41
1
10
63.7651961284479
20
-3.42800953954458
30
0
41
1
10
63.8709183936263
20
-3.39192806243648
30
0
41
1
10
63.9766168308189
20
-3.35534691256282
30
0
0
SPLINE
5
B6
100
AcDbEntity
8
1
62
256
6
ByLayer
370
18
48
1
60
0
100
AcDbSpline
70
4
71
3
72
8
73
4
40
0
40
0
40
0
40
0
40
1
40
1
40
1
40
1
41
1
10
72.9995811975227
20
-0.122812404493658
30
0
41
1
10
72.7978525547686
20
-0.640837476044226
30
0
41
1
10
72.6070215592932
20
-1.16669487193292
30
0
41
1
10
72.4236970655646
20
-1.69913232756312
30
0
0
SPLINE
5
B7
100
AcDbEntity
8
1
62
256
6
ByLayer
370
18
48
1
60
0
100
AcDbSpline
70
4
71
3
72
8
73
4
40
0
40
0
40
0
40
0
40
1
40
1
40
1
40
1
41
1
10
72.4236970655677
20
-1.69913232755397
30
0
41
1
10
72.2617562032299
20
-2.16946435439871
30
0
41
1
10
72.1006471149133
20
-2.64008017560803
30
0
41
1
10
71.9403728210494
20
-3.11098082172796
30
0
0
SPLINE
5
B8
100
AcDbEntity
8
1
62
256
6
ByLayer
370
18
48
1
60
0
100
AcDbSpline
70
4
71
3
72
8
73
4
40
0
40
0
40
0
40
0
40
1
40
1
40
1
40
1
41
1
10
72.2701275312381
20
-1.04907471372934
30
0
41
1
10
72.2702859702861
20
-1.04923379652152
30
0
41
1
10
72.2704444102234
20
-1.04939287842797
30
0
41
1
10
72.2706028510502
20
-1.04955195944862
30
0
0
SPLINE
5
B9
100
AcDbEntity
8
1
62
256
6
ByLayer
370
18
48
1
60
0
100
AcDbSpline
70
4
71
3
72
10
73
6
40
0
40
0
40
0
40
0
40
0.5
40
0.5
40
1
40
1
40
1
40
1
41
1
10
71.1629730421583
20
-4.78884752746953
30
0
41
1
10
71.1587513375741
20
-4.76667858409911
30
0
41
1
10
71.1521279144357
20
-4.7481123085133
30
0
41
1
10
71.1361695188504
20
-4.71771794310649
30
0
41
1
10
71.1266937572038
20
-4.70554984204347
30
0
41
1
10
71.1161539451813
20
-4.69600868124533
30
0
0
SPLINE
5
BA
100
AcDbEntity
8
1
62
256
6
ByLayer
370
18
48
1
60
0
100
AcDbSpline
70
4
71
3
72
70
73
66
40
0
40
0
40
0
40
0
40
0.0161396826217807
40
0.0161396826217807
40
0.0370728808638717
40
0.0370728808638717
40
0.0789392773480544
40
0.0789392773480544
40
0.120805673832237
40
0.120805673832237
40
0.141738872074328
40
0.141738872074328
40
0.16267207031642
40
0.16267207031642
40
0.246404863284783
40
0.246404863284783
40
0.267338061526873
40
0.267338061526873
40
0.288271259768964
40
0.288271259768964
40
0.330137656253143
40
0.330137656253143
40
0.351070854495233
40
0.351070854495233
40
0.372004052737323
40
0.372004052737323
40
0.413870449221503
40
0.413870449221503
40
0.455736845705682
40
0.455736845705682
40
0.476670043947772
40
0.476670043947772
40
0.497603242189861
40
0.497603242189861
40
0.53946963867404
40
0.53946963867404
40
0.581336035158219
40
0.581336035158219
40
0.623202431642398
40
0.623202431642398
40
0.644135629884487
40
0.644135629884487
40
0.665068828126576
40
0.665068828126576
40
0.748801621094932
40
0.748801621094932
40
0.769734819337021
40
0.769734819337021
40
0.79066801757911
40
0.79066801757911
40
0.811601215821199
40
0.811601215821199
40
0.832534414063288
40
0.832534414063288
40
0.853467612305377
40
0.853467612305377
40
0.874400810547466
40
0.874400810547466
40
0.916267207031644
40
0.916267207031644
40
0.937200405273733
40
0.937200405273733
40
0.958133603515822
40
0.958133603515822
40
1
40
1
40
1
40
1
41
1
10
31.4851668522674
20
3.31788623036769
30
0
41
1
10
31.6990044892903
20
3.39495291597189
30
0
41
1
10
31.9126824725643
20
3.47004518164471
30
0
41
1
10
32.4039596700241
20
3.63673573075619
30
0
41
1
10
32.6815671196856
20
3.72684036851047
30
0
41
1
10
33.5142871398755
20
3.98605728925648
30
0
41
1
10
34.0712909725538
20
4.14285289810266
30
0
41
1
10
35.1824218337094
20
4.41838440226789
30
0
41
1
10
35.736364096249
20
4.53798815148215
30
0
41
1
10
36.5684804240023
20
4.68684973801695
30
0
41
1
10
36.8460323932834
20
4.73144201848012
30
0
41
1
10
37.4011747387775
20
4.81070043295867
30
0
41
1
10
37.6791244808248
20
4.84520135178181
30
0
41
1
10
39.0701224529196
20
4.99130762924898
30
0
41
1
10
40.1762961564803
20
5.02309321679314
30
0
41
1
10
41.5647158493359
20
4.95490755798295
30
0
41
1
10
41.8428937285399
20
4.93584475908639
30
0
41
1
10
42.3988148886082
20
4.88717113258627
30
0
41
1
10
42.6763449975042
20
4.85752026866538
30
0
41
1
10
43.5084377624812
20
4.75304534873541
30
0
41
1
10
44.0620332443435
20
4.66235570464156
30
0
41
1
10
44.89412429535
20
4.49727252130236
30
0
41
1
10
45.1715394886927
20
4.43722016262842
30
0
41
1
10
45.7271326412911
20
4.30761714433575
30
0
41
1
10
46.0052909009748
20
4.23781149256715
30
0
41
1
10
46.838437545495
20
4.0155792569858
30
0
41
1
10
47.3925917090274
20
3.84973894281782
30
0
41
1
10
48.5003379957041
20
3.48515471242465
30
0
41
1
10
49.0548374295836
20
3.28772591876574
30
0
41
1
10
49.8884953911473
20
2.97036133660734
30
0
41
1
10
50.1664472772084
20
2.86099110131332
30
0
41
1
10
50.7213602303846
20
2.63675381461368
30
0
41
1
10
50.9985758151728
20
2.52182228300941
30
0
41
1
10
51.8296626662707
20
2.1688916489797
30
0
41
1
10
52.3831803780977
20
1.92309704855444
30
0
41
1
10
53.4926991534724
20
1.41727799986046
30
0
41
1
10
54.049067097541
20
1.15604707658326
30
0
41
1
10
55.1579330547457
20
0.626602975001418
30
0
41
1
10
55.7115778955105
20
0.358690383083569
30
0
41
1
10
56.5422501820927
20
-0.0451031219731988
30
0
41
1
10
56.8194561589995
20
-0.179437813518689
30
0
41
1
10
57.3742643851847
20
-0.448067025731291
30
0
41
1
10
57.6522182044221
20
-0.582283646072767
30
0
41
1
10
59.0404089538725
20
-1.2500663905183
30
0
41
1
10
60.1450120585744
20
-1.76975082189028
30
0
41
1
10
61.5322712228584
20
-2.37366703262532
30
0
41
1
10
61.8102062369439
20
-2.49232962380401
30
0
41
1
10
62.3649146512834
20
-2.7238116148863
30
0
41
1
10
62.6420320376084
20
-2.83648106588009
30
0
41
1
10
63.1958145138496
20
-3.05567604249597
30
0
41
1
10
63.4725815531691
20
-3.16202557437021
30
0
41
1
10
64.026158248861
20
-3.36777217560362
30
0
41
1
10
64.30277976351
20
-3.46745348685209
30
0
41
1
10
64.8566458383216
20
-3.65893953880604
30
0
41
1
10
65.1339676170836
20
-3.75065418643729
30
0
41
1
10
65.6890421914915
20
-3.92649050417521
30
0
41
1
10
65.9668049375139
20
-4.01023152750224
30
0
41
1
10
66.7972254039478
20
-4.24816745931886
30
0
41
1
10
67.3489538176369
20
-4.38859647719755
30
0
41
1
10
68.1756447885275
20
-4.57033032242273
30
0
41
1
10
68.4507935431621
20
-4.62631396616095
30
0
41
1
10
69.0014981078941
20
-4.72801613811419
30
0
41
1
10
69.2770282856381
20
-4.77379329115334
30
0
41
1
10
70.1037408999129
20
-4.89617852884669
30
0
41
1
10
70.6555425634268
20
-4.95745613350769
30
0
41
1
10
71.2093846632812
20
-4.99742908961727
30
0
0
SPLINE
5
BB
100
AcDbEntity
8
1
62
256
6
ByLayer
370
13
48
1
60
0
100
AcDbSpline
70
4
71
3
72
8
73
4
40
0
40
0
40
0
40
0
40
1
40
1
40
1
40
1
41
1
10
5.73577356723132
20
-4.66876593395904
30
0
41
1
10
5.74763659691848
20
-4.66388700022694
30
0
41
1
10
5.75970518210761
20
-4.65915084657635
30
0
41
1
10
5.77198778507505
20
-4.65456469293505
30
0
0
SPLINE
5
BC
100
AcDbEntity
8
1
62
256
6
ByLayer
370
18
48
1
60
0
100
AcDbSpline
70
4
71
3
72
10
73
6
40
0
40
0
40
0
40
0
40
0.5
40
0.5
40
1
40
1
40
1
40
1
41
1
10
71.2093846632811
20
4.99742908961727
30
0
41
1
10
71.3304328007871
20
4.69403211936589
30
0
41
1
10
71.4527615101196
20
4.38561326626217
30
0
41
1
10
71.6973454303999
20
3.75728120523624
30
0
41
1
10
71.8196385694014
20
3.43745989425037
30
0
41
1
10
71.9403728210495
20
3.11098082172782
30
0
0
SPLINE
5
BD
100
AcDbEntity
8
1
62
256
6
ByLayer
370
18
48
1
60
0
100
AcDbSpline
70
4
71
3
72
20
73
16
40
0
40
0
40
0
40
0
40
0.125
40
0.125
40
0.25
40
0.25
40
0.375
40
0.375
40
0.5
40
0.5
40
0.75
40
0.75
40
0.875
40
0.875
40
1
40
1
40
1
40
1
41
1
10
5.74175728536608
20
2.19401131825183
30
0
41
1
10
5.70129255828516
20
2.27514804114361
30
0
41
1
10
5.66426704648873
20
2.35754154463575
30
0
41
1
10
5.59923758093254
20
2.52245215076559
30
0
41
1
10
5.57148255390894
20
2.6042444196282
30
0
41
1
10
5.52594155883156
20
2.76640954283315
30
0
41
1
10
5.5081542148497
20
2.84678259025932
30
0
41
1
10
5.48316442682369
20
3.00599518982133
30
0
41
1
10
5.47598234382971
20
3.0853929337014
30
0
41
1
10
5.47147059457953
20
3.31566261246277
30
0
41
1
10
5.49063451861321
20
3.45918885228565
30
0
41
1
10
5.5504001483655
20
3.66044309782527
30
0
41
1
10
5.57565839110666
20
3.72533789514549
30
0
41
1
10
5.63478849346271
20
3.84774998349354
30
0
41
1
10
5.66874168523367
20
3.90566965184507
30
0
41
1
10
5.70664967647468
20
3.96063249400453
30
0
0
SPLINE
5
BE
100
AcDbEntity
8
1
62
256
6
ByLayer
370
18
48
1
60
0
100
AcDbSpline
70
4
71
1
72
4
73
2
40
0
40
0
40
1
40
1
41
1
10
71.1629730421545
20
-4.7888475274693
30
0
41
1
10
72.2694689429835
20
-1.0533799689151
30
0
0
SPLINE
5
BF
100
AcDbEntity
8
1
62
256
6
ByLayer
370
18
48
1
60
0
100
AcDbSpline
70
4
71
3
72
12
73
8
40
0
40
0
40
0
40
0
40
0.25
40
0.25
40
0.5
40
0.5
40
1
40
1
40
1
40
1
41
1
10
5.7517865559428
20
-4.69222653705248
30
0
41
1
10
5.76757222777593
20
-4.70381065560161
30
0
41
1
10
5.79127923745079
20
-4.71334753315747
30
0
41
1
10
5.84600391734298
20
-4.73052011911412
30
0
41
1
10
5.87647756270155
20
-4.73783578498728
30
0
41
1
10
5.97224806647031
20
-4.75754779754269
30
0
41
1
10
6.04239600145115
20
-4.76790789819407
30
0
41
1
10
6.11478190414991
20
-4.77665682456961
30
0
0
SPLINE
5
C0
100
AcDbEntity
8
1
62
256
6
ByLayer
370
18
48
1
60
0
100
AcDbSpline
70
4
71
3
72
8
73
4
40
0
40
0
40
0
40
0
40
1
40
1
40
1
40
1
41
1
10
71.14423201087
20
-4.89381479218247
30
0
41
1
10
71.1534639101448
20
-4.85488944100288
30
0
41
1
10
71.1598375222535
20
-4.81874065388314
30
0
41
1
10
71.1629730421618
20
-4.78884752743218
30
0
0
SPLINE
5
C1
100
AcDbEntity
8
1
62
256
6
ByLayer
370
18
48
1
60
0
100
AcDbSpline
70
4
71
3
72
8
73
4
40
0
40
0
40
0
40
0
40
1
40
1
40
1
40
1
41
1
10
71.2093846632811
20
-4.99742908961727
30
0
41
1
10
71.1850827994268
20
-4.97203359646599
30
0
41
1
10
71.1634158899803
20
-4.93745189477553
30
0
41
1
10
71.1442320108749
20
-4.89381479216769
30
0
0
SPLINE
5
C2
100
AcDbEntity
8
1
62
256
6
ByLayer
370
18
48
1
60
0
100
AcDbSpline
70
4
71
3
72
8
73
4
40
0
40
0
40
0
40
0
40
1
40
1
40
1
40
1
41
1
10
72.9995811975227
20
0.122812404493658
30
0
41
1
10
73.0001396008141
20
0.0409374681645716
30
0
41
1
10
73.0001396008141
20
-0.0409374681645716
30
0
41
1
10
72.9995811975227
20
-0.122812404493686
30
0
0
SPLINE
5
C3
100
AcDbEntity
8
1
62
256
6
ByLayer
370
18
48
1
60
0
100
AcDbSpline
70
4
71
3
72
50
73
46
40
0
40
0
40
0
40
0
40
0.0374601565455711
40
0.0374601565455711
40
0.0749203130911422
40
0.0749203130911422
40
0.112380469636713
40
0.112380469636713
40
0.149840626182284
40
0.149840626182284
40
0.224760939273428
40
0.224760939273428
40
0.262221095819001
40
0.262221095819001
40
0.299681252364573
40
0.299681252364573
40
0.337141408910146
40
0.337141408910146
40
0.374601565455718
40
0.374601565455718
40
0.412061722001291
40
0.412061722001291
40
0.449521878546864
40
0.449521878546864
40
0.486982035092436
40
0.486982035092436
40
0.524442191638009
40
0.524442191638009
40
0.561902348183581
40
0.561902348183581
40
0.599362504729154
40
0.599362504729154
40
0.636822661274726
40
0.636822661274726
40
0.674282817820299
40
0.674282817820299
40
0.749203130911443
40
0.749203130911443
40
0.824123444002586
40
0.824123444002586
40
0.861583600548157
40
0.861583600548157
40
0.899043757093728
40
0.899043757093728
40
1
40
1
40
1
40
1
41
1
10
17.9583011857516
20
2.70546575120213
30
0
41
1
10
18.2366555688997
20
2.59383934753211
30
0
41
1
10
18.5146837184419
20
2.47954595763596
30
0
41
1
10
19.0704394750342
20
2.24632708730391
30
0
41
1
10
19.3478875279342
20
2.12687678738391
30
0
41
1
10
19.9027773534731
20
1.88389476033009
30
0
41
1
10
20.1803555185163
20
1.76063686791011
30
0
41
1
10
20.7355375945989
20
1.51013694121124
30
0
41
1
10
21.0130256862329
20
1.38265184898464
30
0
41
1
10
21.8466560948678
20
0.99641972081119
30
0
41
1
10
22.4039282423173
20
0.732880562004397
30
0
41
1
10
23.2369613012241
20
0.335422903982078
30
0
41
1
10
23.514237286655
20
0.202082996815562
30
0
41
1
10
24.0689949998556
20
-0.0641885190489973
30
0
41
1
10
24.3465473632498
20
-0.196971895288556
30
0
41
1
10
24.9016250502977
20
-0.462618440376417
30
0
41
1
10
25.1791126294131
20
-0.595560871242128
30
0
41
1
10
25.734996165417
20
-0.859563406414168
30
0
41
1
10
26.0134867136724
20
-0.99107322383523
30
0
41
1
10
26.5696344539936
20
-1.25117862719478
30
0
41
1
10
26.8472621376695
20
-1.38011494021043
30
0
41
1
10
27.4023520617539
20
-1.63429278799785
30
0
41
1
10
27.6794411011215
20
-1.76027423662995
30
0
41
1
10
28.234075545572
20
-2.00732259224489
30
0
41
1
10
28.5115908939183
20
-2.12846686379837
30
0
41
1
10
29.0665645963489
20
-2.36685134503202
30
0
41
1
10
29.3440899772313
20
-2.48395161756073
30
0
41
1
10
29.9001180756375
20
-2.71229071014875
30
0
41
1
10
30.1784960379685
20
-2.82389257763808
30
0
41
1
10
30.7342242418438
20
-3.04018430268411
30
0
41
1
10
31.0116627706802
20
-3.14527871281916
30
0
41
1
10
31.5664650818673
20
-3.34810802845024
30
0
41
1
10
31.8434145536914
20
-3.44648493303356
30
0
41
1
10
32.3979788645751
20
-3.63476285148141
30
0
41
1
10
32.675470626592
20
-3.7248848384028
30
0
41
1
10
33.5078436616621
20
-3.98416509605551
30
0
41
1
10
34.0646046060719
20
-4.14104181940567
30
0
41
1
10
35.1752928705997
20
-4.41676774834312
30
0
41
1
10
35.7290148570673
20
-4.53648574482247
30
0
41
1
10
36.5607744180283
20
-4.68556308970139
30
0
41
1
10
36.8382132350878
20
-4.73022700069805
30
0
41
1
10
37.3931185956406
20
-4.80964612902326
30
0
41
1
10
37.6709293569112
20
-4.84423471765581
30
0
41
1
10
38.6984913792435
20
-4.95255210793326
30
0
41
1
10
39.4449451771135
20
-4.99296135491488
30
0
41
1
10
40.1917948608126
20
-4.99439440183227
30
0
0
SPLINE
5
C4
100
AcDbEntity
8
1
62
256
6
ByLayer
370
18
48
1
60
0
100
AcDbSpline
70
4
71
3
72
20
73
16
40
0
40
0
40
0
40
0
40
0.0803512306467954
40
0.0803512306467954
40
0.195307326815946
40
0.195307326815946
40
0.310263422985096
40
0.310263422985096
40
0.540175615323392
40
0.540175615323392
40
0.655131711492543
40
0.655131711492543
40
0.770087807661694
40
0.770087807661694
40
1
40
1
40
1
40
1
41
1
10
63.9802667483334
20
3.34997994147142
30
0
41
1
10
64.1736146169319
20
3.42057607950753
30
0
41
1
10
64.3669530004794
20
3.48950196528438
30
0
41
1
10
64.837234598551
20
3.65240993257635
30
0
41
1
10
65.1144287883935
20
3.74426691889005
30
0
41
1
10
65.6692435042769
20
3.92040288999104
30
0
41
1
10
65.9469761615793
20
4.00433154964844
30
0
41
1
10
66.7782518878639
20
4.243145772329
30
0
41
1
10
67.331595863987
20
4.3844263743421
30
0
41
1
10
68.1622491913696
20
4.56755568829684
30
0
41
1
10
68.4389917096455
20
4.62400880967553
30
0
41
1
10
68.9933921013408
20
4.72664035300966
30
0
41
1
10
69.2711939003804
20
4.7728766160921
30
0
41
1
10
70.1027360852283
20
4.89613449956141
30
0
41
1
10
70.6559411176547
20
4.95748489872918
30
0
41
1
10
71.2093846632811
20
4.99742908961727
30
0
0
SPLINE
5
C5
100
AcDbEntity
8
1
62
256
6
ByLayer
370
18
48
1
60
0
100
AcDbSpline
70
4
71
4
72
10
73
5
40
0
40
0
40
0
40
0
40
0
40
1
40
1
40
1
40
1
40
1
41
1
10
17.9583011857515
20
2.70546575120213
30
0
41
1
10
17.7354215891778
20
2.37654026506274
30
0
41
1
10
17.5125419926041
20
2.04761477892339
30
0
41
1
10
17.2896623960304
20
1.71868929278403
30
0
41
1
10
17.0667827994567
20
1.38976380664468
30
0
0
SPLINE
5
C6
100
AcDbEntity
8
1
62
256
6
ByLayer
370
13
48
1
60
0
100
AcDbSpline
70
4
71
3
72
31
73
27
40
0
40
0
40
0
40
0
40
0.125
40
0.125
40
0.1875
40
0.1875
40
0.25
40
0.25
40
0.312499999999999
40
0.312499999999999
40
0.374999999999999
40
0.437499999999999
40
0.437499999999999
40
0.468749999999999
40
0.468749999999999
40
0.499999999999999
40
0.499999999999999
40
0.625
40
0.625
40
0.6875
40
0.6875
40
0.75
40
0.75
40
0.875
40
0.875
40
1
40
1
40
1
40
1
41
1
10
6.22172738091228
20
-4.5979781547762
30
0
41
1
10
6.2218315713846
20
-4.50176850824599
30
0
41
1
10
6.22192309028389
20
-4.374723655004
30
0
41
1
10
6.22204924238289
20
-4.13903728474961
30
0
41
1
10
6.22208954805274
20
-4.05256395039277
30
0
41
1
10
6.22216686083124
20
-3.86557225673309
30
0
41
1
10
6.22220376697575
20
-3.76539584099439
30
0
41
1
10
6.22227523057063
20
-3.55172001749224
30
0
41
1
10
6.22230982691084
20
-3.43798967975374
30
0
41
1
10
6.22237650924674
20
-3.20115858637902
30
0
41
1
10
6.22244099246905
20
-2.95409456034909
30
0
41
1
10
6.22250274520081
20
-2.68691233907535
30
0
41
1
10
6.22254847498346
20
-2.47887505432965
30
0
41
1
10
6.22256361895543
20
-2.40825174897262
30
0
41
1
10
6.22259375999423
20
-2.26440137743799
30
0
41
1
10
6.22260877230735
20
-2.19108841905032
30
0
41
1
10
6.22268271069368
20
-1.82217086569867
30
0
41
1
10
6.22273913069799
20
-1.51643755680868
30
0
41
1
10
6.22281977259064
20
-1.04227015650864
30
0
41
1
10
6.22284597769544
20
-0.881442411087079
30
0
41
1
10
6.2228964590316
20
-0.555007233421691
30
0
41
1
10
6.22292036200267
20
-0.391809707868987
30
0
41
1
10
6.22298729065812
20
0.0977245301004928
30
0
41
1
10
6.22302570115755
20
0.424003511015712
30
0
41
1
10
6.2230824266673
20
1.07640208671518
30
0
41
1
10
6.2230997341988
20
1.39196771210942
30
0
41
1
10
6.22310188243819
20
1.69684279423581
30
0
0
SPLINE
5
C7
100
AcDbEntity
8
1
62
256
6
ByLayer
370
18
48
1
60
0
100
AcDbSpline
70
4
71
3
72
10
73
6
40
0
40
0
40
0
40
0
40
0.5
40
0.5
40
1
40
1
40
1
40
1
41
1
10
71.9806707640178
20
2.35281781293347
30
0
41
1
10
71.957471224858
20
2.48043648275964
30
0
41
1
10
71.9451589444058
20
2.60722412530794
30
0
41
1
10
71.9338067650256
20
2.85978632545425
30
0
41
1
10
71.934869047168
20
2.98555308373855
30
0
41
1
10
71.9403728210495
20
3.11098082172782
30
0
0
SPLINE
5
C8
100
AcDbEntity
8
1
62
256
6
ByLayer
370
18
48
1
60
0
100
AcDbSpline
70
4
71
3
72
8
73
4
40
0
40
0
40
0
40
0
40
1
40
1
40
1
40
1
41
1
10
72.4236970655646
20
1.69913232756298
30
0
41
1
10
72.2617566117632
20
2.16946316787741
30
0
41
1
10
72.1006475197342
20
2.64007898620696
30
0
41
1
10
71.9403728210495
20
3.11098082172782
30
0
0
SPLINE
5
C9
100
AcDbEntity
8
1
62
256
6
ByLayer
370
18
48
1
60
0
100
AcDbSpline
70
4
71
3
72
10
73
6
40
0
40
0
40
0
40
0
40
0.5
40
0.5
40
1
40
1
40
1
40
1
41
1
10
71.2093846632811
20
-4.99742908961727
30
0
41
1
10
71.330439777323
20
-4.69401463326571
30
0
41
1
10
71.4527721904306
20
-4.38558617679038
30
0
41
1
10
71.6973562006978
20
-3.75725318841646
30
0
41
1
10
71.8196457683964
20
-3.43744042735364
30
0
41
1
10
71.9403728210494
20
-3.11098082172796
30
0
0
SPLINE
5
CA
100
AcDbEntity
8
1
62
256
6
ByLayer
370
18
48
1
60
0
100
AcDbSpline
70
4
71
3
72
8
73
4
40
0
40
0
40
0
40
0
40
1
40
1
40
1
40
1
41
1
10
70.6837824511656
20
0.510834738393612
30
0
41
1
10
70.8908023754396
20
0.417219483167287
30
0
41
1
10
71.0991039671185
20
0.330027200667075
30
0
41
1
10
71.3087921735797
20
0.249783826201281
30
0
0
SPLINE
5
CB
100
AcDbEntity
8
1
62
256
6
ByLayer
370
18
48
1
60
0
100
AcDbSpline
70
4
71
3
72
14
73
10
40
0
40
0
40
0
40
0
40
0.25
40
0.25
40
0.5
40
0.5
40
0.75
40
0.75
40
1
40
1
40
1
40
1
41
1
10
72.2706028510241
20
-1.04955195947215
30
0
41
1
10
72.3248163167891
20
-1.00580951146895
30
0
41
1
10
72.3815382365271
20
-0.945856752199006
30
0
41
1
10
72.5003186691753
20
-0.795989216723427
30
0
41
1
10
72.5629933966569
20
-0.704852967071133
30
0
41
1
10
72.6881030883688
20
-0.501708808834223
30
0
41
1
10
72.7511915218768
20
-0.388999516356392
30
0
41
1
10
72.8778477407305
20
-0.142865438151517
30
0
41
1
10
72.9395500179678
20
-0.0130798667312888
30
0
41
1
10
72.9995811975227
20
0.122812404493658
30
0
0
SPLINE
5
CC
100
AcDbEntity
8
1
62
256
6
ByLayer
370
18
48
1
60
0
100
AcDbSpline
70
4
71
3
72
18
73
14
40
0
40
0
40
0
40
0
40
0.25
40
0.25
40
0.499999999999999
40
0.499999999999999
40
0.624999999999999
40
0.624999999999999
40
0.75
40
0.75
40
0.875
40
0.875
40
1
40
1
40
1
40
1
41
1
10
6.22310188243821
20
1.69684279423581
30
0
41
1
10
6.19106667171295
20
1.74418157615912
30
0
41
1
10
6.15825700844351
20
1.79116549334876
30
0
41
1
10
6.09008188992431
20
1.8839511241855
30
0
41
1
10
6.05477381142208
20
1.92977977234901
30
0
41
1
10
5.99809281415159
20
1.9967902511614
30
0
41
1
10
5.97856764103233
20
2.01883283880943
30
0
41
1
10
5.93750967783325
20
2.06197999722997
30
0
41
1
10
5.91579658446142
20
2.08326805974215
30
0
41
1
10
5.87009659375266
20
2.12308250887011
30
0
41
1
10
5.84578164674286
20
2.14187237551553
30
0
41
1
10
5.79512415607169
20
2.17340114720406
30
0
41
1
10
5.7684086113052
20
2.18623641501122
30
0
41
1
10
5.74175728536608
20
2.19401131825183
30
0
0
SPLINE
5
CD
100
AcDbEntity
8
1
62
256
6
ByLayer
370
18
48
1
60
0
100
AcDbSpline
70
4
71
3
72
14
73
10
40
0
40
0
40
0
40
0
40
0.416927611662244
40
0.416927611662244
40
0.625391417493365
40
0.625391417493365
40
0.833855223324487
40
0.833855223324487
40
1
40
1
40
1
40
1
41
1
10
6.11478190414988
20
-4.77665682456959
30
0
41
1
10
6.79517232179066
20
-4.85889225230645
30
0
41
1
10
7.47483482915868
20
-4.91007995791057
30
0
41
1
10
8.49428869569277
20
-4.93880065229601
30
0
41
1
10
8.83457659178288
20
-4.94037990956875
30
0
41
1
10
9.51413821956888
20
-4.92756876603571
30
0
41
1
10
9.85338359673437
20
-4.91318988749967
30
0
41
1
10
10.4626167184233
20
-4.8731829528775
30
0
41
1
10
10.7326986251212
20
-4.85043477679304
30
0
41
1
10
11.0028066911814
20
-4.82274517610529
30
0
0
SPLINE
5
CE
100
AcDbEntity
8
1
62
256
6
ByLayer
370
18
48
1
60
0
100
AcDbSpline
70
4
71
3
72
48
73
44
40
0
40
0
40
0
40
0
40
0.0502660276698417
40
0.0502660276698417
40
0.118104168550567
40
0.118104168550567
40
0.185942309431292
40
0.185942309431292
40
0.219861379871655
40
0.219861379871655
40
0.253780450312018
40
0.253780450312018
40
0.321618591192745
40
0.321618591192745
40
0.355537661633109
40
0.355537661633109
40
0.389456732073472
40
0.389456732073472
40
0.457294872954198
40
0.457294872954198
40
0.491213943394561
40
0.491213943394561
40
0.525133013834924
40
0.525133013834924
40
0.59297115471565
40
0.59297115471565
40
0.626890225156013
40
0.626890225156013
40
0.660809295596375
40
0.660809295596375
40
0.728647436477101
40
0.728647436477101
40
0.762566506917464
40
0.762566506917464
40
0.796485577357826
40
0.796485577357826
40
0.864323718238551
40
0.864323718238551
40
0.932161859119276
40
0.932161859119276
40
0.966080929559638
40
0.966080929559638
40
1
40
1
40
1
40
1
41
1
10
41.2252759806556
20
4.99628842129502
30
0
41
1
10
41.7274439342356
20
4.99719473411307
30
0
41
1
10
42.2286699524585
20
4.98044465254966
30
0
41
1
10
43.4061989476096
20
4.90009967835024
30
0
41
1
10
44.0828157855051
20
4.82211302017075
30
0
41
1
10
45.4397312125448
20
4.60450659550511
30
0
41
1
10
46.1157799492606
20
4.4655385677583
30
0
41
1
10
47.1300689794817
20
4.21557897892416
30
0
41
1
10
47.4681995033469
20
4.12534821360038
30
0
41
1
10
48.1450723361402
20
3.93162584305128
30
0
41
1
10
48.4841357240706
20
3.82805953593402
30
0
41
1
10
49.5012321210764
20
3.4993890888816
30
0
41
1
10
50.1769672466903
20
3.25674602339652
30
0
41
1
10
51.190982953299
20
2.86369210833439
30
0
41
1
10
51.529064773415
20
2.72784650656982
30
0
41
1
10
52.2059119601657
20
2.44737012485342
30
0
41
1
10
52.5450745245369
20
2.30258647173869
30
0
41
1
10
53.5615121662446
20
1.8581400232959
30
0
41
1
10
54.2370001398547
20
1.54864829424594
30
0
41
1
10
55.2508549928897
20
1.07219267178405
30
0
41
1
10
55.5889095077703
20
0.911339317407794
30
0
41
1
10
56.265710629149
20
0.586525240385697
30
0
41
1
10
56.6048796565539
20
0.422424058953226
30
0
41
1
10
57.620704386381
20
-0.0702811837127229
30
0
41
1
10
58.2959977815044
20
-0.399540855986828
30
0
41
1
10
59.3096207033463
20
-0.887252248467121
30
0
41
1
10
59.6476118322757
20
-1.04878703390685
30
0
41
1
10
60.3244360282133
20
-1.3685337183403
30
0
41
1
10
60.6635817074654
20
-1.52690764660355
30
0
41
1
10
61.6787568666072
20
-1.99310039850116
30
0
41
1
10
62.3537588866776
20
-2.29230375365046
30
0
41
1
10
63.3671814996848
20
-2.71709903437781
30
0
41
1
10
63.7051428691496
20
-2.85469610917912
30
0
41
1
10
64.3819699744474
20
-3.12080139946917
30
0
41
1
10
64.7209898843694
20
-3.24933425952958
30
0
41
1
10
65.7358759120814
20
-3.61793428254623
30
0
41
1
10
66.4110314832416
20
-3.84159590673312
30
0
41
1
10
67.7632374775013
20
-4.2381385819001
30
0
41
1
10
68.4412407989418
20
-4.41094908998798
30
0
41
1
10
69.4549847544949
20
-4.62561672668832
30
0
41
1
10
69.7926911500037
20
-4.68985365545083
30
0
41
1
10
70.4682265751643
20
-4.80325658779668
30
0
41
1
10
70.805866813687
20
-4.85251850612258
30
0
41
1
10
71.1442320108752
20
-4.89381479216578
30
0
0
SPLINE
5
CF
100
AcDbEntity
8
1
62
256
6
ByLayer
370
18
48
1
60
0
100
AcDbSpline
70
4
71
3
72
8
73
4
40
0
40
0
40
0
40
0
40
1
40
1
40
1
40
1
41
1
10
41.8832506200509
20
-4.87087719568325
30
0
41
1
10
41.1512717068894
20
-4.8729250224618
30
0
41
1
10
40.4191438231538
20
-4.83836135043751
30
0
41
1
10
39.6838785854678
20
-4.76743287782179
30
0
0
SPLINE
5
D0
100
AcDbEntity
8
1
62
256
6
ByLayer
370
13
48
1
60
0
100
AcDbSpline
70
4
71
3
72
36
73
32
40
0
40
0
40
0
40
0
40
0.0375113339984592
40
0.0375113339984592
40
0.0765037447734505
40
0.0765037447734505
40
0.115496155548442
40
0.115496155548442
40
0.154488566323433
40
0.154488566323433
40
0.193480977098424
40
0.193480977098424
40
0.34945062019839
40
0.34945062019839
40
0.427435441748372
40
0.427435441748372
40
0.466427852523363
40
0.466427852523363
40
0.505420263298354
40
0.505420263298354
40
0.661389906398317
40
0.661389906398317
40
0.700382317173308
40
0.700382317173308
40
0.739374727948298
40
0.739374727948298
40
0.817359549498278
40
0.817359549498278
40
0.973329192598241
40
0.973329192598241
40
1
40
1
40
1
40
1
41
1
10
39.6838775898674
20
-4.76743278177966
30
0
41
1
10
39.3582171242344
20
-4.73601743825975
30
0
41
1
10
39.0319411902679
20
-4.69746825715617
30
0
41
1
10
38.3647220209476
20
-4.60434221360788
30
0
41
1
10
38.0237804204383
20
-4.54919624488795
30
0
41
1
10
37.3429265188286
20
-4.42447112857653
30
0
41
1
10
37.002555069075
20
-4.35483766869723
30
0
41
1
10
36.321446361194
20
-4.20167878268285
30
0
41
1
10
35.9806707540818
20
-4.1180915646801
30
0
41
1
10
35.301843955422
20
-3.93864773379852
30
0
41
1
10
34.9633205963926
20
-3.84271384663555
30
0
41
1
10
33.2739283753194
20
-3.3341965069333
30
0
41
1
10
31.932238992967
20
-2.83495863624225
30
0
41
1
10
29.9073905262074
20
-1.99453831404196
30
0
41
1
10
29.2302953437656
20
-1.69924407474963
30
0
41
1
10
28.208174083191
20
-1.23990093370114
30
0
41
1
10
27.867889039349
20
-1.08477461678282
30
0
41
1
10
27.1896317562103
20
-0.772735514991126
30
0
41
1
10
26.8513201620696
20
-0.615696857876799
30
0
41
1
10
25.16258817184
20
0.171860851045324
30
0
41
1
10
23.8202745471957
20
0.80849616858427
30
0
41
1
10
22.1305148169566
20
1.56315127613934
30
0
41
1
10
21.7919653230572
20
1.71201847875616
30
0
41
1
10
21.113098854447
20
2.00438401023516
30
0
41
1
10
20.7722122061028
20
2.14813678152669
30
0
41
1
10
19.7501952183407
20
2.56800525708835
30
0
41
1
10
19.0730190054709
20
2.83083840811756
30
0
41
1
10
17.0473935564129
20
3.55819256783468
30
0
41
1
10
15.704540753615
20
3.96035619666094
30
0
41
1
10
14.120035339134
20
4.30547641341059
30
0
41
1
10
13.8883486608147
20
4.35273639345067
30
0
41
1
10
13.6562566718785
20
4.3967207815291
30
0
0
SPLINE
5
D1
100
AcDbEntity
8
1
62
256
6
ByLayer
370
18
48
1
60
0
100
AcDbSpline
70
4
71
3
72
38
73
34
40
0
40
0
40
0
40
0
40
0.115767525276415
40
0.115767525276415
40
0.173651287914623
40
0.173651287914623
40
0.23153505055283
40
0.23153505055283
40
0.289418813191038
40
0.289418813191038
40
0.347302575829246
40
0.347302575829246
40
0.405186338467453
40
0.405186338467453
40
0.463070101105661
40
0.463070101105661
40
0.520953863743869
40
0.520953863743869
40
0.578837626382076
40
0.578837626382076
40
0.636721389020284
40
0.636721389020284
40
0.694605151658491
40
0.694605151658491
40
0.810372676934907
40
0.810372676934907
40
0.868256439573114
40
0.868256439573114
40
0.926140202211322
40
0.926140202211322
40
0.984023964849529
40
0.984023964849529
40
1
40
1
40
1
40
1
41
1
10
70.6837824511656
20
0.51083473839364
30
0
41
1
10
70.0986927889247
20
0.787470669599628
30
0
41
1
10
69.5147731509477
20
1.06200513871556
30
0
41
1
10
68.6370037096622
20
1.46283448244546
30
0
41
1
10
68.344329119567
20
1.59507823956639
30
0
41
1
10
67.7582804984503
20
1.85569188511795
30
0
41
1
10
67.4646487220414
20
1.98427604342601
30
0
41
1
10
66.8784898333187
20
2.23521281008212
30
0
41
1
10
66.58567280212
20
2.35788097160202
30
0
41
1
10
66.0005124290892
20
2.59777882402511
30
0
41
1
10
65.7080340976393
20
2.71472665728632
30
0
41
1
10
65.1232261925738
20
2.94151074226445
30
0
41
1
10
64.8306064733036
20
3.0507641326254
30
0
41
1
10
64.2448421958748
20
3.26256557252452
30
0
41
1
10
63.9519433775358
20
3.3652704579614
30
0
41
1
10
63.3652889445211
20
3.56237023428417
30
0
41
1
10
63.0717930576866
20
3.65661961829665
30
0
41
1
10
62.485920771201
20
3.8357944565625
30
0
41
1
10
62.1933026720978
20
3.9208314752957
30
0
41
1
10
61.6082890281876
20
4.08058788455497
30
0
41
1
10
61.3160051036398
20
4.1552214105038
30
0
41
1
10
60.7308553306989
20
4.29377761386721
30
0
41
1
10
60.4379428748726
20
4.35808849571774
30
0
41
1
10
59.5589893730611
20
4.53734365467253
30
0
41
1
10
58.9714017899208
20
4.63718130595592
30
0
41
1
10
58.0930829284778
20
4.75125377479643
30
0
41
1
10
57.8005663385494
20
4.78320490221557
30
0
41
1
10
57.2156571580443
20
4.83391179978909
30
0
41
1
10
56.9231234628555
20
4.85303541534105
30
0
41
1
10
56.3376312499141
20
4.88169822348235
30
0
41
1
10
56.0447340567965
20
4.8907715510002
30
0
41
1
10
55.6704228500743
20
4.89435429575019
30
0
41
1
10
55.5894353981455
20
4.89464049665528
30
0
41
1
10
55.5084436771063
20
4.89445943300913
30
0
0
SPLINE
5
D2
100
AcDbEntity
8
1
62
256
6
ByLayer
370
18
48
1
60
0
100
AcDbSpline
70
4
71
3
72
46
73
42
40
0
40
0
40
0
40
0
40
0.0222287985347332
40
0.0222287985347332
40
0.0736904407171161
40
0.0736904407171161
40
0.125152082899499
40
0.125152082899499
40
0.176613725081881
40
0.176613725081881
40
0.228075367264264
40
0.228075367264264
40
0.279537009446646
40
0.279537009446646
40
0.330998651629028
40
0.330998651629028
40
0.382460293811411
40
0.382460293811411
40
0.433921935993793
40
0.433921935993793
40
0.485383578176176
40
0.485383578176176
40
0.536845220358558
40
0.536845220358558
40
0.588306862540941
40
0.588306862540941
40
0.639768504723323
40
0.639768504723323
40
0.691230146905706
40
0.691230146905706
40
0.742691789088088
40
0.742691789088088
40
0.79415343127047
40
0.79415343127047
40
0.845615073452853
40
0.845615073452853
40
0.897076715635235
40
0.897076715635235
40
0.948538357817618
40
0.948538357817618
40
1
40
1
40
1
40
1
41
1
10
31.4975840854666
20
-3.31478603891125
30
0
41
1
10
31.3705538315724
20
-3.35809475078452
30
0
41
1
10
31.2435538742579
20
-3.40062344763129
30
0
41
1
10
30.8228572066823
20
-3.53886402418729
30
0
41
1
10
30.5292815622213
20
-3.63165087586384
30
0
41
1
10
29.9424491217127
20
-3.80827128794957
30
0
41
1
10
29.6490784061698
20
-3.89191001388463
30
0
41
1
10
29.0623521588155
20
-4.04822074304084
30
0
41
1
10
28.7691368254891
20
-4.12187395456243
30
0
41
1
10
28.1818082048592
20
-4.25975176439346
30
0
41
1
10
27.8876749608577
20
-4.32403354956605
30
0
41
1
10
27.2990550235293
20
-4.44129309840477
30
0
41
1
10
27.0052595708239
20
-4.49301270310639
30
0
41
1
10
26.4180036205397
20
-4.58783441814938
30
0
41
1
10
26.1245516690529
20
-4.63032313538977
30
0
41
1
10
25.5376752395437
20
-4.70379620392467
30
0
41
1
10
25.2442326867517
20
-4.73382955148841
30
0
41
1
10
24.6573885354397
20
-4.78260660924548
30
0
41
1
10
24.3638066272215
20
-4.80207707907638
30
0
41
1
10
23.7756140806506
20
-4.82953682306066
30
0
41
1
10
23.4810376995474
20
-4.83755571415969
30
0
41
1
10
22.8930597159493
20
-4.8395667374034
30
0
41
1
10
22.5995090089708
20
-4.83491932217163
30
0
41
1
10
22.0124322960461
20
-4.815261465416
30
0
41
1
10
21.7190561964193
20
-4.7999573118893
30
0
41
1
10
21.1320832015339
20
-4.75649944682814
30
0
41
1
10
20.8387017893226
20
-4.72809786662739
30
0
41
1
10
20.2514049476797
20
-4.66162264901689
30
0
41
1
10
19.957277890408
20
-4.6231530729772
30
0
41
1
10
19.3683203813459
20
-4.53412830184399
30
0
41
1
10
19.0743388133893
20
-4.48383443657738
30
0
41
1
10
18.4872838019302
20
-4.37332226965003
30
0
41
1
10
18.1940569836495
20
-4.31312376340301
30
0
41
1
10
17.6080778550611
20
-4.18205611991471
30
0
41
1
10
17.315134704422
20
-4.11130143773656
30
0
41
1
10
16.7294869388179
20
-3.96013156822761
30
0
41
1
10
16.4368138153577
20
-3.87979200559965
30
0
41
1
10
15.8506744479067
20
-3.71043151843944
30
0
41
1
10
15.557261448332
20
-3.62119260377514
30
0
41
1
10
14.9701557234174
20
-3.43305337485327
30
0
41
1
10
14.6761293873069
20
-3.33482730781662
30
0
41
1
10
14.3814689880449
20
-3.23285612306478
30
0
0
SPLINE
5
D3
100
AcDbEntity
8
1
62
256
6
ByLayer
370
13
48
1
60
0
100
AcDbSpline
70
4
71
3
72
89
73
85
40
0
40
0
40
0
40
0
40
0.0042918022636943
40
0.0123665361573018
40
0.0204412700509096
40
0.0365907378381248
40
0.0446654717317326
40
0.0527402056253401
40
0.0688896734125554
40
0.0769644073061632
40
0.085039141199771
40
0.101188608986986
40
0.109263342880595
40
0.117338076774202
40
0.133487544561417
40
0.141562278455026
40
0.149637012348632
40
0.165786480135848
40
0.173861214029456
40
0.181935947923064
40
0.198085415710278
40
0.206160149603886
40
0.214234883497493
40
0.230384351284709
40
0.238459085178316
40
0.246533819071923
40
0.26268328685914
40
0.270758020752747
40
0.278832754646354
40
0.29498222243357
40
0.311131690220786
40
0.327281158008001
40
0.359580093582431
40
0.367654827476039
40
0.375729561369646
40
0.391879029156862
40
0.39995376305047
40
0.408028496944078
40
0.424177964731293
40
0.432252698624901
40
0.440327432518506
40
0.456476900305724
40
0.464551634199331
40
0.472626368092939
40
0.488775835880154
40
0.504925303667368
40
0.521074771454585
40
0.553373707029016
40
0.561448440922623
40
0.56952317481623
40
0.585672642603446
40
0.593747376497054
40
0.601822110390661
40
0.617971578177877
40
0.626046312071485
40
0.634121045965092
40
0.650270513752308
40
0.658345247645915
40
0.666419981539524
40
0.682569449326738
40
0.698718917113954
40
0.714868384901169
40
0.747167320475599
40
0.755242054369207
40
0.763316788262815
40
0.77946625605003
40
0.787540989943638
40
0.795615723837246
40
0.811765191624461
40
0.819839925518069
40
0.827914659411676
40
0.844064127198891
40
0.852138861092499
40
0.860213594986107
40
0.876363062773322
40
0.892512530560537
40
0.908661998347753
40
0.940960933922184
40
0.949035667815791
40
0.957110401709399
40
0.973259869496614
40
0.981334603390222
40
0.989409337283829
40
1
40
1
40
1
40
1
41
1
10
60.8576935623068
20
-2.08240004312944
30
0
41
1
10
60.8275877883476
20
-2.0855941411572
30
0
41
1
10
60.7408389835725
20
-2.09472286554015
30
0
41
1
10
60.5974426042907
20
-2.10945487119341
30
0
41
1
10
60.3708971338039
20
-2.13192903735515
30
0
41
1
10
60.1443338938161
20
-2.15327649390693
30
0
41
1
10
59.9177550335723
20
-2.17348902871729
30
0
41
1
10
59.6912092205338
20
-2.1928661129169
30
0
41
1
10
59.4646456950299
20
-2.21108884720169
30
0
41
1
10
59.2380667711099
20
-2.22815034748672
30
0
41
1
10
59.011521306257
20
-2.24434674440289
30
0
41
1
10
58.7849586995405
20
-2.25936402102028
30
0
41
1
10
58.5583807380507
20
-2.27319660873508
30
0
41
1
10
58.3318355495663
20
-2.28613791830369
30
0
41
1
10
58.1052723531297
20
-2.29788216902128
30
0
41
1
10
57.8786933144731
20
-2.30842953086758
30
0
41
1
10
57.652147239906
20
-2.31806596194275
30
0
41
1
10
57.4255833548281
20
-2.32649396260757
30
0
41
1
10
57.1990040557853
20
-2.33371433734649
30
0
41
1
10
56.9724582124715
20
-2.34000614417172
30
0
41
1
10
56.7458952109286
20
-2.34508142776215
30
0
41
1
10
56.5193169421605
20
-2.34894317915394
30
0
41
1
10
56.2927716416774
20
-2.35186194766376
30
0
41
1
10
56.0662085607142
20
-2.35355978107518
30
0
41
1
10
55.8396297630074
20
-2.35404125939809
30
0
41
1
10
55.6130839439401
20
-2.35356925939689
30
0
41
1
10
55.3865203332299
20
-2.35187841620166
30
0
41
1
10
55.1599413230629
20
-2.34897792554907
30
0
41
1
10
54.933395902148
20
-2.34511958012692
30
0
41
1
10
54.6502156312387
20
-2.33871404133856
30
0
41
1
10
54.3103760846634
20
-2.32859326394905
30
0
41
1
10
53.8573216392914
20
-2.31149739171064
30
0
41
1
10
53.4608035671303
20
-2.29247771938697
30
0
41
1
10
53.1208799870447
20
-2.27328856301494
30
0
41
1
10
52.8943338893811
20
-2.2594208128188
30
0
41
1
10
52.6677706764212
20
-2.24439481440456
30
0
41
1
10
52.4411922660129
20
-2.22822965513282
30
0
41
1
10
52.2146468274067
20
-2.21112528436532
30
0
41
1
10
51.9880836664832
20
-2.19289271018721
30
0
41
1
10
51.7615048876581
20
-2.17355254029562
30
0
41
1
10
51.534959091846
20
-2.15328895930429
30
0
41
1
10
51.3083954946733
20
-2.13193094262266
30
0
41
1
10
51.0818164733522
20
-2.10950071531059
30
0
41
1
10
50.8552710648454
20
-2.08616637645963
30
0
41
1
10
50.5720908208815
20
-2.05558780173251
30
0
41
1
10
50.2322511088259
20
-2.01678655538501
30
0
41
1
10
49.7791962223266
20
-1.96184692376784
30
0
41
1
10
49.3826778063403
20
-1.91043267803178
30
0
41
1
10
49.0427543471047
20
-1.86405009470064
30
0
41
1
10
48.8162083723952
20
-1.83215532119274
30
0
41
1
10
48.5896453166565
20
-1.79934378551712
30
0
41
1
10
48.3630670566958
20
-1.76564481126553
30
0
41
1
10
48.136521789541
20
-1.73115531769449
30
0
41
1
10
47.9099587825195
20
-1.69580325940305
30
0
41
1
10
47.6833800698871
20
-1.65961929409016
30
0
41
1
10
47.4568343044898
20
-1.62268195238934
30
0
41
1
10
47.2302707073542
20
-1.58494035962633
30
0
41
1
10
47.0036916832218
20
-1.54642717523725
30
0
41
1
10
46.7771462519709
20
-1.50720172072363
30
0
41
1
10
46.4939659711709
20
-1.45714707736858
30
0
41
1
10
46.1541264191168
20
-1.39562609920063
30
0
41
1
10
45.7010719653194
20
-1.31128089364782
30
0
41
1
10
45.3045538820649
20
-1.23536303129194
30
0
41
1
10
44.964630275484
20
-1.16889663913062
30
0
41
1
10
44.7380841454427
20
-1.12386199496601
30
0
41
1
10
44.5115208807679
20
-1.07829062346033
30
0
41
1
10
44.2849424225698
20
-1.03221899301502
30
0
41
1
10
44.0583969692822
20
-0.985626763716169
30
0
41
1
10
43.8318338376547
20
-0.938570548995926
30
0
41
1
10
43.6052551047794
20
-0.891087673659712
30
0
41
1
10
43.3787093263251
20
-0.843138335047286
30
0
41
1
10
43.1521457107524
20
-0.794800338140561
30
0
41
1
10
42.9255666466405
20
-0.746111930207377
30
0
41
1
10
42.6990211998622
20
-0.697013897675646
30
0
41
1
10
42.415840913373
20
-0.635166195995197
30
0
41
1
10
42.076001154675
20
-0.560373074999404
30
0
41
1
10
41.6229462002406
20
-0.459577965120985
30
0
41
1
10
41.2264277234725
20
-0.370818284561182
30
0
41
1
10
40.8865042057505
20
-0.294473427729144
30
0
41
1
10
40.659958179529
20
-0.243212379650231
30
0
41
1
10
40.433395057048
20
-0.191875438259103
30
0
41
1
10
40.206816738693
20
-0.140500898010714
30
0
41
1
10
40.0192610031584
20
-0.0978261631188388
30
0
41
1
10
39.8883337125785
20
-0.0680401082287858
30
0
41
1
10
39.81404380511
20
-0.0511439593041132
30
0
0
SPLINE
5
D4
100
AcDbEntity
8
1
62
256
6
ByLayer
370
18
48
1
60
0
100
AcDbSpline
70
4
71
3
72
28
73
24
40
0
40
0
40
0
40
0
40
0.250000000000001
40
0.250000000000001
40
0.375000000000002
40
0.375000000000002
40
0.500000000000002
40
0.500000000000002
40
0.562500000000002
40
0.562500000000002
40
0.625000000000002
40
0.625000000000002
40
0.750000000000001
40
0.750000000000001
40
0.812500000000001
40
0.812500000000001
40
0.875
40
0.875
40
0.937499999999999
40
0.937499999999999
40
0.96875
40
0.96875
40
1
40
1
40
1
40
1
41
1
10
14.3814689880449
20
-3.23285612306478
30
0
41
1
10
13.629985237518
20
-2.9878417825218
30
0
41
1
10
12.8871705621492
20
-2.71344185304611
30
0
41
1
10
11.7874829567307
20
-2.25191759765608
30
0
41
1
10
11.4235301803517
20
-2.08889571798974
30
0
41
1
10
10.7012854680588
20
-1.7426758297978
30
0
41
1
10
10.3428908863191
20
-1.55994490546377
30
0
41
1
10
9.81040732155063
20
-1.26693271435292
30
0
41
1
10
9.63377002813488
20
-1.16608301893939
30
0
41
1
10
9.28244136228992
20
-0.95700036128116
30
0
41
1
10
9.10768288103375
20
-0.848757042028893
30
0
41
1
10
8.59031264170054
20
-0.515488328484878
30
0
41
1
10
8.25335468392336
20
-0.280994950977544
30
0
41
1
10
7.76478512489584
20
0.0970482008426075
30
0
41
1
10
7.60427033682509
20
0.22788040465565
30
0
41
1
10
7.29402851003661
20
0.496712019820734
30
0
41
1
10
7.14396336049558
20
0.634914537153151
30
0
41
1
10
6.85599205748463
20
0.920345908689143
30
0
41
1
10
6.71806126811435
20
1.06755707554655
30
0
41
1
10
6.52264526865269
20
1.29682430037576
30
0
41
1
10
6.45943063467277
20
1.37466276420577
30
0
41
1
10
6.33744456150726
20
1.53359652861516
30
0
41
1
10
6.27844159743898
20
1.61506669097932
30
0
41
1
10
6.22310188243813
20
1.69684279423609
30
0
0
SPLINE
5
D5
100
AcDbEntity
8
1
62
256
6
ByLayer
370
18
48
1
60
0
100
AcDbSpline
70
4
71
1
72
4
73
2
40
0
40
0
40
1
40
1
41
1
10
72.2694689429784
20
-1.05337996891356
30
0
41
1
10
72.2706028510368
20
-1.04955195946189
30
0
0
SPLINE
5
D6
100
AcDbEntity
8
1
62
256
6
ByLayer
370
18
48
1
60
0
100
AcDbSpline
70
4
71
3
72
32
73
28
40
0
40
0
40
0
40
0
40
0.125
40
0.125
40
0.1875
40
0.1875
40
0.250000000000001
40
0.250000000000001
40
0.375000000000001
40
0.375000000000001
40
0.406250000000001
40
0.406250000000001
40
0.437500000000001
40
0.437500000000001
40
0.500000000000001
40
0.562500000000001
40
0.562500000000001
40
0.625000000000001
40
0.625000000000001
40
0.750000000000001
40
0.750000000000001
40
0.812500000000001
40
0.812500000000001
40
0.875
40
0.9375
40
0.9375
40
1
40
1
40
1
40
1
41
1
10
5.74175728536608
20
2.19401131825183
30
0
41
1
10
5.74178683039071
20
1.87772068499476
30
0
41
1
10
5.74175562826008
20
1.55017443765277
30
0
41
1
10
5.74164024654476
20
1.04254333649865
30
0
41
1
10
5.74159019240423
20
0.870591154793232
30
0
41
1
10
5.7414688760291
20
0.521013021085508
30
0
41
1
10
5.74139854442581
20
0.346086487454585
30
0
41
1
10
5.74116348072985
20
-0.177198592513292
30
0
41
1
10
5.74097495861338
20
-0.524918713739282
30
0
41
1
10
5.74070428886196
20
-0.958110863561075
30
0
41
1
10
5.7406482752923
20
-1.04478067918168
30
0
41
1
10
5.7405340015608
20
-1.21590852521598
30
0
41
1
10
5.74047558918153
20
-1.30061898869653
30
0
41
1
10
5.74029656204843
20
-1.55223501525342
30
0
41
1
10
5.74004781831715
20
-1.88102929057183
30
0
41
1
10
5.73977776252983
20
-2.19656699869492
30
0
41
1
10
5.73949534725128
20
-2.5053154669086
30
0
41
1
10
5.7393476556968
20
-2.65644086683318
30
0
41
1
10
5.73889331588344
20
-3.0887679309345
30
0
41
1
10
5.73857249623546
20
-3.35295341771683
30
0
41
1
10
5.73804730077811
20
-3.71308498064423
30
0
41
1
10
5.73786374643691
20
-3.82756653973391
30
0
41
1
10
5.73748607559034
20
-4.03925016634758
30
0
41
1
10
5.73709668731252
20
-4.23469393799667
30
0
41
1
10
5.73667760015681
20
-4.39834416471462
30
0
41
1
10
5.73624010877023
20
-4.54589654979645
30
0
41
1
10
5.73601127527149
20
-4.61182025198644
30
0
41
1
10
5.73577356723004
20
-4.66876593396043
30
0
0
SPLINE
5
D7
100
AcDbEntity
8
1
62
256
6
ByLayer
370
18
48
1
60
0
100
AcDbSpline
70
4
71
3
72
34
73
30
40
0
40
0
40
0
40
0
40
0.015624999999999
40
0.015624999999999
40
0.0312499999999981
40
0.0312499999999981
40
0.0624999999999979
40
0.0624999999999979
40
0.124999999999997
40
0.124999999999997
40
0.156249999999997
40
0.156249999999997
40
0.187499999999997
40
0.187499999999997
40
0.249999999999996
40
0.249999999999996
40
0.312499999999995
40
0.312499999999995
40
0.374999999999995
40
0.374999999999995
40
0.499999999999993
40
0.499999999999993
40
0.624999999999992
40
0.624999999999992
40
0.687499999999993
40
0.687499999999993
40
0.749999999999994
40
0.749999999999994
40
1
40
1
40
1
40
1
41
1
10
5.70664967647468
20
3.96063249400453
30
0
41
1
10
5.72045770749398
20
3.98065277481081
30
0
41
1
10
5.73642709877649
20
4.00010204201772
30
0
41
1
10
5.77140040795058
20
4.03694858811471
30
0
41
1
10
5.7904762172216
20
4.05447528552838
30
0
41
1
10
5.85186264151969
20
4.10475441280508
30
0
41
1
10
5.8984638015927
20
4.13531245436789
30
0
41
1
10
6.05046539263697
20
4.21942686870889
30
0
41
1
10
6.16417803160229
20
4.26400755651966
30
0
41
1
10
6.34573076426562
20
4.32157510595235
30
0
41
1
10
6.40839509025579
20
4.33918249717559
30
0
41
1
10
6.53569551541182
20
4.37147793921849
30
0
41
1
10
6.60024375864563
20
4.38615898537753
30
0
41
1
10
6.79610739248227
20
4.426751791784
30
0
41
1
10
6.92961596234716
20
4.44926312257832
30
0
41
1
10
7.20107136860224
20
4.48809060965363
30
0
41
1
10
7.33903658627713
20
4.50437081117454
30
0
41
1
10
7.61871770244315
20
4.53220680101103
30
0
41
1
10
7.7599129322079
20
4.543685932838
30
0
41
1
10
8.18298862682829
20
4.57209215039629
30
0
41
1
10
8.46608046070435
20
4.58329203505716
30
0
41
1
10
9.03403184911033
20
4.59407269198277
30
0
41
1
10
9.31889814665337
20
4.59358481197049
30
0
41
1
10
9.7475060940009
20
4.58411694458715
30
0
41
1
10
9.89099173938891
20
4.57946074007685
30
0
41
1
10
10.1757195253435
20
4.56707622216405
30
0
41
1
10
10.3170882381024
20
4.55935405373884
30
0
41
1
10
11.0190040043834
20
4.51250952951199
30
0
41
1
10
11.5648452600579
20
4.44984678243634
30
0
41
1
10
12.0944274604672
20
4.34481253586637
30
0
0
SPLINE
5
D8
100
AcDbEntity
8
1
62
256
6
ByLayer
370
18
48
1
60
0
100
AcDbSpline
70
4
71
3
72
20
73
16
40
0
40
0
40
0
40
0
40
0.124999999999999
40
0.124999999999999
40
0.249999999999999
40
0.249999999999999
40
0.374999999999998
40
0.374999999999998
40
0.499999999999998
40
0.499999999999998
40
0.750000000000001
40
0.750000000000001
40
0.875
40
0.875
40
1
40
1
40
1
40
1
41
1
10
72.2701275312381
20
-1.04907471372934
30
0
41
1
10
72.2124679666501
20
-1.06598235842884
30
0
41
1
10
72.156692545203
20
-1.06988959184983
30
0
41
1
10
72.0483719303528
20
-1.05541578760139
30
0
41
1
10
71.9956823212176
20
-1.03691290953782
30
0
41
1
10
71.8939391864266
20
-0.979507658158042
30
0
41
1
10
71.8459409835314
20
-0.941292837497343
30
0
41
1
10
71.7548317327656
20
-0.848684402485759
30
0
41
1
10
71.7115496736582
20
-0.79398682469639
30
0
41
1
10
71.5896221041939
20
-0.60959321334667
30
0
41
1
10
71.5201842823686
20
-0.462696171521998
30
0
41
1
10
71.4299902172571
20
-0.214102915360712
30
0
41
1
10
71.4021937195038
20
-0.126030185521586
30
0
41
1
10
71.3516582995093
20
0.057362957077089
30
0
41
1
10
71.3290261963435
20
0.152161970074701
30
0
41
1
10
71.3087921735796
20
0.249783826201281
30
0
0
SPLINE
5
D9
100
AcDbEntity
8
1
62
256
6
ByLayer
370
18
48
1
60
0
100
AcDbSpline
70
4
71
3
72
26
73
22
40
0
40
0
40
0
40
0
40
0.106364410521409
40
0.106364410521409
40
0.195727969469268
40
0.195727969469268
40
0.285091528417127
40
0.285091528417127
40
0.374455087364987
40
0.374455087364987
40
0.463818646312846
40
0.463818646312846
40
0.642545764208564
40
0.642545764208564
40
0.731909323156423
40
0.731909323156423
40
0.821272882104282
40
0.821272882104282
40
0.910636441052141
40
0.910636441052141
40
1
40
1
40
1
40
1
41
1
10
70.9437263999595
20
0.370645596646881
30
0
41
1
10
70.9750596817738
20
0.396392308903245
30
0
41
1
10
71.0085340809863
20
0.427398011862749
30
0
41
1
10
71.0740582050036
20
0.494314129357548
30
0
41
1
10
71.1053241571541
20
0.528536466811858
30
0
41
1
10
71.1692965437104
20
0.602930291233207
30
0
41
1
10
71.2021627350755
20
0.643261311326569
30
0
41
1
10
71.2695259707038
20
0.730119972300542
30
0
41
1
10
71.3040241475009
20
0.77664710455096
30
0
41
1
10
71.374532598454
20
0.876046920057775
30
0
41
1
10
71.4104243916247
20
0.928779014075872
30
0
41
1
10
71.517571424946
20
1.09289465661004
30
0
41
1
10
71.5891969745554
20
1.21115469222752
30
0
41
1
10
71.6943030850327
20
1.40276859923088
30
0
41
1
10
71.7289243200334
20
1.46908727557124
30
0
41
1
10
71.7947851312167
20
1.60382018076459
30
0
41
1
10
71.8262559998059
20
1.67259579973839
30
0
41
1
10
71.8845432860302
20
1.81352788529671
30
0
41
1
10
71.9114186839039
20
1.88566348053109
30
0
41
1
10
71.9568965981716
20
2.03460199836755
30
0
41
1
10
71.9756845379878
20
2.11203339945502
30
0
41
1
10
71.9858537058323
20
2.19093276786742
30
0
0
SPLINE
5
DA
100
AcDbEntity
8
1
62
256
6
ByLayer
370
13
48
1
60
0
100
AcDbSpline
70
4
71
3
72
32
73
28
40
0
40
0
40
0
40
0
40
0.0415144465412231
40
0.0415144465412231
40
0.0830288930824462
40
0.0830288930824462
40
0.166057786164894
40
0.166057786164894
40
0.332115572329788
40
0.332115572329788
40
0.373630018871011
40
0.373630018871011
40
0.415144465412235
40
0.415144465412235
40
0.49817335849468
40
0.49817335849468
40
0.664231144659571
40
0.664231144659571
40
0.705745591200794
40
0.705745591200794
40
0.747260037742016
40
0.747260037742016
40
0.830288930824462
40
0.830288930824462
40
0.996346716989354
40
0.996346716989354
40
1
40
1
40
1
40
1
41
1
10
71.1161539451859
20
-4.69600868124948
30
0
41
1
10
70.776423363063
20
-4.64673616527719
30
0
41
1
10
70.4368614762241
20
-4.58995540696458
30
0
41
1
10
69.757561468204
20
-4.46179712820174
30
0
41
1
10
69.4174637452695
20
-4.39033334953743
30
0
41
1
10
68.3985982932079
20
-4.15535369431549
30
0
41
1
10
67.7237005427778
20
-3.97193131210213
30
0
41
1
10
65.7048594099161
20
-3.35209702973319
30
0
41
1
10
64.3668402185135
20
-2.84595804431632
30
0
41
1
10
62.6810927595444
20
-2.13592652363891
30
0
41
1
10
62.3432921425832
20
-1.99004914355123
30
0
41
1
10
61.6657812727528
20
-1.69156432146144
30
0
41
1
10
61.3252970159929
20
-1.53861640083724
30
0
41
1
10
60.3070137969734
20
-1.07469489751236
30
0
41
1
10
59.632221063396
20
-0.758671958881223
30
0
41
1
10
57.6130726126144
20
0.194522532122534
30
0
41
1
10
56.2741794345875
20
0.837229955418564
30
0
41
1
10
54.5861259273958
20
1.59922763915495
30
0
41
1
10
54.2478321360684
20
1.74964368743409
30
0
41
1
10
53.5692289343107
20
2.04510723507724
30
0
41
1
10
53.2283721900961
20
2.1902926904194
30
0
41
1
10
52.2105605840959
20
2.61253197511618
30
0
41
1
10
51.5358299501526
20
2.87710422733525
30
0
41
1
10
49.5163392603372
20
3.60914117586114
30
0
41
1
10
48.1760887142342
20
4.01459764596362
30
0
41
1
10
46.7937954062922
20
4.31789850505834
30
0
41
1
10
46.7640338409848
20
4.32437549424853
30
0
41
1
10
46.7342663859351
20
4.33080015293103
30
0
0
SPLINE
5
DB
100
AcDbEntity
8
1
62
256
6
ByLayer
370
18
48
1
60
0
100
AcDbSpline
70
4
71
3
72
10
73
6
40
0
40
0
40
0
40
0
40
0.524029870172799
40
0.524029870172799
40
1
40
1
40
1
40
1
41
1
10
9.42282868317221
20
-4.81252604225361
30
0
41
1
10
9.03259364382492
20
-4.81417331692575
30
0
41
1
10
8.64252031179231
20
-4.80554148894242
30
0
41
1
10
7.89772362059199
20
-4.76969680866745
30
0
41
1
10
7.54300073447615
20
-4.74426156105807
30
0
41
1
10
7.18771625608738
20
-4.71043210379713
30
0
0
SPLINE
5
DC
100
AcDbEntity
8
1
62
256
6
ByLayer
370
13
48
1
60
0
100
AcDbSpline
70
4
71
3
72
8
73
4
40
0
40
0
40
0
40
0
40
1
40
1
40
1
40
1
41
1
10
7.18771725143452
20
-4.71043219857205
30
0
41
1
10
6.86626422297493
20
-4.67982411648134
30
0
41
1
10
6.54435146386931
20
-4.64234436292452
30
0
41
1
10
6.22172738091228
20
-4.5979781547762
30
0
0
SPLINE
5
DD
100
AcDbEntity
8
1
62
256
6
ByLayer
370
18
48
1
60
0
100
AcDbSpline
70
4
71
3
72
10
73
6
40
0
40
0
40
0
40
0
40
0.5
40
0.5
40
1
40
1
40
1
40
1
41
1
10
12.0944274604672
20
4.34481253586634
30
0
41
1
10
13.0771460647721
20
4.1499058563864
30
0
41
1
10
14.0577213005916
20
3.91597976520842
30
0
41
1
10
16.0128122353408
20
3.37144541839859
30
0
41
1
10
16.987341714556
20
3.06084233856842
30
0
41
1
10
17.9583011857516
20
2.70546575120213
30
0
0
SPLINE
5
DE
100
AcDbEntity
8
1
62
256
6
ByLayer
370
18
48
1
60
0
100
AcDbSpline
70
4
71
3
72
18
73
14
40
0
40
0
40
0
40
0
40
0.249999999999999
40
0.249999999999999
40
0.374999999999999
40
0.374999999999999
40
0.499999999999999
40
0.499999999999999
40
0.75
40
0.75
40
0.875
40
0.875
40
1
40
1
40
1
40
1
41
1
10
70.6837824511655
20
0.510834738393612
30
0
41
1
10
70.6320604191635
20
0.259241852862686
30
0
41
1
10
70.5901138857774
20
0.0070770798181456
30
0
41
1
10
70.5418801133217
20
-0.372029243680146
30
0
41
1
10
70.5282604595146
20
-0.498541832236612
30
0
41
1
10
70.5060761093428
20
-0.751862735138729
30
0
41
1
10
70.4974881248467
20
-0.87924590306406
30
0
41
1
10
70.4798460385918
20
-1.25752356820891
30
0
41
1
10
70.4788417169433
20
-1.50270049911799
30
0
41
1
10
70.4929609678201
20
-1.8602858048516
30
0
41
1
10
70.5002838719419
20
-1.97777627787582
30
0
41
1
10
70.5202215673547
20
-2.20930958471368
30
0
41
1
10
70.5328848039476
20
-2.32367027042102
30
0
41
1
10
70.5481340072733
20
-2.43531386537143
30
0
0
SPLINE
5
DF
100
AcDbEntity
8
1
62
256
6
ByLayer
370
18
48
1
60
0
100
AcDbSpline
70
4
71
3
72
14
73
10
40
0
40
0
40
0
40
0
40
0.25
40
0.25
40
0.5
40
0.5
40
0.75
40
0.75
40
1
40
1
40
1
40
1
41
1
10
15.2282864435897
20
-1.6668321862247
30
0
41
1
10
15.338719293593
20
-1.46260814078704
30
0
41
1
10
15.4799187272171
20
-1.21102294660005
30
0
41
1
10
15.796689220401
20
-0.661525933913993
30
0
41
1
10
15.9720550858624
20
-0.363970062533099
30
0
41
1
10
16.323014157184
20
0.21951768148088
30
0
41
1
10
16.4983800226453
20
0.505071588854491
30
0
41
1
10
16.8151505158293
20
1.00886947885948
30
0
41
1
10
16.9563499494534
20
1.22678711684665
30
0
41
1
10
17.0667827994567
20
1.38976380664465
30
0
0
SPLINE
5
E0
100
AcDbEntity
8
1
62
256
6
ByLayer
370
18
48
1
60
0
100
AcDbSpline
70
4
71
3
72
8
73
4
40
0
40
0
40
0
40
0
40
1
40
1
40
1
40
1
41
1
10
72.9995811975227
20
0.122812404493658
30
0
41
1
10
72.7984030175372
20
0.639423926083424
30
0
41
1
10
72.6075175833184
20
1.16525424736307
30
0
41
1
10
72.4236970655646
20
1.69913232756304
30
0
0
SPLINE
5
E1
100
AcDbEntity
8
1
62
256
6
ByLayer
370
13
48
1
60
0
100
AcDbSpline
70
4
71
3
72
10
73
6
40
0
40
0
40
0
40
0
40
0.5
40
0.5
40
1
40
1
40
1
40
1
41
1
10
5.77198778507505
20
-4.65456469293505
30
0
41
1
10
5.84260042489328
20
-4.6281989123199
30
0
41
1
10
5.91685987304061
20
-4.610273340455
30
0
41
1
10
6.06713495735582
20
-4.59151544893669
30
0
41
1
10
6.14373665850223
20
-4.59042005218646
30
0
41
1
10
6.22172738091228
20
-4.5979781547762
30
0
0
SPLINE
5
E2
100
AcDbEntity
8
1
62
256
6
ByLayer
370
18
48
1
60
0
100
AcDbSpline
70
4
71
3
72
56
73
52
40
0
40
0
40
0
40
0
40
0.0127450584767122
40
0.0127450584767122
40
0.0421067151571584
40
0.0421067151571584
40
0.100830028518051
40
0.100830028518051
40
0.130191685198497
40
0.130191685198497
40
0.159553341878943
40
0.159553341878943
40
0.218276655239835
40
0.218276655239835
40
0.247638311920281
40
0.247638311920281
40
0.276999968600727
40
0.276999968600727
40
0.335723281961618
40
0.335723281961618
40
0.365084938642064
40
0.365084938642064
40
0.39444659532251
40
0.39444659532251
40
0.453169908683402
40
0.453169908683402
40
0.482531565363848
40
0.482531565363848
40
0.511893222044295
40
0.511893222044295
40
0.570616535405188
40
0.570616535405188
40
0.599978192085634
40
0.599978192085634
40
0.62933984876608
40
0.62933984876608
40
0.688063162126973
40
0.688063162126973
40
0.71742481880742
40
0.71742481880742
40
0.746786475487867
40
0.746786475487867
40
0.80550978884876
40
0.80550978884876
40
0.864233102209652
40
0.864233102209652
40
0.922956415570545
40
0.922956415570545
40
0.981679728931438
40
0.981679728931438
40
1
40
1
40
1
40
1
41
1
10
8.7317241376916
20
4.93780159604964
30
0
41
1
10
8.87932679581328
20
4.93803059209188
30
0
41
1
10
9.02691381140508
20
4.93675427994961
30
0
41
1
10
9.5141913519019
20
4.92756701512951
30
0
41
1
10
9.85344199157197
20
4.91318704100652
30
0
41
1
10
10.8705438878474
20
4.84639333946444
30
0
41
1
10
11.5478402731607
20
4.77034903996483
30
0
41
1
10
12.5661521718136
20
4.61050442662506
30
0
41
1
10
12.9063959589372
20
4.54953452322226
30
0
41
1
10
13.5856001168192
20
4.41326250434048
30
0
41
1
10
13.9246919387425
20
4.33793114630495
30
0
41
1
10
14.9414174389808
20
4.09139582866985
30
0
41
1
10
15.6185758379268
20
3.89973601015455
30
0
41
1
10
16.636756314011
20
3.57530668092363
30
0
41
1
10
16.9769251812564
20
3.46094416583386
30
0
41
1
10
17.6558091550126
20
3.22183586989132
30
0
41
1
10
17.9947660665808
20
3.09697135251886
30
0
41
1
10
19.011144905625
20
2.70805928538067
30
0
41
1
10
19.6881609572502
20
2.4298424633489
30
0
41
1
10
20.7062325578564
20
1.99001819435389
30
0
41
1
10
21.0462824748215
20
1.83962433225628
30
0
41
1
10
21.7248710071361
20
1.53412216418803
30
0
41
1
10
22.0637349323057
20
1.37881486251965
30
0
41
1
10
23.0798428430356
20
0.906866310020291
30
0
41
1
10
23.7566891232235
20
0.584368440871202
30
0
41
1
10
24.7747280943473
20
0.0962269120207111
30
0
41
1
10
25.1146455092541
20
-0.0672081142320451
30
0
41
1
10
25.7929205075603
20
-0.392540682789985
30
0
41
1
10
26.1316398368478
20
-0.55469776151287
30
0
41
1
10
27.1473609610653
20
-1.03794128057157
30
0
41
1
10
27.8241412250135
20
-1.3553529477835
30
0
41
1
10
28.8421570450502
20
-1.81734838267567
30
0
41
1
10
29.1819219411224
20
-1.96880751453318
30
0
41
1
10
29.8598702063265
20
-2.26433584394439
30
0
41
1
10
30.19841709412
20
-2.40863880465807
30
0
41
1
10
31.2138274159996
20
-2.8292470623951
30
0
41
1
10
31.8904712515345
20
-3.09323545609854
30
0
41
1
10
32.9085224775829
20
-3.45839215290132
30
0
41
1
10
33.24805227615
20
-3.57478081342427
30
0
41
1
10
33.9256822586797
20
-3.79531625343699
30
0
41
1
10
34.2641133644363
20
-3.89959868809564
30
0
41
1
10
35.2792459101977
20
-4.19321822587247
30
0
41
1
10
35.9557808419692
20
-4.36332933709409
30
0
41
1
10
37.3132248085751
20
-4.64652423372806
30
0
41
1
10
37.9904704114609
20
-4.75872908463742
30
0
41
1
10
39.3436127017112
20
-4.92090374828214
30
0
41
1
10
40.0200247527326
20
-4.97096860449514
30
0
41
1
10
41.3775506847041
20
-5.0067713191373
30
0
41
1
10
42.0540324846549
20
-4.99237835344093
30
0
41
1
10
42.9414194903391
20
-4.93180685436676
30
0
41
1
10
43.1524570737864
20
-4.91430469375956
30
0
41
1
10
43.3635675760996
20
-4.89373476727619
30
0
0
SPLINE
5
E3
100
AcDbEntity
8
1
62
256
6
ByLayer
370
13
48
1
60
0
100
AcDbSpline
70
4
71
3
72
24
73
20
40
0
40
0
40
0
40
0
40
0.114610113125616
40
0.150741650505085
40
0.186873187884552
40
0.259136262643488
40
0.295267800022955
40
0.331399337402423
40
0.40366241216136
40
0.439793949540828
40
0.475925486920295
40
0.54818856167923
40
0.584320099058698
40
0.620451636438166
40
0.692714711197102
40
0.764977785956038
40
0.837240860714973
40
0.981767010232845
40
1
40
1
40
1
40
1
41
1
10
71.980670796891
20
2.35281781300298
30
0
41
1
10
71.8010034191915
20
2.35136848103459
30
0
41
1
10
71.5647233158395
20
2.34813615396507
30
0
41
1
10
71.2718454589901
20
2.34193163388513
30
0
41
1
10
71.0452665095381
20
2.33611296891777
30
0
41
1
10
70.8187046686528
20
2.32907357580518
30
0
41
1
10
70.5921580552633
20
2.32081433239599
30
0
41
1
10
70.3655785112311
20
2.31164547787236
30
0
41
1
10
70.1390167855841
20
2.30126680327373
30
0
41
1
10
69.9124707136877
20
2.28968037127228
30
0
41
1
10
69.6858915722607
20
2.27720535977621
30
0
41
1
10
69.459330161336
20
2.26353462020864
30
0
41
1
10
69.2327841335263
20
2.24867147637962
30
0
41
1
10
69.0062044901842
20
2.23294314405526
30
0
41
1
10
68.7229784447129
20
2.21177551393335
30
0
41
1
10
68.3831306487456
20
2.18402046920377
30
0
41
1
10
67.929935472257
20
2.14379607123751
30
0
41
1
10
67.561540903121
20
2.10742423355023
30
0
41
1
10
67.3064520454207
20
2.08035780201672
30
0
41
1
10
67.2778749697612
20
2.07730106544707
30
0
0
SPLINE
5
E4
100
AcDbEntity
8
1
62
256
6
ByLayer
370
13
48
1
60
0
100
AcDbSpline
70
4
71
3
72
27
73
23
40
0
40
0
40
0
40
0
40
0.0284368773862557
40
0.13638833545445
40
0.163376199971498
40
0.190364064488547
40
0.244339793522643
40
0.271327658039692
40
0.29831552255674
40
0.352291251590838
40
0.406266980624934
40
0.460242709659031
40
0.541206303210177
40
0.568194167727225
40
0.622169896761322
40
0.676145625795419
40
0.784097083863612
40
0.811084948380661
40
0.838072812897709
40
0.892048541931806
40
0.946024270965903
40
1
40
1
40
1
40
1
41
1
10
23.3629322956647
20
0.0532712906162372
30
0
41
1
10
23.3032430041932
20
0.066822391924404
30
0
41
1
10
23.0169654805852
20
0.131809947728186
30
0
41
1
10
22.6741097100123
20
0.209758502231437
30
0
41
1
10
22.3343454824631
20
0.286892288344233
30
0
41
1
10
22.107766577516
20
0.33795538164719
30
0
41
1
10
21.881205104608
20
0.388909809860393
30
0
41
1
10
21.6546589151085
20
0.439719310456381
30
0
41
1
10
21.428079384509
20
0.490232602797845
30
0
41
1
10
21.1448538874907
20
0.553051493956842
30
0
41
1
10
20.8050065815993
20
0.627943428938236
30
0
41
1
10
20.4084922554536
20
0.714392452794554
30
0
41
1
10
20.0686774108325
20
0.787754222973744
30
0
41
1
10
19.7288575117613
20
0.860249784589283
30
0
41
1
10
19.4456302598692
20
0.919907811658388
30
0
41
1
10
18.9924358621852
20
1.01387788447701
30
0
41
1
10
18.5959854148323
20
1.0946175919496
30
0
41
1
10
18.2562210209314
20
1.1625330266132
30
0
41
1
10
18.0296417458908
20
1.20708821133684
30
0
41
1
10
17.7464161533364
20
1.26197632434539
30
0
41
1
10
17.4065719183603
20
1.3265949544504
30
0
41
1
10
17.1800471810683
20
1.36887219807189
30
0
41
1
10
17.0667827994566
20
1.38976380664468
30
0
0
SPLINE
5
E5
100
AcDbEntity
8
1
62
256
6
ByLayer
370
18
48
1
60
0
100
AcDbSpline
70
4
71
2
72
6
73
3
40
0
40
0
40
0
40
1
40
1
40
1
41
1
10
23.344557799067
20
0.0574427748515802
30
0
41
1
10
24.235736184429
20
-0.143195697714532
30
0
41
1
10
25.1176619274108
20
-0.571030452223113
30
0
0
SPLINE
5
E6
100
AcDbEntity
8
1
62
256
6
ByLayer
370
18
48
1
60
0
100
AcDbSpline
70
4
71
2
72
6
73
3
40
0
40
0
40
0
40
1
40
1
40
1
41
1
10
39.838042407066
20
-0.05660225359577
30
0
41
1
10
38.9825767085875
20
0.136845798518095
30
0
41
1
10
38.1345247079202
20
0.538023388047208
30
0
0
SPLINE
5
E7
100
AcDbEntity
8
1
62
256
6
ByLayer
370
18
48
1
60
0
100
AcDbSpline
70
4
71
3
72
29
73
25
40
0
40
0
40
0
40
0
40
0.0067219592313348
40
0.0492343693599012
40
0.0961129099753815
40
0.147194916653673
40
0.189722073389938
40
0.22756869919058
40
0.27017184698608
40
0.319581073944587
40
0.362790036861307
40
0.397851694129387
40
0.439784200101596
40
0.498607961566704
40
0.552181834226167
40
0.602739724634086
40
0.660858574622194
40
0.715871701646825
40
0.75847048745632
40
0.81047234773264
40
0.866388951127111
40
0.910752292403141
40
0.951074272493822
40
1
40
1
40
1
40
1
41
1
10
23.0141576123292
20
4.83842952217904
30
0
41
1
10
22.9872235110522
20
4.8383317515854
30
0
41
1
10
22.7899470376812
20
4.83764707164366
30
0
41
1
10
22.4048324394241
20
4.83676050537284
30
0
41
1
10
21.8419641025153
20
4.83665546500183
30
0
41
1
10
21.279036466722
20
4.83607594371796
30
0
41
1
10
20.7523036092257
20
4.83376482847066
30
0
41
1
10
20.2595417432945
20
4.83301887508253
30
0
41
1
10
19.7392047481189
20
4.8323444601904
30
0
41
1
10
19.1973825392788
20
4.83093936211242
30
0
41
1
10
18.6857760401068
20
4.82988917335689
30
0
41
1
10
18.2041288984249
20
4.82935861540665
30
0
41
1
10
17.6599136243912
20
4.82863345257124
30
0
41
1
10
17.0415250598381
20
4.82698037785676
30
0
41
1
10
16.3885701965484
20
4.82592972936513
30
0
41
1
10
15.7384395872231
20
4.8252228054011
30
0
41
1
10
15.0825464872728
20
4.82365258969312
30
0
41
1
10
14.4585457475919
20
4.82249997881291
30
0
41
1
10
13.8590357618749
20
4.82172827794622
30
0
41
1
10
13.2559957155801
20
4.82046383304115
30
0
41
1
10
12.6455393201545
20
4.81917084328202
30
0
41
1
10
12.0830066134138
20
4.81830380207083
30
0
41
1
10
11.5462883144659
20
4.81739636213842
30
0
41
1
10
11.1922376569588
20
4.81656952015106
30
0
41
1
10
10.9972053686302
20
4.81609045242706
30
0
0
SPLINE
5
E8
100
AcDbEntity
8
1
62
256
6
ByLayer
370
18
48
1
60
0
100
AcDbSpline
70
4
71
3
72
29
73
25
40
0
40
0
40
0
40
0
40
0.0567134303430277
40
0.107383969175807
40
0.146412478589601
40
0.178175166078055
40
0.204651792239118
40
0.229389281821455
40
0.266004787837954
40
0.308101175111156
40
0.343090763078827
40
0.371482043006029
40
0.422279731517864
40
0.479544981693106
40
0.529062386294051
40
0.58264490403827
40
0.638547126992245
40
0.686388704869832
40
0.745449714581021
40
0.805391018886277
40
0.85275689093252
40
0.91489840824725
40
0.963612259720377
40
1
40
1
40
1
40
1
41
1
10
41.7718365020481
20
-4.87096987842784
30
0
41
1
10
42.0311327323625
20
-4.87133917196476
30
0
41
1
10
42.5221311980043
20
-4.87214208202954
30
0
41
1
10
43.1935255607183
20
-4.87316245989172
30
0
41
1
10
43.7478426489948
20
-4.87469665024244
30
0
41
1
10
44.1912932497859
20
-4.87519351708397
30
0
41
1
10
44.5718612511697
20
-4.87568857921963
30
0
41
1
10
44.9732125109595
20
-4.8764378731918
30
0
41
1
10
45.4471471588629
20
-4.87762997126632
30
0
41
1
10
45.9677840972142
20
-4.87852696180281
30
0
41
1
10
46.4508330326341
20
-4.87907201191365
30
0
41
1
10
46.9737150221817
20
-4.87959448016193
30
0
41
1
10
47.5986114495601
20
-4.8816157706818
30
0
41
1
10
48.3202530241591
20
-4.88238969096372
30
0
41
1
10
49.0546522597791
20
-4.8830186843775
30
0
41
1
10
49.7828046609295
20
-4.88581635350531
30
0
41
1
10
50.5032855332817
20
-4.88563962132869
30
0
41
1
10
51.2488560901408
20
-4.88667885528218
30
0
41
1
10
52.0129199700398
20
-4.88937975451478
30
0
41
1
10
52.7748083778582
20
-4.88891630407915
30
0
41
1
10
53.55080054439
20
-4.89203189973335
30
0
41
1
10
54.275381138135
20
-4.89288658060923
30
0
41
1
10
54.9496845290077
20
-4.89321526699496
30
0
41
1
10
55.3394093187073
20
-4.89403106564143
30
0
41
1
10
55.5060477792984
20
-4.89443886825657
30
0
0
SPLINE
5
E9
100
AcDbEntity
8
1
62
256
6
ByLayer
370
18
48
1
60
0
100
AcDbSpline
70
4
71
1
72
4
73
2
40
0
40
0
40
1
40
1
41
1
10
70.874195998852
20
0.433137322564363
30
0
41
1
10
70.598714153849
20
0.551014672419143
30
0
0
SPLINE
5
EA
100
AcDbEntity
8
1
62
256
6
ByLayer
370
18
48
1
60
0
100
AcDbSpline
70
4
71
3
72
31
73
27
40
0
40
0
40
0
40
0
40
0.0247585163787137
40
0.0466590077070262
40
0.0664188755956391
40
0.0985637137993576
40
0.13155415500941
40
0.165750856332661
40
0.205393905041472
40
0.240580371145217
40
0.284115660207509
40
0.335752548677606
40
0.38123631766158
40
0.439067396529752
40
0.509417579935754
40
0.576519387597802
40
0.64097906294086
40
0.688893721924634
40
0.731905493925327
40
0.777921717649963
40
0.825418571471741
40
0.863488043008029
40
0.899305502770238
40
0.94680267380225
40
0.983261845484222
40
1
40
1
40
1
40
1
41
1
10
9.18573276121816
20
-4.81249544147701
30
0
41
1
10
9.28573946532509
20
-4.81222939996971
30
0
41
1
10
9.48094259926023
20
-4.81147108792814
30
0
41
1
10
9.77639772514465
20
-4.8076964246342
30
0
41
1
10
10.12365033238
20
-4.80705823797987
30
0
41
1
10
10.5001608728773
20
-4.81410525728029
30
0
41
1
10
10.9525760367633
20
-4.81591829138102
30
0
41
1
10
11.4469067386486
20
-4.81729334506292
30
0
41
1
10
11.952723112549
20
-4.81820494117471
30
0
41
1
10
12.5017489492932
20
-4.81894562803058
30
0
41
1
10
13.1064473162569
20
-4.82009132530072
30
0
41
1
10
13.7588922681569
20
-4.8216020312361
30
0
41
1
10
14.4776624565201
20
-4.82247843747405
30
0
41
1
10
15.2832314310664
20
-4.82420162485818
30
0
41
1
10
16.189085309812
20
-4.82576743117878
30
0
41
1
10
17.1256789073773
20
-4.82713177577443
30
0
41
1
10
17.9582073094157
20
-4.82922843952522
30
0
41
1
10
18.6789920347507
20
-4.82978930264943
30
0
41
1
10
19.3142223543258
20
-4.8312599204618
30
0
41
1
10
19.9475118712037
20
-4.83276573659785
30
0
41
1
10
20.5578847930258
20
-4.83321529242235
30
0
41
1
10
21.1209253988086
20
-4.83536987376968
30
0
41
1
10
21.68403907333
20
-4.8367453128447
30
0
41
1
10
22.2392277712013
20
-4.83660717005449
30
0
41
1
10
22.7067959552501
20
-4.83727660580186
30
0
41
1
10
22.952974660542
20
-4.83820637138933
30
0
41
1
10
23.0303947207433
20
-4.83854334314285
30
0
0
SPLINE
5
EB
100
AcDbEntity
8
1
62
256
6
ByLayer
370
18
48
1
60
0
100
AcDbSpline
70
4
71
3
72
29
73
25
40
0
40
0
40
0
40
0
40
0.0053642350004068
40
0.0516009450598043
40
0.103868296974757
40
0.158724296199164
40
0.197826040469403
40
0.234866544668375
40
0.283030099650142
40
0.332519763690919
40
0.37073131859056
40
0.408879135642104
40
0.476053618249357
40
0.539424992603336
40
0.599820716016046
40
0.669055303448811
40
0.724889705372373
40
0.780360497757239
40
0.82279976396598
40
0.86159251963367
40
0.892783703919745
40
0.922857891097481
40
0.959499771440107
40
1
40
1
40
1
40
1
41
1
10
55.506431305383
20
4.89441850834672
30
0
41
1
10
55.4847134301366
20
4.89438771741453
30
0
41
1
10
55.275799578382
20
4.89409091252048
30
0
41
1
10
54.8552742229747
20
4.89298908721779
30
0
41
1
10
54.2343709609326
20
4.89287798889117
30
0
41
1
10
53.6423534851155
20
4.8923058338971
30
0
41
1
10
53.1119896865315
20
4.88997071769691
30
0
41
1
10
52.6087167588557
20
4.88925156576116
30
0
41
1
10
52.0633888682377
20
4.88901629595804
30
0
41
1
10
51.5133193020605
20
4.88798775268015
30
0
41
1
10
51.0038015920912
20
4.88605019554021
30
0
41
1
10
50.4226800063518
20
4.88577766536432
30
0
41
1
10
49.7396967609508
20
4.88574927586924
30
0
41
1
10
48.9666417487201
20
4.88271249391315
30
0
41
1
10
48.1852413752514
20
4.88241165850786
30
0
41
1
10
47.4343586096398
20
4.88107207580379
30
0
41
1
10
46.7034195793773
20
4.87911428542475
30
0
41
1
10
46.0809438042393
20
4.87872878909917
30
0
41
1
10
45.5275282607315
20
4.87778979089759
30
0
41
1
10
45.072223298461
20
4.87666363744688
30
0
41
1
10
44.6677636013341
20
4.87586087755651
30
0
41
1
10
44.2710455226382
20
4.87526491266246
30
0
41
1
10
43.8381068480824
20
4.874850681331
30
0
41
1
10
43.5273422621917
20
4.87405181148927
30
0
41
1
10
43.3638057143199
20
4.87367521814414
30
0
0
SPLINE
5
EC
100
AcDbEntity
8
1
62
256
6
ByLayer
370
18
48
1
60
0
100
AcDbSpline
70
4
71
3
72
11
73
7
40
0
40
0
40
0
40
0
40
0.202708300774893
40
0.436794513612253
40
0.702457150212505
40
1
40
1
40
1
40
1
41
1
10
55.8441868043873
20
0.0574692017046061
30
0
41
1
10
55.9699900570185
20
0.0288808828932758
30
0
41
1
10
56.2408077401825
20
-0.0397981315344396
30
0
41
1
10
56.6754129280812
20
-0.174839474551135
30
0
41
1
10
57.1675530075581
20
-0.359798499166004
30
0
41
1
10
57.5141892843827
20
-0.514970308549692
30
0
41
1
10
57.6970453391753
20
-0.60385413246243
30
0
0
LINE
5
7B
100
AcDbEntity
8
SK1
62
256
6
ByLayer
370
18
48
1
60
0
100
AcDbLine
10
0
20
-6
30
0
11
0
21
6
31
0
39
0
210
0
220
0
230
1
0
LINE
5
7D
100
AcDbEntity
8
SK1
62
256
6
ByLayer
370
18
48
1
60
0
100
AcDbLine
10
-45
20
3
30
0
11
-45
21
-3
31
0
39
0
210
0
220
0
230
1
0
LINE
5
7E
100
AcDbEntity
8
SK1
62
256
6
ByLayer
370
18
48
1
60
0
100
AcDbLine
10
-43.267949
20
6
30
0
11
-43.267949
21
-6
31
0
39
0
210
0
220
0
230
1
0
LINE
5
7F
100
AcDbEntity
8
1
62
256
6
ByLayer
370
18
48
1
60
0
100
AcDbLine
10
72.269469
20
-1.05338
30
0
11
72.270128
21
-1.049075
31
0
39
0
210
0
220
0
230
1
0
LINE
5
80
100
AcDbEntity
8
1
62
256
6
ByLayer
370
13
48
1
60
0
100
AcDbLine
10
1.582497
20
4.924937
30
0
11
1.582497
21
-4.924937
31
0
39
0
210
0
220
0
230
1
0
LINE
5
81
100
AcDbEntity
8
1
62
256
6
ByLayer
370
13
48
1
60
0
100
AcDbLine
10
0.790483
20
5.462468
30
0
11
0.790483
21
-5.462468
31
0
39
0
210
0
220
0
230
1
0
LINE
5
82
100
AcDbEntity
8
1
62
256
6
ByLayer
370
18
48
1
60
0
100
AcDbLine
10
70.548134
20
-2.435314
30
0
11
72.269469
21
-1.05338
31
0
39
0
210
0
220
0
230
1
0
LINE
5
83
100
AcDbEntity
8
1
62
256
6
ByLayer
370
18
48
1
60
0
100
AcDbLine
10
0
20
-6
30
0
11
0
21
6
31
0
39
0
210
0
220
0
230
1
0
LINE
5
84
100
AcDbEntity
8
80
62
256
6
ByLayer
370
18
48
1
60
0
100
AcDbLine
10
0
20
0
30
0
11
-5
21
0
31
0
39
0
210
0
220
0
230
1
0
LINE
5
85
100
AcDbEntity
8
4
62
256
6
ByLayer
370
18
48
0.05
60
0
100
AcDbLine
10
73
20
0
30
0
11
0
21
0
31
0
39
0
210
0
220
0
230
1
0
LINE
5
87
100
AcDbEntity
8
SK4
62
256
6
ByLayer
370
18
48
0.05
60
0
100
AcDbLine
10
78
20
0
30
0
11
-50
21
0
31
0
39
0
210
0
220
0
230
1
0
LINE
5
89
100
AcDbEntity
8
SK1
62
256
6
ByLayer
370
18
48
1
60
0
100
AcDbLine
10
-45
20
-3
30
0
11
-43.267949
21
-6
31
0
39
0
210
0
220
0
230
1
0
LINE
5
8A
100
AcDbEntity
8
SK1
62
256
6
ByLayer
370
18
48
1
60
0
100
AcDbLine
10
-43.267949
20
6
30
0
11
-45
21
3
31
0
39
0
210
0
220
0
230
1
0
LINE
5
8B
100
AcDbEntity
8
SK1
62
256
6
ByLayer
370
18
48
1
60
0
100
AcDbLine
10
-43.267949
20
-6
30
0
11
0
21
-6
31
0
39
0
210
0
220
0
230
1
0
LINE
5
8C
100
AcDbEntity
8
SK1
62
256
6
ByLayer
370
18
48
1
60
0
100
AcDbLine
10
0
20
6
30
0
11
-43.267949
21
6
31
0
39
0
210
0
220
0
230
1
0
LINE
5
8D
100
AcDbEntity
8
1
62
256
6
ByLayer
370
18
48
1
60
0
100
AcDbLine
10
1.582497
20
-4.924937
30
0
11
8.726538
21
-4.937796
31
0
39
0
210
0
220
0
230
1
0
LINE
5
8E
100
AcDbEntity
8
1
62
256
6
ByLayer
370
18
48
1
60
0
100
AcDbLine
10
40.192726
20
-4.994435
30
0
11
41.224782
21
-4.996293
31
0
39
0
210
0
220
0
230
1
0
LINE
5
8F
100
AcDbEntity
8
1
62
256
6
ByLayer
370
18
48
1
60
0
100
AcDbLine
10
41.224782
20
4.996293
30
0
11
40.192726
21
4.994435
31
0
39
0
210
0
220
0
230
1
0
LINE
5
90
100
AcDbEntity
8
1
62
256
6
ByLayer
370
18
48
1
60
0
100
AcDbLine
10
8.726538
20
4.937796
30
0
11
1.582497
21
4.924937
31
0
39
0
210
0
220
0
230
1
0
LINE
5
91
100
AcDbEntity
8
81
62
256
6
ByLayer
370
18
48
1
60
0
100
AcDbLine
10
73
20
0
30
0
11
78
21
0
31
0
39
0
210
0
220
0
230
1
0
LINE
5
92
100
AcDbEntity
8
SK2
62
256
6
ByLayer
370
13
48
1
60
0
100
AcDbLine
10
-53.625163
20
-6
30
0
11
-53.625163
21
36.857173
31
0
39
0
210
0
220
0
230
1
0
LINE
5
94
100
AcDbEntity
8
SK2
62
256
6
ByLayer
370
13
48
1
60
0
100
AcDbLine
10
-46.5875
20
6
30
0
11
-55.625163
21
6
31
0
39
0
210
0
220
0
230
1
0
LINE
5
95
100
AcDbEntity
8
SK2
62
256
6
ByLayer
370
13
48
1
60
0
100
AcDbLine
10
-46.5875
20
-6
30
0
11
-55.625163
21
-6
31
0
39
0
210
0
220
0
230
1
0
LINE
5
96
100
AcDbEntity
8
1
62
256
6
ByLayer
370
18
48
1
60
1
100
AcDbLine
10
-53.625163
20
6
30
0
11
-53.164379
21
2.500002
31
0
39
0
210
0
220
0
230
1
0
LINE
5
97
100
AcDbEntity
8
1
62
256
6
ByLayer
370
18
48
1
60
1
100
AcDbLine
10
-53.164379
20
2.500002
30
0
11
-54.085946
21
2.499998
31
0
39
0
210
0
220
0
230
1
0
LINE
5
98
100
AcDbEntity
8
1
62
256
6
ByLayer
370
18
48
1
60
1
100
AcDbLine
10
-54.085946
20
2.499998
30
0
11
-53.625163
21
6
31
0
39
0
210
0
220
0
230
1
0
LINE
5
99
100
AcDbEntity
8
1
62
256
6
ByLayer
370
18
48
1
60
1
100
AcDbLine
10
-53.625163
20
-6
30
0
11
-54.085946
21
-2.500002
31
0
39
0
210
0
220
0
230
1
0
LINE
5
9A
100
AcDbEntity
8
1
62
256
6
ByLayer
370
18
48
1
60
1
100
AcDbLine
10
-54.085946
20
-2.500002
30
0
11
-53.164379
21
-2.499998
31
0
39
0
210
0
220
0
230
1
0
LINE
5
9B
100
AcDbEntity
8
1
62
256
6
ByLayer
370
18
48
1
60
1
100
AcDbLine
10
-53.164379
20
-2.499998
30
0
11
-53.625163
21
-6
31
0
39
0
210
0
220
0
230
1
0
LINE
5
9C
100
AcDbEntity
8
2
62
256
6
ByLayer
370
13
48
1
60
0
100
AcDbLine
10
85.083343
20
-5.05
30
0
11
85.083343
21
33.625392
31
0
39
0
210
0
220
0
230
1
0
LINE
5
9E
100
AcDbEntity
8
2
62
256
6
ByLayer
370
13
48
1
60
0
100
AcDbLine
10
72.6494
20
5.05
30
0
11
87.083343
21
5.05
31
0
39
0
210
0
220
0
230
1
0
LINE
5
9F
100
AcDbEntity
8
2
62
256
6
ByLayer
370
13
48
1
60
0
100
AcDbLine
10
72.6494
20
-5.05
30
0
11
87.083343
21
-5.05
31
0
39
0
210
0
220
0
230
1
0
LINE
5
A0
100
AcDbEntity
8
1
62
256
6
ByLayer
370
18
48
1
60
1
100
AcDbLine
10
85.083343
20
5.05
30
0
11
85.544126
21
1.550002
31
0
39
0
210
0
220
0
230
1
0
LINE
5
A1
100
AcDbEntity
8
1
62
256
6
ByLayer
370
18
48
1
60
1
100
AcDbLine
10
85.544126
20
1.550002
30
0
11
84.622559
21
1.549998
31
0
39
0
210
0
220
0
230
1
0
LINE
5
A2
100
AcDbEntity
8
1
62
256
6
ByLayer
370
18
48
1
60
1
100
AcDbLine
10
84.622559
20
1.549998
30
0
11
85.083343
21
5.05
31
0
39
0
210
0
220
0
230
1
0
LINE
5
A3
100
AcDbEntity
8
1
62
256
6
ByLayer
370
18
48
1
60
1
100
AcDbLine
10
85.083343
20
-5.05
30
0
11
84.622559
21
-1.550002
31
0
39
0
210
0
220
0
230
1
0
LINE
5
A4
100
AcDbEntity
8
1
62
256
6
ByLayer
370
18
48
1
60
1
100
AcDbLine
10
84.622559
20
-1.550002
30
0
11
85.544126
21
-1.549998
31
0
39
0
210
0
220
0
230
1
0
LINE
5
A5
100
AcDbEntity
8
1
62
256
6
ByLayer
370
18
48
1
60
1
100
AcDbLine
10
85.544126
20
-1.549998
30
0
11
85.083343
21
-5.05
31
0
39
0
210
0
220
0
230
1
0
LINE
5
F3
100
AcDbEntity
8
1
62
256
6
ByLayer
370
18
48
1
60
1
100
AcDbLine
10
-53.625163
20
6
30
0
11
-53.164379
21
2.500002
31
0
39
0
210
0
220
0
230
1
0
LINE
5
F4
100
AcDbEntity
8
1
62
256
6
ByLayer
370
18
48
1
60
1
100
AcDbLine
10
-53.164379
20
2.500002
30
0
11
-54.085946
21
2.499998
31
0
39
0
210
0
220
0
230
1
0
LINE
5
F5
100
AcDbEntity
8
1
62
256
6
ByLayer
370
18
48
1
60
1
100
AcDbLine
10
-54.085946
20
2.499998
30
0
11
-53.625163
21
6
31
0
39
0
210
0
220
0
230
1
0
LINE
5
F7
100
AcDbEntity
8
1
62
256
6
ByLayer
370
18
48
1
60
1
100
AcDbLine
10
-53.625163
20
-6
30
0
11
-54.085946
21
-2.500002
31
0
39
0
210
0
220
0
230
1
0
LINE
5
F8
100
AcDbEntity
8
1
62
256
6
ByLayer
370
18
48
1
60
1
100
AcDbLine
10
-54.085946
20
-2.500002
30
0
11
-53.164379
21
-2.499998
31
0
39
0
210
0
220
0
230
1
0
LINE
5
F9
100
AcDbEntity
8
1
62
256
6
ByLayer
370
18
48
1
60
1
100
AcDbLine
10
-53.164379
20
-2.499998
30
0
11
-53.625163
21
-6
31
0
39
0
210
0
220
0
230
1
0
LINE
5
FD
100
AcDbEntity
8
1
62
256
6
ByLayer
370
18
48
1
60
1
100
AcDbLine
10
85.083343
20
5.05
30
0
11
85.544126
21
1.550002
31
0
39
0
210
0
220
0
230
1
0
LINE
5
FE
100
AcDbEntity
8
1
62
256
6
ByLayer
370
18
48
1
60
1
100
AcDbLine
10
85.544126
20
1.550002
30
0
11
84.622559
21
1.549998
31
0
39
0
210
0
220
0
230
1
0
LINE
5
FF
100
AcDbEntity
8
1
62
256
6
ByLayer
370
18
48
1
60
1
100
AcDbLine
10
84.622559
20
1.549998
30
0
11
85.083343
21
5.05
31
0
39
0
210
0
220
0
230
1
0
LINE
5
101
100
AcDbEntity
8
1
62
256
6
ByLayer
370
18
48
1
60
1
100
AcDbLine
10
85.083343
20
-5.05
30
0
11
84.622559
21
-1.550002
31
0
39
0
210
0
220
0
230
1
0
LINE
5
102
100
AcDbEntity
8
1
62
256
6
ByLayer
370
18
48
1
60
1
100
AcDbLine
10
84.622559
20
-1.550002
30
0
11
85.544126
21
-1.549998
31
0
39
0
210
0
220
0
230
1
0
LINE
5
103
100
AcDbEntity
8
1
62
256
6
ByLayer
370
18
48
1
60
1
100
AcDbLine
10
85.544126
20
-1.549998
30
0
11
85.083343
21
-5.05
31
0
39
0
210
0
220
0
230
1
0
MTEXT
5
ED
100
AcDbEntity
8
SK6
62
256
6
ByLayer
370
13
48
1
60
0
100
AcDbMText
10
-13.671593
20
37.590328
30
0
210
0
220
0
230
1
1
\W0.7280;860.1-1010-053A0-PM P1BM
40
3.5
41
0
44
1.084337
50
0
71
7
72
5
7
iso_b_vert
0
MTEXT
5
F1
100
AcDbEntity
8
SK2
62
256
6
ByLayer
370
18
48
1
60
0
100
AcDbMText
10
-55.189796
20
19.409024
30
0
210
0
220
0
230
1
1
%%c
40
3.5
41
0
44
1.084337
50
90
71
7
72
5
7
iso_b_vert
0
MTEXT
5
F2
100
AcDbEntity
8
SK2
62
256
6
ByLayer
370
18
48
1
60
0
100
AcDbMText
10
-55.189796
20
24.63168
30
0
210
0
220
0
230
1
1
\W0.6930;12,000
40
3.5
41
0
44
1.084337
50
90
71
7
72
5
7
iso_b_vert
0
MTEXT
5
FB
100
AcDbEntity
8
2
62
256
6
ByLayer
370
18
48
1
60
0
100
AcDbMText
10
83.518709
20
17.05211
30
0
210
0
220
0
230
1
1
%%c
40
3.5
41
0
44
1.084337
50
90
71
7
72
5
7
iso_b_vert
0
MTEXT
5
FC
100
AcDbEntity
8
2
62
256
6
ByLayer
370
18
48
1
60
0
100
AcDbMText
10
83.518709
20
22.274766
30
0
210
0
220
0
230
1
1
\W0.6440;10,100
40
3.5
41
0
44
1.084337
50
90
71
7
72
5
7
iso_b_vert
0
HATCH
5
F6
100
AcDbEntity
8
SK2
62
256
6
ByLayer
370
13
48
1
60
0
100
AcDbHatch
10
0
20
0
30
0
210
0
220
0
230
1
2
ANSI31
70
0
71
0
91
1
92
5
93
3
72
1
10
-53.6251625675374
20
6
11
-53.1643788259847
21
2.50000169255318
72
1
10
-53.1643788259847
20
2.50000169255318
11
-54.0859463090902
21
2.49999830744682
72
1
10
-54.0859463090902
20
2.49999830744682
11
-53.6251625675374
21
6
97
0
75
0
76
1
52
0
41
0.0062
77
0
78
1
53
45
43
0
44
0
45
-0.0139193969876572
46
0.0139193969876572
79
0
47
0
98
1
10
0
20
0
0
HATCH
5
FA
100
AcDbEntity
8
SK2
62
256
6
ByLayer
370
13
48
1
60
0
100
AcDbHatch
10
0
20
0
30
0
210
0
220
0
230
1
2
ANSI31
70
0
71
0
91
1
92
5
93
3
72
1
10
-53.6251625675374
20
-6
11
-54.0859463090902
21
-2.50000169255318
72
1
10
-54.0859463090902
20
-2.50000169255318
11
-53.1643788259847
21
-2.49999830744682
72
1
10
-53.1643788259847
20
-2.49999830744682
11
-53.6251625675374
21
-6
97
0
75
0
76
1
52
0
41
0.0062
77
0
78
1
53
45
43
0
44
0
45
-0.0139193969876572
46
0.0139193969876572
79
0
47
0
98
1
10
0
20
0
0
HATCH
5
100
100
AcDbEntity
8
2
62
256
6
ByLayer
370
13
48
1
60
0
100
AcDbHatch
10
0
20
0
30
0
210
0
220
0
230
1
2
ANSI31
70
0
71
0
91
1
92
5
93
3
72
1
10
85.083342615295
20
5.05000000000001
11
85.5441263568478
21
1.55000169255319
72
1
10
85.5441263568478
20
1.55000169255319
11
84.6225588737423
21
1.54999830744683
72
1
10
84.6225588737423
20
1.54999830744683
11
85.083342615295
21
5.05000000000001
97
0
75
0
76
1
52
0
41
0.0062
77
0
78
1
53
45
43
0
44
0
45
-0.0139193969876572
46
0.0139193969876572
79
0
47
0
98
1
10
0
20
0
0
HATCH
5
104
100
AcDbEntity
8
2
62
256
6
ByLayer
370
13
48
1
60
0
100
AcDbHatch
10
0
20
0
30
0
210
0
220
0
230
1
2
ANSI31
70
0
71
0
91
1
92
5
93
3
72
1
10
85.083342615295
20
-5.04999999999998
11
84.6225588737423
21
-1.55000169255317
72
1
10
84.6225588737423
20
-1.55000169255317
11
85.5441263568478
21
-1.5499983074468
72
1
10
85.5441263568478
20
-1.5499983074468
11
85.083342615295
21
-5.04999999999998
97
0
75
0
76
1
52
0
41
0.0062
77
0
78
1
53
45
43
0
44
0
45
-0.0139193969876572
46
0.0139193969876572
79
0
47
0
98
1
10
0
20
0
0
DIMENSION
5
106
100
AcDbEntity
8
2
62
256
6
ByLayer
370
13
48
1
60
0
100
AcDbDimension
2
_U0
10
71.0619
20
-15.263398
30
0
11
35.53095
21
-15.263398
31
0
70
32
71
1
72
1
41
1
210
0
220
0
230
1
3
Standard
100
AcDbAlignedDimension
13
0
23
0
33
0
14
71.0619
24
-5.05
34
0
50
0
100
AcDbRotatedDimension
1001
ACAD
1000
DSTYLE
1002
{
1070
   371
1070
    13
1070
   372
1070
    13
1070
   170
1070
     0
1070
   144
1040
1.0
1070
   277
1070
     2
1070
   278
1070
    44
1070
   146
1040
1.0
1070
   345
1005
16
1070
   347
1005
16
1070
   346
1005
16
1070
   344
1005
0
1070
   343
1005
0
1070
   172
1070
     1
1070
    76
1070
     0
1070
    75
1070
     0
1070
   282
1070
     0
1070
   281
1070
     0
1070
    71
1070
     0
1070
    74
1070
     0
1070
   279
1070
     0
1070
   173
1070
     1
1070
   340
1005
EE
1070
   271
1070
     2
1070
   272
1070
     2
1070
    77
1070
     1
1070
    73
1070
     1
1070
   171
1070
     3
1070
   274
1070
     4
1070
   177
1070
    35
1070
   176
1070
    35
1070
   178
1070
    35
1070
    48
1040
-0.1
1070
    41
1040
3.5
1070
   147
1040
1.75
1070
    42
1040
1.5875
1070
    44
1040
2.0
1070
   140
1040
3.5
1002
}
1001
ACAD_DSTYLE_DIM_LINETYPE
1070
   380
1005
16
1001
ACAD_DSTYLE_DIM_EXT1_LINETYPE
1070
   381
1005
16
1001
ACAD_DSTYLE_DIM_EXT2_LINETYPE
1070
   382
1005
16
0
DIMENSION
5
11F
100
AcDbEntity
8
SK2
62
256
6
ByLayer
370
13
48
1
60
0
100
AcDbDimension
2
_U1
10
73
20
-34.692985
30
0
11
14
21
-34.692985
31
0
70
32
71
1
72
1
41
1
210
0
220
0
230
1
3
Standard
100
AcDbAlignedDimension
13
-45
23
-6
33
0
14
73
24
0
34
0
50
0
100
AcDbRotatedDimension
1001
ACAD
1000
DSTYLE
1002
{
1070
   371
1070
    13
1070
   372
1070
    13
1070
   170
1070
     0
1070
   144
1040
1.0
1070
   277
1070
     2
1070
   278
1070
    44
1070
   146
1040
1.0
1070
   345
1005
16
1070
   347
1005
16
1070
   346
1005
16
1070
   344
1005
0
1070
   343
1005
0
1070
   172
1070
     1
1070
    76
1070
     0
1070
    75
1070
     0
1070
   282
1070
     0
1070
   281
1070
     0
1070
    71
1070
     0
1070
    74
1070
     0
1070
   279
1070
     0
1070
   173
1070
     1
1070
   340
1005
EE
1070
   271
1070
     2
1070
   272
1070
     2
1070
    77
1070
     1
1070
    73
1070
     1
1070
   171
1070
     3
1070
   274
1070
     4
1070
   177
1070
    35
1070
   176
1070
    35
1070
   178
1070
    35
1070
    48
1040
-0.1
1070
    41
1040
3.5
1070
   147
1040
1.75
1070
    42
1040
1.5875
1070
    44
1040
2.0
1070
   140
1040
3.5
1002
}
1001
ACAD_DSTYLE_DIM_LINETYPE
1070
   380
1005
16
1001
ACAD_DSTYLE_DIM_EXT1_LINETYPE
1070
   381
1005
16
1001
ACAD_DSTYLE_DIM_EXT2_LINETYPE
1070
   382
1005
16
0
DIMENSION
5
137
100
AcDbEntity
8
SK2
62
256
6
ByLayer
370
13
48
1
60
0
100
AcDbDimension
2
_U2
10
73
20
16.659119
30
0
11
46.78
21
16.659119
31
0
70
32
71
1
72
1
41
1
210
0
220
0
230
1
3
Standard
100
AcDbAlignedDimension
13
20.56
23
5.05
33
0
14
73
24
0
34
0
50
0
100
AcDbRotatedDimension
1001
ACAD
1000
DSTYLE
1002
{
1070
   371
1070
    13
1070
   372
1070
    13
1070
   170
1070
     0
1070
   144
1040
1.0
1070
   277
1070
     2
1070
   278
1070
    44
1070
   146
1040
1.0
1070
   345
1005
16
1070
   347
1005
16
1070
   346
1005
16
1070
   344
1005
0
1070
   343
1005
0
1070
   172
1070
     1
1070
    76
1070
     0
1070
    75
1070
     0
1070
   282
1070
     0
1070
   281
1070
     0
1070
    71
1070
     0
1070
    74
1070
     0
1070
   279
1070
     0
1070
   173
1070
     1
1070
   340
1005
EE
1070
   271
1070
     2
1070
   272
1070
     2
1070
    77
1070
     1
1070
    73
1070
     1
1070
   171
1070
     3
1070
   274
1070
     4
1070
   177
1070
    35
1070
   176
1070
    35
1070
   178
1070
    35
1070
    48
1040
-0.1
1070
    41
1040
3.5
1070
   147
1040
1.75
1070
    42
1040
1.5875
1070
    44
1040
2.0
1070
   140
1040
3.5
1002
}
1001
ACAD_DSTYLE_DIM_LINETYPE
1070
   380
1005
16
1001
ACAD_DSTYLE_DIM_EXT1_LINETYPE
1070
   381
1005
16
1001
ACAD_DSTYLE_DIM_EXT2_LINETYPE
1070
   382
1005
16
0
DIMENSION
5
14F
100
AcDbEntity
8
SK2
62
256
6
ByLayer
370
13
48
1
60
0
100
AcDbDimension
2
_U3
10
71.0619
20
-17.852503
30
0
11
90.416667
21
-17.852503
31
0
70
32
71
1
72
1
41
1
210
0
220
0
230
1
3
Standard
100
AcDbAlignedDimension
13
73
23
0
33
0
14
71.0619
24
-5.05
34
0
50
0
100
AcDbRotatedDimension
1001
ACAD
1000
DSTYLE
1002
{
1070
   371
1070
    13
1070
   372
1070
    13
1070
   170
1070
     0
1070
   144
1040
1.0
1070
   277
1070
     2
1070
   278
1070
    44
1070
   146
1040
1.0
1070
   345
1005
16
1070
   347
1005
16
1070
   346
1005
16
1070
   344
1005
0
1070
   343
1005
0
1070
   172
1070
     1
1070
    76
1070
     0
1070
    75
1070
     0
1070
   282
1070
     0
1070
   281
1070
     0
1070
    71
1070
     0
1070
    74
1070
     0
1070
   279
1070
     0
1070
   173
1070
     1
1070
   340
1005
EE
1070
   271
1070
     2
1070
   272
1070
     2
1070
    77
1070
     1
1070
    73
1070
     1
1070
   171
1070
     3
1070
   274
1070
     4
1070
   177
1070
    35
1070
   176
1070
    35
1070
   178
1070
    35
1070
    48
1040
-0.1
1070
    41
1040
3.5
1070
   147
1040
1.75
1070
    42
1040
1.5875
1070
    44
1040
2.0
1070
   140
1040
3.5
1002
}
1001
ACAD_DSTYLE_DIM_LINETYPE
1070
   380
1005
16
1001
ACAD_DSTYLE_DIM_EXT1_LINETYPE
1070
   381
1005
16
1001
ACAD_DSTYLE_DIM_EXT2_LINETYPE
1070
   382
1005
16
0
DIMENSION
5
169
100
AcDbEntity
8
SK2
62
256
6
ByLayer
370
13
48
1
60
0
100
AcDbDimension
2
_U4
10
71.0619
20
-24.343428
30
0
11
13.03095
21
-24.343428
31
0
70
32
71
1
72
1
41
1
210
0
220
0
230
1
3
Standard
100
AcDbAlignedDimension
13
-45
23
-6
33
0
14
71.0619
24
-5.05
34
0
50
0
100
AcDbRotatedDimension
1001
ACAD
1000
DSTYLE
1002
{
1070
   371
1070
    13
1070
   372
1070
    13
1070
   170
1070
     0
1070
   144
1040
1.0
1070
   277
1070
     2
1070
   278
1070
    44
1070
   146
1040
1.0
1070
   345
1005
16
1070
   347
1005
16
1070
   346
1005
16
1070
   344
1005
0
1070
   343
1005
0
1070
   172
1070
     1
1070
    76
1070
     0
1070
    75
1070
     0
1070
   282
1070
     0
1070
   281
1070
     0
1070
    71
1070
     0
1070
    74
1070
     0
1070
   279
1070
     0
1070
   173
1070
     1
1070
   340
1005
EE
1070
   271
1070
     2
1070
   272
1070
     2
1070
    77
1070
     1
1070
    73
1070
     1
1070
   171
1070
     3
1070
   274
1070
     4
1070
   177
1070
    35
1070
   176
1070
    35
1070
   178
1070
    35
1070
    48
1040
-0.1
1070
    41
1040
3.5
1070
   147
1040
1.75
1070
    42
1040
1.5875
1070
    44
1040
2.0
1070
   140
1040
3.5
1002
}
1001
ACAD_DSTYLE_DIM_LINETYPE
1070
   380
1005
16
1001
ACAD_DSTYLE_DIM_EXT1_LINETYPE
1070
   381
1005
16
1001
ACAD_DSTYLE_DIM_EXT2_LINETYPE
1070
   382
1005
16
0
ENDSEC
0
SECTION
2
OBJECTS
0
DICTIONARY
5
1f1
330
0
100
AcDbDictionary
280
0
281
1
3
ACAD_GROUP
350
1f2
3
ACAD_MLINESTYLE
350
1f3
0
DICTIONARY
5
1f2
330
0
100
AcDbDictionary
280
0
281
1
0
DICTIONARY
5
1f3
330
0
100
AcDbDictionary
280
0
281
1
3
Standard
350
18
0
MLINESTYLE
5
18
330
1f3
100
AcDbMlineStyle
2
Standard
70
0
3

62
256
51
90
52
90
71
2
49
-0.5
62
256
6
ByLayer
49
0.5
62
256
6
ByLayer
0
RASTERVARIABLES
5
1df
330

100
AcDbRasterVariables
90
0
70
1
71
1
72
1
0
ENDSEC
0
EOF
