0
SECTION
2
HEADER
9
$ACADVER
1
AC1015
9
$DWGCODEPAGE
3
ANSI_1252
9
$HANDSEED
5
212
9
$ANGBASE
50
0
9
$ANGDIR
70
0
9
$ATTMODE
70
1
9
$AUNITS
70
0
9
$AUPREC
70
0
9
$CECOLOR
62
256
9
$CELTSCALE
40
1
9
$CELTYPE
6
ByLayer
9
$CELWEIGHT
370
18
9
$CLAYER
8
0
9
$CMLJUST
70
0
9
$CMLSCALE
40
1
9
$CMLSTYLE
2
Standard
9
$DIMSTYLE
2
Standard
9
$TEXTSIZE
40
0.2
9
$TEXTSTYLE
7
Standard
9
$LUNITS
70
2
9
$LUPREC
70
4
9
$EXTNAMES
290
1
9
$INSUNITS
70
4
9
$LTSCALE
40
1
9
$LWDISPLAY
290
1
9
$PDMODE
70
0
9
$PDSIZE
40
0
9
$PLINEGEN
70
0
0
ENDSEC
0
SECTION
2
CLASSES
0
CLASS
1
RASTERVARIABLES
2
AcDbRasterVariables
3
ISM
90
0
280
0
281
0
0
ENDSEC
0
SECTION
2
TABLES
0
TABLE
2
VPORT
5
208
100
AcDbSymbolTable
0
VPORT
5
1
100
AcDbSymbolTableRecord
100
AcDbViewportTableRecord
2
*Active
70
0
10
0
20
0
11
1
21
1
12
-1
22
1
13
0
23
0
14
0.5
24
0.5
15
10
25
10
16
0
26
0
36
1
17
0
27
0
37
0
0
ENDTAB
0
TABLE
2
LTYPE
5
209
100
AcDbSymbolTable
0
LTYPE
5
14
100
AcDbSymbolTableRecord
100
AcDbLinetypeTableRecord
70
0
2
ByBlock
3

72
65
73
0
40
0
0
LTYPE
5
15
100
AcDbSymbolTableRecord
100
AcDbLinetypeTableRecord
70
0
2
ByLayer
3

72
65
73
0
40
0
0
LTYPE
5
16
100
AcDbSymbolTableRecord
100
AcDbLinetypeTableRecord
70
0
2
Continuous
3
Solid line
72
65
73
0
40
0
0
LTYPE
5
6E
100
AcDbSymbolTableRecord
100
AcDbLinetypeTableRecord
70
0
2
CENTER
3
____ _ ____ _ ____ _ ____
72
65
73
4
40
47.5
49
22
74
0
49
-8.5
74
0
49
8.5
74
0
49
-8.5
74
0
0
LTYPE
5
6F
100
AcDbSymbolTableRecord
100
AcDbLinetypeTableRecord
70
0
2
DASHED
3
__ __ __ __ __ __ __ __ __
72
65
73
2
40
25.72
49
12.86
74
0
49
-12.86
74
0
0
ENDTAB
0
TABLE
2
LAYER
5
20a
100
AcDbSymbolTable
0
LAYER
5
10
100
AcDbSymbolTableRecord
100
AcDbLayerTableRecord
2
0
70
0
62
7
6
Continuous
290
1
370
-3
390
0
0
LAYER
5
71
100
AcDbSymbolTableRecord
100
AcDbLayerTableRecord
2
80
70
0
62
-6
6
Continuous
290
1
370
-3
390
0
0
LAYER
5
73
100
AcDbSymbolTableRecord
100
AcDbLayerTableRecord
2
81
70
0
62
-3
6
Continuous
290
1
370
-3
390
0
0
LAYER
5
75
100
AcDbSymbolTableRecord
100
AcDbLayerTableRecord
2
1
70
0
62
4
6
Continuous
290
1
370
-3
390
0
0
LAYER
5
85
100
AcDbSymbolTableRecord
100
AcDbLayerTableRecord
2
4
70
0
62
-2
6
CENTER
290
1
370
-3
390
0
0
LAYER
5
A0
100
AcDbSymbolTableRecord
100
AcDbLayerTableRecord
2
2
70
0
62
7
6
Continuous
290
1
370
-3
390
0
0
LAYER
5
11D
100
AcDbSymbolTableRecord
100
AcDbLayerTableRecord
2
Defpoints
70
0
62
7
6
Continuous
290
0
370
-3
390
0
0
LAYER
5
1f4
100
AcDbSymbolTableRecord
100
AcDbLayerTableRecord
2
SK1
70
0
62
4
6
Continuous
290
1
370
-3
390
0
0
LAYER
5
1f5
100
AcDbSymbolTableRecord
100
AcDbLayerTableRecord
2
SK4
70
0
62
2
6
CENTER
290
1
370
-3
390
0
0
LAYER
5
1f6
100
AcDbSymbolTableRecord
100
AcDbLayerTableRecord
2
SK2
70
0
62
7
6
Continuous
290
1
370
-3
390
0
0
LAYER
5
1f7
100
AcDbSymbolTableRecord
100
AcDbLayerTableRecord
2
SK6
70
0
62
5
6
Continuous
290
1
370
-3
390
0
0
ENDTAB
0
TABLE
2
STYLE
5
20b
100
AcDbSymbolTable
0
STYLE
5
11
100
AcDbSymbolTableRecord
100
AcDbTextStyleTableRecord
2
Standard
3
txt
70
0
71
0
40
0
41
1
42
0
50
0
0
STYLE
5
102
100
AcDbSymbolTableRecord
100
AcDbTextStyleTableRecord
2
iso_b_vert
3
simplex.shx
70
0
71
0
40
0
41
1
42
0
50
0
0
STYLE
5
103
100
AcDbSymbolTableRecord
100
AcDbTextStyleTableRecord
2
DWGDirectTextStyle
3
simplex
70
0
71
0
40
0
41
1
42
0
50
0
0
ENDTAB
0
TABLE
2
DIMSTYLE
5
20c
100
AcDbSymbolTable
100
AcDbDimStyleTable
0
DIMSTYLE
105
27
100
AcDbSymbolTableRecord
100
AcDbDimStyleTableRecord
2
Standard
70
0
3
<>
41
0.18
42
0.0625
44
0.18
140
0.18
147
0.09
73
0
74
0
77
1
271
2
275
0
278
52
280
0
340
11
0
ENDTAB
0
TABLE
2
VIEW
5
20d
100
AcDbSymbolTable
0
ENDTAB
0
TABLE
2
UCS
5
20e
100
AcDbSymbolTable
0
ENDTAB
0
TABLE
2
APPID
5
20f
100
AcDbSymbolTable
0
APPID
5
12
100
AcDbSymbolTableRecord
100
AcDbRegAppTableRecord
2
ACAD
70
0
0
APPID
5
119
100
AcDbSymbolTableRecord
100
AcDbRegAppTableRecord
2
ACAD_DSTYLE_DIMBREAK
70
0
0
APPID
5
1B3
100
AcDbSymbolTableRecord
100
AcDbRegAppTableRecord
2
ACAD_DSTYLE_DIM_LINETYPE
70
0
0
APPID
5
1B4
100
AcDbSymbolTableRecord
100
AcDbRegAppTableRecord
2
ACAD_DSTYLE_DIM_EXT1_LINETYPE
70
0
0
APPID
5
1B5
100
AcDbSymbolTableRecord
100
AcDbRegAppTableRecord
2
ACAD_DSTYLE_DIM_EXT2_LINETYPE
70
0
0
APPID
5
1F0
100
AcDbSymbolTableRecord
100
AcDbRegAppTableRecord
2
ACAD_MLEADERVER
70
0
0
ENDTAB
0
TABLE
2
BLOCK_RECORD
5
210
100
AcDbSymbolTable
0
BLOCK_RECORD
5
1F
100
AcDbSymbolTableRecord
100
AcDbBlockTableRecord
2
*Model_Space
340
0
70
0
0
BLOCK_RECORD
5
1B
100
AcDbSymbolTableRecord
100
AcDbBlockTableRecord
2
*Paper_Space
340
0
70
0
0
BLOCK_RECORD
5
23
100
AcDbSymbolTableRecord
100
AcDbBlockTableRecord
2
*Paper_Space0
340
0
70
0
0
BLOCK_RECORD
5
11E
100
AcDbSymbolTableRecord
100
AcDbBlockTableRecord
2
*D1
340
0
70
0
0
BLOCK_RECORD
5
12A
100
AcDbSymbolTableRecord
100
AcDbBlockTableRecord
2
_U0
340
0
70
0
0
BLOCK_RECORD
5
136
100
AcDbSymbolTableRecord
100
AcDbBlockTableRecord
2
*D3
340
0
70
0
0
BLOCK_RECORD
5
142
100
AcDbSymbolTableRecord
100
AcDbBlockTableRecord
2
_U1
340
0
70
0
0
BLOCK_RECORD
5
14E
100
AcDbSymbolTableRecord
100
AcDbBlockTableRecord
2
*D5
340
0
70
0
0
BLOCK_RECORD
5
15A
100
AcDbSymbolTableRecord
100
AcDbBlockTableRecord
2
_U2
340
0
70
0
0
BLOCK_RECORD
5
166
100
AcDbSymbolTableRecord
100
AcDbBlockTableRecord
2
*D7
340
0
70
0
0
BLOCK_RECORD
5
174
100
AcDbSymbolTableRecord
100
AcDbBlockTableRecord
2
_U3
340
0
70
0
0
BLOCK_RECORD
5
180
100
AcDbSymbolTableRecord
100
AcDbBlockTableRecord
2
*D9
340
0
70
0
0
BLOCK_RECORD
5
18C
100
AcDbSymbolTableRecord
100
AcDbBlockTableRecord
2
_U4
340
0
70
0
0
ENDTAB
0
ENDSEC
0
SECTION
2
BLOCKS
0
BLOCK
5
20
100
AcDbEntity
8
0
100
AcDbBlockBegin
2
*Model_Space
70
0
10
0
20
0
30
0
3
*Model_Space
0
ENDBLK
5
21
100
AcDbEntity
8
0
100
AcDbBlockEnd
0
BLOCK
5
1C
100
AcDbEntity
8
0
100
AcDbBlockBegin
2
*Paper_Space
70
0
10
0
20
0
30
0
3
*Paper_Space
0
ENDBLK
5
1D
100
AcDbEntity
8
0
100
AcDbBlockEnd
0
BLOCK
5
24
100
AcDbEntity
8
0
100
AcDbBlockBegin
2
*Paper_Space0
70
0
10
0
20
0
30
0
3
*Paper_Space0
0
ENDBLK
5
25
100
AcDbEntity
8
0
100
AcDbBlockEnd
0
BLOCK
5
11F
100
AcDbEntity
8
0
100
AcDbBlockBegin
2
*D1
70
1
10
0
20
0
30
0
3
*D1
0
LINE
5
121
100
AcDbEntity
8
0
62
256
6
ByLayer
370
-2
48
1
60
0
100
AcDbLine
10
0
20
-1.5875
30
0
11
0
21
-16.813398
31
0
39
0
210
0
220
0
230
1
0
LINE
5
122
100
AcDbEntity
8
0
62
256
6
ByLayer
370
-2
48
1
60
0
100
AcDbLine
10
97.2392
20
-6.1875
30
0
11
97.2392
21
-16.813398
31
0
39
0
210
0
220
0
230
1
0
LINE
5
123
100
AcDbEntity
8
0
62
256
6
ByLayer
370
-2
48
1
60
0
100
AcDbLine
10
3.5
20
-14.813398
30
0
11
93.7392
21
-14.813398
31
0
39
0
210
0
220
0
230
1
0
SOLID
5
124
100
AcDbEntity
8
0
62
256
6
ByLayer
370
-1
48
1
60
0
100
AcDbTrace
10
3.5
20
-14.230065
30
0
11
3.5
21
-15.396732
31
0
12
0
22
-14.813398
32
0
13
0
23
-14.813398
33
0
39
0
210
0
220
0
230
1
0
SOLID
5
125
100
AcDbEntity
8
0
62
256
6
ByLayer
370
-1
48
1
60
0
100
AcDbTrace
10
93.7392
20
-15.396732
30
0
11
93.7392
21
-14.230065
31
0
12
97.2392
22
-14.813398
32
0
13
97.2392
23
-14.813398
33
0
39
0
210
0
220
0
230
1
0
MTEXT
5
126
100
AcDbEntity
8
0
62
256
6
ByLayer
370
18
48
1
60
0
100
AcDbMText
10
48.6196
20
-7.813398
30
0
210
0
220
0
230
1
1
\A1;97.24
40
3.5
41
0
44
1
50
0
71
5
72
5
7
iso_b_vert
0
POINT
5
127
100
AcDbEntity
8
Defpoints
62
0
6
ByLayer
370
-1
48
1
60
0
100
AcDbPoint
10
0
20
0
30
0
39
0
210
0
220
0
230
1
50
360
0
POINT
5
128
100
AcDbEntity
8
Defpoints
62
0
6
ByLayer
370
-1
48
1
60
0
100
AcDbPoint
10
97.2392
20
-4.6
30
0
39
0
210
0
220
0
230
1
50
360
0
POINT
5
129
100
AcDbEntity
8
Defpoints
62
0
6
ByLayer
370
-1
48
1
60
0
100
AcDbPoint
10
97.2392
20
-14.813398
30
0
39
0
210
0
220
0
230
1
50
360
0
ENDBLK
5
120
100
AcDbEntity
8
0
100
AcDbBlockEnd
0
BLOCK
5
131
100
AcDbEntity
8
0
100
AcDbBlockBegin
2
_U0
70
0
10
0
20
0
30
0
3
_U0
0
MTEXT
5
12B
100
AcDbEntity
8
2
62
256
6
ByLayer
370
13
48
1
60
0
100
AcDbMText
10
43.298035
20
-13.780765
30
0
210
0
220
0
230
1
1
\W0.7495;97,24
40
3.5
41
0
44
1.084337
50
0
71
7
72
5
7
iso_b_vert
0
LINE
5
12C
100
AcDbEntity
8
2
62
256
6
ByLayer
370
13
48
1
60
0
100
AcDbLine
10
0
20
-1.5875
30
0
11
0
21
-16.813398
31
0
39
0
210
0
220
0
230
1
0
LINE
5
12D
100
AcDbEntity
8
2
62
256
6
ByLayer
370
13
48
1
60
0
100
AcDbLine
10
97.2392
20
-6.1875
30
0
11
97.2392
21
-16.813398
31
0
39
0
210
0
220
0
230
1
0
LINE
5
12E
100
AcDbEntity
8
2
62
256
6
ByLayer
370
13
48
1
60
0
100
AcDbLine
10
0
20
-14.813398
30
0
11
97.2392
21
-14.813398
31
0
39
0
210
0
220
0
230
1
0
SOLID
5
12F
100
AcDbEntity
8
2
62
256
6
ByLayer
370
18
48
1
60
0
100
AcDbTrace
10
0
20
-14.813398
30
0
11
3.499998
21
-14.352615
31
0
12
3.500002
22
-15.274182
32
0
13
3.500002
23
-15.274182
33
0
39
0
210
0
220
0
230
1
0
SOLID
5
130
100
AcDbEntity
8
2
62
256
6
ByLayer
370
18
48
1
60
0
100
AcDbTrace
10
97.2392
20
-14.813398
30
0
11
93.739202
21
-15.274182
31
0
12
93.739198
22
-14.352615
32
0
13
93.739198
23
-14.352615
33
0
39
0
210
0
220
0
230
1
0
ENDBLK
5
132
100
AcDbEntity
8
0
100
AcDbBlockEnd
0
BLOCK
5
137
100
AcDbEntity
8
0
100
AcDbBlockBegin
2
*D3
70
1
10
0
20
0
30
0
3
*D3
0
LINE
5
139
100
AcDbEntity
8
0
62
256
6
ByLayer
370
-2
48
1
60
0
100
AcDbLine
10
-40
20
-6.5875
30
0
11
-40
21
-35.692985
31
0
39
0
210
0
220
0
230
1
0
LINE
5
13A
100
AcDbEntity
8
0
62
256
6
ByLayer
370
-2
48
1
60
0
100
AcDbLine
10
99
20
-1.5875
30
0
11
99
21
-35.692985
31
0
39
0
210
0
220
0
230
1
0
LINE
5
13B
100
AcDbEntity
8
0
62
256
6
ByLayer
370
-2
48
1
60
0
100
AcDbLine
10
-36.5
20
-33.692985
30
0
11
95.5
21
-33.692985
31
0
39
0
210
0
220
0
230
1
0
SOLID
5
13C
100
AcDbEntity
8
0
62
256
6
ByLayer
370
-1
48
1
60
0
100
AcDbTrace
10
-36.5
20
-33.109652
30
0
11
-36.5
21
-34.276319
31
0
12
-40
22
-33.692985
32
0
13
-40
23
-33.692985
33
0
39
0
210
0
220
0
230
1
0
SOLID
5
13D
100
AcDbEntity
8
0
62
256
6
ByLayer
370
-1
48
1
60
0
100
AcDbTrace
10
95.5
20
-34.276319
30
0
11
95.5
21
-33.109652
31
0
12
99
22
-33.692985
32
0
13
99
23
-33.692985
33
0
39
0
210
0
220
0
230
1
0
MTEXT
5
13E
100
AcDbEntity
8
0
62
256
6
ByLayer
370
18
48
1
60
0
100
AcDbMText
10
29.5
20
-26.692985
30
0
210
0
220
0
230
1
1
\A1;139.00
40
3.5
41
0
44
1
50
0
71
5
72
5
7
iso_b_vert
0
POINT
5
13F
100
AcDbEntity
8
Defpoints
62
0
6
ByLayer
370
-1
48
1
60
0
100
AcDbPoint
10
-40
20
-5
30
0
39
0
210
0
220
0
230
1
50
360
0
POINT
5
140
100
AcDbEntity
8
Defpoints
62
0
6
ByLayer
370
-1
48
1
60
0
100
AcDbPoint
10
99
20
0
30
0
39
0
210
0
220
0
230
1
50
360
0
POINT
5
141
100
AcDbEntity
8
Defpoints
62
0
6
ByLayer
370
-1
48
1
60
0
100
AcDbPoint
10
99
20
-33.692985
30
0
39
0
210
0
220
0
230
1
50
360
0
ENDBLK
5
138
100
AcDbEntity
8
0
100
AcDbBlockEnd
0
BLOCK
5
149
100
AcDbEntity
8
0
100
AcDbBlockBegin
2
_U1
70
0
10
0
20
0
30
0
3
_U1
0
MTEXT
5
143
100
AcDbEntity
8
SK2
62
256
6
ByLayer
370
13
48
1
60
0
100
AcDbMText
10
23.492401
20
-32.660352
30
0
210
0
220
0
230
1
1
\W0.6930;139,00
40
3.5
41
0
44
1.084337
50
0
71
7
72
5
7
iso_b_vert
0
LINE
5
144
100
AcDbEntity
8
SK2
62
256
6
ByLayer
370
13
48
1
60
0
100
AcDbLine
10
-40
20
-6.5875
30
0
11
-40
21
-35.692985
31
0
39
0
210
0
220
0
230
1
0
LINE
5
145
100
AcDbEntity
8
SK2
62
256
6
ByLayer
370
13
48
1
60
0
100
AcDbLine
10
99
20
-1.5875
30
0
11
99
21
-35.692985
31
0
39
0
210
0
220
0
230
1
0
LINE
5
146
100
AcDbEntity
8
SK2
62
256
6
ByLayer
370
13
48
1
60
0
100
AcDbLine
10
-40
20
-33.692985
30
0
11
99
21
-33.692985
31
0
39
0
210
0
220
0
230
1
0
SOLID
5
147
100
AcDbEntity
8
SK2
62
256
6
ByLayer
370
18
48
1
60
0
100
AcDbTrace
10
-40
20
-33.692985
30
0
11
-36.500002
21
-33.232202
31
0
12
-36.499998
22
-34.153769
32
0
13
-36.499998
23
-34.153769
33
0
39
0
210
0
220
0
230
1
0
SOLID
5
148
100
AcDbEntity
8
SK2
62
256
6
ByLayer
370
18
48
1
60
0
100
AcDbTrace
10
99
20
-33.692985
30
0
11
95.500002
21
-34.153769
31
0
12
95.499998
22
-33.232202
32
0
13
95.499998
23
-33.232202
33
0
39
0
210
0
220
0
230
1
0
ENDBLK
5
14A
100
AcDbEntity
8
0
100
AcDbBlockEnd
0
BLOCK
5
14F
100
AcDbEntity
8
0
100
AcDbBlockBegin
2
*D5
70
1
10
0
20
0
30
0
3
*D5
0
LINE
5
151
100
AcDbEntity
8
0
62
256
6
ByLayer
370
-2
48
1
60
0
100
AcDbLine
10
23.64
20
6.1875
30
0
11
23.64
21
18.209119
31
0
39
0
210
0
220
0
230
1
0
LINE
5
152
100
AcDbEntity
8
0
62
256
6
ByLayer
370
-2
48
1
60
0
100
AcDbLine
10
99
20
1.5875
30
0
11
99
21
18.209119
31
0
39
0
210
0
220
0
230
1
0
LINE
5
153
100
AcDbEntity
8
0
62
256
6
ByLayer
370
-2
48
1
60
0
100
AcDbLine
10
27.14
20
16.209119
30
0
11
95.5
21
16.209119
31
0
39
0
210
0
220
0
230
1
0
SOLID
5
154
100
AcDbEntity
8
0
62
256
6
ByLayer
370
-1
48
1
60
0
100
AcDbTrace
10
27.14
20
16.792453
30
0
11
27.14
21
15.625786
31
0
12
23.64
22
16.209119
32
0
13
23.64
23
16.209119
33
0
39
0
210
0
220
0
230
1
0
SOLID
5
155
100
AcDbEntity
8
0
62
256
6
ByLayer
370
-1
48
1
60
0
100
AcDbTrace
10
95.5
20
15.625786
30
0
11
95.5
21
16.792453
31
0
12
99
22
16.209119
32
0
13
99
23
16.209119
33
0
39
0
210
0
220
0
230
1
0
MTEXT
5
156
100
AcDbEntity
8
0
62
256
6
ByLayer
370
18
48
1
60
0
100
AcDbMText
10
61.32
20
23.209119
30
0
210
0
220
0
230
1
1
\A1;75.36
40
3.5
41
0
44
1
50
0
71
5
72
5
7
iso_b_vert
0
POINT
5
157
100
AcDbEntity
8
Defpoints
62
0
6
ByLayer
370
-1
48
1
60
0
100
AcDbPoint
10
23.64
20
4.6
30
0
39
0
210
0
220
0
230
1
50
360
0
POINT
5
158
100
AcDbEntity
8
Defpoints
62
0
6
ByLayer
370
-1
48
1
60
0
100
AcDbPoint
10
99
20
0
30
0
39
0
210
0
220
0
230
1
50
360
0
POINT
5
159
100
AcDbEntity
8
Defpoints
62
0
6
ByLayer
370
-1
48
1
60
0
100
AcDbPoint
10
99
20
16.209119
30
0
39
0
210
0
220
0
230
1
50
360
0
ENDBLK
5
150
100
AcDbEntity
8
0
100
AcDbBlockEnd
0
BLOCK
5
161
100
AcDbEntity
8
0
100
AcDbBlockBegin
2
_U2
70
0
10
0
20
0
30
0
3
_U2
0
MTEXT
5
15B
100
AcDbEntity
8
SK2
62
256
6
ByLayer
370
13
48
1
60
0
100
AcDbMText
10
56.182701
20
17.241753
30
0
210
0
220
0
230
1
1
\W0.7317;75,36
40
3.5
41
0
44
1.084337
50
0
71
7
72
5
7
iso_b_vert
0
LINE
5
15C
100
AcDbEntity
8
SK2
62
256
6
ByLayer
370
13
48
1
60
0
100
AcDbLine
10
23.64
20
6.1875
30
0
11
23.64
21
18.209119
31
0
39
0
210
0
220
0
230
1
0
LINE
5
15D
100
AcDbEntity
8
SK2
62
256
6
ByLayer
370
13
48
1
60
0
100
AcDbLine
10
99
20
1.5875
30
0
11
99
21
18.209119
31
0
39
0
210
0
220
0
230
1
0
LINE
5
15E
100
AcDbEntity
8
SK2
62
256
6
ByLayer
370
13
48
1
60
0
100
AcDbLine
10
23.64
20
16.209119
30
0
11
99
21
16.209119
31
0
39
0
210
0
220
0
230
1
0
SOLID
5
15F
100
AcDbEntity
8
SK2
62
256
6
ByLayer
370
18
48
1
60
0
100
AcDbTrace
10
23.64
20
16.209119
30
0
11
27.139998
21
16.669903
31
0
12
27.140002
22
15.748335
32
0
13
27.140002
23
15.748335
33
0
39
0
210
0
220
0
230
1
0
SOLID
5
160
100
AcDbEntity
8
SK2
62
256
6
ByLayer
370
18
48
1
60
0
100
AcDbTrace
10
99
20
16.209119
30
0
11
95.500002
21
15.748335
31
0
12
95.499998
22
16.669903
32
0
13
95.499998
23
16.669903
33
0
39
0
210
0
220
0
230
1
0
ENDBLK
5
162
100
AcDbEntity
8
0
100
AcDbBlockEnd
0
BLOCK
5
167
100
AcDbEntity
8
0
100
AcDbBlockBegin
2
*D7
70
1
10
0
20
0
30
0
3
*D7
0
LINE
5
169
100
AcDbEntity
8
0
62
256
6
ByLayer
370
-2
48
1
60
0
100
AcDbLine
10
99
20
-1.5875
30
0
11
99
21
-19.402503
31
0
39
0
210
0
220
0
230
1
0
LINE
5
16A
100
AcDbEntity
8
0
62
256
6
ByLayer
370
-2
48
1
60
0
100
AcDbLine
10
97.2392
20
-6.1875
30
0
11
97.2392
21
-19.402503
31
0
39
0
210
0
220
0
230
1
0
LINE
5
16B
100
AcDbEntity
8
0
62
256
6
ByLayer
370
-2
48
1
60
0
100
AcDbLine
10
99
20
-17.402503
30
0
11
126.666667
21
-17.402503
31
0
39
0
210
0
220
0
230
1
0
LINE
5
16C
100
AcDbEntity
8
0
62
256
6
ByLayer
370
-2
48
1
60
0
100
AcDbLine
10
102.5
20
-17.402503
30
0
11
106
21
-17.402503
31
0
39
0
210
0
220
0
230
1
0
LINE
5
16D
100
AcDbEntity
8
0
62
256
6
ByLayer
370
-2
48
1
60
0
100
AcDbLine
10
93.7392
20
-17.402503
30
0
11
90.2392
21
-17.402503
31
0
39
0
210
0
220
0
230
1
0
SOLID
5
16E
100
AcDbEntity
8
0
62
256
6
ByLayer
370
-1
48
1
60
0
100
AcDbTrace
10
102.5
20
-16.81917
30
0
11
102.5
21
-17.985837
31
0
12
99
22
-17.402503
32
0
13
99
23
-17.402503
33
0
39
0
210
0
220
0
230
1
0
SOLID
5
16F
100
AcDbEntity
8
0
62
256
6
ByLayer
370
-1
48
1
60
0
100
AcDbTrace
10
93.7392
20
-17.985837
30
0
11
93.7392
21
-16.81917
31
0
12
97.2392
22
-17.402503
32
0
13
97.2392
23
-17.402503
33
0
39
0
210
0
220
0
230
1
0
MTEXT
5
170
100
AcDbEntity
8
0
62
256
6
ByLayer
370
18
48
1
60
0
100
AcDbMText
10
116.333333
20
-10.402503
30
0
210
0
220
0
230
1
1
\A1;1.76
40
3.5
41
0
44
1
50
0
71
5
72
5
7
iso_b_vert
0
POINT
5
171
100
AcDbEntity
8
Defpoints
62
0
6
ByLayer
370
-1
48
1
60
0
100
AcDbPoint
10
99
20
0
30
0
39
0
210
0
220
0
230
1
50
360
0
POINT
5
172
100
AcDbEntity
8
Defpoints
62
0
6
ByLayer
370
-1
48
1
60
0
100
AcDbPoint
10
97.2392
20
-4.6
30
0
39
0
210
0
220
0
230
1
50
360
0
POINT
5
173
100
AcDbEntity
8
Defpoints
62
0
6
ByLayer
370
-1
48
1
60
0
100
AcDbPoint
10
97.2392
20
-17.402503
30
0
39
0
210
0
220
0
230
1
50
360
0
ENDBLK
5
168
100
AcDbEntity
8
0
100
AcDbBlockEnd
0
BLOCK
5
17B
100
AcDbEntity
8
0
100
AcDbBlockBegin
2
_U3
70
0
10
0
20
0
30
0
3
_U3
0
MTEXT
5
175
100
AcDbEntity
8
SK2
62
256
6
ByLayer
370
13
48
1
60
0
100
AcDbMText
10
105.589293
20
-16.36987
30
0
210
0
220
0
230
1
1
\W0.6367;1,76
40
3.5
41
0
44
1.084337
50
0
71
7
72
5
7
iso_b_vert
0
LINE
5
176
100
AcDbEntity
8
SK2
62
256
6
ByLayer
370
13
48
1
60
0
100
AcDbLine
10
99
20
-1.5875
30
0
11
99
21
-19.402503
31
0
39
0
210
0
220
0
230
1
0
LINE
5
177
100
AcDbEntity
8
SK2
62
256
6
ByLayer
370
13
48
1
60
0
100
AcDbLine
10
97.2392
20
-6.1875
30
0
11
97.2392
21
-19.402503
31
0
39
0
210
0
220
0
230
1
0
LINE
5
178
100
AcDbEntity
8
SK2
62
256
6
ByLayer
370
13
48
1
60
0
100
AcDbLine
10
88.4892
20
-17.402503
30
0
11
112.559058
21
-17.402503
31
0
39
0
210
0
220
0
230
1
0
SOLID
5
179
100
AcDbEntity
8
SK2
62
256
6
ByLayer
370
18
48
1
60
0
100
AcDbTrace
10
99
20
-17.402503
30
0
11
102.499998
21
-16.941719
31
0
12
102.500002
22
-17.863287
32
0
13
102.500002
23
-17.863287
33
0
39
0
210
0
220
0
230
1
0
SOLID
5
17A
100
AcDbEntity
8
SK2
62
256
6
ByLayer
370
18
48
1
60
0
100
AcDbTrace
10
97.2392
20
-17.402503
30
0
11
93.739202
21
-17.863287
31
0
12
93.739198
22
-16.941719
32
0
13
93.739198
23
-16.941719
33
0
39
0
210
0
220
0
230
1
0
ENDBLK
5
17C
100
AcDbEntity
8
0
100
AcDbBlockEnd
0
BLOCK
5
181
100
AcDbEntity
8
0
100
AcDbBlockBegin
2
*D9
70
1
10
0
20
0
30
0
3
*D9
0
LINE
5
183
100
AcDbEntity
8
0
62
256
6
ByLayer
370
-2
48
1
60
0
100
AcDbLine
10
-40
20
-6.5875
30
0
11
-40
21
-25.343428
31
0
39
0
210
0
220
0
230
1
0
LINE
5
184
100
AcDbEntity
8
0
62
256
6
ByLayer
370
-2
48
1
60
0
100
AcDbLine
10
97.2392
20
-6.1875
30
0
11
97.2392
21
-25.343428
31
0
39
0
210
0
220
0
230
1
0
LINE
5
185
100
AcDbEntity
8
0
62
256
6
ByLayer
370
-2
48
1
60
0
100
AcDbLine
10
-36.5
20
-23.343428
30
0
11
93.7392
21
-23.343428
31
0
39
0
210
0
220
0
230
1
0
SOLID
5
186
100
AcDbEntity
8
0
62
256
6
ByLayer
370
-1
48
1
60
0
100
AcDbTrace
10
-36.5
20
-22.760095
30
0
11
-36.5
21
-23.926762
31
0
12
-40
22
-23.343428
32
0
13
-40
23
-23.343428
33
0
39
0
210
0
220
0
230
1
0
SOLID
5
187
100
AcDbEntity
8
0
62
256
6
ByLayer
370
-1
48
1
60
0
100
AcDbTrace
10
93.7392
20
-23.926762
30
0
11
93.7392
21
-22.760095
31
0
12
97.2392
22
-23.343428
32
0
13
97.2392
23
-23.343428
33
0
39
0
210
0
220
0
230
1
0
MTEXT
5
188
100
AcDbEntity
8
0
62
256
6
ByLayer
370
18
48
1
60
0
100
AcDbMText
10
28.6196
20
-16.343428
30
0
210
0
220
0
230
1
1
\A1;137.24
40
3.5
41
0
44
1
50
0
71
5
72
5
7
iso_b_vert
0
POINT
5
189
100
AcDbEntity
8
Defpoints
62
0
6
ByLayer
370
-1
48
1
60
0
100
AcDbPoint
10
-40
20
-5
30
0
39
0
210
0
220
0
230
1
50
360
0
POINT
5
18A
100
AcDbEntity
8
Defpoints
62
0
6
ByLayer
370
-1
48
1
60
0
100
AcDbPoint
10
97.2392
20
-4.6
30
0
39
0
210
0
220
0
230
1
50
360
0
POINT
5
18B
100
AcDbEntity
8
Defpoints
62
0
6
ByLayer
370
-1
48
1
60
0
100
AcDbPoint
10
97.2392
20
-23.343428
30
0
39
0
210
0
220
0
230
1
50
360
0
ENDBLK
5
182
100
AcDbEntity
8
0
100
AcDbBlockEnd
0
BLOCK
5
193
100
AcDbEntity
8
0
100
AcDbBlockBegin
2
_U4
70
0
10
0
20
0
30
0
3
_U4
0
MTEXT
5
18D
100
AcDbEntity
8
SK2
62
256
6
ByLayer
370
13
48
1
60
0
100
AcDbMText
10
22.427735
20
-22.310795
30
0
210
0
220
0
230
1
1
\W0.7079;137,24
40
3.5
41
0
44
1.084337
50
0
71
7
72
5
7
iso_b_vert
0
LINE
5
18E
100
AcDbEntity
8
SK2
62
256
6
ByLayer
370
13
48
1
60
0
100
AcDbLine
10
-40
20
-6.5875
30
0
11
-40
21
-25.343428
31
0
39
0
210
0
220
0
230
1
0
LINE
5
18F
100
AcDbEntity
8
SK2
62
256
6
ByLayer
370
13
48
1
60
0
100
AcDbLine
10
97.2392
20
-6.1875
30
0
11
97.2392
21
-25.343428
31
0
39
0
210
0
220
0
230
1
0
LINE
5
190
100
AcDbEntity
8
SK2
62
256
6
ByLayer
370
13
48
1
60
0
100
AcDbLine
10
-40
20
-23.343428
30
0
11
97.2392
21
-23.343428
31
0
39
0
210
0
220
0
230
1
0
SOLID
5
191
100
AcDbEntity
8
SK2
62
256
6
ByLayer
370
18
48
1
60
0
100
AcDbTrace
10
-40
20
-23.343428
30
0
11
-36.500002
21
-22.882645
31
0
12
-36.499998
22
-23.804212
32
0
13
-36.499998
23
-23.804212
33
0
39
0
210
0
220
0
230
1
0
SOLID
5
192
100
AcDbEntity
8
SK2
62
256
6
ByLayer
370
18
48
1
60
0
100
AcDbTrace
10
97.2392
20
-23.343428
30
0
11
93.739202
21
-23.804212
31
0
12
93.739198
22
-22.882645
32
0
13
93.739198
23
-22.882645
33
0
39
0
210
0
220
0
230
1
0
ENDBLK
5
194
100
AcDbEntity
8
0
100
AcDbBlockEnd
0
ENDSEC
0
SECTION
2
ENTITIES
0
ARC
5
A9
100
AcDbEntity
8
1
62
256
6
ByLayer
370
18
48
1
60
0
100
AcDbCircle
39
0
10
1.27251
20
-5.277261
30
0
40
0.849999999999997
210
0
220
0
230
1
100
AcDbArc
50
89.896868
51
138.463663
0
ARC
5
AA
100
AcDbEntity
8
1
62
256
6
ByLayer
370
18
48
1
60
0
100
AcDbCircle
39
0
10
1.27251
20
5.277261
30
0
40
0.849999999999997
210
0
220
0
230
1
100
AcDbArc
50
221.536337
51
270.103132
0
ARC
5
AB
100
AcDbEntity
8
1
62
256
6
ByLayer
370
18
48
1
60
0
100
AcDbCircle
39
0
10
0
20
-4.15
30
0
40
0.850000000000002
210
0
220
0
230
1
100
AcDbArc
50
270
51
318.463663
0
ARC
5
AC
100
AcDbEntity
8
1
62
256
6
ByLayer
370
18
48
1
60
0
100
AcDbCircle
39
0
10
0
20
4.15
30
0
40
0.850000000000002
210
0
220
0
230
1
100
AcDbArc
50
41.536337
51
90
0
ELLIPSE
5
AD
100
AcDbEntity
8
1
62
256
6
ByLayer
370
13
48
1
60
0
100
AcDbEllipse
10
14.30231
20
-60.912468
30
0
11
50.5136399542322
21
54.412283083545
31
0
210
0
220
0
230
1
40
0.689046
41
1.05658584432515
42
1.06336059627175
0
ELLIPSE
5
AE
100
AcDbEntity
8
1
62
256
6
ByLayer
370
13
48
1
60
0
100
AcDbEllipse
10
143.194174
20
42.140273
30
0
11
-60.7999999999998
21
7.44560663124003E-15
31
0
210
0
220
0
230
1
40
0.99863
41
0.730020570890765
42
0.752057440514495
0
ELLIPSE
5
AF
100
AcDbEntity
8
1
62
256
6
ByLayer
370
13
48
1
60
0
100
AcDbEllipse
10
15.964968
20
62.455997
30
0
11
-50.5136399542321
21
54.412283083545
31
0
210
0
220
0
230
1
40
0.689046
41
2.13962305599709
42
2.20930356152817
0
ELLIPSE
5
B0
100
AcDbEntity
8
1
62
256
6
ByLayer
370
13
48
1
60
0
100
AcDbEllipse
10
6.19412
20
-0.743276
30
0
11
0.139803754960797
21
0.265433438170215
31
0
210
0
220
0
230
1
40
0.074151
41
1.42695250479636
42
2.3214305279191
0
ELLIPSE
5
B1
100
AcDbEntity
8
1
62
256
6
ByLayer
370
18
48
1
60
0
100
AcDbEllipse
10
6.192809
20
5.319846
30
0
11
-1
21
1.22460635382238E-16
31
0
210
0
220
0
230
1
40
1
41
1.09145860064146
42
1.52552831077142
0
ELLIPSE
5
B2
100
AcDbEntity
8
1
62
256
6
ByLayer
370
18
48
1
60
0
100
AcDbEllipse
10
6.192809
20
-5.319846
30
0
11
-1
21
1.22460635382238E-16
31
0
210
0
220
0
230
1
40
1
41
-1.52622451400818
42
-1.09198202361659
0
POINT
5
70
100
AcDbEntity
8
80
62
256
6
ByLayer
370
18
48
1
60
0
100
AcDbPoint
10
0
20
0
30
0
39
0
210
0
220
0
230
1
50
360
0
POINT
5
72
100
AcDbEntity
8
81
62
256
6
ByLayer
370
18
48
1
60
0
100
AcDbPoint
10
99
20
0
30
0
39
0
210
0
220
0
230
1
50
360
0
POINT
5
74
100
AcDbEntity
8
1
62
256
6
ByLayer
370
18
48
1
60
1
100
AcDbPoint
10
97.2392
20
-4.6
30
0
39
0
210
0
220
0
230
1
50
360
0
POINT
5
76
100
AcDbEntity
8
1
62
256
6
ByLayer
370
18
48
1
60
1
100
AcDbPoint
10
-40
20
-5
30
0
39
0
210
0
220
0
230
1
50
360
0
POINT
5
77
100
AcDbEntity
8
1
62
256
6
ByLayer
370
18
48
1
60
1
100
AcDbPoint
10
23.64
20
4.6
30
0
39
0
210
0
220
0
230
1
50
360
0
POINT
5
78
100
AcDbEntity
8
1
62
256
6
ByLayer
370
18
48
1
60
1
100
AcDbPoint
10
97.2392
20
-4.6
30
0
39
0
210
0
220
0
230
1
50
360
0
POINT
5
79
100
AcDbEntity
8
1
62
256
6
ByLayer
370
18
48
1
60
1
100
AcDbPoint
10
-40
20
-5
30
0
39
0
210
0
220
0
230
1
50
360
0
POINT
5
7A
100
AcDbEntity
8
1
62
256
6
ByLayer
370
18
48
1
60
1
100
AcDbPoint
10
97.2392
20
-4.6
30
0
39
0
210
0
220
0
230
1
50
360
0
SPLINE
5
B3
100
AcDbEntity
8
1
62
256
6
ByLayer
370
18
48
1
60
0
100
AcDbSpline
70
4
71
3
72
8
73
4
40
0
40
0
40
0
40
0
40
1
40
1
40
1
40
1
41
1
10
98.7928525108898
20
-0.662118219743491
30
0
41
1
10
98.5226068686173
20
-1.43867372944584
30
0
41
1
10
98.2548469847801
20
-2.21607965097527
30
0
41
1
10
97.9895892824594
20
-2.99434160289172
30
0
0
SPLINE
5
B4
100
AcDbEntity
8
1
62
256
6
ByLayer
370
18
48
1
60
0
100
AcDbSpline
70
4
71
3
72
8
73
4
40
0
40
0
40
0
40
0
40
1
40
1
40
1
40
1
41
1
10
98.3038813918232
20
-1.05562241000564
30
0
41
1
10
98.3052535059665
20
-1.0554747632421
30
0
41
1
10
98.3066283268307
20
-1.05531652193898
30
0
41
1
10
98.3080058646104
20
-1.05514764619258
30
0
0
SPLINE
5
B5
100
AcDbEntity
8
1
62
256
6
ByLayer
370
18
48
1
60
0
100
AcDbSpline
70
4
71
3
72
22
73
18
40
0
40
0
40
0
40
0
40
0.0324969792156427
40
0.0324969792156427
40
0.225997583372514
40
0.225997583372514
40
0.419498187529385
40
0.419498187529385
40
0.612998791686257
40
0.612998791686257
40
0.709749093764693
40
0.709749093764693
40
0.806499395843128
40
0.806499395843128
40
0.903249697921564
40
0.903249697921564
40
1
40
1
40
1
40
1
41
1
10
97.0039293410491
20
0.393140356821419
30
0
41
1
10
97.0089151648718
20
0.400157550088409
30
0
41
1
10
97.0141165686099
20
0.407488311568471
30
0
41
1
10
97.0517646887592
20
0.460685634578283
30
0
41
1
10
97.0906430222928
20
0.516298771925392
30
0
41
1
10
97.1791613138382
20
0.645935588048701
30
0
41
1
10
97.229615432021
20
0.721192826742794
30
0
41
1
10
97.3376729499292
20
0.884455053131347
30
0
41
1
10
97.3953876367502
20
0.972675493750074
30
0
41
1
10
97.4887879685538
20
1.1139742910988
30
0
41
1
10
97.52095112661
20
1.16236596473559
30
0
41
1
10
97.5866741136978
20
1.25961769106701
30
0
41
1
10
97.6203829366704
20
1.30872633480342
30
0
41
1
10
97.6903950650382
20
1.40725664534179
30
0
41
1
10
97.7266703618486
20
1.4566967705027
30
0
41
1
10
97.8036447187857
20
1.55469109931178
30
0
41
1
10
97.8444293366128
20
1.60340744275754
30
0
41
1
10
97.8884042318024
20
1.64923528931661
30
0
0
SPLINE
5
B6
100
AcDbEntity
8
1
62
256
6
ByLayer
370
18
48
1
60
0
100
AcDbSpline
70
4
71
3
72
10
73
6
40
0
40
0
40
0
40
0
40
0.5
40
0.5
40
1
40
1
40
1
40
1
41
1
10
97.3727173360548
20
-4.55520554519711
30
0
41
1
10
97.4742947281976
20
-4.30572576417941
30
0
41
1
10
97.577116816432
20
-4.05126652384467
30
0
41
1
10
97.7834460330345
20
-3.53152288058055
30
0
41
1
10
97.8869308491719
20
-3.26612371607251
30
0
41
1
10
97.9895892824593
20
-2.99434160289141
30
0
0
SPLINE
5
B7
100
AcDbEntity
8
1
62
256
6
ByLayer
370
18
48
1
60
0
100
AcDbSpline
70
4
71
3
72
8
73
4
40
0
40
0
40
0
40
0
40
1
40
1
40
1
40
1
41
1
10
98.9997779848152
20
0.0853628325639022
30
0
41
1
10
99.0000740050357
20
0.0284542775212913
30
0
41
1
10
99.0000740050356
20
-0.0284542775212913
30
0
41
1
10
98.9997779848152
20
-0.0853628325639022
30
0
0
SPLINE
5
B8
100
AcDbEntity
8
1
62
256
6
ByLayer
370
18
48
1
60
0
100
AcDbSpline
70
4
71
3
72
18
73
14
40
0
40
0
40
0
40
0
40
0.249999999999999
40
0.249999999999999
40
0.374999999999999
40
0.374999999999999
40
0.499999999999999
40
0.499999999999999
40
0.749999999999998
40
0.749999999999998
40
0.874999999999999
40
0.874999999999999
40
1
40
1
40
1
40
1
41
1
10
97.2738354157664
20
-4.26585461909298
30
0
41
1
10
97.1874316936051
20
-4.18521314326665
30
0
41
1
10
97.1107431309924
20
-4.08306073440005
30
0
41
1
10
97.0107738182693
20
-3.89647902902794
30
0
41
1
10
96.9799750747075
20
-3.82869578480074
30
0
41
1
10
96.9237006234374
20
-3.68134323485705
30
0
41
1
10
96.8982735579732
20
-3.60170148791841
30
0
41
1
10
96.831921194636
20
-3.35009958802235
30
0
41
1
10
96.8001548445317
20
-3.16395606464164
30
0
41
1
10
96.7716953326512
20
-2.85640811567129
30
0
41
1
10
96.7654182387842
20
-2.74876259062151
30
0
41
1
10
96.7596723346504
20
-2.52519773940392
30
0
41
1
10
96.7602007562265
20
-2.41012732997982
30
0
41
1
10
96.7640891488038
20
-2.29180895916363
30
0
0
SPLINE
5
B9
100
AcDbEntity
8
1
62
256
6
ByLayer
370
13
48
1
60
0
100
AcDbSpline
70
4
71
3
72
34
73
30
40
0
40
0
40
0
40
0
40
0.135620880116747
40
0.135620880116747
40
0.271241760233495
40
0.271241760233495
40
0.30514698026268
40
0.30514698026268
40
0.339052200291865
40
0.339052200291865
40
0.406862640350235
40
0.406862640350235
40
0.542483520466976
40
0.542483520466976
40
0.576388740496162
40
0.576388740496162
40
0.610293960525348
40
0.610293960525348
40
0.67810440058372
40
0.67810440058372
40
0.813725280700464
40
0.813725280700464
40
0.881535720758837
40
0.881535720758837
40
0.915440940788024
40
0.915440940788024
40
0.949346160817212
40
0.949346160817212
40
1
40
1
40
1
40
1
41
1
10
97.2738354157665
20
-4.26585461909301
30
0
41
1
10
96.3233387323873
20
-4.11286669022351
30
0
41
1
10
95.3828056597832
20
-3.88466316812898
30
0
41
1
10
93.5013159314724
20
-3.30114710393366
30
0
41
1
10
92.5603054852386
20
-2.94590003491746
30
0
41
1
10
91.3705424451792
20
-2.43870498564226
30
0
41
1
10
91.1319377507619
20
-2.33411143997108
30
0
41
1
10
90.6570802919172
20
-2.12090216874833
30
0
41
1
10
90.4202922579025
20
-2.0121311078467
30
0
41
1
10
89.7113657955548
20
-1.6802985982151
30
0
41
1
10
89.2407053841841
20
-1.45164505045975
30
0
41
1
10
87.8306589270084
20
-0.750912322839639
30
0
41
1
10
86.8933289891746
20
-0.263784680793492
30
0
41
1
10
85.7119171506205
20
0.344242614943511
30
0
41
1
10
85.4751762418049
20
0.46584525655453
30
0
41
1
10
85.000395293257
20
0.708318082382107
30
0
41
1
10
84.7619330506436
20
0.829400756967488
30
0
41
1
10
84.0471655244959
20
1.18896390994138
30
0
41
1
10
83.5733791265961
20
1.42276188738796
30
0
41
1
10
82.15599055487
20
2.09973965741776
30
0
41
1
10
81.2164480529432
20
2.51868858569676
30
0
41
1
10
79.7997126350534
20
3.0716267211348
30
0
41
1
10
79.3262102961613
20
3.24332396695817
30
0
41
1
10
78.6121065790951
20
3.47900115872236
30
0
41
1
10
78.3731767357576
20
3.55403948925525
30
0
41
1
10
77.8973378542485
20
3.69516551434575
30
0
41
1
10
77.6600212370798
20
3.76141785579315
30
0
41
1
10
77.0692564079812
20
3.91553903308673
30
0
41
1
10
76.7163690285666
20
3.99791929678287
30
0
41
1
10
76.363933564897
20
4.07004877624794
30
0
0
SPLINE
5
BA
100
AcDbEntity
8
1
62
256
6
ByLayer
370
18
48
1
60
0
100
AcDbSpline
70
4
71
3
72
10
73
6
40
0
40
0
40
0
40
0
40
0.509183578366803
40
0.509183578366803
40
1
40
1
40
1
40
1
41
1
10
45.569942521107
20
-4.38888612771405
30
0
41
1
10
45.2799908500241
20
-4.38808456954183
30
0
41
1
10
44.9897355969014
20
-4.37989748231169
30
0
41
1
10
44.4184861507001
20
-4.34917855235335
30
0
41
1
10
44.1374015593874
20
-4.32715485883824
30
0
41
1
10
43.8556248937983
20
-4.29825503369901
30
0
0
SPLINE
5
BB
100
AcDbEntity
8
1
62
256
6
ByLayer
370
13
48
1
60
0
100
AcDbSpline
70
4
71
3
72
34
73
30
40
0
40
0
40
0
40
0
40
0.026189443758634
40
0.026189443758634
40
0.154220888411809
40
0.154220888411809
40
0.282252333064983
40
0.282252333064983
40
0.314260194228277
40
0.314260194228277
40
0.346268055391571
40
0.346268055391571
40
0.410283777718158
40
0.410283777718158
40
0.538315222371334
40
0.538315222371334
40
0.570323083534628
40
0.570323083534628
40
0.602330944697921
40
0.602330944697921
40
0.666346667024509
40
0.666346667024509
40
0.794378111677683
40
0.794378111677683
40
0.858393834004271
40
0.858393834004271
40
0.92240955633086
40
0.92240955633086
40
1
40
1
40
1
40
1
41
1
10
43.8556248938307
20
-4.2982550337023
30
0
41
1
10
43.6605336922894
20
-4.27824591904107
30
0
41
1
10
43.4651107353309
20
-4.25494063517743
30
0
41
1
10
42.3124037876941
20
-4.09843077380361
30
0
41
1
10
41.3663140618757
20
-3.89242422938815
30
0
41
1
10
39.4752944228384
20
-3.35203042610749
30
0
41
1
10
38.5303870934747
20
-3.01703556997401
30
0
41
1
10
37.3371953972863
20
-2.53414100443231
30
0
41
1
10
37.0974856124061
20
-2.43416673608783
30
0
41
1
10
36.6195254450955
20
-2.22951023942773
30
0
41
1
10
36.3812017671364
20
-2.12477994503931
30
0
41
1
10
35.6676784696249
20
-1.80433483092341
30
0
41
1
10
35.1937770978412
20
-1.58272760587613
30
0
41
1
10
33.774117222936
20
-0.900650196902717
30
0
41
1
10
32.8300569311305
20
-0.423372075388215
30
0
41
1
10
31.6403598037812
20
0.176464106438687
30
0
41
1
10
31.4019442049245
20
0.296599906172389
30
0
41
1
10
30.9238221805356
20
0.536531383061373
30
0
41
1
10
30.6840245831002
20
0.656330105121555
30
0
41
1
10
29.9677208228525
20
1.0111699938071
30
0
41
1
10
29.4925587871807
20
1.24291838888632
30
0
41
1
10
28.0703009791453
20
1.91656696372806
30
0
41
1
10
27.1263989846074
20
2.33646455074543
30
0
41
1
10
25.7017440655011
20
2.89605912025428
30
0
41
1
10
25.2254784832801
20
3.07095585517638
30
0
41
1
10
24.2670760413244
20
3.39208866702776
30
0
41
1
10
23.7898355980088
20
3.53725962822781
30
0
41
1
10
22.7384154710497
20
3.82004383162493
30
0
41
1
10
22.1646195606707
20
3.95002796214621
30
0
41
1
10
21.5907810350926
20
4.05311670830616
30
0
0
SPLINE
5
BC
100
AcDbEntity
8
1
62
256
6
ByLayer
370
18
48
1
60
0
100
AcDbSpline
70
4
71
3
72
8
73
4
40
0
40
0
40
0
40
0
40
1
40
1
40
1
40
1
41
1
10
97.3727173360549
20
-4.55520554519714
30
0
41
1
10
97.3490626783897
20
-4.53153300083093
30
0
41
1
10
97.3282073180765
20
-4.49866709834893
30
0
41
1
10
97.3097972897411
20
-4.45652161746361
30
0
0
SPLINE
5
BD
100
AcDbEntity
8
1
62
256
6
ByLayer
370
18
48
1
60
0
100
AcDbSpline
70
4
71
3
72
46
73
42
40
0
40
0
40
0
40
0
40
0.046114925139178
40
0.046114925139178
40
0.0922298502783559
40
0.0922298502783559
40
0.184459700556712
40
0.184459700556712
40
0.23057462569589
40
0.23057462569589
40
0.253632088265479
40
0.253632088265479
40
0.276689550835068
40
0.276689550835068
40
0.368919401113427
40
0.368919401113427
40
0.461149251391787
40
0.461149251391787
40
0.484206713961376
40
0.484206713961376
40
0.507264176530965
40
0.507264176530965
40
0.553379101670144
40
0.553379101670144
40
0.645608951948501
40
0.645608951948501
40
0.69172387708768
40
0.69172387708768
40
0.714781339657269
40
0.714781339657269
40
0.737838802226858
40
0.737838802226858
40
0.830068652505212
40
0.830068652505212
40
0.922298502783565
40
0.922298502783565
40
0.945355965353154
40
0.945355965353154
40
0.968413427922743
40
0.968413427922743
40
1
40
1
40
1
40
1
41
1
10
16.7980603439298
20
4.45454395306896
30
0
41
1
10
17.2227563501984
20
4.45908763591621
30
0
41
1
10
17.6455863143006
20
4.44748244780587
30
0
41
1
10
18.4879389004054
20
4.39308112377714
30
0
41
1
10
18.9077139224399
20
4.35027489748379
30
0
41
1
10
20.1657084109962
20
4.17686537237213
30
0
41
1
10
21.0018737484209
20
4.00067142036224
30
0
41
1
10
22.2646809284083
20
3.65423691999797
30
0
41
1
10
22.6868968813757
20
3.52497106570363
30
0
41
1
10
23.3234567076765
20
3.31129326770352
30
0
41
1
10
23.5356753755181
20
3.23704291064806
30
0
41
1
10
23.958662189315
20
3.08350115703576
30
0
41
1
10
24.1695396523113
20
3.00388192043681
30
0
41
1
10
25.2225363856785
20
2.59418268104952
30
0
41
1
10
26.0589661351784
20
2.2270214177932
30
0
41
1
10
27.7342311731351
20
1.43864166242187
30
0
41
1
10
28.5735102563832
20
1.01828140806813
30
0
41
1
10
29.6330599162491
20
0.47497751483516
30
0
41
1
10
29.8454858441292
20
0.365693276652024
30
0
41
1
10
30.2685033264621
20
0.147487649601089
30
0
41
1
10
30.4793795015265
20
0.0381533493443555
30
0
41
1
10
31.1111782528424
20
-0.288387642592397
30
0
41
1
10
31.5307602203389
20
-0.505184907367862
30
0
41
1
10
32.7873544648077
20
-1.14764003305089
30
0
41
1
10
33.622430973197
20
-1.56491035100961
30
0
41
1
10
34.8823717629654
20
-2.152756634501
30
0
41
1
10
35.3034288429527
20
-2.34262864561026
30
0
41
1
10
35.938123282804
20
-2.615491295748
30
0
41
1
10
36.1506214366313
20
-2.70438215873216
30
0
41
1
10
36.5738181862246
20
-2.87672703643082
30
0
41
1
10
36.784797127672
20
-2.96032012751442
30
0
41
1
10
37.8381360848073
20
-3.36323810829984
30
0
41
1
10
38.6737603055846
20
-3.64051284795298
30
0
41
1
10
40.3466975780103
20
-4.08705772997968
30
0
41
1
10
41.1837858688509
20
-4.25666564310839
30
0
41
1
10
42.2400340052931
20
-4.39223320393714
30
0
41
1
10
42.4523001863077
20
-4.41550290387738
30
0
41
1
10
42.8756785642582
20
-4.4540850137071
30
0
41
1
10
43.0867876189945
20
-4.46935164618105
30
0
41
1
10
43.5862106033923
20
-4.4960267111517
30
0
41
1
10
43.8740221301531
20
-4.5039607074014
30
0
41
1
10
44.1612567621395
20
-4.50445901970548
30
0
0
SPLINE
5
BE
100
AcDbEntity
8
1
62
256
6
ByLayer
370
18
48
1
60
0
100
AcDbSpline
70
4
71
3
72
54
73
50
40
0
40
0
40
0
40
0
40
0.0188670002454771
40
0.0188670002454771
40
0.0943387694573662
40
0.0943387694573662
40
0.113206711760338
40
0.113206711760338
40
0.13207465406331
40
0.13207465406331
40
0.169810538669254
40
0.169810538669254
40
0.245282307881142
40
0.245282307881142
40
0.283018192487085
40
0.283018192487085
40
0.301886134790057
40
0.301886134790057
40
0.320754077093028
40
0.320754077093028
40
0.396225846304912
40
0.396225846304912
40
0.471697615516797
40
0.471697615516797
40
0.490565557819768
40
0.490565557819768
40
0.509433500122739
40
0.509433500122739
40
0.547169384728681
40
0.547169384728681
40
0.622641153940565
40
0.622641153940565
40
0.660377038546507
40
0.660377038546507
40
0.679244980849478
40
0.679244980849478
40
0.69811292315245
40
0.69811292315245
40
0.773584692364338
40
0.773584692364338
40
0.849056461576226
40
0.849056461576226
40
0.867924403879198
40
0.867924403879198
40
0.88679234618217
40
0.88679234618217
40
0.924528230788114
40
0.924528230788114
40
1
40
1
40
1
40
1
41
1
10
64.0706706285644
20
3.02039417256677
30
0
41
1
10
64.2795269931241
20
3.1023807857583
30
0
41
1
10
64.4882411666691
20
3.181674620053
30
0
41
1
10
65.5317771015044
20
3.56381144304677
30
0
41
1
10
66.3654797500344
20
3.82477592436493
30
0
41
1
10
67.4166481541633
20
4.08151499070317
30
0
41
1
10
67.627300769974
20
4.12943249684264
30
0
41
1
10
68.0496093210148
20
4.2181519091169
30
0
41
1
10
68.2614983221739
20
4.25882790151374
30
0
41
1
10
68.8941203404858
20
4.36909294360783
30
0
41
1
10
69.313760002702
20
4.42698559169503
30
0
41
1
10
70.5691921077306
20
4.55340576493546
30
0
41
1
10
71.4018598861226
20
4.5746260262305
30
0
41
1
10
72.654493293451
20
4.51121723081192
30
0
41
1
10
73.0728115122581
20
4.47421943850483
30
0
41
1
10
73.7028602131005
20
4.39505451024567
30
0
41
1
10
73.9132448192904
20
4.36469108718657
30
0
41
1
10
74.3350611553594
20
4.29604425922361
30
0
41
1
10
74.5469151120084
20
4.25779020043467
30
0
41
1
10
75.6012932050103
20
4.04800694590838
30
0
41
1
10
76.4362605036141
20
3.82180013413517
30
0
41
1
10
78.1042604412581
20
3.27132151428421
30
0
41
1
10
78.9367106569182
20
2.94620924581832
30
0
41
1
10
79.9858062958313
20
2.49124046880357
30
0
41
1
10
80.1959493939265
20
2.39765496471398
30
0
41
1
10
80.617316989153
20
2.20593562051309
30
0
41
1
10
80.8290208306959
20
2.10778782746027
30
0
41
1
10
81.4616548019649
20
1.80811800903496
30
0
41
1
10
81.8812704278901
20
1.60232247930969
30
0
41
1
10
83.1363475016459
20
0.971976779198229
30
0
41
1
10
83.9680845758033
20
0.534549624987392
30
0
41
1
10
85.2189879673377
20
-0.126746654709819
30
0
41
1
10
85.6366008884422
20
-0.347852981134622
30
0
41
1
10
86.2654789810391
20
-0.677636286621407
30
0
41
1
10
86.4753962056897
20
-0.787486856243788
30
0
41
1
10
86.8963517090415
20
-1.00597811610933
30
0
41
1
10
87.1078260230834
20
-1.11473834550298
30
0
41
1
10
88.1622261944462
20
-1.65327037958016
30
0
41
1
10
88.9969535443007
20
-2.06174622168808
30
0
41
1
10
90.6632452569952
20
-2.81081828967814
30
0
41
1
10
91.4946955357455
20
-3.15149886596305
30
0
41
1
10
92.5419312324875
20
-3.5194045024094
30
0
41
1
10
92.7516392782874
20
-3.59026576518374
30
0
41
1
10
93.1722088662779
20
-3.72567320840127
30
0
41
1
10
93.3833586945377
20
-3.79033022348654
30
0
41
1
10
94.0161588268637
20
-3.97428785245202
30
0
41
1
10
94.4364344019274
20
-4.08267265081284
30
0
41
1
10
95.6953139512158
20
-4.36332610468142
30
0
41
1
10
96.5315216447457
20
-4.49133933575465
30
0
41
1
10
97.3727173360549
20
-4.55520554519714
30
0
0
SPLINE
5
BF
100
AcDbEntity
8
1
62
256
6
ByLayer
370
18
48
1
60
0
100
AcDbSpline
70
4
71
3
72
20
73
16
40
0
40
0
40
0
40
0
40
0.249999999999987
40
0.249999999999987
40
0.374999999999989
40
0.374999999999989
40
0.499999999999992
40
0.499999999999992
40
0.624999999999994
40
0.624999999999994
40
0.749999999999996
40
0.749999999999996
40
0.874999999999998
40
0.874999999999998
40
1
40
1
40
1
40
1
41
1
10
98.3080058645804
20
-1.05514764620784
30
0
41
1
10
98.3567886979104
20
-1.02985305494496
30
0
41
1
10
98.4095724118848
20
-0.982841411500686
30
0
41
1
10
98.4953466627726
20
-0.881196890442254
30
0
41
1
10
98.5248712816489
20
-0.842192618236197
30
0
41
1
10
98.5842413068289
20
-0.756492812086151
30
0
41
1
10
98.6143080272544
20
-0.70954051521386
30
0
41
1
10
98.6752075344331
20
-0.607679998151895
30
0
41
1
10
98.7061628023272
20
-0.552494526460691
30
0
41
1
10
98.7670728948743
20
-0.437481584585925
30
0
41
1
10
98.7972351159406
20
-0.377331741874627
30
0
41
1
10
98.8569494362303
20
-0.252007709560587
30
0
41
1
10
98.8866703812651
20
-0.186432266678622
30
0
41
1
10
98.9445255552947
20
-0.0523582684580504
30
0
41
1
10
98.9725831080882
20
0.0159166611428248
30
0
41
1
10
98.9997779848152
20
0.0853628325639022
30
0
0
SPLINE
5
C0
100
AcDbEntity
8
1
62
256
6
ByLayer
370
18
48
1
60
0
100
AcDbSpline
70
4
71
3
72
10
73
6
40
0
40
0
40
0
40
0
40
0.5
40
0.5
40
1
40
1
40
1
40
1
41
1
10
97.3244758247253
20
-4.37548941540695
30
0
41
1
10
97.32071364924
20
-4.34881382872354
30
0
41
1
10
97.3137851856991
20
-4.3270075165413
30
0
41
1
10
97.296214383194
20
-4.29095644610715
30
0
41
1
10
97.2856813813742
20
-4.27691057970773
30
0
41
1
10
97.2738354157666
20
-4.26585461909301
30
0
0
SPLINE
5
C1
100
AcDbEntity
8
1
62
256
6
ByLayer
370
18
48
1
60
0
100
AcDbSpline
70
4
71
3
72
8
73
4
40
0
40
0
40
0
40
0
40
1
40
1
40
1
40
1
41
1
10
6.1427175900586
20
4.32112472755966
30
0
41
1
10
6.15937842826665
20
4.32029705321892
30
0
41
1
10
6.17688874710933
20
4.31897636436273
30
0
41
1
10
6.19497330639337
20
4.3173298563201
30
0
0
SPLINE
5
C2
100
AcDbEntity
8
1
62
256
6
ByLayer
370
18
48
1
60
0
100
AcDbSpline
70
4
71
3
72
34
73
30
40
0
40
0
40
0
40
0
40
0.0312500000000003
40
0.0312500000000003
40
0.0625000000000005
40
0.0625000000000005
40
0.125000000000001
40
0.125000000000001
40
0.156250000000001
40
0.156250000000001
40
0.187500000000001
40
0.187500000000001
40
0.250000000000002
40
0.250000000000002
40
0.312500000000002
40
0.312500000000002
40
0.375000000000003
40
0.375000000000003
40
0.500000000000003
40
0.500000000000003
40
0.625000000000004
40
0.625000000000004
40
0.750000000000005
40
0.750000000000005
40
0.812500000000004
40
0.812500000000004
40
0.875000000000003
40
0.875000000000003
40
1
40
1
40
1
40
1
41
1
10
6.19497330639933
20
4.31732985631956
30
0
41
1
10
6.22819020083472
20
4.3143056253729
30
0
41
1
10
6.26643194851152
20
4.30842187661665
30
0
41
1
10
6.35040824909865
20
4.29175161780717
30
0
41
1
10
6.39600726187302
20
4.28102190568336
30
0
41
1
10
6.54215208666028
20
4.24272106312205
30
0
41
1
10
6.65196992455486
20
4.20909130514139
30
0
41
1
10
6.83147041441941
20
4.14930258228443
30
0
41
1
10
6.89384114727915
20
4.12777621145312
30
0
41
1
10
7.02128970758474
20
4.08257295638001
30
0
41
1
10
7.08658544345045
20
4.05882487247055
30
0
41
1
10
7.28659536809334
20
3.98464271167066
30
0
41
1
10
7.42540434742881
20
3.93129411347698
30
0
41
1
10
7.71176754472125
20
3.81867984417332
30
0
41
1
10
7.85934230795058
20
3.75939714733207
30
0
41
1
10
8.16201727610485
20
3.63597729098035
30
0
41
1
10
8.31695973413753
20
3.57189138115905
30
0
41
1
10
8.78556601851142
20
3.37612686978238
30
0
41
1
10
9.10498390862728
20
3.24025651471587
30
0
41
1
10
9.75441525416178
20
2.96168406098644
30
0
41
1
10
10.0846532118785
20
2.81872527743616
30
0
41
1
10
10.7543632773616
20
2.52747463825875
30
0
41
1
10
11.0943866097808
20
2.37896385021315
30
0
41
1
10
11.607944585078
20
2.15448461561101
30
0
41
1
10
11.7796027043501
20
2.0794222602398
30
0
41
1
10
12.1237772034143
20
1.92898690526056
30
0
41
1
10
12.2962910835364
20
1.85362083827826
30
0
41
1
10
12.8153809842519
20
1.62636918485271
30
0
41
1
10
13.1632772640432
20
1.47386936513385
30
0
41
1
10
13.5127468400738
20
1.32083271428226
30
0
0
SPLINE
5
C3
100
AcDbEntity
8
1
62
256
6
ByLayer
370
18
48
1
60
0
100
AcDbSpline
70
4
71
3
72
16
73
12
40
0
40
0
40
0
40
0
40
0.0869143747814542
40
0.0869143747814542
40
0.315185781086084
40
0.315185781086084
40
0.429321484238403
40
0.429321484238403
40
0.543457187390721
40
0.543457187390721
40
1
40
1
40
1
40
1
41
1
10
8.43852451155911
20
3.5101850858093
30
0
41
1
10
8.53167171931995
20
3.5058139974085
30
0
41
1
10
8.62483785906016
20
3.50275724878347
30
0
41
1
10
8.96275885384199
20
3.49623483386012
30
0
41
1
10
9.20761857150114
20
3.50024068864218
30
0
41
1
10
9.57508709524029
20
3.51878148049818
30
0
41
1
10
9.69760665961562
20
3.52705583793639
30
0
41
1
10
9.94270745976101
20
3.54772794478504
30
0
41
1
10
10.0650508577295
20
3.56011966879592
30
0
41
1
10
10.6696303032993
20
3.63112573655937
30
0
41
1
10
11.1361061416249
20
3.71792494936449
30
0
41
1
10
11.585107173017
20
3.82176181328242
30
0
0
SPLINE
5
C4
100
AcDbEntity
8
1
62
256
6
ByLayer
370
18
48
1
60
0
100
AcDbSpline
70
4
71
3
72
10
73
6
40
0
40
0
40
0
40
0
40
0.5
40
0.5
40
1
40
1
40
1
40
1
41
1
10
98.0203764898787
20
2.08211258603961
30
0
41
1
10
97.9894052662007
20
2.23528726918093
30
0
41
1
10
97.9766461364803
20
2.38766093546124
30
0
41
1
10
97.9702631731759
20
2.6915666462466
30
0
41
1
10
97.9769699064241
20
2.84308415153356
30
0
41
1
10
97.9895892824612
20
2.99434160289275
30
0
0
SPLINE
5
C5
100
AcDbEntity
8
1
62
256
6
ByLayer
370
18
48
1
60
0
100
AcDbSpline
70
4
71
3
72
10
73
6
40
0
40
0
40
0
40
0
40
0.5
40
0.5
40
1
40
1
40
1
40
1
41
1
10
11.5851071730172
20
3.82176181328106
30
0
41
1
10
12.4559896459694
20
4.0231638112943
30
0
41
1
10
13.3264301362245
20
4.17415906270398
30
0
41
1
10
15.0645117205909
20
4.38568036620825
30
0
41
1
10
15.9321704664123
20
4.44612134126319
30
0
41
1
10
16.7980603439298
20
4.45454395306899
30
0
0
SPLINE
5
C6
100
AcDbEntity
8
1
62
256
6
ByLayer
370
13
48
1
60
0
100
AcDbSpline
70
4
71
3
72
86
73
82
40
0
40
0
40
0
40
0
40
0.0057622411485263
40
0.0184577417760517
40
0.0375009927173363
40
0.0438487430310992
40
0.056544243658623
40
0.0692397442861473
40
0.0882829952274315
40
0.0946307455411955
40
0.10732624616872
40
0.120021746796243
40
0.139064997737529
40
0.145412748051292
40
0.158108248678816
40
0.170803749306338
40
0.189847000247624
40
0.196194750561388
40
0.208890251188912
40
0.221585751816436
40
0.240629002757721
40
0.246976753071484
40
0.259672253699008
40
0.272367754326532
40
0.291411005267819
40
0.29775875558158
40
0.310454256209104
40
0.323149756836629
40
0.342193007777914
40
0.348540758091677
40
0.361236258719201
40
0.373931759346725
40
0.392975010288011
40
0.399322760601773
40
0.412018261229297
40
0.424713761856821
40
0.443757012798107
40
0.450104763111869
40
0.462800263739392
40
0.475495764366917
40
0.494539015308204
40
0.500886765621966
40
0.513582266249489
40
0.526277766877013
40
0.545321017818299
40
0.551668768132062
40
0.564364268759586
40
0.577059769387109
40
0.596103020328397
40
0.602450770642158
40
0.615146271269682
40
0.627841771897205
40
0.646885022838492
40
0.653232773152254
40
0.665928273779778
40
0.678623774407302
40
0.697667025348588
40
0.70401477566235
40
0.716710276289874
40
0.729405776917398
40
0.748449027858684
40
0.754796778172447
40
0.76749227879997
40
0.780187779427495
40
0.79923103036878
40
0.805578780682543
40
0.818274281310067
40
0.830969781937591
40
0.850013032878877
40
0.856360783192639
40
0.869056283820163
40
0.881751784447687
40
0.900795035388973
40
0.907142785702735
40
0.919838286330259
40
0.932533786957783
40
0.951577037899069
40
0.957924788212831
40
0.970620288840355
40
0.98331578946788
40
1
40
1
40
1
40
1
41
1
10
61.3838601611238
20
-1.86068585437687
30
0
41
1
10
61.3501753918601
20
-1.864329732306
30
0
41
1
10
61.2422770022644
20
-1.87586384640412
30
0
41
1
10
61.0230548624528
20
-1.89840311581182
30
0
41
1
10
60.8003837621727
20
-1.91975825235741
30
0
41
1
10
60.5777175008316
20
-1.93984880864426
30
0
41
1
10
60.3921828124828
20
-1.95575024366048
30
0
41
1
10
60.1324298086845
20
-1.97648372521283
30
0
41
1
10
59.9097581851116
20
-1.99266584244825
30
0
41
1
10
59.6870915926478
20
-2.0075421605909
30
0
41
1
10
59.5015567695722
20
-2.01906513074195
30
0
41
1
10
59.2418037747135
20
-2.03362796439228
30
0
41
1
10
59.019132319556
20
-2.04449145528136
30
0
41
1
10
58.7964659577273
20
-2.05401916750023
30
0
41
1
10
58.6109313804109
20
-2.06105762571698
30
0
41
1
10
58.3511788136981
20
-2.06931181473769
30
0
41
1
10
58.1285077629965
20
-2.0747490127863
30
0
41
1
10
57.9058417800615
20
-2.07882945799952
30
0
41
1
10
57.7203074599725
20
-2.08130751340801
30
0
41
1
10
57.4605550711788
20
-2.08315780969204
30
0
41
1
10
57.2378839383239
20
-2.08309814731618
30
0
41
1
10
57.0152176304667
20
-2.08167021383756
30
0
41
1
10
56.8296829005214
20
-2.07954367333127
30
0
41
1
10
56.5699298384612
20
-2.07494500838314
30
0
41
1
10
56.3472581635894
20
-2.0693725984672
30
0
41
1
10
56.1245915180025
20
-2.06244596584872
30
0
41
1
10
55.9390566511412
20
-2.05574115010918
30
0
41
1
10
55.6793036011072
20
-2.04475803518068
30
0
41
1
10
55.4566321085435
20
-2.03375125874791
30
0
41
1
10
55.2339657222388
20
-2.02141678235401
30
0
41
1
10
55.0484311264414
20
-2.01021676740933
30
0
41
1
10
54.7886785284691
20
-1.99297789591304
30
0
41
1
10
54.5660074446081
20
-1.9766592538414
30
0
41
1
10
54.3433414203308
20
-1.95904995979845
30
0
41
1
10
54.1578070716641
20
-1.94347317280591
30
0
41
1
10
53.8980546688097
20
-1.92015686144083
30
0
41
1
10
53.6753835531269
20
-1.8986913698553
30
0
41
1
10
53.4527172908742
20
-1.87598274383288
30
0
41
1
10
53.267182602939
20
-1.85618300846482
30
0
41
1
10
53.0074295891192
20
-1.82702001544851
30
0
41
1
10
52.7847579434262
20
-1.80062385041194
30
0
41
1
10
52.5620913121433
20
-1.7730513823974
30
0
41
1
10
52.3765564626933
20
-1.74923889952225
30
0
41
1
10
52.1168034626718
20
-1.71454478176813
30
0
41
1
10
51.8941320370841
20
-1.68350669258439
30
0
41
1
10
51.6714657371742
20
-1.65137079181591
30
0
41
1
10
51.485931209666
20
-1.62380349083793
30
0
41
1
10
51.2261786838067
20
-1.5839515443617
30
0
41
1
10
51.003507638674
20
-1.54860315193287
30
0
41
1
10
50.7808416330306
20
-1.51224561564297
30
0
41
1
10
50.5953073018979
20
-1.4812158296871
30
0
41
1
10
50.3355549395905
20
-1.436627264733
30
0
41
1
10
50.1128838703976
20
-1.39734090267695
30
0
41
1
10
49.8902176614436
20
-1.35714391975026
30
0
41
1
10
49.7046830074892
20
-1.32297738258964
30
0
41
1
10
49.444930010399
20
-1.27411975254037
30
0
41
1
10
49.2222583515271
20
-1.23130721005936
30
0
41
1
10
48.999591688538
20
-1.18769244028991
30
0
41
1
10
48.8140568103667
20
-1.15074789190678
30
0
41
1
10
48.5543037734376
20
-1.09813483343439
30
0
41
1
10
48.3316323172841
20
-1.05224685790759
30
0
41
1
10
48.1089659865919
20
-1.00567402347934
30
0
41
1
10
47.9234314290995
20
-0.966341170207386
30
0
41
1
10
47.6636788523291
20
-0.910528323218387
30
0
41
1
10
47.4410077580126
20
-0.862050401026522
30
0
41
1
10
47.2183417031178
20
-0.813013124094113
30
0
41
1
10
47.0328073302673
20
-0.771709471466522
30
0
41
1
10
46.7730549063316
20
-0.713290647651633
30
0
41
1
10
46.5503837806714
20
-0.662740221885343
30
0
41
1
10
46.327717510985
20
-0.611763482888023
30
0
41
1
10
46.1421828124284
20
-0.568932206111185
30
0
41
1
10
45.8824297743498
20
-0.508533683534068
30
0
41
1
10
45.6597581030281
20
-0.45644958600883
30
0
41
1
10
45.4370914478029
20
-0.404071240181423
30
0
41
1
10
45.251556579523
20
-0.360160204237474
30
0
41
1
10
44.9918035511773
20
-0.298408719455779
30
0
41
1
10
44.7691320962733
20
-0.245329131650976
30
0
41
1
10
44.5464657584372
20
-0.192092062719752
30
0
41
1
10
44.3609312018933
20
-0.147558152933158
30
0
41
1
10
44.1149690668539
20
-0.0884155529866746
30
0
41
1
10
43.9432033781917
20
-0.047132363121591
30
0
41
1
10
43.8456612615973
20
-0.0236849387113409
30
0
0
SPLINE
5
C7
100
AcDbEntity
8
1
62
256
6
ByLayer
370
13
48
1
60
0
100
AcDbSpline
70
4
71
3
72
27
73
23
40
0
40
0
40
0
40
0
40
0.0016804551404349
40
0.0300104872678652
40
0.0866705515227236
40
0.143330615777584
40
0.228320712159875
40
0.256650744287306
40
0.313310808542166
40
0.369970872797025
40
0.454960969179316
40
0.483291001306746
40
0.539951065561607
40
0.596611129816467
40
0.681601226198756
40
0.709931258326187
40
0.766591322581047
40
0.823251386835908
40
0.908241483218199
40
0.936571515345629
40
0.993231579600488
40
1
40
1
40
1
40
1
41
1.00000000000001
10
98.0203764898855
20
2.08211258603967
30
0
41
1.00000000000001
10
98.0181753840175
20
2.08210430848189
30
0
41
1.00000000000001
10
97.9788668193631
20
2.08195286385092
30
0
41
1.00000000000001
10
97.8653426582632
20
2.08132861471347
30
0
41
1.00000000000001
10
97.6797835686439
20
2.07938729954199
30
0
41
1.00000000000001
10
97.4200050080752
20
2.07507698267094
30
0
41
1.00000000000001
10
97.1973636436555
20
2.06974049908684
30
0
41
1.00000000000001
10
96.974717202308
20
2.06302710956846
30
0
41
1.00000000000001
10
96.7891578408663
20
2.05652661548058
30
0
41
1.00000000000001
10
96.5293790415422
20
2.04584858083061
30
0
41
1.00000000000001
10
96.3067376643393
20
2.03506117821022
30
0
41
1.00000000000001
10
96.0840914209851
20
2.02291366744931
30
0
41
1.00000000000001
10
95.8985323553627
20
2.01190627927293
30
0
41
1.00000000000001
10
95.6387540834188
20
1.99495023597641
30
0
41
1.00000000000001
10
95.4161131551864
20
1.97881191424193
30
0
41
1.00000000000001
10
95.1934672059189
20
1.96135652204032
30
0
41
1.00000000000001
10
95.0079082663236
20
1.94596568279798
30
0
41
1.00000000000001
10
94.7481300025488
20
1.92293158366468
30
0
41
1.00000000000001
10
94.5254889472467
20
1.90163605955872
30
0
41
1.00000000000001
10
94.3028428229718
20
1.87907728471197
30
0
41
1.00000000000001
10
94.182640838428
20
1.8663817513415
30
0
41
1.00000000000001
10
94.0995514278836
20
1.8573519681786
30
0
41
1.00000000000001
10
94.0906850137829
20
1.85638552016611
30
0
0
SPLINE
5
C8
100
AcDbEntity
8
1
62
256
6
ByLayer
370
13
48
1
60
0
100
AcDbSpline
70
4
71
3
72
87
73
83
40
0
40
0
40
0
40
0
40
0.0125225239286912
40
0.0188384640238194
40
0.0314703442140749
40
0.0441022244043283
40
0.0630500446897095
40
0.0693659847848372
40
0.0819978649750917
40
0.0946297451653451
40
0.113577565450728
40
0.119893505545854
40
0.132525385736107
40
0.145157265926363
40
0.164105086211746
40
0.170421026306872
40
0.183052906497126
40
0.195684786687381
40
0.214632606972762
40
0.22094854706789
40
0.233580427258144
40
0.246212307448398
40
0.26516012773378
40
0.271476067828906
40
0.284107948019161
40
0.296739828209414
40
0.315687648494797
40
0.322003588589924
40
0.334635468780179
40
0.347267348970432
40
0.366215169255814
40
0.372531109350942
40
0.385162989541195
40
0.39779486973145
40
0.416742690016832
40
0.423058630111959
40
0.435690510302213
40
0.448322390492468
40
0.467270210777849
40
0.473586150872977
40
0.486218031063231
40
0.498849911253485
40
0.517797731538866
40
0.524113671633994
40
0.536745551824248
40
0.549377432014502
40
0.568325252299884
40
0.574641192395011
40
0.587273072585266
40
0.59990495277552
40
0.618852773060901
40
0.625168713156029
40
0.637800593346283
40
0.650432473536537
40
0.669380293821919
40
0.675696233917046
40
0.6883281141073
40
0.700959994297555
40
0.719907814582936
40
0.726223754678064
40
0.738855634868318
40
0.751487515058574
40
0.770435335343953
40
0.776751275439081
40
0.789383155629335
40
0.802015035819588
40
0.820962856104971
40
0.827278796200098
40
0.839910676390351
40
0.852542556580607
40
0.871490376865989
40
0.877806316961116
40
0.890438197151369
40
0.903070077341624
40
0.922017897627005
40
0.928333837722133
40
0.940965717912387
40
0.953597598102642
40
0.972545418388024
40
0.97886135848315
40
0.991493238673404
40
1
40
1
40
1
40
1
41
1.00000000000001
10
57.265741352698
20
0.0230728940680362
30
0
41
1.00000000000001
10
57.1921677623758
20
0.0407763296624063
30
0
41
1.00000000000001
10
57.081489087329
20
0.0674181387113882
30
0
41
1.00000000000001
10
56.8965931470178
20
0.111899384904432
30
0
41
1.00000000000001
10
56.7110340028922
20
0.156405210008385
30
0
41
1.00000000000001
10
56.4512553614879
20
0.218579250920439
30
0
41
1.00000000000001
10
56.2286139330504
20
0.271799280737778
30
0
41
1.00000000000001
10
56.0059674491839
20
0.324837949118741
30
0
41
1.00000000000001
10
55.8204080580427
20
0.368813857861222
30
0
41
1.00000000000001
10
55.560629221626
20
0.43008558117125
30
0
41
1.00000000000001
10
55.3379878250158
20
0.482367370346901
30
0
41
1.00000000000001
10
55.1153415790307
20
0.534331517440017
30
0
41
1.00000000000001
10
54.92978252701
20
0.577323192722552
30
0
41
1.00000000000001
10
54.6700043012842
20
0.637060117761471
30
0
41
1.00000000000001
10
54.4473634344442
20
0.687861331489918
30
0
41
1.00000000000001
10
54.2247175573263
20
0.738205976021524
30
0
41
1.00000000000001
10
54.0391586667561
20
0.779758023619214
30
0
41
1.00000000000001
10
53.7793804272554
20
0.837321580474783
30
0
41
1.00000000000001
10
53.5567393404228
20
0.886095777026231
30
0
41
1.00000000000001
10
53.3340931320852
20
0.934280062420913
30
0
41
1.00000000000001
10
53.1485339197103
20
0.973947188546151
30
0
41
1.00000000000001
10
52.8887552062321
20
1.02872241566546
30
0
41
1.00000000000001
10
52.6661137390812
20
1.07495044887013
30
0
41
1.00000000000001
10
52.443467236577
20
1.12046284001163
30
0
41
1.00000000000001
10
52.257907827897
20
1.15782474390893
30
0
41
1.00000000000001
10
51.998128950937
20
1.20923263455877
30
0
41
1.00000000000001
10
51.7754875078525
20
1.25242713525084
30
0
41
1.00000000000001
10
51.5528412085989
20
1.29478862047877
30
0
41
1.00000000000001
10
51.3672821226229
20
1.32945251559486
30
0
41
1.00000000000001
10
51.1075038801896
20
1.3769531396362
30
0
41
1.00000000000001
10
50.8848630265311
20
1.4166607131449
30
0
41
1.00000000000001
10
50.6622171811037
20
1.4554265124472
30
0
41
1.00000000000001
10
50.4766583192357
20
1.48702832934959
30
0
41
1.00000000000001
10
50.2168801166144
20
1.53012254533671
30
0
41
1.00000000000001
10
49.9942390603253
20
1.56592558469749
30
0
41
1.00000000000001
10
49.7715928827554
20
1.60068763246111
30
0
41
1.00000000000001
10
49.5860337003556
20
1.62889443552656
30
0
41
1.00000000000001
10
49.3262550377759
20
1.66712747284524
30
0
41
1.00000000000001
10
49.1036136197957
20
1.69864712893102
30
0
41
1.00000000000001
10
48.8809671665247
20
1.72903651467667
30
0
41
1.00000000000001
10
48.6954077995419
20
1.75354824549414
30
0
41
1.00000000000001
10
48.4356289841736
20
1.78651190092436
30
0
41
1.00000000000001
10
48.2129875975202
20
1.81340983668307
30
0
41
1.00000000000001
10
47.9903413589625
20
1.83909862794668
30
0
41
1.00000000000001
10
47.8047823175651
20
1.85964957468975
30
0
41
1.00000000000001
10
47.5450041161043
20
1.88698661523509
30
0
41
1.00000000000001
10
47.3223632748968
20
1.9089740422262
30
0
41
1.00000000000001
10
47.0997174217166
20
1.92969176795623
30
0
41
1.00000000000001
10
46.9141585499648
20
1.94606970316037
30
0
41
1.00000000000001
10
46.6543803387623
20
1.96750312967646
30
0
41
1.00000000000001
10
46.4317392812186
20
1.98436027329564
30
0
41
1.00000000000001
10
46.2090931107825
20
1.9998989877077
30
0
41
1.00000000000001
10
46.0235339274319
20
2.01193826455097
30
0
41
1.00000000000001
10
45.7637552377559
20
2.02724857397405
30
0
41
1.00000000000001
10
45.5411137712424
20
2.03879947002412
30
0
41
1.00000000000001
10
45.3184672484916
20
2.04899386914113
30
0
41
1.00000000000001
10
45.132907824375
20
2.05656425936414
30
0
41
1.00000000000001
10
44.8731289464596
20
2.0655814470012
30
0
41
1.00000000000001
10
44.6504875244905
20
2.07169257704698
30
0
41
1.00000000000001
10
44.4278412683538
20
2.07641980369161
30
0
41
1.00000000000001
10
44.2422822120009
20
2.07942638815817
30
0
41
1.00000000000001
10
43.982503977067
20
2.08203477117817
30
0
41
1.00000000000001
10
43.7598630958848
20
2.08262973936928
30
0
41
1.00000000000001
10
43.5372171928402
20
2.08183871378688
30
0
41
1.00000000000001
10
43.3516582877794
20
2.08025672736884
30
0
41
1.00000000000001
10
43.091880060052
20
2.07644829367226
30
0
41
1.00000000000001
10
42.8692390180254
20
2.07154258761196
30
0
41
1.00000000000001
10
42.6465928874018
20
2.06526095660232
30
0
41
1.00000000000001
10
42.461033739534
20
2.05912029852312
30
0
41
1.00000000000001
10
42.2012550909953
20
2.04894827037149
30
0
41
1.00000000000001
10
41.9786136529546
20
2.03859887754291
30
0
41
1.00000000000001
10
41.7559671527113
20
2.0268932580396
30
0
41
1.00000000000001
10
41.5704077544479
20
2.01625590646001
30
0
41
1.00000000000001
10
41.3106289356476
20
1.99981780390192
30
0
41
1.00000000000001
10
41.0879875855466
20
1.98411915204992
30
0
41
1.00000000000001
10
40.8653414162349
20
1.9670930969142
30
0
41
1.00000000000001
10
40.6797824381604
20
1.95205142212155
30
0
41
1.00000000000001
10
40.4200043183093
20
1.92949334384824
30
0
41
1.00000000000001
10
40.1973635394494
20
1.9085950879132
30
0
41
1.00000000000001
10
39.9747177382039
20
1.88642655965206
30
0
41
1.00000000000001
10
39.8133976609858
20
1.86966672467063
30
0
41
1.00000000000001
10
39.6891910435701
20
1.85619256842825
30
0
41
1.00000000000001
10
39.6392080884971
20
1.85067925801619
30
0
0
SPLINE
5
C9
100
AcDbEntity
8
1
62
256
6
ByLayer
370
18
48
1
60
0
100
AcDbSpline
70
4
71
3
72
32
73
28
40
0
40
0
40
0
40
0
40
0.0312499999999983
40
0.0312499999999983
40
0.0624999999999967
40
0.0624999999999967
40
0.093749999999995
40
0.093749999999995
40
0.124999999999993
40
0.124999999999993
40
0.187499999999993
40
0.187499999999993
40
0.249999999999992
40
0.249999999999992
40
0.312499999999992
40
0.312499999999992
40
0.374999999999991
40
0.374999999999991
40
0.49999999999999
40
0.49999999999999
40
0.624999999999989
40
0.624999999999989
40
0.687499999999991
40
0.687499999999991
40
0.749999999999992
40
0.749999999999992
40
1
40
1
40
1
40
1
41
1
10
6.08055399177147
20
-4.05109779792522
30
0
41
1
10
6.10621004451991
20
-4.02794514679078
30
0
41
1
10
6.13852179997076
20
-4.00483800599037
30
0
41
1
10
6.2112735144452
20
-3.96067182367651
30
0
41
1
10
6.25202410239112
20
-3.93932444980632
30
0
41
1
10
6.34050327241511
20
-3.89799567289236
30
0
41
1
10
6.38771515176788
20
-3.87827127524056
30
0
41
1
10
6.48549659916199
20
-3.84089438828926
30
0
41
1
10
6.53628069833405
20
-3.82314981056459
30
0
41
1
10
6.69317482315745
20
-3.77237495804545
30
0
41
1
10
6.80448199774159
20
-3.74163147031968
30
0
41
1
10
7.03084971031825
20
-3.68680042260422
30
0
41
1
10
7.14627603487097
20
-3.66256938941163
30
0
41
1
10
7.38051547296826
20
-3.61945281261185
30
0
41
1
10
7.49934281462399
20
-3.60058148183126
30
0
41
1
10
7.73985536720497
20
-3.56773666743274
30
0
41
1
10
7.86196305243098
20
-3.55373359091863
30
0
41
1
10
8.22866856142247
20
-3.51908496832962
30
0
41
1
10
8.47328435767082
20
-3.50568247342005
30
0
41
1
10
8.96275885384199
20
-3.49623483386012
30
0
41
1
10
9.20761857150114
20
-3.50024068864218
30
0
41
1
10
9.57508709524026
20
-3.51878148049818
30
0
41
1
10
9.69760665961559
20
-3.52705583793642
30
0
41
1
10
9.94270745976098
20
-3.54772794478504
30
0
41
1
10
10.0650508577295
20
-3.56011966879595
30
0
41
1
10
10.6696303032993
20
-3.6311257365594
30
0
41
1
10
11.1361061416249
20
-3.71792494936449
30
0
41
1
10
11.585107173017
20
-3.82176181328242
30
0
0
SPLINE
5
CA
100
AcDbEntity
8
1
62
256
6
ByLayer
370
18
48
1
60
0
100
AcDbSpline
70
4
71
3
72
18
73
14
40
0
40
0
40
0
40
0
40
0.25
40
0.25
40
0.374999999999999
40
0.374999999999999
40
0.499999999999999
40
0.499999999999999
40
0.749999999999999
40
0.749999999999999
40
0.875
40
0.875
40
1
40
1
40
1
40
1
41
1
10
96.8749544828686
20
0.45582914151629
30
0
41
1
10
96.8267949373071
20
0.220392360729704
30
0
41
1
10
96.788044557563
20
-0.0155496199901393
30
0
41
1
10
96.7440637677864
20
-0.370222057102325
30
0
41
1
10
96.7317717470602
20
-0.488573359240092
30
0
41
1
10
96.712066886752
20
-0.725537938066452
30
0
41
1
10
96.7046369188855
20
-0.844765655580659
30
0
41
1
10
96.6902115149736
20
-1.19737045470237
30
0
41
1
10
96.6908935297196
20
-1.42568440853347
30
0
41
1
10
96.7069368984772
20
-1.75830228269842
30
0
41
1
10
96.7148003103562
20
-1.8675247079016
30
0
41
1
10
96.7356330149839
20
-2.08262019931359
30
0
41
1
10
96.7486462740299
20
-2.18868784152511
30
0
41
1
10
96.7640891488038
20
-2.29180895916363
30
0
0
SPLINE
5
CB
100
AcDbEntity
8
1
62
256
6
ByLayer
370
18
48
1
60
0
100
AcDbSpline
70
4
71
3
72
20
73
16
40
0
40
0
40
0
40
0
40
0.16172504844331
40
0.16172504844331
40
0.441150032295541
40
0.441150032295541
40
0.580862524221656
40
0.580862524221656
40
0.720575016147772
40
0.720575016147772
40
0.860287508073887
40
0.860287508073887
40
0.930143754036944
40
0.930143754036944
40
1
40
1
40
1
40
1
41
1
10
6.14313513097719
20
-4.32110237453165
30
0
41
1
10
6.12042447958967
20
-4.32224009831614
30
0
41
1
10
6.09929963483728
20
-4.32246590976271
30
0
41
1
10
6.04788791829725
20
-4.31945843549215
30
0
41
1
10
6.02214430868185
20
-4.31357540902036
30
0
41
1
10
6.00362295494119
20
-4.29283734382088
30
0
41
1
10
6.00093823438667
20
-4.28377972234028
30
0
41
1
10
6.00328954541453
20
-4.26191193366213
30
0
41
1
10
6.00820011201608
20
-4.24908476014974
30
0
41
1
10
6.02419244172123
20
-4.22029552048153
30
0
41
1
10
6.03524579600091
20
-4.20434799365981
30
0
41
1
10
6.05521569992379
20
-4.17870327010877
30
0
41
1
10
6.06243790627644
20
-4.1698675237262
30
0
41
1
10
6.07783684586508
20
-4.15171076689671
30
0
41
1
10
6.08611481815282
20
-4.14233829880666
30
0
41
1
10
6.09393186719868
20
-4.13320015078193
30
0
0
SPLINE
5
CC
100
AcDbEntity
8
1
62
256
6
ByLayer
370
18
48
1
60
0
100
AcDbSpline
70
4
71
3
72
10
73
6
40
0
40
0
40
0
40
0
40
0.5
40
0.5
40
1
40
1
40
1
40
1
41
1
10
11.5851071730173
20
-3.82176181328106
30
0
41
1
10
12.4559896459694
20
-4.0231638112943
30
0
41
1
10
13.3264301362245
20
-4.17415906270401
30
0
41
1
10
15.0645117205909
20
-4.38568036620825
30
0
41
1
10
15.9321704664123
20
-4.44612134126319
30
0
41
1
10
16.7980603439298
20
-4.45454395306899
30
0
0
SPLINE
5
CD
100
AcDbEntity
8
1
62
256
6
ByLayer
370
13
48
1
60
0
100
AcDbSpline
70
4
71
3
72
29
73
25
40
0
40
0
40
0
40
0
40
0.125
40
0.125
40
0.25
40
0.25
40
0.3125
40
0.3125
40
0.375
40
0.4375
40
0.4375
40
0.5
40
0.5
40
0.625
40
0.625
40
0.6875
40
0.6875
40
0.75
40
0.75
40
0.875
40
0.875
40
0.9375
40
0.9375
40
1
40
1
40
1
40
1
41
1
10
6.1946818023487
20
-0.694966715488334
30
0
41
1
10
6.19467474734179
20
-0.391153524810648
30
0
41
1
10
6.19466013341116
20
-0.0872297160252344
30
0
41
1
10
6.19462772511744
20
0.520831771797816
30
0
41
1
10
6.19460980949037
20
0.826866335957988
30
0
41
1
10
6.19458897105955
20
1.27131220998717
30
0
41
1
10
6.19458297186216
20
1.41808082007128
30
0
41
1
10
6.19457405526879
20
1.70308683887436
30
0
41
1
10
6.19456816118571
20
1.98042381668009
30
0
41
1
10
6.19456959410502
20
2.24275016947391
30
0
41
1
10
6.19457516736668
20
2.49748048006651
30
0
41
1
10
6.19458006976438
20
2.62170928058868
30
0
41
1
10
6.19460114546766
20
2.97715307249064
30
0
41
1
10
6.1946235787812
20
3.19039367560171
30
0
41
1
10
6.19466771854886
20
3.47521748277413
30
0
41
1
10
6.19468425172485
20
3.56466187205908
30
0
41
1
10
6.19471967133003
20
3.72911422028236
30
0
41
1
10
6.1947385059066
20
3.80405155291564
30
0
41
1
10
6.19479685918199
20
4.00727790232693
30
0
41
1
10
6.19483856115355
20
4.11439568574735
30
0
41
1
10
6.1948956853455
20
4.22670377321856
30
0
41
1
10
6.19491392039768
20
4.25633403519663
30
0
41
1
10
6.19494667094273
20
4.29898654616264
30
0
41
1
10
6.19496122946097
20
4.31214726103437
30
0
41
1
10
6.19497330639356
20
4.3173298563201
30
0
0
SPLINE
5
CE
100
AcDbEntity
8
1
62
256
6
ByLayer
370
18
48
1
60
0
100
AcDbSpline
70
4
71
3
72
26
73
22
40
0
40
0
40
0
40
0
40
0.103809753217789
40
0.103809753217789
40
0.207619506435579
40
0.207619506435579
40
0.415239012871158
40
0.415239012871158
40
0.519048766088947
40
0.519048766088947
40
0.622858519306735
40
0.622858519306735
40
0.67476339591563
40
0.67476339591563
40
0.726668272524524
40
0.726668272524524
40
0.830478025742313
40
0.830478025742313
40
0.934287778960102
40
0.934287778960102
40
1
40
1
40
1
40
1
41
1
10
6.08436681760668
20
-0.916747877433835
30
0
41
1
10
6.56244966364011
20
-1.15647348486536
30
0
41
1
10
7.04025909800859
20
-1.39219832571345
30
0
41
1
10
7.99464456165472
20
-1.84854053163431
30
0
41
1
10
8.47215271263909
20
-2.06964573272137
30
0
41
1
10
9.90478543578018
20
-2.70157698398336
30
0
41
1
10
10.8545257985684
20
-3.07923593262441
30
0
41
1
10
12.2870273638773
20
-3.55613793116751
30
0
41
1
10
12.7640297704085
20
-3.69916154586497
30
0
41
1
10
13.7163425730416
20
-3.95052727272261
30
0
41
1
10
14.1920709085848
20
-4.05897280746083
30
0
41
1
10
14.9074525308173
20
-4.19350960807012
30
0
41
1
10
15.1464389102238
20
-4.2337082483395
30
0
41
1
10
15.6235981024928
20
-4.30424480964072
30
0
41
1
10
15.8618641743811
20
-4.33462342679039
30
0
41
1
10
16.5761773182844
20
-4.41092682977904
30
0
41
1
10
17.0517035064825
20
-4.44200138825701
30
0
41
1
10
18.0045183008851
20
-4.46366434635021
30
0
41
1
10
18.4825262598389
20
-4.45417963779784
30
0
41
1
10
19.2604327342953
20
-4.40579825637576
30
0
41
1
10
19.5616047005756
20
-4.37898870341158
30
0
41
1
10
19.8628010480147
20
-4.34428948258542
30
0
0
SPLINE
5
CF
100
AcDbEntity
8
1
62
256
6
ByLayer
370
18
48
1
60
0
100
AcDbSpline
70
4
71
3
72
58
73
54
40
0
40
0
40
0
40
0
40
0.0345046483770168
40
0.0345046483770168
40
0.0590109431639256
40
0.0590109431639256
40
0.0835172379508344
40
0.0835172379508344
40
0.132529827524651
40
0.132529827524651
40
0.181542417098467
40
0.181542417098467
40
0.230555006672284
40
0.230555006672284
40
0.255061301459193
40
0.255061301459193
40
0.279567596246102
40
0.279567596246102
40
0.328580185819919
40
0.328580185819919
40
0.353086480606829
40
0.353086480606829
40
0.377592775393737
40
0.377592775393737
40
0.426605364967554
40
0.426605364967554
40
0.475617954541371
40
0.475617954541371
40
0.524630544115187
40
0.524630544115187
40
0.573643133689004
40
0.573643133689004
40
0.598149428475912
40
0.598149428475912
40
0.62265572326282
40
0.62265572326282
40
0.671668312836638
40
0.671668312836638
40
0.720680902410455
40
0.720680902410455
40
0.769693491984273
40
0.769693491984273
40
0.81870608155809
40
0.81870608155809
40
0.867718671131908
40
0.867718671131908
40
0.892224965918817
40
0.892224965918817
40
0.916731260705726
40
0.916731260705726
40
0.965743850279544
40
0.965743850279544
40
1
40
1
40
1
40
1
41
1
10
45.0787842660031
20
4.50610953282654
30
0
41
1
10
45.4130670990628
20
4.50671579102433
30
0
41
1
10
45.7473791581879
20
4.49724715048629
30
0
41
1
10
46.320031747726
20
4.46377567890781
30
0
41
1
10
46.5583485257829
20
4.44475160920749
30
0
41
1
10
47.0342263278415
20
4.39677025262034
30
0
41
1
10
47.2719010538444
20
4.36782365924589
30
0
41
1
10
47.9843194134756
20
4.26625983115531
30
0
41
1
10
48.4586178440093
20
4.17896491068893
30
0
41
1
10
49.408918695276
20
3.96708802085149
30
0
41
1
10
49.8857616956788
20
3.84241084811217
30
0
41
1
10
50.835929374557
20
3.55996724093694
30
0
41
1
10
51.3100533186759
20
3.40201637479032
30
0
41
1
10
52.022181128564
20
3.14289250408009
30
0
41
1
10
52.2597242200689
20
3.05283751013545
30
0
41
1
10
52.7354838653309
20
2.86581596368689
30
0
41
1
10
52.9736844953359
20
2.76879379093242
30
0
41
1
10
53.6866670146921
20
2.46913488962198
30
0
41
1
10
54.1608314236543
20
2.25751062270987
30
0
41
1
10
54.87253046653
20
1.9259179569716
30
0
41
1
10
55.1098611555754
20
1.81306762715099
30
0
41
1
10
55.5850715299868
20
1.58333879888178
30
0
41
1
10
55.8231682811522
20
1.46628796643162
30
0
41
1
10
56.5366528609906
20
1.11071798400255
30
0
41
1
10
57.010868369821
20
0.867915620514424
30
0
41
1
10
57.9593805231842
20
0.376398068600082
30
0
41
1
10
58.4339066937442
20
0.128127837357084
30
0
41
1
10
59.3854669792161
20
-0.369696708960703
30
0
41
1
10
59.8601313632305
20
-0.617742858874863
30
0
41
1
10
60.8086454228749
20
-1.10558912630569
30
0
41
1
10
61.2826954850897
20
-1.34563833299816
30
0
41
1
10
61.995446922966
20
-1.69616927969383
30
0
41
1
10
62.2334693769752
20
-1.81148795113495
30
0
41
1
10
62.7085142105216
20
-2.03733353417971
30
0
41
1
10
62.9457544713589
20
-2.14796213555138
30
0
41
1
10
63.657133833973
20
-2.47214357193889
30
0
41
1
10
64.1308968391293
20
-2.67804642318273
30
0
41
1
10
65.0802016175401
20
-3.06494456617213
30
0
41
1
10
65.5561922985103
20
-3.24599396837752
30
0
41
1
10
66.5049062877811
20
-3.57612820187953
30
0
41
1
10
66.9785128300777
20
-3.72571218800633
30
0
41
1
10
67.9270116636584
20
-3.99066436617633
30
0
41
1
10
68.4028657087728
20
-4.10619123057148
30
0
41
1
10
69.3518191410587
20
-4.29870254770324
30
0
41
1
10
69.8254514474387
20
-4.37579027260406
30
0
41
1
10
70.5363441699362
20
-4.46174273613394
30
0
41
1
10
70.7734064622493
20
-4.48543071773838
30
0
41
1
10
71.248116820901
20
-4.52269421781665
30
0
41
1
10
71.4859752960095
20
-4.53627673407507
30
0
41
1
10
72.1981411828614
20
-4.56156803697812
30
0
41
1
10
72.6717364210774
20
-4.55789009217872
30
0
41
1
10
73.4765195299682
20
-4.51699467520851
30
0
41
1
10
73.8078246195338
20
-4.4901981911317
30
0
41
1
10
74.139541161694
20
-4.45354531716248
30
0
0
SPLINE
5
D0
100
AcDbEntity
8
1
62
256
6
ByLayer
370
18
48
1
60
0
100
AcDbSpline
70
4
71
3
72
8
73
4
40
0
40
0
40
0
40
0
40
1
40
1
40
1
40
1
41
1
10
98.9997779848152
20
0.0853628325638738
30
0
41
1
10
98.9291947953235
20
0.276096959835968
30
0
41
1
10
98.8602824221749
20
0.468357207773295
30
0
41
1
10
98.7928525108827
20
0.662118219763869
30
0
0
SPLINE
5
D1
100
AcDbEntity
8
1
62
256
6
ByLayer
370
18
48
1
60
0
100
AcDbSpline
70
4
71
3
72
54
73
50
40
0
40
0
40
0
40
0
40
0.0366851777864313
40
0.0366851777864313
40
0.0854655434862332
40
0.0854655434862332
40
0.109855726336134
40
0.109855726336134
40
0.134245909186036
40
0.134245909186036
40
0.183026274885839
40
0.183026274885839
40
0.23180664058564
40
0.23180664058564
40
0.280587006285442
40
0.280587006285442
40
0.329367371985244
40
0.329367371985244
40
0.378147737685046
40
0.378147737685046
40
0.426928103384848
40
0.426928103384848
40
0.451318286234749
40
0.451318286234749
40
0.47570846908465
40
0.47570846908465
40
0.524488834784452
40
0.524488834784452
40
0.573269200484254
40
0.573269200484254
40
0.622049566184055
40
0.622049566184055
40
0.646439749033957
40
0.646439749033957
40
0.670829931883859
40
0.670829931883859
40
0.71961029758366
40
0.71961029758366
40
0.768390663283462
40
0.768390663283462
40
0.865951394683066
40
0.865951394683066
40
0.914731760382867
40
0.914731760382867
40
0.963512126082668
40
0.963512126082668
40
0.987902308932569
40
0.987902308932569
40
1
40
1
40
1
40
1
41
1
10
17.88529768377
20
4.45714948345798
30
0
41
1
10
18.2441048676881
20
4.45767197259636
30
0
41
1
10
18.6033606226034
20
4.44672336401257
30
0
41
1
10
19.4381497245396
20
4.39466635509072
30
0
41
1
10
19.91369412716
20
4.3448432160084
30
0
41
1
10
20.6279621697715
20
4.24092271456024
30
0
41
1
10
20.8661624058013
20
4.20139773549744
30
0
41
1
10
21.3431425407952
20
4.11273323172983
30
0
41
1
10
21.5820246675767
20
4.0635664439358
30
0
41
1
10
22.2971205336742
20
3.90265058424532
30
0
41
1
10
22.7727534906078
20
3.77734056395931
30
0
41
1
10
23.7244804183441
20
3.49345500088666
30
0
41
1
10
24.2010002055817
20
3.33462060488745
30
0
41
1
10
25.1552989569084
20
2.98767558937428
30
0
41
1
10
25.6309886676093
20
2.80012376097093
30
0
41
1
10
26.5823456103811
20
2.40133312114946
30
0
41
1
10
27.0579552540248
20
2.19000400180767
30
0
41
1
10
28.0119069765449
20
1.74807162754607
30
0
41
1
10
28.4883679573586
20
1.51816649780071
30
0
41
1
10
29.4396208566478
20
1.04734618366837
30
0
41
1
10
29.9149527426387
20
0.80617616171682
30
0
41
1
10
30.6295312331865
20
0.439589176167772
30
0
41
1
10
30.8682020869569
20
0.316402650705527
30
0
41
1
10
31.3447570448194
20
0.0698922292982047
30
0
41
1
10
31.5827211617736
20
-0.053447825749231
30
0
41
1
10
32.2962228056492
20
-0.422659318572954
30
0
41
1
10
32.7713965972393
20
-0.66767101212946
30
0
41
1
10
33.7231746794538
20
-1.15076504410334
30
0
41
1
10
34.2004657278667
20
-1.38935033930454
30
0
41
1
10
35.1521464171948
20
-1.84997977060797
30
0
41
1
10
35.6271721147409
20
-2.07260852040633
30
0
41
1
10
36.3404416474859
20
-2.39162636009487
30
0
41
1
10
36.5783201528644
20
-2.4954775103119
30
0
41
1
10
37.054681059222
20
-2.69758558373397
30
0
41
1
10
37.2932548468914
20
-2.79588020483945
30
0
41
1
10
38.0074132673379
20
-3.08036857075248
30
0
41
1
10
38.4823457957339
20
-3.25664290816008
30
0
41
1
10
39.4327690347018
20
-3.57852981068086
30
0
41
1
10
39.9087753113031
20
-3.72430262464681
30
0
41
1
10
41.3381124775414
20
-4.10969391485165
30
0
41
1
10
42.2855735444416
20
-4.29519641552932
30
0
41
1
10
43.7146275597118
20
-4.45456700244509
30
0
41
1
10
44.1904323242276
20
-4.48757478935258
30
0
41
1
10
45.1404847853913
20
-4.51288152844791
30
0
41
1
10
45.6151540731911
20
-4.50522042101352
30
0
41
1
10
46.3287694578447
20
-4.46313921585565
30
0
41
1
10
46.567141952278
20
-4.44398616527144
30
0
41
1
10
46.9231678775915
20
-4.40790441701122
30
0
41
1
10
47.041144550406
20
-4.39472171101946
30
0
41
1
10
47.159064048903
20
-4.38032523677006
30
0
0
SPLINE
5
D2
100
AcDbEntity
8
1
62
256
6
ByLayer
370
18
48
1
60
0
100
AcDbSpline
70
4
71
3
72
50
73
46
40
0
40
0
40
0
40
0
40
0.0346945497937627
40
0.0346945497937627
40
0.0914772233353057
40
0.0914772233353057
40
0.205042570418392
40
0.205042570418392
40
0.233433907189164
40
0.233433907189164
40
0.261825243959936
40
0.261825243959936
40
0.31860791750148
40
0.31860791750148
40
0.346999254272253
40
0.346999254272253
40
0.375390591043025
40
0.375390591043025
40
0.432173264584568
40
0.432173264584568
40
0.488955938126112
40
0.488955938126112
40
0.545738611667653
40
0.545738611667653
40
0.574129948438427
40
0.574129948438427
40
0.602521285209201
40
0.602521285209201
40
0.659303958750745
40
0.659303958750745
40
0.687695295521518
40
0.687695295521518
40
0.71608663229229
40
0.71608663229229
40
0.772869305833832
40
0.772869305833832
40
0.829651979375374
40
0.829651979375374
40
0.886434652916916
40
0.886434652916916
40
0.943217326458458
40
0.943217326458458
40
0.971608663229229
40
0.971608663229229
40
1
40
1
40
1
40
1
41
1
10
72.2912904725721
20
4.55508956808279
30
0
41
1
10
72.5809939023169
20
4.55538968302406
30
0
41
1
10
72.870448256287
20
4.54804040957796
30
0
41
1
10
73.6337547402185
20
4.50858208766113
30
0
41
1
10
74.1080881825927
20
4.46366061157292
30
0
41
1
10
75.5338053112561
20
4.26870402717222
30
0
41
1
10
76.4784107661691
20
4.05978746509126
30
0
41
1
10
77.6657547635249
20
3.71092665700425
30
0
41
1
10
77.9033790731718
20
3.63679001734357
30
0
41
1
10
78.3776344737595
20
3.48073349991583
30
0
41
1
10
78.6144876047682
20
3.39873090222037
30
0
41
1
10
79.3249270094183
20
3.14173086260161
30
0
41
1
10
79.7982753931234
20
2.95559827493827
30
0
41
1
10
80.5098313414846
20
2.65683573129689
30
0
41
1
10
80.747520712695
20
2.55388962001135
30
0
41
1
10
81.2221149111948
20
2.34283964289682
30
0
41
1
10
81.4591089736337
20
2.23468565184587
30
0
41
1
10
82.1696200256515
20
1.90309166239405
30
0
41
1
10
82.6426292712256
20
1.67244574276259
30
0
41
1
10
83.5904531927289
20
1.19741747566556
30
0
41
1
10
84.0659336185996
20
0.952697592351797
30
0
41
1
10
85.0134534583946
20
0.457993660676181
30
0
41
1
10
85.4863247519963
20
0.207587125152258
30
0
41
1
10
86.1966900234771
20
-0.168069322402033
30
0
41
1
10
86.4336366209761
20
-0.293330119476224
30
0
41
1
10
86.9081457633371
20
-0.543367567797645
30
0
41
1
10
87.1456315228548
20
-0.668101516355676
30
0
41
1
10
87.8565592643756
20
-1.03895023394105
30
0
41
1
10
88.3295260602307
20
-1.28211274195698
30
0
41
1
10
89.039446318362
20
-1.63720047791139
30
0
41
1
10
89.2761665676634
20
-1.75395013037212
30
0
41
1
10
89.7501132852982
20
-1.98359364138935
30
0
41
1
10
89.9875811344514
20
-2.09661359875184
30
0
41
1
10
90.6989448052516
20
-2.42761671721365
30
0
41
1
10
91.1719175056302
20
-2.637862224613
30
0
41
1
10
92.1180704875237
20
-3.03329600142394
30
0
41
1
10
92.5913808791144
20
-3.21853557000327
30
0
41
1
10
93.5404178074793
20
-3.55961160863714
30
0
41
1
10
94.0125684836093
20
-3.71408907851915
30
0
41
1
10
94.9549245466031
20
-3.98834381002556
30
0
41
1
10
95.4251178993083
20
-4.1081329498555
30
0
41
1
10
96.1309957564003
20
-4.26001127085996
30
0
41
1
10
96.3663825472948
20
-4.30600855635319
30
0
41
1
10
96.8376421164149
20
-4.3884812943719
30
0
41
1
10
97.0733001068905
20
-4.42506018889523
30
0
41
1
10
97.3097972897413
20
-4.45652161746372
30
0
0
SPLINE
5
D3
100
AcDbEntity
8
1
62
256
6
ByLayer
370
18
48
1
60
0
100
AcDbSpline
70
4
71
3
72
8
73
4
40
0
40
0
40
0
40
0
40
1
40
1
40
1
40
1
41
1
10
98.7928525108908
20
0.662118219740677
30
0
41
1
10
98.5226081278873
20
1.43867011091203
30
0
41
1
10
98.2548482235349
20
2.21607601648805
30
0
41
1
10
97.9895892824593
20
2.99434160289206
30
0
0
SPLINE
5
D4
100
AcDbEntity
8
1
62
256
6
ByLayer
370
18
48
1
60
0
100
AcDbSpline
70
4
71
1
72
4
73
2
40
0
40
0
40
1
40
1
41
1
10
97.324475824717
20
-4.37548941540447
30
0
41
1
10
98.3080058646233
20
-1.05514764619591
30
0
0
SPLINE
5
D5
100
AcDbEntity
8
1
62
256
6
ByLayer
370
18
48
1
60
0
100
AcDbSpline
70
4
71
3
72
62
73
58
40
0
40
0
40
0
40
0
40
0.0279485772833232
40
0.0279485772833232
40
0.0558971545666463
40
0.0558971545666463
40
0.0838457318499695
40
0.0838457318499695
40
0.111794309133293
40
0.111794309133293
40
0.167691463699939
40
0.167691463699939
40
0.195640040983262
40
0.195640040983262
40
0.223588618266585
40
0.223588618266585
40
0.27948577283323
40
0.27948577283323
40
0.307434350116553
40
0.307434350116553
40
0.335382927399875
40
0.335382927399875
40
0.39128008196652
40
0.39128008196652
40
0.447177236533165
40
0.447177236533165
40
0.475125813816487
40
0.475125813816487
40
0.503074391099809
40
0.503074391099809
40
0.558971545666451
40
0.558971545666451
40
0.586920122949772
40
0.586920122949772
40
0.614868700233093
40
0.614868700233093
40
0.642817277516414
40
0.642817277516414
40
0.670765854799735
40
0.670765854799735
40
0.698714432083056
40
0.698714432083056
40
0.726663009366377
40
0.726663009366377
40
0.782560163933021
40
0.782560163933021
40
0.838457318499664
40
0.838457318499664
40
0.866405895782987
40
0.866405895782987
40
0.894354473066309
40
0.894354473066309
40
0.950251627632954
40
0.950251627632954
40
0.978200204916276
40
0.978200204916276
40
1
40
1
40
1
40
1
41
1
10
13.5127468400737
20
1.32083271428235
30
0
41
1
10
13.7328609044591
20
1.21636263537533
30
0
41
1
10
13.9522590957889
20
1.11070693985067
30
0
41
1
10
14.3897952115674
20
0.897369300743406
30
0
41
1
10
14.6082393409358
20
0.79032403960889
30
0
41
1
10
15.0441898924572
20
0.574867873808074
30
0
41
1
10
15.2617087544106
20
0.466492829189036
30
0
41
1
10
15.696396609028
20
0.249701638963643
30
0
41
1
10
15.9133974954017
20
0.140908243488894
30
0
41
1
10
16.5641438375816
20
-0.185123511682349
30
0
41
1
10
16.9975713034179
20
-0.402120660705066
30
0
41
1
10
17.6480336725642
20
-0.725432741336078
30
0
41
1
10
17.8647736905752
20
-0.833120434510107
30
0
41
1
10
18.2991100013301
20
-1.04602845076909
30
0
41
1
10
18.5165682942801
20
-1.1515229774061
30
0
41
1
10
19.1699253470309
20
-1.46518322674424
30
0
41
1
10
19.6070877277984
20
-1.66987212308365
30
0
41
1
10
20.2660366487755
20
-1.96878236676372
30
0
41
1
10
20.4857058222884
20
-2.06758586332737
30
0
41
1
10
20.9234947973
20
-2.25936573349952
30
0
41
1
10
21.1417540718848
20
-2.35244816315358
30
0
41
1
10
21.7952392009168
20
-2.62455891871522
30
0
41
1
10
22.2293885451097
20
-2.79576627766144
30
0
41
1
10
23.0965166362886
20
-3.11523829961408
30
0
41
1
10
23.5293737361749
20
-3.26441003730187
30
0
41
1
10
24.1790189978806
20
-3.46918304823706
30
0
41
1
10
24.395780278097
20
-3.53392921239146
30
0
41
1
10
24.8293637074474
20
-3.65866799240465
30
0
41
1
10
25.0462472462077
20
-3.71794582715106
30
0
41
1
10
25.6985954895346
20
-3.88199604867603
30
0
41
1
10
26.1349541685589
20
-3.97637901359249
30
0
41
1
10
26.7926034040768
20
-4.09687785366961
30
0
41
1
10
27.0125282147204
20
-4.13336422809183
30
0
41
1
10
27.4505251824326
20
-4.19900131185648
30
0
41
1
10
27.6689333889159
20
-4.22879756881835
30
0
41
1
10
28.1049859289462
20
-4.27823387352237
30
0
41
1
10
28.3224897570373
20
-4.29814387209777
30
0
41
1
10
28.7569380676992
20
-4.32990299305456
30
0
41
1
10
28.973988766038
20
-4.34168865130036
30
0
41
1
10
29.4075183860506
20
-4.35701059587294
30
0
41
1
10
29.6241539042306
20
-4.36049312284456
30
0
41
1
10
30.05732952883
20
-4.35999738365254
30
0
41
1
10
30.2737177629321
20
-4.35613501473219
30
0
41
1
10
30.9234630320301
20
-4.33163976021314
30
0
41
1
10
31.3569613385468
20
-4.29744639557646
30
0
41
1
10
32.2262723676556
20
-4.19817832917957
30
0
41
1
10
32.6622840084742
20
-4.13177585221368
30
0
41
1
10
33.319251760916
20
-4.01061481217542
30
0
41
1
10
33.5390447396032
20
-3.96605263209568
30
0
41
1
10
33.9764431792895
20
-3.86851702936176
30
0
41
1
10
34.19466459673
20
-3.81590274679817
30
0
41
1
10
34.8479073521701
20
-3.64782658558281
30
0
41
1
10
35.2817531546868
20
-3.52211077180715
30
0
41
1
10
35.9312832641681
20
-3.31744766974953
30
0
41
1
10
36.14765835162
20
-3.24607273230151
30
0
41
1
10
36.5325466442282
20
-3.11234158078827
30
0
41
1
10
36.7012218501533
20
-3.05183132288977
30
0
41
1
10
36.8699344698573
20
-2.98954158936132
30
0
0
SPLINE
5
D6
100
AcDbEntity
8
1
62
256
6
ByLayer
370
18
48
1
60
0
100
AcDbSpline
70
4
71
3
72
92
73
88
40
0
40
0
40
0
40
0
40
0.0264231016883163
40
0.0264231016883163
40
0.0453768474627777
40
0.0453768474627777
40
0.0643305932372388
40
0.0643305932372388
40
0.102238084786161
40
0.102238084786161
40
0.121191830560621
40
0.121191830560621
40
0.140145576335081
40
0.140145576335081
40
0.159099322109541
40
0.159099322109541
40
0.178053067884002
40
0.178053067884002
40
0.197006813658462
40
0.197006813658462
40
0.215960559432922
40
0.215960559432922
40
0.253868050981842
40
0.253868050981842
40
0.272821796756301
40
0.272821796756301
40
0.291775542530761
40
0.291775542530761
40
0.32968303407968
40
0.32968303407968
40
0.348636779854139
40
0.348636779854139
40
0.367590525628599
40
0.367590525628599
40
0.386544271403058
40
0.386544271403058
40
0.405498017177517
40
0.405498017177517
40
0.424451762951977
40
0.424451762951977
40
0.443405508726436
40
0.443405508726436
40
0.462359254500896
40
0.462359254500896
40
0.481313000275355
40
0.481313000275355
40
0.500266746049815
40
0.500266746049815
40
0.519220491824274
40
0.519220491824274
40
0.538174237598734
40
0.538174237598734
40
0.557127983373193
40
0.557127983373193
40
0.576081729147653
40
0.576081729147653
40
0.595035474922112
40
0.595035474922112
40
0.632942966471031
40
0.632942966471031
40
0.67085045801995
40
0.67085045801995
40
0.689804203794409
40
0.689804203794409
40
0.708757949568869
40
0.708757949568869
40
0.746665441117787
40
0.746665441117787
40
0.765619186892247
40
0.765619186892247
40
0.784572932666707
40
0.784572932666707
40
0.822480424215627
40
0.822480424215627
40
0.860387915764547
40
0.860387915764547
40
0.879341661539007
40
0.879341661539007
40
0.898295407313467
40
0.898295407313467
40
0.936202898862389
40
0.936202898862389
40
0.97411039041131
40
0.97411039041131
40
0.993064136185771
40
0.993064136185771
40
1
40
1
40
1
40
1
41
1
10
56.9738393745737
20
4.40887102309304
30
0
41
1
10
57.2773478618912
20
4.40920083484633
30
0
41
1
10
57.5799118353223
20
4.40152841554288
30
0
41
1
10
58.0984608912626
20
4.37538837938618
30
0
41
1
10
58.3148704386928
20
4.3614691817989
30
0
41
1
10
58.7470520619095
20
4.32364263802074
30
0
41
1
10
58.9629739024729
20
4.29996011759559
30
0
41
1
10
59.6107687932531
20
4.21657259245504
30
0
41
1
10
60.0424441032192
20
4.14471620390467
30
0
41
1
10
60.6907497484391
20
4.01582094361774
30
0
41
1
10
60.907099321955
20
3.96949945322413
30
0
41
1
10
61.3401211528873
20
3.86973671168332
30
0
41
1
10
61.5569794541841
20
3.81529989133563
30
0
41
1
10
61.991879145684
20
3.69872453199398
30
0
41
1
10
62.2097295113801
20
3.63641972940405
30
0
41
1
10
62.6466747768824
20
3.50489860734251
30
0
41
1
10
62.865880513868
20
3.43565537433358
30
0
41
1
10
63.3022335979391
20
3.29150040060699
30
0
41
1
10
63.5199767700685
20
3.21683579935166
30
0
41
1
10
63.9545211702996
20
3.06205011956871
30
0
41
1
10
64.1712432912945
20
2.98157492947465
30
0
41
1
10
64.820810078633
20
2.73156371335776
30
0
41
1
10
65.2526242695441
20
2.55342957084505
30
0
41
1
10
65.900044378834
20
2.27376296659764
30
0
41
1
10
66.1158436204123
20
2.17851534419495
30
0
41
1
10
66.5474804324544
20
1.98467040730137
30
0
41
1
10
66.7631770946774
20
1.88567800609656
30
0
41
1
10
67.4114692215415
20
1.58290828677897
30
0
41
1
10
67.8445195056081
20
1.37341738264084
30
0
41
1
10
68.4966342763591
20
1.05137627068578
30
0
41
1
10
68.7144777816045
20
0.942607832702095
30
0
41
1
10
69.1513552821684
20
0.723239374842365
30
0
41
1
10
69.3702176000402
20
0.61225362989245
30
0
41
1
10
69.8070411811541
20
0.390090403356936
30
0
41
1
10
70.025258218666
20
0.278734115407474
30
0
41
1
10
70.461288638857
20
0.0553913969369262
30
0
41
1
10
70.6792814038664
20
-0.0562441767312407
30
0
41
1
10
71.1151344203944
20
-0.279596034486445
30
0
41
1
10
71.3330692135183
20
-0.39114612681135
30
0
41
1
10
71.7694234842462
20
-0.613128325554129
30
0
41
1
10
71.9876379852674
20
-0.723961850168337
30
0
41
1
10
72.4245700386736
20
-0.944481489833834
30
0
41
1
10
72.6433297367599
20
-1.05369987694357
30
0
41
1
10
73.0789202145719
20
-1.26944033962701
30
0
41
1
10
73.2962833431169
20
-1.3758808771656
30
0
41
1
10
73.7301860141542
20
-1.58629885775463
30
0
41
1
10
73.9466198278261
20
-1.69021603479925
30
0
41
1
10
74.3791575676437
20
-1.89320152277713
30
0
41
1
10
74.59510213037
20
-1.99296632658681
30
0
41
1
10
75.0266708279196
20
-2.18881673380332
30
0
41
1
10
75.2424225265081
20
-2.28459917700903
30
0
41
1
10
75.6736641684585
20
-2.47179789025535
30
0
41
1
10
75.889295365805
20
-2.56308566861901
30
0
41
1
10
76.320720945828
20
-2.74148796488976
30
0
41
1
10
76.5362807202123
20
-2.82932389984012
30
0
41
1
10
76.9682919152804
20
-2.99770556772407
30
0
41
1
10
77.1846207659232
20
-3.07862784367185
30
0
41
1
10
77.8343799754565
20
-3.31386805807517
30
0
41
1
10
78.2690808153891
20
-3.45922003321044
30
0
41
1
10
79.1430858759176
20
-3.725314759063
30
0
41
1
10
79.5780211533295
20
-3.84528839546044
30
0
41
1
10
80.2274980405712
20
-4.00082486016601
30
0
41
1
10
80.4437031559613
20
-4.049096515944
30
0
41
1
10
80.8754866394964
20
-4.13790473565331
30
0
41
1
10
81.0910298013902
20
-4.17793428342088
30
0
41
1
10
81.737676321674
20
-4.28540325278385
30
0
41
1
10
82.1682648671186
20
-4.34117888438465
30
0
41
1
10
82.8146322621254
20
-4.40220332046479
30
0
41
1
10
83.0302056456067
20
-4.41885379126856
30
0
41
1
10
83.4617244713311
20
-4.44471016843264
30
0
41
1
10
83.6775500766931
20
-4.45369252885192
30
0
41
1
10
84.3269214126533
20
-4.46495417704136
30
0
41
1
10
84.7614576667833
20
-4.45464579413201
30
0
41
1
10
85.6352313463684
20
-4.40133775251843
30
0
41
1
10
86.0697178777318
20
-4.35931563419251
30
0
41
1
10
86.7191753640159
20
-4.27182980432494
30
0
41
1
10
86.9353070554459
20
-4.23828949303578
30
0
41
1
10
87.3669009085629
20
-4.16374450894807
30
0
41
1
10
87.5825404810195
20
-4.12303335671103
30
0
41
1
10
88.2289103588741
20
-3.98839697074595
30
0
41
1
10
88.6594216093221
20
-3.88172362802487
30
0
41
1
10
89.5213543783244
20
-3.6424533192438
30
0
41
1
10
89.9528097887944
20
-3.50959282279453
30
0
41
1
10
90.6021036096203
20
-3.2904531036842
30
0
41
1
10
90.818809611846
20
-3.21377543118859
30
0
41
1
10
91.1158179969354
20
-3.10447855176645
30
0
41
1
10
91.1954823434127
20
-3.07474747025484
30
0
41
1
10
91.275213328001
20
-3.04459374784525
30
0
0
SPLINE
5
D7
100
AcDbEntity
8
1
62
256
6
ByLayer
370
18
48
1
60
0
100
AcDbSpline
70
4
71
3
72
12
73
8
40
0
40
0
40
0
40
0
40
0.18785572328633
40
0.18785572328633
40
0.59271783553457
40
0.59271783553457
40
1
40
1
40
1
40
1
41
1
10
72.7900993150788
20
-4.43830948253174
30
0
41
1
10
72.6796622282495
20
-4.43815679845173
30
0
41
1
10
72.5690900651447
20
-4.43691697666208
30
0
41
1
10
72.2197325699046
20
-4.4295428020458
30
0
41
1
10
71.9813193509019
20
-4.41945014334465
30
0
41
1
10
71.5046455592103
20
-4.38935308129021
30
0
41
1
10
71.2661479273334
20
-4.36924107307973
30
0
41
1
10
71.0280367400389
20
-4.34424094691195
30
0
0
SPLINE
5
D8
100
AcDbEntity
8
1
62
256
6
ByLayer
370
13
48
1
60
0
100
AcDbSpline
70
4
71
3
72
40
73
36
40
0
40
0
40
0
40
0
40
0.0964630562968769
40
0.0964630562968769
40
0.16090015081721
40
0.16090015081721
40
0.193118698077377
40
0.193118698077377
40
0.225337245337544
40
0.225337245337544
40
0.354211434378216
40
0.354211434378216
40
0.418648528898552
40
0.418648528898552
40
0.483085623418889
40
0.483085623418889
40
0.515304170679057
40
0.515304170679057
40
0.547522717939226
40
0.547522717939226
40
0.611959812459562
40
0.611959812459562
40
0.740834001500234
40
0.740834001500234
40
0.80527109602057
40
0.80527109602057
40
0.869708190540907
40
0.869708190540907
40
0.934145285061243
40
0.934145285061243
40
0.966363832321411
40
0.966363832321411
40
0.99858237958158
40
0.99858237958158
40
1
40
1
40
1
40
1
41
1
10
71.0280367400956
20
-4.34424094691795
30
0
41
1
10
70.3193625618538
20
-4.26983476689503
30
0
41
1
10
69.6141114934898
20
-4.15212984333579
30
0
41
1
10
68.4362953430218
20
-3.88931546553317
30
0
41
1
10
67.9641806247038
20
-3.76633442929256
30
0
41
1
10
67.2534975777325
20
-3.5566004939885
30
0
41
1
10
67.0161913456038
20
-3.48245445765002
30
0
41
1
10
66.5403422724187
20
-3.32606850561203
30
0
41
1
10
66.3013360428095
20
-3.24371288006247
30
0
41
1
10
65.1085798182252
20
-2.81486963903777
30
0
41
1
10
64.1649106703126
20
-2.4185471735496
30
0
41
1
10
62.7493256684535
20
-1.77164622345444
30
0
41
1
10
62.2775096446999
20
-1.54732488767638
30
0
41
1
10
61.3313423083712
20
-1.08578143125251
30
0
41
1
10
60.8569367346782
20
-0.848540048384081
30
0
41
1
10
60.1414544868713
20
-0.486916734460607
30
0
41
1
10
59.9021613977408
20
-0.365302328965072
30
0
41
1
10
59.4256927111233
20
-0.122618276392586
30
0
41
1
10
59.1880602499405
20
-0.0013310101234651
30
0
41
1
10
58.4764454238432
20
0.361281616585075
30
0
41
1
10
58.0036952324189
20
0.601192081295238
30
0
41
1
10
56.5871915931871
20
1.30972218147576
30
0
41
1
10
55.6443686034612
20
1.76514603426148
30
0
41
1
10
54.2177059138132
20
2.39461581867744
30
0
41
1
10
53.7388756954216
20
2.59576455747336
30
0
41
1
10
52.7837350392851
20
2.97105328854093
30
0
41
1
10
52.3065710442997
20
3.14547671954136
30
0
41
1
10
51.3507609924039
20
3.46510165310795
30
0
41
1
10
50.8726220398425
20
3.6098818750948
30
0
41
1
10
50.1559671663734
20
3.80068863461693
30
0
41
1
10
49.9170190291109
20
3.85991315280748
30
0
41
1
10
49.4387229663164
20
3.96943633389529
30
0
41
1
10
49.199574841456
20
4.01981017007179
30
0
41
1
10
48.9508091416683
20
4.06741587944751
30
0
41
1
10
48.9403258483692
20
4.06941315397839
30
0
41
1
10
48.9298436559569
20
4.0714013177942
30
0
0
SPLINE
5
D9
100
AcDbEntity
8
1
62
256
6
ByLayer
370
18
48
1
60
0
100
AcDbSpline
70
4
71
3
72
12
73
8
40
0
40
0
40
0
40
0
40
0.0666966216269249
40
0.0666966216269249
40
0.45885185168115
40
0.45885185168115
40
1
40
1
40
1
40
1
41
1
10
18.4480639573883
20
-4.34054769241854
30
0
41
1
10
18.4073147064832
20
-4.34060543423556
30
0
41
1
10
18.366563790094
20
-4.3405172551569
30
0
41
1
10
18.086234731468
20
-4.3389022923426
30
0
41
1
10
17.8473243630696
20
-4.3324674375215
30
0
41
1
10
17.2798834161932
20
-4.3056066651115
30
0
41
1
10
16.9518242892581
20
-4.28076980896617
30
0
41
1
10
16.6243035883884
20
-4.24691015235967
30
0
0
SPLINE
5
DA
100
AcDbEntity
8
1
62
256
6
ByLayer
370
13
48
1
60
0
100
AcDbSpline
70
4
71
3
72
18
73
14
40
0
40
0
40
0
40
0
40
0.17921021989726
40
0.17921021989726
40
0.316008516581049
40
0.316008516581049
40
0.384407664922944
40
0.384407664922944
40
0.452806813264839
40
0.452806813264839
40
0.726403406632419
40
0.726403406632419
40
1
40
1
40
1
40
1
41
1
10
16.6243025921192
20
-4.24691004936358
30
0
41
1
10
16.0024425292319
20
-4.18262104540341
30
0
41
1
10
15.3825235022194
20
-4.08580465511832
30
0
41
1
10
14.2877952615343
20
-3.86061998295867
30
0
41
1
10
13.8134349653018
20
-3.74547881243279
30
0
41
1
10
13.099091184904
20
-3.54742911782955
30
0
41
1
10
12.8605136280544
20
-3.47720257340032
30
0
41
1
10
12.3821402872896
20
-3.32851001414798
30
0
41
1
10
12.1418998045675
20
-3.24989630048142
30
0
41
1
10
10.9448422628719
20
-2.84022997080567
30
0
41
1
10
9.99705320695543
20
-2.45856665870502
30
0
41
1
10
8.10114072510703
20
-1.62196580557594
30
0
41
1
10
7.15320389780157
20
-1.16707964544648
30
0
41
1
10
6.19468180234873
20
-0.694966715488334
30
0
0
SPLINE
5
DB
100
AcDbEntity
8
1
62
256
6
ByLayer
370
18
48
1
60
0
100
AcDbSpline
70
4
71
3
72
12
73
8
40
0
40
0
40
0
40
0
40
0.25
40
0.25
40
0.5
40
0.5
40
1
40
1
40
1
40
1
41
1
10
97.8884042318042
20
1.6492352893157
30
0
41
1
10
97.9158138844846
20
1.6777998908197
30
0
41
1
10
97.9403520469297
20
1.70839000306111
30
0
41
1
10
97.9818342153807
20
1.77431607414016
30
0
41
1
10
97.9990024276607
20
1.81029601690315
30
0
41
1
10
98.0346178987195
20
1.92325846300326
30
0
41
1
10
98.036135032154
20
2.00417540978231
30
0
41
1
10
98.0203764898855
20
2.08211258603961
30
0
0
SPLINE
5
DC
100
AcDbEntity
8
1
62
256
6
ByLayer
370
18
48
1
60
0
100
AcDbSpline
70
4
71
3
72
8
73
4
40
0
40
0
40
0
40
0
40
1
40
1
40
1
40
1
41
1
10
16.7980603439298
20
-4.45454395306894
30
0
41
1
10
16.8481774118064
20
-4.45508013908977
30
0
41
1
10
16.8982684920522
20
-4.4553914416019
30
0
41
1
10
16.9483339343026
20
-4.45547877010415
30
0
0
SPLINE
5
DD
100
AcDbEntity
8
1
62
256
6
ByLayer
370
18
48
1
60
0
100
AcDbSpline
70
4
71
3
72
52
73
48
40
0
40
0
40
0
40
0
40
0.0032131526664731
40
0.0032131526664731
40
0.0762379405306614
40
0.0762379405306614
40
0.14926272839485
40
0.14926272839485
40
0.167518925360897
40
0.167518925360897
40
0.185775122326944
40
0.185775122326944
40
0.222287516259039
40
0.222287516259039
40
0.295312304123228
40
0.295312304123228
40
0.331824698055322
40
0.331824698055322
40
0.368337091987416
40
0.368337091987416
40
0.441361879851605
40
0.441361879851605
40
0.514386667715794
40
0.514386667715794
40
0.550899061647889
40
0.550899061647889
40
0.587411455579984
40
0.587411455579984
40
0.660436243444174
40
0.660436243444174
40
0.696948637376268
40
0.696948637376268
40
0.715204834342315
40
0.715204834342315
40
0.733461031308363
40
0.733461031308363
40
0.806485819172554
40
0.806485819172554
40
0.879510607036745
40
0.879510607036745
40
0.897766804002792
40
0.897766804002792
40
0.91602300096884
40
0.91602300096884
40
0.952535394900934
40
0.952535394900934
40
1
40
1
40
1
40
1
41
1
10
36.8865539757761
20
2.99898869061599
30
0
41
1
10
36.9236570134977
20
3.01335366064899
30
0
41
1
10
36.960748731044
20
3.02762773431238
30
0
41
1
10
37.8405886917419
20
3.36409459115757
30
0
41
1
10
38.6763003203439
20
3.64130759009106
30
0
41
1
10
40.3494416503776
20
4.08767306118904
30
0
41
1
10
41.186631812092
20
4.25717752003209
30
0
41
1
10
42.243029480447
20
4.3925806944367
30
0
41
1
10
42.4553279493105
20
4.41581615396979
30
0
41
1
10
42.8787426974807
20
4.45432637195364
30
0
41
1
10
43.089873580194
20
4.46955517175056
30
0
41
1
10
43.7221401675358
20
4.50320868985924
30
0
41
1
10
44.1417841664984
20
4.50968631440682
30
0
41
1
10
45.3979194004075
20
4.48170902967289
30
0
41
1
10
46.2323463533868
20
4.39998396227548
30
0
41
1
10
47.4895490442674
20
4.18629752297545
30
0
41
1
10
47.9095862837937
20
4.09989535661305
30
0
41
1
10
48.7535085214416
20
3.89753565210728
30
0
41
1
10
49.1783513423425
20
3.78125134601788
30
0
41
1
10
50.4432546052853
20
3.39613150236005
30
0
41
1
10
51.2785594411939
20
3.08887803568675
30
0
41
1
10
52.950002601254
20
2.39839616915555
30
0
41
1
10
53.7854030793124
20
2.014089163628
30
0
41
1
10
55.0497067475917
20
1.39747538228437
30
0
41
1
10
55.4743407433596
20
1.18452528412902
30
0
41
1
10
56.3177667894818
20
0.754681104273146
30
0
41
1
10
56.7374519171168
20
0.537075045032992
30
0
41
1
10
57.993358051627
20
-0.118035039999484
30
0
41
1
10
58.8269699064069
20
-0.556774917978089
30
0
41
1
10
60.081732725435
20
-1.19869549289564
30
0
41
1
10
60.5009268337434
20
-1.40955375779876
30
0
41
1
10
61.1323839521336
20
-1.71872773934982
30
0
41
1
10
61.3433418787218
20
-1.82054738044647
30
0
41
1
10
61.7662333477701
20
-2.02163838103297
30
0
41
1
10
61.9780241616646
20
-2.12042712784458
30
0
41
1
10
63.0324056130311
20
-2.60310802562225
30
0
41
1
10
63.8675754489074
20
-2.95458884820326
30
0
41
1
10
65.537438071227
20
-3.56568470600814
30
0
41
1
10
66.371247170354
20
-3.82645473799613
30
0
41
1
10
67.422584636981
20
-4.08289619512186
30
0
41
1
10
67.6332675654305
20
-4.13075615984624
30
0
41
1
10
68.0556478271806
20
-4.21934832121758
30
0
41
1
10
68.267554906966
20
-4.25995331573321
30
0
41
1
10
68.9002122091832
20
-4.37001216995537
30
0
41
1
10
69.3198879385558
20
-4.42775646421154
30
0
41
1
10
70.282461384646
20
-4.52432984383753
30
0
41
1
10
70.824707548925
20
-4.55226753585762
30
0
41
1
10
71.3669934399599
20
-4.55343875375905
30
0
0
SPLINE
5
DE
100
AcDbEntity
8
1
62
256
6
ByLayer
370
18
48
1
60
0
100
AcDbSpline
70
4
71
3
72
16
73
12
40
0
40
0
40
0
40
0
40
0.177967222038894
40
0.177967222038894
40
0.280721319284032
40
0.280721319284032
40
0.383475416529171
40
0.383475416529171
40
0.588983611019447
40
0.588983611019447
40
1
40
1
40
1
40
1
41
1
10
91.2557769314433
20
3.04189298929873
30
0
41
1
10
91.6168617805985
20
3.18559159438456
30
0
41
1
10
91.9784882913679
20
3.3216036934997
30
0
41
1
10
92.5507868449953
20
3.52243023033671
30
0
41
1
10
92.760528277642
20
3.59322045787937
30
0
41
1
10
93.1811800944841
20
3.72846480777906
30
0
41
1
10
93.3924002904965
20
3.79305484547871
30
0
41
1
10
94.0251331924462
20
3.97669804943638
30
0
41
1
10
94.4450456052695
20
4.08477776590127
30
0
41
1
10
95.7018996360115
20
4.36441831141678
30
0
41
1
10
96.5354918604655
20
4.49164076695703
30
0
41
1
10
97.3727173360548
20
4.55520554519714
30
0
0
SPLINE
5
DF
100
AcDbEntity
8
1
62
256
6
ByLayer
370
18
48
1
60
0
100
AcDbSpline
70
4
71
3
72
18
73
14
40
0
40
0
40
0
40
0
40
0.0934168062610364
40
0.0934168062610364
40
0.186833612522073
40
0.186833612522073
40
0.373667225044146
40
0.373667225044146
40
0.747334450088293
40
0.747334450088293
40
0.934168062610366
40
0.934168062610366
40
1
40
1
40
1
40
1
41
1
10
5.73950164179917
20
-4.18101174406635
30
0
41
1
10
5.73430347467266
20
-4.19676658000796
30
0
41
1
10
5.73075820744828
20
-4.211889052039
30
0
41
1
10
5.72677031326324
20
-4.24055446257131
30
0
41
1
10
5.72681615340855
20
-4.25414845753477
30
0
41
1
10
5.72679744871505
20
-4.29270881729005
30
0
41
1
10
5.7267796070206
20
-4.31545733334286
30
0
41
1
10
5.72671206013115
20
-4.37492399785384
30
0
41
1
10
5.72664835947907
20
-4.40289885978183
30
0
41
1
10
5.72653249519834
20
-4.42709891413949
30
0
41
1
10
5.72649033267294
20
-4.43219788084119
30
0
41
1
10
5.7264301012813
20
-4.43496198739976
30
0
41
1
10
5.72641412062356
20
-4.4353057209058
30
0
41
1
10
5.72639788344185
20
-4.43527562820549
30
0
0
SPLINE
5
E0
100
AcDbEntity
8
1
62
256
6
ByLayer
370
18
48
1
60
0
100
AcDbSpline
70
4
71
3
72
37
73
33
40
0
40
0
40
0
40
0
40
0.0243572436086802
40
0.0243572436086802
40
0.0994066864080124
40
0.0994066864080124
40
0.136931407807679
40
0.136931407807679
40
0.174456129207344
40
0.174456129207344
40
0.249505572006677
40
0.249505572006677
40
0.324555014806009
40
0.324555014806009
40
0.399604457605342
40
0.399604457605342
40
0.549703343204007
40
0.549703343204007
40
0.587228064603673
40
0.587228064603673
40
0.624752786003339
40
0.624752786003339
40
0.699802228802671
40
0.699802228802671
40
0.737326950202338
40
0.737326950202338
40
0.774851671602004
40
0.774851671602004
40
0.849901114401336
40
0.924950557200668
40
0.924950557200668
40
1
40
1
40
1
40
1
41
1
10
5.7263980845139
20
4.43527598176823
30
0
41
1
10
5.72636817681331
20
4.43522623165509
30
0
41
1
10
5.72633739814566
20
4.43390783564169
30
0
41
1
10
5.72620901717917
20
4.42341664699819
30
0
41
1
10
5.7261056998297
20
4.40364289209734
30
0
41
1
10
5.7259485661107
20
4.35626240411989
30
0
41
1
10
5.72589581623657
20
4.33750678912256
30
0
41
1
10
5.72579069304214
20
4.29397246969575
30
0
41
1
10
5.72573815728978
20
4.26909353396846
30
0
41
1
10
5.72558456748584
20
4.18623479374978
30
0
41
1
10
5.72548721682637
20
4.11999903899633
30
0
41
1
10
5.72530879882402
20
3.96617948315057
30
0
41
1
10
5.725227715492
20
3.878594718747
30
0
41
1
10
5.72508638570602
20
3.6816728671717
30
0
41
1
10
5.72502611266393
20
3.57173067131561
30
0
41
1
10
5.72488451992575
20
3.21800937448458
30
0
41
1
10
5.72484090705751
20
2.94846419404624
30
0
41
1
10
5.72483947607549
20
2.5684008529779
30
0
41
1
10
5.7248417984062
20
2.49047792079855
30
0
41
1
10
5.72485084136835
20
2.33241347070717
30
0
41
1
10
5.72485755955938
20
2.25204761688121
30
0
41
1
10
5.72488297473069
20
2.00701369081881
30
0
41
1
10
5.72490697527786
20
1.83842480356654
30
0
41
1
10
5.72494761428459
20
1.57766231785956
30
0
41
1
10
5.72496192400115
20
1.4894244257523
30
0
41
1
10
5.72499092998584
20
1.31026094180641
30
0
41
1
10
5.72500566286573
20
1.21908249129297
30
0
41
1
10
5.72504796314149
20
0.945184179656337
30
0
41
1
10
5.72509965300321
20
0.577070326893903
30
0
41
1
10
5.72512163822404
20
0.203284630566486
30
0
41
1
10
5.72511782029105
20
-0.173396022786875
30
0
41
1
10
5.72510276800696
20
-0.363550052326787
30
0
41
1
10
5.72506948631079
20
-0.551460200522769
30
0
0
SPLINE
5
E1
100
AcDbEntity
8
1
62
256
6
ByLayer
370
18
48
1
60
0
100
AcDbSpline
70
4
71
3
72
8
73
4
40
0
40
0
40
0
40
0
40
1
40
1
40
1
40
1
41
1
10
5.91936220151536
20
-4.21131408285319
30
0
41
1
10
5.9615014658641
20
-4.16310206012639
30
0
41
1
10
6.01601658777184
20
-4.10933793387198
30
0
41
1
10
6.08055399177152
20
-4.05109779792519
30
0
0
SPLINE
5
E2
100
AcDbEntity
8
1
62
256
6
ByLayer
370
18
48
1
60
0
100
AcDbSpline
70
4
71
3
72
8
73
4
40
0
40
0
40
0
40
0
40
1
40
1
40
1
40
1
41
1
10
6.09393186719888
20
-4.13320015078185
30
0
41
1
10
6.03543426021068
20
-4.15942874025725
30
0
41
1
10
5.97724422105247
20
-4.18546721842156
30
0
41
1
10
5.91936220150188
20
-4.21131408285976
30
0
0
SPLINE
5
E3
100
AcDbEntity
8
1
62
256
6
ByLayer
370
18
48
1
60
0
100
AcDbSpline
70
4
71
3
72
28
73
24
40
0
40
0
40
0
40
0
40
0.102061608061964
40
0.102061608061964
40
0.204123216123928
40
0.204123216123928
40
0.306184824185892
40
0.306184824185892
40
0.408246432247856
40
0.408246432247856
40
0.51030804030982
40
0.51030804030982
40
0.612369648371785
40
0.612369648371785
40
0.714431256433749
40
0.714431256433749
40
0.765462060464731
40
0.765462060464731
40
0.816492864495713
40
0.816492864495713
40
0.918554472557672
40
0.918554472557672
40
1
40
1
40
1
40
1
41
1
10
96.8749544828686
20
0.45582914151629
30
0
41
1
10
96.4433169970225
20
0.678265440799294
30
0
41
1
10
96.0133594255938
20
0.897641150914069
30
0
41
1
10
95.155122080449
20
1.32721110920653
30
0
41
1
10
94.7271123077338
20
1.53745340408554
30
0
41
1
10
93.8712667584612
20
1.9450489318593
30
0
41
1
10
93.4432417058517
20
2.14226899139686
30
0
41
1
10
92.5850711411758
20
2.51951758412213
30
0
41
1
10
92.1549957307644
20
2.70011505225707
30
0
41
1
10
91.2912111056457
20
3.0421741053423
30
0
41
1
10
90.8573603206542
20
3.20354524642383
30
0
41
1
10
89.9832834035159
20
3.50000764646433
30
0
41
1
10
89.5486657977677
20
3.63435417961486
30
0
41
1
10
88.682178017631
20
3.87589495333822
30
0
41
1
10
88.2503007807039
20
3.98336539009347
30
0
41
1
10
87.6035159418244
20
4.11893164369127
30
0
41
1
10
87.3879908793886
20
4.15984477926
30
0
41
1
10
86.9570796955927
20
4.23476158946113
30
0
41
1
10
86.7415289451617
20
4.26849412727142
30
0
41
1
10
86.0945548243996
20
4.35656940999763
30
0
41
1
10
85.6627404378325
20
4.39886182053269
30
0
41
1
10
84.8836873640869
20
4.44777547213289
30
0
41
1
10
84.5369835816015
20
4.45940523108297
30
0
41
1
10
84.1887350223449
20
4.45980742654083
30
0
0
SPLINE
5
E4
100
AcDbEntity
8
1
62
256
6
ByLayer
370
18
48
1
60
0
100
AcDbSpline
70
4
71
3
72
92
73
88
40
0
40
0
40
0
40
0
40
0.009920425634539
40
0.009920425634539
40
0.0289260602734217
40
0.0289260602734217
40
0.0669373295511872
40
0.0669373295511872
40
0.0859429641900699
40
0.0859429641900699
40
0.104948598828953
40
0.104948598828953
40
0.142959868106717
40
0.142959868106717
40
0.161965502745599
40
0.161965502745599
40
0.180971137384482
40
0.180971137384482
40
0.218982406662246
40
0.218982406662246
40
0.237988041301129
40
0.237988041301129
40
0.256993675940012
40
0.256993675940012
40
0.275999310578894
40
0.275999310578894
40
0.295004945217777
40
0.295004945217777
40
0.333016214495543
40
0.333016214495543
40
0.371027483773308
40
0.371027483773308
40
0.409038753051073
40
0.409038753051073
40
0.428044387689956
40
0.428044387689956
40
0.447050022328838
40
0.447050022328838
40
0.46605565696772
40
0.46605565696772
40
0.485061291606602
40
0.485061291606602
40
0.504066926245484
40
0.504066926245484
40
0.523072560884367
40
0.523072560884367
40
0.56108383016213
40
0.56108383016213
40
0.580089464801012
40
0.580089464801012
40
0.599095099439893
40
0.599095099439893
40
0.637106368717654
40
0.637106368717654
40
0.656112003356535
40
0.656112003356535
40
0.675117637995416
40
0.675117637995416
40
0.713128907273177
40
0.713128907273177
40
0.732134541912057
40
0.732134541912057
40
0.751140176550936
40
0.751140176550936
40
0.789151445828696
40
0.789151445828696
40
0.808157080467575
40
0.808157080467575
40
0.827162715106454
40
0.827162715106454
40
0.846168349745334
40
0.846168349745334
40
0.865173984384213
40
0.865173984384213
40
0.884179619023092
40
0.884179619023092
40
0.903185253661971
40
0.903185253661971
40
0.92219088830085
40
0.92219088830085
40
0.94119652293973
40
0.94119652293973
40
0.979207792217489
40
0.979207792217489
40
0.998213426856368
40
0.998213426856368
40
1
40
1
40
1
40
1
41
1
10
64.1033246222546
20
-3.00600369103697
30
0
41
1
10
63.9894530947132
20
-3.04844503972188
30
0
41
1
10
63.8757560895974
20
-3.08996639789944
30
0
41
1
10
63.5445619238401
20
-3.20830648124974
30
0
41
1
10
63.3273088390563
20
-3.28296126511219
30
0
41
1
10
62.6766432840058
20
-3.49863884182472
30
0
41
1
10
62.2440521525305
20
-3.63021616995877
30
0
41
1
10
61.59595990911
20
-3.80525058330826
30
0
41
1
10
61.3801410600733
20
-3.85991517679514
30
0
41
1
10
60.9484844960787
20
-3.9604636565424
30
0
41
1
10
60.7325057740942
20
-4.00701937608153
30
0
41
1
10
60.0844575485559
20
-4.13722993119504
30
0
41
1
10
59.6517810940742
20
-4.21025295870939
30
0
41
1
10
59.0004928084453
20
-4.2955840320617
30
0
41
1
10
58.7830413489022
20
-4.31994402363947
30
0
41
1
10
58.3470748151943
20
-4.35911948079243
30
0
41
1
10
58.1282530656882
20
-4.37355738065597
30
0
41
1
10
57.4711014799851
20
-4.40761373128024
30
0
41
1
10
57.0340175573303
20
-4.41442427477688
30
0
41
1
10
56.378623651687
20
-4.39928500672562
30
0
41
1
10
56.1601718118162
20
-4.39027909135623
30
0
41
1
10
55.7232668182693
20
-4.36331057937844
30
0
41
1
10
55.5046252360559
20
-4.34488194704215
30
0
41
1
10
55.0670628193687
20
-4.30034119236825
30
0
41
1
10
54.8478229551018
20
-4.27436261641262
30
0
41
1
10
54.4098441353222
20
-4.21405935986203
30
0
41
1
10
54.1915639863921
20
-4.17976848867417
30
0
41
1
10
53.5379143338535
20
-4.06532801435168
30
0
41
1
10
53.103824593273
20
-3.97473462830283
30
0
41
1
10
52.2377168670242
20
-3.76152256053467
30
0
41
1
10
51.8053497429097
20
-3.64216656927715
30
0
41
1
10
50.9404841559118
20
-3.3763686476087
30
0
41
1
10
50.507926089421
20
-3.23069976629719
30
0
41
1
10
49.8572446752873
20
-2.99221168596097
30
0
41
1
10
49.6401453407375
20
-2.90892983346998
30
0
41
1
10
49.2049546982855
20
-2.73907112629215
30
0
41
1
10
48.9869886340774
20
-2.65164664516305
30
0
41
1
10
48.550093890094
20
-2.47149442710779
30
0
41
1
10
48.330608241605
20
-2.37894040774816
30
0
41
1
10
47.8928942638908
20
-2.18925110297403
30
0
41
1
10
47.6746653928533
20
-2.0923872570304
30
0
41
1
10
47.239228976627
20
-1.89487756757998
30
0
41
1
10
47.0222415745592
20
-1.79373831001308
30
0
41
1
10
46.5884702129416
20
-1.5897783637908
30
0
41
1
10
46.371799252967
20
-1.48672770125918
30
0
41
1
10
45.7226046731222
20
-1.17375472068991
30
0
41
1
10
45.2904977314324
20
-0.960898736872934
30
0
41
1
10
44.6421706238566
20
-0.637158812293819
30
0
41
1
10
44.426145285513
20
-0.528211632523011
30
0
41
1
10
43.9936416712214
20
-0.309703317762967
30
0
41
1
10
43.7771443035916
20
-0.200260757199345
30
0
41
1
10
43.1271654910889
20
0.129337331222018
30
0
41
1
10
42.6926230402519
20
0.349787083432659
30
0
41
1
10
42.0376377421561
20
0.678355924030569
30
0
41
1
10
41.8184564520948
20
0.787909684256334
30
0
41
1
10
41.380534661045
20
1.00480563244682
30
0
41
1
10
41.1620134315757
20
1.11183032786076
30
0
41
1
10
40.5079182409412
20
1.4298036095023
30
0
41
1
10
40.0736154974358
20
1.63609460407315
30
0
41
1
10
39.4233915242453
20
1.93438928818313
30
0
41
1
10
39.2068645764764
20
2.03210031880346
30
0
41
1
10
38.7741648998461
20
2.22304681166915
30
0
41
1
10
38.5578803393726
20
2.31546613613966
30
0
41
1
10
37.9089254481669
20
2.58803583912277
30
0
41
1
10
37.4759700296024
20
2.76211780491073
30
0
41
1
10
36.8250611687265
20
3.00703372808204
30
0
41
1
10
36.607798665293
20
3.0859100889115
30
0
41
1
10
36.1726190168448
20
3.23765233604323
30
0
41
1
10
35.9544846655226
20
3.30994725139121
30
0
41
1
10
35.5171869329313
20
3.44809934778644
30
0
41
1
10
35.2978239648477
20
3.51465060644679
30
0
41
1
10
34.8591190577365
20
3.64112972261353
30
0
41
1
10
34.6400904229205
20
3.70119742053868
30
0
41
1
10
34.2022428923801
20
3.81404843269633
30
0
41
1
10
33.9833944785348
20
3.86687822449483
30
0
41
1
10
33.5460247250141
20
3.96458211250777
30
0
41
1
10
33.3273140868707
20
4.00903182969
30
0
41
1
10
32.8896894787871
20
4.08992922329054
30
0
41
1
10
32.6708424574382
20
4.12677156174462
30
0
41
1
10
32.2324436391458
20
4.19314477556739
30
0
41
1
10
32.0127594863198
20
4.2225335050708
30
0
41
1
10
31.3555135788106
20
4.29766377696106
30
0
41
1
10
30.9194755468059
20
4.33193422989206
30
0
41
1
10
30.2675567529458
20
4.35629385106407
30
0
41
1
10
30.0507024689713
20
4.36008271676886
30
0
41
1
10
29.813483299952
20
4.36026777010272
30
0
41
1
10
29.7931018298337
20
4.36025057424706
30
0
41
1
10
29.7727219230934
20
4.36019993379145
30
0
0
SPLINE
5
E5
100
AcDbEntity
8
1
62
256
6
ByLayer
370
13
48
1
60
0
100
AcDbSpline
70
4
71
3
72
10
73
6
40
0
40
0
40
0
40
0
40
0.5
40
0.5
40
1
40
1
40
1
40
1
41
1
10
6.1946818023487
20
-0.694966715488306
30
0
41
1
10
6.11316057884864
20
-0.666855826253851
30
0
41
1
10
6.03302611247912
20
-0.641127513972236
30
0
41
1
10
5.87581571641888
20
-0.593374803619867
30
0
41
1
10
5.7981925718536
20
-0.571220391031716
30
0
41
1
10
5.72506948631062
20
-0.551460200523366
30
0
0
SPLINE
5
E6
100
AcDbEntity
8
1
62
256
6
ByLayer
370
18
48
1
60
0
100
AcDbSpline
70
4
71
3
72
16
73
12
40
0
40
0
40
0
40
0
40
0.125000000000008
40
0.125000000000008
40
0.250000000000015
40
0.250000000000015
40
0.50000000000001
40
0.50000000000001
40
0.750000000000005
40
0.750000000000005
40
1
40
1
40
1
40
1
41
1
10
5.72506948629484
20
-0.551460200512935
30
0
41
1
10
5.72506548208338
20
-0.574068177209199
30
0
41
1
10
5.73004481766702
20
-0.595774637702363
30
0
41
1
10
5.74620907776586
20
-0.637674881697848
30
0
41
1
10
5.7570780975816
20
-0.657007519333177
30
0
41
1
10
5.794867562794
20
-0.711994091058472
30
0
41
1
10
5.82645545658295
20
-0.743949273930355
30
0
41
1
10
5.89383313134144
20
-0.801454070484851
30
0
41
1
10
5.93032467372237
20
-0.827406888336753
30
0
41
1
10
6.00556867520964
20
-0.875007092535867
30
0
41
1
10
6.04444783664553
20
-0.89673125889513
30
0
41
1
10
6.08436681760668
20
-0.916747877433835
30
0
0
SPLINE
5
E7
100
AcDbEntity
8
1
62
256
6
ByLayer
370
18
48
1
60
0
100
AcDbSpline
70
4
71
3
72
12
73
8
40
0
40
0
40
0
40
0
40
0.120861078746824
40
0.120861078746824
40
0.560430539373412
40
0.560430539373412
40
1
40
1
40
1
40
1
41
1
10
15.0027241702259
20
0.582755870005997
30
0
41
1
10
15.0461382697115
20
0.614757719501085
30
0
41
1
10
15.0898844856914
20
0.651162004283464
30
0
41
1
10
15.292772429603
20
0.839513015654745
30
0
41
1
10
15.4517988918521
20
1.04280064665812
30
0
41
1
10
15.7384616460737
20
1.52063490093661
30
0
41
1
10
15.8659048929316
20
1.79485973993042
30
0
41
1
10
15.9649679045436
20
2.07751251829291
30
0
0
SPLINE
5
E8
100
AcDbEntity
8
1
62
256
6
ByLayer
370
18
48
1
60
0
100
AcDbSpline
70
4
71
3
72
8
73
4
40
0
40
0
40
0
40
0
40
1
40
1
40
1
40
1
41
1
10
96.8749544828686
20
0.45582914151629
30
0
41
1
10
97.1263337756342
20
0.344483841827383
30
0
41
1
10
97.3797897628799
20
0.243669861555276
30
0
41
1
10
97.6355799854809
20
0.154693240295671
30
0
0
SPLINE
5
E9
100
AcDbEntity
8
1
62
256
6
ByLayer
370
18
48
1
60
0
100
AcDbSpline
70
4
71
3
72
10
73
6
40
0
40
0
40
0
40
0
40
0.5
40
0.5
40
1
40
1
40
1
40
1
41
1
10
97.3727173360548
20
4.55520554519714
30
0
41
1
10
97.4742818890512
20
4.30575729784428
30
0
41
1
10
97.5770971422616
20
4.05131547915636
30
0
41
1
10
97.7834259298182
20
3.53157412445674
30
0
41
1
10
97.8869173056896
20
3.26615957163884
30
0
41
1
10
97.9895892824593
20
2.99434160289178
30
0
0
SPLINE
5
EA
100
AcDbEntity
8
1
62
256
6
ByLayer
370
18
48
1
60
0
100
AcDbSpline
70
4
71
3
72
18
73
14
40
0
40
0
40
0
40
0
40
0.249999999999994
40
0.249999999999994
40
0.499999999999989
40
0.499999999999989
40
0.624999999999992
40
0.624999999999992
40
0.749999999999994
40
0.749999999999994
40
0.874999999999997
40
0.874999999999997
40
1
40
1
40
1
40
1
41
1
10
98.3038813918232
20
-1.05562241000564
30
0
41
1
10
98.2170392164185
20
-1.05512006997552
30
0
41
1
10
98.1379256436166
20
-1.01690517764493
30
0
41
1
10
97.9918583098785
20
-0.883329334349554
30
0
41
1
10
97.9286723398694
20
-0.791304230491306
30
0
41
1
10
97.845002356724
20
-0.624797060338921
30
0
41
1
10
97.818956358592
20
-0.56415827418121
30
0
41
1
10
97.7715382471906
20
-0.43684329830873
30
0
41
1
10
97.7499901692244
20
-0.369864387351583
30
0
41
1
10
97.7107968174108
20
-0.229907955068199
30
0
41
1
10
97.6931541159858
20
-0.156926479928416
30
0
41
1
10
97.6615760856814
20
-0.0052652976295917
30
0
41
1
10
97.6475922539234
20
0.0737768142375614
30
0
41
1
10
97.6355799854809
20
0.154693240295671
30
0
0
SPLINE
5
EB
100
AcDbEntity
8
1
62
256
6
ByLayer
370
18
48
1
60
0
100
AcDbSpline
70
4
71
3
72
8
73
4
40
0
40
0
40
0
40
0
40
1
40
1
40
1
40
1
41
1
10
98.9997779848152
20
-0.085362832563959
30
0
41
1
10
98.9290705498142
20
-0.276432703501797
30
0
41
1
10
98.8601627287532
20
-0.468701148883383
30
0
41
1
10
98.7928525108827
20
-0.662118219763954
30
0
0
SPLINE
5
EC
100
AcDbEntity
8
1
62
256
6
ByLayer
370
18
48
1
60
0
100
AcDbSpline
70
4
71
3
72
20
73
16
40
0
40
0
40
0
40
0
40
0.156687472100357
40
0.156687472100357
40
0.325349977680287
40
0.325349977680287
40
0.494012483260217
40
0.494012483260217
40
0.662674988840147
40
0.662674988840147
40
0.74700624163011
40
0.74700624163011
40
0.831337494420074
40
0.831337494420074
40
1
40
1
40
1
40
1
41
1
10
8.44149065039994
20
-3.51985864426308
30
0
41
1
10
8.29610698168247
20
-3.58051259031919
30
0
41
1
10
8.1528380368899
20
-3.63971529554175
30
0
41
1
10
7.86042620661519
20
-3.75896045879802
30
0
41
1
10
7.71148996527307
20
-3.81879280600921
30
0
41
1
10
7.42438591955468
20
-3.93169079811079
30
0
41
1
10
7.28572587527577
20
-3.98496711543811
30
0
41
1
10
7.02037645558033
20
-4.08337936438394
30
0
41
1
10
6.89365719245242
20
-4.12853885393528
30
0
41
1
10
6.71514248343837
20
-4.18807375630851
30
0
41
1
10
6.65757744596667
20
-4.20654140864039
30
0
41
1
10
6.5469938135937
20
-4.24018567670527
30
0
41
1
10
6.49426690035313
20
-4.25526295147983
30
0
41
1
10
6.34697613748517
20
-4.29388681592621
30
0
41
1
10
6.2622614534302
20
-4.31120360941816
30
0
41
1
10
6.1949733064009
20
-4.31732985631911
30
0
0
SPLINE
5
ED
100
AcDbEntity
8
1
62
256
6
ByLayer
370
18
48
1
60
0
100
AcDbSpline
70
4
71
4
72
10
73
5
40
0
40
0
40
0
40
0
40
0
40
1
40
1
40
1
40
1
40
1
41
1
10
16.7980603439297
20
4.45454395306891
30
0
41
1
10
16.5897872340832
20
3.86028609437491
30
0
41
1
10
16.3815141242366
20
3.26602823568092
30
0
41
1
10
16.1732410143901
20
2.6717703769869
30
0
41
1
10
15.9649679045436
20
2.07751251829291
30
0
0
SPLINE
5
EE
100
AcDbEntity
8
1
62
256
6
ByLayer
370
13
48
1
60
0
100
AcDbSpline
70
4
71
3
72
87
73
83
40
0
40
0
40
0
40
0
40
0.014468144815333
40
0.0208116905125883
40
0.0334987819070995
40
0.0461858733016102
40
0.0652165103933768
40
0.0715600560906321
40
0.0842471474851433
40
0.096934238879654
40
0.115964875971421
40
0.122308421668676
40
0.134995513063187
40
0.147682604457698
40
0.166713241549464
40
0.17305678724672
40
0.185743878641231
40
0.198430970035742
40
0.217461607127508
40
0.223805152824764
40
0.236492244219275
40
0.249179335613785
40
0.268209972705552
40
0.274553518402807
40
0.287240609797319
40
0.299927701191829
40
0.318958338283596
40
0.325301883980851
40
0.337988975375362
40
0.350676066769874
40
0.36970670386164
40
0.376050249558896
40
0.388737340953406
40
0.401424432347918
40
0.420455069439684
40
0.42679861513694
40
0.43948570653145
40
0.452172797925961
40
0.471203435017727
40
0.477546980714983
40
0.490234072109494
40
0.502921163504005
40
0.521951800595771
40
0.528295346293027
40
0.540982437687538
40
0.553669529082049
40
0.572700166173815
40
0.579043711871071
40
0.591730803265582
40
0.604417894660093
40
0.623448531751859
40
0.629792077449115
40
0.642479168843625
40
0.655166260238137
40
0.674196897329903
40
0.680540443027159
40
0.693227534421669
40
0.70591462581618
40
0.724945262907947
40
0.731288808605202
40
0.743975899999713
40
0.756662991394224
40
0.775693628485991
40
0.782037174183246
40
0.794724265577757
40
0.807411356972268
40
0.826441994064035
40
0.83278553976129
40
0.845472631155801
40
0.858159722550312
40
0.877190359642078
40
0.883533905339334
40
0.896220996733845
40
0.908908088128356
40
0.927938725220122
40
0.934282270917378
40
0.946969362311889
40
0.9596564537064
40
0.978687090798166
40
0.985030636495421
40
0.997717727889929
40
1
40
1
40
1
40
1
41
1
10
88.5894611130891
20
-1.8600640436363
30
0
41
1
10
88.5048211695701
20
-1.86923164607521
30
0
41
1
10
88.3830663510899
20
-1.88204239739252
30
0
41
1
10
88.1870917579917
20
-1.90177434626162
30
0
41
1
10
88.0015573523629
20
-1.91964243853801
30
0
41
1
10
87.7418048832836
20
-1.94316243022522
30
0
41
1
10
87.519133729661
20
-1.96175615680158
30
0
41
1
10
87.2964674521945
20
-1.97905886354087
30
0
41
1
10
87.1109327672352
20
-1.99261580675932
30
0
41
1
10
86.8511797798786
20
-2.01003938220248
30
0
41
1
10
86.6285081734748
20
-2.02336317534841
30
0
41
1
10
86.4058415852771
20
-2.03536135606035
30
0
41
1
10
86.2203067811546
20
-2.04446891084351
30
0
41
1
10
85.9605538594465
20
-2.05563031928034
30
0
41
1
10
85.7378825028333
20
-2.06356506779983
30
0
41
1
10
85.5152162601589
20
-2.07015091879347
30
0
41
1
10
85.3296817476493
20
-2.07472539781696
30
0
41
1
10
85.0699291738705
20
-2.07951876246503
30
0
41
1
10
84.8472580335987
20
-2.08198572366618
30
0
41
1
10
84.6245919094502
20
-2.08309135905813
30
0
41
1
10
84.4390574676481
20
-2.08308391675317
30
0
41
1
10
84.179304939602
20
-2.08145387213796
30
0
41
1
10
83.9566337306967
20
-2.07841817931779
30
0
41
1
10
83.7339673974598
20
-2.07401875596486
30
0
41
1
10
83.5484326827553
20
-2.06941564548859
30
0
41
1
10
83.2886796966005
20
-2.06135920032702
30
0
41
1
10
83.0660081291006
20
-2.0528395020637
30
0
41
1
10
82.8433416042148
20
-2.04297698283443
30
0
41
1
10
82.6578068577201
20
-2.03382984893079
30
0
41
1
10
82.3980540080657
20
-2.01944475693867
30
0
41
1
10
82.1753826965212
20
-2.00554637567589
30
0
41
1
10
81.9527164748005
20
-1.99033840183256
30
0
41
1
10
81.7671819649615
20
-1.97675276571559
30
0
41
1
10
81.5074293775936
20
-1.95619955412269
30
0
41
1
10
81.2847582149938
20
-1.93707299481179
30
0
41
1
10
81.0620920711515
20
-1.91668158649586
30
0
41
1
10
80.8765576026899
20
-1.89880080951002
30
0
41
1
10
80.6168050106382
20
-1.87229381814672
30
0
41
1
10
80.3941337279336
20
-1.84813580195885
30
0
41
1
10
80.1714673127012
20
-1.82276845118031
30
0
41
1
10
79.9859325494086
20
-1.80077316497415
30
0
41
1
10
79.7261795484969
20
-1.76858035023085
30
0
41
1
10
79.5035080137295
20
-1.7396379821395
30
0
41
1
10
79.280841549304
20
-1.70955969941332
30
0
41
1
10
79.0953068541972
20
-1.68368364384651
30
0
41
1
10
78.8355540557797
20
-1.64615190615922
30
0
41
1
10
78.6128827599769
20
-1.61273957754199
30
0
41
1
10
78.3902165211809
20
-1.57827607280399
30
0
41
1
10
78.2046819807842
20
-1.54879822097891
30
0
41
1
10
77.9449293356982
20
-1.50632995132267
30
0
41
1
10
77.7222581163993
20
-1.46880350741509
30
0
41
1
10
77.4995919226831
20
-1.43031988847514
30
0
41
1
10
77.3140574084342
20
-1.39755134815417
30
0
41
1
10
77.0543047436009
20
-1.35059303431763
30
0
41
1
10
76.8316334021903
20
-1.30934565651825
30
0
41
1
10
76.608966943567
20
-1.26724462620464
30
0
41
1
10
76.4234321701783
20
-1.23152814683689
30
0
41
1
10
76.1636792056055
20
-1.18057139116198
30
0
41
1
10
75.9410077406189
20
-1.13603606499493
30
0
41
1
10
75.7183413610624
20
-1.09076138368053
30
0
41
1
10
75.5328067392596
20
-1.05247465085495
30
0
41
1
10
75.2730540356189
20
-0.998060101200338
30
0
41
1
10
75.0503828035159
20
-0.950710878111806
30
0
41
1
10
74.8277166033736
20
-0.902745211263039
30
0
41
1
10
74.6421820711511
20
-0.862296777712885
30
0
41
1
10
74.3824293960012
20
-0.805004713373535
30
0
41
1
10
74.1597581177374
20
-0.755344933198842
30
0
41
1
10
73.9370918503132
20
-0.705195457054884
30
0
41
1
10
73.7515572746701
20
-0.663011052795838
30
0
41
1
10
73.4918045446001
20
-0.603442359042731
30
0
41
1
10
73.2691331830744
20
-0.551992174816746
30
0
41
1
10
73.0464667514146
20
-0.500185534616492
30
0
41
1
10
72.8609320244307
20
-0.456709423071828
30
0
41
1
10
72.6011791400623
20
-0.39549315962114
30
0
41
1
10
72.3785077402574
20
-0.342797037229218
30
0
41
1
10
72.1558413962723
20
-0.289881567869031
30
0
41
1
10
71.9703067935131
20
-0.245573751434733
30
0
41
1
10
71.7105540965881
20
-0.183358223501472
30
0
41
1
10
71.4878828317492
20
-0.129975905299489
30
0
41
1
10
71.2652165505713
20
-0.0765162290372245
30
0
41
1
10
71.1405454858572
20
-0.0465033917431867
30
0
41
1
10
71.0529804765685
20
-0.0254201436493986
30
0
41
1
10
71.0396300270633
20
-0.0222057545329051
30
0
0
SPLINE
5
EF
100
AcDbEntity
8
1
62
256
6
ByLayer
370
13
48
1
60
0
100
AcDbSpline
70
4
71
3
72
87
73
83
40
0
40
0
40
0
40
0
40
0.0137389872051272
40
0.0200620578646732
40
0.0327081991837651
40
0.045354340502858
40
0.0643235524814954
40
0.0706466231410419
40
0.0832927644601338
40
0.0959389057792262
40
0.114908117757865
40
0.12123118841741
40
0.133877329736502
40
0.146523471055595
40
0.165492683034233
40
0.171815753693779
40
0.184461895012872
40
0.197108036331963
40
0.216077248310602
40
0.222400318970148
40
0.23504646028924
40
0.247692601608332
40
0.266661813586971
40
0.272984884246517
40
0.285631025565609
40
0.298277166884701
40
0.317246378863339
40
0.323569449522885
40
0.336215590841978
40
0.34886173216107
40
0.367830944139708
40
0.374154014799254
40
0.386800156118346
40
0.399446297437438
40
0.418415509416077
40
0.424738580075622
40
0.437384721394715
40
0.450030862713807
40
0.469000074692445
40
0.475323145351991
40
0.487969286671084
40
0.500615427990176
40
0.519584639968814
40
0.52590771062836
40
0.538553851947452
40
0.551199993266544
40
0.570169205245183
40
0.576492275904729
40
0.589138417223821
40
0.601784558542913
40
0.620753770521551
40
0.627076841181097
40
0.63972298250019
40
0.652369123819282
40
0.67133833579792
40
0.677661406457466
40
0.690307547776558
40
0.70295368909565
40
0.721922901074289
40
0.728245971733835
40
0.740892113052927
40
0.753538254372019
40
0.772507466350657
40
0.778830537010204
40
0.791476678329296
40
0.804122819648388
40
0.823092031627027
40
0.829415102286573
40
0.842061243605664
40
0.854707384924757
40
0.873676596903395
40
0.879999667562941
40
0.892645808882033
40
0.905291950201126
40
0.924261162179763
40
0.93058423283931
40
0.943230374158402
40
0.955876515477494
40
0.974845727456133
40
0.981168798115678
40
0.99381493943477
40
1
40
1
40
1
40
1
41
1
10
34.249320272684
20
-1.85356982315199
30
0
41
1
10
34.1686853842917
20
-1.86242018344024
30
0
41
1
10
34.0509360990178
20
-1.87499709262215
30
0
41
1
10
33.8589668605124
20
-1.89466177516547
30
0
41
1
10
33.6734323145459
20
-1.91285690775914
30
0
41
1
10
33.4136795768835
20
-1.93684010979624
30
0
41
1
10
33.1910082098839
20
-1.95583857332517
30
0
41
1
10
32.9683418338059
20
-1.97355649876115
30
0
41
1
10
32.7828071738247
20
-1.98746755040355
30
0
41
1
10
32.5230543613138
20
-2.00539730146747
30
0
41
1
10
32.3003829718766
20
-2.01916179294233
30
0
41
1
10
32.0777165561791
20
-2.03160282644055
30
0
41
1
10
31.8921818584437
20
-2.04108067112125
30
0
41
1
10
31.6324290277689
20
-2.05276103716866
30
0
41
1
10
31.4097576862198
20
-2.06113998747617
30
0
41
1
10
31.187091404946
20
-2.0681698861203
30
0
41
1
10
31.0015568701147
20
-2.07311493318883
30
0
41
1
10
30.7418043041652
20
-2.07842584534194
30
0
41
1
10
30.5191331797632
20
-2.0813333489856
30
0
41
1
10
30.296467053153
20
-2.08287667164882
30
0
41
1
10
30.1109325306382
20
-2.08323255646684
30
0
41
1
10
29.8511797713459
20
-2.08210949765285
30
0
41
1
10
29.6285083456907
20
-2.07950830342574
30
0
41
1
10
29.4058418998672
20
-2.07554694423641
30
0
41
1
10
29.2203071827902
20
-2.07131229617568
30
0
41
1
10
28.9605543066984
20
-2.06377477052482
30
0
41
1
10
28.73788289134
20
-2.05570025773568
30
0
41
1
10
28.5152164868368
20
-2.04628115374845
30
0
41
1
10
28.3296818212548
20
-2.037502356956
30
0
41
1
10
28.069929065038
20
-2.02362924511783
30
0
41
1
10
27.8472578088866
20
-2.01016474199804
30
0
41
1
10
27.6245916183241
20
-1.99538669204654
30
0
41
1
10
27.4390571533831
20
-1.98215716626436
30
0
41
1
10
27.1793046566943
20
-1.96209678505954
30
0
41
1
10
26.9566335499869
20
-1.94338524842024
30
0
41
1
10
26.7339673918957
20
-1.92340246217626
30
0
41
1
10
26.5484328239802
20
-1.90585830188186
30
0
41
1
10
26.2886799916277
20
-1.87981571140159
30
0
41
1
10
26.0660085027653
20
-1.85604940022569
30
0
41
1
10
25.8433420085874
20
-1.83107072476412
30
0
41
1
10
25.6578072511441
20
-1.80939799375486
30
0
41
1
10
25.3980543136332
20
-1.77765239000311
30
0
41
1
10
25.1753828509866
20
-1.74908716904218
30
0
41
1
10
24.9527164133848
20
-1.71937994026092
30
0
41
1
10
24.767181739102
20
-1.69380914009702
30
0
41
1
10
24.5074290063005
20
-1.65669650949877
30
0
41
1
10
24.2847577987822
20
-1.62363403971963
30
0
41
1
10
24.0620916709341
20
-1.58951270089173
30
0
41
1
10
23.8765572501873
20
-1.5603151404861
30
0
41
1
10
23.6168047782369
20
-1.51822976767895
30
0
41
1
10
23.3941336480449
20
-1.4810211827712
30
0
41
1
10
23.1714674200827
20
-1.44284721156396
30
0
41
1
10
22.9859327852217
20
-1.41033150952916
30
0
41
1
10
22.7261798728794
20
-1.36371725701872
30
0
41
1
10
22.5035083342294
20
-1.32275424679401
30
0
41
1
10
22.2808418152612
20
-1.28092927116711
30
0
41
1
10
22.0953070421614
20
-1.24543746904624
30
0
41
1
10
21.8355540855889
20
-1.19478465402193
30
0
41
1
10
21.6128826186171
20
-1.15049813517155
30
0
41
1
10
21.390216194759
20
-1.10546227319313
30
0
41
1
10
21.2046815465946
20
-1.0673679796341
30
0
41
1
10
20.9449288711903
20
-1.01321042641811
30
0
41
1
10
20.7222577261775
20
-0.966068158543578
30
0
41
1
10
20.4995916615274
20
-0.918298360420408
30
0
41
1
10
20.3140572844298
20
-0.87800583663207
30
0
41
1
10
20.054304845282
20
-0.820919729082675
30
0
41
1
10
19.8316337097259
20
-0.771424802772032
30
0
41
1
10
19.6089674433108
20
-0.721432045718132
30
0
41
1
10
19.423432767314
20
-0.679373045494998
30
0
41
1
10
19.1636797970197
20
-0.61996955216469
30
0
41
1
10
18.9410082100235
20
-0.56864915890236
30
0
41
1
10
18.7183416478502
20
-0.516961210065432
30
0
41
1
10
18.5328068456735
20
-0.47357626266745
30
0
41
1
10
18.2730538703035
20
-0.412473429858863
30
0
41
1
10
18.0503824167573
20
-0.359859583659301
30
0
41
1
10
17.8277160395482
20
-0.307013738534891
30
0
41
1
10
17.6421814344024
20
-0.262755400355559
30
0
41
1
10
17.3824288024766
20
-0.200593477139023
30
0
41
1
10
17.159757673861
20
-0.14724049548397
30
0
41
1
10
16.9370916009908
20
-0.0937958915590116
30
0
41
1
10
16.7894740005035
20
-0.0582612555555215
30
0
41
1
10
16.6789619131796
20
-0.031649062602753
30
0
41
1
10
16.6426640143097
20
-0.0229093930697672
30
0
0
SPLINE
5
F0
100
AcDbEntity
8
1
62
256
6
ByLayer
370
18
48
1
60
0
100
AcDbSpline
70
4
71
3
72
8
73
4
40
0
40
0
40
0
40
0
40
1
40
1
40
1
40
1
41
1
10
5.91936220150137
20
-4.21131408285191
30
0
41
1
10
5.85942070259182
20
-4.20152798829977
30
0
41
1
10
5.79946783387541
20
-4.19142744692289
30
0
41
1
10
5.73950164180241
20
-4.18101174406667
30
0
0
SPLINE
5
F1
100
AcDbEntity
8
1
62
256
6
ByLayer
370
13
48
1
60
0
100
AcDbSpline
70
4
71
3
72
87
73
83
40
0
40
0
40
0
40
0
40
0.0086846165433929
40
0.0213128225722419
40
0.040255131615515
40
0.0465692346299395
40
0.0591974406587885
40
0.0718256466876376
40
0.0907679557309106
40
0.0970820587453352
40
0.109710264774184
40
0.122338470803033
40
0.141280779846306
40
0.147594882860731
40
0.16022308888958
40
0.172851294918429
40
0.191793603961703
40
0.198107706976127
40
0.210735913004975
40
0.223364119033825
40
0.242306428077098
40
0.248620531091523
40
0.261248737120371
40
0.27387694314922
40
0.292819252192494
40
0.299133355206918
40
0.311761561235767
40
0.324389767264616
40
0.343332076307889
40
0.349646179322314
40
0.362274385351163
40
0.374902591380012
40
0.393844900423285
40
0.40015900343771
40
0.412787209466559
40
0.425415415495407
40
0.444357724538681
40
0.450671827553105
40
0.463300033581954
40
0.475928239610803
40
0.494870548654076
40
0.501184651668501
40
0.51381285769735
40
0.526441063726199
40
0.545383372769472
40
0.551697475783897
40
0.564325681812746
40
0.576953887841595
40
0.595896196884868
40
0.602210299899292
40
0.614838505928141
40
0.62746671195699
40
0.646409021000264
40
0.652723124014688
40
0.665351330043533
40
0.677979536072387
40
0.69692184511566
40
0.703235948130084
40
0.715864154158933
40
0.72849236018778
40
0.747434669231059
40
0.75374877224548
40
0.766376978274328
40
0.779005184303177
40
0.797947493346451
40
0.804261596360875
40
0.816889802389723
40
0.829518008418573
40
0.848460317461846
40
0.854774420476271
40
0.867402626505119
40
0.880030832533966
40
0.898973141577244
40
0.905287244591667
40
0.917915450620515
40
0.930543656649363
40
0.949485965692638
40
0.955800068707062
40
0.968428274735912
40
0.981056480764759
40
0.999998789808034
40
1
40
1
40
1
40
1
41
1.00000000000001
10
84.4735407141251
20
0.0212421274602829
30
0
41
1.00000000000001
10
84.4224978084513
20
0.033515954195337
30
0
41
1.00000000000001
10
84.2972297882848
20
0.063615957609101
30
0
41
1.00000000000001
10
84.0606298819547
20
0.120424254395543
30
0
41
1.00000000000001
10
83.837988681135
20
0.173893956276883
30
0
41
1.00000000000001
10
83.6153423946638
20
0.227247283458351
30
0
41
1.00000000000001
10
83.4297831646521
20
0.271527974869056
30
0
41
1.00000000000001
10
83.1700045126929
20
0.333299311206697
30
0
41
1.00000000000001
10
82.9473631629865
20
0.386083642150676
30
0
41
1.00000000000001
10
82.7247167986398
20
0.438610828233942
30
0
41
1.00000000000001
10
82.5391575272324
20
0.482110864762825
30
0
41
1.00000000000001
10
82.2793788798978
20
0.542629600554584
30
0
41
1.00000000000001
10
82.056737650195
20
0.594175742864529
30
0
41
1.00000000000001
10
81.8340915570792
20
0.645329337928948
30
0
41
1.00000000000001
10
81.6485325803577
20
0.687597115520922
30
0
41
1.00000000000001
10
81.3887543417177
20
0.746235684889759
30
0
41
1.00000000000001
10
81.1661133640074
20
0.796007118130736
30
0
41
1.00000000000001
10
80.9434673201169
20
0.845249797018159
30
0
41
1.00000000000001
10
80.7579082752782
20
0.885837522369048
30
0
41
1.00000000000001
10
80.4981298342691
20
0.941969739370523
30
0
41
1.00000000000001
10
80.2754886177187
20
0.989432034864836
30
0
41
1.00000000000001
10
80.0528423483162
20
1.03623554472988
30
0
41
1.00000000000001
10
79.8672831488492
20
1.07470872664324
30
0
41
1.00000000000001
10
79.6075045545858
20
1.12773551773232
30
0
41
1.00000000000001
10
79.3848632615602
20
1.17238417668814
30
0
41
1.00000000000001
10
79.1622169470771
20
1.21625274895784
30
0
41
1.00000000000001
10
78.9766577214468
20
1.25220497816581
30
0
41
1.00000000000001
10
78.7168791468708
20
1.30156792314791
30
0
41
1.00000000000001
10
78.4942379758484
20
1.3429341935096
30
0
41
1.00000000000001
10
78.2715919260952
20
1.3834079217879
30
0
41
1.00000000000001
10
78.0860329594544
20
1.41646264014234
30
0
41
1.00000000000001
10
77.8262546844768
20
1.46164474579465
30
0
41
1.00000000000001
10
77.6036136370075
20
1.49929468162552
30
0
41
1.00000000000001
10
77.3809675082838
20
1.53594756275076
30
0
41
1.00000000000001
10
77.1954083901765
20
1.56575569560693
30
0
41
1.00000000000001
10
76.9356298544409
20
1.60627782853994
30
0
41
1.00000000000001
10
76.7129885742272
20
1.63981033208985
30
0
41
1.00000000000001
10
76.4903422661929
20
1.67225075709994
30
0
41
1.00000000000001
10
76.304783058555
20
1.69849319859427
30
0
41
1.00000000000001
10
76.0450044943357
20
1.73392159884276
30
0
41
1.00000000000001
10
75.8223632602417
20
1.76297906036303
30
0
41
1.00000000000001
10
75.5997170194303
20
1.79086368692086
30
0
41
1.00000000000001
10
75.414157855169
20
1.81326472224942
30
0
41
1.00000000000001
10
75.1543793458102
20
1.84322953811628
30
0
41
1.00000000000001
10
74.9317381949031
20
1.86750959213544
30
0
41
1.00000000000001
10
74.7090921182021
20
1.89054711811651
30
0
41
1.00000000000001
10
74.5235331051727
20
1.90887160622902
30
0
41
1.00000000000001
10
74.2637547500079
20
1.93305681056024
30
0
41
1.00000000000001
10
74.0411136373634
20
1.95230243838126
30
0
41
1.00000000000001
10
73.8184674730621
20
1.97024907549355
30
0
41
1.00000000000001
10
73.6329083359075
20
1.9843032850157
30
0
41
1.00000000000001
10
73.373129793454
20
2.0024524763895
30
0
41
1.00000000000001
10
73.150488545967
20
2.01645776327346
30
0
41
1.00000000000001
10
72.927842318942
20
2.02911855971226
30
0
41
1.00000000000001
10
72.7422832211325
20
2.03874756479124
30
0
41
1.00000000000001
10
72.4825048702195
20
2.05065938866182
30
0
41
1.00000000000001
10
72.2598638513128
20
2.05927084087179
30
0
41
1.00000000000001
10
72.0372178169249
20
2.06651267792018
30
0
41
1.00000000000001
10
71.8516587943973
20
2.07162000727513
30
0
41
1.00000000000001
10
71.5918803851915
20
2.0771814407589
30
0
41
1.00000000000001
10
71.3692391920587
20
2.0803212892798
30
0
41
1.00000000000001
10
71.1465929370969
20
2.08207828868069
30
0
41
1.00000000000001
10
70.9610337176281
20
2.08261630386372
30
0
41
1.00000000000001
10
70.7012550310171
20
2.08177324086455
30
0
41
1.00000000000001
10
70.4786136165439
20
2.07940840806561
30
0
41
1.00000000000001
10
70.2559671768225
20
2.07565971349687
30
0
41
1.00000000000001
10
70.0704078224299
20
2.07161948417647
30
0
41
1.00000000000001
10
69.8106290157424
20
2.06437302498887
30
0
41
1.00000000000001
10
69.5879876185239
20
2.05651747814881
30
0
41
1.00000000000001
10
69.3653413428384
20
2.04728722440368
30
0
41
1.00000000000001
10
69.179782266715
20
2.03869554637558
30
0
41
1.00000000000001
10
68.9200040277144
20
2.02510005933556
30
0
41
1.00000000000001
10
68.6973631663957
20
2.01182389147769
30
0
41
1.00000000000001
10
68.4747173065286
20
1.997208857908
30
0
41
1.00000000000001
10
68.2891584291612
20
1.98416501094542
30
0
41
1.00000000000001
10
68.0293802006977
20
1.96438724381085
30
0
41
1.00000000000001
10
67.806739119792
20
1.94585626858501
30
0
41
1.00000000000001
10
67.584092918291
20
1.92603351020961
30
0
41
1.00000000000001
10
67.3985337151649
20
1.90869078698916
30
0
41
1.00000000000001
10
67.1387550212871
20
1.88295497828958
30
0
41
1.00000000000001
10
66.9532133709225
20
1.86330105337686
30
0
41
1.00000000000001
10
66.8418836474536
20
1.85104459226682
30
0
41
1.00000000000001
10
66.841876535241
20
1.85104380927047
30
0
0
SPLINE
5
F2
100
AcDbEntity
8
1
62
256
6
ByLayer
370
13
48
1
60
0
100
AcDbSpline
70
4
71
3
72
70
73
66
40
0
40
0
40
0
40
0
40
0.0060166620332859
40
0.0217941753343437
40
0.0454604452859318
40
0.053349201936462
40
0.0691267152375204
40
0.0849042285385796
40
0.108570498490168
40
0.116459255140697
40
0.132236768441756
40
0.148014281742815
40
0.171680551694404
40
0.179569308344934
40
0.195346821645993
40
0.211124334947052
40
0.234790604898641
40
0.242679361549169
40
0.258456874850229
40
0.274234388151287
40
0.297900658102876
40
0.305789414753405
40
0.321566928054464
40
0.337344441355523
40
0.361010711307111
40
0.368899467957641
40
0.3846769812587
40
0.400454494559759
40
0.424120764511347
40
0.432009521161877
40
0.447787034462936
40
0.463564547763995
40
0.487230817715583
40
0.495119574366113
40
0.510897087667172
40
0.52667460096823
40
0.550340870919819
40
0.558229627570349
40
0.574007140871408
40
0.589784654172467
40
0.613450924124055
40
0.621339680774584
40
0.637117194075643
40
0.652894707376703
40
0.676560977328291
40
0.68444973397882
40
0.700227247279879
40
0.716004760580938
40
0.739671030532527
40
0.747559787183057
40
0.763337300484115
40
0.779114813785174
40
0.802781083736763
40
0.810669840387293
40
0.826447353688351
40
0.84222486698941
40
0.865891136940999
40
0.873779893591528
40
0.889557406892587
40
0.905334920193646
40
0.929001190145235
40
0.936889946795764
40
0.944778703446294
40
0.968444973397882
40
1
40
1
40
1
40
1
41
1.00000000000001
10
30.0771973814089
20
0.0203596675558513
30
0
41
1.00000000000001
10
30.0488930295847
20
0.0271619627778247
30
0
41
1.00000000000001
10
29.9463651698491
20
0.0517958118237794
30
0
41
1.00000000000001
10
29.7325048250058
20
0.103155073433526
30
0
41
1.00000000000001
10
29.5098635687825
20
0.156650612661876
30
0
41
1.00000000000001
10
29.2872172511224
20
0.210042106494425
30
0
41
1.00000000000001
10
29.1016579761976
20
0.254362756793253
30
0
41
1.00000000000001
10
28.8418792335701
20
0.31620474147402
30
0
41
1.00000000000001
10
28.6192378279984
20
0.369065377037511
30
0
41
1.00000000000001
10
28.3965914779283
20
0.421682503709088
30
0
41
1.00000000000001
10
28.2110323059733
20
0.465266427231705
30
0
41
1.00000000000001
10
27.9512538989024
20
0.525916827143612
30
0
41
1.00000000000001
10
27.7286128753274
20
0.577588976483291
30
0
41
1.00000000000001
10
27.5059668611745
20
0.628877449046022
30
0
41
1.00000000000001
10
27.3204078786322
20
0.671262949458586
30
0
41
1.00000000000001
10
27.0606295766194
20
0.730076369433865
30
0
41
1.00000000000001
10
26.8379885267906
20
0.78000903384346
30
0
41
1.00000000000001
10
26.6153424560429
20
0.829423401129152
30
0
41
1.00000000000001
10
26.4297833903535
20
0.87016111319436
30
0
41
1.00000000000001
10
26.1700048837162
20
0.926515677141356
30
0
41
1.00000000000001
10
25.9473635788886
20
0.974181618300025
30
0
41
1.00000000000001
10
25.724717198552
20
1.02119945097327
30
0
41
1.00000000000001
10
25.5391578794583
20
1.05985795699625
30
0
41
1.00000000000001
10
25.2793791121028
20
1.11315610168886
30
0
41
1.00000000000001
10
25.0567377299963
20
1.15804975440143
30
0
41
1.00000000000001
10
24.8340914497493
20
1.20217306705568
30
0
41
1.00000000000001
10
24.6485323446971
20
1.23834355280122
30
0
41
1.00000000000001
10
24.3887540175711
20
1.28802262413036
30
0
41
1.00000000000001
10
24.1661130437634
20
1.32967085346122
30
0
41
1.00000000000001
10
23.9434670544006
20
1.37043496837616
30
0
41
1.00000000000001
10
23.7579080875193
20
1.40373666851731
30
0
41
1.00000000000001
10
23.498129804575
20
1.44927389307811
30
0
41
1.00000000000001
10
23.2754887590799
20
1.48723853477777
30
0
41
1.00000000000001
10
23.0528426746004
20
1.52421454444539
30
0
41
1.00000000000001
10
22.8672835828059
20
1.55429704466051
30
0
41
1.00000000000001
10
22.6075050187964
20
1.5952128592492
30
0
41
1.00000000000001
10
22.3848636514909
20
1.62909324849933
30
0
41
1.00000000000001
10
22.1622172079875
20
1.66188974893439
30
0
41
1.00000000000001
10
21.9766578452677
20
1.68843370750688
30
0
41
1.00000000000001
10
21.7168790451268
20
1.72429200140545
30
0
41
1.00000000000001
10
21.4942376683782
20
1.75372510196738
30
0
41
1.00000000000001
10
21.2715914265542
20
1.78198908623353
30
0
41
1.00000000000001
10
21.0860323626058
20
1.80470779599543
30
0
41
1.00000000000001
10
20.8262540933883
20
1.83512148693376
30
0
41
1.00000000000001
10
20.6036131678952
20
1.85979206831354
30
0
41
1.00000000000001
10
20.3809672217169
20
1.88322555827947
30
0
41
1.00000000000001
10
20.1954082839058
20
1.90188312041187
30
0
41
1.00000000000001
10
19.935630019769
20
1.92654093617353
30
0
41
1.00000000000001
10
19.7129889608751
20
1.94619895435412
30
0
41
1.00000000000001
10
19.4903428297865
20
1.96456345442875
30
0
41
1.00000000000001
10
19.3047836950014
20
1.97896873779243
30
0
41
1.00000000000001
10
19.0450050875316
20
1.9976156886375
30
0
41
1.00000000000001
10
18.8223637038265
20
2.01205519646547
30
0
41
1.00000000000001
10
18.5997172685299
20
2.02515612719208
30
0
41
1.00000000000001
10
18.4141579179103
20
2.0351550405641
30
0
41
1.00000000000001
10
18.154379131631
20
2.04758839250588
30
0
41
1.00000000000001
10
17.9317377644554
20
2.05664823931764
30
0
41
1.00000000000001
10
17.7090915286805
20
2.06433516015136
30
0
41
1.00000000000001
10
17.5235324765852
20
2.06980980624869
30
0
41
1.00000000000001
10
17.2637542454819
20
2.07588118078823
30
0
41
1.00000000000001
10
17.0411133734248
20
2.07945582113627
30
0
41
1.00000000000001
10
16.8555860151869
20
2.08131674289337
30
0
41
1.00000000000001
10
16.670015539409
20
2.0824665702975
30
0
41
1.00000000000001
10
16.3730918736516
20
2.08243634349552
30
0
41
1.00000000000001
10
16.1133738279625
20
2.07987604121934
30
0
41
1.00000000000001
10
15.9649679045436
20
2.07751251829297
30
0
0
SPLINE
5
F3
100
AcDbEntity
8
1
62
256
6
ByLayer
370
18
48
1
60
0
100
AcDbSpline
70
4
71
3
72
8
73
4
40
0
40
0
40
0
40
0
40
1
40
1
40
1
40
1
41
1
10
97.3097972897416
20
-4.45652161746222
30
0
41
1
10
97.3164537288194
20
-4.42719950069136
30
0
41
1
10
97.3214068275212
20
-4.39962901349932
30
0
41
1
10
97.3244758247389
20
-4.37548941529977
30
0
0
SPLINE
5
F4
100
AcDbEntity
8
1
62
256
6
ByLayer
370
18
48
1
60
0
100
AcDbSpline
70
4
71
3
72
11
73
7
40
0
40
0
40
0
40
0
40
0.304912758845279
40
0.578517081489255
40
0.820728782901444
40
1
40
1
40
1
40
1
41
1
10
71.0604920644309
20
-0.0272287206996964
30
0
41
1
10
70.8941597291953
20
0.0128320955000731
30
0
41
1
10
70.5786534043627
20
0.101579653399966
30
0
41
1
10
70.1312572422209
20
0.262272179801016
30
0
41
1
10
69.7525252660088
20
0.423463269195565
30
0
41
1
10
69.5227712577214
20
0.535449868104962
30
0
41
1
10
69.4250430879801
20
0.585539170235847
30
0
0
SPLINE
5
F5
100
AcDbEntity
8
1
62
256
6
ByLayer
370
18
48
1
60
0
100
AcDbSpline
70
4
71
3
72
11
73
7
40
0
40
0
40
0
40
0
40
0.216374795014198
40
0.467073573740559
40
0.752384361043985
40
1
40
1
40
1
40
1
41
1
10
16.6600300565592
20
-0.027090801610143
30
0
41
1
10
16.5455169051876
20
0.0004622907008809
30
0
41
1
10
16.2979796870044
20
0.0669656634882756
30
0
41
1
10
15.8976322318156
20
0.199216018862785
30
0
41
1
10
15.4801196481712
20
0.36462105057177
30
0
41
1
10
15.1963071664172
20
0.50043098710961
30
0
41
1
10
15.0644288169737
20
0.568220124997083
30
0
0
SPLINE
5
F6
100
AcDbEntity
8
1
62
256
6
ByLayer
370
18
48
1
60
0
100
AcDbSpline
70
4
71
2
72
6
73
3
40
0
40
0
40
0
40
1
40
1
40
1
41
1
10
30.0518940319169
20
0.0264402979111367
30
0
41
1
10
30.8896449130247
20
-0.17280874105802
30
0
41
1
10
31.7164632532137
20
-0.606612593041092
30
0
0
SPLINE
5
F7
100
AcDbEntity
8
1
62
256
6
ByLayer
370
18
48
1
60
0
100
AcDbSpline
70
4
71
3
72
11
73
7
40
0
40
0
40
0
40
0
40
0.212485645012229
40
0.456627396179678
40
0.732647301759541
40
1
40
1
40
1
40
1
41
1
10
57.2522254940141
20
0.0263251812568228
30
0
41
1
10
57.3755533566961
20
-0.0034536804514858
30
0
41
1
10
57.6391453065513
20
-0.0747533119869672
30
0
41
1
10
58.0563719780073
20
-0.214869612059715
30
0
41
1
10
58.5004823386192
20
-0.395110920453618
30
0
41
1
10
58.8041147277395
20
-0.542957488528458
30
0
41
1
10
58.9528039529346
20
-0.621213274072829
30
0
0
SPLINE
5
F8
100
AcDbEntity
8
1
62
256
6
ByLayer
370
18
48
1
60
0
100
AcDbSpline
70
4
71
3
72
11
73
7
40
0
40
0
40
0
40
0
40
0.205801824528829
40
0.440900726070605
40
0.705540005929636
40
1
40
1
40
1
40
1
41
1
10
84.4513610688412
20
0.0265749164296949
30
0
41
1
10
84.578105364996
20
-0.0040731810278203
30
0
41
1
10
84.8469939960158
20
-0.0769454608393119
30
0
41
1
10
85.266874991072
20
-0.218743944864514
30
0
41
1
10
85.7311677745326
20
-0.408815418778318
30
0
41
1
10
86.0531829909589
20
-0.565474746402117
30
0
41
1
10
86.2212814681334
20
-0.654422195870467
30
0
0
SPLINE
5
F9
100
AcDbEntity
8
1
62
256
6
ByLayer
370
18
48
1
60
0
100
AcDbSpline
70
4
71
3
72
22
73
18
40
0
40
0
40
0
40
0
40
0.0677740733298232
40
0.123365303903073
40
0.208896714085093
40
0.30417139722857
40
0.381006033546854
40
0.448280101550964
40
0.516581241750268
40
0.605314794101224
40
0.704162594104392
40
0.782111123098023
40
0.842476118035208
40
0.87980750300465
40
0.925557896890923
40
0.988540009784173
40
1
40
1
40
1
40
1
41
1
10
56.965189191929
20
4.40893878844597
30
0
41
1
10
56.7385286128919
20
4.4087397181284
30
0
41
1
10
56.3259532504471
20
4.40827984162544
30
0
41
1
10
55.6273184629182
20
4.40797316837512
30
0
41
1
10
54.8367753223723
20
4.40501743104173
30
0
41
1
10
53.9751710551024
20
4.40356797822332
30
0
41
1
10
53.1743892813058
20
4.40297926212295
30
0
41
1
10
52.4650836996579
20
4.40044157033998
30
0
41
1
10
51.7148224662157
20
4.39973948086379
30
0
41
1
10
50.8593645981891
20
4.39892400190809
30
0
41
1
10
49.9713294945689
20
4.39710360809934
30
0
41
1
10
49.1783542885148
20
4.39436083100352
30
0
41
1
10
48.5904522489748
20
4.39425072310652
30
0
41
1
10
48.1121413147714
20
4.39359344892094
30
0
41
1
10
47.6223892909804
20
4.3934199497036
30
0
41
1
10
47.2253527701764
20
4.39203586429511
30
0
41
1
10
46.9772243740611
20
4.39124486129592
30
0
41
1
10
46.9389862647203
20
4.39112541878654
30
0
0
SPLINE
5
FA
100
AcDbEntity
8
1
62
256
6
ByLayer
370
18
48
1
60
0
100
AcDbSpline
70
4
71
3
72
26
73
22
40
0
40
0
40
0
40
0
40
0.0685283410361176
40
0.136875363673876
40
0.19377228432436
40
0.232976834493681
40
0.271263665222638
40
0.319248913133903
40
0.364219887229069
40
0.415905844249529
40
0.47339735812147
40
0.521977060247491
40
0.55827749210429
40
0.602390099853918
40
0.678155276425876
40
0.747069381207849
40
0.806390431827704
40
0.857190726966242
40
0.905088636618102
40
0.953445553459527
40
1
40
1
40
1
40
1
41
1
10
18.3765987856192
20
-4.34042201864219
30
0
41
1
10
18.6363846439562
20
-4.34054806609018
30
0
41
1
10
19.1547522242525
20
-4.3409354097966
30
0
41
1
10
19.8928335358342
20
-4.34302858598195
30
0
41
1
10
20.5092244424115
20
-4.34329647703095
30
0
41
1
10
21.0224514361807
20
-4.34540723710441
30
0
41
1
10
21.4964990768573
20
-4.34660220483116
30
0
41
1
10
21.9968259837998
20
-4.34742045867779
30
0
41
1
10
22.5469009726784
20
-4.34788584693044
30
0
41
1
10
23.1335043849882
20
-4.34849788339699
30
0
41
1
10
23.7337217279524
20
-4.3498509087149
30
0
41
1
10
24.2754227173411
20
-4.35049282430833
30
0
41
1
10
24.7662243892672
20
-4.35232365902499
30
0
41
1
10
25.3604612798896
20
-4.35454608751519
30
0
41
1
10
26.0787973587304
20
-4.35337332246527
30
0
41
1
10
26.8549913226567
20
-4.35366465607825
30
0
41
1
10
27.5361988382039
20
-4.35626563513
30
0
41
1
10
28.1374386738635
20
-4.359283444173
30
0
41
1
10
28.6969689283929
20
-4.35924467892175
30
0
41
1
10
29.2403427950883
20
-4.35971200494384
30
0
41
1
10
29.6014639829007
20
-4.36010563739333
30
0
41
1
10
29.7785944575483
20
-4.36033882562984
30
0
0
SPLINE
5
FB
100
AcDbEntity
8
1
62
256
6
ByLayer
370
18
48
1
60
0
100
AcDbSpline
70
4
71
3
72
28
73
24
40
0
40
0
40
0
40
0
40
0.0589160525728709
40
0.111485803060113
40
0.157669738925066
40
0.192316677708303
40
0.216126956885498
40
0.247420671008304
40
0.29188113676779
40
0.342022948911038
40
0.383241537646649
40
0.43776298323123
40
0.501250199858144
40
0.568929064555109
40
0.630324733692926
40
0.680801846355941
40
0.736637933840152
40
0.802792181004776
40
0.865420540839127
40
0.91049915345405
40
0.937587437588696
40
0.977745861081761
40
1
40
1
40
1
40
1
41
1
10
72.7054182017382
20
-4.43816266176438
30
0
41
1
10
72.9284564608182
20
-4.4382044622279
30
0
41
1
10
73.3511237397579
20
-4.4385781001759
30
0
41
1
10
73.9560022944042
20
-4.43966525242439
30
0
41
1
10
74.4603180264201
20
-4.44154058891195
30
0
41
1
10
74.8564323182578
20
-4.44188784420177
30
0
41
1
10
75.1982053448301
20
-4.44212840368976
30
0
41
1
10
75.5787611315556
20
-4.44267835879273
30
0
41
1
10
76.0594443571364
20
-4.44319048954128
30
0
41
1
10
76.5776357790799
20
-4.44554626067711
30
0
41
1
10
77.1343464052718
20
-4.44652554078243
30
0
41
1
10
77.7425422861386
20
-4.44676621542533
30
0
41
1
10
78.4517401665276
20
-4.44729229015041
30
0
41
1
10
79.1872143320273
20
-4.44908620468732
30
0
41
1
10
79.8729789977315
20
-4.45123892964654
30
0
41
1
10
80.513525453644
20
-4.45266684047851
30
0
41
1
10
81.1722451811337
20
-4.45444359485711
30
0
41
1
10
81.8773720665889
20
-4.45353081266131
30
0
41
1
10
82.5414171999561
20
-4.45401460446425
30
0
41
1
10
83.0562496512125
20
-4.45555392027552
30
0
41
1
10
83.4852576851854
20
-4.45818892884614
30
0
41
1
10
83.8270900172892
20
-4.45964610822941
30
0
41
1
10
84.0654628664259
20
-4.45975702827047
30
0
41
1
10
84.1504581985447
20
-4.45970585287265
30
0
0
SPLINE
5
FC
100
AcDbEntity
8
1
62
256
6
ByLayer
370
18
48
1
60
0
100
AcDbSpline
70
4
71
3
72
23
73
19
40
0
40
0
40
0
40
0
40
0.0059182066638787
40
0.0867350588979469
40
0.149217083319587
40
0.20926145144086
40
0.28040318959832
40
0.364014625019463
40
0.45717412879258
40
0.528875547281222
40
0.609019788535259
40
0.707137396513599
40
0.787941046877168
40
0.851647291565952
40
0.884700910048357
40
0.919457979906815
40
0.966734192494094
40
1
40
1
40
1
40
1
41
1
10
29.7781061085201
20
4.36029581855109
30
0
41
1
10
29.7585240076535
20
4.36023568223331
30
0
41
1
10
29.47153596675
20
4.35938360627196
30
0
41
1
10
28.9778175122748
20
4.35963260576446
30
0
41
1
10
28.304990296919
20
4.35927176937568
30
0
41
1
10
27.6641832181509
20
4.35742498508759
30
0
41
1
10
26.9534674772326
20
4.35357395452732
30
0
41
1
10
26.1331757365799
20
4.35335705639125
30
0
41
1
10
25.3110305128711
20
4.35482395101582
30
0
41
1
10
24.5003495598595
20
4.35074690289736
30
0
41
1
10
23.6733314115124
20
4.34977595213667
30
0
41
1
10
22.8159376787311
20
4.34795553175468
30
0
41
1
10
22.0137341863931
20
4.34748523457131
30
0
41
1
10
21.4247619299467
20
4.34652291655291
30
0
41
1
10
20.9932912576956
20
4.34523301495935
30
0
41
1
10
20.6119307814344
20
4.34364300232113
30
0
41
1
10
20.2321414258036
20
4.34333575605606
30
0
41
1
10
19.9692424190447
20
4.34278586990703
30
0
41
1
10
19.8604608655251
20
4.34255148874203
30
0
0
SPLINE
5
FD
100
AcDbEntity
8
1
62
256
6
ByLayer
370
18
48
1
60
0
100
AcDbSpline
70
4
71
3
72
27
73
23
40
0
40
0
40
0
40
0
40
0.0493793614462826
40
0.0916902202923918
40
0.123082384569613
40
0.163402224696287
40
0.234681251836039
40
0.306452066363596
40
0.367291496669638
40
0.422867938706641
40
0.47321720188507
40
0.527406151474887
40
0.585142755027445
40
0.637345154074393
40
0.680577901680344
40
0.734925413964532
40
0.806974211368868
40
0.859512665883549
40
0.896369161250219
40
0.92363829782203
40
0.963249169539607
40
1
40
1
40
1
40
1
41
1
10
84.1502982587015
20
4.45966190150511
30
0
41
1
10
83.9854321881638
20
4.45976107592486
30
0
41
1
10
83.6793001719628
20
4.45944305354217
30
0
41
1
10
83.2683571042675
20
4.4567408874172
30
0
41
1
10
82.8876620143928
20
4.45495723662378
30
0
41
1
10
82.4102394899687
20
4.45390273456746
30
0
41
1
10
81.7980019634732
20
4.45354927950066
30
0
41
1
10
81.1172546162159
20
4.45446207054519
30
0
41
1
10
80.4889338409548
20
4.4525659432114
30
0
41
1
10
79.9321344496611
20
4.45131441367218
30
0
41
1
10
79.3975466497783
20
4.44998956706303
30
0
41
1
10
78.8557464586098
20
4.4480116165611
30
0
41
1
10
78.3077470541699
20
4.44726901311043
30
0
41
1
10
77.7963477646969
20
4.44684003503977
30
0
41
1
10
77.2962037809262
20
4.44648346589361
30
0
41
1
10
76.7301550119803
20
4.44629886908632
30
0
41
1
10
76.1334270141315
20
4.44330051536434
30
0
41
1
10
75.5946047179577
20
4.44269715834986
30
0
41
1
10
75.2047887568143
20
4.44213567399905
30
0
41
1
10
74.8594342626233
20
4.44188885938325
30
0
41
1
10
74.5164902517888
20
4.44159278236233
30
0
41
1
10
74.2640888501522
20
4.44078192713854
30
0
41
1
10
74.1422276769944
20
4.44040111178876
30
0
0
SPLINE
5
FE
100
AcDbEntity
8
1
62
256
6
ByLayer
370
18
48
1
60
0
100
AcDbSpline
70
4
71
3
72
26
73
22
40
0
40
0
40
0
40
0
40
0.069473331176883
40
0.137326976446939
40
0.193793720724818
40
0.233142688676734
40
0.269892131626035
40
0.315887812959984
40
0.369256579607596
40
0.434060575549886
40
0.504341824282377
40
0.558440420100277
40
0.605444220180308
40
0.651058330805361
40
0.700326304455453
40
0.758399267638725
40
0.825999054663374
40
0.884548852203901
40
0.924845912219585
40
0.965186376375644
40
1
40
1
40
1
40
1
41
1
10
45.5756804670204
20
-4.38885377774068
30
0
41
1
10
45.8383253366722
20
-4.38881912263594
30
0
41
1
10
46.3575450121801
20
-4.3891667382232
30
0
41
1
10
47.0960396113727
20
-4.39184811539067
30
0
41
1
10
47.7111380205178
20
-4.39340622746454
30
0
41
1
10
48.2162625362699
20
-4.39376996309053
30
0
41
1
10
48.6790425143672
20
-4.39426027325055
30
0
41
1
10
49.1965903487577
20
-4.39453481469997
30
0
41
1
10
49.8203248803137
20
-4.39624227071383
30
0
41
1
10
50.5362450276876
20
-4.39871409967697
30
0
41
1
10
51.2556212312052
20
-4.39915981540179
30
0
41
1
10
51.9052379055636
20
-4.39992556706315
30
0
41
1
10
52.4633188405627
20
-4.40042891853005
30
0
41
1
10
53.0013995914538
20
-4.40278627263783
30
0
41
1
10
53.5826618256152
20
-4.40271325533712
30
0
41
1
10
54.2473660205008
20
-4.40458986322574
30
0
41
1
10
54.9473850913644
20
-4.40512231550434
30
0
41
1
10
55.5797979685097
20
-4.4076237482609
30
0
41
1
10
56.1086727234753
20
-4.40835122185021
30
0
41
1
10
56.5473711878852
20
-4.40839238287936
30
0
41
1
10
56.8329387268736
20
-4.40875982171426
30
0
41
1
10
56.9652217685907
20
-4.40895202851402
30
0
0
SPLINE
5
FF
100
AcDbEntity
8
1
62
256
6
ByLayer
370
18
48
1
60
0
100
AcDbSpline
70
4
71
3
72
11
73
7
40
0
40
0
40
0
40
0
40
0.213991533095705
40
0.461177983878658
40
0.741814403181827
40
1
40
1
40
1
40
1
41
1
10
43.8605913000321
20
-0.0272738330671132
30
0
41
1
10
43.7462044261952
20
0.0002341527022907
30
0
41
1
10
43.4999078768854
20
0.0663150145713871
30
0
41
1
10
43.1045070424411
20
0.196734157777001
30
0
41
1
10
42.6864672287422
20
0.362229092893415
30
0
41
1
10
42.4008207758711
20
0.497851443355017
30
0
41
1
10
42.2641388952039
20
0.567687131151331
30
0
0
SPLINE
5
100
100
AcDbEntity
8
1
62
256
6
ByLayer
370
18
48
1
60
0
100
AcDbSpline
70
4
71
3
72
9
73
5
40
0
40
0
40
0
40
0
40
0.29968523765939
40
1
40
1
40
1
40
1
41
1
10
97.0405060163461
20
0.387824499854389
30
0
41
1
10
96.9955993615524
20
0.407587897375237
30
0
41
1
10
96.8442357746953
20
0.47585392907132
30
0
41
1
10
96.6869862800407
20
0.552671873368809
30
0
41
1
10
96.574341166427
20
0.610300616267949
30
0
0
LINE
5
7B
100
AcDbEntity
8
SK1
62
256
6
ByLayer
370
18
48
1
60
0
100
AcDbLine
10
-38.556624
20
5
30
0
11
-38.556624
21
-5
31
0
39
0
210
0
220
0
230
1
0
LINE
5
7D
100
AcDbEntity
8
SK1
62
256
6
ByLayer
370
18
48
1
60
0
100
AcDbLine
10
-40
20
2.5
30
0
11
-40
21
-2.5
31
0
39
0
210
0
220
0
230
1
0
LINE
5
7E
100
AcDbEntity
8
SK1
62
256
6
ByLayer
370
18
48
1
60
0
100
AcDbLine
10
0
20
-5
30
0
11
0
21
5
31
0
39
0
210
0
220
0
230
1
0
LINE
5
7F
100
AcDbEntity
8
1
62
256
6
ByLayer
370
18
48
1
60
0
100
AcDbLine
10
0
20
-5
30
0
11
0
21
5
31
0
39
0
210
0
220
0
230
1
0
LINE
5
80
100
AcDbEntity
8
1
62
256
6
ByLayer
370
18
48
1
60
0
100
AcDbLine
10
96.764089
20
-2.291809
30
0
11
98.303881
21
-1.055622
31
0
39
0
210
0
220
0
230
1
0
LINE
5
81
100
AcDbEntity
8
1
62
256
6
ByLayer
370
13
48
1
60
0
100
AcDbLine
10
0.636255
20
4.713631
30
0
11
0.636255
21
-4.713631
31
0
39
0
210
0
220
0
230
1
0
LINE
5
82
100
AcDbEntity
8
1
62
256
6
ByLayer
370
13
48
1
60
0
100
AcDbLine
10
1.27404
20
4.427263
30
0
11
1.27404
21
-4.427263
31
0
39
0
210
0
220
0
230
1
0
LINE
5
83
100
AcDbEntity
8
80
62
256
6
ByLayer
370
18
48
1
60
0
100
AcDbLine
10
0
20
0
30
0
11
-5
21
0
31
0
39
0
210
0
220
0
230
1
0
LINE
5
84
100
AcDbEntity
8
4
62
256
6
ByLayer
370
18
48
0.05
60
0
100
AcDbLine
10
99
20
0
30
0
11
0
21
0
31
0
39
0
210
0
220
0
230
1
0
LINE
5
86
100
AcDbEntity
8
SK4
62
256
6
ByLayer
370
18
48
0.05
60
0
100
AcDbLine
10
104
20
0
30
0
11
-45
21
0
31
0
39
0
210
0
220
0
230
1
0
LINE
5
88
100
AcDbEntity
8
SK1
62
256
6
ByLayer
370
18
48
1
60
0
100
AcDbLine
10
-40
20
-2.5
30
0
11
-38.556624
21
-5
31
0
39
0
210
0
220
0
230
1
0
LINE
5
89
100
AcDbEntity
8
SK1
62
256
6
ByLayer
370
18
48
1
60
0
100
AcDbLine
10
-38.556624
20
5
30
0
11
-40
21
2.5
31
0
39
0
210
0
220
0
230
1
0
LINE
5
8A
100
AcDbEntity
8
SK1
62
256
6
ByLayer
370
18
48
1
60
0
100
AcDbLine
10
-38.556624
20
-5
30
0
11
0
21
-5
31
0
39
0
210
0
220
0
230
1
0
LINE
5
8B
100
AcDbEntity
8
SK1
62
256
6
ByLayer
370
18
48
1
60
0
100
AcDbLine
10
0
20
5
30
0
11
-38.556624
21
5
31
0
39
0
210
0
220
0
230
1
0
LINE
5
8C
100
AcDbEntity
8
1
62
256
6
ByLayer
370
18
48
1
60
0
100
AcDbLine
10
1.27404
20
-4.427263
30
0
11
5.726375
21
-4.435277
31
0
39
0
210
0
220
0
230
1
0
LINE
5
8D
100
AcDbEntity
8
1
62
256
6
ByLayer
370
18
48
1
60
0
100
AcDbLine
10
16.946945
20
-4.455474
30
0
11
17.880589
21
-4.457155
31
0
39
0
210
0
220
0
230
1
0
LINE
5
8E
100
AcDbEntity
8
1
62
256
6
ByLayer
370
18
48
1
60
0
100
AcDbLine
10
44.159466
20
-4.504456
30
0
11
45.078199
21
-4.50611
31
0
39
0
210
0
220
0
230
1
0
LINE
5
8F
100
AcDbEntity
8
1
62
256
6
ByLayer
370
18
48
1
60
0
100
AcDbLine
10
71.372565
20
-4.55344
30
0
11
72.278593
21
-4.555071
31
0
39
0
210
0
220
0
230
1
0
LINE
5
90
100
AcDbEntity
8
1
62
256
6
ByLayer
370
18
48
1
60
0
100
AcDbLine
10
72.278593
20
4.555071
30
0
11
71.372565
21
4.55344
31
0
39
0
210
0
220
0
230
1
0
LINE
5
91
100
AcDbEntity
8
1
62
256
6
ByLayer
370
18
48
1
60
0
100
AcDbLine
10
45.078199
20
4.50611
30
0
11
44.159466
21
4.504456
31
0
39
0
210
0
220
0
230
1
0
LINE
5
92
100
AcDbEntity
8
1
62
256
6
ByLayer
370
18
48
1
60
0
100
AcDbLine
10
17.880589
20
4.457155
30
0
11
16.946945
21
4.455474
31
0
39
0
210
0
220
0
230
1
0
LINE
5
93
100
AcDbEntity
8
1
62
256
6
ByLayer
370
18
48
1
60
0
100
AcDbLine
10
5.726375
20
4.435277
30
0
11
1.27404
21
4.427263
31
0
39
0
210
0
220
0
230
1
0
LINE
5
94
100
AcDbEntity
8
81
62
256
6
ByLayer
370
18
48
1
60
0
100
AcDbLine
10
99
20
0
30
0
11
104
21
0
31
0
39
0
210
0
220
0
230
1
0
LINE
5
95
100
AcDbEntity
8
SK2
62
256
6
ByLayer
370
13
48
1
60
0
100
AcDbLine
10
-48.625163
20
-5
30
0
11
-48.625163
21
35.857173
31
0
39
0
210
0
220
0
230
1
0
LINE
5
97
100
AcDbEntity
8
SK2
62
256
6
ByLayer
370
13
48
1
60
0
100
AcDbLine
10
-41.5875
20
5
30
0
11
-50.625163
21
5
31
0
39
0
210
0
220
0
230
1
0
LINE
5
98
100
AcDbEntity
8
SK2
62
256
6
ByLayer
370
13
48
1
60
0
100
AcDbLine
10
-41.5875
20
-5
30
0
11
-50.625163
21
-5
31
0
39
0
210
0
220
0
230
1
0
LINE
5
99
100
AcDbEntity
8
1
62
256
6
ByLayer
370
18
48
1
60
1
100
AcDbLine
10
-48.625163
20
5
30
0
11
-48.164379
21
1.500002
31
0
39
0
210
0
220
0
230
1
0
LINE
5
9A
100
AcDbEntity
8
1
62
256
6
ByLayer
370
18
48
1
60
1
100
AcDbLine
10
-48.164379
20
1.500002
30
0
11
-49.085946
21
1.499998
31
0
39
0
210
0
220
0
230
1
0
LINE
5
9B
100
AcDbEntity
8
1
62
256
6
ByLayer
370
18
48
1
60
1
100
AcDbLine
10
-49.085946
20
1.499998
30
0
11
-48.625163
21
5
31
0
39
0
210
0
220
0
230
1
0
LINE
5
9C
100
AcDbEntity
8
1
62
256
6
ByLayer
370
18
48
1
60
1
100
AcDbLine
10
-48.625163
20
-5
30
0
11
-49.085946
21
-1.500002
31
0
39
0
210
0
220
0
230
1
0
LINE
5
9D
100
AcDbEntity
8
1
62
256
6
ByLayer
370
18
48
1
60
1
100
AcDbLine
10
-49.085946
20
-1.500002
30
0
11
-48.164379
21
-1.499998
31
0
39
0
210
0
220
0
230
1
0
LINE
5
9E
100
AcDbEntity
8
1
62
256
6
ByLayer
370
18
48
1
60
1
100
AcDbLine
10
-48.164379
20
-1.499998
30
0
11
-48.625163
21
-5
31
0
39
0
210
0
220
0
230
1
0
LINE
5
9F
100
AcDbEntity
8
2
62
256
6
ByLayer
370
13
48
1
60
0
100
AcDbLine
10
111.083343
20
-4.6
30
0
11
111.083343
21
32.310193
31
0
39
0
210
0
220
0
230
1
0
LINE
5
A1
100
AcDbEntity
8
2
62
256
6
ByLayer
370
13
48
1
60
0
100
AcDbLine
10
98.8267
20
4.6
30
0
11
113.083343
21
4.6
31
0
39
0
210
0
220
0
230
1
0
LINE
5
A2
100
AcDbEntity
8
2
62
256
6
ByLayer
370
13
48
1
60
0
100
AcDbLine
10
98.8267
20
-4.6
30
0
11
113.083343
21
-4.6
31
0
39
0
210
0
220
0
230
1
0
LINE
5
A3
100
AcDbEntity
8
1
62
256
6
ByLayer
370
18
48
1
60
1
100
AcDbLine
10
111.083343
20
4.6
30
0
11
111.544126
21
1.100002
31
0
39
0
210
0
220
0
230
1
0
LINE
5
A4
100
AcDbEntity
8
1
62
256
6
ByLayer
370
18
48
1
60
1
100
AcDbLine
10
111.544126
20
1.100002
30
0
11
110.622559
21
1.099998
31
0
39
0
210
0
220
0
230
1
0
LINE
5
A5
100
AcDbEntity
8
1
62
256
6
ByLayer
370
18
48
1
60
1
100
AcDbLine
10
110.622559
20
1.099998
30
0
11
111.083343
21
4.6
31
0
39
0
210
0
220
0
230
1
0
LINE
5
A6
100
AcDbEntity
8
1
62
256
6
ByLayer
370
18
48
1
60
1
100
AcDbLine
10
111.083343
20
-4.6
30
0
11
110.622559
21
-1.100002
31
0
39
0
210
0
220
0
230
1
0
LINE
5
A7
100
AcDbEntity
8
1
62
256
6
ByLayer
370
18
48
1
60
1
100
AcDbLine
10
110.622559
20
-1.100002
30
0
11
111.544126
21
-1.099998
31
0
39
0
210
0
220
0
230
1
0
LINE
5
A8
100
AcDbEntity
8
1
62
256
6
ByLayer
370
18
48
1
60
1
100
AcDbLine
10
111.544126
20
-1.099998
30
0
11
111.083343
21
-4.6
31
0
39
0
210
0
220
0
230
1
0
LINE
5
107
100
AcDbEntity
8
1
62
256
6
ByLayer
370
18
48
1
60
1
100
AcDbLine
10
-48.625163
20
5
30
0
11
-48.164379
21
1.500002
31
0
39
0
210
0
220
0
230
1
0
LINE
5
108
100
AcDbEntity
8
1
62
256
6
ByLayer
370
18
48
1
60
1
100
AcDbLine
10
-48.164379
20
1.500002
30
0
11
-49.085946
21
1.499998
31
0
39
0
210
0
220
0
230
1
0
LINE
5
109
100
AcDbEntity
8
1
62
256
6
ByLayer
370
18
48
1
60
1
100
AcDbLine
10
-49.085946
20
1.499998
30
0
11
-48.625163
21
5
31
0
39
0
210
0
220
0
230
1
0
LINE
5
10B
100
AcDbEntity
8
1
62
256
6
ByLayer
370
18
48
1
60
1
100
AcDbLine
10
-48.625163
20
-5
30
0
11
-49.085946
21
-1.500002
31
0
39
0
210
0
220
0
230
1
0
LINE
5
10C
100
AcDbEntity
8
1
62
256
6
ByLayer
370
18
48
1
60
1
100
AcDbLine
10
-49.085946
20
-1.500002
30
0
11
-48.164379
21
-1.499998
31
0
39
0
210
0
220
0
230
1
0
LINE
5
10D
100
AcDbEntity
8
1
62
256
6
ByLayer
370
18
48
1
60
1
100
AcDbLine
10
-48.164379
20
-1.499998
30
0
11
-48.625163
21
-5
31
0
39
0
210
0
220
0
230
1
0
LINE
5
111
100
AcDbEntity
8
1
62
256
6
ByLayer
370
18
48
1
60
1
100
AcDbLine
10
111.083343
20
4.6
30
0
11
111.544126
21
1.100002
31
0
39
0
210
0
220
0
230
1
0
LINE
5
112
100
AcDbEntity
8
1
62
256
6
ByLayer
370
18
48
1
60
1
100
AcDbLine
10
111.544126
20
1.100002
30
0
11
110.622559
21
1.099998
31
0
39
0
210
0
220
0
230
1
0
LINE
5
113
100
AcDbEntity
8
1
62
256
6
ByLayer
370
18
48
1
60
1
100
AcDbLine
10
110.622559
20
1.099998
30
0
11
111.083343
21
4.6
31
0
39
0
210
0
220
0
230
1
0
LINE
5
115
100
AcDbEntity
8
1
62
256
6
ByLayer
370
18
48
1
60
1
100
AcDbLine
10
111.083343
20
-4.6
30
0
11
110.622559
21
-1.100002
31
0
39
0
210
0
220
0
230
1
0
LINE
5
116
100
AcDbEntity
8
1
62
256
6
ByLayer
370
18
48
1
60
1
100
AcDbLine
10
110.622559
20
-1.100002
30
0
11
111.544126
21
-1.099998
31
0
39
0
210
0
220
0
230
1
0
LINE
5
117
100
AcDbEntity
8
1
62
256
6
ByLayer
370
18
48
1
60
1
100
AcDbLine
10
111.544126
20
-1.099998
30
0
11
111.083343
21
-4.6
31
0
39
0
210
0
220
0
230
1
0
MTEXT
5
101
100
AcDbEntity
8
SK6
62
256
6
ByLayer
370
13
48
1
60
0
100
AcDbMText
10
1.390974
20
37.140328
30
0
210
0
220
0
230
1
1
\W0.7386;860.1-0920-080A1-PM P1BM
40
3.5
41
0
44
1.084337
50
0
71
7
72
5
7
iso_b_vert
0
MTEXT
5
105
100
AcDbEntity
8
SK2
62
256
6
ByLayer
370
18
48
1
60
0
100
AcDbMText
10
-50.189796
20
18.409024
30
0
210
0
220
0
230
1
1
%%c
40
3.5
41
0
44
1.084337
50
90
71
7
72
5
7
iso_b_vert
0
MTEXT
5
106
100
AcDbEntity
8
SK2
62
256
6
ByLayer
370
18
48
1
60
0
100
AcDbMText
10
-50.189796
20
23.63168
30
0
210
0
220
0
230
1
1
\W0.6930;10,000
40
3.5
41
0
44
1.084337
50
90
71
7
72
5
7
iso_b_vert
0
MTEXT
5
10F
100
AcDbEntity
8
2
62
256
6
ByLayer
370
18
48
1
60
0
100
AcDbMText
10
109.518709
20
16.60211
30
0
210
0
220
0
230
1
1
%%c
40
3.5
41
0
44
1.084337
50
90
71
7
72
5
7
iso_b_vert
0
MTEXT
5
110
100
AcDbEntity
8
2
62
256
6
ByLayer
370
18
48
1
60
0
100
AcDbMText
10
109.518709
20
21.824766
30
0
210
0
220
0
230
1
1
\W0.7317;9,200
40
3.5
41
0
44
1.084337
50
90
71
7
72
5
7
iso_b_vert
0
HATCH
5
10A
100
AcDbEntity
8
SK2
62
256
6
ByLayer
370
13
48
1
60
0
100
AcDbHatch
10
0
20
0
30
0
210
0
220
0
230
1
2
ANSI31
70
0
71
0
91
1
92
5
93
3
72
1
10
-48.6251625675374
20
5
11
-48.1643788259847
21
1.50000169255318
72
1
10
-48.1643788259847
20
1.50000169255318
11
-49.0859463090902
21
1.49999830744682
72
1
10
-49.0859463090902
20
1.49999830744682
11
-48.6251625675374
21
5
97
0
75
0
76
1
52
0
41
0.0062
77
0
78
1
53
45
43
0
44
0
45
-0.0139193969876572
46
0.0139193969876572
79
0
47
0
98
1
10
0
20
0
0
HATCH
5
10E
100
AcDbEntity
8
SK2
62
256
6
ByLayer
370
13
48
1
60
0
100
AcDbHatch
10
0
20
0
30
0
210
0
220
0
230
1
2
ANSI31
70
0
71
0
91
1
92
5
93
3
72
1
10
-48.6251625675374
20
-5
11
-49.0859463090902
21
-1.50000169255318
72
1
10
-49.0859463090902
20
-1.50000169255318
11
-48.1643788259847
21
-1.49999830744682
72
1
10
-48.1643788259847
20
-1.49999830744682
11
-48.6251625675374
21
-5
97
0
75
0
76
1
52
0
41
0.0062
77
0
78
1
53
45
43
0
44
0
45
-0.0139193969876572
46
0.0139193969876572
79
0
47
0
98
1
10
0
20
0
0
HATCH
5
114
100
AcDbEntity
8
2
62
256
6
ByLayer
370
13
48
1
60
0
100
AcDbHatch
10
0
20
0
30
0
210
0
220
0
230
1
2
ANSI31
70
0
71
0
91
1
92
5
93
3
72
1
10
111.083342615295
20
4.60000000000002
11
111.544126356848
21
1.10000169255321
72
1
10
111.544126356848
20
1.10000169255321
11
110.622558873742
21
1.09999830744684
72
1
10
110.622558873742
20
1.09999830744684
11
111.083342615295
21
4.60000000000002
97
0
75
0
76
1
52
0
41
0.0062
77
0
78
1
53
45
43
0
44
0
45
-0.0139193969876572
46
0.0139193969876572
79
0
47
0
98
1
10
0
20
0
0
HATCH
5
118
100
AcDbEntity
8
2
62
256
6
ByLayer
370
13
48
1
60
0
100
AcDbHatch
10
0
20
0
30
0
210
0
220
0
230
1
2
ANSI31
70
0
71
0
91
1
92
5
93
3
72
1
10
111.083342615295
20
-4.59999999999999
11
110.622558873742
21
-1.10000169255318
72
1
10
110.622558873742
20
-1.10000169255318
11
111.544126356848
21
-1.09999830744681
72
1
10
111.544126356848
20
-1.09999830744681
11
111.083342615295
21
-4.59999999999999
97
0
75
0
76
1
52
0
41
0.0062
77
0
78
1
53
45
43
0
44
0
45
-0.0139193969876572
46
0.0139193969876572
79
0
47
0
98
1
10
0
20
0
0
DIMENSION
5
11A
100
AcDbEntity
8
2
62
256
6
ByLayer
370
13
48
1
60
0
100
AcDbDimension
2
_U0
10
97.2392
20
-14.813398
30
0
11
48.6196
21
-14.813398
31
0
70
32
71
1
72
1
41
1
210
0
220
0
230
1
3
Standard
100
AcDbAlignedDimension
13
0
23
0
33
0
14
97.2392
24
-4.6
34
0
50
0
100
AcDbRotatedDimension
1001
ACAD
1000
DSTYLE
1002
{
1070
   371
1070
    13
1070
   372
1070
    13
1070
   170
1070
     0
1070
   144
1040
1.0
1070
   277
1070
     2
1070
   278
1070
    44
1070
   146
1040
1.0
1070
   345
1005
16
1070
   347
1005
16
1070
   346
1005
16
1070
   344
1005
0
1070
   343
1005
0
1070
   172
1070
     1
1070
    76
1070
     0
1070
    75
1070
     0
1070
   282
1070
     0
1070
   281
1070
     0
1070
    71
1070
     0
1070
    74
1070
     0
1070
   279
1070
     0
1070
   173
1070
     1
1070
   340
1005
102
1070
   271
1070
     2
1070
   272
1070
     2
1070
    77
1070
     1
1070
    73
1070
     1
1070
   171
1070
     3
1070
   274
1070
     4
1070
   177
1070
    35
1070
   176
1070
    35
1070
   178
1070
    35
1070
    48
1040
-0.1
1070
    41
1040
3.5
1070
   147
1040
1.75
1070
    42
1040
1.5875
1070
    44
1040
2.0
1070
   140
1040
3.5
1002
}
1001
ACAD_DSTYLE_DIM_LINETYPE
1070
   380
1005
16
1001
ACAD_DSTYLE_DIM_EXT1_LINETYPE
1070
   381
1005
16
1001
ACAD_DSTYLE_DIM_EXT2_LINETYPE
1070
   382
1005
16
0
DIMENSION
5
133
100
AcDbEntity
8
SK2
62
256
6
ByLayer
370
13
48
1
60
0
100
AcDbDimension
2
_U1
10
99
20
-33.692985
30
0
11
29.5
21
-33.692985
31
0
70
32
71
1
72
1
41
1
210
0
220
0
230
1
3
Standard
100
AcDbAlignedDimension
13
-40
23
-5
33
0
14
99
24
0
34
0
50
0
100
AcDbRotatedDimension
1001
ACAD
1000
DSTYLE
1002
{
1070
   371
1070
    13
1070
   372
1070
    13
1070
   170
1070
     0
1070
   144
1040
1.0
1070
   277
1070
     2
1070
   278
1070
    44
1070
   146
1040
1.0
1070
   345
1005
16
1070
   347
1005
16
1070
   346
1005
16
1070
   344
1005
0
1070
   343
1005
0
1070
   172
1070
     1
1070
    76
1070
     0
1070
    75
1070
     0
1070
   282
1070
     0
1070
   281
1070
     0
1070
    71
1070
     0
1070
    74
1070
     0
1070
   279
1070
     0
1070
   173
1070
     1
1070
   340
1005
102
1070
   271
1070
     2
1070
   272
1070
     2
1070
    77
1070
     1
1070
    73
1070
     1
1070
   171
1070
     3
1070
   274
1070
     4
1070
   177
1070
    35
1070
   176
1070
    35
1070
   178
1070
    35
1070
    48
1040
-0.1
1070
    41
1040
3.5
1070
   147
1040
1.75
1070
    42
1040
1.5875
1070
    44
1040
2.0
1070
   140
1040
3.5
1002
}
1001
ACAD_DSTYLE_DIM_LINETYPE
1070
   380
1005
16
1001
ACAD_DSTYLE_DIM_EXT1_LINETYPE
1070
   381
1005
16
1001
ACAD_DSTYLE_DIM_EXT2_LINETYPE
1070
   382
1005
16
0
DIMENSION
5
14B
100
AcDbEntity
8
SK2
62
256
6
ByLayer
370
13
48
1
60
0
100
AcDbDimension
2
_U2
10
99
20
16.209119
30
0
11
61.32
21
16.209119
31
0
70
32
71
1
72
1
41
1
210
0
220
0
230
1
3
Standard
100
AcDbAlignedDimension
13
23.64
23
4.6
33
0
14
99
24
0
34
0
50
0
100
AcDbRotatedDimension
1001
ACAD
1000
DSTYLE
1002
{
1070
   371
1070
    13
1070
   372
1070
    13
1070
   170
1070
     0
1070
   144
1040
1.0
1070
   277
1070
     2
1070
   278
1070
    44
1070
   146
1040
1.0
1070
   345
1005
16
1070
   347
1005
16
1070
   346
1005
16
1070
   344
1005
0
1070
   343
1005
0
1070
   172
1070
     1
1070
    76
1070
     0
1070
    75
1070
     0
1070
   282
1070
     0
1070
   281
1070
     0
1070
    71
1070
     0
1070
    74
1070
     0
1070
   279
1070
     0
1070
   173
1070
     1
1070
   340
1005
102
1070
   271
1070
     2
1070
   272
1070
     2
1070
    77
1070
     1
1070
    73
1070
     1
1070
   171
1070
     3
1070
   274
1070
     4
1070
   177
1070
    35
1070
   176
1070
    35
1070
   178
1070
    35
1070
    48
1040
-0.1
1070
    41
1040
3.5
1070
   147
1040
1.75
1070
    42
1040
1.5875
1070
    44
1040
2.0
1070
   140
1040
3.5
1002
}
1001
ACAD_DSTYLE_DIM_LINETYPE
1070
   380
1005
16
1001
ACAD_DSTYLE_DIM_EXT1_LINETYPE
1070
   381
1005
16
1001
ACAD_DSTYLE_DIM_EXT2_LINETYPE
1070
   382
1005
16
0
DIMENSION
5
163
100
AcDbEntity
8
SK2
62
256
6
ByLayer
370
13
48
1
60
0
100
AcDbDimension
2
_U3
10
97.2392
20
-17.402503
30
0
11
116.333333
21
-17.402503
31
0
70
32
71
1
72
1
41
1
210
0
220
0
230
1
3
Standard
100
AcDbAlignedDimension
13
99
23
0
33
0
14
97.2392
24
-4.6
34
0
50
0
100
AcDbRotatedDimension
1001
ACAD
1000
DSTYLE
1002
{
1070
   371
1070
    13
1070
   372
1070
    13
1070
   170
1070
     0
1070
   144
1040
1.0
1070
   277
1070
     2
1070
   278
1070
    44
1070
   146
1040
1.0
1070
   345
1005
16
1070
   347
1005
16
1070
   346
1005
16
1070
   344
1005
0
1070
   343
1005
0
1070
   172
1070
     1
1070
    76
1070
     0
1070
    75
1070
     0
1070
   282
1070
     0
1070
   281
1070
     0
1070
    71
1070
     0
1070
    74
1070
     0
1070
   279
1070
     0
1070
   173
1070
     1
1070
   340
1005
102
1070
   271
1070
     2
1070
   272
1070
     2
1070
    77
1070
     1
1070
    73
1070
     1
1070
   171
1070
     3
1070
   274
1070
     4
1070
   177
1070
    35
1070
   176
1070
    35
1070
   178
1070
    35
1070
    48
1040
-0.1
1070
    41
1040
3.5
1070
   147
1040
1.75
1070
    42
1040
1.5875
1070
    44
1040
2.0
1070
   140
1040
3.5
1002
}
1001
ACAD_DSTYLE_DIM_LINETYPE
1070
   380
1005
16
1001
ACAD_DSTYLE_DIM_EXT1_LINETYPE
1070
   381
1005
16
1001
ACAD_DSTYLE_DIM_EXT2_LINETYPE
1070
   382
1005
16
0
DIMENSION
5
17D
100
AcDbEntity
8
SK2
62
256
6
ByLayer
370
13
48
1
60
0
100
AcDbDimension
2
_U4
10
97.2392
20
-23.343428
30
0
11
28.6196
21
-23.343428
31
0
70
32
71
1
72
1
41
1
210
0
220
0
230
1
3
Standard
100
AcDbAlignedDimension
13
-40
23
-5
33
0
14
97.2392
24
-4.6
34
0
50
0
100
AcDbRotatedDimension
1001
ACAD
1000
DSTYLE
1002
{
1070
   371
1070
    13
1070
   372
1070
    13
1070
   170
1070
     0
1070
   144
1040
1.0
1070
   277
1070
     2
1070
   278
1070
    44
1070
   146
1040
1.0
1070
   345
1005
16
1070
   347
1005
16
1070
   346
1005
16
1070
   344
1005
0
1070
   343
1005
0
1070
   172
1070
     1
1070
    76
1070
     0
1070
    75
1070
     0
1070
   282
1070
     0
1070
   281
1070
     0
1070
    71
1070
     0
1070
    74
1070
     0
1070
   279
1070
     0
1070
   173
1070
     1
1070
   340
1005
102
1070
   271
1070
     2
1070
   272
1070
     2
1070
    77
1070
     1
1070
    73
1070
     1
1070
   171
1070
     3
1070
   274
1070
     4
1070
   177
1070
    35
1070
   176
1070
    35
1070
   178
1070
    35
1070
    48
1040
-0.1
1070
    41
1040
3.5
1070
   147
1040
1.75
1070
    42
1040
1.5875
1070
    44
1040
2.0
1070
   140
1040
3.5
1002
}
1001
ACAD_DSTYLE_DIM_LINETYPE
1070
   380
1005
16
1001
ACAD_DSTYLE_DIM_EXT1_LINETYPE
1070
   381
1005
16
1001
ACAD_DSTYLE_DIM_EXT2_LINETYPE
1070
   382
1005
16
0
ENDSEC
0
SECTION
2
OBJECTS
0
DICTIONARY
5
205
330
0
100
AcDbDictionary
280
0
281
1
3
ACAD_GROUP
350
206
3
ACAD_MLINESTYLE
350
207
0
DICTIONARY
5
206
330
0
100
AcDbDictionary
280
0
281
1
0
DICTIONARY
5
207
330
0
100
AcDbDictionary
280
0
281
1
3
Standard
350
18
0
MLINESTYLE
5
18
330
207
100
AcDbMlineStyle
2
Standard
70
0
3

62
256
51
90
52
90
71
2
49
-0.5
62
256
6
ByLayer
49
0.5
62
256
6
ByLayer
0
RASTERVARIABLES
5
1f3
330

100
AcDbRasterVariables
90
0
70
1
71
1
72
1
0
ENDSEC
0
EOF
