0
SECTION
2
HEADER
9
$ACADVER
1
AC1015
9
$DWGCODEPAGE
3
ANSI_1252
9
$HANDSEED
5
1f9
9
$ANGBASE
50
0
9
$ANGDIR
70
0
9
$ATTMODE
70
1
9
$AUNITS
70
0
9
$AUPREC
70
0
9
$CECOLOR
62
256
9
$CELTSCALE
40
1
9
$CELTYPE
6
ByLayer
9
$CELWEIGHT
370
18
9
$CLAYER
8
0
9
$CMLJUST
70
0
9
$CMLSCALE
40
1
9
$CMLSTYLE
2
Standard
9
$DIMSTYLE
2
Standard
9
$TEXTSIZE
40
0.2
9
$TEXTSTYLE
7
Standard
9
$LUNITS
70
2
9
$LUPREC
70
4
9
$EXTNAMES
290
1
9
$INSUNITS
70
4
9
$LTSCALE
40
1
9
$LWDISPLAY
290
1
9
$PDMODE
70
0
9
$PDSIZE
40
0
9
$PLINEGEN
70
0
0
ENDSEC
0
SECTION
2
CLASSES
0
CLASS
1
RASTERVARIABLES
2
AcDbRasterVariables
3
ISM
90
0
280
0
281
0
0
ENDSEC
0
SECTION
2
TABLES
0
TABLE
2
VPORT
5
1ef
100
AcDbSymbolTable
0
VPORT
5
1
100
AcDbSymbolTableRecord
100
AcDbViewportTableRecord
2
*Active
70
0
10
0
20
0
11
1
21
1
12
-1
22
1
13
0
23
0
14
0.5
24
0.5
15
10
25
10
16
0
26
0
36
1
17
0
27
0
37
0
0
ENDTAB
0
TABLE
2
LTYPE
5
1f0
100
AcDbSymbolTable
0
LTYPE
5
14
100
AcDbSymbolTableRecord
100
AcDbLinetypeTableRecord
70
0
2
ByBlock
3

72
65
73
0
40
0
0
LTYPE
5
15
100
AcDbSymbolTableRecord
100
AcDbLinetypeTableRecord
70
0
2
ByLayer
3

72
65
73
0
40
0
0
LTYPE
5
16
100
AcDbSymbolTableRecord
100
AcDbLinetypeTableRecord
70
0
2
Continuous
3
Solid line
72
65
73
0
40
0
0
LTYPE
5
6E
100
AcDbSymbolTableRecord
100
AcDbLinetypeTableRecord
70
0
2
CENTER
3
____ _ ____ _ ____ _ ____
72
65
73
4
40
47.5
49
22
74
0
49
-8.5
74
0
49
8.5
74
0
49
-8.5
74
0
0
LTYPE
5
6F
100
AcDbSymbolTableRecord
100
AcDbLinetypeTableRecord
70
0
2
DASHED
3
__ __ __ __ __ __ __ __ __
72
65
73
2
40
25.72
49
12.86
74
0
49
-12.86
74
0
0
ENDTAB
0
TABLE
2
LAYER
5
1f1
100
AcDbSymbolTable
0
LAYER
5
10
100
AcDbSymbolTableRecord
100
AcDbLayerTableRecord
2
0
70
0
62
7
6
Continuous
290
1
370
-3
390
0
0
LAYER
5
71
100
AcDbSymbolTableRecord
100
AcDbLayerTableRecord
2
80
70
0
62
-6
6
Continuous
290
1
370
-3
390
0
0
LAYER
5
73
100
AcDbSymbolTableRecord
100
AcDbLayerTableRecord
2
81
70
0
62
-3
6
Continuous
290
1
370
-3
390
0
0
LAYER
5
75
100
AcDbSymbolTableRecord
100
AcDbLayerTableRecord
2
1
70
0
62
4
6
Continuous
290
1
370
-3
390
0
0
LAYER
5
85
100
AcDbSymbolTableRecord
100
AcDbLayerTableRecord
2
4
70
0
62
-2
6
CENTER
290
1
370
-3
390
0
0
LAYER
5
9C
100
AcDbSymbolTableRecord
100
AcDbLayerTableRecord
2
2
70
0
62
7
6
Continuous
290
1
370
-3
390
0
0
LAYER
5
104
100
AcDbSymbolTableRecord
100
AcDbLayerTableRecord
2
Defpoints
70
0
62
7
6
Continuous
290
0
370
-3
390
0
0
LAYER
5
1db
100
AcDbSymbolTableRecord
100
AcDbLayerTableRecord
2
SK1
70
0
62
4
6
Continuous
290
1
370
-3
390
0
0
LAYER
5
1dc
100
AcDbSymbolTableRecord
100
AcDbLayerTableRecord
2
SK4
70
0
62
2
6
CENTER
290
1
370
-3
390
0
0
LAYER
5
1dd
100
AcDbSymbolTableRecord
100
AcDbLayerTableRecord
2
SK2
70
0
62
7
6
Continuous
290
1
370
-3
390
0
0
LAYER
5
1de
100
AcDbSymbolTableRecord
100
AcDbLayerTableRecord
2
SK6
70
0
62
5
6
Continuous
290
1
370
-3
390
0
0
ENDTAB
0
TABLE
2
STYLE
5
1f2
100
AcDbSymbolTable
0
STYLE
5
11
100
AcDbSymbolTableRecord
100
AcDbTextStyleTableRecord
2
Standard
3
txt
70
0
71
0
40
0
41
1
42
0
50
0
0
STYLE
5
E9
100
AcDbSymbolTableRecord
100
AcDbTextStyleTableRecord
2
iso_b_vert
3
simplex.shx
70
0
71
0
40
0
41
1
42
0
50
0
0
STYLE
5
EA
100
AcDbSymbolTableRecord
100
AcDbTextStyleTableRecord
2
DWGDirectTextStyle
3
simplex
70
0
71
0
40
0
41
1
42
0
50
0
0
ENDTAB
0
TABLE
2
DIMSTYLE
5
1f3
100
AcDbSymbolTable
100
AcDbDimStyleTable
0
DIMSTYLE
105
27
100
AcDbSymbolTableRecord
100
AcDbDimStyleTableRecord
2
Standard
70
0
3
<>
41
0.18
42
0.0625
44
0.18
140
0.18
147
0.09
73
0
74
0
77
1
271
2
275
0
278
52
280
0
340
11
0
ENDTAB
0
TABLE
2
VIEW
5
1f4
100
AcDbSymbolTable
0
ENDTAB
0
TABLE
2
UCS
5
1f5
100
AcDbSymbolTable
0
ENDTAB
0
TABLE
2
APPID
5
1f6
100
AcDbSymbolTable
0
APPID
5
12
100
AcDbSymbolTableRecord
100
AcDbRegAppTableRecord
2
ACAD
70
0
0
APPID
5
100
100
AcDbSymbolTableRecord
100
AcDbRegAppTableRecord
2
ACAD_DSTYLE_DIMBREAK
70
0
0
APPID
5
19A
100
AcDbSymbolTableRecord
100
AcDbRegAppTableRecord
2
ACAD_DSTYLE_DIM_LINETYPE
70
0
0
APPID
5
19B
100
AcDbSymbolTableRecord
100
AcDbRegAppTableRecord
2
ACAD_DSTYLE_DIM_EXT1_LINETYPE
70
0
0
APPID
5
19C
100
AcDbSymbolTableRecord
100
AcDbRegAppTableRecord
2
ACAD_DSTYLE_DIM_EXT2_LINETYPE
70
0
0
APPID
5
1D7
100
AcDbSymbolTableRecord
100
AcDbRegAppTableRecord
2
ACAD_MLEADERVER
70
0
0
ENDTAB
0
TABLE
2
BLOCK_RECORD
5
1f7
100
AcDbSymbolTable
0
BLOCK_RECORD
5
1F
100
AcDbSymbolTableRecord
100
AcDbBlockTableRecord
2
*Model_Space
340
0
70
0
0
BLOCK_RECORD
5
1B
100
AcDbSymbolTableRecord
100
AcDbBlockTableRecord
2
*Paper_Space
340
0
70
0
0
BLOCK_RECORD
5
23
100
AcDbSymbolTableRecord
100
AcDbBlockTableRecord
2
*Paper_Space0
340
0
70
0
0
BLOCK_RECORD
5
105
100
AcDbSymbolTableRecord
100
AcDbBlockTableRecord
2
*D1
340
0
70
0
0
BLOCK_RECORD
5
111
100
AcDbSymbolTableRecord
100
AcDbBlockTableRecord
2
_U0
340
0
70
0
0
BLOCK_RECORD
5
11D
100
AcDbSymbolTableRecord
100
AcDbBlockTableRecord
2
*D3
340
0
70
0
0
BLOCK_RECORD
5
129
100
AcDbSymbolTableRecord
100
AcDbBlockTableRecord
2
_U1
340
0
70
0
0
BLOCK_RECORD
5
135
100
AcDbSymbolTableRecord
100
AcDbBlockTableRecord
2
*D5
340
0
70
0
0
BLOCK_RECORD
5
141
100
AcDbSymbolTableRecord
100
AcDbBlockTableRecord
2
_U2
340
0
70
0
0
BLOCK_RECORD
5
14D
100
AcDbSymbolTableRecord
100
AcDbBlockTableRecord
2
*D7
340
0
70
0
0
BLOCK_RECORD
5
15B
100
AcDbSymbolTableRecord
100
AcDbBlockTableRecord
2
_U3
340
0
70
0
0
BLOCK_RECORD
5
167
100
AcDbSymbolTableRecord
100
AcDbBlockTableRecord
2
*D9
340
0
70
0
0
BLOCK_RECORD
5
173
100
AcDbSymbolTableRecord
100
AcDbBlockTableRecord
2
_U4
340
0
70
0
0
ENDTAB
0
ENDSEC
0
SECTION
2
BLOCKS
0
BLOCK
5
20
100
AcDbEntity
8
0
100
AcDbBlockBegin
2
*Model_Space
70
0
10
0
20
0
30
0
3
*Model_Space
0
ENDBLK
5
21
100
AcDbEntity
8
0
100
AcDbBlockEnd
0
BLOCK
5
1C
100
AcDbEntity
8
0
100
AcDbBlockBegin
2
*Paper_Space
70
0
10
0
20
0
30
0
3
*Paper_Space
0
ENDBLK
5
1D
100
AcDbEntity
8
0
100
AcDbBlockEnd
0
BLOCK
5
24
100
AcDbEntity
8
0
100
AcDbBlockBegin
2
*Paper_Space0
70
0
10
0
20
0
30
0
3
*Paper_Space0
0
ENDBLK
5
25
100
AcDbEntity
8
0
100
AcDbBlockEnd
0
BLOCK
5
106
100
AcDbEntity
8
0
100
AcDbBlockBegin
2
*D1
70
1
10
0
20
0
30
0
3
*D1
0
LINE
5
108
100
AcDbEntity
8
0
62
256
6
ByLayer
370
-2
48
1
60
0
100
AcDbLine
10
0
20
-1.5875
30
0
11
0
21
-16.613398
31
0
39
0
210
0
220
0
230
1
0
LINE
5
109
100
AcDbEntity
8
0
62
256
6
ByLayer
370
-2
48
1
60
0
100
AcDbLine
10
61.3105
20
-5.9875
30
0
11
61.3105
21
-16.613398
31
0
39
0
210
0
220
0
230
1
0
LINE
5
10A
100
AcDbEntity
8
0
62
256
6
ByLayer
370
-2
48
1
60
0
100
AcDbLine
10
3.5
20
-14.613398
30
0
11
57.8105
21
-14.613398
31
0
39
0
210
0
220
0
230
1
0
SOLID
5
10B
100
AcDbEntity
8
0
62
256
6
ByLayer
370
-1
48
1
60
0
100
AcDbTrace
10
3.5
20
-14.030065
30
0
11
3.5
21
-15.196732
31
0
12
0
22
-14.613398
32
0
13
0
23
-14.613398
33
0
39
0
210
0
220
0
230
1
0
SOLID
5
10C
100
AcDbEntity
8
0
62
256
6
ByLayer
370
-1
48
1
60
0
100
AcDbTrace
10
57.8105
20
-15.196732
30
0
11
57.8105
21
-14.030065
31
0
12
61.3105
22
-14.613398
32
0
13
61.3105
23
-14.613398
33
0
39
0
210
0
220
0
230
1
0
MTEXT
5
10D
100
AcDbEntity
8
0
62
256
6
ByLayer
370
18
48
1
60
0
100
AcDbMText
10
30.65525
20
-7.613398
30
0
210
0
220
0
230
1
1
\A1;61.31
40
3.5
41
0
44
1
50
0
71
5
72
5
7
iso_b_vert
0
POINT
5
10E
100
AcDbEntity
8
Defpoints
62
0
6
ByLayer
370
-1
48
1
60
0
100
AcDbPoint
10
0
20
0
30
0
39
0
210
0
220
0
230
1
50
360
0
POINT
5
10F
100
AcDbEntity
8
Defpoints
62
0
6
ByLayer
370
-1
48
1
60
0
100
AcDbPoint
10
61.3105
20
-4.4
30
0
39
0
210
0
220
0
230
1
50
360
0
POINT
5
110
100
AcDbEntity
8
Defpoints
62
0
6
ByLayer
370
-1
48
1
60
0
100
AcDbPoint
10
61.3105
20
-14.613398
30
0
39
0
210
0
220
0
230
1
50
360
0
ENDBLK
5
107
100
AcDbEntity
8
0
100
AcDbBlockEnd
0
BLOCK
5
118
100
AcDbEntity
8
0
100
AcDbBlockBegin
2
_U0
70
0
10
0
20
0
30
0
3
_U0
0
MTEXT
5
112
100
AcDbEntity
8
2
62
256
6
ByLayer
370
13
48
1
60
0
100
AcDbMText
10
26.392818
20
-13.580765
30
0
210
0
220
0
230
1
1
\W0.6563;61,31
40
3.5
41
0
44
1.084337
50
0
71
7
72
5
7
iso_b_vert
0
LINE
5
113
100
AcDbEntity
8
2
62
256
6
ByLayer
370
13
48
1
60
0
100
AcDbLine
10
0
20
-1.5875
30
0
11
0
21
-16.613398
31
0
39
0
210
0
220
0
230
1
0
LINE
5
114
100
AcDbEntity
8
2
62
256
6
ByLayer
370
13
48
1
60
0
100
AcDbLine
10
61.3105
20
-5.9875
30
0
11
61.3105
21
-16.613398
31
0
39
0
210
0
220
0
230
1
0
LINE
5
115
100
AcDbEntity
8
2
62
256
6
ByLayer
370
13
48
1
60
0
100
AcDbLine
10
0
20
-14.613398
30
0
11
61.3105
21
-14.613398
31
0
39
0
210
0
220
0
230
1
0
SOLID
5
116
100
AcDbEntity
8
2
62
256
6
ByLayer
370
18
48
1
60
0
100
AcDbTrace
10
0
20
-14.613398
30
0
11
3.499998
21
-14.152615
31
0
12
3.500002
22
-15.074182
32
0
13
3.500002
23
-15.074182
33
0
39
0
210
0
220
0
230
1
0
SOLID
5
117
100
AcDbEntity
8
2
62
256
6
ByLayer
370
18
48
1
60
0
100
AcDbTrace
10
61.3105
20
-14.613398
30
0
11
57.810502
21
-15.074182
31
0
12
57.810498
22
-14.152615
32
0
13
57.810498
23
-14.152615
33
0
39
0
210
0
220
0
230
1
0
ENDBLK
5
119
100
AcDbEntity
8
0
100
AcDbBlockEnd
0
BLOCK
5
11E
100
AcDbEntity
8
0
100
AcDbBlockBegin
2
*D3
70
1
10
0
20
0
30
0
3
*D3
0
LINE
5
120
100
AcDbEntity
8
0
62
256
6
ByLayer
370
-2
48
1
60
0
100
AcDbLine
10
-40
20
-6.5875
30
0
11
-40
21
-35.692985
31
0
39
0
210
0
220
0
230
1
0
LINE
5
121
100
AcDbEntity
8
0
62
256
6
ByLayer
370
-2
48
1
60
0
100
AcDbLine
10
63
20
-1.5875
30
0
11
63
21
-35.692985
31
0
39
0
210
0
220
0
230
1
0
LINE
5
122
100
AcDbEntity
8
0
62
256
6
ByLayer
370
-2
48
1
60
0
100
AcDbLine
10
-36.5
20
-33.692985
30
0
11
59.5
21
-33.692985
31
0
39
0
210
0
220
0
230
1
0
SOLID
5
123
100
AcDbEntity
8
0
62
256
6
ByLayer
370
-1
48
1
60
0
100
AcDbTrace
10
-36.5
20
-33.109652
30
0
11
-36.5
21
-34.276319
31
0
12
-40
22
-33.692985
32
0
13
-40
23
-33.692985
33
0
39
0
210
0
220
0
230
1
0
SOLID
5
124
100
AcDbEntity
8
0
62
256
6
ByLayer
370
-1
48
1
60
0
100
AcDbTrace
10
59.5
20
-34.276319
30
0
11
59.5
21
-33.109652
31
0
12
63
22
-33.692985
32
0
13
63
23
-33.692985
33
0
39
0
210
0
220
0
230
1
0
MTEXT
5
125
100
AcDbEntity
8
0
62
256
6
ByLayer
370
18
48
1
60
0
100
AcDbMText
10
11.5
20
-26.692985
30
0
210
0
220
0
230
1
1
\A1;103.00
40
3.5
41
0
44
1
50
0
71
5
72
5
7
iso_b_vert
0
POINT
5
126
100
AcDbEntity
8
Defpoints
62
0
6
ByLayer
370
-1
48
1
60
0
100
AcDbPoint
10
-40
20
-5
30
0
39
0
210
0
220
0
230
1
50
360
0
POINT
5
127
100
AcDbEntity
8
Defpoints
62
0
6
ByLayer
370
-1
48
1
60
0
100
AcDbPoint
10
63
20
0
30
0
39
0
210
0
220
0
230
1
50
360
0
POINT
5
128
100
AcDbEntity
8
Defpoints
62
0
6
ByLayer
370
-1
48
1
60
0
100
AcDbPoint
10
63
20
-33.692985
30
0
39
0
210
0
220
0
230
1
50
360
0
ENDBLK
5
11F
100
AcDbEntity
8
0
100
AcDbBlockEnd
0
BLOCK
5
130
100
AcDbEntity
8
0
100
AcDbBlockBegin
2
_U1
70
0
10
0
20
0
30
0
3
_U1
0
MTEXT
5
12A
100
AcDbEntity
8
SK2
62
256
6
ByLayer
370
13
48
1
60
0
100
AcDbMText
10
5.492401
20
-32.660352
30
0
210
0
220
0
230
1
1
\W0.6930;103,00
40
3.5
41
0
44
1.084337
50
0
71
7
72
5
7
iso_b_vert
0
LINE
5
12B
100
AcDbEntity
8
SK2
62
256
6
ByLayer
370
13
48
1
60
0
100
AcDbLine
10
-40
20
-6.5875
30
0
11
-40
21
-35.692985
31
0
39
0
210
0
220
0
230
1
0
LINE
5
12C
100
AcDbEntity
8
SK2
62
256
6
ByLayer
370
13
48
1
60
0
100
AcDbLine
10
63
20
-1.5875
30
0
11
63
21
-35.692985
31
0
39
0
210
0
220
0
230
1
0
LINE
5
12D
100
AcDbEntity
8
SK2
62
256
6
ByLayer
370
13
48
1
60
0
100
AcDbLine
10
-40
20
-33.692985
30
0
11
63
21
-33.692985
31
0
39
0
210
0
220
0
230
1
0
SOLID
5
12E
100
AcDbEntity
8
SK2
62
256
6
ByLayer
370
18
48
1
60
0
100
AcDbTrace
10
-40
20
-33.692985
30
0
11
-36.500002
21
-33.232202
31
0
12
-36.499998
22
-34.153769
32
0
13
-36.499998
23
-34.153769
33
0
39
0
210
0
220
0
230
1
0
SOLID
5
12F
100
AcDbEntity
8
SK2
62
256
6
ByLayer
370
18
48
1
60
0
100
AcDbTrace
10
63
20
-33.692985
30
0
11
59.500002
21
-34.153769
31
0
12
59.499998
22
-33.232202
32
0
13
59.499998
23
-33.232202
33
0
39
0
210
0
220
0
230
1
0
ENDBLK
5
131
100
AcDbEntity
8
0
100
AcDbBlockEnd
0
BLOCK
5
136
100
AcDbEntity
8
0
100
AcDbBlockBegin
2
*D5
70
1
10
0
20
0
30
0
3
*D5
0
LINE
5
138
100
AcDbEntity
8
0
62
256
6
ByLayer
370
-2
48
1
60
0
100
AcDbLine
10
17.31
20
5.9875
30
0
11
17.31
21
18.009119
31
0
39
0
210
0
220
0
230
1
0
LINE
5
139
100
AcDbEntity
8
0
62
256
6
ByLayer
370
-2
48
1
60
0
100
AcDbLine
10
63
20
1.5875
30
0
11
63
21
18.009119
31
0
39
0
210
0
220
0
230
1
0
LINE
5
13A
100
AcDbEntity
8
0
62
256
6
ByLayer
370
-2
48
1
60
0
100
AcDbLine
10
20.81
20
16.009119
30
0
11
59.5
21
16.009119
31
0
39
0
210
0
220
0
230
1
0
SOLID
5
13B
100
AcDbEntity
8
0
62
256
6
ByLayer
370
-1
48
1
60
0
100
AcDbTrace
10
20.81
20
16.592453
30
0
11
20.81
21
15.425786
31
0
12
17.31
22
16.009119
32
0
13
17.31
23
16.009119
33
0
39
0
210
0
220
0
230
1
0
SOLID
5
13C
100
AcDbEntity
8
0
62
256
6
ByLayer
370
-1
48
1
60
0
100
AcDbTrace
10
59.5
20
15.425786
30
0
11
59.5
21
16.592453
31
0
12
63
22
16.009119
32
0
13
63
23
16.009119
33
0
39
0
210
0
220
0
230
1
0
MTEXT
5
13D
100
AcDbEntity
8
0
62
256
6
ByLayer
370
18
48
1
60
0
100
AcDbMText
10
40.155
20
23.009119
30
0
210
0
220
0
230
1
1
\A1;45.69
40
3.5
41
0
44
1
50
0
71
5
72
5
7
iso_b_vert
0
POINT
5
13E
100
AcDbEntity
8
Defpoints
62
0
6
ByLayer
370
-1
48
1
60
0
100
AcDbPoint
10
17.31
20
4.4
30
0
39
0
210
0
220
0
230
1
50
360
0
POINT
5
13F
100
AcDbEntity
8
Defpoints
62
0
6
ByLayer
370
-1
48
1
60
0
100
AcDbPoint
10
63
20
0
30
0
39
0
210
0
220
0
230
1
50
360
0
POINT
5
140
100
AcDbEntity
8
Defpoints
62
0
6
ByLayer
370
-1
48
1
60
0
100
AcDbPoint
10
63
20
16.009119
30
0
39
0
210
0
220
0
230
1
50
360
0
ENDBLK
5
137
100
AcDbEntity
8
0
100
AcDbBlockEnd
0
BLOCK
5
148
100
AcDbEntity
8
0
100
AcDbBlockBegin
2
_U2
70
0
10
0
20
0
30
0
3
_U2
0
MTEXT
5
142
100
AcDbEntity
8
SK2
62
256
6
ByLayer
370
13
48
1
60
0
100
AcDbMText
10
34.833435
20
17.041753
30
0
210
0
220
0
230
1
1
\W0.7669;45,69
40
3.5
41
0
44
1.084337
50
0
71
7
72
5
7
iso_b_vert
0
LINE
5
143
100
AcDbEntity
8
SK2
62
256
6
ByLayer
370
13
48
1
60
0
100
AcDbLine
10
17.31
20
5.9875
30
0
11
17.31
21
18.009119
31
0
39
0
210
0
220
0
230
1
0
LINE
5
144
100
AcDbEntity
8
SK2
62
256
6
ByLayer
370
13
48
1
60
0
100
AcDbLine
10
63
20
1.5875
30
0
11
63
21
18.009119
31
0
39
0
210
0
220
0
230
1
0
LINE
5
145
100
AcDbEntity
8
SK2
62
256
6
ByLayer
370
13
48
1
60
0
100
AcDbLine
10
17.31
20
16.009119
30
0
11
63
21
16.009119
31
0
39
0
210
0
220
0
230
1
0
SOLID
5
146
100
AcDbEntity
8
SK2
62
256
6
ByLayer
370
18
48
1
60
0
100
AcDbTrace
10
17.31
20
16.009119
30
0
11
20.809998
21
16.469903
31
0
12
20.810002
22
15.548335
32
0
13
20.810002
23
15.548335
33
0
39
0
210
0
220
0
230
1
0
SOLID
5
147
100
AcDbEntity
8
SK2
62
256
6
ByLayer
370
18
48
1
60
0
100
AcDbTrace
10
63
20
16.009119
30
0
11
59.500002
21
15.548335
31
0
12
59.499998
22
16.469903
32
0
13
59.499998
23
16.469903
33
0
39
0
210
0
220
0
230
1
0
ENDBLK
5
149
100
AcDbEntity
8
0
100
AcDbBlockEnd
0
BLOCK
5
14E
100
AcDbEntity
8
0
100
AcDbBlockBegin
2
*D7
70
1
10
0
20
0
30
0
3
*D7
0
LINE
5
150
100
AcDbEntity
8
0
62
256
6
ByLayer
370
-2
48
1
60
0
100
AcDbLine
10
63
20
-1.5875
30
0
11
63
21
-19.202503
31
0
39
0
210
0
220
0
230
1
0
LINE
5
151
100
AcDbEntity
8
0
62
256
6
ByLayer
370
-2
48
1
60
0
100
AcDbLine
10
61.3105
20
-5.9875
30
0
11
61.3105
21
-19.202503
31
0
39
0
210
0
220
0
230
1
0
LINE
5
152
100
AcDbEntity
8
0
62
256
6
ByLayer
370
-2
48
1
60
0
100
AcDbLine
10
63
20
-17.202503
30
0
11
90.5
21
-17.202503
31
0
39
0
210
0
220
0
230
1
0
LINE
5
153
100
AcDbEntity
8
0
62
256
6
ByLayer
370
-2
48
1
60
0
100
AcDbLine
10
66.5
20
-17.202503
30
0
11
70
21
-17.202503
31
0
39
0
210
0
220
0
230
1
0
LINE
5
154
100
AcDbEntity
8
0
62
256
6
ByLayer
370
-2
48
1
60
0
100
AcDbLine
10
57.8105
20
-17.202503
30
0
11
54.3105
21
-17.202503
31
0
39
0
210
0
220
0
230
1
0
SOLID
5
155
100
AcDbEntity
8
0
62
256
6
ByLayer
370
-1
48
1
60
0
100
AcDbTrace
10
66.5
20
-16.61917
30
0
11
66.5
21
-17.785837
31
0
12
63
22
-17.202503
32
0
13
63
23
-17.202503
33
0
39
0
210
0
220
0
230
1
0
SOLID
5
156
100
AcDbEntity
8
0
62
256
6
ByLayer
370
-1
48
1
60
0
100
AcDbTrace
10
57.8105
20
-17.785837
30
0
11
57.8105
21
-16.61917
31
0
12
61.3105
22
-17.202503
32
0
13
61.3105
23
-17.202503
33
0
39
0
210
0
220
0
230
1
0
MTEXT
5
157
100
AcDbEntity
8
0
62
256
6
ByLayer
370
18
48
1
60
0
100
AcDbMText
10
80.25
20
-10.202503
30
0
210
0
220
0
230
1
1
\A1;1.69
40
3.5
41
0
44
1
50
0
71
5
72
5
7
iso_b_vert
0
POINT
5
158
100
AcDbEntity
8
Defpoints
62
0
6
ByLayer
370
-1
48
1
60
0
100
AcDbPoint
10
63
20
0
30
0
39
0
210
0
220
0
230
1
50
360
0
POINT
5
159
100
AcDbEntity
8
Defpoints
62
0
6
ByLayer
370
-1
48
1
60
0
100
AcDbPoint
10
61.3105
20
-4.4
30
0
39
0
210
0
220
0
230
1
50
360
0
POINT
5
15A
100
AcDbEntity
8
Defpoints
62
0
6
ByLayer
370
-1
48
1
60
0
100
AcDbPoint
10
61.3105
20
-17.202503
30
0
39
0
210
0
220
0
230
1
50
360
0
ENDBLK
5
14F
100
AcDbEntity
8
0
100
AcDbBlockEnd
0
BLOCK
5
162
100
AcDbEntity
8
0
100
AcDbBlockBegin
2
_U3
70
0
10
0
20
0
30
0
3
_U3
0
MTEXT
5
15C
100
AcDbEntity
8
SK2
62
256
6
ByLayer
370
13
48
1
60
0
100
AcDbMText
10
69.589293
20
-16.16987
30
0
210
0
220
0
230
1
1
\W0.6463;1,69
40
3.5
41
0
44
1.084337
50
0
71
7
72
5
7
iso_b_vert
0
LINE
5
15D
100
AcDbEntity
8
SK2
62
256
6
ByLayer
370
13
48
1
60
0
100
AcDbLine
10
63
20
-1.5875
30
0
11
63
21
-19.202503
31
0
39
0
210
0
220
0
230
1
0
LINE
5
15E
100
AcDbEntity
8
SK2
62
256
6
ByLayer
370
13
48
1
60
0
100
AcDbLine
10
61.3105
20
-5.9875
30
0
11
61.3105
21
-19.202503
31
0
39
0
210
0
220
0
230
1
0
LINE
5
15F
100
AcDbEntity
8
SK2
62
256
6
ByLayer
370
13
48
1
60
0
100
AcDbLine
10
52.5605
20
-17.202503
30
0
11
76.559058
21
-17.202503
31
0
39
0
210
0
220
0
230
1
0
SOLID
5
160
100
AcDbEntity
8
SK2
62
256
6
ByLayer
370
18
48
1
60
0
100
AcDbTrace
10
63
20
-17.202503
30
0
11
66.499998
21
-16.741719
31
0
12
66.500002
22
-17.663287
32
0
13
66.500002
23
-17.663287
33
0
39
0
210
0
220
0
230
1
0
SOLID
5
161
100
AcDbEntity
8
SK2
62
256
6
ByLayer
370
18
48
1
60
0
100
AcDbTrace
10
61.3105
20
-17.202503
30
0
11
57.810502
21
-17.663287
31
0
12
57.810498
22
-16.741719
32
0
13
57.810498
23
-16.741719
33
0
39
0
210
0
220
0
230
1
0
ENDBLK
5
163
100
AcDbEntity
8
0
100
AcDbBlockEnd
0
BLOCK
5
168
100
AcDbEntity
8
0
100
AcDbBlockBegin
2
*D9
70
1
10
0
20
0
30
0
3
*D9
0
LINE
5
16A
100
AcDbEntity
8
0
62
256
6
ByLayer
370
-2
48
1
60
0
100
AcDbLine
10
-40
20
-6.5875
30
0
11
-40
21
-25.343428
31
0
39
0
210
0
220
0
230
1
0
LINE
5
16B
100
AcDbEntity
8
0
62
256
6
ByLayer
370
-2
48
1
60
0
100
AcDbLine
10
61.3105
20
-5.9875
30
0
11
61.3105
21
-25.343428
31
0
39
0
210
0
220
0
230
1
0
LINE
5
16C
100
AcDbEntity
8
0
62
256
6
ByLayer
370
-2
48
1
60
0
100
AcDbLine
10
-36.5
20
-23.343428
30
0
11
57.8105
21
-23.343428
31
0
39
0
210
0
220
0
230
1
0
SOLID
5
16D
100
AcDbEntity
8
0
62
256
6
ByLayer
370
-1
48
1
60
0
100
AcDbTrace
10
-36.5
20
-22.760095
30
0
11
-36.5
21
-23.926762
31
0
12
-40
22
-23.343428
32
0
13
-40
23
-23.343428
33
0
39
0
210
0
220
0
230
1
0
SOLID
5
16E
100
AcDbEntity
8
0
62
256
6
ByLayer
370
-1
48
1
60
0
100
AcDbTrace
10
57.8105
20
-23.926762
30
0
11
57.8105
21
-22.760095
31
0
12
61.3105
22
-23.343428
32
0
13
61.3105
23
-23.343428
33
0
39
0
210
0
220
0
230
1
0
MTEXT
5
16F
100
AcDbEntity
8
0
62
256
6
ByLayer
370
18
48
1
60
0
100
AcDbMText
10
10.65525
20
-16.343428
30
0
210
0
220
0
230
1
1
\A1;101.31
40
3.5
41
0
44
1
50
0
71
5
72
5
7
iso_b_vert
0
POINT
5
170
100
AcDbEntity
8
Defpoints
62
0
6
ByLayer
370
-1
48
1
60
0
100
AcDbPoint
10
-40
20
-5
30
0
39
0
210
0
220
0
230
1
50
360
0
POINT
5
171
100
AcDbEntity
8
Defpoints
62
0
6
ByLayer
370
-1
48
1
60
0
100
AcDbPoint
10
61.3105
20
-4.4
30
0
39
0
210
0
220
0
230
1
50
360
0
POINT
5
172
100
AcDbEntity
8
Defpoints
62
0
6
ByLayer
370
-1
48
1
60
0
100
AcDbPoint
10
61.3105
20
-23.343428
30
0
39
0
210
0
220
0
230
1
50
360
0
ENDBLK
5
169
100
AcDbEntity
8
0
100
AcDbBlockEnd
0
BLOCK
5
17A
100
AcDbEntity
8
0
100
AcDbBlockBegin
2
_U4
70
0
10
0
20
0
30
0
3
_U4
0
MTEXT
5
174
100
AcDbEntity
8
SK2
62
256
6
ByLayer
370
13
48
1
60
0
100
AcDbMText
10
5.522518
20
-22.310795
30
0
210
0
220
0
230
1
1
\W0.6303;101,31
40
3.5
41
0
44
1.084337
50
0
71
7
72
5
7
iso_b_vert
0
LINE
5
175
100
AcDbEntity
8
SK2
62
256
6
ByLayer
370
13
48
1
60
0
100
AcDbLine
10
-40
20
-6.5875
30
0
11
-40
21
-25.343428
31
0
39
0
210
0
220
0
230
1
0
LINE
5
176
100
AcDbEntity
8
SK2
62
256
6
ByLayer
370
13
48
1
60
0
100
AcDbLine
10
61.3105
20
-5.9875
30
0
11
61.3105
21
-25.343428
31
0
39
0
210
0
220
0
230
1
0
LINE
5
177
100
AcDbEntity
8
SK2
62
256
6
ByLayer
370
13
48
1
60
0
100
AcDbLine
10
-40
20
-23.343428
30
0
11
61.3105
21
-23.343428
31
0
39
0
210
0
220
0
230
1
0
SOLID
5
178
100
AcDbEntity
8
SK2
62
256
6
ByLayer
370
18
48
1
60
0
100
AcDbTrace
10
-40
20
-23.343428
30
0
11
-36.500002
21
-22.882645
31
0
12
-36.499998
22
-23.804212
32
0
13
-36.499998
23
-23.804212
33
0
39
0
210
0
220
0
230
1
0
SOLID
5
179
100
AcDbEntity
8
SK2
62
256
6
ByLayer
370
18
48
1
60
0
100
AcDbTrace
10
61.3105
20
-23.343428
30
0
11
57.810502
21
-23.804212
31
0
12
57.810498
22
-22.882645
32
0
13
57.810498
23
-22.882645
33
0
39
0
210
0
220
0
230
1
0
ENDBLK
5
17B
100
AcDbEntity
8
0
100
AcDbBlockEnd
0
ENDSEC
0
SECTION
2
ENTITIES
0
ARC
5
A5
100
AcDbEntity
8
1
62
256
6
ByLayer
370
18
48
1
60
0
100
AcDbCircle
39
0
10
0
20
-4.15
30
0
40
0.849999999999997
210
0
220
0
230
1
100
AcDbArc
50
270
51
324.295549
0
ARC
5
A6
100
AcDbEntity
8
1
62
256
6
ByLayer
370
18
48
1
60
0
100
AcDbCircle
39
0
10
1.380465
20
5.142127
30
0
40
0.850000000000003
210
0
220
0
230
1
100
AcDbArc
50
215.704451
51
270.103132
0
ARC
5
A7
100
AcDbEntity
8
1
62
256
6
ByLayer
370
18
48
1
60
0
100
AcDbCircle
39
0
10
1.380465
20
-5.142127
30
0
40
0.850000000000003
210
0
220
0
230
1
100
AcDbArc
50
89.896868
51
144.295549
0
ARC
5
A8
100
AcDbEntity
8
1
62
256
6
ByLayer
370
18
48
1
60
0
100
AcDbCircle
39
0
10
0
20
4.15
30
0
40
0.849999999999997
210
0
220
0
230
1
100
AcDbArc
50
35.704451
51
90
0
ELLIPSE
5
A9
100
AcDbEntity
8
1
62
256
6
ByLayer
370
13
48
1
60
0
100
AcDbEllipse
10
5.640247
20
-3.998571
30
0
11
0.0691262044079425
21
0.291927333191244
31
0
210
0
220
0
230
1
40
0.409337
41
0.519622686598048
42
1.39610146151559
0
ELLIPSE
5
AA
100
AcDbEntity
8
1
62
256
6
ByLayer
370
13
48
1
60
0
100
AcDbEllipse
10
14.942317
20
5.935328
30
0
11
-63.3809535909635
21
38.6675457417427
31
0
210
0
220
0
230
1
40
0.05183
41
1.53488072777149
42
1.60240609326023
0
ELLIPSE
5
AB
100
AcDbEntity
8
1
62
256
6
ByLayer
370
13
48
1
60
0
100
AcDbEllipse
10
107.194174
20
42.140273
30
0
11
-60.7999999999999
21
7.44560663124004E-15
31
0
210
0
220
0
230
1
40
0.99863
41
0.733074439608986
42
0.752039139494548
0
ELLIPSE
5
AC
100
AcDbEntity
8
1
62
256
6
ByLayer
370
13
48
1
60
0
100
AcDbEllipse
10
13.314148
20
3.266555
30
0
11
-63.3809535909635
21
38.6675457417427
31
0
210
0
220
0
230
1
40
0.05183
41
1.47180445833213
42
1.60240609326023
0
POINT
5
70
100
AcDbEntity
8
80
62
256
6
ByLayer
370
18
48
1
60
0
100
AcDbPoint
10
0
20
0
30
0
39
0
210
0
220
0
230
1
50
360
0
POINT
5
72
100
AcDbEntity
8
81
62
256
6
ByLayer
370
18
48
1
60
0
100
AcDbPoint
10
63
20
0
30
0
39
0
210
0
220
0
230
1
50
360
0
POINT
5
74
100
AcDbEntity
8
1
62
256
6
ByLayer
370
18
48
1
60
1
100
AcDbPoint
10
61.3105
20
-4.4
30
0
39
0
210
0
220
0
230
1
50
360
0
POINT
5
76
100
AcDbEntity
8
1
62
256
6
ByLayer
370
18
48
1
60
1
100
AcDbPoint
10
-40
20
-5
30
0
39
0
210
0
220
0
230
1
50
360
0
POINT
5
77
100
AcDbEntity
8
1
62
256
6
ByLayer
370
18
48
1
60
1
100
AcDbPoint
10
17.31
20
4.4
30
0
39
0
210
0
220
0
230
1
50
360
0
POINT
5
78
100
AcDbEntity
8
1
62
256
6
ByLayer
370
18
48
1
60
1
100
AcDbPoint
10
61.3105
20
-4.4
30
0
39
0
210
0
220
0
230
1
50
360
0
POINT
5
79
100
AcDbEntity
8
1
62
256
6
ByLayer
370
18
48
1
60
1
100
AcDbPoint
10
-40
20
-5
30
0
39
0
210
0
220
0
230
1
50
360
0
POINT
5
7A
100
AcDbEntity
8
1
62
256
6
ByLayer
370
18
48
1
60
1
100
AcDbPoint
10
61.3105
20
-4.4
30
0
39
0
210
0
220
0
230
1
50
360
0
SPLINE
5
AD
100
AcDbEntity
8
1
62
256
6
ByLayer
370
13
48
1
60
0
100
AcDbSpline
70
4
71
3
72
87
73
83
40
0
40
0
40
0
40
0
40
0.0073923244456045
40
0.0161387446185123
40
0.0336315849643241
40
0.0423780051372289
40
0.0511244253101352
40
0.0686172656559475
40
0.0773636858288529
40
0.0861101060017598
40
0.103602946347571
40
0.112349366520477
40
0.121095786693382
40
0.138588627039194
40
0.1473350472121
40
0.156081467385005
40
0.173574307730818
40
0.182320727903723
40
0.191067148076629
40
0.208559988422441
40
0.226052828768252
40
0.243545669114063
40
0.274158139719235
40
0.278531349805688
40
0.287277769978595
40
0.296024190151499
40
0.313517030497311
40
0.322263450670217
40
0.331009870843123
40
0.348502711188934
40
0.365995551534746
40
0.383488391880559
40
0.414100862485728
40
0.418474072572181
40
0.427220492745087
40
0.435966912917993
40
0.453459753263804
40
0.462206173436711
40
0.470952593609616
40
0.488445433955428
40
0.497191854128334
40
0.505938274301239
40
0.523431114647051
40
0.532177534819957
40
0.540923954992863
40
0.558416795338675
40
0.56716321551158
40
0.575909635684486
40
0.593402476030298
40
0.602148896203204
40
0.61089531637611
40
0.628388156721921
40
0.637134576894828
40
0.645880997067733
40
0.663373837413545
40
0.672120257586451
40
0.680866677759356
40
0.698359518105168
40
0.707105938278073
40
0.715852358450979
40
0.733345198796791
40
0.742091618969697
40
0.750838039142603
40
0.768330879488415
40
0.77707729966132
40
0.785823719834226
40
0.803316560180038
40
0.812062980352944
40
0.82080940052585
40
0.838302240871662
40
0.855795081217473
40
0.873287921563285
40
0.903900392168456
40
0.908273602254908
40
0.917020022427814
40
0.92576644260072
40
0.943259282946532
40
0.952005703119437
40
0.960752123292344
40
0.978244963638155
40
0.995737803983967
40
1
40
1
40
1
40
1
41
1
10
52.7902829267839
20
-1.81662203019505
30
0
41
1
10
52.7468108612388
20
-1.82151167783508
30
0
41
1
10
52.6519030340593
20
-1.83203762538395
30
0
41
1
10
52.4541513039429
20
-1.85324569302702
30
0
41
1
10
52.2484211748242
20
-1.87415361304829
30
0
41
1
10
52.0426768368829
20
-1.89389802096625
30
0
41
1
10
51.8369631397471
20
-1.91278697021804
30
0
41
1
10
51.6312332831431
20
-1.93049153199763
30
0
41
1
10
51.4254893260822
20
-1.94700396696331
30
0
41
1
10
51.2197759432653
20
-1.96262792210732
30
0
41
1
10
51.0140463043053
20
-1.97704077133062
30
0
41
1
10
50.8083023960353
20
-1.990236647036
30
0
41
1
10
50.6025889154087
20
-2.0025139693517
30
0
41
1
10
50.3968589559768
20
-2.01355719585789
30
0
41
1
10
50.1911145827385
20
-2.02336225300246
30
0
41
1
10
49.9854006913757
20
-2.03222320862756
30
0
41
1
10
49.7796704116959
20
-2.03983539993746
30
0
41
1
10
49.573926049583
20
-2.04620112932372
30
0
41
1
10
49.3682126889149
20
-2.05160502910684
30
0
41
1
10
49.1110723912951
20
-2.05673106292082
30
0
41
1
10
48.8024827623726
20
-2.06034755605316
30
0
41
1
10
48.4167858728343
20
-2.06143673032381
30
0
41
1
10
48.1081520339028
20
-2.0589481104108
30
0
41
1
10
47.8509399761676
20
-2.05478029846785
30
0
41
1
10
47.7223645268502
20
-2.05218034886803
30
0
41
1
10
47.5166503280154
20
-2.04711430355167
30
0
41
1
10
47.3109202060708
20
-2.0408048238148
30
0
41
1
10
47.1051761946899
20
-2.03326654160557
30
0
41
1
10
46.8994630259941
20
-2.02473765903264
30
0
41
1
10
46.6423227526688
20
-2.01246613646614
30
0
41
1
10
46.333732989343
20
-1.99528560340531
30
0
41
1
10
45.9480359611857
20
-1.97044107565856
30
0
41
1
10
45.6394020459465
20
-1.94742423969439
30
0
41
1
10
45.382189980346
20
-1.92629494335716
30
0
41
1
10
45.2536145540436
20
-1.91521371193309
30
0
41
1
10
45.0479004790462
20
-1.89663138118829
30
0
41
1
10
44.8421706203836
20
-1.87691371913869
30
0
41
1
10
44.6364268375255
20
-1.85608559936136
30
0
41
1
10
44.4307135246944
20
-1.8343188956907
30
0
41
1
10
44.2249838743187
20
-1.81145953898149
30
0
41
1
10
44.0192399435967
20
-1.78753408688939
30
0
41
1
10
43.8135264804407
20
-1.76269539201994
30
0
41
1
10
43.6077966029686
20
-1.73681119074112
30
0
41
1
10
43.4020524127544
20
-1.70990996022769
30
0
41
1
10
43.1963387639308
20
-1.68212491495942
30
0
41
1
10
42.9906087823388
20
-1.65334602109269
30
0
41
1
10
42.7848645471248
20
-1.62360349619155
30
0
41
1
10
42.5791509062907
20
-1.59301087832401
30
0
41
1
10
42.3734210560044
20
-1.56148148090952
30
0
41
1
10
42.1676770621295
20
-1.52904833780286
30
0
41
1
10
41.9619635975176
20
-1.49580380543259
30
0
41
1
10
41.756233830992
20
-1.46168482618125
30
0
41
1
10
41.5504898128103
20
-1.42672615226599
30
0
41
1
10
41.34477628417
20
-1.3909987296833
30
0
41
1
10
41.139046372616
20
-1.35446333529794
30
0
41
1
10
40.9333021928966
20
-1.31715629886023
30
0
41
1
10
40.7275886001035
20
-1.27912698001367
30
0
41
1
10
40.5218587340559
20
-1.24036022140501
30
0
41
1
10
40.3161146334306
20
-1.20089381896687
30
0
41
1
10
40.1104010958796
20
-1.16075521326613
30
0
41
1
10
39.9046713073402
20
-1.11995344968915
30
0
41
1
10
39.698927315222
20
-1.07852771154799
30
0
41
1
10
39.4932138015873
20
-1.03648333613918
30
0
41
1
10
39.2874839168923
20
-0.99385357002808
30
0
41
1
10
39.0817397326095
20
-0.950678873960925
30
0
41
1
10
38.8760260136655
20
-0.906942523151116
30
0
41
1
10
38.6702958570998
20
-0.862701966665213
30
0
41
1
10
38.4645515403822
20
-0.817998972198922
30
0
41
1
10
38.2588382264145
20
-0.772794774904412
30
0
41
1
10
38.0016979437662
20
-0.715669811415864
30
0
41
1
10
37.6931081208628
20
-0.646330126041391
30
0
41
1
10
37.3074108400125
20
-0.558424092041093
30
0
41
1
10
36.9987767323853
20
-0.487424584852249
30
0
41
1
10
36.7415646904016
20
-0.427862492056391
30
0
41
1
10
36.6129892712881
20
-0.397860259104107
30
0
41
1
10
36.4072751061606
20
-0.349654630443297
30
0
41
1
10
36.2015449675295
20
-0.301289187351131
30
0
41
1
10
35.995800905694
20
-0.252807220255136
30
0
41
1
10
35.79008776418
20
-0.204084773702448
30
0
41
1
10
35.5329476119542
20
-0.143013636677239
30
0
41
1
10
35.3021581068178
20
-0.0881458652482081
30
0
41
1
10
35.1742400917982
20
-0.0576755010024215
30
0
41
1
10
35.1491787979993
20
-0.0517046473735263
30
0
0
SPLINE
5
AE
100
AcDbEntity
8
1
62
256
6
ByLayer
370
18
48
1
60
0
100
AcDbSpline
70
4
71
3
72
18
73
14
40
0
40
0
40
0
40
0
40
0.249999999999994
40
0.249999999999994
40
0.374999999999995
40
0.374999999999995
40
0.499999999999996
40
0.499999999999996
40
0.624999999999997
40
0.624999999999997
40
0.749999999999998
40
0.749999999999998
40
1
40
1
40
1
40
1
41
1
10
62.3190308255295
20
-1.05022175163609
30
0
41
1
10
62.3675119388075
20
-1.02206626753662
30
0
41
1
10
62.4197245302811
20
-0.973135055850065
30
0
41
1
10
62.5041735395702
20
-0.870187650935122
30
0
41
1
10
62.5332741619421
20
-0.830900101023246
30
0
41
1
10
62.5916765022359
20
-0.745136571008715
30
0
41
1
10
62.6212089550776
20
-0.698388967345295
30
0
41
1
10
62.6809347698493
20
-0.597431802023124
30
0
41
1
10
62.7113128428018
20
-0.542842062060117
30
0
41
1
10
62.7711612985595
20
-0.429135175386847
30
0
41
1
10
62.8007687964921
20
-0.369822720779666
30
0
41
1
10
62.8886113354433
20
-0.184907169450781
30
0
41
1
10
62.9461952397691
20
-0.0513789801855467
30
0
41
1
10
62.9997682343742
20
0.0852143207793858
30
0
0
SPLINE
5
AF
100
AcDbEntity
8
1
62
256
6
ByLayer
370
18
48
1
60
0
100
AcDbSpline
70
4
71
3
72
8
73
4
40
0
40
0
40
0
40
0
40
1
40
1
40
1
40
1
41
1
10
61.3776413447022
20
-4.25622378465408
30
0
41
1
10
61.3835179040197
20
-4.23002426993932
30
0
41
1
10
61.3880550196947
20
-4.20513911054132
30
0
41
1
10
61.3910592579044
20
-4.18300126176274
30
0
0
SPLINE
5
B0
100
AcDbEntity
8
1
62
256
6
ByLayer
370
13
48
1
60
0
100
AcDbSpline
70
4
71
3
72
87
73
83
40
0
40
0
40
0
40
0
40
0.016183205981564
40
0.0336406255991689
40
0.0510980452167767
40
0.0816485295475838
40
0.0860128844519856
40
0.0947415942607887
40
0.103470304069591
40
0.120927723687196
40
0.129656433496
40
0.138385143304801
40
0.155842562922407
40
0.16457127273121
40
0.173299982540012
40
0.190757402157618
40
0.19948611196642
40
0.208214821775223
40
0.225672241392829
40
0.234400951201631
40
0.243129661010434
40
0.260587080628039
40
0.269315790436842
40
0.278044500245645
40
0.29550191986325
40
0.304230629672053
40
0.312959339480855
40
0.330416759098461
40
0.339145468907263
40
0.347874178716066
40
0.365331598333671
40
0.374060308142473
40
0.382789017951277
40
0.400246437568882
40
0.408975147377685
40
0.417703857186487
40
0.435161276804093
40
0.443889986612895
40
0.452618696421698
40
0.470076116039303
40
0.478804825848106
40
0.487533535656909
40
0.504990955274514
40
0.522448374892119
40
0.539905794509725
40
0.570456278840534
40
0.574820633744936
40
0.583549343553738
40
0.592278053362541
40
0.609735472980147
40
0.618464182788949
40
0.627192892597752
40
0.644650312215357
40
0.662107731832962
40
0.679565151450568
40
0.710115635781377
40
0.714479990685779
40
0.723208700494581
40
0.731937410303384
40
0.749394829920989
40
0.758123539729792
40
0.766852249538595
40
0.7843096691562
40
0.793038378965003
40
0.801767088773807
40
0.819224508391411
40
0.827953218200214
40
0.836681928009016
40
0.854139347626621
40
0.862868057435423
40
0.871596767244227
40
0.889054186861832
40
0.897782896670634
40
0.906511606479437
40
0.923969026097043
40
0.932697735905845
40
0.941426445714648
40
0.958883865332253
40
0.967612575141055
40
0.97634128494986
40
0.993798704567464
40
1
40
1
40
1
40
1
41
1
10
48.5564852690306
20
0.0528208516318783
30
0
41
1
10
48.4611211621
20
0.0754882313105154
30
0
41
1
10
48.262884226346
20
0.122589047492965
30
0
41
1
10
47.9617946508244
20
0.194081814803979
30
0
41
1
10
47.5760072812166
20
0.28516228642988
30
0
41
1
10
47.2674537166213
20
0.357865257813159
30
0
41
1
10
47.0103428908501
20
0.418137787928969
30
0
41
1
10
46.8817568559861
20
0.448059447340312
30
0
41
1
10
46.6760125899038
20
0.495704298332412
30
0
41
1
10
46.4702841156199
20
0.543115038446074
30
0
41
1
10
46.2645695726045
20
0.590251184637223
30
0
41
1
10
46.0588245441108
20
0.636983853223567
30
0
41
1
10
45.8530958614363
20
0.683393626260253
30
0
41
1
10
45.6473814663368
20
0.729440956911388
30
0
41
1
10
45.4416365882171
20
0.775021721242266
30
0
41
1
10
45.2359081327128
20
0.820193666466563
30
0
41
1
10
45.0301939971779
20
0.864918305651256
30
0
41
1
10
44.824449304763
20
0.909116287765014
30
0
41
1
10
44.6187209533879
20
0.952822488990049
30
0
41
1
10
44.4130068628681
20
0.99599947274879
30
0
41
1
10
44.207262162474
20
1.03859244434446
30
0
41
1
10
44.0015336797704
20
1.08061278839565
30
0
41
1
10
43.7958193478495
20
1.1220232782816
30
0
41
1
10
43.5900744711998
20
1.16279466200131
30
0
41
1
10
43.3843459047325
20
1.2029148834296
30
0
41
1
10
43.1786315971332
20
1.24234808867731
30
0
41
1
10
42.9728867845297
20
1.28109062955334
30
0
41
1
10
42.7671583631326
20
1.31910710186122
30
0
41
1
10
42.5614442171275
20
1.35636306067164
30
0
41
1
10
42.3556994686967
20
1.39288044024016
30
0
41
1
10
42.1499710017759
20
1.42860069015955
30
0
41
1
10
41.9442567766596
20
1.46349078822569
30
0
41
1
10
41.7385119729845
20
1.49759806513165
30
0
41
1
10
41.5327834285415
20
1.53084116632311
30
0
41
1
10
41.3270690948696
20
1.56318876533606
30
0
41
1
10
41.1213242672555
20
1.59471321692828
30
0
41
1
10
40.915595818985
20
1.62531059980111
30
0
41
1
10
40.7098816775322
20
1.65495122406844
30
0
41
1
10
40.5041370552834
20
1.6837323210006
30
0
41
1
10
40.2984088789611
20
1.71152774330482
30
0
41
1
10
40.0926948699507
20
1.73830961787953
30
0
41
1
10
39.8869498425348
20
1.76419970366683
30
0
41
1
10
39.629767197954
20
1.79516712795003
30
0
41
1
10
39.3211695192118
20
1.8301591709885
30
0
41
1
10
38.9353824024135
20
1.87078467972287
30
0
41
1
10
38.6268290303018
20
1.90036434072985
30
0
41
1
10
38.3697181808981
20
1.92307139008929
30
0
41
1
10
38.241132138836
20
1.93390865164838
30
0
41
1
10
38.0353879629035
20
1.9503962606528
30
0
41
1
10
37.8296597686715
20
1.96571830737647
30
0
41
1
10
37.623945504689
20
1.97985632306992
30
0
41
1
10
37.4182003047598
20
1.99302176224094
30
0
41
1
10
37.1610175297093
20
2.00789980238639
30
0
41
1
10
36.8524197637369
20
2.02329581176331
30
0
41
1
10
36.4666325553315
20
2.03915923473149
30
0
41
1
10
36.1580791476762
20
2.04857280047272
30
0
41
1
10
35.9009683015046
20
2.05430790530002
30
0
41
1
10
35.7723822423868
20
2.05665869223855
30
0
41
1
10
35.5666379609246
20
2.05952563623864
30
0
41
1
10
35.360909543539
20
2.06114223980688
30
0
41
1
10
35.1551950404238
20
2.06150056658151
30
0
41
1
10
34.949449819014
20
2.06088465384425
30
0
41
1
10
34.7437206491713
20
2.05901097861561
30
0
41
1
10
34.5380056630619
20
2.05587285848071
30
0
41
1
10
34.332260382094
20
2.05177133195581
30
0
41
1
10
34.126531778154
20
2.04641289322185
30
0
41
1
10
33.9208178293925
20
2.03979732706591
30
0
41
1
10
33.715073527121
20
2.03223707857483
30
0
41
1
10
33.5093457847406
20
2.02342868349774
30
0
41
1
10
33.3036321580248
20
2.01337246881593
30
0
41
1
10
33.0978875954215
20
2.00239276353329
30
0
41
1
10
32.8921588784852
20
1.99017753297525
30
0
41
1
10
32.6864441669605
20
1.97672960699202
30
0
41
1
10
32.480698985508
20
1.96238312482958
30
0
41
1
10
32.2749702242228
20
1.9468181136803
30
0
41
1
10
32.069255894748
20
1.93003884534607
30
0
41
1
10
31.8635111489492
20
1.91239051182287
30
0
41
1
10
31.6577828927165
20
1.89354936159222
30
0
41
1
10
31.4520689478027
20
1.87352628449036
30
0
41
1
10
31.2463244119956
20
1.85267144217931
30
0
41
1
10
31.0554883894986
20
1.83225158541364
30
0
41
1
10
30.916093083459
20
1.81663334089896
30
0
41
1
10
30.879554331225
20
1.81249011149563
30
0
0
SPLINE
5
B1
100
AcDbEntity
8
1
62
256
6
ByLayer
370
18
48
1
60
0
100
AcDbSpline
70
4
71
3
72
26
73
22
40
0
40
0
40
0
40
0
40
0.25
40
0.25
40
0.374999999999998
40
0.374999999999998
40
0.499999999999997
40
0.499999999999997
40
0.562499999999997
40
0.562499999999997
40
0.624999999999998
40
0.624999999999998
40
0.749999999999998
40
0.749999999999998
40
0.812499999999999
40
0.812499999999999
40
0.874999999999999
40
0.874999999999999
40
0.9375
40
0.9375
40
1
40
1
40
1
40
1
41
1
10
12.579891678341
20
-2.33472221732797
30
0
41
1
10
11.9487124163473
20
-2.09928185859405
30
0
41
1
10
11.3244961096445
20
-1.84254161658148
30
0
41
1
10
10.3995451719423
20
-1.42251285397461
30
0
41
1
10
10.093247385526
20
-1.27621647702028
30
0
41
1
10
9.48520959598295
20
-0.969187967414769
30
0
41
1
10
9.18332966754409
20
-0.808982000843372
30
0
41
1
10
8.73441798450477
20
-0.556075706930386
30
0
41
1
10
8.58543987417517
20
-0.46964505486622
30
0
41
1
10
8.28898244943144
20
-0.291862093838688
30
0
41
1
10
8.14124585424022
20
-0.200278041312316
30
0
41
1
10
7.70255382871841
20
0.0807551091064056
30
0
41
1
10
7.41630365728551
20
0.275770638563983
30
0
41
1
10
6.99994957715154
20
0.584208249304083
30
0
41
1
10
6.86333277161413
20
0.689670331182498
30
0
41
1
10
6.59527574186683
20
0.906897356520403
30
0
41
1
10
6.46381270813819
20
1.01872325642603
30
0
41
1
10
6.21084213764919
20
1.246767816366
30
0
41
1
10
6.0888955623858
20
1.36331695246105
30
0
41
1
10
5.85616245239936
20
1.60251991276394
30
0
41
1
10
5.74519436447167
20
1.72534229029159
30
0
41
1
10
5.64178271223574
20
1.85168197333678
30
0
0
SPLINE
5
B2
100
AcDbEntity
8
1
62
256
6
ByLayer
370
13
48
1
60
0
100
AcDbSpline
70
4
71
3
72
10
73
6
40
0
40
0
40
0
40
0
40
0.5
40
0.5
40
1
40
1
40
1
40
1
41
1
10
5.17933812776869
20
-3.75754081749261
30
0
41
1
10
5.25151928959204
20
-3.73637777011908
30
0
41
1
10
5.32773129743632
20
-3.72359423969252
30
0
41
1
10
5.48203264852003
20
-3.71485905015319
30
0
41
1
10
5.56074804540276
20
-3.71867218847976
30
0
41
1
10
5.64091277208206
20
-3.73112592499436
30
0
0
SPLINE
5
B3
100
AcDbEntity
8
1
62
256
6
ByLayer
370
18
48
1
60
0
100
AcDbSpline
70
4
71
3
72
14
73
10
40
0
40
0
40
0
40
0
40
0.294379919219251
40
0.294379919219251
40
0.588759838438502
40
0.588759838438502
40
0.883139757657753
40
0.883139757657753
40
1
40
1
40
1
40
1
41
1
10
5.53458388675813
20
-3.91996672977246
30
0
41
1
10
6.1189144031772
20
-4.04013361728005
30
0
41
1
10
6.70259487671095
20
-4.13350295103436
30
0
41
1
10
7.86922084987705
20
-4.26269455996061
30
0
41
1
10
8.45389316528906
20
-4.29862625603474
30
0
41
1
10
9.61911268274483
20
-4.31165545736187
30
0
41
1
10
10.2006301534316
20
-4.28889636466488
30
0
41
1
10
11.0146276345299
20
-4.21663482986011
30
0
41
1
10
11.2463430507876
20
-4.19151809863044
30
0
41
1
10
11.4780493713105
20
-4.16192207393169
30
0
0
SPLINE
5
B4
100
AcDbEntity
8
1
62
256
6
ByLayer
370
18
48
1
60
0
100
AcDbSpline
70
4
71
3
72
50
73
46
40
0
40
0
40
0
40
0
40
0.0232327488221975
40
0.0232327488221975
40
0.0581172935071187
40
0.0581172935071187
40
0.0930018381920399
40
0.0930018381920399
40
0.162770927561883
40
0.162770927561883
40
0.232540016931726
40
0.232540016931726
40
0.267424561616648
40
0.267424561616648
40
0.30230910630157
40
0.30230910630157
40
0.372078195671413
40
0.372078195671413
40
0.406962740356335
40
0.406962740356335
40
0.441847285041257
40
0.441847285041257
40
0.5116163744111
40
0.5116163744111
40
0.581385463780943
40
0.581385463780943
40
0.651154553150787
40
0.651154553150787
40
0.686039097835708
40
0.686039097835708
40
0.72092364252063
40
0.72092364252063
40
0.790692731890473
40
0.790692731890473
40
0.825577276575394
40
0.825577276575394
40
0.860461821260315
40
0.860461821260315
40
0.895346365945236
40
0.895346365945236
40
0.930230910630158
40
0.930230910630158
40
0.965115455315079
40
0.965115455315079
40
1
40
1
40
1
40
1
41
1
10
36.3964987384468
20
4.35514911859795
30
0
41
1
10
36.5900399133361
20
4.35552680678347
30
0
41
1
10
36.7836865834824
20
4.35264107110316
30
0
41
1
10
37.2685935758216
20
4.33722163515151
30
0
41
1
10
37.5601315105074
20
4.32055825924641
30
0
41
1
10
38.1417069395079
20
4.27272636454572
30
0
41
1
10
38.4321207735405
20
4.2415527495595
30
0
41
1
10
39.3032399069547
20
4.1267783510265
30
0
41
1
10
39.8836545537301
20
4.02181345481642
30
0
41
1
10
41.0488287523211
20
3.75796085936537
30
0
41
1
10
41.6293594651237
20
3.59988732257017
30
0
41
1
10
42.5002348171785
20
3.32810358851239
30
0
41
1
10
42.790556558703
20
3.23171035076112
30
0
41
1
10
43.3717692031345
20
3.0279264631308
30
0
41
1
10
43.66304577967
20
2.92042612822715
30
0
41
1
10
44.5358738421975
20
2.58407737772174
30
0
41
1
10
45.1158747509918
20
2.34137661410287
30
0
41
1
10
45.9866134457658
20
1.95561595097632
30
0
41
1
10
46.276997241989
20
1.82343952676035
30
0
41
1
10
46.8585718422754
20
1.55281554388688
30
0
41
1
10
47.1498773230849
20
1.41432566302416
30
0
41
1
10
48.0216394893995
20
0.993352108992013
30
0
41
1
10
48.601348503036
20
0.704672557872271
30
0
41
1
10
49.7624696915344
20
0.12031164628479
30
0
41
1
10
50.345156362094
20
-0.175861171388902
30
0
41
1
10
51.5064132436991
20
-0.760202617808659
30
0
41
1
10
52.0859469505035
20
-1.04884690283694
30
0
41
1
10
52.9570208839892
20
-1.46984423785375
30
0
41
1
10
53.2480353806683
20
-1.60833147770603
30
0
41
1
10
53.8294309364378
20
-1.87912013272512
30
0
41
1
10
54.1196597955096
20
-2.01137280153458
30
0
41
1
10
54.9898040935842
20
-2.39723142937984
30
0
41
1
10
55.5692377586988
20
-2.63982710302653
30
0
41
1
10
56.4409112471996
20
-2.97589177696662
30
0
41
1
10
56.7319903690516
20
-3.08331652794627
30
0
41
1
10
57.3129065025517
20
-3.28706409555423
30
0
41
1
10
57.603077365629
20
-3.38350138159762
30
0
41
1
10
58.1834750353107
20
-3.5647115659097
30
0
41
1
10
58.4737259398756
20
-3.64945842189223
30
0
41
1
10
59.0548428595514
20
-3.80661441436115
30
0
41
1
10
59.3458345734154
20
-3.87902887517899
30
0
41
1
10
59.926698822704
20
-4.0102513357306
30
0
41
1
10
60.2168566756067
20
-4.0691517665214
30
0
41
1
10
60.7971355666664
20
-4.17315062834047
30
0
41
1
10
61.0870090761243
20
-4.21837240711935
30
0
41
1
10
61.3776413447065
20
-4.25622378464143
30
0
0
SPLINE
5
B5
100
AcDbEntity
8
1
62
256
6
ByLayer
370
18
48
1
60
0
100
AcDbSpline
70
4
71
3
72
8
73
4
40
0
40
0
40
0
40
0
40
1
40
1
40
1
40
1
41
1
10
60.9684463132149
20
0.439645763340508
30
0
41
1
10
61.18781594207
20
0.338298156787602
30
0
41
1
10
61.4088967931457
20
0.245459053163245
30
0
41
1
10
61.6318751093313
20
0.162054485420498
30
0
0
SPLINE
5
B6
100
AcDbEntity
8
1
62
256
6
ByLayer
370
18
48
1
60
0
100
AcDbSpline
70
4
71
3
72
8
73
4
40
0
40
0
40
0
40
0
40
1
40
1
40
1
40
1
41
1
10
62.2404357615147
20
2.06109634220112
30
0
41
1
10
62.2053919409725
20
2.19118051433986
30
0
41
1
10
62.184983262234
20
2.32162623696547
30
0
41
1
10
62.1733304649874
20
2.45228826883349
30
0
0
SPLINE
5
B7
100
AcDbEntity
8
1
62
256
6
ByLayer
370
18
48
1
60
0
100
AcDbSpline
70
4
71
3
72
23
73
19
40
0
40
0
40
0
40
0
40
0.0762441352686838
40
0.0762441352686838
40
0.178883675794383
40
0.281523216320082
40
0.281523216320082
40
0.384162756845781
40
0.384162756845781
40
0.589441837897179
40
0.589441837897179
40
0.692081378422884
40
0.692081378422884
40
0.79472091894859
40
0.79472091894859
40
0.897360459474295
40
0.897360459474295
40
1
40
1
40
1
40
1
41
1
10
61.0655561989272
20
0.400916385013233
30
0
41
1
10
61.0792424776627
20
0.417507807258374
30
0
41
1
10
61.0938669163471
20
0.435472415142783
30
0
41
1
10
61.1299818459431
20
0.480413175760219
30
0
41
1
10
61.1743903016895
20
0.536510907263704
30
0
41
1
10
61.2246286598306
20
0.601527072269818
30
0
41
1
10
61.2779096095781
20
0.671026625866773
30
0
41
1
10
61.3060118618679
20
0.707944424238775
30
0
41
1
10
61.3931278197382
20
0.82258756662776
30
0
41
1
10
61.4554105221548
20
0.90501646381648
30
0
41
1
10
61.5574843738789
20
1.0358760500458
30
0
41
1
10
61.5930316478178
20
1.08074405362092
30
0
41
1
10
61.6662934959073
20
1.17025822952146
30
0
41
1
10
61.7041831458
20
1.2151577146611
30
0
41
1
10
61.7837320499872
20
1.3041582413212
30
0
41
1
10
61.8253626972092
20
1.34828274524301
30
0
41
1
10
61.9147359078842
20
1.43382848561433
30
0
41
1
10
61.9617408775194
20
1.47454480562354
30
0
41
1
10
62.0124393136363
20
1.51125605809517
30
0
0
SPLINE
5
B8
100
AcDbEntity
8
1
62
256
6
ByLayer
370
18
48
1
60
0
100
AcDbSpline
70
4
71
3
72
18
73
14
40
0
40
0
40
0
40
0
40
0.250000000000002
40
0.250000000000002
40
0.375000000000001
40
0.375000000000001
40
0.500000000000001
40
0.500000000000001
40
0.750000000000001
40
0.750000000000001
40
0.875
40
0.875
40
1
40
1
40
1
40
1
41
1
10
60.9684463132149
20
0.439645763340536
30
0
41
1
10
60.9219196467721
20
0.212634483606621
30
0
41
1
10
60.8845311834975
20
-0.0148930786753283
30
0
41
1
10
60.8421959565638
20
-0.356961115028639
30
0
41
1
10
60.8303860976865
20
-0.471113843695179
30
0
41
1
10
60.8115129287742
20
-0.699687467568822
30
0
41
1
10
60.8044356370209
20
-0.814700499033137
30
0
41
1
10
60.7908609037326
20
-1.15447574654985
30
0
41
1
10
60.7918117911552
20
-1.37445900840771
30
0
41
1
10
60.8078503344556
20
-1.69488758777362
30
0
41
1
10
60.8156439186237
20
-1.80009819980816
30
0
41
1
10
60.83620547101
20
-2.00726960593866
30
0
41
1
10
60.8490079250859
20
-2.1093334840989
30
0
41
1
10
60.8641626584945
20
-2.20848449882365
30
0
0
SPLINE
5
B9
100
AcDbEntity
8
1
62
256
6
ByLayer
370
18
48
1
60
0
100
AcDbSpline
70
4
71
3
72
10
73
6
40
0
40
0
40
0
40
0
40
0.5
40
0.5
40
1
40
1
40
1
40
1
41
1
10
61.4386076173398
20
4.35517132704786
30
0
41
1
10
61.5605939430913
20
4.0517819576458
30
0
41
1
10
61.6840702683118
20
3.74222318941889
30
0
41
1
10
61.930283598662
20
3.10861759295631
30
0
41
1
10
62.0530829311935
20
2.784722196747
30
0
41
1
10
62.1733304649875
20
2.45228826883349
30
0
0
SPLINE
5
BA
100
AcDbEntity
8
1
62
256
6
ByLayer
370
18
48
1
60
0
100
AcDbSpline
70
4
71
3
72
16
73
12
40
0
40
0
40
0
40
0
40
0.25
40
0.25
40
0.375
40
0.375
40
0.5
40
0.5
40
0.75
40
0.75
40
1
40
1
40
1
40
1
41
1
10
61.3420728437889
20
-4.0699103232682
30
0
41
1
10
61.2614366419659
20
-3.99229239863934
30
0
41
1
10
61.189888609239
20
-3.89478854576771
30
0
41
1
10
61.0966127296533
20
-3.71779817999985
30
0
41
1
10
61.0678742864961
20
-3.65365163420262
30
0
41
1
10
61.0153460334926
20
-3.51453038064568
30
0
41
1
10
60.9915421828157
20
-3.43931912161852
30
0
41
1
10
60.9293571398732
20
-3.2019703866182
30
0
41
1
10
60.8995032101901
20
-3.0268187566314
30
0
41
1
10
60.8634534636793
20
-2.64201726264886
30
0
41
1
10
60.8574729282925
20
-2.43058473530277
30
0
41
1
10
60.8641626584946
20
-2.20848449882365
30
0
0
SPLINE
5
BB
100
AcDbEntity
8
1
62
256
6
ByLayer
370
18
48
1
60
0
100
AcDbSpline
70
4
71
3
72
30
73
26
40
0
40
0
40
0
40
0
40
0.118546598370765
40
0.118546598370765
40
0.177819897556149
40
0.177819897556149
40
0.237093196741534
40
0.237093196741534
40
0.355639795112299
40
0.355639795112299
40
0.41491309429768
40
0.41491309429768
40
0.474186393483062
40
0.474186393483062
40
0.592732991853824
40
0.592732991853824
40
0.711279590224587
40
0.711279590224587
40
0.82982618859535
40
0.82982618859535
40
0.889099487780732
40
0.889099487780732
40
0.948372786966115
40
0.948372786966115
40
1
40
1
40
1
40
1
41
1
10
60.9684463132149
20
0.439645763340508
30
0
41
1
10
60.4651303769054
20
0.686917799792127
30
0
41
1
10
59.9626930180113
20
0.931832619716744
30
0
41
1
10
59.2080637939927
20
1.29086736129562
30
0
41
1
10
58.9564239451424
20
1.40927083803643
30
0
41
1
10
58.4522234619064
20
1.64205695031632
30
0
41
1
10
58.1993633340145
20
1.75648221950351
30
0
41
1
10
57.4431276846307
20
2.09221919421924
30
0
41
1
10
56.939957745239
20
2.30599324167307
30
0
41
1
10
56.1850642970636
20
2.60734717639198
30
0
41
1
10
55.9330618912447
20
2.70417328892853
30
0
41
1
10
55.4290734756868
20
2.89203969752654
30
0
41
1
10
55.1766411142005
20
2.98263026162289
30
0
41
1
10
54.4194238505331
20
3.24238499476226
30
0
41
1
10
53.9160184797157
20
3.39934049908254
30
0
41
1
10
52.9093155700726
20
3.67561335684667
30
0
41
1
10
52.4059117551963
20
3.79396926661772
30
0
41
1
10
51.3960847556967
20
3.9963363100718
30
0
41
1
10
50.8917984196012
20
4.07879276444848
30
0
41
1
10
50.1366473432512
20
4.16950186076289
30
0
41
1
10
49.8850357719087
20
4.19409536140961
30
0
41
1
10
49.3814524766856
20
4.23103787510115
30
0
41
1
10
49.1295640492817
20
4.24386283815815
30
0
41
1
10
48.6575270523609
20
4.25942809887212
30
0
41
1
10
48.4375074675619
20
4.26290943693357
30
0
41
1
10
48.2177558067457
20
4.26209099507
30
0
0
SPLINE
5
BC
100
AcDbEntity
8
1
62
256
6
ByLayer
370
18
48
1
60
0
100
AcDbSpline
70
4
71
3
72
44
73
40
40
0
40
0
40
0
40
0
40
0.0284669781456603
40
0.0284669781456603
40
0.0770436292383763
40
0.0770436292383763
40
0.125620280331092
40
0.125620280331092
40
0.174196931423808
40
0.174196931423808
40
0.222773582516524
40
0.222773582516524
40
0.27135023360924
40
0.27135023360924
40
0.319926884701956
40
0.319926884701956
40
0.368503535794671
40
0.368503535794671
40
0.417080186887389
40
0.417080186887389
40
0.514233489072825
40
0.514233489072825
40
0.562810140165543
40
0.562810140165543
40
0.61138679125826
40
0.61138679125826
40
0.659963442350978
40
0.659963442350978
40
0.708540093443696
40
0.708540093443696
40
0.757116744536414
40
0.757116744536414
40
0.805693395629131
40
0.805693395629131
40
0.902846697814565
40
0.902846697814565
40
0.951423348907283
40
0.951423348907283
40
1
40
1
40
1
40
1
41
1
10
28.1354538931667
20
-2.8965344891852
30
0
41
1
10
27.9874942378765
20
-2.94906744449358
30
0
41
1
10
27.8395897880471
20
-3.00039038353327
30
0
41
1
10
27.4394400806202
20
-3.13587260948609
30
0
41
1
10
27.1872073639752
20
-3.21666166131976
30
0
41
1
10
26.6825439405113
20
-3.3696629768738
30
0
41
1
10
26.4300866283959
20
-3.44246531542896
30
0
41
1
10
25.9245160141997
20
-3.57948223754713
30
0
41
1
10
25.6711004416775
20
-3.64393285074797
30
0
41
1
10
25.1662677548789
20
-3.76053380038115
30
0
41
1
10
24.9145231934417
20
-3.81400889709627
30
0
41
1
10
24.4119426003365
20
-3.91251294435381
30
0
41
1
10
24.1609883296879
20
-3.95733615729657
30
0
41
1
10
23.6602373470066
20
-4.03552811104822
30
0
41
1
10
23.4103058868298
20
-4.06806088256218
30
0
41
1
10
22.9105938298674
20
-4.12514760805573
30
0
41
1
10
22.6606041043185
20
-4.14905340648599
30
0
41
1
10
22.1609703961603
20
-4.18655841245143
30
0
41
1
10
21.9112667022962
20
-4.19926082375525
30
0
41
1
10
21.161426513686
20
-4.22106274595961
30
0
41
1
10
20.6611188684121
20
-4.21841801407521
30
0
41
1
10
19.9064164508049
20
-4.17683628411046
30
0
41
1
10
19.6544805655069
20
-4.15757879701241
30
0
41
1
10
19.1490546471854
20
-4.10996441777914
30
0
41
1
10
18.8956729455518
20
-4.08113757211416
30
0
41
1
10
18.3902098460255
20
-4.012164634226
30
0
41
1
10
18.1379134042933
20
-3.97153513472424
30
0
41
1
10
17.6329755680724
20
-3.88221658126037
30
0
41
1
10
17.3805535056189
20
-3.83297982446123
30
0
41
1
10
16.8757475149868
20
-3.72396760018714
30
0
41
1
10
16.6232201296876
20
-3.66443729293005
30
0
41
1
10
16.1175629474816
20
-3.53663328902115
30
0
41
1
10
15.8642483383888
20
-3.46820992999852
30
0
41
1
10
15.1052953998504
20
-3.24995715773679
30
0
41
1
10
14.6008126447085
20
-3.0866773504473
30
0
41
1
10
13.8437965239632
20
-2.82068689265637
30
0
41
1
10
13.5913253192942
20
-2.72834119506254
30
0
41
1
10
13.0860638982944
20
-2.53635417661766
30
0
41
1
10
12.8332800211662
20
-2.436835175742
30
0
41
1
10
12.5798916783409
20
-2.33472221732791
30
0
0
SPLINE
5
BD
100
AcDbEntity
8
1
62
256
6
ByLayer
370
18
48
1
60
0
100
AcDbSpline
70
4
71
3
72
10
73
6
40
0
40
0
40
0
40
0
40
0.5
40
0.5
40
1
40
1
40
1
40
1
41
1
10
61.4386076173398
20
-4.35517132704783
30
0
41
1
10
61.5606032119309
20
-4.05175890532902
30
0
41
1
10
61.6840845039161
20
-3.74218718662334
30
0
41
1
10
61.9302979265067
20
-3.10858009047351
30
0
41
1
10
62.0530924457249
20
-2.7846958930636
30
0
41
1
10
62.1733304649872
20
-2.45228826883439
30
0
0
SPLINE
5
BE
100
AcDbEntity
8
1
62
256
6
ByLayer
370
18
48
1
60
0
100
AcDbSpline
70
4
71
3
72
8
73
4
40
0
40
0
40
0
40
0
40
1
40
1
40
1
40
1
41
1
10
62.9997682343734
20
0.0852143207775669
30
0
41
1
10
63.0000772551994
20
0.0284047735925128
30
0
41
1
10
63.0000772551994
20
-0.0284047735925128
30
0
41
1
10
62.9997682343734
20
-0.0852143207775669
30
0
0
SPLINE
5
BF
100
AcDbEntity
8
1
62
256
6
ByLayer
370
18
48
1
60
0
100
AcDbSpline
70
4
71
3
72
18
73
14
40
0
40
0
40
0
40
0
40
0.125
40
0.125
40
0.250000000000001
40
0.250000000000001
40
0.500000000000001
40
0.500000000000001
40
0.750000000000001
40
0.750000000000001
40
0.875000000000001
40
0.875000000000001
40
1
40
1
40
1
40
1
41
1
10
5.18532937442285
20
2.26147133832899
30
0
41
1
10
5.13693732362566
20
2.33562710785157
30
0
41
1
10
5.09226187820917
20
2.41017017513164
30
0
41
1
10
5.01149943950762
20
2.56011144782971
30
0
41
1
10
4.97519767087542
20
2.63608604771412
30
0
41
1
10
4.88362664189691
20
2.86014461864244
30
0
41
1
10
4.84512667832573
20
3.00451002181643
30
0
41
1
10
4.82007892659078
20
3.28137865079412
30
0
41
1
10
4.83427458494481
20
3.40732906667685
30
0
41
1
10
4.89233887434807
20
3.57769565780853
30
0
41
1
10
4.91803780277067
20
3.63159820971268
30
0
41
1
10
4.97954237957475
20
3.73091528736029
30
0
41
1
10
5.01543080618433
20
3.77673357819359
30
0
41
1
10
5.05587817832202
20
3.81914968222946
30
0
0
SPLINE
5
C0
100
AcDbEntity
8
1
62
256
6
ByLayer
370
18
48
1
60
0
100
AcDbSpline
70
4
71
3
72
8
73
4
40
0
40
0
40
0
40
0
40
1
40
1
40
1
40
1
41
1
10
61.4386076173398
20
-4.35517132704783
30
0
41
1
10
61.4156085033549
20
-4.33145789783504
30
0
41
1
10
61.3954043802667
20
-4.2985156429784
30
0
41
1
10
61.3776413447058
20
-4.256223784643
30
0
0
SPLINE
5
C1
100
AcDbEntity
8
1
62
256
6
ByLayer
370
18
48
1
60
0
100
AcDbSpline
70
4
71
3
72
8
73
4
40
0
40
0
40
0
40
0
40
1
40
1
40
1
40
1
41
1
10
62.7920923840469
20
0.662929702529055
30
0
41
1
10
62.5843067679739
20
1.25885485656957
30
0
41
1
10
62.3780500799604
20
1.85530677659978
30
0
41
1
10
62.1733304649875
20
2.45228826883349
30
0
0
SPLINE
5
C2
100
AcDbEntity
8
1
62
256
6
ByLayer
370
18
48
1
60
0
100
AcDbSpline
70
4
71
3
72
94
73
90
40
0
40
0
40
0
40
0
40
0.0178690535169192
40
0.0178690535169192
40
0.0399007633856873
40
0.0399007633856873
40
0.0619324732544558
40
0.0619324732544558
40
0.0839641831232244
40
0.0839641831232244
40
0.105995892991993
40
0.105995892991993
40
0.128027602860762
40
0.128027602860762
40
0.15005931272953
40
0.15005931272953
40
0.172091022598299
40
0.172091022598299
40
0.194122732467067
40
0.194122732467067
40
0.216154442335836
40
0.216154442335836
40
0.238186152204605
40
0.238186152204605
40
0.260217862073373
40
0.260217862073373
40
0.282249571942142
40
0.282249571942142
40
0.30428128181091
40
0.30428128181091
40
0.326312991679679
40
0.326312991679679
40
0.348344701548448
40
0.348344701548448
40
0.370376411417216
40
0.370376411417216
40
0.392408121285985
40
0.392408121285985
40
0.414439831154753
40
0.414439831154753
40
0.436471541023522
40
0.436471541023522
40
0.45850325089229
40
0.45850325089229
40
0.480534960761059
40
0.480534960761059
40
0.502566670629828
40
0.502566670629828
40
0.524598380498596
40
0.524598380498596
40
0.546630090367365
40
0.546630090367365
40
0.568661800236133
40
0.568661800236133
40
0.590693510104902
40
0.590693510104902
40
0.612725219973671
40
0.612725219973671
40
0.634756929842439
40
0.634756929842439
40
0.656788639711208
40
0.656788639711208
40
0.678820349579977
40
0.678820349579977
40
0.700852059448745
40
0.700852059448745
40
0.722883769317514
40
0.722883769317514
40
0.744915479186282
40
0.744915479186282
40
0.766947189055051
40
0.766947189055051
40
0.78897889892382
40
0.78897889892382
40
0.811010608792588
40
0.811010608792588
40
0.833042318661357
40
0.833042318661357
40
0.855074028530125
40
0.855074028530125
40
0.899137448267661
40
0.899137448267661
40
0.92116915813643
40
0.92116915813643
40
0.943200868005198
40
0.943200868005198
40
0.987264287742734
40
0.987264287742734
40
1
40
1
40
1
40
1
41
1
10
21.0516664985475
20
4.21520549217709
30
0
41
1
10
21.2546695868577
20
4.21550078962184
30
0
41
1
10
21.457429163877
20
4.21244401051817
30
0
41
1
10
21.9100016321157
20
4.19931272959161
30
0
41
1
10
22.1596319979132
20
4.18663892913219
30
0
41
1
10
22.6590578030898
20
4.14918931490504
30
0
41
1
10
22.9089245549823
20
4.12531608526274
30
0
41
1
10
23.4083474609762
20
4.06830667033134
30
0
41
1
10
23.6581158390239
20
4.0358218123626
30
0
41
1
10
24.1584790403741
20
3.95776520606748
30
0
41
1
10
24.4092133238787
20
3.91301256311141
30
0
41
1
10
24.9113112096651
20
3.81467332946738
30
0
41
1
10
25.1627972648533
20
3.76128581889179
30
0
41
1
10
25.6670515161735
20
3.64491685365766
30
0
41
1
10
25.9203838099868
20
3.58055419687716
30
0
41
1
10
26.426169853958
20
3.4435739887092
30
0
41
1
10
26.6786937205678
20
3.37078934103406
30
0
41
1
10
27.1834251768434
20
3.21784863739674
30
0
41
1
10
27.4356471772849
20
3.1371147792334
30
0
41
1
10
27.9401327003134
20
2.96639007148593
30
0
41
1
10
28.1924901551909
20
2.87735820492875
30
0
41
1
10
28.6974565656782
20
2.69248731061967
30
0
41
1
10
28.9500814388009
20
2.59687235740537
30
0
41
1
10
29.456350738981
20
2.39775293077179
30
0
41
1
10
29.7089926854314
20
2.2946341285699
30
0
41
1
10
30.2139596680662
20
2.08384996236407
30
0
41
1
10
30.4662018567927
20
1.97603295004251
30
0
41
1
10
30.970530252735
20
1.75507535906144
30
0
41
1
10
31.2227592060228
20
1.64204878849168
30
0
41
1
10
31.7273790878017
20
1.41176973649601
30
0
41
1
10
31.9798321070208
20
1.29486199358584
30
0
41
1
10
32.4854125645333
20
1.05776519457669
30
0
41
1
10
32.7384782206873
20
0.937232744288451
30
0
41
1
10
33.2436279232861
20
0.694811360965474
30
0
41
1
10
33.495836314853
20
0.572505149902298
30
0
41
1
10
34.0003952431654
20
0.327558539166489
30
0
41
1
10
34.252364559742
20
0.204110483611345
30
0
41
1
10
34.7566035485256
20
-0.0429727832269009
30
0
41
1
10
35.0088139269334
20
-0.166720293583722
30
0
41
1
10
35.5138439829512
20
-0.413568603699019
30
0
41
1
10
35.7667165748875
20
-0.537299137987361
30
0
41
1
10
36.2722244138375
20
-0.781695322236857
30
0
41
1
10
36.5246710790231
20
-0.902724762059592
30
0
41
1
10
37.0288727935977
20
-1.14292497590145
30
0
41
1
10
37.2808449035665
20
-1.26187874585804
30
0
41
1
10
37.7847150967592
20
-1.49635202259097
30
0
41
1
10
38.0368118499502
20
-1.61146734341989
30
0
41
1
10
38.5412943178129
20
-1.8377669435045
30
0
41
1
10
38.7937600098932
20
-1.94887818036813
30
0
41
1
10
39.2994296757799
20
-2.16669681199599
30
0
41
1
10
39.5517457990799
20
-2.27275421236715
30
0
41
1
10
40.0560700746242
20
-2.47806115263671
30
0
41
1
10
40.308014307527
20
-2.57741877776991
30
0
41
1
10
40.8117353787433
20
-2.77055864208501
30
0
41
1
10
41.0635819268339
20
-2.86397650319492
30
0
41
1
10
41.5674911608672
20
-3.04262408450714
30
0
41
1
10
41.8196907909351
20
-3.12787404459004
30
0
41
1
10
42.3247399442996
20
-3.29093625331356
30
0
41
1
10
42.5774385739613
20
-3.36943639382338
30
0
41
1
10
43.0818874114983
20
-3.51594377656164
30
0
41
1
10
43.3337779026367
20
-3.58424787763613
30
0
41
1
10
43.8374534941487
20
-3.71160491380448
30
0
41
1
10
44.0892346800284
20
-3.77098645427674
30
0
41
1
10
44.5927446007124
20
-3.88117092922209
30
0
41
1
10
44.8448021023044
20
-3.93080737703028
30
0
41
1
10
45.349320620716
20
-4.01983587343224
30
0
41
1
10
45.6019744528044
20
-4.05928530169092
30
0
41
1
10
46.1065906169188
20
-4.12916459221711
30
0
41
1
10
46.3585216008324
20
-4.15912598579303
30
0
41
1
10
46.862227457585
20
-4.20665650168499
30
0
41
1
10
47.1139095567187
20
-4.22472872386464
30
0
41
1
10
47.6176170343981
20
-4.25079930266423
30
0
41
1
10
47.8692777359879
20
-4.25905692991947
30
0
41
1
10
48.3732280516966
20
-4.26384971006303
30
0
41
1
10
48.6255145862933
20
-4.26049356693895
30
0
41
1
10
49.1305465187862
20
-4.24382054411609
30
0
41
1
10
49.3826022811982
20
-4.23097340347425
30
0
41
1
10
49.8863727932676
20
-4.19397730288881
30
0
41
1
10
50.137999806545
20
-4.16935861622693
30
0
41
1
10
50.8929718313286
20
-4.07861323728758
30
0
41
1
10
51.3963911200335
20
-3.99627880619025
30
0
41
1
10
52.1535557107071
20
-3.84453889995257
30
0
41
1
10
52.4059734556242
20
-3.78934339667285
30
0
41
1
10
52.9099922857453
20
-3.67045401115405
30
0
41
1
10
53.1616334798663
20
-3.60637678083913
30
0
41
1
10
53.9165122897509
20
-3.39918920388053
30
0
41
1
10
54.4195474139822
20
-3.24233240390146
30
0
41
1
10
55.0694489826317
20
-3.01940424055997
30
0
41
1
10
55.215361876946
20
-2.96801930529793
30
0
41
1
10
55.3612466259272
20
-2.91540476892374
30
0
0
SPLINE
5
C3
100
AcDbEntity
8
1
62
256
6
ByLayer
370
18
48
1
60
0
100
AcDbSpline
70
4
71
3
72
62
73
58
40
0
40
0
40
0
40
0
40
0.0128550748482705
40
0.0128550748482705
40
0.0343147471341781
40
0.0343147471341781
40
0.0557744194200858
40
0.0557744194200858
40
0.141613108563718
40
0.141613108563718
40
0.184532453135535
40
0.184532453135535
40
0.205992125421444
40
0.205992125421444
40
0.227451797707352
40
0.227451797707352
40
0.270371142279168
40
0.270371142279168
40
0.313290486850983
40
0.313290486850983
40
0.399129175994615
40
0.399129175994615
40
0.420588848280523
40
0.420588848280523
40
0.442048520566431
40
0.442048520566431
40
0.484967865138246
40
0.484967865138246
40
0.570806554281875
40
0.570806554281875
40
0.592266226567782
40
0.592266226567782
40
0.613725898853689
40
0.613725898853689
40
0.656645243425502
40
0.656645243425502
40
0.678104915711408
40
0.678104915711408
40
0.699564587997314
40
0.699564587997314
40
0.742483932569126
40
0.742483932569126
40
0.785403277140939
40
0.785403277140939
40
0.806862949426845
40
0.806862949426845
40
0.828322621712751
40
0.828322621712751
40
0.871241966284563
40
0.871241966284563
40
0.914161310856375
40
0.914161310856375
40
0.957080655428188
40
0.957080655428188
40
0.978540327714094
40
0.978540327714094
40
1
40
1
40
1
40
1
41
1
10
28.1502227079218
20
2.88144151173813
30
0
41
1
10
28.2934437386525
20
2.93530353913485
30
0
41
1
10
28.4368641065838
20
2.98807850921889
30
0
41
1
10
28.8203398370726
20
3.1258629584066
30
0
41
1
10
29.0610134736473
20
3.20869496792932
30
0
41
1
10
29.5399008601316
20
3.36634605304604
30
0
41
1
10
29.7787814384656
20
3.44109445480694
30
0
41
1
10
30.970470535058
20
3.79466662314178
30
0
41
1
10
31.9163092333812
20
4.01135590292805
30
0
41
1
10
33.3384700404865
20
4.2251880945272
30
0
41
1
10
33.8131887186926
20
4.27789954508145
30
0
41
1
10
34.527923457254
20
4.3278670022226
30
0
41
1
10
34.7666901200804
20
4.33965162357143
30
0
41
1
10
35.2454352984096
20
4.35331587230942
30
0
41
1
10
35.485918575874
20
4.35517099552138
30
0
41
1
10
36.2051055701307
20
4.34569003223987
30
0
41
1
10
36.6816434177672
20
4.31938189623082
30
0
41
1
10
37.6318600300573
20
4.22830444335153
30
0
41
1
10
38.105922689929
20
4.16379695197034
30
0
41
1
10
39.5263654069129
20
3.91463672812713
30
0
41
1
10
40.472711717674
20
3.67512875990272
30
0
41
1
10
41.6676606524643
20
3.29470174933249
30
0
41
1
10
41.9075046142258
20
3.2143766456488
30
0
41
1
10
42.3872973787883
20
3.04637752844806
30
0
41
1
10
42.626530050736
20
2.95911282130831
30
0
41
1
10
43.342256075535
20
2.68764703982782
30
0
41
1
10
43.817309261784
20
2.49461490375938
30
0
41
1
10
45.2393713841955
20
1.88522142295181
30
0
41
1
10
46.1836970952329
20
1.4392427907521
30
0
41
1
10
47.3715218918945
20
0.854265280490807
30
0
41
1
10
47.6096792915049
20
0.736354930527682
30
0
41
1
10
48.0865705075387
20
0.497378645591226
30
0
41
1
10
48.3255794770768
20
0.376874114950113
30
0
41
1
10
49.0452740648845
20
0.014348874759321
30
0
41
1
10
49.5229247385388
20
-0.22801789924884
30
0
41
1
10
50.2361866787294
20
-0.58642133225095
30
0
41
1
10
50.4733150899815
20
-0.705556154580023
30
0
41
1
10
50.9471994820308
20
-0.941383550405192
30
0
41
1
10
51.1840340475613
20
-1.05792841742604
30
0
41
1
10
51.8938802520159
20
-1.4041553464229
30
0
41
1
10
52.3666825221307
20
-1.62953925007639
30
0
41
1
10
53.3136263396075
20
-2.06519376603748
30
0
41
1
10
53.7879317858335
20
-2.27515478280628
30
0
41
1
10
54.5026021236749
20
-2.5746125837521
30
0
41
1
10
54.74126350526
20
-2.67201739092306
30
0
41
1
10
55.2201655602514
20
-2.86074658617113
30
0
41
1
10
55.4601783089879
20
-2.95234182543425
30
0
41
1
10
56.178384033105
20
-3.21579689946907
30
0
41
1
10
56.6561046668205
20
-3.37718301868097
30
0
41
1
10
57.6118428338847
20
-3.66827526859652
30
0
41
1
10
58.0903489493415
20
-3.79784761949475
30
0
41
1
10
59.0492590901324
20
-4.02153576946813
30
0
41
1
10
59.5269667867326
20
-4.11527991142583
30
0
41
1
10
60.2435498930109
20
-4.22699886786955
30
0
41
1
10
60.4824702858981
20
-4.25941586592049
30
0
41
1
10
60.960212844756
20
-4.31467280892721
30
0
41
1
10
61.199414106116
20
-4.33735697221113
30
0
41
1
10
61.4386076173398
20
-4.35517132704783
30
0
0
SPLINE
5
C4
100
AcDbEntity
8
1
62
256
6
ByLayer
370
18
48
1
60
0
100
AcDbSpline
70
4
71
3
72
8
73
4
40
0
40
0
40
0
40
0
40
1
40
1
40
1
40
1
41
1
10
62.7920923840458
20
-0.662929702532068
30
0
41
1
10
62.5843059806488
20
-1.25885711460288
30
0
41
1
10
62.3780493028838
20
-1.85530904262745
30
0
41
1
10
62.1733304649872
20
-2.45228826883439
30
0
0
SPLINE
5
C5
100
AcDbEntity
8
1
62
256
6
ByLayer
370
18
48
1
60
0
100
AcDbSpline
70
4
71
3
72
10
73
6
40
0
40
0
40
0
40
0
40
0.5
40
0.5
40
1
40
1
40
1
40
1
41
1
10
61.3910592578991
20
-4.18300126180142
30
0
41
1
10
61.3878292493088
20
-4.15538648926824
30
0
41
1
10
61.3813219134354
20
-4.1330136847628
30
0
41
1
10
61.3642330688712
20
-4.0956948735041
30
0
41
1
10
61.3538409183234
20
-4.08123790940712
30
0
41
1
10
61.3420728437889
20
-4.06991032326818
30
0
0
SPLINE
5
C6
100
AcDbEntity
8
1
62
256
6
ByLayer
370
13
48
1
60
0
100
AcDbSpline
70
4
71
3
72
32
73
28
40
0
40
0
40
0
40
0
40
0.0821384089419966
40
0.0821384089419966
40
0.123207613412995
40
0.123207613412995
40
0.164276817883993
40
0.164276817883993
40
0.328553635767983
40
0.328553635767983
40
0.369622840238981
40
0.369622840238981
40
0.410692044709978
40
0.410692044709978
40
0.492830453651973
40
0.492830453651973
40
0.657107271535963
40
0.657107271535963
40
0.698176476006961
40
0.698176476006961
40
0.739245680477959
40
0.739245680477959
40
0.821384089419953
40
0.821384089419953
40
0.985660907303942
40
0.985660907303942
40
1
40
1
40
1
40
1
41
1
10
61.3420728437889
20
-4.0699103232682
30
0
41
1
10
60.759086719114
20
-3.97811210946665
30
0
41
1
10
60.1768773265208
20
-3.85900084223655
30
0
41
1
10
59.3017231598926
20
-3.64192456021064
30
0
41
1
10
59.0105273643605
20
-3.56337653462106
30
0
41
1
10
58.4301525921334
20
-3.39519505164788
30
0
41
1
10
58.1407412265384
20
-3.30546882649659
30
0
41
1
10
56.6960700127768
20
-2.8310239473401
30
0
41
1
10
55.5480328984726
20
-2.36857383054289
30
0
41
1
10
54.1005044282442
20
-1.72338088762928
30
0
41
1
10
53.8103728814312
20
-1.59100138860677
30
0
41
1
10
53.2283004542311
20
-1.32046370639878
30
0
41
1
10
52.935947356557
20
-1.18211161162168
30
0
41
1
10
52.0632395544752
20
-0.764129869891491
30
0
41
1
10
51.4848481530254
20
-0.480363327418615
30
0
41
1
10
49.7532906179434
20
0.372509926102481
30
0
41
1
10
48.60382950952
20
0.943283231096729
30
0
41
1
10
47.1507630778751
20
1.61334679929345
30
0
41
1
10
46.8587596589985
20
1.74547278296765
30
0
41
1
10
46.2754120595026
20
2.00288659667029
30
0
41
1
10
45.98468701402
20
2.12784697672359
30
0
41
1
10
45.1145473314492
20
2.49055370235726
30
0
41
1
10
44.537093170287
20
2.71591295540728
30
0
41
1
10
42.8061508787183
20
3.33254333384338
30
0
41
1
10
41.6540539184585
20
3.66444861792081
30
0
41
1
10
40.3838506176421
20
3.91241943002126
30
0
41
1
10
40.2819297547134
20
3.93151089270077
30
0
41
1
10
40.1800855771934
20
3.94977094950338
30
0
0
SPLINE
5
C7
100
AcDbEntity
8
1
62
256
6
ByLayer
370
18
48
1
60
0
100
AcDbSpline
70
4
71
3
72
10
73
6
40
0
40
0
40
0
40
0
40
0.319773313712413
40
0.319773313712413
40
1
40
1
40
1
40
1
41
1
10
9.70670874897968
20
-4.19410032584591
30
0
41
1
10
9.51334830368887
20
-4.19363047358618
30
0
41
1
10
9.32009436954093
20
-4.19002411040009
30
0
41
1
10
8.71583026659937
20
-4.16898852347128
30
0
41
1
10
8.30483638391451
20
-4.14044922395018
30
0
41
1
10
7.89320919042794
20
-4.09800053901236
30
0
0
SPLINE
5
C8
100
AcDbEntity
8
1
62
256
6
ByLayer
370
13
48
1
60
0
100
AcDbSpline
70
4
71
3
72
10
73
6
40
0
40
0
40
0
40
0
40
0.224508085033245
40
0.224508085033245
40
1
40
1
40
1
40
1
41
1
10
7.89320919110676
20
-4.09800053908239
30
0
41
1
10
7.72548442699261
20
-4.08070407330399
30
0
41
1
10
7.55765451435983
20
-4.06109823388337
30
0
41
1
10
6.80943739108375
20
-3.96358058569595
30
0
41
1
10
6.22693329133583
20
-3.86069317437855
30
0
41
1
10
5.64091277208209
20
-3.73112592499439
30
0
0
SPLINE
5
C9
100
AcDbEntity
8
1
62
256
6
ByLayer
370
18
48
1
60
0
100
AcDbSpline
70
4
71
3
72
31
73
27
40
0
40
0
40
0
40
0
40
0.0625
40
0.0625
40
0.125
40
0.125
40
0.25
40
0.25
40
0.3125
40
0.3125
40
0.375
40
0.375
40
0.5
40
0.5
40
0.5625
40
0.5625
40
0.625
40
0.6875
40
0.6875
40
0.75
40
0.75
40
0.875
40
0.875
40
0.9375
40
0.9375
40
1
40
1
40
1
40
1
41
1
10
5.18532937442745
20
2.26147133832424
30
0
41
1
10
5.18531719165293
20
2.13855149388826
30
0
41
1
10
5.18529238886373
20
2.01203665626488
30
0
41
1
10
5.18522066981623
20
1.7517879833226
30
0
41
1
10
5.18517358384202
20
1.61765726939476
30
0
41
1
10
5.18500351661021
20
1.20665500352175
30
0
41
1
10
5.18485493156896
20
0.926928504446664
30
0
41
1
10
5.18459347364183
20
0.499045492395567
30
0
41
1
10
5.18449975088868
20
0.355024927450501
30
0
41
1
10
5.18429995662265
20
0.0641170702975273
30
0
41
1
10
5.18419420813439
20
-0.0822131392111771
30
0
41
1
10
5.1838662290638
20
-0.515732900364497
30
0
41
1
10
5.18363164398335
20
-0.800578044204826
30
0
41
1
10
5.18325202263969
20
-1.22155745535704
30
0
41
1
10
5.1831199853587
20
-1.36154962170048
30
0
41
1
10
5.1828498335554
20
-1.63384746870352
30
0
41
1
10
5.18257298048542
20
-1.89929350594002
30
0
41
1
10
5.182278676713
20
-2.15134323358245
30
0
41
1
10
5.18197289448486
20
-2.3966423969537
30
0
41
1
10
5.18181383818046
20
-2.51621716920798
30
0
41
1
10
5.18131681359654
20
-2.86248591122487
30
0
41
1
10
5.18096700240932
20
-3.0715617030676
30
0
41
1
10
5.18039561437064
20
-3.35367169160952
30
0
41
1
10
5.18019733275275
20
-3.44241706243065
30
0
41
1
10
5.17978124599912
20
-3.60902341944157
30
0
41
1
10
5.17956378711787
20
-3.68665588512235
30
0
41
1
10
5.17933812776738
20
-3.75754081749088
30
0
0
SPLINE
5
CA
100
AcDbEntity
8
1
62
256
6
ByLayer
370
18
48
1
60
0
100
AcDbSpline
70
4
71
3
72
8
73
4
40
0
40
0
40
0
40
0
40
1
40
1
40
1
40
1
41
1
10
62.3042056664133
20
-1.0523793134206
30
0
41
1
10
62.3091115286218
20
-1.05179597947017
30
0
41
1
10
62.3140530607868
20
-1.05107750275155
30
0
41
1
10
62.3190308255373
20
-1.05022175163322
30
0
0
SPLINE
5
CB
100
AcDbEntity
8
1
62
256
6
ByLayer
370
18
48
1
60
0
100
AcDbSpline
70
4
71
3
72
54
73
50
40
0
40
0
40
0
40
0
40
0.0544185299041466
40
0.0544185299041466
40
0.0845172518578542
40
0.0845172518578542
40
0.114615973811562
40
0.114615973811562
40
0.174813417718977
40
0.174813417718977
40
0.204912139672685
40
0.204912139672685
40
0.235010861626392
40
0.235010861626392
40
0.295208305533807
40
0.295208305533807
40
0.325307027487515
40
0.325307027487515
40
0.355405749441222
40
0.355405749441222
40
0.415603193348637
40
0.415603193348637
40
0.475800637256051
40
0.475800637256051
40
0.505899359209759
40
0.505899359209759
40
0.535998081163465
40
0.535998081163465
40
0.596195525070881
40
0.596195525070881
40
0.626294247024589
40
0.626294247024589
40
0.656392968978297
40
0.656392968978297
40
0.716590412885715
40
0.716590412885715
40
0.776787856793132
40
0.776787856793132
40
0.83698530070055
40
0.83698530070055
40
0.867084022654258
40
0.867084022654258
40
0.897182744607967
40
0.897182744607967
40
0.957380188515383
40
0.957380188515383
40
0.987478910469092
40
0.987478910469092
40
1
40
1
40
1
40
1
41
1
10
9.20431860642347
20
4.30620805336429
30
0
41
1
10
9.73083511717564
20
4.30701725147657
30
0
41
1
10
10.2566365123344
20
4.28392675584132
30
0
41
1
10
11.0747422886213
20
4.21129697041684
30
0
41
1
10
11.3667337269705
20
4.17816160750578
30
0
41
1
10
11.9503458020928
20
4.0977633281571
30
0
41
1
10
12.2416260197143
20
4.0505456879786
30
0
41
1
10
13.1148942981704
20
3.88860906353102
30
0
41
1
10
13.6963344136759
20
3.75363619880517
30
0
41
1
10
14.5707213448517
20
3.51355910026143
30
0
41
1
10
14.8628709739007
20
3.42722441902467
30
0
41
1
10
15.4457947010008
20
3.24352917644958
30
0
41
1
10
15.7368212009138
20
3.14606714088728
30
0
41
1
10
16.609580637374
20
2.83823014186694
30
0
41
1
10
17.1910257545549
20
2.61245950393001
30
0
41
1
10
18.0659198858401
20
2.24788784654152
30
0
41
1
10
18.3576923665706
20
2.12226408709336
30
0
41
1
10
18.9400639046222
20
1.86481603444739
30
0
41
1
10
19.230930142662
20
1.7328029941655
30
0
41
1
10
20.1034004340021
20
1.32843240130057
30
0
41
1
10
20.6853507738424
20
1.04762748987423
30
0
41
1
10
21.8519479543936
20
0.473675379420541
30
0
41
1
10
22.4332852541224
20
0.182625481571762
30
0
41
1
10
23.3055052409142
20
-0.253714450865971
30
0
41
1
10
23.5963172502704
20
-0.399048883413883
30
0
41
1
10
24.178709488709
20
-0.688237991586533
30
0
41
1
10
24.4705946743036
20
-0.832341951787924
30
0
41
1
10
25.3444511530319
20
-1.25908198493286
30
0
41
1
10
25.925355050211
20
-1.53616089728891
30
0
41
1
10
26.7975702174924
20
-1.9343303929657
30
0
41
1
10
27.0884884381711
20
-2.06407888790636
30
0
41
1
10
27.6712323151382
20
-2.31661178816736
30
0
41
1
10
27.962936974926
20
-2.43934836841274
30
0
41
1
10
28.8358721899441
20
-2.79391566128825
30
0
41
1
10
29.4164670028106
20
-3.01252867211005
30
0
41
1
10
30.5796464205894
20
-3.40720564245794
30
0
41
1
10
31.163267619066
20
-3.58345088443997
30
0
41
1
10
32.32619493671
20
-3.88414987883655
30
0
41
1
10
32.9066309152327
20
-4.00908593017596
30
0
41
1
10
33.7793445124547
20
-4.15517188219704
30
0
41
1
10
34.070947259587
20
-4.19702901542874
30
0
41
1
10
34.6532231819811
20
-4.2662558483932
30
0
41
1
10
34.9439077208517
20
-4.29364726160313
30
0
41
1
10
35.8155069946044
20
-4.3539502649775
30
0
41
1
10
36.395855669763
20
-4.36498908481261
30
0
41
1
10
37.2690570813589
20
-4.33719914927488
30
0
41
1
10
37.5605987457856
20
-4.32052769138687
30
0
41
1
10
37.9723597967199
20
-4.2866511065734
30
0
41
1
10
38.0932646162313
20
-4.27544264215337
30
0
41
1
10
38.214128742666
20
-4.26299063536484
30
0
0
SPLINE
5
CC
100
AcDbEntity
8
1
62
256
6
ByLayer
370
18
48
1
60
0
100
AcDbSpline
70
4
71
3
72
8
73
4
40
0
40
0
40
0
40
0
40
1
40
1
40
1
40
1
41
1
10
62.9997682343734
20
-0.0852143207775953
30
0
41
1
10
62.9287993623708
20
-0.276599289091138
30
0
41
1
10
62.859645344771
20
-0.469189109285622
30
0
41
1
10
62.7920923840411
20
-0.662929702545711
30
0
0
SPLINE
5
CD
100
AcDbEntity
8
1
62
256
6
ByLayer
370
18
48
1
60
0
100
AcDbSpline
70
4
71
3
72
16
73
12
40
0
40
0
40
0
40
0
40
0.249999999999988
40
0.249999999999988
40
0.499999999999976
40
0.499999999999976
40
0.624999999999983
40
0.624999999999983
40
0.749999999999989
40
0.749999999999989
40
1
40
1
40
1
40
1
41
1
10
62.0124393136433
20
1.51125605810034
30
0
41
1
10
62.0555530488541
20
1.54247515161836
30
0
41
1
10
62.0964815158852
20
1.57744426650689
30
0
41
1
10
62.1680431000346
20
1.65613999072113
30
0
41
1
10
62.1982941729497
20
1.69928496948981
30
0
41
1
10
62.231696171162
20
1.77222509673948
30
0
41
1
10
62.2406483862948
20
1.79774487191767
30
0
41
1
10
62.253337588875
20
1.84934982764722
30
0
41
1
10
62.2572042801536
20
1.87569552073717
30
0
41
1
10
62.2614490253291
20
1.95634505828389
30
0
41
1
10
62.2544197799161
20
2.00918645571937
30
0
41
1
10
62.2404356002839
20
2.06109634861264
30
0
0
SPLINE
5
CE
100
AcDbEntity
8
1
62
256
6
ByLayer
370
13
48
1
60
0
100
AcDbSpline
70
4
71
3
72
62
73
58
40
0
40
0
40
0
40
0
40
0.0081500501881342
40
0.0207051128439809
40
0.0458152381556737
40
0.0583703008115199
40
0.0709253634673665
40
0.0960354887790593
40
0.121145614090752
40
0.146255739402445
40
0.190198458697907
40
0.19647599002583
40
0.209031052681678
40
0.221586115337523
40
0.246696240649216
40
0.259251303305062
40
0.271806365960909
40
0.296916491272601
40
0.322026616584294
40
0.347136741895987
40
0.39107946119145
40
0.397356992519373
40
0.409912055175219
40
0.422467117831065
40
0.447577243142758
40
0.460132305798605
40
0.472687368454451
40
0.497797493766144
40
0.522907619077837
40
0.548017744389529
40
0.591960463684992
40
0.598237995012915
40
0.610793057668762
40
0.623348120324608
40
0.648458245636301
40
0.661013308292147
40
0.673568370947993
40
0.698678496259686
40
0.711233558915533
40
0.72378862157138
40
0.748898746883072
40
0.761453809538919
40
0.774008872194765
40
0.799118997506458
40
0.811674060162304
40
0.82422912281815
40
0.849339248129843
40
0.86189431078569
40
0.874449373441536
40
0.899559498753229
40
0.912114561409075
40
0.924669624064922
40
0.937224686720768
40
0.949779749376614
40
0.962334812032461
40
0.974889874688307
40
1
40
1
40
1
40
1
41
1
10
25.6037827468496
20
-1.81507687736047
30
0
41
1
10
25.5703939386254
20
-1.81884366561093
30
0
41
1
10
25.485570633336
20
-1.82830947841683
30
0
41
1
10
25.2979007618854
20
-1.84864069177539
30
0
41
1
10
25.0921704894716
20
-1.86977561214448
30
0
41
1
10
24.8864260937718
20
-1.88974970044751
30
0
41
1
10
24.6807126999125
20
-1.90887110489018
30
0
41
1
10
24.4235723606024
20
-1.93126080909036
30
0
41
1
10
24.1149826957071
20
-1.95572392214058
30
0
41
1
10
23.7292857801851
20
-1.98309505018443
30
0
41
1
10
23.4206519489147
20
-2.00169216090379
30
0
41
1
10
23.1634399224312
20
-2.01512506978588
30
0
41
1
10
23.0348644900417
20
-2.02136950972113
30
0
41
1
10
22.8291503125993
20
-2.03047625932209
30
0
41
1
10
22.6234201992474
20
-2.03833446652081
30
0
41
1
10
22.4176761957736
20
-2.04494654312484
30
0
41
1
10
22.2119630621118
20
-2.05059774665844
30
0
41
1
10
21.9548228726955
20
-2.05603328288743
30
0
41
1
10
21.64623323119
20
-2.06002084162566
30
0
41
1
10
21.2605363185482
20
-2.06157438928548
30
0
41
1
10
20.9519024345113
20
-2.05945489488826
30
0
41
1
10
20.6946903304603
20
-2.05559310852505
30
0
41
1
10
20.5661148614952
20
-2.05314646915718
30
0
41
1
10
20.3604006461094
20
-2.04832525692026
30
0
41
1
10
20.1546705297991
20
-2.04225937997563
30
0
41
1
10
19.9489265235443
20
-2.03496334888567
30
0
41
1
10
19.7432133271675
20
-2.02667643243203
30
0
41
1
10
19.4860729663927
20
-2.01470576396784
30
0
41
1
10
19.1774830654615
20
-1.99788305659109
30
0
41
1
10
18.7917858953547
20
-1.973482473128
30
0
41
1
10
18.4831519032327
20
-1.95081501981713
30
0
41
1
10
18.225939809894
20
-1.92997332141988
30
0
41
1
10
18.0973643745991
20
-1.91903561834772
30
0
41
1
10
17.891650292134
20
-1.90068154375558
30
0
41
1
10
17.685920436551
20
-1.88118966025516
30
0
41
1
10
17.4801766455901
20
-1.86058465551503
30
0
41
1
10
17.2744632914993
20
-1.83903960073809
30
0
41
1
10
17.0687335582336
20
-1.81639894858549
30
0
41
1
10
16.8629895275239
20
-1.79268905622305
30
0
41
1
10
16.6572759821657
20
-1.7680640880111
30
0
41
1
10
16.4515460462038
20
-1.74239022192023
30
0
41
1
10
16.2458018393178
20
-1.71569572840281
30
0
41
1
10
16.0400882172814
20
-1.68811521104547
30
0
41
1
10
15.8343583253481
20
-1.65953701963144
30
0
41
1
10
15.6286142323087
20
-1.62999118236038
30
0
41
1
10
15.4229007439864
20
-1.59959269237316
30
0
41
1
10
15.2171710530915
20
-1.56825322399931
30
0
41
1
10
15.0114271923857
20
-1.53600569358665
30
0
41
1
10
14.8057138269626
20
-1.50294392557092
30
0
41
1
10
14.5999841021784
20
-1.46900317550831
30
0
41
1
10
14.3942400818185
20
-1.43421806418937
30
0
41
1
10
14.2399423418087
20
-1.40761101315172
30
0
41
1
10
14.0856444248914
20
-1.38055682931318
30
0
41
1
10
13.9313483434302
20
-1.35306570884049
30
0
41
1
10
13.7770524608774
20
-1.32514482659343
30
0
41
1
10
13.5713386590338
20
-1.28727256800596
30
0
41
1
10
13.4170281525418
20
-1.25837200590976
30
0
41
1
10
13.3141480927011
20
-1.23888429607493
30
0
0
SPLINE
5
CF
100
AcDbEntity
8
1
62
256
6
ByLayer
370
18
48
1
60
0
100
AcDbSpline
70
4
71
3
72
32
73
28
40
0
40
0
40
0
40
0
40
0.0312499999999991
40
0.0312499999999991
40
0.0624999999999982
40
0.0624999999999982
40
0.0937499999999974
40
0.0937499999999974
40
0.124999999999997
40
0.124999999999997
40
0.187499999999995
40
0.187499999999995
40
0.249999999999993
40
0.249999999999993
40
0.312499999999992
40
0.312499999999992
40
0.37499999999999
40
0.37499999999999
40
0.49999999999999
40
0.49999999999999
40
0.62499999999999
40
0.62499999999999
40
0.687499999999991
40
0.687499999999991
40
0.749999999999993
40
0.749999999999993
40
1
40
1
40
1
40
1
41
1
10
5.05587817832136
20
3.81914968222978
30
0
41
1
10
5.08133035756106
20
3.84584071864359
30
0
41
1
10
5.11407445632358
20
3.870366260168
30
0
41
1
10
5.18813711994949
20
3.9139734198242
30
0
41
1
10
5.22974142899295
20
3.93341164342914
30
0
41
1
10
5.32008230228399
20
3.96880497815354
30
0
41
1
10
5.36853951678563
20
3.98461215325565
30
0
41
1
10
5.46866058195275
20
4.01296819340845
30
0
41
1
10
5.52062622723153
20
4.02562242603398
30
0
41
1
10
5.68103760878216
20
4.06019330292548
30
0
41
1
10
5.79467311010905
20
4.07886125186502
30
0
41
1
10
6.02590446010552
20
4.11010550742228
30
0
41
1
10
6.1436828187411
20
4.12272560127778
30
0
41
1
10
6.38247959531907
20
4.14410722490922
30
0
41
1
10
6.50351245350686
20
4.15284131607069
30
0
41
1
10
6.7482996414262
20
4.16752748446768
30
0
41
1
10
6.87236045188797
20
4.1734807378194
30
0
41
1
10
7.2461273180954
20
4.18801821200785
30
0
41
1
10
7.49523708186223
20
4.19333082555389
30
0
41
1
10
7.99333981643142
20
4.19786302920548
30
0
41
1
10
8.24233234603662
20
4.19703323322634
30
0
41
1
10
8.61573613532821
20
4.19105384537158
30
0
41
1
10
8.74018981939088
20
4.18825442833969
30
0
41
1
10
8.98906853622546
20
4.1808291569248
30
0
41
1
10
9.11382262816321
20
4.17618452320164
30
0
41
1
10
9.73079952663244
20
4.1478727375152
30
0
41
1
10
10.2062570862477
20
4.10985004902352
30
0
41
1
10
10.6636092935004
20
4.04090426651348
30
0
0
SPLINE
5
D0
100
AcDbEntity
8
1
62
256
6
ByLayer
370
18
48
1
60
0
100
AcDbSpline
70
4
71
3
72
14
73
10
40
0
40
0
40
0
40
0
40
0.25
40
0.25
40
0.5
40
0.5
40
0.75
40
0.75
40
1
40
1
40
1
40
1
41
1
10
13.3141480927008
20
-1.23888429607484
30
0
41
1
10
13.411156198432
20
-1.09410495353174
30
0
41
1
10
13.5359558362053
20
-0.901176918617836
30
0
41
1
10
13.8166722238681
20
-0.456845433084084
30
0
41
1
10
13.9723999330594
20
-0.205741205231277
30
0
41
1
10
14.2840652338308
20
0.305117283074168
30
0
41
1
10
14.439792943022
20
0.564527519987223
30
0
41
1
10
14.7205093306849
20
1.04045471637295
30
0
41
1
10
14.8453089684582
20
1.25665117581983
30
0
41
1
10
14.9423170741894
20
1.42988871949746
30
0
0
SPLINE
5
D1
100
AcDbEntity
8
1
62
256
6
ByLayer
370
18
48
1
60
0
100
AcDbSpline
70
4
71
4
72
10
73
5
40
0
40
0
40
0
40
0
40
0
40
1
40
1
40
1
40
1
40
1
41
1
10
13.3141480927011
20
-1.23888429607493
30
0
41
1
10
13.1305839891111
20
-1.5128437763882
30
0
41
1
10
12.947019885521
20
-1.78680325670143
30
0
41
1
10
12.763455781931
20
-2.06076273701467
30
0
41
1
10
12.579891678341
20
-2.33472221732791
30
0
0
SPLINE
5
D2
100
AcDbEntity
8
1
62
256
6
ByLayer
370
13
48
1
60
0
100
AcDbSpline
70
4
71
3
72
29
73
25
40
0
40
0
40
0
40
0
40
0.125
40
0.125
40
0.1875
40
0.1875
40
0.25
40
0.25
40
0.375
40
0.375
40
0.5
40
0.5
40
0.5625
40
0.5625
40
0.625
40
0.6875
40
0.6875
40
0.75
40
0.75
40
0.875
40
0.875
40
0.9375
40
0.9375
40
1
40
1
40
1
40
1
41
1
10
5.64091277208206
20
-3.73112592499436
30
0
41
1
10
5.64097107219794
20
-3.60714084872325
30
0
41
1
10
5.64101945537737
20
-3.46140534515644
30
0
41
1
10
5.64108422665942
20
-3.21137821762127
30
0
41
1
10
5.64110449593912
20
-3.12276062166839
30
0
41
1
10
5.64114339429136
20
-2.93471998382046
30
0
41
1
10
5.64116200618165
20
-2.83530264461012
30
0
41
1
10
5.64121594229698
20
-2.52536018107463
30
0
41
1
10
5.64124996912608
20
-2.30013132430332
30
0
41
1
10
5.64131786621587
20
-1.82960169924522
30
0
41
1
10
5.64135195291178
20
-1.58315726097328
30
0
41
1
10
5.64140576953389
20
-1.19648069188031
30
0
41
1
10
5.64142420766041
20
-1.06421781974947
30
0
41
1
10
5.6414613168711
20
-0.79919686311186
30
0
41
1
10
5.64149880813863
20
-0.532596481007914
30
0
41
1
10
5.64153683781825
20
-0.262889363714919
30
0
41
1
10
5.64157482531493
20
0.0083893628970202
30
0
41
1
10
5.64159388072125
20
0.14542117229513
30
0
41
1
10
5.6416494835085
20
0.553765075017395
30
0
41
1
10
5.6416845279625
20
0.821983469185369
30
0
41
1
10
5.64172936169479
20
1.21824975398494
30
0
41
1
10
5.64174286929818
20
1.34829252799679
30
0
41
1
10
5.64176598498821
20
1.60356758297567
30
0
41
1
10
5.64177563257903
20
1.7293942436965
30
0
41
1
10
5.64178271223574
20
1.85168197333684
30
0
0
SPLINE
5
D3
100
AcDbEntity
8
1
62
256
6
ByLayer
370
18
48
1
60
0
100
AcDbSpline
70
4
71
3
72
12
73
8
40
0
40
0
40
0
40
0
40
0.5
40
0.5
40
0.75
40
0.75
40
1
40
1
40
1
40
1
41
1
10
5.64178271223571
20
1.85168197333684
30
0
41
1
10
5.57884672927196
20
1.92857187856379
30
0
41
1
10
5.51326365892751
20
2.00444204217556
30
0
41
1
10
5.40244192914142
20
2.11332014697314
30
0
41
1
10
5.36313340396129
20
2.148945448418
30
0
41
1
10
5.27828256306964
20
2.21351209141989
30
0
41
1
10
5.23288979452155
20
2.24222064729307
30
0
41
1
10
5.18532937441228
20
2.26147133832811
30
0
0
SPLINE
5
D4
100
AcDbEntity
8
1
62
256
6
ByLayer
370
18
48
1
60
0
100
AcDbSpline
70
4
71
3
72
16
73
12
40
0
40
0
40
0
40
0
40
0.125
40
0.125
40
0.25
40
0.25
40
0.5
40
0.5
40
0.75
40
0.75
40
1
40
1
40
1
40
1
41
1
10
5.17933812776738
20
-3.75754081749386
30
0
41
1
10
5.17930351530981
20
-3.76841340813792
30
0
41
1
10
5.18422024450916
20
-3.77872677537411
30
0
41
1
10
5.20019987027223
20
-3.7983626961767
30
0
41
1
10
5.21095501861078
20
-3.80730005244152
30
0
41
1
10
5.24837250184649
20
-3.83245226182083
30
0
41
1
10
5.27959320772345
20
-3.84665414601926
30
0
41
1
10
5.34624740892718
20
-3.8718055540204
30
0
41
1
10
5.38235048666007
20
-3.88290485461104
30
0
41
1
10
5.45670658885183
20
-3.90290699626371
30
0
41
1
10
5.49512787198731
20
-3.91185264646646
30
0
41
1
10
5.53458388675813
20
-3.91996672977246
30
0
0
SPLINE
5
D5
100
AcDbEntity
8
1
62
256
6
ByLayer
370
18
48
1
60
0
100
AcDbSpline
70
4
71
4
72
10
73
5
40
0
40
0
40
0
40
0
40
0
40
1
40
1
40
1
40
1
40
1
41
1
10
15.7166972285128
20
2.8127805386558
30
0
41
1
10
15.5231021899319
20
2.46705758386619
30
0
41
1
10
15.3295071513511
20
2.12133462907661
30
0
41
1
10
15.1359121127702
20
1.77561167428703
30
0
41
1
10
14.9423170741894
20
1.42988871949746
30
0
0
SPLINE
5
D6
100
AcDbEntity
8
1
62
256
6
ByLayer
370
13
48
1
60
0
100
AcDbSpline
70
4
71
3
72
24
73
20
40
0
40
0
40
0
40
0
40
0.0201331187939985
40
0.0947247585238561
40
0.169316398253714
40
0.243908037983573
40
0.374443407510824
40
0.393091317443288
40
0.430387137308217
40
0.467682957173147
40
0.542274596903004
40
0.579570416767933
40
0.616866236632862
40
0.691457876362721
40
0.766049516092578
40
0.840641155822436
40
0.971176525349687
40
0.989824435282152
40
1
40
1
40
1
40
1
41
1
10
62.2404356019141
20
2.0610963425612
30
0
41
1
10
62.2126697325453
20
2.06098628360271
30
0
41
1
10
62.0820305640554
20
2.06030970759059
30
0
41
1
10
61.8485177658054
20
2.05784483329134
30
0
41
1
10
61.5399200407906
20
2.05204152440984
30
0
41
1
10
61.1541328204865
20
2.04141598139108
30
0
41
1
10
60.8455793593124
20
2.02954803985824
30
0
41
1
10
60.5884684537498
20
2.01755286452671
30
0
41
1
10
60.4598823670805
20
2.01108063675292
30
0
41
1
10
60.2541380595212
20
1.99986129733716
30
0
41
1
10
60.0484096528049
20
1.98740802165642
30
0
41
1
10
59.8426951716593
20
1.97372397844517
30
0
41
1
10
59.6369498479838
20
1.95914363406197
30
0
41
1
10
59.3797670857665
20
1.93936137618399
30
0
41
1
10
59.0711694612958
20
1.91319207848624
30
0
41
1
10
58.6853823565037
20
1.87738739992298
30
0
41
1
10
58.3768289695119
20
1.84555579140464
30
0
41
1
10
58.1571105492674
20
1.82123629273377
30
0
41
1
10
58.1173648630508
20
1.81677467810254
30
0
41
1
10
58.1033329653224
20
1.81519195087304
30
0
0
SPLINE
5
D7
100
AcDbEntity
8
1
62
256
6
ByLayer
370
13
48
1
60
0
100
AcDbSpline
70
4
71
3
72
37
73
33
40
0
40
0
40
0
40
0
40
0.0379817662827977
40
0.0860826779686583
40
0.134183589654518
40
0.218360185104773
40
0.230385413026238
40
0.254435868869169
40
0.278486324712098
40
0.326587236397958
40
0.350637692240888
40
0.374688148083819
40
0.422789059769679
40
0.446839515612609
40
0.470889971455539
40
0.518990883141399
40
0.543041338984329
40
0.567091794827259
40
0.615192706513119
40
0.639243162356049
40
0.663293618198979
40
0.711394529884839
40
0.735444985727769
40
0.759495441570699
40
0.80759635325656
40
0.83164680909949
40
0.85569726494242
40
0.87974772078535
40
0.90379817662828
40
0.92784863247121
40
0.95189908831414
40
1
40
1
40
1
40
1
41
1
10
21.3578359387623
20
0.0524732160154143
30
0
41
1
10
21.2766049198754
20
0.071782736133599
30
0
41
1
10
21.0925019480629
20
0.115534882619783
30
0
41
1
10
20.8055445747017
20
0.18370068473925
30
0
41
1
10
20.4197573470574
20
0.274836575623396
30
0
41
1
10
20.1112038593456
20
0.347600561372558
30
0
41
1
10
19.8540930613115
20
0.407934187098219
30
0
41
1
10
19.7255070354405
20
0.437888717551202
30
0
41
1
10
19.5197627768268
20
0.485590368111785
30
0
41
1
10
19.3140342994609
20
0.533063915595589
30
0
41
1
10
19.1083197645431
20
0.580268876852811
30
0
41
1
10
18.9025747773147
20
0.627074744830337
30
0
41
1
10
18.6968461775501
20
0.673563652457316
30
0
41
1
10
18.4911318824662
20
0.719696060753106
30
0
41
1
10
18.2853870865714
20
0.765366192620233
30
0
41
1
10
18.0796586895761
20
0.810633394370027
30
0
41
1
10
17.8739445707281
20
0.855459164942088
30
0
41
1
10
17.6681998515312
20
0.899762439923731
30
0
41
1
10
17.4624714104874
20
0.943579746762706
30
0
41
1
10
17.2567571777709
20
0.986873624684759
30
0
41
1
10
17.0510123248417
20
1.02958748262429
30
0
41
1
10
16.8452836827189
20
1.07173436627471
30
0
41
1
10
16.6395692175988
20
1.11327698024885
30
0
41
1
10
16.4338242417364
20
1.1541842570364
30
0
41
1
10
16.228095633518
20
1.19444578728286
30
0
41
1
10
16.022381328098
20
1.23402563577156
30
0
41
1
10
15.8680853185572
20
1.2632559054058
30
0
41
1
10
15.7137894860077
20
1.29208498632007
30
0
41
1
10
15.5594918170668
20
1.32050538722575
30
0
41
1
10
15.4051939491186
20
1.3485065955345
30
0
41
1
10
15.1994494098373
20
1.38518757235786
30
0
41
1
10
15.045166173213
20
1.4121647453492
30
0
41
1
10
14.9423170741894
20
1.42988871949745
30
0
0
SPLINE
5
D8
100
AcDbEntity
8
1
62
256
6
ByLayer
370
18
48
1
60
0
100
AcDbSpline
70
4
71
3
72
20
73
16
40
0
40
0
40
0
40
0
40
0.125000000000001
40
0.125000000000001
40
0.250000000000003
40
0.250000000000003
40
0.500000000000006
40
0.500000000000006
40
0.625000000000004
40
0.625000000000004
40
0.750000000000003
40
0.750000000000003
40
0.875000000000001
40
0.875000000000001
40
1
40
1
40
1
40
1
41
1
10
62.3042056664133
20
-1.0523793134206
30
0
41
1
10
62.2606271343018
20
-1.05264370891194
30
0
41
1
10
62.2189507504363
20
-1.0431898159888
30
0
41
1
10
62.1388184462088
20
-1.00782832143602
30
0
41
1
10
62.10013305894
20
-0.981666056676403
30
0
41
1
10
61.9901578156844
20
-0.881910501888484
30
0
41
1
10
61.9264972328179
20
-0.789727061737466
30
0
41
1
10
61.842081374935
20
-0.621999098706851
30
0
41
1
10
61.8159716132336
20
-0.561213013284231
30
0
41
1
10
61.768395424907
20
-0.433487531074206
30
0
41
1
10
61.7467527270534
20
-0.366200117480247
30
0
41
1
10
61.707368725742
20
-0.225397537408412
30
0
41
1
10
61.6896297591179
20
-0.151878640668343
30
0
41
1
10
61.6578823375977
20
0.0011141275759314
30
0
41
1
10
61.6438551429053
20
0.080844520521822
30
0
41
1
10
61.6318751093314
20
0.162054485420498
30
0
0
SPLINE
5
D9
100
AcDbEntity
8
1
62
256
6
ByLayer
370
18
48
1
60
0
100
AcDbSpline
70
4
71
3
72
10
73
6
40
0
40
0
40
0
40
0
40
0.5
40
0.5
40
1
40
1
40
1
40
1
41
1
10
10.6636092935004
20
4.04090426651356
30
0
41
1
10
11.5117851858319
20
3.91304186708578
30
0
41
1
10
12.3573672311091
20
3.74550108063869
30
0
41
1
10
14.0421066469628
20
3.33682028504194
30
0
41
1
10
14.8812749624484
20
3.09559792833522
30
0
41
1
10
15.7166972285129
20
2.8127805386558
30
0
0
SPLINE
5
DA
100
AcDbEntity
8
1
62
256
6
ByLayer
370
18
48
1
60
0
100
AcDbSpline
70
4
71
1
72
4
73
2
40
0
40
0
40
1
40
1
41
1
10
61.3910592578966
20
-4.18300126180065
30
0
41
1
10
62.3190308255432
20
-1.05022175163208
30
0
0
SPLINE
5
DB
100
AcDbEntity
8
1
62
256
6
ByLayer
370
18
48
1
60
0
100
AcDbSpline
70
4
71
3
72
12
73
8
40
0
40
0
40
0
40
0
40
0.0464275590981719
40
0.0464275590981719
40
0.956759236075122
40
0.956759236075122
40
1
40
1
40
1
40
1
41
1
10
37.0969323081204
20
-4.24237638299445
30
0
41
1
10
37.0674924179157
20
-4.24263040264051
30
0
41
1
10
37.0380517946706
20
-4.24281071418145
30
0
41
1
10
36.4313305311136
20
-4.24500678395756
30
0
41
1
10
35.8537957472935
20
-4.21881198324783
30
0
41
1
10
35.2460862715528
20
-4.16169861487211
30
0
41
1
10
35.2185236375994
20
-4.15904494385612
30
0
41
1
10
35.1909553139458
20
-4.15632748715606
30
0
0
SPLINE
5
DC
100
AcDbEntity
8
1
62
256
6
ByLayer
370
13
48
1
60
0
100
AcDbSpline
70
4
71
3
72
32
73
28
40
0
40
0
40
0
40
0
40
0.0360041458477091
40
0.0360041458477091
40
0.0757877333345751
40
0.0757877333345751
40
0.155354908308305
40
0.155354908308305
40
0.19513849579517
40
0.19513849579517
40
0.234922083282035
40
0.234922083282035
40
0.394056433229496
40
0.394056433229496
40
0.473623608203226
40
0.473623608203226
40
0.553190783176956
40
0.553190783176956
40
0.712325133124418
40
0.712325133124418
40
0.752108720611284
40
0.752108720611284
40
0.79189230809815
40
0.79189230809815
40
0.871459483071881
40
0.871459483071881
40
1
40
1
40
1
40
1
41
1
10
35.1909553135564
20
-4.15632748711764
30
0
41
1
10
34.9283308189767
20
-4.1304401425871
30
0
41
1
10
34.6651899804094
20
-4.09876420580221
30
0
41
1
10
34.1096657213958
20
-4.01993599139098
30
0
41
1
10
33.8169907774905
20
-3.97148485601696
30
0
41
1
10
32.9399846160776
20
-3.80625400858415
30
0
41
1
10
32.3558947915402
20
-3.66935835907066
30
0
41
1
10
31.4795416534253
20
-3.42822004561506
30
0
41
1
10
31.1868554226679
20
-3.34166644718161
30
0
41
1
10
30.603169777437
20
-3.1580245214856
30
0
41
1
10
30.3122209497872
20
-3.06100557210573
30
0
41
1
10
28.8606650252028
20
-2.55228449994729
30
0
41
1
10
27.709454210919
20
-2.06948943227843
30
0
41
1
10
25.9714354946118
20
-1.27868684958344
30
0
41
1
10
25.3898427343501
20
-1.0039304812498
30
0
41
1
10
24.219822944807
20
-0.441447101172997
30
0
41
1
10
23.638742506827
20
-0.157461331601041
30
0
41
1
10
21.9006525594004
20
0.688997049671656
30
0
41
1
10
20.7487689418288
20
1.24573634501195
30
0
41
1
10
19.2954273088329
20
1.88701691862818
30
0
41
1
10
19.0040903436362
20
2.01255858255425
30
0
41
1
10
18.4194927936507
20
2.25700664621004
30
0
41
1
10
18.12672554637
20
2.37569607085709
30
0
41
1
10
17.2526738837029
20
2.71749892753633
30
0
41
1
10
16.6730634860129
20
2.92687844672511
30
0
41
1
10
15.1596414105008
20
3.41897495781225
30
0
41
1
10
14.2272581099586
20
3.66696208666167
30
0
41
1
10
13.2881317088145
20
3.8481698918786
30
0
0
SPLINE
5
DD
100
AcDbEntity
8
1
62
256
6
ByLayer
370
18
48
1
60
0
100
AcDbSpline
70
4
71
3
72
40
73
36
40
0
40
0
40
0
40
0
40
0.0724192405017465
40
0.0724192405017465
40
0.144838481003493
40
0.144838481003493
40
0.217257721505239
40
0.217257721505239
40
0.253467341756113
40
0.253467341756113
40
0.289676962006986
40
0.289676962006986
40
0.325886582257859
40
0.325886582257859
40
0.362096202508732
40
0.362096202508732
40
0.398305822759607
40
0.398305822759607
40
0.434515443010482
40
0.434515443010482
40
0.579353924013979
40
0.579353924013979
40
0.651773164515728
40
0.651773164515728
40
0.687982784766602
40
0.687982784766602
40
0.724192405017477
40
0.724192405017477
40
0.869030886020975
40
0.869030886020975
40
0.941450126522724
40
0.941450126522724
40
0.9776597467736
40
0.9776597467736
40
1
40
1
40
1
40
1
41
1
10
15.7166972285129
20
2.81278053865577
30
0
41
1
10
16.1981838815935
20
2.63074711211482
30
0
41
1
10
16.6770707607586
20
2.43729339273131
30
0
41
1
10
17.6313099235626
20
2.03090538521852
30
0
41
1
10
18.1066644651774
20
1.81794612928601
30
0
41
1
10
19.0568843602287
20
1.3782939714437
30
0
41
1
10
19.5315189507671
20
1.15117088707359
30
0
41
1
10
20.24461065705
20
0.803091274313005
30
0
41
1
10
20.4827442392576
20
0.686340409140712
30
0
41
1
10
20.9591308962275
20
0.449803949899717
30
0
41
1
10
21.1977916471655
20
0.330854357504393
30
0
41
1
10
21.6764059529645
20
0.0923411516934038
30
0
41
1
10
21.9161815296333
20
-0.0276048209715043
30
0
41
1
10
22.3972574340923
20
-0.267658564112992
30
0
41
1
10
22.6377830323207
20
-0.38791565453036
30
0
41
1
10
23.1171172149638
20
-0.625777578240019
30
0
41
1
10
23.3559390679285
20
-0.744356662093907
30
0
41
1
10
23.8330022565385
20
-0.97852176237339
30
0
41
1
10
24.0712268047066
20
-1.09415750915622
30
0
41
1
10
25.2604931527615
20
-1.66586489092967
30
0
41
1
10
26.2070206475486
20
-2.10021161722463
30
0
41
1
10
27.6358224943356
20
-2.68683826221474
30
0
41
1
10
28.1133186727313
20
-2.87205464781573
30
0
41
1
10
28.8335461089772
20
-3.13048969274152
30
0
41
1
10
29.0744396539935
20
-3.21325946379747
30
0
41
1
10
29.5537636093117
20
-3.37075668279675
30
0
41
1
10
29.792855121016
20
-3.44542993801031
30
0
41
1
10
30.9856579301336
20
-3.79850863402749
30
0
41
1
10
31.9324393448683
20
-4.01463446314921
30
0
41
1
10
33.355997594011
20
-4.2273852555403
30
0
41
1
10
33.831233349837
20
-4.27966388741521
30
0
41
1
10
34.5467709294414
20
-4.32891824105417
30
0
41
1
10
34.7857976306412
20
-4.34045583059111
30
0
41
1
10
35.1733065685523
20
-4.35107984655372
30
0
41
1
10
35.3215798696156
20
-4.3532338033281
30
0
41
1
10
35.4698226469664
20
-4.35348066491127
30
0
0
SPLINE
5
DE
100
AcDbEntity
8
1
62
256
6
ByLayer
370
18
48
1
60
0
100
AcDbSpline
70
4
71
3
72
16
73
12
40
0
40
0
40
0
40
0
40
0.0615642268720169
40
0.0615642268720169
40
0.530782113436009
40
0.530782113436009
40
0.765391056718005
40
0.765391056718005
40
0.882695528359003
40
0.882695528359003
40
1
40
1
40
1
40
1
41
1
10
55.3621090972859
20
2.91405749898001
30
0
41
1
10
55.4879583568455
20
2.96189906142161
30
0
41
1
10
55.6137184093196
20
3.00881036484623
30
0
41
1
10
56.6953154353519
20
3.40407083118626
30
0
41
1
10
57.6414339301995
20
3.69403679960107
30
0
41
1
10
59.061330293677
20
4.02388386648317
30
0
41
1
10
59.5344640142329
20
4.11656575771093
30
0
41
1
10
60.2465069627697
20
4.22740056480342
30
0
41
1
10
60.4842963318897
20
4.25964161076107
30
0
41
1
10
60.9605541018631
20
4.31469767367008
30
0
41
1
10
61.1993862441213
20
4.33735489714036
30
0
41
1
10
61.4386076173398
20
4.35517132704783
30
0
0
SPLINE
5
DF
100
AcDbEntity
8
1
62
256
6
ByLayer
370
18
48
1
60
0
100
AcDbSpline
70
4
71
3
72
8
73
4
40
0
40
0
40
0
40
0
40
1
40
1
40
1
40
1
41
1
10
62.9997682343732
20
0.0852143207783342
30
0
41
1
10
62.9289198903459
20
0.276274255847085
30
0
41
1
10
62.859761419118
20
0.468856210289147
30
0
41
1
10
62.7920923840411
20
0.662929702545625
30
0
0
SPLINE
5
E0
100
AcDbEntity
8
1
62
256
6
ByLayer
370
18
48
1
60
0
100
AcDbSpline
70
4
71
3
72
24
73
20
40
0
40
0
40
0
40
0
40
0.0602888172468001
40
0.111999767504805
40
0.148570300969984
40
0.175429180857315
40
0.200779801592997
40
0.224727955201319
40
0.247835416205619
40
0.313172778376627
40
0.382869869112929
40
0.463926330863094
40
0.547439335868998
40
0.631090806120427
40
0.737121761559291
40
0.84386727518777
40
0.95273532601832
40
0.996069133774314
40
1
40
1
40
1
40
1
41
1
10
9.71172404127657
20
-4.1941227672626
30
0
41
1
10
9.93966018178003
20
-4.19464304126416
30
0
41
1
10
10.3631081397821
20
-4.19555718576348
30
0
41
1
10
10.9247295897972
20
-4.19645144339276
30
0
41
1
10
11.3601321699214
20
-4.1973160876457
30
0
41
1
10
11.6955514096199
20
-4.19806273270774
30
0
41
1
10
11.9834671162041
20
-4.19863860009045
30
0
41
1
10
12.2572195167133
20
-4.19909902985498
30
0
41
1
10
12.682134048777
20
-4.19973176188637
30
0
41
1
10
13.2800318014055
20
-4.2009730299186
30
0
41
1
10
14.0970093433752
20
-4.20241268412494
30
0
41
1
10
14.9827082644688
20
-4.20388150031047
30
0
41
1
10
15.9211619134665
20
-4.20561017617857
30
0
41
1
10
16.9540422255523
20
-4.20742661543986
30
0
41
1
10
18.0747397488006
20
-4.20985802548
30
0
41
1
10
19.2908425351865
20
-4.21126974459995
30
0
41
1
10
20.2696922653147
20
-4.2155455981609
30
0
41
1
10
20.8601967670409
20
-4.2148297064993
30
0
41
1
10
21.0387199152179
20
-4.21507105594139
30
0
41
1
10
21.0535664159849
20
-4.21509175671346
30
0
0
SPLINE
5
E1
100
AcDbEntity
8
1
62
256
6
ByLayer
370
18
48
1
60
0
100
AcDbSpline
70
4
71
3
72
24
73
20
40
0
40
0
40
0
40
0
40
0.0289393629365787
40
0.0817090286027047
40
0.139697733499744
40
0.202185296838469
40
0.277413557166496
40
0.349220307313303
40
0.416075367278499
40
0.510169005958822
40
0.596715050724805
40
0.687376115555556
40
0.773575093328418
40
0.827946451196619
40
0.874324159479623
40
0.922061958251936
40
0.955981872274999
40
0.998848382851803
40
1
40
1
40
1
40
1
41
1
10
48.2308469201565
20
4.26210252818595
30
0
41
1
10
48.1342497595092
20
4.26198605951976
30
0
41
1
10
47.8614916298575
20
4.26165682017762
30
0
41
1
10
47.3949884928905
20
4.26039381492723
30
0
41
1
10
46.8164767642006
20
4.26064166929487
30
0
41
1
10
46.1629569787659
20
4.2595460815435
30
0
41
1
10
45.4633011929726
20
4.25691083473578
30
0
41
1
10
44.7490574701418
20
4.25736979462098
30
0
41
1
10
43.971821150579
20
4.25391835058056
30
0
41
1
10
43.1453563547
20
4.25496659798907
30
0
41
1
10
42.2394098038946
20
4.25147238959826
30
0
41
1
10
41.3598118845229
20
4.25147338242624
30
0
41
1
10
40.5876705634926
20
4.24899846085106
30
0
41
1
10
39.9633916905664
20
4.24845771638462
30
0
41
1
10
39.4675796977207
20
4.24773028784961
30
0
41
1
10
39.0399318979652
20
4.24677889409742
30
0
41
1
10
38.6245208149386
20
4.24592173374333
30
0
41
1
10
38.3642907542471
20
4.24553877978101
30
0
41
1
10
38.2173132635898
20
4.24530802658538
30
0
41
1
10
38.2134679862909
20
4.24530197975315
30
0
0
SPLINE
5
E2
100
AcDbEntity
8
1
62
256
6
ByLayer
370
18
48
1
60
0
100
AcDbSpline
70
4
71
3
72
21
73
17
40
0
40
0
40
0
40
0
40
0.0294190650138331
40
0.0804836888287228
40
0.135762769059315
40
0.226406189729274
40
0.324524385766427
40
0.418349797338232
40
0.540045696736779
40
0.656922184427695
40
0.776991593382198
40
0.851198691447937
40
0.925795506304991
40
0.958107789868343
40
0.999339831705635
40
1
40
1
40
1
40
1
41
1
10
21.0525200403897
20
4.21509749352035
30
0
41
1
10
20.9544711437136
20
4.21509068544319
30
0
41
1
10
20.6862301400154
20
4.21494707665076
30
0
41
1
10
20.2337402845712
20
4.21502112193738
30
0
41
1
10
19.577178699815
20
4.21132423733619
30
0
41
1
10
18.7637766536347
20
4.21254158217772
30
0
41
1
10
17.8219088936041
20
4.20854372134559
30
0
41
1
10
16.7765353019072
20
4.20729736832709
30
0
41
1
10
15.6686404641652
20
4.20538246389017
30
0
41
1
10
14.4732787700226
20
4.20272225164229
30
0
41
1
10
13.4361763852102
20
4.20134069940198
30
0
41
1
10
12.5400608409089
20
4.19944665125661
30
0
41
1
10
11.9362652632906
20
4.19859967525153
30
0
41
1
10
11.4427620590886
20
4.19749950419313
30
0
41
1
10
11.1954278370867
20
4.19698301857954
30
0
41
1
10
11.055801349954
20
4.19672160384337
30
0
41
1
10
11.0536010144857
20
4.19671749161907
30
0
0
SPLINE
5
E3
100
AcDbEntity
8
1
62
256
6
ByLayer
370
18
48
1
60
0
100
AcDbSpline
70
4
71
3
72
11
73
7
40
0
40
0
40
0
40
0
40
0.209837944715157
40
0.451996720463398
40
0.726705850567273
40
1
40
1
40
1
40
1
41
1
10
35.1683825500014
20
-0.0562796895471536
30
0
41
1
10
35.0641926424161
20
-0.0314416111872617
30
0
41
1
10
34.8401211847143
20
0.0277572727370341
30
0
41
1
10
34.4812101153264
20
0.143016287439679
30
0
41
1
10
34.0922401400979
20
0.29205577699986
30
0
41
1
10
33.8234901220567
20
0.414418965814946
30
0
41
1
10
33.6897082078079
20
0.480038325262285
30
0
0
SPLINE
5
E4
100
AcDbEntity
8
1
62
256
6
ByLayer
370
18
48
1
60
0
100
AcDbSpline
70
4
71
3
72
11
73
7
40
0
40
0
40
0
40
0
40
0.306793722675218
40
0.583253118979716
40
0.829424131672135
40
1
40
1
40
1
40
1
41
1
10
21.340409468637
20
0.0566156072621595
30
0
41
1
10
21.4950520136535
20
0.019948440506397
30
0
41
1
10
21.7905218463179
20
-0.0618686182148451
30
0
41
1
10
22.2143408256842
20
-0.211165767414315
30
0
41
1
10
22.5720890163572
20
-0.360121928927981
30
0
41
1
10
22.790716022912
20
-0.464843477699844
30
0
41
1
10
22.8806803913169
20
-0.510025208581311
30
0
0
SPLINE
5
E5
100
AcDbEntity
8
1
62
256
6
ByLayer
370
18
48
1
60
0
100
AcDbSpline
70
4
71
1
72
4
73
2
40
0
40
0
40
1
40
1
41
1
10
61.3076846014686
20
0.2946038489209
30
0
41
1
10
60.7754865486795
20
0.534378627346058
30
0
0
SPLINE
5
E6
100
AcDbEntity
8
1
62
256
6
ByLayer
370
18
48
1
60
0
100
AcDbSpline
70
4
71
3
72
23
73
19
40
0
40
0
40
0
40
0
40
0.0675906169061635
40
0.12316004955764
40
0.161539179014908
40
0.192790834844736
40
0.219615061479766
40
0.244174031423887
40
0.288806750574313
40
0.337155321094507
40
0.38106722244401
40
0.463990280204174
40
0.544699578472801
40
0.631574737344568
40
0.79268717988353
40
0.952625996235402
40
0.994538651131288
40
1
40
1
40
1
40
1
41
1
10
36.9104876157708
20
-4.24300760183402
30
0
41
1
10
37.1655868753241
20
-4.24349883434721
30
0
41
1
10
37.6304142894408
20
-4.24434819704663
30
0
41
1
10
38.2403385208921
20
-4.24535580432357
30
0
41
1
10
38.712729076216
20
-4.24606835947489
30
0
41
1
10
39.0766189095222
20
-4.24688198571275
30
0
41
1
10
39.3886059408971
20
-4.24754576871595
30
0
41
1
10
39.7510643003637
20
-4.24816563333519
30
0
41
1
10
40.1948049403847
20
-4.24862978703732
30
0
41
1
10
40.7115951636934
20
-4.24947507833292
30
0
41
1
10
41.3729294507642
20
-4.25136893638285
30
0
41
1
10
42.1564502747352
20
-4.25131915290314
30
0
41
1
10
43.1021474159752
20
-4.2547800871393
30
0
41
1
10
44.3430416313898
20
-4.25440000589379
30
0
41
1
10
45.8829864356475
20
-4.25883171401142
30
0
41
1
10
47.2533476813339
20
-4.26005156868123
30
0
41
1
10
48.0358518673851
20
-4.26192907921526
30
0
41
1
10
48.2145975972289
20
-4.2621141332327
30
0
41
1
10
48.2352031373744
20
-4.26213414118635
30
0
0
SPLINE
5
E7
100
AcDbEntity
8
1
62
256
6
ByLayer
370
18
48
1
60
0
100
AcDbSpline
70
4
71
3
72
11
73
7
40
0
40
0
40
0
40
0
40
0.203351595671387
40
0.437637036438139
40
0.703084619791148
40
1
40
1
40
1
40
1
41
1
10
48.5394407582646
20
0.0568721169238131
30
0
41
1
10
48.6499948537444
20
0.0305564547605854
30
0
41
1
10
48.8872047205963
20
-0.0323979664499348
30
0
41
1
10
49.2655176287072
20
-0.155586657355798
30
0
41
1
10
49.6917004234622
20
-0.322961643060381
30
0
41
1
10
49.9908787131088
20
-0.4625331215627
30
0
41
1
10
50.1483465721234
20
-0.542253629992103
30
0
0
LINE
5
7B
100
AcDbEntity
8
SK1
62
256
6
ByLayer
370
18
48
1
60
0
100
AcDbLine
10
-40
20
2.5
30
0
11
-40
21
-2.5
31
0
39
0
210
0
220
0
230
1
0
LINE
5
7D
100
AcDbEntity
8
SK1
62
256
6
ByLayer
370
18
48
1
60
0
100
AcDbLine
10
0
20
-5
30
0
11
0
21
5
31
0
39
0
210
0
220
0
230
1
0
LINE
5
7E
100
AcDbEntity
8
SK1
62
256
6
ByLayer
370
18
48
1
60
0
100
AcDbLine
10
-38.556624
20
5
30
0
11
-38.556624
21
-5
31
0
39
0
210
0
220
0
230
1
0
LINE
5
7F
100
AcDbEntity
8
1
62
256
6
ByLayer
370
18
48
1
60
0
100
AcDbLine
10
0
20
-5
30
0
11
0
21
5
31
0
39
0
210
0
220
0
230
1
0
LINE
5
80
100
AcDbEntity
8
1
62
256
6
ByLayer
370
13
48
1
60
0
100
AcDbLine
10
0.690232
20
4.646064
30
0
11
0.690232
21
-4.646064
31
0
39
0
210
0
220
0
230
1
0
LINE
5
81
100
AcDbEntity
8
1
62
256
6
ByLayer
370
13
48
1
60
0
100
AcDbLine
10
1.381995
20
4.292129
30
0
11
1.381995
21
-4.292129
31
0
39
0
210
0
220
0
230
1
0
LINE
5
82
100
AcDbEntity
8
1
62
256
6
ByLayer
370
18
48
1
60
0
100
AcDbLine
10
60.864163
20
-2.208484
30
0
11
62.304206
21
-1.052379
31
0
39
0
210
0
220
0
230
1
0
LINE
5
83
100
AcDbEntity
8
80
62
256
6
ByLayer
370
18
48
1
60
0
100
AcDbLine
10
0
20
0
30
0
11
-5
21
0
31
0
39
0
210
0
220
0
230
1
0
LINE
5
84
100
AcDbEntity
8
4
62
256
6
ByLayer
370
18
48
0.05
60
0
100
AcDbLine
10
63
20
0
30
0
11
0
21
0
31
0
39
0
210
0
220
0
230
1
0
LINE
5
86
100
AcDbEntity
8
SK4
62
256
6
ByLayer
370
18
48
0.05
60
0
100
AcDbLine
10
68
20
0
30
0
11
-45
21
0
31
0
39
0
210
0
220
0
230
1
0
LINE
5
88
100
AcDbEntity
8
SK1
62
256
6
ByLayer
370
18
48
1
60
0
100
AcDbLine
10
-40
20
-2.5
30
0
11
-38.556624
21
-5
31
0
39
0
210
0
220
0
230
1
0
LINE
5
89
100
AcDbEntity
8
SK1
62
256
6
ByLayer
370
18
48
1
60
0
100
AcDbLine
10
-38.556624
20
5
30
0
11
-40
21
2.5
31
0
39
0
210
0
220
0
230
1
0
LINE
5
8A
100
AcDbEntity
8
SK1
62
256
6
ByLayer
370
18
48
1
60
0
100
AcDbLine
10
-38.556624
20
-5
30
0
11
0
21
-5
31
0
39
0
210
0
220
0
230
1
0
LINE
5
8B
100
AcDbEntity
8
SK1
62
256
6
ByLayer
370
18
48
1
60
0
100
AcDbLine
10
0
20
5
30
0
11
-38.556624
21
5
31
0
39
0
210
0
220
0
230
1
0
LINE
5
8C
100
AcDbEntity
8
1
62
256
6
ByLayer
370
18
48
1
60
0
100
AcDbLine
10
1.381995
20
-4.292129
30
0
11
9.199695
21
-4.306201
31
0
39
0
210
0
220
0
230
1
0
LINE
5
8D
100
AcDbEntity
8
1
62
256
6
ByLayer
370
18
48
1
60
0
100
AcDbLine
10
35.467311
20
-4.353482
30
0
11
36.398608
21
-4.355159
31
0
39
0
210
0
220
0
230
1
0
LINE
5
8E
100
AcDbEntity
8
1
62
256
6
ByLayer
370
18
48
1
60
0
100
AcDbLine
10
36.398608
20
4.355159
30
0
11
35.467311
21
4.353482
31
0
39
0
210
0
220
0
230
1
0
LINE
5
8F
100
AcDbEntity
8
1
62
256
6
ByLayer
370
18
48
1
60
0
100
AcDbLine
10
9.199695
20
4.306201
30
0
11
1.381995
21
4.292129
31
0
39
0
210
0
220
0
230
1
0
LINE
5
90
100
AcDbEntity
8
81
62
256
6
ByLayer
370
18
48
1
60
0
100
AcDbLine
10
63
20
0
30
0
11
68
21
0
31
0
39
0
210
0
220
0
230
1
0
LINE
5
91
100
AcDbEntity
8
SK2
62
256
6
ByLayer
370
13
48
1
60
0
100
AcDbLine
10
-48.625163
20
-5
30
0
11
-48.625163
21
35.857173
31
0
39
0
210
0
220
0
230
1
0
LINE
5
93
100
AcDbEntity
8
SK2
62
256
6
ByLayer
370
13
48
1
60
0
100
AcDbLine
10
-41.5875
20
5
30
0
11
-50.625163
21
5
31
0
39
0
210
0
220
0
230
1
0
LINE
5
94
100
AcDbEntity
8
SK2
62
256
6
ByLayer
370
13
48
1
60
0
100
AcDbLine
10
-41.5875
20
-5
30
0
11
-50.625163
21
-5
31
0
39
0
210
0
220
0
230
1
0
LINE
5
95
100
AcDbEntity
8
1
62
256
6
ByLayer
370
18
48
1
60
1
100
AcDbLine
10
-48.625163
20
5
30
0
11
-48.164379
21
1.500002
31
0
39
0
210
0
220
0
230
1
0
LINE
5
96
100
AcDbEntity
8
1
62
256
6
ByLayer
370
18
48
1
60
1
100
AcDbLine
10
-48.164379
20
1.500002
30
0
11
-49.085946
21
1.499998
31
0
39
0
210
0
220
0
230
1
0
LINE
5
97
100
AcDbEntity
8
1
62
256
6
ByLayer
370
18
48
1
60
1
100
AcDbLine
10
-49.085946
20
1.499998
30
0
11
-48.625163
21
5
31
0
39
0
210
0
220
0
230
1
0
LINE
5
98
100
AcDbEntity
8
1
62
256
6
ByLayer
370
18
48
1
60
1
100
AcDbLine
10
-48.625163
20
-5
30
0
11
-49.085946
21
-1.500002
31
0
39
0
210
0
220
0
230
1
0
LINE
5
99
100
AcDbEntity
8
1
62
256
6
ByLayer
370
18
48
1
60
1
100
AcDbLine
10
-49.085946
20
-1.500002
30
0
11
-48.164379
21
-1.499998
31
0
39
0
210
0
220
0
230
1
0
LINE
5
9A
100
AcDbEntity
8
1
62
256
6
ByLayer
370
18
48
1
60
1
100
AcDbLine
10
-48.164379
20
-1.499998
30
0
11
-48.625163
21
-5
31
0
39
0
210
0
220
0
230
1
0
LINE
5
9B
100
AcDbEntity
8
2
62
256
6
ByLayer
370
13
48
1
60
0
100
AcDbLine
10
75.083343
20
-4.4
30
0
11
75.083343
21
32.110193
31
0
39
0
210
0
220
0
230
1
0
LINE
5
9D
100
AcDbEntity
8
2
62
256
6
ByLayer
370
13
48
1
60
0
100
AcDbLine
10
62.898
20
4.4
30
0
11
77.083343
21
4.4
31
0
39
0
210
0
220
0
230
1
0
LINE
5
9E
100
AcDbEntity
8
2
62
256
6
ByLayer
370
13
48
1
60
0
100
AcDbLine
10
62.898
20
-4.4
30
0
11
77.083343
21
-4.4
31
0
39
0
210
0
220
0
230
1
0
LINE
5
9F
100
AcDbEntity
8
1
62
256
6
ByLayer
370
18
48
1
60
1
100
AcDbLine
10
75.083343
20
4.4
30
0
11
75.544126
21
0.900002
31
0
39
0
210
0
220
0
230
1
0
LINE
5
A0
100
AcDbEntity
8
1
62
256
6
ByLayer
370
18
48
1
60
1
100
AcDbLine
10
75.544126
20
0.900002
30
0
11
74.622559
21
0.899998
31
0
39
0
210
0
220
0
230
1
0
LINE
5
A1
100
AcDbEntity
8
1
62
256
6
ByLayer
370
18
48
1
60
1
100
AcDbLine
10
74.622559
20
0.899998
30
0
11
75.083343
21
4.4
31
0
39
0
210
0
220
0
230
1
0
LINE
5
A2
100
AcDbEntity
8
1
62
256
6
ByLayer
370
18
48
1
60
1
100
AcDbLine
10
75.083343
20
-4.4
30
0
11
74.622559
21
-0.900002
31
0
39
0
210
0
220
0
230
1
0
LINE
5
A3
100
AcDbEntity
8
1
62
256
6
ByLayer
370
18
48
1
60
1
100
AcDbLine
10
74.622559
20
-0.900002
30
0
11
75.544126
21
-0.899998
31
0
39
0
210
0
220
0
230
1
0
LINE
5
A4
100
AcDbEntity
8
1
62
256
6
ByLayer
370
18
48
1
60
1
100
AcDbLine
10
75.544126
20
-0.899998
30
0
11
75.083343
21
-4.4
31
0
39
0
210
0
220
0
230
1
0
LINE
5
EE
100
AcDbEntity
8
1
62
256
6
ByLayer
370
18
48
1
60
1
100
AcDbLine
10
-48.625163
20
5
30
0
11
-48.164379
21
1.500002
31
0
39
0
210
0
220
0
230
1
0
LINE
5
EF
100
AcDbEntity
8
1
62
256
6
ByLayer
370
18
48
1
60
1
100
AcDbLine
10
-48.164379
20
1.500002
30
0
11
-49.085946
21
1.499998
31
0
39
0
210
0
220
0
230
1
0
LINE
5
F0
100
AcDbEntity
8
1
62
256
6
ByLayer
370
18
48
1
60
1
100
AcDbLine
10
-49.085946
20
1.499998
30
0
11
-48.625163
21
5
31
0
39
0
210
0
220
0
230
1
0
LINE
5
F2
100
AcDbEntity
8
1
62
256
6
ByLayer
370
18
48
1
60
1
100
AcDbLine
10
-48.625163
20
-5
30
0
11
-49.085946
21
-1.500002
31
0
39
0
210
0
220
0
230
1
0
LINE
5
F3
100
AcDbEntity
8
1
62
256
6
ByLayer
370
18
48
1
60
1
100
AcDbLine
10
-49.085946
20
-1.500002
30
0
11
-48.164379
21
-1.499998
31
0
39
0
210
0
220
0
230
1
0
LINE
5
F4
100
AcDbEntity
8
1
62
256
6
ByLayer
370
18
48
1
60
1
100
AcDbLine
10
-48.164379
20
-1.499998
30
0
11
-48.625163
21
-5
31
0
39
0
210
0
220
0
230
1
0
LINE
5
F8
100
AcDbEntity
8
1
62
256
6
ByLayer
370
18
48
1
60
1
100
AcDbLine
10
75.083343
20
4.4
30
0
11
75.544126
21
0.900002
31
0
39
0
210
0
220
0
230
1
0
LINE
5
F9
100
AcDbEntity
8
1
62
256
6
ByLayer
370
18
48
1
60
1
100
AcDbLine
10
75.544126
20
0.900002
30
0
11
74.622559
21
0.899998
31
0
39
0
210
0
220
0
230
1
0
LINE
5
FA
100
AcDbEntity
8
1
62
256
6
ByLayer
370
18
48
1
60
1
100
AcDbLine
10
74.622559
20
0.899998
30
0
11
75.083343
21
4.4
31
0
39
0
210
0
220
0
230
1
0
LINE
5
FC
100
AcDbEntity
8
1
62
256
6
ByLayer
370
18
48
1
60
1
100
AcDbLine
10
75.083343
20
-4.4
30
0
11
74.622559
21
-0.900002
31
0
39
0
210
0
220
0
230
1
0
LINE
5
FD
100
AcDbEntity
8
1
62
256
6
ByLayer
370
18
48
1
60
1
100
AcDbLine
10
74.622559
20
-0.900002
30
0
11
75.544126
21
-0.899998
31
0
39
0
210
0
220
0
230
1
0
LINE
5
FE
100
AcDbEntity
8
1
62
256
6
ByLayer
370
18
48
1
60
1
100
AcDbLine
10
75.544126
20
-0.899998
30
0
11
75.083343
21
-4.4
31
0
39
0
210
0
220
0
230
1
0
MTEXT
5
E8
100
AcDbEntity
8
SK6
62
256
6
ByLayer
370
13
48
1
60
0
100
AcDbMText
10
-16.793293
20
36.940328
30
0
210
0
220
0
230
1
1
\W0.7433;860.1-0880-045A1-PM P1BM
40
3.5
41
0
44
1.084337
50
0
71
7
72
5
7
iso_b_vert
0
MTEXT
5
EC
100
AcDbEntity
8
SK2
62
256
6
ByLayer
370
18
48
1
60
0
100
AcDbMText
10
-50.189796
20
18.409024
30
0
210
0
220
0
230
1
1
%%c
40
3.5
41
0
44
1.084337
50
90
71
7
72
5
7
iso_b_vert
0
MTEXT
5
ED
100
AcDbEntity
8
SK2
62
256
6
ByLayer
370
18
48
1
60
0
100
AcDbMText
10
-50.189796
20
23.63168
30
0
210
0
220
0
230
1
1
\W0.6930;10,000
40
3.5
41
0
44
1.084337
50
90
71
7
72
5
7
iso_b_vert
0
MTEXT
5
F6
100
AcDbEntity
8
2
62
256
6
ByLayer
370
18
48
1
60
0
100
AcDbMText
10
73.518709
20
16.40211
30
0
210
0
220
0
230
1
1
%%c
40
3.5
41
0
44
1.084337
50
90
71
7
72
5
7
iso_b_vert
0
MTEXT
5
F7
100
AcDbEntity
8
2
62
256
6
ByLayer
370
18
48
1
60
0
100
AcDbMText
10
73.518709
20
21.624766
30
0
210
0
220
0
230
1
1
\W0.7317;8,800
40
3.5
41
0
44
1.084337
50
90
71
7
72
5
7
iso_b_vert
0
HATCH
5
F1
100
AcDbEntity
8
SK2
62
256
6
ByLayer
370
13
48
1
60
0
100
AcDbHatch
10
0
20
0
30
0
210
0
220
0
230
1
2
ANSI31
70
0
71
0
91
1
92
5
93
3
72
1
10
-48.6251625675374
20
5
11
-48.1643788259847
21
1.50000169255318
72
1
10
-48.1643788259847
20
1.50000169255318
11
-49.0859463090902
21
1.49999830744682
72
1
10
-49.0859463090902
20
1.49999830744682
11
-48.6251625675374
21
5
97
0
75
0
76
1
52
0
41
0.0062
77
0
78
1
53
45
43
0
44
0
45
-0.0139193969876572
46
0.0139193969876572
79
0
47
0
98
1
10
0
20
0
0
HATCH
5
F5
100
AcDbEntity
8
SK2
62
256
6
ByLayer
370
13
48
1
60
0
100
AcDbHatch
10
0
20
0
30
0
210
0
220
0
230
1
2
ANSI31
70
0
71
0
91
1
92
5
93
3
72
1
10
-48.6251625675374
20
-5
11
-49.0859463090902
21
-1.50000169255318
72
1
10
-49.0859463090902
20
-1.50000169255318
11
-48.1643788259847
21
-1.49999830744682
72
1
10
-48.1643788259847
20
-1.49999830744682
11
-48.6251625675374
21
-5
97
0
75
0
76
1
52
0
41
0.0062
77
0
78
1
53
45
43
0
44
0
45
-0.0139193969876572
46
0.0139193969876572
79
0
47
0
98
1
10
0
20
0
0
HATCH
5
FB
100
AcDbEntity
8
2
62
256
6
ByLayer
370
13
48
1
60
0
100
AcDbHatch
10
0
20
0
30
0
210
0
220
0
230
1
2
ANSI31
70
0
71
0
91
1
92
5
93
3
72
1
10
75.083342615295
20
4.40000000000001
11
75.5441263568477
21
0.90000169255319
72
1
10
75.5441263568477
20
0.90000169255319
11
74.6225588737422
21
0.899998307446822
72
1
10
74.6225588737422
20
0.899998307446822
11
75.083342615295
21
4.40000000000001
97
0
75
0
76
1
52
0
41
0.0062
77
0
78
1
53
45
43
0
44
0
45
-0.0139193969876572
46
0.0139193969876572
79
0
47
0
98
1
10
0
20
0
0
HATCH
5
FF
100
AcDbEntity
8
2
62
256
6
ByLayer
370
13
48
1
60
0
100
AcDbHatch
10
0
20
0
30
0
210
0
220
0
230
1
2
ANSI31
70
0
71
0
91
1
92
5
93
3
72
1
10
75.083342615295
20
-4.39999999999998
11
74.6225588737422
21
-0.900001692553161
72
1
10
74.6225588737422
20
-0.900001692553161
11
75.5441263568477
21
-0.899998307446793
72
1
10
75.5441263568477
20
-0.899998307446793
11
75.083342615295
21
-4.39999999999998
97
0
75
0
76
1
52
0
41
0.0062
77
0
78
1
53
45
43
0
44
0
45
-0.0139193969876572
46
0.0139193969876572
79
0
47
0
98
1
10
0
20
0
0
DIMENSION
5
101
100
AcDbEntity
8
2
62
256
6
ByLayer
370
13
48
1
60
0
100
AcDbDimension
2
_U0
10
61.3105
20
-14.613398
30
0
11
30.65525
21
-14.613398
31
0
70
32
71
1
72
1
41
1
210
0
220
0
230
1
3
Standard
100
AcDbAlignedDimension
13
0
23
0
33
0
14
61.3105
24
-4.4
34
0
50
0
100
AcDbRotatedDimension
1001
ACAD
1000
DSTYLE
1002
{
1070
   371
1070
    13
1070
   372
1070
    13
1070
   170
1070
     0
1070
   144
1040
1.0
1070
   277
1070
     2
1070
   278
1070
    44
1070
   146
1040
1.0
1070
   345
1005
16
1070
   347
1005
16
1070
   346
1005
16
1070
   344
1005
0
1070
   343
1005
0
1070
   172
1070
     1
1070
    76
1070
     0
1070
    75
1070
     0
1070
   282
1070
     0
1070
   281
1070
     0
1070
    71
1070
     0
1070
    74
1070
     0
1070
   279
1070
     0
1070
   173
1070
     1
1070
   340
1005
E9
1070
   271
1070
     2
1070
   272
1070
     2
1070
    77
1070
     1
1070
    73
1070
     1
1070
   171
1070
     3
1070
   274
1070
     4
1070
   177
1070
    35
1070
   176
1070
    35
1070
   178
1070
    35
1070
    48
1040
-0.1
1070
    41
1040
3.5
1070
   147
1040
1.75
1070
    42
1040
1.5875
1070
    44
1040
2.0
1070
   140
1040
3.5
1002
}
1001
ACAD_DSTYLE_DIM_LINETYPE
1070
   380
1005
16
1001
ACAD_DSTYLE_DIM_EXT1_LINETYPE
1070
   381
1005
16
1001
ACAD_DSTYLE_DIM_EXT2_LINETYPE
1070
   382
1005
16
0
DIMENSION
5
11A
100
AcDbEntity
8
SK2
62
256
6
ByLayer
370
13
48
1
60
0
100
AcDbDimension
2
_U1
10
63
20
-33.692985
30
0
11
11.5
21
-33.692985
31
0
70
32
71
1
72
1
41
1
210
0
220
0
230
1
3
Standard
100
AcDbAlignedDimension
13
-40
23
-5
33
0
14
63
24
0
34
0
50
0
100
AcDbRotatedDimension
1001
ACAD
1000
DSTYLE
1002
{
1070
   371
1070
    13
1070
   372
1070
    13
1070
   170
1070
     0
1070
   144
1040
1.0
1070
   277
1070
     2
1070
   278
1070
    44
1070
   146
1040
1.0
1070
   345
1005
16
1070
   347
1005
16
1070
   346
1005
16
1070
   344
1005
0
1070
   343
1005
0
1070
   172
1070
     1
1070
    76
1070
     0
1070
    75
1070
     0
1070
   282
1070
     0
1070
   281
1070
     0
1070
    71
1070
     0
1070
    74
1070
     0
1070
   279
1070
     0
1070
   173
1070
     1
1070
   340
1005
E9
1070
   271
1070
     2
1070
   272
1070
     2
1070
    77
1070
     1
1070
    73
1070
     1
1070
   171
1070
     3
1070
   274
1070
     4
1070
   177
1070
    35
1070
   176
1070
    35
1070
   178
1070
    35
1070
    48
1040
-0.1
1070
    41
1040
3.5
1070
   147
1040
1.75
1070
    42
1040
1.5875
1070
    44
1040
2.0
1070
   140
1040
3.5
1002
}
1001
ACAD_DSTYLE_DIM_LINETYPE
1070
   380
1005
16
1001
ACAD_DSTYLE_DIM_EXT1_LINETYPE
1070
   381
1005
16
1001
ACAD_DSTYLE_DIM_EXT2_LINETYPE
1070
   382
1005
16
0
DIMENSION
5
132
100
AcDbEntity
8
SK2
62
256
6
ByLayer
370
13
48
1
60
0
100
AcDbDimension
2
_U2
10
63
20
16.009119
30
0
11
40.155
21
16.009119
31
0
70
32
71
1
72
1
41
1
210
0
220
0
230
1
3
Standard
100
AcDbAlignedDimension
13
17.31
23
4.4
33
0
14
63
24
0
34
0
50
0
100
AcDbRotatedDimension
1001
ACAD
1000
DSTYLE
1002
{
1070
   371
1070
    13
1070
   372
1070
    13
1070
   170
1070
     0
1070
   144
1040
1.0
1070
   277
1070
     2
1070
   278
1070
    44
1070
   146
1040
1.0
1070
   345
1005
16
1070
   347
1005
16
1070
   346
1005
16
1070
   344
1005
0
1070
   343
1005
0
1070
   172
1070
     1
1070
    76
1070
     0
1070
    75
1070
     0
1070
   282
1070
     0
1070
   281
1070
     0
1070
    71
1070
     0
1070
    74
1070
     0
1070
   279
1070
     0
1070
   173
1070
     1
1070
   340
1005
E9
1070
   271
1070
     2
1070
   272
1070
     2
1070
    77
1070
     1
1070
    73
1070
     1
1070
   171
1070
     3
1070
   274
1070
     4
1070
   177
1070
    35
1070
   176
1070
    35
1070
   178
1070
    35
1070
    48
1040
-0.1
1070
    41
1040
3.5
1070
   147
1040
1.75
1070
    42
1040
1.5875
1070
    44
1040
2.0
1070
   140
1040
3.5
1002
}
1001
ACAD_DSTYLE_DIM_LINETYPE
1070
   380
1005
16
1001
ACAD_DSTYLE_DIM_EXT1_LINETYPE
1070
   381
1005
16
1001
ACAD_DSTYLE_DIM_EXT2_LINETYPE
1070
   382
1005
16
0
DIMENSION
5
14A
100
AcDbEntity
8
SK2
62
256
6
ByLayer
370
13
48
1
60
0
100
AcDbDimension
2
_U3
10
61.3105
20
-17.202503
30
0
11
80.25
21
-17.202503
31
0
70
32
71
1
72
1
41
1
210
0
220
0
230
1
3
Standard
100
AcDbAlignedDimension
13
63
23
0
33
0
14
61.3105
24
-4.4
34
0
50
0
100
AcDbRotatedDimension
1001
ACAD
1000
DSTYLE
1002
{
1070
   371
1070
    13
1070
   372
1070
    13
1070
   170
1070
     0
1070
   144
1040
1.0
1070
   277
1070
     2
1070
   278
1070
    44
1070
   146
1040
1.0
1070
   345
1005
16
1070
   347
1005
16
1070
   346
1005
16
1070
   344
1005
0
1070
   343
1005
0
1070
   172
1070
     1
1070
    76
1070
     0
1070
    75
1070
     0
1070
   282
1070
     0
1070
   281
1070
     0
1070
    71
1070
     0
1070
    74
1070
     0
1070
   279
1070
     0
1070
   173
1070
     1
1070
   340
1005
E9
1070
   271
1070
     2
1070
   272
1070
     2
1070
    77
1070
     1
1070
    73
1070
     1
1070
   171
1070
     3
1070
   274
1070
     4
1070
   177
1070
    35
1070
   176
1070
    35
1070
   178
1070
    35
1070
    48
1040
-0.1
1070
    41
1040
3.5
1070
   147
1040
1.75
1070
    42
1040
1.5875
1070
    44
1040
2.0
1070
   140
1040
3.5
1002
}
1001
ACAD_DSTYLE_DIM_LINETYPE
1070
   380
1005
16
1001
ACAD_DSTYLE_DIM_EXT1_LINETYPE
1070
   381
1005
16
1001
ACAD_DSTYLE_DIM_EXT2_LINETYPE
1070
   382
1005
16
0
DIMENSION
5
164
100
AcDbEntity
8
SK2
62
256
6
ByLayer
370
13
48
1
60
0
100
AcDbDimension
2
_U4
10
61.3105
20
-23.343428
30
0
11
10.65525
21
-23.343428
31
0
70
32
71
1
72
1
41
1
210
0
220
0
230
1
3
Standard
100
AcDbAlignedDimension
13
-40
23
-5
33
0
14
61.3105
24
-4.4
34
0
50
0
100
AcDbRotatedDimension
1001
ACAD
1000
DSTYLE
1002
{
1070
   371
1070
    13
1070
   372
1070
    13
1070
   170
1070
     0
1070
   144
1040
1.0
1070
   277
1070
     2
1070
   278
1070
    44
1070
   146
1040
1.0
1070
   345
1005
16
1070
   347
1005
16
1070
   346
1005
16
1070
   344
1005
0
1070
   343
1005
0
1070
   172
1070
     1
1070
    76
1070
     0
1070
    75
1070
     0
1070
   282
1070
     0
1070
   281
1070
     0
1070
    71
1070
     0
1070
    74
1070
     0
1070
   279
1070
     0
1070
   173
1070
     1
1070
   340
1005
E9
1070
   271
1070
     2
1070
   272
1070
     2
1070
    77
1070
     1
1070
    73
1070
     1
1070
   171
1070
     3
1070
   274
1070
     4
1070
   177
1070
    35
1070
   176
1070
    35
1070
   178
1070
    35
1070
    48
1040
-0.1
1070
    41
1040
3.5
1070
   147
1040
1.75
1070
    42
1040
1.5875
1070
    44
1040
2.0
1070
   140
1040
3.5
1002
}
1001
ACAD_DSTYLE_DIM_LINETYPE
1070
   380
1005
16
1001
ACAD_DSTYLE_DIM_EXT1_LINETYPE
1070
   381
1005
16
1001
ACAD_DSTYLE_DIM_EXT2_LINETYPE
1070
   382
1005
16
0
ENDSEC
0
SECTION
2
OBJECTS
0
DICTIONARY
5
1ec
330
0
100
AcDbDictionary
280
0
281
1
3
ACAD_GROUP
350
1ed
3
ACAD_MLINESTYLE
350
1ee
0
DICTIONARY
5
1ed
330
0
100
AcDbDictionary
280
0
281
1
0
DICTIONARY
5
1ee
330
0
100
AcDbDictionary
280
0
281
1
3
Standard
350
18
0
MLINESTYLE
5
18
330
1ee
100
AcDbMlineStyle
2
Standard
70
0
3

62
256
51
90
52
90
71
2
49
-0.5
62
256
6
ByLayer
49
0.5
62
256
6
ByLayer
0
RASTERVARIABLES
5
1da
330

100
AcDbRasterVariables
90
0
70
1
71
1
72
1
0
ENDSEC
0
EOF
