0
SECTION
2
HEADER
9
$ACADVER
1
AC1015
9
$DWGCODEPAGE
3
ANSI_1252
9
$HANDSEED
5
1fc
9
$ANGBASE
50
0
9
$ANGDIR
70
0
9
$ATTMODE
70
1
9
$AUNITS
70
0
9
$AUPREC
70
0
9
$CECOLOR
62
256
9
$CELTSCALE
40
1
9
$CELTYPE
6
ByLayer
9
$CELWEIGHT
370
18
9
$CLAYER
8
0
9
$CMLJUST
70
0
9
$CMLSCALE
40
1
9
$CMLSTYLE
2
Standard
9
$DIMSTYLE
2
Standard
9
$TEXTSIZE
40
0.2
9
$TEXTSTYLE
7
Standard
9
$LUNITS
70
2
9
$LUPREC
70
4
9
$EXTNAMES
290
1
9
$INSUNITS
70
4
9
$LTSCALE
40
1
9
$LWDISPLAY
290
1
9
$PDMODE
70
0
9
$PDSIZE
40
0
9
$PLINEGEN
70
0
0
ENDSEC
0
SECTION
2
CLASSES
0
CLASS
1
RASTERVARIABLES
2
AcDbRasterVariables
3
ISM
90
0
280
0
281
0
0
ENDSEC
0
SECTION
2
TABLES
0
TABLE
2
VPORT
5
1f2
100
AcDbSymbolTable
0
VPORT
5
1
100
AcDbSymbolTableRecord
100
AcDbViewportTableRecord
2
*Active
70
0
10
0
20
0
11
1
21
1
12
-1
22
1
13
0
23
0
14
0.5
24
0.5
15
10
25
10
16
0
26
0
36
1
17
0
27
0
37
0
0
ENDTAB
0
TABLE
2
LTYPE
5
1f3
100
AcDbSymbolTable
0
LTYPE
5
14
100
AcDbSymbolTableRecord
100
AcDbLinetypeTableRecord
70
0
2
ByBlock
3

72
65
73
0
40
0
0
LTYPE
5
15
100
AcDbSymbolTableRecord
100
AcDbLinetypeTableRecord
70
0
2
ByLayer
3

72
65
73
0
40
0
0
LTYPE
5
16
100
AcDbSymbolTableRecord
100
AcDbLinetypeTableRecord
70
0
2
Continuous
3
Solid line
72
65
73
0
40
0
0
LTYPE
5
6E
100
AcDbSymbolTableRecord
100
AcDbLinetypeTableRecord
70
0
2
CENTER
3
____ _ ____ _ ____ _ ____
72
65
73
4
40
47.5
49
22
74
0
49
-8.5
74
0
49
8.5
74
0
49
-8.5
74
0
0
LTYPE
5
6F
100
AcDbSymbolTableRecord
100
AcDbLinetypeTableRecord
70
0
2
DASHED
3
__ __ __ __ __ __ __ __ __
72
65
73
2
40
25.72
49
12.86
74
0
49
-12.86
74
0
0
ENDTAB
0
TABLE
2
LAYER
5
1f4
100
AcDbSymbolTable
0
LAYER
5
10
100
AcDbSymbolTableRecord
100
AcDbLayerTableRecord
2
0
70
0
62
7
6
Continuous
290
1
370
-3
390
0
0
LAYER
5
71
100
AcDbSymbolTableRecord
100
AcDbLayerTableRecord
2
80
70
0
62
-6
6
Continuous
290
1
370
-3
390
0
0
LAYER
5
73
100
AcDbSymbolTableRecord
100
AcDbLayerTableRecord
2
81
70
0
62
-3
6
Continuous
290
1
370
-3
390
0
0
LAYER
5
75
100
AcDbSymbolTableRecord
100
AcDbLayerTableRecord
2
1
70
0
62
4
6
Continuous
290
1
370
-3
390
0
0
LAYER
5
87
100
AcDbSymbolTableRecord
100
AcDbLayerTableRecord
2
4
70
0
62
-2
6
CENTER
290
1
370
-3
390
0
0
LAYER
5
9C
100
AcDbSymbolTableRecord
100
AcDbLayerTableRecord
2
2
70
0
62
7
6
Continuous
290
1
370
-3
390
0
0
LAYER
5
107
100
AcDbSymbolTableRecord
100
AcDbLayerTableRecord
2
Defpoints
70
0
62
7
6
Continuous
290
0
370
-3
390
0
0
LAYER
5
1de
100
AcDbSymbolTableRecord
100
AcDbLayerTableRecord
2
SK1
70
0
62
4
6
Continuous
290
1
370
-3
390
0
0
LAYER
5
1df
100
AcDbSymbolTableRecord
100
AcDbLayerTableRecord
2
SK4
70
0
62
2
6
CENTER
290
1
370
-3
390
0
0
LAYER
5
1e0
100
AcDbSymbolTableRecord
100
AcDbLayerTableRecord
2
SK2
70
0
62
7
6
Continuous
290
1
370
-3
390
0
0
LAYER
5
1e1
100
AcDbSymbolTableRecord
100
AcDbLayerTableRecord
2
SK6
70
0
62
5
6
Continuous
290
1
370
-3
390
0
0
ENDTAB
0
TABLE
2
STYLE
5
1f5
100
AcDbSymbolTable
0
STYLE
5
11
100
AcDbSymbolTableRecord
100
AcDbTextStyleTableRecord
2
Standard
3
txt
70
0
71
0
40
0
41
1
42
0
50
0
0
STYLE
5
EC
100
AcDbSymbolTableRecord
100
AcDbTextStyleTableRecord
2
iso_b_vert
3
simplex.shx
70
0
71
0
40
0
41
1
42
0
50
0
0
STYLE
5
ED
100
AcDbSymbolTableRecord
100
AcDbTextStyleTableRecord
2
DWGDirectTextStyle
3
simplex
70
0
71
0
40
0
41
1
42
0
50
0
0
ENDTAB
0
TABLE
2
DIMSTYLE
5
1f6
100
AcDbSymbolTable
100
AcDbDimStyleTable
0
DIMSTYLE
105
27
100
AcDbSymbolTableRecord
100
AcDbDimStyleTableRecord
2
Standard
70
0
3
<>
41
0.18
42
0.0625
44
0.18
140
0.18
147
0.09
73
0
74
0
77
1
271
2
275
0
278
52
280
0
340
11
0
ENDTAB
0
TABLE
2
VIEW
5
1f7
100
AcDbSymbolTable
0
ENDTAB
0
TABLE
2
UCS
5
1f8
100
AcDbSymbolTable
0
ENDTAB
0
TABLE
2
APPID
5
1f9
100
AcDbSymbolTable
0
APPID
5
12
100
AcDbSymbolTableRecord
100
AcDbRegAppTableRecord
2
ACAD
70
0
0
APPID
5
103
100
AcDbSymbolTableRecord
100
AcDbRegAppTableRecord
2
ACAD_DSTYLE_DIMBREAK
70
0
0
APPID
5
19D
100
AcDbSymbolTableRecord
100
AcDbRegAppTableRecord
2
ACAD_DSTYLE_DIM_LINETYPE
70
0
0
APPID
5
19E
100
AcDbSymbolTableRecord
100
AcDbRegAppTableRecord
2
ACAD_DSTYLE_DIM_EXT1_LINETYPE
70
0
0
APPID
5
19F
100
AcDbSymbolTableRecord
100
AcDbRegAppTableRecord
2
ACAD_DSTYLE_DIM_EXT2_LINETYPE
70
0
0
APPID
5
1DA
100
AcDbSymbolTableRecord
100
AcDbRegAppTableRecord
2
ACAD_MLEADERVER
70
0
0
ENDTAB
0
TABLE
2
BLOCK_RECORD
5
1fa
100
AcDbSymbolTable
0
BLOCK_RECORD
5
1F
100
AcDbSymbolTableRecord
100
AcDbBlockTableRecord
2
*Model_Space
340
0
70
0
0
BLOCK_RECORD
5
1B
100
AcDbSymbolTableRecord
100
AcDbBlockTableRecord
2
*Paper_Space
340
0
70
0
0
BLOCK_RECORD
5
23
100
AcDbSymbolTableRecord
100
AcDbBlockTableRecord
2
*Paper_Space0
340
0
70
0
0
BLOCK_RECORD
5
108
100
AcDbSymbolTableRecord
100
AcDbBlockTableRecord
2
*D1
340
0
70
0
0
BLOCK_RECORD
5
114
100
AcDbSymbolTableRecord
100
AcDbBlockTableRecord
2
_U0
340
0
70
0
0
BLOCK_RECORD
5
120
100
AcDbSymbolTableRecord
100
AcDbBlockTableRecord
2
*D3
340
0
70
0
0
BLOCK_RECORD
5
12C
100
AcDbSymbolTableRecord
100
AcDbBlockTableRecord
2
_U1
340
0
70
0
0
BLOCK_RECORD
5
138
100
AcDbSymbolTableRecord
100
AcDbBlockTableRecord
2
*D5
340
0
70
0
0
BLOCK_RECORD
5
144
100
AcDbSymbolTableRecord
100
AcDbBlockTableRecord
2
_U2
340
0
70
0
0
BLOCK_RECORD
5
150
100
AcDbSymbolTableRecord
100
AcDbBlockTableRecord
2
*D7
340
0
70
0
0
BLOCK_RECORD
5
15E
100
AcDbSymbolTableRecord
100
AcDbBlockTableRecord
2
_U3
340
0
70
0
0
BLOCK_RECORD
5
16A
100
AcDbSymbolTableRecord
100
AcDbBlockTableRecord
2
*D9
340
0
70
0
0
BLOCK_RECORD
5
176
100
AcDbSymbolTableRecord
100
AcDbBlockTableRecord
2
_U4
340
0
70
0
0
ENDTAB
0
ENDSEC
0
SECTION
2
BLOCKS
0
BLOCK
5
20
100
AcDbEntity
8
0
100
AcDbBlockBegin
2
*Model_Space
70
0
10
0
20
0
30
0
3
*Model_Space
0
ENDBLK
5
21
100
AcDbEntity
8
0
100
AcDbBlockEnd
0
BLOCK
5
1C
100
AcDbEntity
8
0
100
AcDbBlockBegin
2
*Paper_Space
70
0
10
0
20
0
30
0
3
*Paper_Space
0
ENDBLK
5
1D
100
AcDbEntity
8
0
100
AcDbBlockEnd
0
BLOCK
5
24
100
AcDbEntity
8
0
100
AcDbBlockBegin
2
*Paper_Space0
70
0
10
0
20
0
30
0
3
*Paper_Space0
0
ENDBLK
5
25
100
AcDbEntity
8
0
100
AcDbBlockEnd
0
BLOCK
5
109
100
AcDbEntity
8
0
100
AcDbBlockBegin
2
*D1
70
1
10
0
20
0
30
0
3
*D1
0
LINE
5
10B
100
AcDbEntity
8
0
62
256
6
ByLayer
370
-2
48
1
60
0
100
AcDbLine
10
0
20
-1.5875
30
0
11
0
21
-16.813398
31
0
39
0
210
0
220
0
230
1
0
LINE
5
10C
100
AcDbEntity
8
0
62
256
6
ByLayer
370
-2
48
1
60
0
100
AcDbLine
10
47.2392
20
-6.1875
30
0
11
47.2392
21
-16.813398
31
0
39
0
210
0
220
0
230
1
0
LINE
5
10D
100
AcDbEntity
8
0
62
256
6
ByLayer
370
-2
48
1
60
0
100
AcDbLine
10
3.5
20
-14.813398
30
0
11
43.7392
21
-14.813398
31
0
39
0
210
0
220
0
230
1
0
SOLID
5
10E
100
AcDbEntity
8
0
62
256
6
ByLayer
370
-1
48
1
60
0
100
AcDbTrace
10
3.5
20
-14.230065
30
0
11
3.5
21
-15.396732
31
0
12
0
22
-14.813398
32
0
13
0
23
-14.813398
33
0
39
0
210
0
220
0
230
1
0
SOLID
5
10F
100
AcDbEntity
8
0
62
256
6
ByLayer
370
-1
48
1
60
0
100
AcDbTrace
10
43.7392
20
-15.396732
30
0
11
43.7392
21
-14.230065
31
0
12
47.2392
22
-14.813398
32
0
13
47.2392
23
-14.813398
33
0
39
0
210
0
220
0
230
1
0
MTEXT
5
110
100
AcDbEntity
8
0
62
256
6
ByLayer
370
18
48
1
60
0
100
AcDbMText
10
23.6196
20
-7.813398
30
0
210
0
220
0
230
1
1
\A1;47.24
40
3.5
41
0
44
1
50
0
71
5
72
5
7
iso_b_vert
0
POINT
5
111
100
AcDbEntity
8
Defpoints
62
0
6
ByLayer
370
-1
48
1
60
0
100
AcDbPoint
10
0
20
0
30
0
39
0
210
0
220
0
230
1
50
360
0
POINT
5
112
100
AcDbEntity
8
Defpoints
62
0
6
ByLayer
370
-1
48
1
60
0
100
AcDbPoint
10
47.2392
20
-4.6
30
0
39
0
210
0
220
0
230
1
50
360
0
POINT
5
113
100
AcDbEntity
8
Defpoints
62
0
6
ByLayer
370
-1
48
1
60
0
100
AcDbPoint
10
47.2392
20
-14.813398
30
0
39
0
210
0
220
0
230
1
50
360
0
ENDBLK
5
10A
100
AcDbEntity
8
0
100
AcDbBlockEnd
0
BLOCK
5
11B
100
AcDbEntity
8
0
100
AcDbBlockBegin
2
_U0
70
0
10
0
20
0
30
0
3
_U0
0
MTEXT
5
115
100
AcDbEntity
8
2
62
256
6
ByLayer
370
13
48
1
60
0
100
AcDbMText
10
18.113768
20
-13.780765
30
0
210
0
220
0
230
1
1
\W0.7756;47,24
40
3.5
41
0
44
1.084337
50
0
71
7
72
5
7
iso_b_vert
0
LINE
5
116
100
AcDbEntity
8
2
62
256
6
ByLayer
370
13
48
1
60
0
100
AcDbLine
10
0
20
-1.5875
30
0
11
0
21
-16.813398
31
0
39
0
210
0
220
0
230
1
0
LINE
5
117
100
AcDbEntity
8
2
62
256
6
ByLayer
370
13
48
1
60
0
100
AcDbLine
10
47.2392
20
-6.1875
30
0
11
47.2392
21
-16.813398
31
0
39
0
210
0
220
0
230
1
0
LINE
5
118
100
AcDbEntity
8
2
62
256
6
ByLayer
370
13
48
1
60
0
100
AcDbLine
10
0
20
-14.813398
30
0
11
47.2392
21
-14.813398
31
0
39
0
210
0
220
0
230
1
0
SOLID
5
119
100
AcDbEntity
8
2
62
256
6
ByLayer
370
18
48
1
60
0
100
AcDbTrace
10
0
20
-14.813398
30
0
11
3.499998
21
-14.352615
31
0
12
3.500002
22
-15.274182
32
0
13
3.500002
23
-15.274182
33
0
39
0
210
0
220
0
230
1
0
SOLID
5
11A
100
AcDbEntity
8
2
62
256
6
ByLayer
370
18
48
1
60
0
100
AcDbTrace
10
47.2392
20
-14.813398
30
0
11
43.739202
21
-15.274182
31
0
12
43.739198
22
-14.352615
32
0
13
43.739198
23
-14.352615
33
0
39
0
210
0
220
0
230
1
0
ENDBLK
5
11C
100
AcDbEntity
8
0
100
AcDbBlockEnd
0
BLOCK
5
121
100
AcDbEntity
8
0
100
AcDbBlockBegin
2
*D3
70
1
10
0
20
0
30
0
3
*D3
0
LINE
5
123
100
AcDbEntity
8
0
62
256
6
ByLayer
370
-2
48
1
60
0
100
AcDbLine
10
-40
20
-6.5875
30
0
11
-40
21
-35.692985
31
0
39
0
210
0
220
0
230
1
0
LINE
5
124
100
AcDbEntity
8
0
62
256
6
ByLayer
370
-2
48
1
60
0
100
AcDbLine
10
49
20
-1.5875
30
0
11
49
21
-35.692985
31
0
39
0
210
0
220
0
230
1
0
LINE
5
125
100
AcDbEntity
8
0
62
256
6
ByLayer
370
-2
48
1
60
0
100
AcDbLine
10
-36.5
20
-33.692985
30
0
11
45.5
21
-33.692985
31
0
39
0
210
0
220
0
230
1
0
SOLID
5
126
100
AcDbEntity
8
0
62
256
6
ByLayer
370
-1
48
1
60
0
100
AcDbTrace
10
-36.5
20
-33.109652
30
0
11
-36.5
21
-34.276319
31
0
12
-40
22
-33.692985
32
0
13
-40
23
-33.692985
33
0
39
0
210
0
220
0
230
1
0
SOLID
5
127
100
AcDbEntity
8
0
62
256
6
ByLayer
370
-1
48
1
60
0
100
AcDbTrace
10
45.5
20
-34.276319
30
0
11
45.5
21
-33.109652
31
0
12
49
22
-33.692985
32
0
13
49
23
-33.692985
33
0
39
0
210
0
220
0
230
1
0
MTEXT
5
128
100
AcDbEntity
8
0
62
256
6
ByLayer
370
18
48
1
60
0
100
AcDbMText
10
4.5
20
-26.692985
30
0
210
0
220
0
230
1
1
\A1;89.00
40
3.5
41
0
44
1
50
0
71
5
72
5
7
iso_b_vert
0
POINT
5
129
100
AcDbEntity
8
Defpoints
62
0
6
ByLayer
370
-1
48
1
60
0
100
AcDbPoint
10
-40
20
-5
30
0
39
0
210
0
220
0
230
1
50
360
0
POINT
5
12A
100
AcDbEntity
8
Defpoints
62
0
6
ByLayer
370
-1
48
1
60
0
100
AcDbPoint
10
49
20
0
30
0
39
0
210
0
220
0
230
1
50
360
0
POINT
5
12B
100
AcDbEntity
8
Defpoints
62
0
6
ByLayer
370
-1
48
1
60
0
100
AcDbPoint
10
49
20
-33.692985
30
0
39
0
210
0
220
0
230
1
50
360
0
ENDBLK
5
122
100
AcDbEntity
8
0
100
AcDbBlockEnd
0
BLOCK
5
133
100
AcDbEntity
8
0
100
AcDbBlockBegin
2
_U1
70
0
10
0
20
0
30
0
3
_U1
0
MTEXT
5
12D
100
AcDbEntity
8
SK2
62
256
6
ByLayer
370
13
48
1
60
0
100
AcDbMText
10
-0.637299
20
-32.660352
30
0
210
0
220
0
230
1
1
\W0.7317;89,00
40
3.5
41
0
44
1.084337
50
0
71
7
72
5
7
iso_b_vert
0
LINE
5
12E
100
AcDbEntity
8
SK2
62
256
6
ByLayer
370
13
48
1
60
0
100
AcDbLine
10
-40
20
-6.5875
30
0
11
-40
21
-35.692985
31
0
39
0
210
0
220
0
230
1
0
LINE
5
12F
100
AcDbEntity
8
SK2
62
256
6
ByLayer
370
13
48
1
60
0
100
AcDbLine
10
49
20
-1.5875
30
0
11
49
21
-35.692985
31
0
39
0
210
0
220
0
230
1
0
LINE
5
130
100
AcDbEntity
8
SK2
62
256
6
ByLayer
370
13
48
1
60
0
100
AcDbLine
10
-40
20
-33.692985
30
0
11
49
21
-33.692985
31
0
39
0
210
0
220
0
230
1
0
SOLID
5
131
100
AcDbEntity
8
SK2
62
256
6
ByLayer
370
18
48
1
60
0
100
AcDbTrace
10
-40
20
-33.692985
30
0
11
-36.500002
21
-33.232202
31
0
12
-36.499998
22
-34.153769
32
0
13
-36.499998
23
-34.153769
33
0
39
0
210
0
220
0
230
1
0
SOLID
5
132
100
AcDbEntity
8
SK2
62
256
6
ByLayer
370
18
48
1
60
0
100
AcDbTrace
10
49
20
-33.692985
30
0
11
45.500002
21
-34.153769
31
0
12
45.499998
22
-33.232202
32
0
13
45.499998
23
-33.232202
33
0
39
0
210
0
220
0
230
1
0
ENDBLK
5
134
100
AcDbEntity
8
0
100
AcDbBlockEnd
0
BLOCK
5
139
100
AcDbEntity
8
0
100
AcDbBlockBegin
2
*D5
70
1
10
0
20
0
30
0
3
*D5
0
LINE
5
13B
100
AcDbEntity
8
0
62
256
6
ByLayer
370
-2
48
1
60
0
100
AcDbLine
10
19.64
20
6.1875
30
0
11
19.64
21
18.209119
31
0
39
0
210
0
220
0
230
1
0
LINE
5
13C
100
AcDbEntity
8
0
62
256
6
ByLayer
370
-2
48
1
60
0
100
AcDbLine
10
49
20
1.5875
30
0
11
49
21
18.209119
31
0
39
0
210
0
220
0
230
1
0
LINE
5
13D
100
AcDbEntity
8
0
62
256
6
ByLayer
370
-2
48
1
60
0
100
AcDbLine
10
23.14
20
16.209119
30
0
11
45.5
21
16.209119
31
0
39
0
210
0
220
0
230
1
0
SOLID
5
13E
100
AcDbEntity
8
0
62
256
6
ByLayer
370
-1
48
1
60
0
100
AcDbTrace
10
23.14
20
16.792453
30
0
11
23.14
21
15.625786
31
0
12
19.64
22
16.209119
32
0
13
19.64
23
16.209119
33
0
39
0
210
0
220
0
230
1
0
SOLID
5
13F
100
AcDbEntity
8
0
62
256
6
ByLayer
370
-1
48
1
60
0
100
AcDbTrace
10
45.5
20
15.625786
30
0
11
45.5
21
16.792453
31
0
12
49
22
16.209119
32
0
13
49
23
16.209119
33
0
39
0
210
0
220
0
230
1
0
MTEXT
5
140
100
AcDbEntity
8
0
62
256
6
ByLayer
370
18
48
1
60
0
100
AcDbMText
10
34.32
20
23.209119
30
0
210
0
220
0
230
1
1
\A1;29.36
40
3.5
41
0
44
1
50
0
71
5
72
5
7
iso_b_vert
0
POINT
5
141
100
AcDbEntity
8
Defpoints
62
0
6
ByLayer
370
-1
48
1
60
0
100
AcDbPoint
10
19.64
20
4.6
30
0
39
0
210
0
220
0
230
1
50
360
0
POINT
5
142
100
AcDbEntity
8
Defpoints
62
0
6
ByLayer
370
-1
48
1
60
0
100
AcDbPoint
10
49
20
0
30
0
39
0
210
0
220
0
230
1
50
360
0
POINT
5
143
100
AcDbEntity
8
Defpoints
62
0
6
ByLayer
370
-1
48
1
60
0
100
AcDbPoint
10
49
20
16.209119
30
0
39
0
210
0
220
0
230
1
50
360
0
ENDBLK
5
13A
100
AcDbEntity
8
0
100
AcDbBlockEnd
0
BLOCK
5
14B
100
AcDbEntity
8
0
100
AcDbBlockBegin
2
_U2
70
0
10
0
20
0
30
0
3
_U2
0
MTEXT
5
145
100
AcDbEntity
8
SK2
62
256
6
ByLayer
370
13
48
1
60
0
100
AcDbMText
10
29.182701
20
17.241753
30
0
210
0
220
0
230
1
1
\W0.7317;29,36
40
3.5
41
0
44
1.084337
50
0
71
7
72
5
7
iso_b_vert
0
LINE
5
146
100
AcDbEntity
8
SK2
62
256
6
ByLayer
370
13
48
1
60
0
100
AcDbLine
10
19.64
20
6.1875
30
0
11
19.64
21
18.209119
31
0
39
0
210
0
220
0
230
1
0
LINE
5
147
100
AcDbEntity
8
SK2
62
256
6
ByLayer
370
13
48
1
60
0
100
AcDbLine
10
49
20
1.5875
30
0
11
49
21
18.209119
31
0
39
0
210
0
220
0
230
1
0
LINE
5
148
100
AcDbEntity
8
SK2
62
256
6
ByLayer
370
13
48
1
60
0
100
AcDbLine
10
19.64
20
16.209119
30
0
11
49
21
16.209119
31
0
39
0
210
0
220
0
230
1
0
SOLID
5
149
100
AcDbEntity
8
SK2
62
256
6
ByLayer
370
18
48
1
60
0
100
AcDbTrace
10
19.64
20
16.209119
30
0
11
23.139998
21
16.669903
31
0
12
23.140002
22
15.748335
32
0
13
23.140002
23
15.748335
33
0
39
0
210
0
220
0
230
1
0
SOLID
5
14A
100
AcDbEntity
8
SK2
62
256
6
ByLayer
370
18
48
1
60
0
100
AcDbTrace
10
49
20
16.209119
30
0
11
45.500002
21
15.748335
31
0
12
45.499998
22
16.669903
32
0
13
45.499998
23
16.669903
33
0
39
0
210
0
220
0
230
1
0
ENDBLK
5
14C
100
AcDbEntity
8
0
100
AcDbBlockEnd
0
BLOCK
5
151
100
AcDbEntity
8
0
100
AcDbBlockBegin
2
*D7
70
1
10
0
20
0
30
0
3
*D7
0
LINE
5
153
100
AcDbEntity
8
0
62
256
6
ByLayer
370
-2
48
1
60
0
100
AcDbLine
10
49
20
-1.5875
30
0
11
49
21
-19.402503
31
0
39
0
210
0
220
0
230
1
0
LINE
5
154
100
AcDbEntity
8
0
62
256
6
ByLayer
370
-2
48
1
60
0
100
AcDbLine
10
47.2392
20
-6.1875
30
0
11
47.2392
21
-19.402503
31
0
39
0
210
0
220
0
230
1
0
LINE
5
155
100
AcDbEntity
8
0
62
256
6
ByLayer
370
-2
48
1
60
0
100
AcDbLine
10
49
20
-17.402503
30
0
11
76.666667
21
-17.402503
31
0
39
0
210
0
220
0
230
1
0
LINE
5
156
100
AcDbEntity
8
0
62
256
6
ByLayer
370
-2
48
1
60
0
100
AcDbLine
10
52.5
20
-17.402503
30
0
11
56
21
-17.402503
31
0
39
0
210
0
220
0
230
1
0
LINE
5
157
100
AcDbEntity
8
0
62
256
6
ByLayer
370
-2
48
1
60
0
100
AcDbLine
10
43.7392
20
-17.402503
30
0
11
40.2392
21
-17.402503
31
0
39
0
210
0
220
0
230
1
0
SOLID
5
158
100
AcDbEntity
8
0
62
256
6
ByLayer
370
-1
48
1
60
0
100
AcDbTrace
10
52.5
20
-16.81917
30
0
11
52.5
21
-17.985837
31
0
12
49
22
-17.402503
32
0
13
49
23
-17.402503
33
0
39
0
210
0
220
0
230
1
0
SOLID
5
159
100
AcDbEntity
8
0
62
256
6
ByLayer
370
-1
48
1
60
0
100
AcDbTrace
10
43.7392
20
-17.985837
30
0
11
43.7392
21
-16.81917
31
0
12
47.2392
22
-17.402503
32
0
13
47.2392
23
-17.402503
33
0
39
0
210
0
220
0
230
1
0
MTEXT
5
15A
100
AcDbEntity
8
0
62
256
6
ByLayer
370
18
48
1
60
0
100
AcDbMText
10
66.333333
20
-10.402503
30
0
210
0
220
0
230
1
1
\A1;1.76
40
3.5
41
0
44
1
50
0
71
5
72
5
7
iso_b_vert
0
POINT
5
15B
100
AcDbEntity
8
Defpoints
62
0
6
ByLayer
370
-1
48
1
60
0
100
AcDbPoint
10
49
20
0
30
0
39
0
210
0
220
0
230
1
50
360
0
POINT
5
15C
100
AcDbEntity
8
Defpoints
62
0
6
ByLayer
370
-1
48
1
60
0
100
AcDbPoint
10
47.2392
20
-4.6
30
0
39
0
210
0
220
0
230
1
50
360
0
POINT
5
15D
100
AcDbEntity
8
Defpoints
62
0
6
ByLayer
370
-1
48
1
60
0
100
AcDbPoint
10
47.2392
20
-17.402503
30
0
39
0
210
0
220
0
230
1
50
360
0
ENDBLK
5
152
100
AcDbEntity
8
0
100
AcDbBlockEnd
0
BLOCK
5
165
100
AcDbEntity
8
0
100
AcDbBlockBegin
2
_U3
70
0
10
0
20
0
30
0
3
_U3
0
MTEXT
5
15F
100
AcDbEntity
8
SK2
62
256
6
ByLayer
370
13
48
1
60
0
100
AcDbMText
10
55.589293
20
-16.36987
30
0
210
0
220
0
230
1
1
\W0.6367;1,76
40
3.5
41
0
44
1.084337
50
0
71
7
72
5
7
iso_b_vert
0
LINE
5
160
100
AcDbEntity
8
SK2
62
256
6
ByLayer
370
13
48
1
60
0
100
AcDbLine
10
49
20
-1.5875
30
0
11
49
21
-19.402503
31
0
39
0
210
0
220
0
230
1
0
LINE
5
161
100
AcDbEntity
8
SK2
62
256
6
ByLayer
370
13
48
1
60
0
100
AcDbLine
10
47.2392
20
-6.1875
30
0
11
47.2392
21
-19.402503
31
0
39
0
210
0
220
0
230
1
0
LINE
5
162
100
AcDbEntity
8
SK2
62
256
6
ByLayer
370
13
48
1
60
0
100
AcDbLine
10
38.4892
20
-17.402503
30
0
11
62.559058
21
-17.402503
31
0
39
0
210
0
220
0
230
1
0
SOLID
5
163
100
AcDbEntity
8
SK2
62
256
6
ByLayer
370
18
48
1
60
0
100
AcDbTrace
10
49
20
-17.402503
30
0
11
52.499998
21
-16.941719
31
0
12
52.500002
22
-17.863287
32
0
13
52.500002
23
-17.863287
33
0
39
0
210
0
220
0
230
1
0
SOLID
5
164
100
AcDbEntity
8
SK2
62
256
6
ByLayer
370
18
48
1
60
0
100
AcDbTrace
10
47.2392
20
-17.402503
30
0
11
43.739202
21
-17.863287
31
0
12
43.739198
22
-16.941719
32
0
13
43.739198
23
-16.941719
33
0
39
0
210
0
220
0
230
1
0
ENDBLK
5
166
100
AcDbEntity
8
0
100
AcDbBlockEnd
0
BLOCK
5
16B
100
AcDbEntity
8
0
100
AcDbBlockBegin
2
*D9
70
1
10
0
20
0
30
0
3
*D9
0
LINE
5
16D
100
AcDbEntity
8
0
62
256
6
ByLayer
370
-2
48
1
60
0
100
AcDbLine
10
-40
20
-6.5875
30
0
11
-40
21
-25.343428
31
0
39
0
210
0
220
0
230
1
0
LINE
5
16E
100
AcDbEntity
8
0
62
256
6
ByLayer
370
-2
48
1
60
0
100
AcDbLine
10
47.2392
20
-6.1875
30
0
11
47.2392
21
-25.343428
31
0
39
0
210
0
220
0
230
1
0
LINE
5
16F
100
AcDbEntity
8
0
62
256
6
ByLayer
370
-2
48
1
60
0
100
AcDbLine
10
-36.5
20
-23.343428
30
0
11
43.7392
21
-23.343428
31
0
39
0
210
0
220
0
230
1
0
SOLID
5
170
100
AcDbEntity
8
0
62
256
6
ByLayer
370
-1
48
1
60
0
100
AcDbTrace
10
-36.5
20
-22.760095
30
0
11
-36.5
21
-23.926762
31
0
12
-40
22
-23.343428
32
0
13
-40
23
-23.343428
33
0
39
0
210
0
220
0
230
1
0
SOLID
5
171
100
AcDbEntity
8
0
62
256
6
ByLayer
370
-1
48
1
60
0
100
AcDbTrace
10
43.7392
20
-23.926762
30
0
11
43.7392
21
-22.760095
31
0
12
47.2392
22
-23.343428
32
0
13
47.2392
23
-23.343428
33
0
39
0
210
0
220
0
230
1
0
MTEXT
5
172
100
AcDbEntity
8
0
62
256
6
ByLayer
370
18
48
1
60
0
100
AcDbMText
10
3.6196
20
-16.343428
30
0
210
0
220
0
230
1
1
\A1;87.24
40
3.5
41
0
44
1
50
0
71
5
72
5
7
iso_b_vert
0
POINT
5
173
100
AcDbEntity
8
Defpoints
62
0
6
ByLayer
370
-1
48
1
60
0
100
AcDbPoint
10
-40
20
-5
30
0
39
0
210
0
220
0
230
1
50
360
0
POINT
5
174
100
AcDbEntity
8
Defpoints
62
0
6
ByLayer
370
-1
48
1
60
0
100
AcDbPoint
10
47.2392
20
-4.6
30
0
39
0
210
0
220
0
230
1
50
360
0
POINT
5
175
100
AcDbEntity
8
Defpoints
62
0
6
ByLayer
370
-1
48
1
60
0
100
AcDbPoint
10
47.2392
20
-23.343428
30
0
39
0
210
0
220
0
230
1
50
360
0
ENDBLK
5
16C
100
AcDbEntity
8
0
100
AcDbBlockEnd
0
BLOCK
5
17D
100
AcDbEntity
8
0
100
AcDbBlockBegin
2
_U4
70
0
10
0
20
0
30
0
3
_U4
0
MTEXT
5
177
100
AcDbEntity
8
SK2
62
256
6
ByLayer
370
13
48
1
60
0
100
AcDbMText
10
-1.701965
20
-22.310795
30
0
210
0
220
0
230
1
1
\W0.7495;87,24
40
3.5
41
0
44
1.084337
50
0
71
7
72
5
7
iso_b_vert
0
LINE
5
178
100
AcDbEntity
8
SK2
62
256
6
ByLayer
370
13
48
1
60
0
100
AcDbLine
10
-40
20
-6.5875
30
0
11
-40
21
-25.343428
31
0
39
0
210
0
220
0
230
1
0
LINE
5
179
100
AcDbEntity
8
SK2
62
256
6
ByLayer
370
13
48
1
60
0
100
AcDbLine
10
47.2392
20
-6.1875
30
0
11
47.2392
21
-25.343428
31
0
39
0
210
0
220
0
230
1
0
LINE
5
17A
100
AcDbEntity
8
SK2
62
256
6
ByLayer
370
13
48
1
60
0
100
AcDbLine
10
-40
20
-23.343428
30
0
11
47.2392
21
-23.343428
31
0
39
0
210
0
220
0
230
1
0
SOLID
5
17B
100
AcDbEntity
8
SK2
62
256
6
ByLayer
370
18
48
1
60
0
100
AcDbTrace
10
-40
20
-23.343428
30
0
11
-36.500002
21
-22.882645
31
0
12
-36.499998
22
-23.804212
32
0
13
-36.499998
23
-23.804212
33
0
39
0
210
0
220
0
230
1
0
SOLID
5
17C
100
AcDbEntity
8
SK2
62
256
6
ByLayer
370
18
48
1
60
0
100
AcDbTrace
10
47.2392
20
-23.343428
30
0
11
43.739202
21
-23.804212
31
0
12
43.739198
22
-22.882645
32
0
13
43.739198
23
-22.882645
33
0
39
0
210
0
220
0
230
1
0
ENDBLK
5
17E
100
AcDbEntity
8
0
100
AcDbBlockEnd
0
ENDSEC
0
SECTION
2
ENTITIES
0
ARC
5
A5
100
AcDbEntity
8
1
62
256
6
ByLayer
370
18
48
1
60
0
100
AcDbCircle
39
0
10
1.186866
20
-5.367107
30
0
40
0.850000000000002
210
0
220
0
230
1
100
AcDbArc
50
89.896868
51
134.279268
0
ARC
5
A6
100
AcDbEntity
8
1
62
256
6
ByLayer
370
18
48
1
60
0
100
AcDbCircle
39
0
10
1.186866
20
5.367107
30
0
40
0.850000000000002
210
0
220
0
230
1
100
AcDbArc
50
225.720732
51
270.103132
0
ARC
5
A7
100
AcDbEntity
8
1
62
256
6
ByLayer
370
18
48
1
60
0
100
AcDbCircle
39
0
10
0
20
-4.15
30
0
40
0.850000000000001
210
0
220
0
230
1
100
AcDbArc
50
270
51
314.279268
0
ARC
5
A8
100
AcDbEntity
8
1
62
256
6
ByLayer
370
18
48
1
60
0
100
AcDbCircle
39
0
10
0
20
4.15
30
0
40
0.850000000000001
210
0
220
0
230
1
100
AcDbArc
50
45.720732
51
90
0
ELLIPSE
5
A9
100
AcDbEntity
8
1
62
256
6
ByLayer
370
13
48
1
60
0
100
AcDbEllipse
10
93.194174
20
42.140273
30
0
11
-60.8
21
7.44560663124005E-15
31
0
210
0
220
0
230
1
40
0.99863
41
0.730032295858627
42
0.752057440514985
0
ELLIPSE
5
AA
100
AcDbEntity
8
1
62
256
6
ByLayer
370
13
48
1
60
0
100
AcDbEllipse
10
5.194084
20
2.094012
30
0
11
0.131183209116307
21
0.269798008973282
31
0
210
0
220
0
230
1
40
0.213875
41
-2.8764501352064
42
-1.98137870969333
0
ELLIPSE
5
AB
100
AcDbEntity
8
1
62
256
6
ByLayer
370
13
48
1
60
0
100
AcDbEllipse
10
13.30231
20
-75.854138
30
0
11
-0.304221328168484
21
74.2444059924592
31
0
210
0
220
0
230
1
40
0.847289
41
0.0440896433136064
42
0.128499173912782
0
ELLIPSE
5
AC
100
AcDbEntity
8
1
62
256
6
ByLayer
370
18
48
1
60
0
100
AcDbEllipse
10
5.192809
20
5.407459
30
0
11
1
21
0
31
0
210
0
220
0
230
1
40
0.999995
41
-2.05218737207578
42
-1.56762669549135
0
ELLIPSE
5
AD
100
AcDbEntity
8
1
62
256
6
ByLayer
370
18
48
1
60
0
100
AcDbEllipse
10
5.192809
20
-5.407459
30
0
11
1
21
0
31
0
210
0
220
0
230
1
40
0.999995
41
1.5712856928858
42
2.05169587931606
0
POINT
5
70
100
AcDbEntity
8
80
62
256
6
ByLayer
370
18
48
1
60
0
100
AcDbPoint
10
0
20
0
30
0
39
0
210
0
220
0
230
1
50
360
0
POINT
5
72
100
AcDbEntity
8
81
62
256
6
ByLayer
370
18
48
1
60
0
100
AcDbPoint
10
49
20
0
30
0
39
0
210
0
220
0
230
1
50
360
0
POINT
5
74
100
AcDbEntity
8
1
62
256
6
ByLayer
370
18
48
1
60
1
100
AcDbPoint
10
47.2392
20
-4.6
30
0
39
0
210
0
220
0
230
1
50
360
0
POINT
5
76
100
AcDbEntity
8
1
62
256
6
ByLayer
370
18
48
1
60
1
100
AcDbPoint
10
-40
20
-5
30
0
39
0
210
0
220
0
230
1
50
360
0
POINT
5
77
100
AcDbEntity
8
1
62
256
6
ByLayer
370
18
48
1
60
1
100
AcDbPoint
10
19.64
20
4.6
30
0
39
0
210
0
220
0
230
1
50
360
0
POINT
5
78
100
AcDbEntity
8
1
62
256
6
ByLayer
370
18
48
1
60
1
100
AcDbPoint
10
47.2392
20
-4.6
30
0
39
0
210
0
220
0
230
1
50
360
0
POINT
5
79
100
AcDbEntity
8
1
62
256
6
ByLayer
370
18
48
1
60
1
100
AcDbPoint
10
-40
20
-5
30
0
39
0
210
0
220
0
230
1
50
360
0
POINT
5
7A
100
AcDbEntity
8
1
62
256
6
ByLayer
370
18
48
1
60
1
100
AcDbPoint
10
47.2392
20
-4.6
30
0
39
0
210
0
220
0
230
1
50
360
0
SPLINE
5
AE
100
AcDbEntity
8
1
62
256
6
ByLayer
370
18
48
1
60
0
100
AcDbSpline
70
4
71
3
72
18
73
14
40
0
40
0
40
0
40
0
40
0.249999999999998
40
0.249999999999998
40
0.374999999999998
40
0.374999999999998
40
0.499999999999999
40
0.499999999999999
40
0.749999999999999
40
0.749999999999999
40
0.875
40
0.875
40
1
40
1
40
1
40
1
41
1
10
47.2738203484379
20
-4.26582179738213
30
0
41
1
10
47.1874596742082
20
-4.18516284295299
30
0
41
1
10
47.1108359447129
20
-4.08294502399636
30
0
41
1
10
47.010979416949
20
-3.89623127732335
30
0
41
1
10
46.9802210435466
20
-3.82839795366101
30
0
41
1
10
46.924031528035
20
-3.68093612202665
30
0
41
1
10
46.8986572121708
20
-3.60125964153963
30
0
41
1
10
46.8324546103369
20
-3.34954794852132
30
0
41
1
10
46.8007823348199
20
-3.16332368492229
30
0
41
1
10
46.7724536913187
20
-2.85564503598857
30
0
41
1
10
46.7662183470461
20
-2.74791993966099
30
0
41
1
10
46.760553723593
20
-2.52438643303094
30
0
41
1
10
46.7611165102208
20
-2.40933904000144
30
0
41
1
10
46.7650317570554
20
-2.29105220794887
30
0
0
SPLINE
5
AF
100
AcDbEntity
8
1
62
256
6
ByLayer
370
18
48
1
60
0
100
AcDbSpline
70
4
71
3
72
34
73
30
40
0
40
0
40
0
40
0
40
0.0312499999999986
40
0.0312499999999986
40
0.0624999999999973
40
0.0624999999999973
40
0.0937499999999959
40
0.0937499999999959
40
0.124999999999995
40
0.124999999999995
40
0.187499999999992
40
0.187499999999992
40
0.249999999999989
40
0.249999999999989
40
0.374999999999987
40
0.374999999999987
40
0.499999999999985
40
0.499999999999985
40
0.562499999999985
40
0.562499999999985
40
0.624999999999986
40
0.624999999999986
40
0.749999999999991
40
0.749999999999991
40
0.812499999999993
40
0.812499999999993
40
0.874999999999995
40
0.874999999999995
40
1
40
1
40
1
40
1
41
1
10
4.93939230268631
20
-2.25488370369635
30
0
41
1
10
4.9655020296066
20
-2.20568834185787
30
0
41
1
10
4.99754042990031
20
-2.1589858929116
30
0
41
1
10
5.0712080431982
20
-2.06972957337788
30
0
41
1
10
5.1124378891119
20
-2.02773506422977
30
0
41
1
10
5.20007482313991
20
-1.9493327466858
30
0
41
1
10
5.24674088542696
20
-1.91264164286517
30
0
41
1
10
5.34458454454037
20
-1.84331129276043
30
0
41
1
10
5.39599457735929
20
-1.81056446817061
30
0
41
1
10
5.55322545025979
20
-1.71897089335778
30
0
41
1
10
5.66255062925325
20
-1.6661404298635
30
0
41
1
10
5.88736415551017
20
-1.57205592928796
30
0
41
1
10
6.00290058258153
20
-1.53088512175211
30
0
41
1
10
6.3569073215877
20
-1.42161238607883
30
0
41
1
10
6.59658244417668
20
-1.36925449680504
30
0
41
1
10
7.08029743940838
20
-1.29435668788426
30
0
41
1
10
7.32454881941712
20
-1.2720736057812
30
0
41
1
10
7.69410906625541
20
-1.259125329737
30
0
41
1
10
7.81810843203098
20
-1.25827868230337
30
0
41
1
10
8.06471702474539
20
-1.26336259291384
30
0
41
1
10
8.18755496864776
20
-1.2692715725062
30
0
41
1
10
8.55470426106803
20
-1.29681427320543
30
0
41
1
10
8.79765777787088
20
-1.32822918689897
30
0
41
1
10
9.15934210703875
20
-1.39473795589325
30
0
41
1
10
9.27944397515529
20
-1.4201490808384
30
0
41
1
10
9.51870550456928
20
-1.47751138189494
30
0
41
1
10
9.63802314179793
20
-1.50953185962905
30
0
41
1
10
9.99021986878802
20
-1.61412643561812
30
0
41
1
10
10.2187382462369
20
-1.69553841544422
30
0
41
1
10
10.4410820449579
20
-1.78748679847419
30
0
0
SPLINE
5
B0
100
AcDbEntity
8
1
62
256
6
ByLayer
370
18
48
1
60
0
100
AcDbSpline
70
4
71
3
72
56
73
52
40
0
40
0
40
0
40
0
40
0.0312499999999993
40
0.0312499999999993
40
0.0624999999999986
40
0.0624999999999986
40
0.0937499999999979
40
0.0937499999999979
40
0.124999999999997
40
0.124999999999997
40
0.187499999999996
40
0.187499999999996
40
0.218749999999995
40
0.218749999999995
40
0.249999999999996
40
0.249999999999996
40
0.281249999999996
40
0.281249999999996
40
0.312499999999996
40
0.312499999999996
40
0.374999999999996
40
0.374999999999996
40
0.406249999999996
40
0.406249999999996
40
0.437499999999996
40
0.437499999999996
40
0.468749999999996
40
0.468749999999996
40
0.499999999999996
40
0.499999999999996
40
0.562499999999996
40
0.562499999999996
40
0.593749999999997
40
0.593749999999997
40
0.624999999999997
40
0.624999999999997
40
0.687499999999997
40
0.687499999999997
40
0.749999999999997
40
0.749999999999997
40
0.781249999999998
40
0.781249999999998
40
0.812499999999998
40
0.812499999999998
40
0.874999999999999
40
0.874999999999999
40
0.90625
40
0.90625
40
0.9375
40
0.9375
40
1
40
1
40
1
40
1
41
1
10
15.8289341817225
20
3.64399244942914
30
0
41
1
10
16.1584998978215
20
3.74814714992141
30
0
41
1
10
16.4878199665396
20
3.84359532268567
30
0
41
1
10
17.1455588597217
20
4.01784773992256
30
0
41
1
10
17.4741110094678
20
4.09648351107839
30
0
41
1
10
18.1313755026813
20
4.23599939863408
30
0
41
1
10
18.4605296337696
20
4.29658168006532
30
0
41
1
10
19.1194363856303
20
4.39953693523722
30
0
41
1
10
19.449174898233
20
4.44140027125584
30
0
41
1
10
20.4354051685999
20
4.53814593284699
30
0
41
1
10
21.0920973550986
20
4.56371080532202
30
0
41
1
10
22.0798129690891
20
4.54283636077943
30
0
41
1
10
22.409698248301
20
4.52599364596418
30
0
41
1
10
23.0673452358552
20
4.4728266122211
30
0
41
1
10
23.3958732029264
20
4.43657548081063
30
0
41
1
10
24.052847136093
20
4.34500362955413
30
0
41
1
10
24.3814056725641
20
4.28972730994684
30
0
41
1
10
25.0395601168386
20
4.1606499871753
30
0
41
1
10
25.369320851523
20
4.08668386768991
30
0
41
1
10
26.3561806209314
20
3.83956544502985
30
0
41
1
10
27.0118349027231
20
3.64013239939376
30
0
41
1
10
27.9986310565627
20
3.29630252927856
30
0
41
1
10
28.3281686203445
20
3.17354666484363
30
0
41
1
10
28.986298624097
20
2.916121192726
30
0
41
1
10
29.3144973433965
20
2.78050446385862
30
0
41
1
10
29.9713969440478
20
2.49885793930926
30
0
41
1
10
30.2994287647983
20
2.35178549544909
30
0
41
1
10
30.9569412393743
20
2.04879970595968
30
0
41
1
10
31.2862090500512
20
1.89150046714309
30
0
41
1
10
32.2736582825058
20
1.41055667220678
30
0
41
1
10
32.9289046792004
20
1.07474460536198
30
0
41
1
10
33.9145370354298
20
0.561746642421895
30
0
41
1
10
34.2434701638819
20
0.388265224995934
30
0
41
1
10
34.9018737671477
20
0.0411543154300205
30
0
41
1
10
35.2301805766886
20
-0.133005179695885
30
0
41
1
10
36.2151209444786
20
-0.652148028704261
30
0
41
1
10
36.8706638614781
20
-0.996060670854547
30
0
41
1
10
38.1877783213796
20
-1.66313328243106
30
0
41
1
10
38.8431701618604
20
-1.98430032628602
30
0
41
1
10
39.8276301575206
20
-2.43698194939108
30
0
41
1
10
40.1559421264324
20
-2.583152426505
30
0
41
1
10
40.8139398281742
20
-2.86427733665693
30
0
41
1
10
41.1427945960572
20
-2.99891511839354
30
0
41
1
10
42.127441188045
20
-3.38207269523889
30
0
41
1
10
42.7826443072875
20
-3.61012254671374
30
0
41
1
10
43.768766068481
20
-3.90440417147749
30
0
41
1
10
44.0978884835769
20
-3.99425481159906
30
0
41
1
10
44.7535982198374
20
-4.15610046630346
30
0
41
1
10
45.0809934881269
20
-4.22801752042182
30
0
41
1
10
46.0622131185552
20
-4.4165803624492
30
0
41
1
10
46.7161690878888
20
-4.50531005008571
30
0
41
1
10
47.3727170386865
20
-4.55520524760325
30
0
0
SPLINE
5
B1
100
AcDbEntity
8
1
62
256
6
ByLayer
370
18
48
1
60
0
100
AcDbSpline
70
4
71
4
72
10
73
5
40
0
40
0
40
0
40
0
40
0
40
1
40
1
40
1
40
1
40
1
41
1
10
15.8289341817223
20
3.64399244942908
30
0
41
1
10
15.7084446150949
20
3.35928966109674
30
0
41
1
10
15.5879550484676
20
3.07458687276443
30
0
41
1
10
15.4674654818402
20
2.78988408443212
30
0
41
1
10
15.3469759152128
20
2.50518129609981
30
0
0
SPLINE
5
B2
100
AcDbEntity
8
1
62
256
6
ByLayer
370
18
48
1
60
0
100
AcDbSpline
70
4
71
3
72
8
73
4
40
0
40
0
40
0
40
0
40
1
40
1
40
1
40
1
41
1
10
22.7730198159628
20
-4.43850678050313
30
0
41
1
10
22.1781938569141
20
-4.43712070760452
30
0
41
1
10
21.5861005421173
20
-4.4044435681771
30
0
41
1
10
20.9941695039605
20
-4.34111765740101
30
0
0
SPLINE
5
B3
100
AcDbEntity
8
1
62
256
6
ByLayer
370
13
48
1
60
0
100
AcDbSpline
70
4
71
3
72
32
73
28
40
0
40
0
40
0
40
0
40
0.0004165100625674
40
0.0004165100625674
40
0.167013758385472
40
0.167013758385472
40
0.208663070466199
40
0.208663070466199
40
0.250312382546925
40
0.250312382546925
40
0.333611006708377
40
0.333611006708377
40
0.50020825503128
40
0.50020825503128
40
0.583506879192732
40
0.583506879192732
40
0.625156191273459
40
0.625156191273459
40
0.666805503354185
40
0.666805503354185
40
0.833402751677092
40
0.833402751677092
40
0.916701375838546
40
0.916701375838546
40
0.958350687919273
40
0.958350687919273
40
1
40
1
40
1
40
1
41
1
10
20.9941695043076
20
-4.34111765743816
30
0
41
1
10
20.9919868115708
20
-4.34088414880867
30
0
41
1
10
20.9898041210405
20
-4.34065022344794
30
0
41
1
10
20.1145815643114
20
-4.24668287028169
30
0
41
1
10
19.2418833106734
20
-4.08695414094143
30
0
41
1
10
18.1411128337074
20
-3.80986826453957
30
0
41
1
10
17.9201908566611
20
-3.75050159392188
30
0
41
1
10
17.4782982791276
20
-3.62447164578384
30
0
41
1
10
17.2579238214344
20
-3.55800533438114
30
0
41
1
10
16.5981541520441
20
-3.3490770417516
30
0
41
1
10
16.1601758136882
20
-3.1970130998366
30
0
41
1
10
14.848311142852
20
-2.70723747496206
30
0
41
1
10
13.9768114722692
20
-2.33528416815076
30
0
41
1
10
12.6618926776189
20
-1.73024960318998
30
0
41
1
10
12.2222074468884
20
-1.52073184729406
30
0
41
1
10
11.5592830892228
20
-1.19706388938729
30
0
41
1
10
11.3380833034443
20
-1.08774945809515
30
0
41
1
10
10.8973694506795
20
-0.868147143170603
30
0
41
1
10
10.677500410814
20
-0.757691362005971
30
0
41
1
10
9.57992954187358
20
-0.203478918052042
30
0
41
1
10
8.70770186831453
20
0.246362297107908
30
0
41
1
10
7.3959018776379
20
0.906508704469076
30
0
41
1
10
6.9580015394213
20
1.12400294366523
30
0
41
1
10
6.29874783541518
20
1.44352071782245
30
0
41
1
10
6.07861669585259
20
1.54894935264301
30
0
41
1
10
5.6373080861822
20
1.7570809466726
30
0
41
1
10
5.4158875699967
20
1.85986852665758
30
0
41
1
10
5.19463028661741
20
1.9605985889464
30
0
0
SPLINE
5
B4
100
AcDbEntity
8
1
62
256
6
ByLayer
370
18
48
1
60
0
100
AcDbSpline
70
4
71
3
72
8
73
4
40
0
40
0
40
0
40
0
40
1
40
1
40
1
40
1
41
1
10
48.3038813918152
20
-1.05562241000638
30
0
41
1
10
48.3052535059724
20
-1.05547476324136
30
0
41
1
10
48.3066283268505
20
-1.05531652193659
30
0
41
1
10
48.3080058646442
20
-1.05514764618829
30
0
0
SPLINE
5
B5
100
AcDbEntity
8
1
62
256
6
ByLayer
370
18
48
1
60
0
100
AcDbSpline
70
4
71
3
72
8
73
4
40
0
40
0
40
0
40
0
40
1
40
1
40
1
40
1
41
1
10
4.78393382385593
20
-2.5987733108515
30
0
41
1
10
4.76934951259685
20
-2.59249500609431
30
0
41
1
10
4.75476501742992
20
-2.58620385358429
30
0
41
1
10
4.74018032807325
20
-2.57989984721433
30
0
0
SPLINE
5
B6
100
AcDbEntity
8
1
62
256
6
ByLayer
370
18
48
1
60
0
100
AcDbSpline
70
4
71
3
72
8
73
4
40
0
40
0
40
0
40
0
40
1
40
1
40
1
40
1
41
1
10
13.9342099518068
20
3.07351507398141
30
0
41
1
10
14.5676627891499
20
3.27952018756412
30
0
41
1
10
15.1993152050292
20
3.47012759653018
30
0
41
1
10
15.8289341817225
20
3.64399244942916
30
0
0
SPLINE
5
B7
100
AcDbEntity
8
1
62
256
6
ByLayer
370
18
48
1
60
0
100
AcDbSpline
70
4
71
3
72
10
73
6
40
0
40
0
40
0
40
0
40
0.5
40
0.5
40
1
40
1
40
1
40
1
41
1
10
48.0210251845706
20
2.08221948005675
30
0
41
1
10
47.9897453818402
20
2.23533624494701
30
0
41
1
10
47.9768152732107
20
2.38767239511898
30
0
41
1
10
47.970293161926
20
2.69152203269439
30
0
41
1
10
47.9769930050018
20
2.84302310468257
30
0
41
1
10
47.9896128923295
20
2.99427233194516
30
0
0
SPLINE
5
B8
100
AcDbEntity
8
1
62
256
6
ByLayer
370
18
48
1
60
0
100
AcDbSpline
70
4
71
3
72
12
73
8
40
0
40
0
40
0
40
0
40
0.25
40
0.25
40
0.500000000000001
40
0.500000000000001
40
1
40
1
40
1
40
1
41
1
10
47.888879642568
20
1.64870481140952
30
0
41
1
10
47.9163763257542
20
1.67728402962402
30
0
41
1
10
47.9409949367827
20
1.70789453424237
30
0
41
1
10
47.9826164070312
20
1.77389356761816
30
0
41
1
10
47.9998446103191
20
1.80993171036269
30
0
41
1
10
48.0355407976086
20
1.92308430062315
30
0
41
1
10
48.0369690611577
20
2.00417311823881
30
0
41
1
10
48.021025184579
20
2.08221948005675
30
0
0
SPLINE
5
B9
100
AcDbEntity
8
1
62
256
6
ByLayer
370
18
48
1
60
0
100
AcDbSpline
70
4
71
3
72
22
73
18
40
0
40
0
40
0
40
0
40
0.0217849572493865
40
0.0217849572493865
40
0.217427965799509
40
0.217427965799509
40
0.413070974349632
40
0.413070974349632
40
0.608713982899755
40
0.608713982899755
40
0.706535487174816
40
0.706535487174816
40
0.804356991449877
40
0.804356991449877
40
0.902178495724939
40
0.902178495724939
40
1
40
1
40
1
40
1
41
1
10
47.0090370129089
20
0.400528508306138
30
0
41
1
10
47.0124425032721
20
0.40531906554267
30
0
41
1
10
47.0159422395427
20
0.410248129608391
30
0
41
1
10
47.0518027050886
20
0.460840412541046
30
0
41
1
10
47.0907141584281
20
0.51642412747529
30
0
41
1
10
47.1792926398507
20
0.645991743546006
30
0
41
1
10
47.2297744247461
20
0.721210302719754
30
0
41
1
10
47.3378792530601
20
0.884396851434303
30
0
41
1
10
47.3956125547145
20
0.972578404224549
30
0
41
1
10
47.4890378592531
20
1.11381242013187
30
0
41
1
10
47.5212107856196
20
1.16218434770789
30
0
41
1
10
47.5869537123081
20
1.25939189467584
30
0
41
1
10
47.6206731260019
20
1.30847676540441
30
0
41
1
10
47.6907128614351
20
1.40695168726566
30
0
41
1
10
47.7270050169635
20
1.45636032587689
30
0
41
1
10
47.8040307836327
20
1.55427435472561
30
0
41
1
10
47.8448525486678
20
1.60294438585791
30
0
41
1
10
47.8888796425664
20
1.64870481141045
30
0
0
SPLINE
5
BA
100
AcDbEntity
8
1
62
256
6
ByLayer
370
13
48
1
60
0
100
AcDbSpline
70
4
71
3
72
16
73
12
40
0
40
0
40
0
40
0
40
0.0045173595320016
40
0.0045173595320016
40
0.203613887625601
40
0.203613887625601
40
0.402710415719201
40
0.402710415719201
40
0.601806943812801
40
0.601806943812801
40
1
40
1
40
1
40
1
41
1
10
5.19415674471521
20
-4.40748627023079
30
0
41
1
10
5.19415696490097
20
-4.40748529448454
30
0
41
1
10
5.19415716461654
20
-4.40748049264224
30
0
41
1
10
5.19416660318521
20
-4.40708778023981
30
0
41
1
10
5.1941781500266
20
-4.39906884616377
30
0
41
1
10
5.19420483051027
20
-4.36809728838725
30
0
41
1
10
5.19422000189067
20
-4.34515525221147
30
0
41
1
10
5.19425318681198
20
-4.28429269801794
30
0
41
1
10
5.1942712680447
20
-4.24617153229269
30
0
41
1
10
5.1943273462951
20
-4.11138731932655
30
0
41
1
10
5.19436743373296
20
-3.99419871389392
30
0
41
1
10
5.1944059406357
20
-3.8499053539345
30
0
0
SPLINE
5
BB
100
AcDbEntity
8
1
62
256
6
ByLayer
370
13
48
1
60
0
100
AcDbSpline
70
4
71
3
72
60
73
56
40
0
40
0
40
0
40
0
40
0.0076031074587008
40
0.022086017412356
40
0.0510518373196652
40
0.0655347472733199
40
0.0800176572269744
40
0.108983477134284
40
0.123466387087939
40
0.137949297041594
40
0.166915116948903
40
0.181398026902557
40
0.195880936856212
40
0.224846756763521
40
0.239329666717176
40
0.253812576670831
40
0.28277839657814
40
0.297261306531795
40
0.31174421648545
40
0.340710036392759
40
0.355192946346414
40
0.369675856300068
40
0.398641676207377
40
0.413124586161032
40
0.427607496114687
40
0.456573316021996
40
0.471056225975651
40
0.485539135929306
40
0.514504955836615
40
0.52898786579027
40
0.543470775743925
40
0.572436595651234
40
0.586919505604888
40
0.601402415558543
40
0.630368235465852
40
0.644851145419507
40
0.659334055373161
40
0.688299875280471
40
0.702782785234126
40
0.71726569518778
40
0.74623151509509
40
0.760714425048744
40
0.775197335002399
40
0.804163154909708
40
0.818646064863363
40
0.833128974817017
40
0.862094794724327
40
0.876577704677982
40
0.891060614631636
40
0.920026434538946
40
0.9345093444926
40
0.948992254446255
40
0.977958074353565
40
0.992440984307219
40
1
40
1
40
1
40
1
41
1
10
38.5723738952239
20
-1.86177814060028
30
0
41
1
10
38.5279390350924
20
-1.86657432958634
30
0
41
1
10
38.398864284317
20
-1.88028948791742
30
0
41
1
10
38.1005652791264
20
-1.91046917228689
30
0
41
1
10
37.7620230602101
20
-1.94149052917939
30
0
41
1
10
37.4234390717956
20
-1.96922058408836
30
0
41
1
10
37.0849400004806
20
-1.99452277712092
30
0
41
1
10
36.7463965996498
20
-2.01647814604763
30
0
41
1
10
36.4078120145704
20
-2.03506719510062
30
0
41
1
10
36.0693128193735
20
-2.05112127093037
30
0
41
1
10
35.7307698412536
20
-2.06376808279495
30
0
41
1
10
35.3921859995044
20
-2.07300205234031
30
0
41
1
10
35.0536876975091
20
-2.07961710189451
30
0
41
1
10
34.7151456996413
20
-2.08279404891283
30
0
41
1
10
34.3765626156566
20
-2.08254189987395
30
0
41
1
10
34.0380647815504
20
-2.07961193562357
30
0
41
1
10
33.6995226968207
20
-2.07324416290638
30
0
41
1
10
33.3609388059368
20
-2.06346268599302
30
0
41
1
10
33.0224400268458
20
-2.05097994703075
30
0
41
1
10
32.683897077425
20
-2.03511831661717
30
0
41
1
10
32.345312990853
20
-2.01594343117375
30
0
41
1
10
32.0068143066835
20
-1.99409796888773
30
0
41
1
10
31.6682717741625
20
-1.96899192142965
30
0
41
1
10
31.3296880120049
20
-1.94070630280595
30
0
41
1
10
30.9911894423383
20
-1.90981115892535
30
0
41
1
10
30.6526468274669
20
-1.87581199605992
30
0
41
1
10
30.3140630200018
20
-1.83881012414895
30
0
41
1
10
29.975564467908
20
-1.79929417553842
30
0
41
1
10
29.6370218124673
20
-1.756869233966
30
0
41
1
10
29.298437797077
20
-1.71165162469461
30
0
41
1
10
28.9599391568787
20
-1.66404750929115
30
0
41
1
10
28.6213966344929
20
-1.61377014677706
30
0
41
1
10
28.2828130383771
20
-1.56095793349792
30
0
41
1
10
27.9443147859956
20
-1.50592349944245
30
0
41
1
10
27.6057725001282
20
-1.44849096592682
30
0
41
1
10
27.2671886467894
20
-1.38881241035895
30
0
41
1
10
26.928689872347
20
-1.32710453930659
30
0
41
1
10
26.5901469190655
20
-1.26330471166085
30
0
41
1
10
26.2515627946645
20
-1.19757852232323
30
0
41
1
10
25.9130640330802
20
-1.13004405393585
30
0
41
1
10
25.5745213713064
20
-1.06075305744167
30
0
41
1
10
25.2359375525434
20
-0.989882723391304
30
0
41
1
10
24.8974390904481
20
-0.917450074881629
30
0
41
1
10
24.5588967369484
20
-0.843619950869936
30
0
41
1
10
24.2203132373403
20
-0.768577406541226
30
0
41
1
10
23.8818149866998
20
-0.692239982618815
30
0
41
1
10
23.5432725572486
20
-0.614885163650484
30
0
41
1
10
23.2046885141307
20
-0.536707034403435
30
0
41
1
10
22.8661896634711
20
-0.457520798381381
30
0
41
1
10
22.5276467442623
20
-0.377710145774955
30
0
41
1
10
22.1890627339237
20
-0.297468677231052
30
0
41
1
10
21.8505641355496
20
-0.21651729586128
30
0
41
1
10
21.5120216767557
20
-0.135343863814995
30
0
41
1
10
21.2139049081725
20
-0.0638521407626342
30
0
41
1
10
21.0851046722458
20
-0.0328427227115355
30
0
41
1
10
21.0409350310206
20
-0.0222040370624086
30
0
0
SPLINE
5
BC
100
AcDbEntity
8
1
62
256
6
ByLayer
370
18
48
1
60
0
100
AcDbSpline
70
4
71
3
72
16
73
12
40
0
40
0
40
0
40
0
40
0.124999999999999
40
0.124999999999999
40
0.249999999999999
40
0.249999999999999
40
0.499999999999999
40
0.499999999999999
40
0.75
40
0.75
40
1
40
1
40
1
40
1
41
1
10
4.72506319805515
20
2.16075295637336
30
0
41
1
10
4.72505790245572
20
2.14072005452149
30
0
41
1
10
4.73000341527515
20
2.12140204271515
30
0
41
1
10
4.74606774983965
20
2.08387330829251
30
0
41
1
10
4.75686843383048
20
2.06646195613985
30
0
41
1
10
4.79440712492334
20
2.01672649806588
30
0
41
1
10
4.8258355747017
20
1.98745865837793
30
0
41
1
10
4.89285085724029
20
1.93446503924704
30
0
41
1
10
4.92914847177545
20
1.91033936151993
30
0
41
1
10
5.00409229979667
20
1.86577083582614
30
0
41
1
10
5.04282693336302
20
1.84527904179592
30
0
41
1
10
5.08260577893461
20
1.82628949351457
30
0
0
SPLINE
5
BD
100
AcDbEntity
8
1
62
256
6
ByLayer
370
13
48
1
60
0
100
AcDbSpline
70
4
71
3
72
60
73
56
40
0
40
0
40
0
40
0
40
0.0117710970056479
40
0.0261909825856682
40
0.0406108681656885
40
0.0694506393257289
40
0.0838705249057492
40
0.0982904104857693
40
0.12713018164581
40
0.14155006722583
40
0.15596995280585
40
0.184809723965891
40
0.199229609545911
40
0.213649495125932
40
0.242489266285972
40
0.256909151865992
40
0.271329037446012
40
0.300168808606053
40
0.314588694186073
40
0.329008579766093
40
0.357848350926133
40
0.372268236506154
40
0.386688122086174
40
0.415527893246214
40
0.429947778826235
40
0.444367664406255
40
0.473207435566295
40
0.487627321146316
40
0.502047206726336
40
0.530886977886376
40
0.545306863466397
40
0.559726749046417
40
0.588566520206457
40
0.602986405786477
40
0.617406291366498
40
0.646246062526538
40
0.660665948106558
40
0.675085833686578
40
0.703925604846619
40
0.718345490426639
40
0.732765376006659
40
0.7616051471667
40
0.77602503274672
40
0.79044491832674
40
0.819284689486781
40
0.833704575066801
40
0.848124460646821
40
0.876964231806862
40
0.891384117386882
40
0.905804002966902
40
0.934643774126943
40
0.949063659706963
40
0.963483545286983
40
0.992323316447024
40
1
40
1
40
1
40
1
41
1
10
34.4690355501121
20
0.0223771071182739
30
0
41
1
10
34.3999480328464
20
0.0389990786720773
30
0
41
1
10
34.2462318295343
20
0.0760006235188087
30
0
41
1
10
34.0079021205847
20
0.133399719056627
30
0
41
1
10
33.6693174776733
20
0.214411861830797
30
0
41
1
10
33.3307766767485
20
0.29526626839916
30
0
41
1
10
32.9922770994775
20
0.375773187330537
30
0
41
1
10
32.6536923420728
20
0.455462126089941
30
0
41
1
10
32.3151516234793
20
0.534589376911725
30
0
41
1
10
31.9766520914955
20
0.612966494653335
30
0
41
1
10
31.6380673165044
20
0.690232301169374
30
0
41
1
10
31.2995266384614
20
0.766544601760501
30
0
41
1
10
30.9610273143737
20
0.841722630546826
30
0
41
1
10
30.6224426274763
20
0.915513909997173
30
0
41
1
10
30.2839018163949
20
0.987972573878125
30
0
41
1
10
29.9454020730742
20
1.05891925238245
30
0
41
1
10
29.6068169983965
20
1.1282186599893
30
0
41
1
10
29.2682759508224
20
1.19582170323699
30
0
41
1
10
28.9297764647158
20
1.26155932788538
30
0
41
1
10
28.5911919120669
20
1.32541359067022
30
0
41
1
10
28.2526515318592
20
1.38723290235268
30
0
41
1
10
27.9141523167939
20
1.44685925896923
30
0
41
1
10
27.5755677512891
20
1.50439211121355
30
0
41
1
10
27.2370270795965
20
1.55957910153219
30
0
41
1
10
26.8985275589119
20
1.61227467959952
30
0
41
1
10
26.5599426939331
20
1.66269510506714
30
0
41
1
10
26.2214017139795
20
1.71049136822606
30
0
41
1
10
25.8829018741545
20
1.75553391219387
30
0
41
1
10
25.5443167977271
20
1.79815094431001
30
0
41
1
10
25.2057758937107
20
1.83789974393906
30
0
41
1
10
24.8672765973536
20
1.87466485779936
30
0
41
1
10
24.5286921209076
20
1.9088861238948
30
0
41
1
10
24.1901517066272
20
1.94003589722095
30
0
41
1
10
23.851652377508
20
1.96802107872242
30
0
41
1
10
23.5130676488085
20
1.99338131147897
30
0
41
1
10
23.1745267741602
20
2.01550794696203
30
0
41
1
10
22.8360271747638
20
2.03432254489516
30
0
41
1
10
22.4974424068404
20
2.05046481431941
30
0
41
1
10
22.1589016964155
20
2.06325889583238
30
0
41
1
10
21.820402177555
20
2.07265534700935
30
0
41
1
10
21.4818174084341
20
2.07937481679468
30
0
41
1
10
21.1432767241925
20
2.08267896671546
30
0
41
1
10
20.8047773556827
20
2.0825330042461
30
0
41
1
10
20.4661925862512
20
2.07973568966031
30
0
41
1
10
20.1276516601229
20
2.07349684075731
30
0
41
1
10
19.7891518135209
20
2.06380416694833
30
0
41
1
10
19.4505666643095
20
2.05151997834818
30
0
41
1
10
19.1120256014229
20
2.03580757602367
30
0
41
1
10
18.7735262337034
20
2.01666850092073
30
0
41
1
10
18.4349419027843
20
1.99503246485483
30
0
41
1
10
18.0964018366023
20
1.97004241004882
30
0
41
1
10
17.7579029139116
20
1.94174394220704
30
0
41
1
10
17.4193185783127
20
1.91109626029097
30
0
41
1
10
17.120356110414
20
1.88118696041494
30
0
41
1
10
16.9060506373134
20
1.85805424391833
30
0
41
1
10
16.860997671606
20
1.8531155752213
30
0
0
SPLINE
5
BE
100
AcDbEntity
8
1
62
256
6
ByLayer
370
18
48
1
60
0
100
AcDbSpline
70
4
71
3
72
10
73
6
40
0
40
0
40
0
40
0
40
0.5
40
0.5
40
1
40
1
40
1
40
1
41
1
10
10.4410820449579
20
-1.78748679847419
30
0
41
1
10
11.3453307022112
20
-2.16143112419746
30
0
41
1
10
12.2469698919735
20
-2.50018362345423
30
0
41
1
10
14.0433969328594
20
-3.11854369974577
30
0
41
1
10
14.9382004493336
20
-3.39802259291801
30
0
41
1
10
15.8289341817225
20
-3.64399244942916
30
0
0
SPLINE
5
BF
100
AcDbEntity
8
1
62
256
6
ByLayer
370
18
48
1
60
0
100
AcDbSpline
70
4
71
3
72
8
73
4
40
0
40
0
40
0
40
0
40
1
40
1
40
1
40
1
41
1
10
4.74018032807101
20
-2.57989984721379
30
0
41
1
10
4.73132115571678
20
-2.6460590616166
30
0
41
1
10
4.72731479649804
20
-2.71112693085857
30
0
41
1
10
4.72730204376498
20
-2.77457928507542
30
0
0
SPLINE
5
C0
100
AcDbEntity
8
1
62
256
6
ByLayer
370
18
48
1
60
0
100
AcDbSpline
70
4
71
3
72
8
73
4
40
0
40
0
40
0
40
0
40
1
40
1
40
1
40
1
41
1
10
48.9997779848301
20
-0.0853628325618843
30
0
41
1
10
48.9290705498303
20
-0.276432703495459
30
0
41
1
10
48.8601627287726
20
-0.468701148865847
30
0
41
1
10
48.792852510903
20
-0.662118219741984
30
0
0
SPLINE
5
C1
100
AcDbEntity
8
1
62
256
6
ByLayer
370
18
48
1
60
0
100
AcDbSpline
70
4
71
3
72
16
73
12
40
0
40
0
40
0
40
0
40
0.499999999999994
40
0.499999999999994
40
0.749999999999991
40
0.749999999999991
40
0.874999999999995
40
0.874999999999995
40
0.937499999999997
40
0.937499999999997
40
1
40
1
40
1
40
1
41
1
10
5.19440594063573
20
-3.8499053539345
30
0
41
1
10
5.12770856187967
20
-3.78638102732293
30
0
41
1
10
5.06063103252092
20
-3.72335259377769
30
0
41
1
10
4.9536289109825
20
-3.63479597365017
30
0
41
1
10
4.91702282488737
20
-3.60606602890022
30
0
41
1
10
4.85586954293763
20
-3.56955577826704
30
0
41
1
10
4.83436560294547
20
-3.55840428987892
30
0
41
1
10
4.79835882482834
20
-3.5468389273949
30
0
41
1
10
4.78567800516524
20
-3.54383960638384
30
0
41
1
10
4.75782411701709
20
-3.54142420944433
30
0
41
1
10
4.74274794010606
20
-3.54211494824989
30
0
41
1
10
4.72693165727961
20
-3.54615651300233
30
0
0
SPLINE
5
C2
100
AcDbEntity
8
1
62
256
6
ByLayer
370
18
48
1
60
0
100
AcDbSpline
70
4
71
3
72
10
73
6
40
0
40
0
40
0
40
0
40
0.5
40
0.5
40
1
40
1
40
1
40
1
41
1
10
47.3244645082576
20
-4.37552761916587
30
0
41
1
10
47.3207043314263
20
-4.34883652956526
30
0
41
1
10
47.3137760508412
20
-4.32701880463108
30
0
41
1
10
47.2962032369496
20
-4.29094399313064
30
0
41
1
10
47.2856684545879
20
-4.2768876657583
30
0
41
1
10
47.2738203484344
20
-4.26582179737892
30
0
0
SPLINE
5
C3
100
AcDbEntity
8
1
62
256
6
ByLayer
370
18
48
1
60
0
100
AcDbSpline
70
4
71
3
72
8
73
4
40
0
40
0
40
0
40
0
40
1
40
1
40
1
40
1
41
1
10
4.7839338238731
20
-2.59877331085585
30
0
41
1
10
4.82632748968644
20
-2.48383885597045
30
0
41
1
10
4.87870809107358
20
-2.36922353410844
30
0
41
1
10
4.93939230268631
20
-2.25488370369635
30
0
0
SPLINE
5
C4
100
AcDbEntity
8
1
62
256
6
ByLayer
370
18
48
1
60
0
100
AcDbSpline
70
4
71
3
72
38
73
34
40
0
40
0
40
0
40
0
40
0.0844381112576565
40
0.0844381112576565
40
0.168876222515313
40
0.168876222515313
40
0.211095278144141
40
0.211095278144141
40
0.25331433377297
40
0.25331433377297
40
0.295533389401798
40
0.295533389401798
40
0.337752445030626
40
0.337752445030626
40
0.422190556288285
40
0.422190556288285
40
0.506628667545944
40
0.506628667545944
40
0.591066778803604
40
0.591066778803604
40
0.675504890061263
40
0.675504890061263
40
0.717723945690092
40
0.717723945690092
40
0.759943001318922
40
0.759943001318922
40
0.844381112576584
40
0.844381112576584
40
0.928819223834245
40
0.928819223834245
40
0.971038279463076
40
0.971038279463076
40
1
40
1
40
1
40
1
41
1
10
46.8761217502048
20
0.455654667858113
30
0
41
1
10
46.518178726093
20
0.639661374642287
30
0
41
1
10
46.1607744243482
20
0.822494543306789
30
0
41
1
10
45.4452302738481
20
1.18234559351475
30
0
41
1
10
45.0875393951494
20
1.36018199149476
30
0
41
1
10
44.5499547549131
20
1.62122483398349
30
0
41
1
10
44.3707347492133
20
1.70756315891956
30
0
41
1
10
44.0116163504487
20
1.87766843199645
30
0
41
1
10
43.8319311321368
20
1.96138838656921
30
0
41
1
10
43.4734866674611
20
2.12580730976197
30
0
41
1
10
43.2945684394577
20
2.20624729133624
30
0
41
1
10
42.9364699646871
20
2.36438381940144
30
0
41
1
10
42.7573369071173
20
2.44197352885652
30
0
41
1
10
42.220366932097
20
2.67101426759061
30
0
41
1
10
41.8620987860749
20
2.81742460025632
30
0
41
1
10
41.1451199277941
20
3.09535771889438
30
0
41
1
10
40.7854296622198
20
3.22515282006381
30
0
41
1
10
40.0683494827563
20
3.46896992410447
30
0
41
1
10
39.7099063426874
20
3.5824019252934
30
0
41
1
10
38.993536779064
20
3.79120142424119
30
0
41
1
10
38.6351098046057
20
3.88587594007976
30
0
41
1
10
38.0967947550638
20
4.01125539413718
30
0
41
1
10
37.9169884791896
20
4.05044456464077
30
0
41
1
10
37.5575807042732
20
4.12422545972194
30
0
41
1
10
37.3781776001054
20
4.15880880307185
30
0
41
1
10
36.8401367383615
20
4.25385483010686
30
0
41
1
10
36.4817988128628
20
4.30628533985922
30
0
41
1
10
35.765057969949
20
4.38822623443428
30
0
41
1
10
35.4065577609407
20
4.41587514725842
30
0
41
1
10
34.8676586828436
20
4.44304124898713
30
0
41
1
10
34.6876538976329
20
4.44948124951642
30
0
41
1
10
34.3848554961671
20
4.4557031257161
30
0
41
1
10
34.2617570777546
20
4.45693339875959
30
0
41
1
10
34.138694739168
20
4.45683039390337
30
0
0
SPLINE
5
C5
100
AcDbEntity
8
1
62
256
6
ByLayer
370
18
48
1
60
0
100
AcDbSpline
70
4
71
3
72
10
73
6
40
0
40
0
40
0
40
0
40
0.253744195786504
40
0.253744195786504
40
1
40
1
40
1
40
1
41
1
10
13.9243336939844
20
-3.07139467477629
30
0
41
1
10
13.8024608306729
20
-3.11601465269078
30
0
41
1
10
13.6805686266293
20
-3.15979470383678
30
0
41
1
10
13.2000589849162
20
-3.32893467338471
30
0
41
1
10
12.8414988296732
20
-3.44760620054319
30
0
41
1
10
12.4814362602211
20
-3.5557091235479
30
0
0
SPLINE
5
C6
100
AcDbEntity
8
1
62
256
6
ByLayer
370
18
48
1
60
0
100
AcDbSpline
70
4
71
3
72
38
73
34
40
0
40
0
40
0
40
0
40
0.0691633650077764
40
0.0691633650077764
40
0.138326730015553
40
0.138326730015553
40
0.276653460031107
40
0.276653460031107
40
0.345816825038884
40
0.345816825038884
40
0.414980190046661
40
0.414980190046661
40
0.44956187255055
40
0.44956187255055
40
0.484143555054439
40
0.484143555054439
40
0.553306920062216
40
0.553306920062216
40
0.622470285069994
40
0.622470285069994
40
0.691633650077771
40
0.691633650077771
40
0.760797015085548
40
0.760797015085548
40
0.829960380093326
40
0.829960380093326
40
0.899123745101103
40
0.899123745101103
40
0.933705427604992
40
0.933705427604992
40
0.968287110108881
40
0.968287110108881
40
1
40
1
40
1
40
1
41
1
10
5.08260577893458
20
1.82628949351459
30
0
41
1
10
5.52424002664628
20
1.6154629914102
30
0
41
1
10
5.96566881310082
20
1.39726157468337
30
0
41
1
10
6.84756079492584
20
0.952523280721834
30
0
41
1
10
7.28828557479247
20
0.725654984594456
30
0
41
1
10
8.61279915682442
20
0.0371374168090028
30
0
41
1
10
9.49078394430541
20
-0.427193836776695
30
0
41
1
10
10.8125991511281
20
-1.10678103769732
30
0
41
1
10
11.2541300999187
20
-1.3307720326205
30
0
41
1
10
12.1345108886683
20
-1.76492393461496
30
0
41
1
10
12.5741931273121
20
-1.97559088060874
30
0
41
1
10
13.2342471253809
20
-2.27971494142295
30
0
41
1
10
13.4543686427587
20
-2.37908285810508
30
0
41
1
10
13.8950904603218
20
-2.57332817963481
30
0
41
1
10
14.1158160818071
20
-2.66825500517947
30
0
41
1
10
14.7768028670276
20
-2.94426124868707
30
0
41
1
10
15.2165931584639
20
-3.11699441231056
30
0
41
1
10
16.0960699362136
20
-3.43771549695751
30
0
41
1
10
16.5357834235173
20
-3.58563342837962
30
0
41
1
10
17.4177901675362
20
-3.85311481270827
30
0
41
1
10
17.8582313720142
20
-3.97215137915083
30
0
41
1
10
18.7376068284879
20
-4.17860765037608
30
0
41
1
10
19.1769894055005
20
-4.26604483488697
30
0
41
1
10
20.0573873901185
20
-4.40759071350359
30
0
41
1
10
20.4987541973116
20
-4.4617097906247
30
0
41
1
10
21.3785404922228
20
-4.5346525703502
30
0
41
1
10
21.8178759479391
20
-4.55363326094195
30
0
41
1
10
22.4773663672029
20
-4.5557103902143
30
0
41
1
10
22.6972854266823
20
-4.55199936851611
30
0
41
1
10
23.1375782399125
20
-4.53572941430764
30
0
41
1
10
23.3581387292371
20
-4.52314649222117
30
0
41
1
10
23.7802995296667
20
-4.49068406087932
30
0
41
1
10
23.9820202374775
20
-4.47148848554329
30
0
41
1
10
24.1836215914561
20
-4.44868355884407
30
0
0
SPLINE
5
C7
100
AcDbEntity
8
1
62
256
6
ByLayer
370
18
48
1
60
0
100
AcDbSpline
70
4
71
3
72
12
73
8
40
0
40
0
40
0
40
0
40
0.249999999999999
40
0.249999999999999
40
0.499999999999997
40
0.499999999999997
40
1
40
1
40
1
40
1
41
1
10
4.72730204376157
20
-2.77457928507027
30
0
41
1
10
4.7444237639366
20
-2.76520804394843
30
0
41
1
10
4.76067838668538
20
-2.75260337495885
30
0
41
1
10
4.7898667984129
20
-2.72534571692978
30
0
41
1
10
4.80300502441568
20
-2.71064261462055
30
0
41
1
10
4.83914958056238
20
-2.66585351881503
30
0
41
1
10
4.85953610617807
20
-2.63442977850357
30
0
41
1
10
4.87778304980159
20
-2.6033640876183
30
0
0
SPLINE
5
C8
100
AcDbEntity
8
1
62
256
6
ByLayer
370
18
48
1
60
0
100
AcDbSpline
70
4
71
3
72
28
73
24
40
0
40
0
40
0
40
0
40
0.125
40
0.125
40
0.249999999999999
40
0.249999999999999
40
0.374999999999999
40
0.374999999999999
40
0.499999999999998
40
0.499999999999998
40
0.624999999999998
40
0.624999999999998
40
0.749999999999997
40
0.749999999999997
40
0.812499999999998
40
0.812499999999998
40
0.874999999999999
40
0.874999999999999
40
0.937499999999999
40
0.937499999999999
40
0.96875
40
0.96875
40
1
40
1
40
1
40
1
41
1
10
12.4814362602211
20
-3.55570912354784
30
0
41
1
10
12.1403086804872
20
-3.64830920574639
30
0
41
1
10
11.8014592668455
20
-3.73439191430319
30
0
41
1
10
11.127827125993
20
-3.89621561430181
30
0
41
1
10
10.7931395983517
20
-3.97149558284025
30
0
41
1
10
10.1287599267172
20
-4.10760834460564
30
0
41
1
10
9.79907768898016
20
-4.16839419349398
30
0
41
1
10
9.14553982598142
20
-4.2719384062249
30
0
41
1
10
8.82153478424283
20
-4.31540278377537
30
0
41
1
10
8.18010999450419
20
-4.38108822781706
30
0
41
1
10
7.86149958283704
20
-4.40288582836411
30
0
41
1
10
7.24261266824092
20
-4.41608117810827
30
0
41
1
10
6.94173515980955
20
-4.40761748363627
30
0
41
1
10
6.5080702197302
20
-4.36201208036516
30
0
41
1
10
6.36727729502388
20
-4.34137838367579
30
0
41
1
10
6.09634407745887
20
-4.28748689196848
30
0
41
1
10
5.96592572045489
20
-4.25420302085507
30
0
41
1
10
5.71760873611962
20
-4.17152919636382
30
0
41
1
10
5.59967273039942
20
-4.12219096310736
30
0
41
1
10
5.43507502874232
20
-4.03200248423374
30
0
41
1
10
5.38236402798134
20
-3.99921799031591
30
0
41
1
10
5.28359188765899
20
-3.92865125596293
30
0
41
1
10
5.23728749475427
20
-3.89074686676156
30
0
41
1
10
5.19440594063551
20
-3.8499053539436
30
0
0
SPLINE
5
C9
100
AcDbEntity
8
1
62
256
6
ByLayer
370
18
48
1
60
0
100
AcDbSpline
70
4
71
3
72
18
73
14
40
0
40
0
40
0
40
0
40
0.25
40
0.25
40
0.375
40
0.375
40
0.5
40
0.5
40
0.75
40
0.75
40
0.875
40
0.875
40
1
40
1
40
1
40
1
41
1
10
46.8761217502048
20
0.45565466785817
30
0
41
1
10
46.8280533187917
20
0.220300312879942
30
0
41
1
10
46.7893605886878
20
-0.0155483254807507
30
0
41
1
10
46.7454248759157
20
-0.370064807940025
30
0
41
1
10
46.7331408731154
20
-0.488361452153669
30
0
41
1
10
46.7134383181191
20
-0.725211245273499
30
0
41
1
10
46.7060022791674
20
-0.844376814837347
30
0
41
1
10
46.691536773927
20
-1.19687107337427
30
0
41
1
10
46.6921691241078
20
-1.42511772173228
30
0
41
1
10
46.7081080094192
20
-1.75764168467617
30
0
41
1
10
46.7159315153978
20
-1.86683402309217
30
0
41
1
10
46.7366741516599
20
-2.08187177792479
30
0
41
1
10
46.749638622017
20
-2.1879274455749
30
0
41
1
10
46.7650317570553
20
-2.29105220794889
30
0
0
SPLINE
5
CA
100
AcDbEntity
8
1
62
256
6
ByLayer
370
18
48
1
60
0
100
AcDbSpline
70
4
71
3
72
8
73
4
40
0
40
0
40
0
40
0
40
1
40
1
40
1
40
1
41
1
10
4.87778304980162
20
-2.6033640876183
30
0
41
1
10
4.84640608452324
20
-2.60198108486458
30
0
41
1
10
4.81512293984369
20
-2.60045103241961
30
0
41
1
10
4.78393382385644
20
-2.59877331085764
30
0
0
SPLINE
5
CB
100
AcDbEntity
8
1
62
256
6
ByLayer
370
18
48
1
60
0
100
AcDbSpline
70
4
71
3
72
10
73
6
40
0
40
0
40
0
40
0
40
0.5
40
0.5
40
1
40
1
40
1
40
1
41
1
10
47.3727170386865
20
4.55520524760325
30
0
41
1
10
47.474291261008
20
4.30577540831794
30
0
41
1
10
47.5771198857998
20
4.05135446077324
30
0
41
1
10
47.7834168221557
20
3.5314347406183
30
0
41
1
10
47.8869301639223
20
3.26608129918927
30
0
41
1
10
47.9896128923274
20
2.9942723319441
30
0
0
SPLINE
5
CC
100
AcDbEntity
8
1
62
256
6
ByLayer
370
13
48
1
60
0
100
AcDbSpline
70
4
71
3
72
10
73
6
40
0
40
0
40
0
40
0
40
0.5
40
0.5
40
1
40
1
40
1
40
1
41
1
10
5.19463028661744
20
1.9605985889464
30
0
41
1
10
5.11312780907991
20
1.98654669605375
30
0
41
1
10
5.03300678448431
20
2.01597537738229
30
0
41
1
10
4.87581885309834
20
2.0825295532197
30
0
41
1
10
4.79819012565011
20
2.12001846034892
30
0
41
1
10
4.72506319805515
20
2.16075295637532
30
0
0
SPLINE
5
CD
100
AcDbEntity
8
1
62
256
6
ByLayer
370
18
48
1
60
0
100
AcDbSpline
70
4
71
3
72
8
73
4
40
0
40
0
40
0
40
0
40
1
40
1
40
1
40
1
41
1
10
47.3727170386865
20
-4.55520524760325
30
0
41
1
10
47.3490606851504
20
-4.5315309052445
30
0
41
1
10
47.3282040327948
20
-4.49866187243506
30
0
41
1
10
47.3097930437681
20
-4.45651189702991
30
0
0
SPLINE
5
CE
100
AcDbEntity
8
1
62
256
6
ByLayer
370
18
48
1
60
0
100
AcDbSpline
70
4
71
3
72
8
73
4
40
0
40
0
40
0
40
0
40
1
40
1
40
1
40
1
41
1
10
47.3097930437686
20
-4.45651189702849
30
0
41
1
10
47.3164447909215
20
-4.42720900373573
30
0
41
1
10
47.3213953461403
20
-4.39965560706034
30
0
41
1
10
47.3244645082611
20
-4.37552761913756
30
0
0
SPLINE
5
CF
100
AcDbEntity
8
1
62
256
6
ByLayer
370
18
48
1
60
0
100
AcDbSpline
70
4
71
4
72
10
73
5
40
0
40
0
40
0
40
0
40
0
40
1
40
1
40
1
40
1
40
1
41
1
10
12.842197218575
20
-2.70031658578321
30
0
41
1
10
12.7520069789865
20
-2.91416472022439
30
0
41
1
10
12.661816739398
20
-3.12801285466557
30
0
41
1
10
12.5716264998096
20
-3.34186098910675
30
0
41
1
10
12.4814362602211
20
-3.55570912354793
30
0
0
SPLINE
5
D0
100
AcDbEntity
8
1
62
256
6
ByLayer
370
18
48
1
60
0
100
AcDbSpline
70
4
71
3
72
18
73
14
40
0
40
0
40
0
40
0
40
0.25
40
0.25
40
0.5
40
0.5
40
0.625
40
0.625
40
0.75
40
0.75
40
0.875
40
0.875
40
1
40
1
40
1
40
1
41
1
10
48.3038813918152
20
-1.05562241000638
30
0
41
1
10
48.2170165190437
20
-1.05511993868038
30
0
41
1
10
48.1378821640109
20
-1.01688385591478
30
0
41
1
10
47.9917872636593
20
-0.883245909896033
30
0
41
1
10
47.9285914598651
20
-0.791179633040343
30
0
41
1
10
47.8449115964822
20
-0.624598221673011
30
0
41
1
10
47.8188639372418
20
-0.56393405728943
30
0
41
1
10
47.7714447904003
20
-0.436568348816934
30
0
41
1
10
47.749896957737
20
-0.369562898793617
30
0
41
1
10
47.7107056710912
20
-0.229550968275731
30
0
41
1
10
47.6930647893309
20
-0.156540534275308
30
0
41
1
10
47.6614921295328
20
-0.0048187734365115
30
0
41
1
10
47.6475117713845
20
0.0742562124650874
30
0
41
1
10
47.6355046618807
20
0.155200828627898
30
0
0
SPLINE
5
D1
100
AcDbEntity
8
1
62
256
6
ByLayer
370
18
48
1
60
0
100
AcDbSpline
70
4
71
3
72
82
73
78
40
0
40
0
40
0
40
0
40
0.0373482144456165
40
0.0373482144456165
40
0.074696428891233
40
0.074696428891233
40
0.0933705361140409
40
0.0933705361140409
40
0.112044643336849
40
0.112044643336849
40
0.149392857782464
40
0.149392857782464
40
0.168066965005271
40
0.168066965005271
40
0.186741072228079
40
0.186741072228079
40
0.205415179450886
40
0.205415179450886
40
0.224089286673694
40
0.224089286673694
40
0.261437501119309
40
0.261437501119309
40
0.298785715564924
40
0.298785715564924
40
0.317459822787732
40
0.317459822787732
40
0.33613393001054
40
0.33613393001054
40
0.373482144456156
40
0.373482144456156
40
0.410830358901772
40
0.410830358901772
40
0.429504466124579
40
0.429504466124579
40
0.448178573347387
40
0.448178573347387
40
0.466852680570196
40
0.466852680570196
40
0.485526787793004
40
0.485526787793004
40
0.504200895015811
40
0.504200895015811
40
0.522875002238619
40
0.522875002238619
40
0.560223216684235
40
0.560223216684235
40
0.597571431129851
40
0.597571431129851
40
0.616245538352659
40
0.616245538352659
40
0.634919645575466
40
0.634919645575466
40
0.672267860021079
40
0.672267860021079
40
0.709616074466693
40
0.709616074466693
40
0.7282901816895
40
0.7282901816895
40
0.746964288912307
40
0.746964288912307
40
0.765638396135115
40
0.765638396135115
40
0.784312503357922
40
0.784312503357922
40
0.821660717803537
40
0.821660717803537
40
0.859008932249152
40
0.859008932249152
40
0.877683039471959
40
0.877683039471959
40
0.896357146694766
40
0.896357146694766
40
0.933705361140381
40
0.933705361140381
40
0.971053575585995
40
0.971053575585995
40
1
40
1
40
1
40
1
41
1
10
12.4814362602211
20
3.55570912354799
30
0
41
1
10
12.8409783560257
20
3.4477624642802
30
0
41
1
10
13.1990796405126
20
3.32926003980904
30
0
41
1
10
13.9154298057327
20
3.07714257653547
30
0
41
1
10
14.273357685347
20
2.94362378719467
30
0
41
1
10
14.8104478365875
20
2.73300128653636
30
0
41
1
10
14.9894720753162
20
2.66067540594091
30
0
41
1
10
15.3479266707427
20
2.51209140971665
30
0
41
1
10
15.5275915460163
20
2.43607878874374
30
0
41
1
10
16.0663303485181
20
2.20298245398828
30
0
41
1
10
16.4246937320612
20
2.0416633255023
30
0
41
1
10
16.9618812565768
20
1.79326399180721
30
0
41
1
10
17.1407403490427
20
1.70928958000192
30
0
41
1
10
17.498677564425
20
1.53950735292261
30
0
41
1
10
17.6777667984469
20
1.45348947586268
30
0
41
1
10
18.0359334857616
20
1.27919837818928
30
0
41
1
10
18.2150124467154
20
1.19090330029837
30
0
41
1
10
18.573767247472
20
1.01331711309047
30
0
41
1
10
18.753456657965
20
0.92371516209289
30
0
41
1
10
19.2918010980694
20
0.65296963388505
30
0
41
1
10
19.6501199876904
20
0.470970203279364
30
0
41
1
10
20.3660078282975
20
0.104874749270408
30
0
41
1
10
20.7240223322492
20
-0.0783947579726316
30
0
41
1
10
21.261005632373
20
-0.353825574862384
30
0
41
1
10
21.4400797015958
20
-0.445557904723472
30
0
41
1
10
21.7989359398305
20
-0.627875890077064
30
0
41
1
10
21.9786287123029
20
-0.718891431808032
30
0
41
1
10
22.5167435555077
20
-0.990320352496866
30
0
41
1
10
22.8751309175761
20
-1.16823306630053
30
0
41
1
10
23.5909315413686
20
-1.51900558444339
30
0
41
1
10
23.9487736901433
20
-1.69156890155736
30
0
41
1
10
24.4860863347763
20
-1.94241125583372
30
0
41
1
10
24.6654808122074
20
-2.02448836934997
30
0
41
1
10
25.0244482778592
20
-2.18647667320062
30
0
41
1
10
25.2040395296671
20
-2.26635483401799
30
0
41
1
10
25.562755755157
20
-2.42276229723231
30
0
41
1
10
25.7420870402979
20
-2.4992490339198
30
0
41
1
10
26.10031939163
20
-2.6496563708474
30
0
41
1
10
26.2792112201075
20
-2.72370690487063
30
0
41
1
10
26.6371415551184
20
-2.86798092027107
30
0
41
1
10
26.816149724681
20
-2.93806629849075
30
0
41
1
10
27.1741687717904
20
-3.07366375807871
30
0
41
1
10
27.3531487926144
20
-3.13954183926535
30
0
41
1
10
27.8909149419275
20
-3.33065782276594
30
0
41
1
10
28.250206884794
20
-3.4504210742968
30
0
41
1
10
28.9676676609495
20
-3.6717663989219
30
0
41
1
10
29.3254287923736
20
-3.77473084759131
30
0
41
1
10
29.8625101093334
20
-3.91222805106261
30
0
41
1
10
30.0414904800154
20
-3.95552173965172
30
0
41
1
10
30.3993867927305
20
-4.03791698509093
30
0
41
1
10
30.57842620881
20
-4.07651986780732
30
0
41
1
10
31.1163018172199
20
-4.18261235738589
30
0
41
1
10
31.4757112507411
20
-4.24225149167995
30
0
41
1
10
32.1930136558894
20
-4.34042355841706
30
0
41
1
10
32.5509701754579
20
-4.37870380728123
30
0
41
1
10
33.0878806128006
20
-4.42218815958964
30
0
41
1
10
33.2667427380811
20
-4.43383255939202
30
0
41
1
10
33.6247811440586
20
-4.44964086501804
30
0
41
1
10
33.8040726694114
20
-4.45419680978384
30
0
41
1
10
34.1627654677488
20
-4.45778392138652
30
0
41
1
10
34.3422791848815
20
-4.45671272239701
30
0
41
1
10
34.7013650638501
20
-4.44905402500555
30
0
41
1
10
34.880848511303
20
-4.44249615404803
30
0
41
1
10
35.4185743313357
20
-4.41501645883579
30
0
41
1
10
35.7764726353754
20
-4.38717271687204
30
0
41
1
10
36.492460029301
20
-4.30480716834072
30
0
41
1
10
36.8506332127214
20
-4.25222098064933
30
0
41
1
10
37.3887096899153
20
-4.15683317883281
30
0
41
1
10
37.5683099055408
20
-4.12211180910688
30
0
41
1
10
37.9273755498046
20
-4.04821798319043
30
0
41
1
10
38.1066977182479
20
-4.00904272070244
30
0
41
1
10
38.6440749967587
20
-3.8835924403115
30
0
41
1
10
39.0020971678355
20
-3.78885447710542
30
0
41
1
10
39.7180016682478
20
-3.57989076083237
30
0
41
1
10
40.0763995709571
20
-3.46635498704896
30
0
41
1
10
40.7130267496718
20
-3.24967359101234
30
0
41
1
10
40.9912595877748
20
-3.15046545508741
30
0
41
1
10
41.2690191740021
20
-3.04596916277893
30
0
0
SPLINE
5
D2
100
AcDbEntity
8
1
62
256
6
ByLayer
370
18
48
1
60
0
100
AcDbSpline
70
4
71
3
72
20
73
16
40
0
40
0
40
0
40
0
40
0.25
40
0.25
40
0.375
40
0.375
40
0.5
40
0.5
40
0.625
40
0.625
40
0.75
40
0.75
40
0.875
40
0.875
40
1
40
1
40
1
40
1
41
1
10
48.3080058646364
20
-1.05514764619204
30
0
41
1
10
48.356788697968
20
-1.02985305491538
30
0
41
1
10
48.4095724119185
20
-0.982841411484287
30
0
41
1
10
48.4953466628035
20
-0.881196890423013
30
0
41
1
10
48.5248712816797
20
-0.842192618215705
30
0
41
1
10
48.5842413068581
20
-0.75649281206492
30
0
41
1
10
48.6143080272826
20
-0.709540515192941
30
0
41
1
10
48.6752075344588
20
-0.607679998133136
30
0
41
1
10
48.706162802352
20
-0.552494526442985
30
0
41
1
10
48.7670728948974
20
-0.437481584570435
30
0
41
1
10
48.7972351159625
20
-0.377331741860843
30
0
41
1
10
48.8569494362497
20
-0.252007709551464
30
0
41
1
10
48.8866703812829
20
-0.186432266672995
30
0
41
1
10
48.9445255553112
20
-0.0523582684558619
30
0
41
1
10
48.9725831081039
20
0.0159166611430521
30
0
41
1
10
48.9997779848301
20
0.0853628325618843
30
0
0
SPLINE
5
D3
100
AcDbEntity
8
1
62
256
6
ByLayer
370
18
48
1
60
0
100
AcDbSpline
70
4
71
3
72
10
73
6
40
0
40
0
40
0
40
0
40
0.5
40
0.5
40
1
40
1
40
1
40
1
41
1
10
47.3727170386865
20
-4.55520524760325
30
0
41
1
10
47.4743041697166
20
-4.30574370916216
30
0
41
1
10
47.5771396791905
20
-4.05130518025621
30
0
41
1
10
47.7834368797866
20
-3.53138358650736
30
0
41
1
10
47.8869437258895
20
-3.26604539963375
30
0
41
1
10
47.9896128923275
20
-2.99427233194393
30
0
0
SPLINE
5
D4
100
AcDbEntity
8
1
62
256
6
ByLayer
370
18
48
1
60
0
100
AcDbSpline
70
4
71
3
72
8
73
4
40
0
40
0
40
0
40
0
40
1
40
1
40
1
40
1
41
1
10
46.8761217502049
20
0.45565466785817
30
0
41
1
10
47.1270980339628
20
0.344591972800543
30
0
41
1
10
47.3801431650732
20
0.244022231610103
30
0
41
1
10
47.6355046618807
20
0.155200828627926
30
0
0
SPLINE
5
D5
100
AcDbEntity
8
1
62
256
6
ByLayer
370
18
48
1
60
0
100
AcDbSpline
70
4
71
3
72
22
73
18
40
0
40
0
40
0
40
0
40
0.189127997394385
40
0.189127997394385
40
0.290486997720087
40
0.290486997720087
40
0.391845998045789
40
0.391845998045789
40
0.594563998697192
40
0.594563998697192
40
0.695922999022894
40
0.695922999022894
40
0.797281999348596
40
0.797281999348596
40
0.898640999674298
40
0.898640999674298
40
1
40
1
40
1
40
1
41
1
10
4.72534405933854
20
4.52347504899996
30
0
41
1
10
4.72523549250033
20
4.52398038117988
30
0
41
1
10
4.72515840204176
20
4.49324561592187
30
0
41
1
10
4.72508462870132
20
4.39956045769571
30
0
41
1
10
4.72506714248337
20
4.35810241514218
30
0
41
1
10
4.7250467193258
20
4.25699581356201
30
0
41
1
10
4.72504394431939
20
4.19817366261884
30
0
41
1
10
4.72505159499423
20
3.99827367188331
30
0
41
1
10
4.72507837418507
20
3.83384126565233
30
0
41
1
10
4.72512000669531
20
3.53901022960298
30
0
41
1
10
4.72513384283673
20
3.43356478635465
30
0
41
1
10
4.72515489283768
20
3.21128347818973
30
0
41
1
10
4.72516217170863
20
3.09407166485693
30
0
41
1
10
4.72516382905374
20
2.84758121778899
30
0
41
1
10
4.72515822114093
20
2.71830341294995
30
0
41
1
10
4.72512713825864
20
2.44732381032145
30
0
41
1
10
4.72510159467163
20
2.30600480399798
30
0
41
1
10
4.72506319805512
20
2.16075295637532
30
0
0
SPLINE
5
D6
100
AcDbEntity
8
1
62
256
6
ByLayer
370
18
48
1
60
0
100
AcDbSpline
70
4
71
3
72
48
73
44
40
0
40
0
40
0
40
0
40
0.0253924934403761
40
0.0253924934403761
40
0.0517332368609057
40
0.0517332368609057
40
0.157096210543027
40
0.157096210543027
40
0.209777697384087
40
0.209777697384087
40
0.262459184225147
40
0.262459184225147
40
0.315140671066207
40
0.315140671066207
40
0.367822157907267
40
0.367822157907267
40
0.394162901327798
40
0.394162901327798
40
0.420503644748329
40
0.420503644748329
40
0.473185131589389
40
0.473185131589389
40
0.525866618430449
40
0.525866618430449
40
0.552207361850979
40
0.552207361850979
40
0.578548105271509
40
0.578548105271509
40
0.63122959211257
40
0.63122959211257
40
0.683911078953632
40
0.683911078953632
40
0.736592565794693
40
0.736592565794693
40
0.789274052635754
40
0.789274052635754
40
0.894637026317877
40
0.894637026317877
40
0.947318513158939
40
0.947318513158939
40
0.973659256579469
40
0.973659256579469
40
1
40
1
40
1
40
1
41
1
10
22.2808022980651
20
4.55507484963434
30
0
41
1
10
22.4927190386704
20
4.55544276117396
30
0
41
1
10
22.7047229437948
20
4.55171816070606
30
0
41
1
10
23.1370779869524
20
4.53575449520881
30
0
41
1
10
23.3576321848615
20
4.5231786628519
30
0
41
1
10
24.4586764267336
20
4.43854674704224
30
0
41
1
10
25.3352201081516
20
4.30108218546115
30
0
41
1
10
26.6568114591761
20
3.99738888035981
30
0
41
1
10
27.0970937278368
20
3.88024102125266
30
0
41
1
10
27.9758315248596
20
3.6172418583856
30
0
41
1
10
28.4147938232502
20
3.47123017561151
30
0
41
1
10
29.2943669404665
20
3.15304882336889
30
0
41
1
10
29.7354315465159
20
2.9804496755358
30
0
41
1
10
30.614701370007
20
2.61455602231439
30
0
41
1
10
31.0535950291777
20
2.42099486792185
30
0
41
1
10
31.7124736549463
20
2.11736597276422
30
0
41
1
10
31.9321931038225
20
2.01394811655428
30
0
41
1
10
32.3720973642018
20
1.8031484763228
30
0
41
1
10
32.5924896557246
20
1.69564590023728
30
0
41
1
10
33.2527627838332
20
1.36901392096865
30
0
41
1
10
33.6917594772849
20
1.14543338944125
30
0
41
1
10
34.5697361757592
20
0.690971045493171
30
0
41
1
10
35.0087247966139
20
0.460106006285315
30
0
41
1
10
35.6689215332256
20
0.111560893295746
30
0
41
1
10
35.8892550619912
20
-0.0049834797259507
30
0
41
1
10
36.3289367099259
20
-0.237571180198614
30
0
41
1
10
36.5485253775137
20
-0.353682341015144
30
0
41
1
10
37.2070429286043
20
-0.700508751099164
30
0
41
1
10
37.6457268188554
20
-0.929711566766429
30
0
41
1
10
38.5245416662725
20
-1.38014472957741
30
0
41
1
10
38.9652306598958
20
-1.60185164380553
30
0
41
1
10
39.8438262959969
20
-2.02990116945199
30
0
41
1
10
40.2824015690483
20
-2.23656667353867
30
0
41
1
10
41.1602056701162
20
-2.63169130514592
30
0
41
1
10
41.5999816692615
20
-2.82049509894986
30
0
41
1
10
42.9195322095193
20
-3.35209100292519
30
0
41
1
10
43.7950850032009
20
-3.65851623739795
30
0
41
1
10
45.1153386639725
20
-4.02972336253515
30
0
41
1
10
45.5544008890638
20
-4.13800772126567
30
0
41
1
10
46.2125361371353
20
-4.27601679731094
30
0
41
1
10
46.4318604022977
20
-4.31795883048949
30
0
41
1
10
46.870649456344
20
-4.3935274117697
30
0
41
1
10
47.0899120479127
20
-4.42724873094079
30
0
41
1
10
47.309793043768
20
-4.45651189703011
30
0
0
SPLINE
5
D7
100
AcDbEntity
8
1
62
256
6
ByLayer
370
18
48
1
60
0
100
AcDbSpline
70
4
71
3
72
8
73
4
40
0
40
0
40
0
40
0
40
1
40
1
40
1
40
1
41
1
10
48.7928525109078
20
-0.662118219728399
30
0
41
1
10
48.5226148865708
20
-1.43865068974776
30
0
41
1
10
48.2548628731717
20
-2.2160335211334
30
0
41
1
10
47.9896128923275
20
-2.99427233194425
30
0
0
SPLINE
5
D8
100
AcDbEntity
8
1
62
256
6
ByLayer
370
13
48
1
60
0
100
AcDbSpline
70
4
71
3
72
20
73
16
40
0
40
0
40
0
40
0
40
0.0122858968629147
40
0.141447312737779
40
0.206028020675213
40
0.270608728612644
40
0.399770144487508
40
0.464350852424943
40
0.528931560362374
40
0.658092976237237
40
0.722673684174665
40
0.787254392112099
40
0.916415807986965
40
0.980996515924397
40
1
40
1
40
1
40
1
41
1
10
48.021025184579
20
2.08221948005675
30
0
41
1
10
48.0049225478849
20
2.08215121514022
30
0
41
1
10
47.8195335664724
20
2.08124223710306
30
0
41
1
10
47.5495269682205
20
2.07791582901359
30
0
41
1
10
47.2110274587581
20
2.07028948708114
30
0
41
1
10
46.8724426297637
20
2.06005945690691
30
0
41
1
10
46.5339017142057
20
2.04640473697381
30
0
41
1
10
46.195401938752
20
2.02933287227
30
0
41
1
10
45.8568169033604
20
2.00974833066121
30
0
41
1
10
45.5182760032054
20
1.98679386731331
30
0
41
1
10
45.1797766689954
20
1.96049033425081
30
0
41
1
10
44.8411921463958
20
1.931795338169
30
0
41
1
10
44.5026516830542
20
1.8998357502924
30
0
41
1
10
44.2238755037042
20
1.87087191016266
30
0
41
1
10
44.1143311252383
20
1.85902602018834
30
0
41
1
10
44.0894248417554
20
1.85630914569714
30
0
0
SPLINE
5
D9
100
AcDbEntity
8
1
62
256
6
ByLayer
370
18
48
1
60
0
100
AcDbSpline
70
4
71
3
72
20
73
16
40
0
40
0
40
0
40
0
40
0.325986471423667
40
0.325986471423667
40
0.407483089279584
40
0.407483089279584
40
0.4889797071355
40
0.4889797071355
40
0.651972942847334
40
0.651972942847334
40
0.814966178559167
40
0.814966178559167
40
0.977959414271
40
0.977959414271
40
1
40
1
40
1
40
1
41
1
10
4.72693165727964
20
-3.54615651300216
30
0
41
1
10
4.72677068110505
20
-3.75186274711317
30
0
41
1
10
4.72658021904675
20
-3.92595458453528
30
0
41
1
10
4.72633741682415
20
-4.105081873307
30
0
41
1
10
4.72628858257534
20
-4.13896349203947
30
0
41
1
10
4.72619104669337
20
-4.20278079063553
30
0
41
1
10
4.72614220275779
20
-4.23279487524388
30
0
41
1
10
4.72599815669676
20
-4.3160383516084
30
0
41
1
10
4.72590542261082
20
-4.3625811746125
30
0
41
1
10
4.72573048702435
20
-4.43831235409209
30
0
41
1
10
4.72564827707868
20
-4.4674993161328
30
0
41
1
10
4.72549739126066
20
-4.50844072921132
30
0
41
1
10
4.72542856637239
20
-4.52020222100529
30
0
41
1
10
4.72535975477703
20
-4.5232441954395
30
0
41
1
10
4.72535172440354
20
-4.5234421041348
30
0
41
1
10
4.72534385933443
20
-4.52347594474475
30
0
0
SPLINE
5
DA
100
AcDbEntity
8
1
62
256
6
ByLayer
370
18
48
1
60
0
100
AcDbSpline
70
4
71
3
72
8
73
4
40
0
40
0
40
0
40
0
40
1
40
1
40
1
40
1
41
1
10
48.9997779848301
20
0.0853628325619127
30
0
41
1
10
49.0000740050505
20
0.0284542775206376
30
0
41
1
10
49.0000740050505
20
-0.0284542775206091
30
0
41
1
10
48.9997779848301
20
-0.0853628325618843
30
0
0
SPLINE
5
DB
100
AcDbEntity
8
1
62
256
6
ByLayer
370
18
48
1
60
0
100
AcDbSpline
70
4
71
1
72
4
73
2
40
0
40
0
40
1
40
1
41
1
10
47.3244645082554
20
-4.37552761916527
30
0
41
1
10
48.3080058646477
20
-1.05514764618886
30
0
0
SPLINE
5
DC
100
AcDbEntity
8
1
62
256
6
ByLayer
370
13
48
1
60
0
100
AcDbSpline
70
4
71
3
72
34
73
30
40
0
40
0
40
0
40
0
40
0.126043811664497
40
0.126043811664497
40
0.252087623328994
40
0.252087623328994
40
0.283598576245119
40
0.283598576245119
40
0.315109529161243
40
0.315109529161243
40
0.378131434993491
40
0.378131434993491
40
0.504175246657987
40
0.504175246657987
40
0.567197152490235
40
0.567197152490235
40
0.59870810540636
40
0.59870810540636
40
0.630219058322485
40
0.630219058322485
40
0.756262869986984
40
0.756262869986984
40
0.882306681651483
40
0.882306681651483
40
0.913817634567609
40
0.913817634567609
40
0.945328587483734
40
0.945328587483734
40
1
40
1
40
1
40
1
41
1
10
47.2738203484378
20
-4.26582179738213
30
0
41
1
10
46.393934796071
20
-4.12410247130165
30
0
41
1
10
45.5224120390054
20
-3.91804264235122
30
0
41
1
10
43.7804547625438
20
-3.39539965151766
30
0
41
1
10
42.9095812570268
20
-3.07880746042184
30
0
41
1
10
41.8113100839324
20
-2.62658819189892
30
0
41
1
10
41.5909371824947
20
-2.53321779558084
30
0
41
1
10
41.1498711977159
20
-2.3417162129189
30
0
41
1
10
40.9299728529687
20
-2.24395250979532
30
0
41
1
10
40.2718466595869
20
-1.94528865123644
30
0
41
1
10
39.8352356248875
20
-1.73893508134719
30
0
41
1
10
38.5287406545559
20
-1.10409997791794
30
0
41
1
10
37.661797502393
20
-0.660550682709754
30
0
41
1
10
36.3558760879849
20
0.0124872069445132
30
0
41
1
10
35.9196200755762
20
0.238084931896992
30
0
41
1
10
35.2620553756127
20
0.574827745985573
30
0
41
1
10
35.0423889897641
20
0.686898737590553
30
0
41
1
10
34.6018019269466
20
0.910108411146496
30
0
41
1
10
34.38075938161
20
1.02131102699624
30
0
41
1
10
33.2803289751678
20
1.56942895349925
30
0
41
1
10
32.4082053141901
20
1.98513434234476
30
0
41
1
10
30.6640962299713
20
2.74428041707782
30
0
41
1
10
29.7921640353429
20
3.08740306679366
30
0
41
1
10
28.6917064109875
20
3.45346278784515
30
0
41
1
10
28.4708472363343
20
3.52370957951302
30
0
41
1
10
28.0292836217989
20
3.65710478749315
30
0
41
1
10
27.8087112257622
20
3.72023133072085
30
0
41
1
10
27.2056651280516
20
3.88269800193186
30
0
41
1
10
26.8233773677588
20
3.9744664302479
30
0
41
1
10
26.4405698221662
20
4.05436065389011
30
0
0
SPLINE
5
DD
100
AcDbEntity
8
1
62
256
6
ByLayer
370
18
48
1
60
0
100
AcDbSpline
70
4
71
3
72
8
73
4
40
0
40
0
40
0
40
0
40
1
40
1
40
1
40
1
41
1
10
48.9997779848301
20
0.0853628325618843
30
0
41
1
10
48.9291947953403
20
0.276096959827498
30
0
41
1
10
48.8602824221937
20
0.468357207758004
30
0
41
1
10
48.7928525109031
20
0.662118219741842
30
0
0
SPLINE
5
DE
100
AcDbEntity
8
1
62
256
6
ByLayer
370
18
48
1
60
0
100
AcDbSpline
70
4
71
3
72
16
73
12
40
0
40
0
40
0
40
0
40
0.178002493452161
40
0.178002493452161
40
0.356004986904322
40
0.356004986904322
40
0.534007480356483
40
0.534007480356483
40
0.712009973808644
40
0.712009973808644
40
1
40
1
40
1
40
1
41
1
10
15.8289341817225
20
-3.64399244942914
30
0
41
1
10
16.1583935273993
20
-3.74811353301612
30
0
41
1
10
16.4876072681619
20
-3.84353379218891
30
0
41
1
10
17.1451346835369
20
-4.01774054049889
30
0
41
1
10
17.4735809657347
20
-4.09635931129725
30
0
41
1
10
18.1306327173649
20
-4.2358533955593
30
0
41
1
10
18.4596800436878
20
-4.29643073762816
30
0
41
1
10
19.1183719639173
20
-4.39938875741885
30
0
41
1
10
19.4480064233208
20
-4.44126079958147
30
0
41
1
10
20.3083491234619
20
-4.52572226584948
30
0
41
1
10
20.8395291889578
20
-4.55246034695318
30
0
41
1
10
21.3715547472933
20
-4.55344784719458
30
0
0
SPLINE
5
DF
100
AcDbEntity
8
1
62
256
6
ByLayer
370
18
48
1
60
0
100
AcDbSpline
70
4
71
3
72
18
73
14
40
0
40
0
40
0
40
0
40
0.0313930489230637
40
0.0313930489230637
40
0.354262032615379
40
0.354262032615379
40
0.515696524461535
40
0.515696524461535
40
0.67713101630769
40
0.67713101630769
40
0.838565508153845
40
0.838565508153845
40
1
40
1
40
1
40
1
41
1
10
41.2712586714221
20
3.04808654136511
30
0
41
1
10
41.3351106291694
20
3.07345297761097
30
0
41
1
10
41.3989415282765
20
3.09856570234373
30
0
41
1
10
42.1189711531217
20
3.37901097825801
30
0
41
1
10
42.7739731706542
20
3.60722742261538
30
0
41
1
10
43.7597341636061
20
3.90185946304095
30
0
41
1
10
44.0888360941682
20
3.99186159096621
30
0
41
1
10
44.7454480131758
20
4.15424354505998
30
0
41
1
10
45.0736748624104
20
4.22649308389862
30
0
41
1
10
45.7302140396449
20
4.35289529002802
30
0
41
1
10
46.0592798930954
20
4.40684059531173
30
0
41
1
10
46.7163547335593
20
4.49563151198919
30
0
41
1
10
47.0446659008016
20
4.53027458366512
30
0
41
1
10
47.3727170386865
20
4.55520524760325
30
0
0
SPLINE
5
E0
100
AcDbEntity
8
1
62
256
6
ByLayer
370
13
48
1
60
0
100
AcDbSpline
70
4
71
3
72
23
73
19
40
0
40
0
40
0
40
0
40
0.182218010963601
40
0.182218010963601
40
0.273327016445401
40
0.273327016445401
40
0.364436021927202
40
0.364436021927202
40
0.455545027409002
40
0.455545027409002
40
0.546654032890803
40
0.546654032890803
40
0.728872043854404
40
0.728872043854404
40
0.819981049336204
40
0.819981049336204
40
0.911090054818005
40
1
40
1
40
1
40
1
41
1
10
5.19463028661744
20
1.9605985889464
30
0
41
1
10
5.19458245465941
20
2.2289135939651
30
0
41
1
10
5.19453024193925
20
2.47948719406978
30
0
41
1
10
5.19445215384494
20
2.8296350384056
30
0
41
1
10
5.1944261502922
20
2.9420323574393
30
0
41
1
10
5.19437525211004
20
3.15793514685277
30
0
41
1
10
5.1943505592817
20
3.26059361735304
30
0
41
1
10
5.1943039518016
20
3.45400170676896
30
0
41
1
10
5.19428190161176
20
3.54532101779103
30
0
41
1
10
5.19424175001649
20
3.71450385063858
30
0
41
1
10
5.19422367220955
20
3.79226350392457
30
0
41
1
10
5.19417616388139
20
4.00561267187823
30
0
41
1
10
5.19415348170821
20
4.12147660206156
30
0
41
1
10
5.19413526651948
20
4.25426538725148
30
0
41
1
10
5.19413190853089
20
4.29108273169706
30
0
41
1
10
5.19413048675759
20
4.34970016514609
30
0
41
1
10
5.19413428283553
20
4.39298105409253
30
0
41
1
10
5.19414781284445
20
4.40750522459237
30
0
41
1
10
5.19415670979777
20
4.40748638040563
30
0
0
SPLINE
5
E1
100
AcDbEntity
8
1
62
256
6
ByLayer
370
18
48
1
60
0
100
AcDbSpline
70
4
71
3
72
20
73
16
40
0
40
0
40
0
40
0
40
0.0268814974238478
40
0.0268814974238478
40
0.124193347681464
40
0.124193347681464
40
0.221505197939081
40
0.221505197939081
40
0.41612889845431
40
0.41612889845431
40
0.61075259896954
40
0.61075259896954
40
0.80537629948477
40
0.80537629948477
40
1
40
1
40
1
40
1
41
1
10
7.42675066104619
20
4.41131726431868
30
0
41
1
10
7.46912594036769
20
4.41098840721673
30
0
41
1
10
7.51169264177287
20
4.41035451410829
30
0
41
1
10
7.70919633000693
20
4.40609400945957
30
0
41
1
10
7.86673925840933
20
4.3989262428517
30
0
41
1
10
8.18340679660039
20
4.3781124217123
30
0
41
1
10
8.3427134306416
20
4.36445951006951
30
0
41
1
10
8.82322642711475
20
4.31518356164972
30
0
41
1
10
9.14691762649372
20
4.27173898119088
30
0
41
1
10
9.79992834491068
20
4.1682404853195
30
0
41
1
10
10.1294004919294
20
4.10748354061315
30
0
41
1
10
10.7934527521774
20
3.97142498730835
30
0
41
1
10
11.1280228109609
20
3.896169794316
30
0
41
1
10
11.801498092197
20
3.73438139848804
30
0
41
1
10
12.1403053449381
20
3.64831011119105
30
0
41
1
10
12.4814362602211
20
3.55570912354793
30
0
0
SPLINE
5
E2
100
AcDbEntity
8
1
62
256
6
ByLayer
370
18
48
1
60
0
100
AcDbSpline
70
4
71
3
72
8
73
4
40
0
40
0
40
0
40
0
40
1
40
1
40
1
40
1
41
1
10
48.7928525109111
20
0.662118219718849
30
0
41
1
10
48.5226161457674
20
1.43864707142436
30
0
41
1
10
48.2548641118543
20
2.21602988686018
30
0
41
1
10
47.9896128923274
20
2.99427233194444
30
0
0
SPLINE
5
E3
100
AcDbEntity
8
1
62
256
6
ByLayer
370
18
48
1
60
0
100
AcDbSpline
70
4
71
3
72
12
73
8
40
0
40
0
40
0
40
0
40
0.25
40
0.25
40
0.5
40
0.5
40
1
40
1
40
1
40
1
41
1
10
4.72693165727964
20
-3.54615651300216
30
0
41
1
10
4.70762147110904
20
-3.49080438322883
30
0
41
1
10
4.69290680972762
20
-3.43292740446299
30
0
41
1
10
4.67314043605342
20
-3.31183445425521
30
0
41
1
10
4.6681015927868
20
-3.24816650826134
30
0
41
1
10
4.66836067498718
20
-3.05209399517167
30
0
41
1
10
4.68862813162212
20
-2.91587451881642
30
0
41
1
10
4.72730204376339
20
-2.77457928507553
30
0
0
SPLINE
5
E4
100
AcDbEntity
8
1
62
256
6
ByLayer
370
18
48
1
60
0
100
AcDbSpline
70
4
71
2
72
6
73
3
40
0
40
0
40
0
40
1
40
1
40
1
41
1
10
21.0598061375019
20
-0.0267490187389683
30
0
41
1
10
20.2408064290938
20
0.169940030213183
30
0
41
1
10
19.4323596690963
20
0.584424398750116
30
0
0
SPLINE
5
E5
100
AcDbEntity
8
1
62
256
6
ByLayer
370
18
48
1
60
0
100
AcDbSpline
70
4
71
3
72
12
73
8
40
0
40
0
40
0
40
0
40
0.224361517653991
40
0.41082939988619
40
0.596268793072201
40
0.831452804674422
40
1
40
1
40
1
40
1
41
1
10
7.42219675367284
20
4.41148509474317
30
0
41
1
10
7.25595623399499
20
4.41134366336706
30
0
41
1
10
6.95131697703198
20
4.41092807376992
30
0
41
1
10
6.50825689397453
20
4.4095393563054
30
0
41
1
10
6.05716214762253
20
4.4084917758596
30
0
41
1
10
5.61937825892042
20
4.40803902699127
30
0
41
1
10
5.31938658266884
20
4.4076120287589
30
0
41
1
10
5.19414785055253
20
4.407444705171
30
0
0
SPLINE
5
E6
100
AcDbEntity
8
1
62
256
6
ByLayer
370
18
48
1
60
0
100
AcDbSpline
70
4
71
3
72
26
73
22
40
0
40
0
40
0
40
0
40
0.0725945421376949
40
0.155963902348028
40
0.249593640836552
40
0.350454297633423
40
0.418531601766637
40
0.472419936964315
40
0.535848979626431
40
0.580056259400831
40
0.615112908711209
40
0.654438943043141
40
0.698940038050814
40
0.739477118139926
40
0.786862978640681
40
0.840088342434063
40
0.88443856822693
40
0.906418390815657
40
0.92593418415148
40
0.957775261349323
40
1
40
1
40
1
40
1
41
1
10
34.1580478188615
20
4.45680193040118
30
0
41
1
10
33.9144380623901
20
4.4574518370955
30
0
41
1
10
33.3910715441825
20
4.45802634412601
30
0
41
1
10
32.5536454011598
20
4.45190263299332
30
0
41
1
10
31.621201410053
20
4.45148443306735
30
0
41
1
10
30.7401736538989
20
4.4533256525477
30
0
41
1
10
29.992446419254
20
4.450288408907
30
0
41
1
10
29.3703352043815
20
4.44959218709181
30
0
41
1
10
28.8283213475552
20
4.44725659236553
30
0
41
1
10
28.3494942704168
20
4.44679789599843
30
0
41
1
10
27.9515478668276
20
4.44658863069756
30
0
41
1
10
27.5526181621546
20
4.44648921550544
30
0
41
1
10
27.1353030318215
20
4.44641312542836
30
0
41
1
10
26.6909441144128
20
4.4458956060198
30
0
41
1
10
26.2173074772076
20
4.44375768100852
30
0
41
1
10
25.7308693942488
20
4.44298330648144
30
0
41
1
10
25.3296763661816
20
4.44263000833419
30
0
41
1
10
25.0416408725649
20
4.44237454293253
30
0
41
1
10
24.7958782596445
20
4.44207195579483
30
0
41
1
10
24.4818257985277
20
4.44167233588206
30
0
41
1
10
24.2332932317674
20
4.44119372285152
30
0
41
1
10
24.0916047747323
20
4.44089284134338
30
0
0
SPLINE
5
E7
100
AcDbEntity
8
1
62
256
6
ByLayer
370
18
48
1
60
0
100
AcDbSpline
70
4
71
3
72
12
73
8
40
0
40
0
40
0
40
0
40
0.169739047441746
40
0.40658612179409
40
0.593336817332996
40
0.781123274697812
40
1
40
1
40
1
40
1
41
1
10
5.19414785055244
20
-4.40744470517078
30
0
41
1
10
5.31938658266932
20
-4.40761202875868
30
0
41
1
10
5.61937819982032
20
-4.40803897793896
30
0
41
1
10
6.05716241547839
20
-4.40849199815599
30
0
41
1
10
6.50825613472006
20
-4.40953872615643
30
0
41
1
10
6.94610256406423
20
-4.41091426925647
30
0
41
1
10
7.24553482643876
20
-4.41132285389341
30
0
41
1
10
7.40657471802402
20
-4.41146141052158
30
0
0
SPLINE
5
E8
100
AcDbEntity
8
1
62
256
6
ByLayer
370
18
48
1
60
0
100
AcDbSpline
70
4
71
3
72
29
73
25
40
0
40
0
40
0
40
0
40
0.0708189187435311
40
0.129958106693903
40
0.17310735651114
40
0.209688320455947
40
0.241164199275922
40
0.298333030133591
40
0.359012035472796
40
0.40170907499661
40
0.449144944581898
40
0.491966488191782
40
0.526049757731309
40
0.552902839417782
40
0.590310582091726
40
0.665533308684209
40
0.715167915071931
40
0.761603304359573
40
0.817285011348546
40
0.886890211939892
40
0.932070211261797
40
0.969999610250052
40
0.995697280946257
40
1
40
1
40
1
40
1
41
1
10
22.7817650669242
20
-4.43866259637622
30
0
41
1
10
23.0492356674473
20
-4.43890286802983
30
0
41
1
10
23.5400750225255
20
-4.43950385824624
30
0
41
1
10
24.1946982584033
20
-4.44125220435032
30
0
41
1
10
24.7187702325304
20
-4.44212960514855
30
0
41
1
10
25.1388067060242
20
-4.44248291923006
30
0
41
1
10
25.6121655674324
20
-4.44288446707156
30
0
41
1
10
26.1765195984883
20
-4.44349388033712
30
0
41
1
10
26.7833050012431
20
-4.44635088605494
30
0
41
1
10
27.353306477894
20
-4.44640902137186
30
0
41
1
10
27.8558219807792
20
-4.44654906114488
30
0
41
1
10
28.3257720138723
20
-4.44677479770229
30
0
41
1
10
28.7179223985983
20
-4.44715171195753
30
0
41
1
10
29.0896160541104
20
-4.44843843338884
30
0
41
1
10
29.6168052275723
20
-4.44999774001806
30
0
41
1
10
30.2300972050152
20
-4.45134384437407
30
0
41
1
10
30.8775113803059
20
-4.45270667760889
30
0
41
1
10
31.4510696934435
20
-4.45174992030348
30
0
41
1
10
32.1001006986294
20
-4.45193100221101
30
0
41
1
10
32.7444100404906
20
-4.45300414580325
30
0
41
1
10
33.3215511722093
20
-4.45745361241256
30
0
41
1
10
33.7329103838579
20
-4.45713212100756
30
0
41
1
10
33.9893517985648
20
-4.45690882601377
30
0
41
1
10
34.1026262063739
20
-4.4568192073356
30
0
41
1
10
34.1188717399508
20
-4.45680640908733
30
0
0
SPLINE
5
E9
100
AcDbEntity
8
1
62
256
6
ByLayer
370
18
48
1
60
0
100
AcDbSpline
70
4
71
3
72
11
73
7
40
0
40
0
40
0
40
0
40
0.28168052991677
40
0.542285263470938
40
0.781747116109862
40
1
40
1
40
1
40
1
41
1
10
34.4513612029254
20
0.0266296096541794
30
0
41
1
10
34.6184289731589
20
-0.0136349722860132
30
0
41
1
10
34.9396434458011
20
-0.104071254567799
30
0
41
1
10
35.4016291851293
20
-0.270417662634031
30
0
41
1
10
35.8249700023148
20
-0.453439361681887
30
0
41
1
10
36.093880961511
20
-0.587206772723846
30
0
41
1
10
36.2219275289975
20
-0.654924957316865
30
0
0
SPLINE
5
EA
100
AcDbEntity
8
1
62
256
6
ByLayer
370
18
48
1
60
0
100
AcDbSpline
70
4
71
2
72
6
73
3
40
0
40
0
40
0
40
1
40
1
40
1
41
1
10
47.1416170786457
20
0.340576407666333
30
0
41
1
10
46.8753941855983
20
0.447598426673693
30
0
41
1
10
46.6104017401365
20
0.592075815406361
30
0
0
LINE
5
7B
100
AcDbEntity
8
SK1
62
256
6
ByLayer
370
18
48
1
60
0
100
AcDbLine
10
-40
20
2.5
30
0
11
-40
21
-2.5
31
0
39
0
210
0
220
0
230
1
0
LINE
5
7D
100
AcDbEntity
8
SK1
62
256
6
ByLayer
370
18
48
1
60
0
100
AcDbLine
10
-38.556624
20
5
30
0
11
-38.556624
21
-5
31
0
39
0
210
0
220
0
230
1
0
LINE
5
7E
100
AcDbEntity
8
SK1
62
256
6
ByLayer
370
18
48
1
60
0
100
AcDbLine
10
0
20
-5
30
0
11
0
21
5
31
0
39
0
210
0
220
0
230
1
0
LINE
5
7F
100
AcDbEntity
8
1
62
256
6
ByLayer
370
18
48
1
60
0
100
AcDbLine
10
0
20
-5
30
0
11
0
21
5
31
0
39
0
210
0
220
0
230
1
0
LINE
5
80
100
AcDbEntity
8
1
62
256
6
ByLayer
370
13
48
1
60
0
100
AcDbLine
10
0.593433
20
4.758554
30
0
11
0.593433
21
-4.758554
31
0
39
0
210
0
220
0
230
1
0
LINE
5
81
100
AcDbEntity
8
1
62
256
6
ByLayer
370
13
48
1
60
0
100
AcDbLine
10
1.188396
20
4.517109
30
0
11
1.188396
21
-4.517109
31
0
39
0
210
0
220
0
230
1
0
LINE
5
82
100
AcDbEntity
8
1
62
256
6
ByLayer
370
18
48
1
60
0
100
AcDbLine
10
46.765032
20
-2.291052
30
0
11
48.303881
21
-1.055622
31
0
39
0
210
0
220
0
230
1
0
LINE
5
83
100
AcDbEntity
8
80
62
256
6
ByLayer
370
18
48
1
60
0
100
AcDbLine
10
0
20
0
30
0
11
-5
21
0
31
0
39
0
210
0
220
0
230
1
0
LINE
5
84
100
AcDbEntity
8
SK4
62
256
6
ByLayer
370
18
48
0.05
60
0
100
AcDbLine
10
54
20
0
30
0
11
-45
21
0
31
0
39
0
210
0
220
0
230
1
0
LINE
5
86
100
AcDbEntity
8
4
62
256
6
ByLayer
370
18
48
0.05
60
0
100
AcDbLine
10
49
20
0
30
0
11
0
21
0
31
0
39
0
210
0
220
0
230
1
0
LINE
5
88
100
AcDbEntity
8
SK1
62
256
6
ByLayer
370
18
48
1
60
0
100
AcDbLine
10
-40
20
-2.5
30
0
11
-38.556624
21
-5
31
0
39
0
210
0
220
0
230
1
0
LINE
5
89
100
AcDbEntity
8
SK1
62
256
6
ByLayer
370
18
48
1
60
0
100
AcDbLine
10
-38.556624
20
5
30
0
11
-40
21
2.5
31
0
39
0
210
0
220
0
230
1
0
LINE
5
8A
100
AcDbEntity
8
SK1
62
256
6
ByLayer
370
18
48
1
60
0
100
AcDbLine
10
-38.556624
20
-5
30
0
11
0
21
-5
31
0
39
0
210
0
220
0
230
1
0
LINE
5
8B
100
AcDbEntity
8
SK1
62
256
6
ByLayer
370
18
48
1
60
0
100
AcDbLine
10
0
20
5
30
0
11
-38.556624
21
5
31
0
39
0
210
0
220
0
230
1
0
LINE
5
8C
100
AcDbEntity
8
1
62
256
6
ByLayer
370
18
48
1
60
0
100
AcDbLine
10
1.188396
20
-4.517109
30
0
11
4.725335
21
-4.523475
31
0
39
0
210
0
220
0
230
1
0
LINE
5
8D
100
AcDbEntity
8
1
62
256
6
ByLayer
370
18
48
1
60
0
100
AcDbLine
10
21.372579
20
-4.55344
30
0
11
22.279073
21
-4.555072
31
0
39
0
210
0
220
0
230
1
0
LINE
5
8E
100
AcDbEntity
8
1
62
256
6
ByLayer
370
18
48
1
60
0
100
AcDbLine
10
22.279073
20
4.555072
30
0
11
21.372579
21
4.55344
31
0
39
0
210
0
220
0
230
1
0
LINE
5
8F
100
AcDbEntity
8
1
62
256
6
ByLayer
370
18
48
1
60
0
100
AcDbLine
10
4.725335
20
4.523475
30
0
11
1.188396
21
4.517109
31
0
39
0
210
0
220
0
230
1
0
LINE
5
90
100
AcDbEntity
8
81
62
256
6
ByLayer
370
18
48
1
60
0
100
AcDbLine
10
49
20
0
30
0
11
54
21
0
31
0
39
0
210
0
220
0
230
1
0
LINE
5
91
100
AcDbEntity
8
SK2
62
256
6
ByLayer
370
13
48
1
60
0
100
AcDbLine
10
-48.625163
20
-5
30
0
11
-48.625163
21
35.857173
31
0
39
0
210
0
220
0
230
1
0
LINE
5
93
100
AcDbEntity
8
SK2
62
256
6
ByLayer
370
13
48
1
60
0
100
AcDbLine
10
-41.5875
20
5
30
0
11
-50.625163
21
5
31
0
39
0
210
0
220
0
230
1
0
LINE
5
94
100
AcDbEntity
8
SK2
62
256
6
ByLayer
370
13
48
1
60
0
100
AcDbLine
10
-41.5875
20
-5
30
0
11
-50.625163
21
-5
31
0
39
0
210
0
220
0
230
1
0
LINE
5
95
100
AcDbEntity
8
1
62
256
6
ByLayer
370
18
48
1
60
1
100
AcDbLine
10
-48.625163
20
5
30
0
11
-48.164379
21
1.500002
31
0
39
0
210
0
220
0
230
1
0
LINE
5
96
100
AcDbEntity
8
1
62
256
6
ByLayer
370
18
48
1
60
1
100
AcDbLine
10
-48.164379
20
1.500002
30
0
11
-49.085946
21
1.499998
31
0
39
0
210
0
220
0
230
1
0
LINE
5
97
100
AcDbEntity
8
1
62
256
6
ByLayer
370
18
48
1
60
1
100
AcDbLine
10
-49.085946
20
1.499998
30
0
11
-48.625163
21
5
31
0
39
0
210
0
220
0
230
1
0
LINE
5
98
100
AcDbEntity
8
1
62
256
6
ByLayer
370
18
48
1
60
1
100
AcDbLine
10
-48.625163
20
-5
30
0
11
-49.085946
21
-1.500002
31
0
39
0
210
0
220
0
230
1
0
LINE
5
99
100
AcDbEntity
8
1
62
256
6
ByLayer
370
18
48
1
60
1
100
AcDbLine
10
-49.085946
20
-1.500002
30
0
11
-48.164379
21
-1.499998
31
0
39
0
210
0
220
0
230
1
0
LINE
5
9A
100
AcDbEntity
8
1
62
256
6
ByLayer
370
18
48
1
60
1
100
AcDbLine
10
-48.164379
20
-1.499998
30
0
11
-48.625163
21
-5
31
0
39
0
210
0
220
0
230
1
0
LINE
5
9B
100
AcDbEntity
8
2
62
256
6
ByLayer
370
13
48
1
60
0
100
AcDbLine
10
61.083343
20
-4.6
30
0
11
61.083343
21
32.310193
31
0
39
0
210
0
220
0
230
1
0
LINE
5
9D
100
AcDbEntity
8
2
62
256
6
ByLayer
370
13
48
1
60
0
100
AcDbLine
10
48.8267
20
4.6
30
0
11
63.083343
21
4.6
31
0
39
0
210
0
220
0
230
1
0
LINE
5
9E
100
AcDbEntity
8
2
62
256
6
ByLayer
370
13
48
1
60
0
100
AcDbLine
10
48.8267
20
-4.6
30
0
11
63.083343
21
-4.6
31
0
39
0
210
0
220
0
230
1
0
LINE
5
9F
100
AcDbEntity
8
1
62
256
6
ByLayer
370
18
48
1
60
1
100
AcDbLine
10
61.083343
20
4.6
30
0
11
61.544126
21
1.100002
31
0
39
0
210
0
220
0
230
1
0
LINE
5
A0
100
AcDbEntity
8
1
62
256
6
ByLayer
370
18
48
1
60
1
100
AcDbLine
10
61.544126
20
1.100002
30
0
11
60.622559
21
1.099998
31
0
39
0
210
0
220
0
230
1
0
LINE
5
A1
100
AcDbEntity
8
1
62
256
6
ByLayer
370
18
48
1
60
1
100
AcDbLine
10
60.622559
20
1.099998
30
0
11
61.083343
21
4.6
31
0
39
0
210
0
220
0
230
1
0
LINE
5
A2
100
AcDbEntity
8
1
62
256
6
ByLayer
370
18
48
1
60
1
100
AcDbLine
10
61.083343
20
-4.6
30
0
11
60.622559
21
-1.100002
31
0
39
0
210
0
220
0
230
1
0
LINE
5
A3
100
AcDbEntity
8
1
62
256
6
ByLayer
370
18
48
1
60
1
100
AcDbLine
10
60.622559
20
-1.100002
30
0
11
61.544126
21
-1.099998
31
0
39
0
210
0
220
0
230
1
0
LINE
5
A4
100
AcDbEntity
8
1
62
256
6
ByLayer
370
18
48
1
60
1
100
AcDbLine
10
61.544126
20
-1.099998
30
0
11
61.083343
21
-4.6
31
0
39
0
210
0
220
0
230
1
0
LINE
5
F1
100
AcDbEntity
8
1
62
256
6
ByLayer
370
18
48
1
60
1
100
AcDbLine
10
-48.625163
20
5
30
0
11
-48.164379
21
1.500002
31
0
39
0
210
0
220
0
230
1
0
LINE
5
F2
100
AcDbEntity
8
1
62
256
6
ByLayer
370
18
48
1
60
1
100
AcDbLine
10
-48.164379
20
1.500002
30
0
11
-49.085946
21
1.499998
31
0
39
0
210
0
220
0
230
1
0
LINE
5
F3
100
AcDbEntity
8
1
62
256
6
ByLayer
370
18
48
1
60
1
100
AcDbLine
10
-49.085946
20
1.499998
30
0
11
-48.625163
21
5
31
0
39
0
210
0
220
0
230
1
0
LINE
5
F5
100
AcDbEntity
8
1
62
256
6
ByLayer
370
18
48
1
60
1
100
AcDbLine
10
-48.625163
20
-5
30
0
11
-49.085946
21
-1.500002
31
0
39
0
210
0
220
0
230
1
0
LINE
5
F6
100
AcDbEntity
8
1
62
256
6
ByLayer
370
18
48
1
60
1
100
AcDbLine
10
-49.085946
20
-1.500002
30
0
11
-48.164379
21
-1.499998
31
0
39
0
210
0
220
0
230
1
0
LINE
5
F7
100
AcDbEntity
8
1
62
256
6
ByLayer
370
18
48
1
60
1
100
AcDbLine
10
-48.164379
20
-1.499998
30
0
11
-48.625163
21
-5
31
0
39
0
210
0
220
0
230
1
0
LINE
5
FB
100
AcDbEntity
8
1
62
256
6
ByLayer
370
18
48
1
60
1
100
AcDbLine
10
61.083343
20
4.6
30
0
11
61.544126
21
1.100002
31
0
39
0
210
0
220
0
230
1
0
LINE
5
FC
100
AcDbEntity
8
1
62
256
6
ByLayer
370
18
48
1
60
1
100
AcDbLine
10
61.544126
20
1.100002
30
0
11
60.622559
21
1.099998
31
0
39
0
210
0
220
0
230
1
0
LINE
5
FD
100
AcDbEntity
8
1
62
256
6
ByLayer
370
18
48
1
60
1
100
AcDbLine
10
60.622559
20
1.099998
30
0
11
61.083343
21
4.6
31
0
39
0
210
0
220
0
230
1
0
LINE
5
FF
100
AcDbEntity
8
1
62
256
6
ByLayer
370
18
48
1
60
1
100
AcDbLine
10
61.083343
20
-4.6
30
0
11
60.622559
21
-1.100002
31
0
39
0
210
0
220
0
230
1
0
LINE
5
100
100
AcDbEntity
8
1
62
256
6
ByLayer
370
18
48
1
60
1
100
AcDbLine
10
60.622559
20
-1.100002
30
0
11
61.544126
21
-1.099998
31
0
39
0
210
0
220
0
230
1
0
LINE
5
101
100
AcDbEntity
8
1
62
256
6
ByLayer
370
18
48
1
60
1
100
AcDbLine
10
61.544126
20
-1.099998
30
0
11
61.083343
21
-4.6
31
0
39
0
210
0
220
0
230
1
0
MTEXT
5
EB
100
AcDbEntity
8
SK6
62
256
6
ByLayer
370
13
48
1
60
0
100
AcDbMText
10
-23.609026
20
37.140328
30
0
210
0
220
0
230
1
1
\W0.7386;860.1-0920-031A0-PM P1BM
40
3.5
41
0
44
1.084337
50
0
71
7
72
5
7
iso_b_vert
0
MTEXT
5
EF
100
AcDbEntity
8
SK2
62
256
6
ByLayer
370
18
48
1
60
0
100
AcDbMText
10
-50.189796
20
18.409024
30
0
210
0
220
0
230
1
1
%%c
40
3.5
41
0
44
1.084337
50
90
71
7
72
5
7
iso_b_vert
0
MTEXT
5
F0
100
AcDbEntity
8
SK2
62
256
6
ByLayer
370
18
48
1
60
0
100
AcDbMText
10
-50.189796
20
23.63168
30
0
210
0
220
0
230
1
1
\W0.6930;10,000
40
3.5
41
0
44
1.084337
50
90
71
7
72
5
7
iso_b_vert
0
MTEXT
5
F9
100
AcDbEntity
8
2
62
256
6
ByLayer
370
18
48
1
60
0
100
AcDbMText
10
59.518709
20
16.60211
30
0
210
0
220
0
230
1
1
%%c
40
3.5
41
0
44
1.084337
50
90
71
7
72
5
7
iso_b_vert
0
MTEXT
5
FA
100
AcDbEntity
8
2
62
256
6
ByLayer
370
18
48
1
60
0
100
AcDbMText
10
59.518709
20
21.824766
30
0
210
0
220
0
230
1
1
\W0.7317;9,200
40
3.5
41
0
44
1.084337
50
90
71
7
72
5
7
iso_b_vert
0
HATCH
5
F4
100
AcDbEntity
8
SK2
62
256
6
ByLayer
370
13
48
1
60
0
100
AcDbHatch
10
0
20
0
30
0
210
0
220
0
230
1
2
ANSI31
70
0
71
0
91
1
92
5
93
3
72
1
10
-48.6251625675374
20
5
11
-48.1643788259847
21
1.50000169255318
72
1
10
-48.1643788259847
20
1.50000169255318
11
-49.0859463090902
21
1.49999830744682
72
1
10
-49.0859463090902
20
1.49999830744682
11
-48.6251625675374
21
5
97
0
75
0
76
1
52
0
41
0.0062
77
0
78
1
53
45
43
0
44
0
45
-0.0139193969876572
46
0.0139193969876572
79
0
47
0
98
1
10
0
20
0
0
HATCH
5
F8
100
AcDbEntity
8
SK2
62
256
6
ByLayer
370
13
48
1
60
0
100
AcDbHatch
10
0
20
0
30
0
210
0
220
0
230
1
2
ANSI31
70
0
71
0
91
1
92
5
93
3
72
1
10
-48.6251625675374
20
-5
11
-49.0859463090902
21
-1.50000169255318
72
1
10
-49.0859463090902
20
-1.50000169255318
11
-48.1643788259847
21
-1.49999830744682
72
1
10
-48.1643788259847
20
-1.49999830744682
11
-48.6251625675374
21
-5
97
0
75
0
76
1
52
0
41
0.0062
77
0
78
1
53
45
43
0
44
0
45
-0.0139193969876572
46
0.0139193969876572
79
0
47
0
98
1
10
0
20
0
0
HATCH
5
FE
100
AcDbEntity
8
2
62
256
6
ByLayer
370
13
48
1
60
0
100
AcDbHatch
10
0
20
0
30
0
210
0
220
0
230
1
2
ANSI31
70
0
71
0
91
1
92
5
93
3
72
1
10
61.083342615295
20
4.60000000000002
11
61.5441263568478
21
1.10000169255321
72
1
10
61.5441263568478
20
1.10000169255321
11
60.6225588737423
21
1.09999830744684
72
1
10
60.6225588737423
20
1.09999830744684
11
61.083342615295
21
4.60000000000002
97
0
75
0
76
1
52
0
41
0.0062
77
0
78
1
53
45
43
0
44
0
45
-0.0139193969876572
46
0.0139193969876572
79
0
47
0
98
1
10
0
20
0
0
HATCH
5
102
100
AcDbEntity
8
2
62
256
6
ByLayer
370
13
48
1
60
0
100
AcDbHatch
10
0
20
0
30
0
210
0
220
0
230
1
2
ANSI31
70
0
71
0
91
1
92
5
93
3
72
1
10
61.083342615295
20
-4.59999999999999
11
60.6225588737423
21
-1.10000169255318
72
1
10
60.6225588737423
20
-1.10000169255318
11
61.5441263568478
21
-1.09999830744681
72
1
10
61.5441263568478
20
-1.09999830744681
11
61.083342615295
21
-4.59999999999999
97
0
75
0
76
1
52
0
41
0.0062
77
0
78
1
53
45
43
0
44
0
45
-0.0139193969876572
46
0.0139193969876572
79
0
47
0
98
1
10
0
20
0
0
DIMENSION
5
104
100
AcDbEntity
8
2
62
256
6
ByLayer
370
13
48
1
60
0
100
AcDbDimension
2
_U0
10
47.2392
20
-14.813398
30
0
11
23.6196
21
-14.813398
31
0
70
32
71
1
72
1
41
1
210
0
220
0
230
1
3
Standard
100
AcDbAlignedDimension
13
0
23
0
33
0
14
47.2392
24
-4.6
34
0
50
0
100
AcDbRotatedDimension
1001
ACAD
1000
DSTYLE
1002
{
1070
   371
1070
    13
1070
   372
1070
    13
1070
   170
1070
     0
1070
   144
1040
1.0
1070
   277
1070
     2
1070
   278
1070
    44
1070
   146
1040
1.0
1070
   345
1005
16
1070
   347
1005
16
1070
   346
1005
16
1070
   344
1005
0
1070
   343
1005
0
1070
   172
1070
     1
1070
    76
1070
     0
1070
    75
1070
     0
1070
   282
1070
     0
1070
   281
1070
     0
1070
    71
1070
     0
1070
    74
1070
     0
1070
   279
1070
     0
1070
   173
1070
     1
1070
   340
1005
EC
1070
   271
1070
     2
1070
   272
1070
     2
1070
    77
1070
     1
1070
    73
1070
     1
1070
   171
1070
     3
1070
   274
1070
     4
1070
   177
1070
    35
1070
   176
1070
    35
1070
   178
1070
    35
1070
    48
1040
-0.1
1070
    41
1040
3.5
1070
   147
1040
1.75
1070
    42
1040
1.5875
1070
    44
1040
2.0
1070
   140
1040
3.5
1002
}
1001
ACAD_DSTYLE_DIM_LINETYPE
1070
   380
1005
16
1001
ACAD_DSTYLE_DIM_EXT1_LINETYPE
1070
   381
1005
16
1001
ACAD_DSTYLE_DIM_EXT2_LINETYPE
1070
   382
1005
16
0
DIMENSION
5
11D
100
AcDbEntity
8
SK2
62
256
6
ByLayer
370
13
48
1
60
0
100
AcDbDimension
2
_U1
10
49
20
-33.692985
30
0
11
4.5
21
-33.692985
31
0
70
32
71
1
72
1
41
1
210
0
220
0
230
1
3
Standard
100
AcDbAlignedDimension
13
-40
23
-5
33
0
14
49
24
0
34
0
50
0
100
AcDbRotatedDimension
1001
ACAD
1000
DSTYLE
1002
{
1070
   371
1070
    13
1070
   372
1070
    13
1070
   170
1070
     0
1070
   144
1040
1.0
1070
   277
1070
     2
1070
   278
1070
    44
1070
   146
1040
1.0
1070
   345
1005
16
1070
   347
1005
16
1070
   346
1005
16
1070
   344
1005
0
1070
   343
1005
0
1070
   172
1070
     1
1070
    76
1070
     0
1070
    75
1070
     0
1070
   282
1070
     0
1070
   281
1070
     0
1070
    71
1070
     0
1070
    74
1070
     0
1070
   279
1070
     0
1070
   173
1070
     1
1070
   340
1005
EC
1070
   271
1070
     2
1070
   272
1070
     2
1070
    77
1070
     1
1070
    73
1070
     1
1070
   171
1070
     3
1070
   274
1070
     4
1070
   177
1070
    35
1070
   176
1070
    35
1070
   178
1070
    35
1070
    48
1040
-0.1
1070
    41
1040
3.5
1070
   147
1040
1.75
1070
    42
1040
1.5875
1070
    44
1040
2.0
1070
   140
1040
3.5
1002
}
1001
ACAD_DSTYLE_DIM_LINETYPE
1070
   380
1005
16
1001
ACAD_DSTYLE_DIM_EXT1_LINETYPE
1070
   381
1005
16
1001
ACAD_DSTYLE_DIM_EXT2_LINETYPE
1070
   382
1005
16
0
DIMENSION
5
135
100
AcDbEntity
8
SK2
62
256
6
ByLayer
370
13
48
1
60
0
100
AcDbDimension
2
_U2
10
49
20
16.209119
30
0
11
34.32
21
16.209119
31
0
70
32
71
1
72
1
41
1
210
0
220
0
230
1
3
Standard
100
AcDbAlignedDimension
13
19.64
23
4.6
33
0
14
49
24
0
34
0
50
0
100
AcDbRotatedDimension
1001
ACAD
1000
DSTYLE
1002
{
1070
   371
1070
    13
1070
   372
1070
    13
1070
   170
1070
     0
1070
   144
1040
1.0
1070
   277
1070
     2
1070
   278
1070
    44
1070
   146
1040
1.0
1070
   345
1005
16
1070
   347
1005
16
1070
   346
1005
16
1070
   344
1005
0
1070
   343
1005
0
1070
   172
1070
     1
1070
    76
1070
     0
1070
    75
1070
     0
1070
   282
1070
     0
1070
   281
1070
     0
1070
    71
1070
     0
1070
    74
1070
     0
1070
   279
1070
     0
1070
   173
1070
     1
1070
   340
1005
EC
1070
   271
1070
     2
1070
   272
1070
     2
1070
    77
1070
     1
1070
    73
1070
     1
1070
   171
1070
     3
1070
   274
1070
     4
1070
   177
1070
    35
1070
   176
1070
    35
1070
   178
1070
    35
1070
    48
1040
-0.1
1070
    41
1040
3.5
1070
   147
1040
1.75
1070
    42
1040
1.5875
1070
    44
1040
2.0
1070
   140
1040
3.5
1002
}
1001
ACAD_DSTYLE_DIM_LINETYPE
1070
   380
1005
16
1001
ACAD_DSTYLE_DIM_EXT1_LINETYPE
1070
   381
1005
16
1001
ACAD_DSTYLE_DIM_EXT2_LINETYPE
1070
   382
1005
16
0
DIMENSION
5
14D
100
AcDbEntity
8
SK2
62
256
6
ByLayer
370
13
48
1
60
0
100
AcDbDimension
2
_U3
10
47.2392
20
-17.402503
30
0
11
66.333333
21
-17.402503
31
0
70
32
71
1
72
1
41
1
210
0
220
0
230
1
3
Standard
100
AcDbAlignedDimension
13
49
23
0
33
0
14
47.2392
24
-4.6
34
0
50
0
100
AcDbRotatedDimension
1001
ACAD
1000
DSTYLE
1002
{
1070
   371
1070
    13
1070
   372
1070
    13
1070
   170
1070
     0
1070
   144
1040
1.0
1070
   277
1070
     2
1070
   278
1070
    44
1070
   146
1040
1.0
1070
   345
1005
16
1070
   347
1005
16
1070
   346
1005
16
1070
   344
1005
0
1070
   343
1005
0
1070
   172
1070
     1
1070
    76
1070
     0
1070
    75
1070
     0
1070
   282
1070
     0
1070
   281
1070
     0
1070
    71
1070
     0
1070
    74
1070
     0
1070
   279
1070
     0
1070
   173
1070
     1
1070
   340
1005
EC
1070
   271
1070
     2
1070
   272
1070
     2
1070
    77
1070
     1
1070
    73
1070
     1
1070
   171
1070
     3
1070
   274
1070
     4
1070
   177
1070
    35
1070
   176
1070
    35
1070
   178
1070
    35
1070
    48
1040
-0.1
1070
    41
1040
3.5
1070
   147
1040
1.75
1070
    42
1040
1.5875
1070
    44
1040
2.0
1070
   140
1040
3.5
1002
}
1001
ACAD_DSTYLE_DIM_LINETYPE
1070
   380
1005
16
1001
ACAD_DSTYLE_DIM_EXT1_LINETYPE
1070
   381
1005
16
1001
ACAD_DSTYLE_DIM_EXT2_LINETYPE
1070
   382
1005
16
0
DIMENSION
5
167
100
AcDbEntity
8
SK2
62
256
6
ByLayer
370
13
48
1
60
0
100
AcDbDimension
2
_U4
10
47.2392
20
-23.343428
30
0
11
3.6196
21
-23.343428
31
0
70
32
71
1
72
1
41
1
210
0
220
0
230
1
3
Standard
100
AcDbAlignedDimension
13
-40
23
-5
33
0
14
47.2392
24
-4.6
34
0
50
0
100
AcDbRotatedDimension
1001
ACAD
1000
DSTYLE
1002
{
1070
   371
1070
    13
1070
   372
1070
    13
1070
   170
1070
     0
1070
   144
1040
1.0
1070
   277
1070
     2
1070
   278
1070
    44
1070
   146
1040
1.0
1070
   345
1005
16
1070
   347
1005
16
1070
   346
1005
16
1070
   344
1005
0
1070
   343
1005
0
1070
   172
1070
     1
1070
    76
1070
     0
1070
    75
1070
     0
1070
   282
1070
     0
1070
   281
1070
     0
1070
    71
1070
     0
1070
    74
1070
     0
1070
   279
1070
     0
1070
   173
1070
     1
1070
   340
1005
EC
1070
   271
1070
     2
1070
   272
1070
     2
1070
    77
1070
     1
1070
    73
1070
     1
1070
   171
1070
     3
1070
   274
1070
     4
1070
   177
1070
    35
1070
   176
1070
    35
1070
   178
1070
    35
1070
    48
1040
-0.1
1070
    41
1040
3.5
1070
   147
1040
1.75
1070
    42
1040
1.5875
1070
    44
1040
2.0
1070
   140
1040
3.5
1002
}
1001
ACAD_DSTYLE_DIM_LINETYPE
1070
   380
1005
16
1001
ACAD_DSTYLE_DIM_EXT1_LINETYPE
1070
   381
1005
16
1001
ACAD_DSTYLE_DIM_EXT2_LINETYPE
1070
   382
1005
16
0
ENDSEC
0
SECTION
2
OBJECTS
0
DICTIONARY
5
1ef
330
0
100
AcDbDictionary
280
0
281
1
3
ACAD_GROUP
350
1f0
3
ACAD_MLINESTYLE
350
1f1
0
DICTIONARY
5
1f0
330
0
100
AcDbDictionary
280
0
281
1
0
DICTIONARY
5
1f1
330
0
100
AcDbDictionary
280
0
281
1
3
Standard
350
18
0
MLINESTYLE
5
18
330
1f1
100
AcDbMlineStyle
2
Standard
70
0
3

62
256
51
90
52
90
71
2
49
-0.5
62
256
6
ByLayer
49
0.5
62
256
6
ByLayer
0
RASTERVARIABLES
5
1dd
330

100
AcDbRasterVariables
90
0
70
1
71
1
72
1
0
ENDSEC
0
EOF
