0
SECTION
2
HEADER
9
$ACADVER
1
AC1015
9
$DWGCODEPAGE
3
ANSI_1252
9
$HANDSEED
5
213
9
$ANGBASE
50
0
9
$ANGDIR
70
0
9
$ATTMODE
70
1
9
$AUNITS
70
0
9
$AUPREC
70
0
9
$CECOLOR
62
256
9
$CELTSCALE
40
1
9
$CELTYPE
6
ByLayer
9
$CELWEIGHT
370
18
9
$CLAYER
8
0
9
$CMLJUST
70
0
9
$CMLSCALE
40
1
9
$CMLSTYLE
2
Standard
9
$DIMSTYLE
2
Standard
9
$TEXTSIZE
40
0.2
9
$TEXTSTYLE
7
Standard
9
$LUNITS
70
2
9
$LUPREC
70
4
9
$EXTNAMES
290
1
9
$INSUNITS
70
4
9
$LTSCALE
40
1
9
$LWDISPLAY
290
1
9
$PDMODE
70
0
9
$PDSIZE
40
0
9
$PLINEGEN
70
0
0
ENDSEC
0
SECTION
2
CLASSES
0
CLASS
1
RASTERVARIABLES
2
AcDbRasterVariables
3
ISM
90
0
280
0
281
0
0
ENDSEC
0
SECTION
2
TABLES
0
TABLE
2
VPORT
5
209
100
AcDbSymbolTable
0
VPORT
5
1
100
AcDbSymbolTableRecord
100
AcDbViewportTableRecord
2
*Active
70
0
10
0
20
0
11
1
21
1
12
-1
22
1
13
0
23
0
14
0.5
24
0.5
15
10
25
10
16
0
26
0
36
1
17
0
27
0
37
0
0
ENDTAB
0
TABLE
2
LTYPE
5
20a
100
AcDbSymbolTable
0
LTYPE
5
14
100
AcDbSymbolTableRecord
100
AcDbLinetypeTableRecord
70
0
2
ByBlock
3

72
65
73
0
40
0
0
LTYPE
5
15
100
AcDbSymbolTableRecord
100
AcDbLinetypeTableRecord
70
0
2
ByLayer
3

72
65
73
0
40
0
0
LTYPE
5
16
100
AcDbSymbolTableRecord
100
AcDbLinetypeTableRecord
70
0
2
Continuous
3
Solid line
72
65
73
0
40
0
0
LTYPE
5
6E
100
AcDbSymbolTableRecord
100
AcDbLinetypeTableRecord
70
0
2
CENTER
3
____ _ ____ _ ____ _ ____
72
65
73
4
40
47.5
49
22
74
0
49
-8.5
74
0
49
8.5
74
0
49
-8.5
74
0
0
LTYPE
5
6F
100
AcDbSymbolTableRecord
100
AcDbLinetypeTableRecord
70
0
2
DASHED
3
__ __ __ __ __ __ __ __ __
72
65
73
2
40
25.72
49
12.86
74
0
49
-12.86
74
0
0
ENDTAB
0
TABLE
2
LAYER
5
20b
100
AcDbSymbolTable
0
LAYER
5
10
100
AcDbSymbolTableRecord
100
AcDbLayerTableRecord
2
0
70
0
62
7
6
Continuous
290
1
370
-3
390
0
0
LAYER
5
71
100
AcDbSymbolTableRecord
100
AcDbLayerTableRecord
2
80
70
0
62
-6
6
Continuous
290
1
370
-3
390
0
0
LAYER
5
73
100
AcDbSymbolTableRecord
100
AcDbLayerTableRecord
2
81
70
0
62
-3
6
Continuous
290
1
370
-3
390
0
0
LAYER
5
75
100
AcDbSymbolTableRecord
100
AcDbLayerTableRecord
2
1
70
0
62
4
6
Continuous
290
1
370
-3
390
0
0
LAYER
5
85
100
AcDbSymbolTableRecord
100
AcDbLayerTableRecord
2
4
70
0
62
-2
6
CENTER
290
1
370
-3
390
0
0
LAYER
5
A0
100
AcDbSymbolTableRecord
100
AcDbLayerTableRecord
2
2
70
0
62
7
6
Continuous
290
1
370
-3
390
0
0
LAYER
5
11E
100
AcDbSymbolTableRecord
100
AcDbLayerTableRecord
2
Defpoints
70
0
62
7
6
Continuous
290
0
370
-3
390
0
0
LAYER
5
1f5
100
AcDbSymbolTableRecord
100
AcDbLayerTableRecord
2
SK1
70
0
62
4
6
Continuous
290
1
370
-3
390
0
0
LAYER
5
1f6
100
AcDbSymbolTableRecord
100
AcDbLayerTableRecord
2
SK4
70
0
62
2
6
CENTER
290
1
370
-3
390
0
0
LAYER
5
1f7
100
AcDbSymbolTableRecord
100
AcDbLayerTableRecord
2
SK2
70
0
62
7
6
Continuous
290
1
370
-3
390
0
0
LAYER
5
1f8
100
AcDbSymbolTableRecord
100
AcDbLayerTableRecord
2
SK6
70
0
62
5
6
Continuous
290
1
370
-3
390
0
0
ENDTAB
0
TABLE
2
STYLE
5
20c
100
AcDbSymbolTable
0
STYLE
5
11
100
AcDbSymbolTableRecord
100
AcDbTextStyleTableRecord
2
Standard
3
txt
70
0
71
0
40
0
41
1
42
0
50
0
0
STYLE
5
103
100
AcDbSymbolTableRecord
100
AcDbTextStyleTableRecord
2
iso_b_vert
3
simplex.shx
70
0
71
0
40
0
41
1
42
0
50
0
0
STYLE
5
104
100
AcDbSymbolTableRecord
100
AcDbTextStyleTableRecord
2
DWGDirectTextStyle
3
simplex
70
0
71
0
40
0
41
1
42
0
50
0
0
ENDTAB
0
TABLE
2
DIMSTYLE
5
20d
100
AcDbSymbolTable
100
AcDbDimStyleTable
0
DIMSTYLE
105
27
100
AcDbSymbolTableRecord
100
AcDbDimStyleTableRecord
2
Standard
70
0
3
<>
41
0.18
42
0.0625
44
0.18
140
0.18
147
0.09
73
0
74
0
77
1
271
2
275
0
278
52
280
0
340
11
0
ENDTAB
0
TABLE
2
VIEW
5
20e
100
AcDbSymbolTable
0
ENDTAB
0
TABLE
2
UCS
5
20f
100
AcDbSymbolTable
0
ENDTAB
0
TABLE
2
APPID
5
210
100
AcDbSymbolTable
0
APPID
5
12
100
AcDbSymbolTableRecord
100
AcDbRegAppTableRecord
2
ACAD
70
0
0
APPID
5
11A
100
AcDbSymbolTableRecord
100
AcDbRegAppTableRecord
2
ACAD_DSTYLE_DIMBREAK
70
0
0
APPID
5
1B4
100
AcDbSymbolTableRecord
100
AcDbRegAppTableRecord
2
ACAD_DSTYLE_DIM_LINETYPE
70
0
0
APPID
5
1B5
100
AcDbSymbolTableRecord
100
AcDbRegAppTableRecord
2
ACAD_DSTYLE_DIM_EXT1_LINETYPE
70
0
0
APPID
5
1B6
100
AcDbSymbolTableRecord
100
AcDbRegAppTableRecord
2
ACAD_DSTYLE_DIM_EXT2_LINETYPE
70
0
0
APPID
5
1F1
100
AcDbSymbolTableRecord
100
AcDbRegAppTableRecord
2
ACAD_MLEADERVER
70
0
0
ENDTAB
0
TABLE
2
BLOCK_RECORD
5
211
100
AcDbSymbolTable
0
BLOCK_RECORD
5
1F
100
AcDbSymbolTableRecord
100
AcDbBlockTableRecord
2
*Model_Space
340
0
70
0
0
BLOCK_RECORD
5
1B
100
AcDbSymbolTableRecord
100
AcDbBlockTableRecord
2
*Paper_Space
340
0
70
0
0
BLOCK_RECORD
5
23
100
AcDbSymbolTableRecord
100
AcDbBlockTableRecord
2
*Paper_Space0
340
0
70
0
0
BLOCK_RECORD
5
11F
100
AcDbSymbolTableRecord
100
AcDbBlockTableRecord
2
*D1
340
0
70
0
0
BLOCK_RECORD
5
12B
100
AcDbSymbolTableRecord
100
AcDbBlockTableRecord
2
_U0
340
0
70
0
0
BLOCK_RECORD
5
137
100
AcDbSymbolTableRecord
100
AcDbBlockTableRecord
2
*D3
340
0
70
0
0
BLOCK_RECORD
5
143
100
AcDbSymbolTableRecord
100
AcDbBlockTableRecord
2
_U1
340
0
70
0
0
BLOCK_RECORD
5
14F
100
AcDbSymbolTableRecord
100
AcDbBlockTableRecord
2
*D5
340
0
70
0
0
BLOCK_RECORD
5
15B
100
AcDbSymbolTableRecord
100
AcDbBlockTableRecord
2
_U2
340
0
70
0
0
BLOCK_RECORD
5
167
100
AcDbSymbolTableRecord
100
AcDbBlockTableRecord
2
*D7
340
0
70
0
0
BLOCK_RECORD
5
175
100
AcDbSymbolTableRecord
100
AcDbBlockTableRecord
2
_U3
340
0
70
0
0
BLOCK_RECORD
5
181
100
AcDbSymbolTableRecord
100
AcDbBlockTableRecord
2
*D9
340
0
70
0
0
BLOCK_RECORD
5
18D
100
AcDbSymbolTableRecord
100
AcDbBlockTableRecord
2
_U4
340
0
70
0
0
ENDTAB
0
ENDSEC
0
SECTION
2
BLOCKS
0
BLOCK
5
20
100
AcDbEntity
8
0
100
AcDbBlockBegin
2
*Model_Space
70
0
10
0
20
0
30
0
3
*Model_Space
0
ENDBLK
5
21
100
AcDbEntity
8
0
100
AcDbBlockEnd
0
BLOCK
5
1C
100
AcDbEntity
8
0
100
AcDbBlockBegin
2
*Paper_Space
70
0
10
0
20
0
30
0
3
*Paper_Space
0
ENDBLK
5
1D
100
AcDbEntity
8
0
100
AcDbBlockEnd
0
BLOCK
5
24
100
AcDbEntity
8
0
100
AcDbBlockBegin
2
*Paper_Space0
70
0
10
0
20
0
30
0
3
*Paper_Space0
0
ENDBLK
5
25
100
AcDbEntity
8
0
100
AcDbBlockEnd
0
BLOCK
5
120
100
AcDbEntity
8
0
100
AcDbBlockBegin
2
*D1
70
1
10
0
20
0
30
0
3
*D1
0
LINE
5
122
100
AcDbEntity
8
0
62
256
6
ByLayer
370
-2
48
1
60
0
100
AcDbLine
10
0
20
-1.5875
30
0
11
0
21
-16.763398
31
0
39
0
210
0
220
0
230
1
0
LINE
5
123
100
AcDbEntity
8
0
62
256
6
ByLayer
370
-2
48
1
60
0
100
AcDbLine
10
97.257
20
-6.1375
30
0
11
97.257
21
-16.763398
31
0
39
0
210
0
220
0
230
1
0
LINE
5
124
100
AcDbEntity
8
0
62
256
6
ByLayer
370
-2
48
1
60
0
100
AcDbLine
10
3.5
20
-14.763398
30
0
11
93.757
21
-14.763398
31
0
39
0
210
0
220
0
230
1
0
SOLID
5
125
100
AcDbEntity
8
0
62
256
6
ByLayer
370
-1
48
1
60
0
100
AcDbTrace
10
3.5
20
-14.180065
30
0
11
3.5
21
-15.346732
31
0
12
0
22
-14.763398
32
0
13
0
23
-14.763398
33
0
39
0
210
0
220
0
230
1
0
SOLID
5
126
100
AcDbEntity
8
0
62
256
6
ByLayer
370
-1
48
1
60
0
100
AcDbTrace
10
93.757
20
-15.346732
30
0
11
93.757
21
-14.180065
31
0
12
97.257
22
-14.763398
32
0
13
97.257
23
-14.763398
33
0
39
0
210
0
220
0
230
1
0
MTEXT
5
127
100
AcDbEntity
8
0
62
256
6
ByLayer
370
18
48
1
60
0
100
AcDbMText
10
48.6285
20
-7.763398
30
0
210
0
220
0
230
1
1
\A1;97.26
40
3.5
41
0
44
1
50
0
71
5
72
5
7
iso_b_vert
0
POINT
5
128
100
AcDbEntity
8
Defpoints
62
0
6
ByLayer
370
-1
48
1
60
0
100
AcDbPoint
10
0
20
0
30
0
39
0
210
0
220
0
230
1
50
360
0
POINT
5
129
100
AcDbEntity
8
Defpoints
62
0
6
ByLayer
370
-1
48
1
60
0
100
AcDbPoint
10
97.257
20
-4.55
30
0
39
0
210
0
220
0
230
1
50
360
0
POINT
5
12A
100
AcDbEntity
8
Defpoints
62
0
6
ByLayer
370
-1
48
1
60
0
100
AcDbPoint
10
97.257
20
-14.763398
30
0
39
0
210
0
220
0
230
1
50
360
0
ENDBLK
5
121
100
AcDbEntity
8
0
100
AcDbBlockEnd
0
BLOCK
5
132
100
AcDbEntity
8
0
100
AcDbBlockBegin
2
_U0
70
0
10
0
20
0
30
0
3
_U0
0
MTEXT
5
12C
100
AcDbEntity
8
2
62
256
6
ByLayer
370
13
48
1
60
0
100
AcDbMText
10
43.491201
20
-13.730765
30
0
210
0
220
0
230
1
1
\W0.7317;97,26
40
3.5
41
0
44
1.084337
50
0
71
7
72
5
7
iso_b_vert
0
LINE
5
12D
100
AcDbEntity
8
2
62
256
6
ByLayer
370
13
48
1
60
0
100
AcDbLine
10
0
20
-1.5875
30
0
11
0
21
-16.763398
31
0
39
0
210
0
220
0
230
1
0
LINE
5
12E
100
AcDbEntity
8
2
62
256
6
ByLayer
370
13
48
1
60
0
100
AcDbLine
10
97.257
20
-6.1375
30
0
11
97.257
21
-16.763398
31
0
39
0
210
0
220
0
230
1
0
LINE
5
12F
100
AcDbEntity
8
2
62
256
6
ByLayer
370
13
48
1
60
0
100
AcDbLine
10
0
20
-14.763398
30
0
11
97.257
21
-14.763398
31
0
39
0
210
0
220
0
230
1
0
SOLID
5
130
100
AcDbEntity
8
2
62
256
6
ByLayer
370
18
48
1
60
0
100
AcDbTrace
10
0
20
-14.763398
30
0
11
3.499998
21
-14.302615
31
0
12
3.500002
22
-15.224182
32
0
13
3.500002
23
-15.224182
33
0
39
0
210
0
220
0
230
1
0
SOLID
5
131
100
AcDbEntity
8
2
62
256
6
ByLayer
370
18
48
1
60
0
100
AcDbTrace
10
97.257
20
-14.763398
30
0
11
93.757002
21
-15.224182
31
0
12
93.756998
22
-14.302615
32
0
13
93.756998
23
-14.302615
33
0
39
0
210
0
220
0
230
1
0
ENDBLK
5
133
100
AcDbEntity
8
0
100
AcDbBlockEnd
0
BLOCK
5
138
100
AcDbEntity
8
0
100
AcDbBlockBegin
2
*D3
70
1
10
0
20
0
30
0
3
*D3
0
LINE
5
13A
100
AcDbEntity
8
0
62
256
6
ByLayer
370
-2
48
1
60
0
100
AcDbLine
10
-40
20
-6.5875
30
0
11
-40
21
-35.692985
31
0
39
0
210
0
220
0
230
1
0
LINE
5
13B
100
AcDbEntity
8
0
62
256
6
ByLayer
370
-2
48
1
60
0
100
AcDbLine
10
99
20
-1.5875
30
0
11
99
21
-35.692985
31
0
39
0
210
0
220
0
230
1
0
LINE
5
13C
100
AcDbEntity
8
0
62
256
6
ByLayer
370
-2
48
1
60
0
100
AcDbLine
10
-36.5
20
-33.692985
30
0
11
95.5
21
-33.692985
31
0
39
0
210
0
220
0
230
1
0
SOLID
5
13D
100
AcDbEntity
8
0
62
256
6
ByLayer
370
-1
48
1
60
0
100
AcDbTrace
10
-36.5
20
-33.109652
30
0
11
-36.5
21
-34.276319
31
0
12
-40
22
-33.692985
32
0
13
-40
23
-33.692985
33
0
39
0
210
0
220
0
230
1
0
SOLID
5
13E
100
AcDbEntity
8
0
62
256
6
ByLayer
370
-1
48
1
60
0
100
AcDbTrace
10
95.5
20
-34.276319
30
0
11
95.5
21
-33.109652
31
0
12
99
22
-33.692985
32
0
13
99
23
-33.692985
33
0
39
0
210
0
220
0
230
1
0
MTEXT
5
13F
100
AcDbEntity
8
0
62
256
6
ByLayer
370
18
48
1
60
0
100
AcDbMText
10
29.5
20
-26.692985
30
0
210
0
220
0
230
1
1
\A1;139.00
40
3.5
41
0
44
1
50
0
71
5
72
5
7
iso_b_vert
0
POINT
5
140
100
AcDbEntity
8
Defpoints
62
0
6
ByLayer
370
-1
48
1
60
0
100
AcDbPoint
10
-40
20
-5
30
0
39
0
210
0
220
0
230
1
50
360
0
POINT
5
141
100
AcDbEntity
8
Defpoints
62
0
6
ByLayer
370
-1
48
1
60
0
100
AcDbPoint
10
99
20
0
30
0
39
0
210
0
220
0
230
1
50
360
0
POINT
5
142
100
AcDbEntity
8
Defpoints
62
0
6
ByLayer
370
-1
48
1
60
0
100
AcDbPoint
10
99
20
-33.692985
30
0
39
0
210
0
220
0
230
1
50
360
0
ENDBLK
5
139
100
AcDbEntity
8
0
100
AcDbBlockEnd
0
BLOCK
5
14A
100
AcDbEntity
8
0
100
AcDbBlockBegin
2
_U1
70
0
10
0
20
0
30
0
3
_U1
0
MTEXT
5
144
100
AcDbEntity
8
SK2
62
256
6
ByLayer
370
13
48
1
60
0
100
AcDbMText
10
23.492401
20
-32.660352
30
0
210
0
220
0
230
1
1
\W0.6930;139,00
40
3.5
41
0
44
1.084337
50
0
71
7
72
5
7
iso_b_vert
0
LINE
5
145
100
AcDbEntity
8
SK2
62
256
6
ByLayer
370
13
48
1
60
0
100
AcDbLine
10
-40
20
-6.5875
30
0
11
-40
21
-35.692985
31
0
39
0
210
0
220
0
230
1
0
LINE
5
146
100
AcDbEntity
8
SK2
62
256
6
ByLayer
370
13
48
1
60
0
100
AcDbLine
10
99
20
-1.5875
30
0
11
99
21
-35.692985
31
0
39
0
210
0
220
0
230
1
0
LINE
5
147
100
AcDbEntity
8
SK2
62
256
6
ByLayer
370
13
48
1
60
0
100
AcDbLine
10
-40
20
-33.692985
30
0
11
99
21
-33.692985
31
0
39
0
210
0
220
0
230
1
0
SOLID
5
148
100
AcDbEntity
8
SK2
62
256
6
ByLayer
370
18
48
1
60
0
100
AcDbTrace
10
-40
20
-33.692985
30
0
11
-36.500002
21
-33.232202
31
0
12
-36.499998
22
-34.153769
32
0
13
-36.499998
23
-34.153769
33
0
39
0
210
0
220
0
230
1
0
SOLID
5
149
100
AcDbEntity
8
SK2
62
256
6
ByLayer
370
18
48
1
60
0
100
AcDbTrace
10
99
20
-33.692985
30
0
11
95.500002
21
-34.153769
31
0
12
95.499998
22
-33.232202
32
0
13
95.499998
23
-33.232202
33
0
39
0
210
0
220
0
230
1
0
ENDBLK
5
14B
100
AcDbEntity
8
0
100
AcDbBlockEnd
0
BLOCK
5
150
100
AcDbEntity
8
0
100
AcDbBlockBegin
2
*D5
70
1
10
0
20
0
30
0
3
*D5
0
LINE
5
152
100
AcDbEntity
8
0
62
256
6
ByLayer
370
-2
48
1
60
0
100
AcDbLine
10
24.46
20
6.1375
30
0
11
24.46
21
18.159119
31
0
39
0
210
0
220
0
230
1
0
LINE
5
153
100
AcDbEntity
8
0
62
256
6
ByLayer
370
-2
48
1
60
0
100
AcDbLine
10
99
20
1.5875
30
0
11
99
21
18.159119
31
0
39
0
210
0
220
0
230
1
0
LINE
5
154
100
AcDbEntity
8
0
62
256
6
ByLayer
370
-2
48
1
60
0
100
AcDbLine
10
27.96
20
16.159119
30
0
11
95.5
21
16.159119
31
0
39
0
210
0
220
0
230
1
0
SOLID
5
155
100
AcDbEntity
8
0
62
256
6
ByLayer
370
-1
48
1
60
0
100
AcDbTrace
10
27.96
20
16.742453
30
0
11
27.96
21
15.575786
31
0
12
24.46
22
16.159119
32
0
13
24.46
23
16.159119
33
0
39
0
210
0
220
0
230
1
0
SOLID
5
156
100
AcDbEntity
8
0
62
256
6
ByLayer
370
-1
48
1
60
0
100
AcDbTrace
10
95.5
20
15.575786
30
0
11
95.5
21
16.742453
31
0
12
99
22
16.159119
32
0
13
99
23
16.159119
33
0
39
0
210
0
220
0
230
1
0
MTEXT
5
157
100
AcDbEntity
8
0
62
256
6
ByLayer
370
18
48
1
60
0
100
AcDbMText
10
61.73
20
23.159119
30
0
210
0
220
0
230
1
1
\A1;74.54
40
3.5
41
0
44
1
50
0
71
5
72
5
7
iso_b_vert
0
POINT
5
158
100
AcDbEntity
8
Defpoints
62
0
6
ByLayer
370
-1
48
1
60
0
100
AcDbPoint
10
24.46
20
4.55
30
0
39
0
210
0
220
0
230
1
50
360
0
POINT
5
159
100
AcDbEntity
8
Defpoints
62
0
6
ByLayer
370
-1
48
1
60
0
100
AcDbPoint
10
99
20
0
30
0
39
0
210
0
220
0
230
1
50
360
0
POINT
5
15A
100
AcDbEntity
8
Defpoints
62
0
6
ByLayer
370
-1
48
1
60
0
100
AcDbPoint
10
99
20
16.159119
30
0
39
0
210
0
220
0
230
1
50
360
0
ENDBLK
5
151
100
AcDbEntity
8
0
100
AcDbBlockEnd
0
BLOCK
5
162
100
AcDbEntity
8
0
100
AcDbBlockBegin
2
_U2
70
0
10
0
20
0
30
0
3
_U2
0
MTEXT
5
15C
100
AcDbEntity
8
SK2
62
256
6
ByLayer
370
13
48
1
60
0
100
AcDbMText
10
56.224168
20
17.191753
30
0
210
0
220
0
230
1
1
\W0.7756;74,54
40
3.5
41
0
44
1.084337
50
0
71
7
72
5
7
iso_b_vert
0
LINE
5
15D
100
AcDbEntity
8
SK2
62
256
6
ByLayer
370
13
48
1
60
0
100
AcDbLine
10
24.46
20
6.1375
30
0
11
24.46
21
18.159119
31
0
39
0
210
0
220
0
230
1
0
LINE
5
15E
100
AcDbEntity
8
SK2
62
256
6
ByLayer
370
13
48
1
60
0
100
AcDbLine
10
99
20
1.5875
30
0
11
99
21
18.159119
31
0
39
0
210
0
220
0
230
1
0
LINE
5
15F
100
AcDbEntity
8
SK2
62
256
6
ByLayer
370
13
48
1
60
0
100
AcDbLine
10
24.46
20
16.159119
30
0
11
99
21
16.159119
31
0
39
0
210
0
220
0
230
1
0
SOLID
5
160
100
AcDbEntity
8
SK2
62
256
6
ByLayer
370
18
48
1
60
0
100
AcDbTrace
10
24.46
20
16.159119
30
0
11
27.959998
21
16.619903
31
0
12
27.960002
22
15.698335
32
0
13
27.960002
23
15.698335
33
0
39
0
210
0
220
0
230
1
0
SOLID
5
161
100
AcDbEntity
8
SK2
62
256
6
ByLayer
370
18
48
1
60
0
100
AcDbTrace
10
99
20
16.159119
30
0
11
95.500002
21
15.698335
31
0
12
95.499998
22
16.619903
32
0
13
95.499998
23
16.619903
33
0
39
0
210
0
220
0
230
1
0
ENDBLK
5
163
100
AcDbEntity
8
0
100
AcDbBlockEnd
0
BLOCK
5
168
100
AcDbEntity
8
0
100
AcDbBlockBegin
2
*D7
70
1
10
0
20
0
30
0
3
*D7
0
LINE
5
16A
100
AcDbEntity
8
0
62
256
6
ByLayer
370
-2
48
1
60
0
100
AcDbLine
10
99
20
-1.5875
30
0
11
99
21
-19.352503
31
0
39
0
210
0
220
0
230
1
0
LINE
5
16B
100
AcDbEntity
8
0
62
256
6
ByLayer
370
-2
48
1
60
0
100
AcDbLine
10
97.257
20
-6.1375
30
0
11
97.257
21
-19.352503
31
0
39
0
210
0
220
0
230
1
0
LINE
5
16C
100
AcDbEntity
8
0
62
256
6
ByLayer
370
-2
48
1
60
0
100
AcDbLine
10
99
20
-17.352503
30
0
11
126.833333
21
-17.352503
31
0
39
0
210
0
220
0
230
1
0
LINE
5
16D
100
AcDbEntity
8
0
62
256
6
ByLayer
370
-2
48
1
60
0
100
AcDbLine
10
102.5
20
-17.352503
30
0
11
106
21
-17.352503
31
0
39
0
210
0
220
0
230
1
0
LINE
5
16E
100
AcDbEntity
8
0
62
256
6
ByLayer
370
-2
48
1
60
0
100
AcDbLine
10
93.757
20
-17.352503
30
0
11
90.257
21
-17.352503
31
0
39
0
210
0
220
0
230
1
0
SOLID
5
16F
100
AcDbEntity
8
0
62
256
6
ByLayer
370
-1
48
1
60
0
100
AcDbTrace
10
102.5
20
-16.76917
30
0
11
102.5
21
-17.935837
31
0
12
99
22
-17.352503
32
0
13
99
23
-17.352503
33
0
39
0
210
0
220
0
230
1
0
SOLID
5
170
100
AcDbEntity
8
0
62
256
6
ByLayer
370
-1
48
1
60
0
100
AcDbTrace
10
93.757
20
-17.935837
30
0
11
93.757
21
-16.76917
31
0
12
97.257
22
-17.352503
32
0
13
97.257
23
-17.352503
33
0
39
0
210
0
220
0
230
1
0
MTEXT
5
171
100
AcDbEntity
8
0
62
256
6
ByLayer
370
18
48
1
60
0
100
AcDbMText
10
116.416667
20
-10.352503
30
0
210
0
220
0
230
1
1
\A1;1.74
40
3.5
41
0
44
1
50
0
71
5
72
5
7
iso_b_vert
0
POINT
5
172
100
AcDbEntity
8
Defpoints
62
0
6
ByLayer
370
-1
48
1
60
0
100
AcDbPoint
10
99
20
0
30
0
39
0
210
0
220
0
230
1
50
360
0
POINT
5
173
100
AcDbEntity
8
Defpoints
62
0
6
ByLayer
370
-1
48
1
60
0
100
AcDbPoint
10
97.257
20
-4.55
30
0
39
0
210
0
220
0
230
1
50
360
0
POINT
5
174
100
AcDbEntity
8
Defpoints
62
0
6
ByLayer
370
-1
48
1
60
0
100
AcDbPoint
10
97.257
20
-17.352503
30
0
39
0
210
0
220
0
230
1
50
360
0
ENDBLK
5
169
100
AcDbEntity
8
0
100
AcDbBlockEnd
0
BLOCK
5
17C
100
AcDbEntity
8
0
100
AcDbBlockBegin
2
_U3
70
0
10
0
20
0
30
0
3
_U3
0
MTEXT
5
176
100
AcDbEntity
8
SK2
62
256
6
ByLayer
370
13
48
1
60
0
100
AcDbMText
10
105.405026
20
-16.31987
30
0
210
0
220
0
230
1
1
\W0.6611;1,74
40
3.5
41
0
44
1.084337
50
0
71
7
72
5
7
iso_b_vert
0
LINE
5
177
100
AcDbEntity
8
SK2
62
256
6
ByLayer
370
13
48
1
60
0
100
AcDbLine
10
99
20
-1.5875
30
0
11
99
21
-19.352503
31
0
39
0
210
0
220
0
230
1
0
LINE
5
178
100
AcDbEntity
8
SK2
62
256
6
ByLayer
370
13
48
1
60
0
100
AcDbLine
10
97.257
20
-6.1375
30
0
11
97.257
21
-19.352503
31
0
39
0
210
0
220
0
230
1
0
LINE
5
179
100
AcDbEntity
8
SK2
62
256
6
ByLayer
370
13
48
1
60
0
100
AcDbLine
10
88.507
20
-17.352503
30
0
11
112.743324
21
-17.352503
31
0
39
0
210
0
220
0
230
1
0
SOLID
5
17A
100
AcDbEntity
8
SK2
62
256
6
ByLayer
370
18
48
1
60
0
100
AcDbTrace
10
99
20
-17.352503
30
0
11
102.499998
21
-16.891719
31
0
12
102.500002
22
-17.813287
32
0
13
102.500002
23
-17.813287
33
0
39
0
210
0
220
0
230
1
0
SOLID
5
17B
100
AcDbEntity
8
SK2
62
256
6
ByLayer
370
18
48
1
60
0
100
AcDbTrace
10
97.257
20
-17.352503
30
0
11
93.757002
21
-17.813287
31
0
12
93.756998
22
-16.891719
32
0
13
93.756998
23
-16.891719
33
0
39
0
210
0
220
0
230
1
0
ENDBLK
5
17D
100
AcDbEntity
8
0
100
AcDbBlockEnd
0
BLOCK
5
182
100
AcDbEntity
8
0
100
AcDbBlockBegin
2
*D9
70
1
10
0
20
0
30
0
3
*D9
0
LINE
5
184
100
AcDbEntity
8
0
62
256
6
ByLayer
370
-2
48
1
60
0
100
AcDbLine
10
-40
20
-6.5875
30
0
11
-40
21
-25.343428
31
0
39
0
210
0
220
0
230
1
0
LINE
5
185
100
AcDbEntity
8
0
62
256
6
ByLayer
370
-2
48
1
60
0
100
AcDbLine
10
97.257
20
-6.1375
30
0
11
97.257
21
-25.343428
31
0
39
0
210
0
220
0
230
1
0
LINE
5
186
100
AcDbEntity
8
0
62
256
6
ByLayer
370
-2
48
1
60
0
100
AcDbLine
10
-36.5
20
-23.343428
30
0
11
93.757
21
-23.343428
31
0
39
0
210
0
220
0
230
1
0
SOLID
5
187
100
AcDbEntity
8
0
62
256
6
ByLayer
370
-1
48
1
60
0
100
AcDbTrace
10
-36.5
20
-22.760095
30
0
11
-36.5
21
-23.926762
31
0
12
-40
22
-23.343428
32
0
13
-40
23
-23.343428
33
0
39
0
210
0
220
0
230
1
0
SOLID
5
188
100
AcDbEntity
8
0
62
256
6
ByLayer
370
-1
48
1
60
0
100
AcDbTrace
10
93.757
20
-23.926762
30
0
11
93.757
21
-22.760095
31
0
12
97.257
22
-23.343428
32
0
13
97.257
23
-23.343428
33
0
39
0
210
0
220
0
230
1
0
MTEXT
5
189
100
AcDbEntity
8
0
62
256
6
ByLayer
370
18
48
1
60
0
100
AcDbMText
10
28.6285
20
-16.343428
30
0
210
0
220
0
230
1
1
\A1;137.26
40
3.5
41
0
44
1
50
0
71
5
72
5
7
iso_b_vert
0
POINT
5
18A
100
AcDbEntity
8
Defpoints
62
0
6
ByLayer
370
-1
48
1
60
0
100
AcDbPoint
10
-40
20
-5
30
0
39
0
210
0
220
0
230
1
50
360
0
POINT
5
18B
100
AcDbEntity
8
Defpoints
62
0
6
ByLayer
370
-1
48
1
60
0
100
AcDbPoint
10
97.257
20
-4.55
30
0
39
0
210
0
220
0
230
1
50
360
0
POINT
5
18C
100
AcDbEntity
8
Defpoints
62
0
6
ByLayer
370
-1
48
1
60
0
100
AcDbPoint
10
97.257
20
-23.343428
30
0
39
0
210
0
220
0
230
1
50
360
0
ENDBLK
5
183
100
AcDbEntity
8
0
100
AcDbBlockEnd
0
BLOCK
5
194
100
AcDbEntity
8
0
100
AcDbBlockBegin
2
_U4
70
0
10
0
20
0
30
0
3
_U4
0
MTEXT
5
18E
100
AcDbEntity
8
SK2
62
256
6
ByLayer
370
13
48
1
60
0
100
AcDbMText
10
22.620901
20
-22.310795
30
0
210
0
220
0
230
1
1
\W0.6930;137,26
40
3.5
41
0
44
1.084337
50
0
71
7
72
5
7
iso_b_vert
0
LINE
5
18F
100
AcDbEntity
8
SK2
62
256
6
ByLayer
370
13
48
1
60
0
100
AcDbLine
10
-40
20
-6.5875
30
0
11
-40
21
-25.343428
31
0
39
0
210
0
220
0
230
1
0
LINE
5
190
100
AcDbEntity
8
SK2
62
256
6
ByLayer
370
13
48
1
60
0
100
AcDbLine
10
97.257
20
-6.1375
30
0
11
97.257
21
-25.343428
31
0
39
0
210
0
220
0
230
1
0
LINE
5
191
100
AcDbEntity
8
SK2
62
256
6
ByLayer
370
13
48
1
60
0
100
AcDbLine
10
-40
20
-23.343428
30
0
11
97.257
21
-23.343428
31
0
39
0
210
0
220
0
230
1
0
SOLID
5
192
100
AcDbEntity
8
SK2
62
256
6
ByLayer
370
18
48
1
60
0
100
AcDbTrace
10
-40
20
-23.343428
30
0
11
-36.500002
21
-22.882645
31
0
12
-36.499998
22
-23.804212
32
0
13
-36.499998
23
-23.804212
33
0
39
0
210
0
220
0
230
1
0
SOLID
5
193
100
AcDbEntity
8
SK2
62
256
6
ByLayer
370
18
48
1
60
0
100
AcDbTrace
10
97.257
20
-23.343428
30
0
11
93.757002
21
-23.804212
31
0
12
93.756998
22
-22.882645
32
0
13
93.756998
23
-22.882645
33
0
39
0
210
0
220
0
230
1
0
ENDBLK
5
195
100
AcDbEntity
8
0
100
AcDbBlockEnd
0
ENDSEC
0
SECTION
2
ENTITIES
0
ARC
5
A9
100
AcDbEntity
8
1
62
256
6
ByLayer
370
18
48
1
60
0
100
AcDbCircle
39
0
10
1.315071
20
-5.227306
30
0
40
0.85
210
0
220
0
230
1
100
AcDbArc
50
89.896868
51
140.675675
0
ARC
5
AA
100
AcDbEntity
8
1
62
256
6
ByLayer
370
18
48
1
60
0
100
AcDbCircle
39
0
10
1.315071
20
5.227306
30
0
40
0.85
210
0
220
0
230
1
100
AcDbArc
50
219.324325
51
270.103132
0
ARC
5
AB
100
AcDbEntity
8
1
62
256
6
ByLayer
370
18
48
1
60
0
100
AcDbCircle
39
0
10
0
20
-4.15
30
0
40
0.85
210
0
220
0
230
1
100
AcDbArc
50
270
51
320.675675
0
ARC
5
AC
100
AcDbEntity
8
1
62
256
6
ByLayer
370
18
48
1
60
0
100
AcDbCircle
39
0
10
0
20
4.15
30
0
40
0.85
210
0
220
0
230
1
100
AcDbArc
50
39.324325
51
90
0
ELLIPSE
5
AD
100
AcDbEntity
8
1
62
256
6
ByLayer
370
13
48
1
60
0
100
AcDbEllipse
10
14.305096
20
-61.042245
30
0
11
50.584870762528
21
54.3460690549737
31
0
210
0
220
0
230
1
40
0.691906
41
1.05424635938636
42
1.06209018719015
0
ELLIPSE
5
AE
100
AcDbEntity
8
1
62
256
6
ByLayer
370
13
48
1
60
0
100
AcDbEllipse
10
143.194174
20
42.140273
30
0
11
-60.7999999999998
21
7.44560663124003E-15
31
0
210
0
220
0
230
1
40
0.99863
41
0.730817999408408
42
0.752053019997873
0
ELLIPSE
5
AF
100
AcDbEntity
8
1
62
256
6
ByLayer
370
13
48
1
60
0
100
AcDbEllipse
10
15.959476
20
62.582127
30
0
11
-50.5848707625279
21
54.3460690549738
31
0
210
0
220
0
230
1
40
0.691906
41
2.14130033661871
42
2.21002887140788
0
ELLIPSE
5
B0
100
AcDbEntity
8
1
62
256
6
ByLayer
370
13
48
1
60
0
100
AcDbEllipse
10
6.300595
20
-0.771618
30
0
11
0.138502284428861
21
0.266114857172588
31
0
210
0
220
0
230
1
40
0.077224
41
1.4194664720377
42
2.30948313729429
0
ELLIPSE
5
B1
100
AcDbEntity
8
1
62
256
6
ByLayer
370
18
48
1
60
0
100
AcDbEllipse
10
6.299279
20
5.27108
30
0
11
-1
21
1.22460635382238E-16
31
0
210
0
220
0
230
1
40
1
41
1.09267139934904
42
1.44246853465927
0
ELLIPSE
5
B2
100
AcDbEntity
8
1
62
256
6
ByLayer
370
18
48
1
60
0
100
AcDbEllipse
10
6.299279
20
-5.27108
30
0
11
-1
21
1.22460635382238E-16
31
0
210
0
220
0
230
1
40
1
41
-1.43820890021701
42
-1.09308118694609
0
POINT
5
70
100
AcDbEntity
8
80
62
256
6
ByLayer
370
18
48
1
60
0
100
AcDbPoint
10
0
20
0
30
0
39
0
210
0
220
0
230
1
50
360
0
POINT
5
72
100
AcDbEntity
8
81
62
256
6
ByLayer
370
18
48
1
60
0
100
AcDbPoint
10
99
20
0
30
0
39
0
210
0
220
0
230
1
50
360
0
POINT
5
74
100
AcDbEntity
8
1
62
256
6
ByLayer
370
18
48
1
60
1
100
AcDbPoint
10
97.257
20
-4.55
30
0
39
0
210
0
220
0
230
1
50
360
0
POINT
5
76
100
AcDbEntity
8
1
62
256
6
ByLayer
370
18
48
1
60
1
100
AcDbPoint
10
-40
20
-5
30
0
39
0
210
0
220
0
230
1
50
360
0
POINT
5
77
100
AcDbEntity
8
1
62
256
6
ByLayer
370
18
48
1
60
1
100
AcDbPoint
10
24.46
20
4.55
30
0
39
0
210
0
220
0
230
1
50
360
0
POINT
5
78
100
AcDbEntity
8
1
62
256
6
ByLayer
370
18
48
1
60
1
100
AcDbPoint
10
97.257
20
-4.55
30
0
39
0
210
0
220
0
230
1
50
360
0
POINT
5
79
100
AcDbEntity
8
1
62
256
6
ByLayer
370
18
48
1
60
1
100
AcDbPoint
10
-40
20
-5
30
0
39
0
210
0
220
0
230
1
50
360
0
POINT
5
7A
100
AcDbEntity
8
1
62
256
6
ByLayer
370
18
48
1
60
1
100
AcDbPoint
10
97.257
20
-4.55
30
0
39
0
210
0
220
0
230
1
50
360
0
SPLINE
5
B3
100
AcDbEntity
8
1
62
256
6
ByLayer
370
18
48
1
60
0
100
AcDbSpline
70
4
71
3
72
8
73
4
40
0
40
0
40
0
40
0
40
1
40
1
40
1
40
1
41
1
10
98.7926689048174
20
-0.66231422795596
30
0
41
1
10
98.5352410971202
20
-1.40169235729161
30
0
41
1
10
98.2800912546132
20
-2.14185023253492
30
0
41
1
10
98.0272338678127
20
-2.88279281377956
30
0
0
SPLINE
5
B4
100
AcDbEntity
8
1
62
256
6
ByLayer
370
18
48
1
60
0
100
AcDbSpline
70
4
71
3
72
8
73
4
40
0
40
0
40
0
40
0
40
1
40
1
40
1
40
1
41
1
10
98.9997756249366
20
-0.0853268805636276
30
0
41
1
10
98.929005043571
20
-0.276472892626032
30
0
41
1
10
98.8600377556563
20
-0.468818989992741
30
0
41
1
10
98.7926689048174
20
-0.662314227955846
30
0
0
SPLINE
5
B5
100
AcDbEntity
8
1
62
256
6
ByLayer
370
18
48
1
60
0
100
AcDbSpline
70
4
71
1
72
4
73
2
40
0
40
0
40
1
40
1
41
1
10
97.3404667480959
20
-4.32957840021993
30
0
41
1
10
98.3107423551909
20
-1.05398284628095
30
0
0
SPLINE
5
B6
100
AcDbEntity
8
1
62
256
6
ByLayer
370
13
48
1
60
0
100
AcDbSpline
70
4
71
3
72
30
73
26
40
0
40
0
40
0
40
0
40
0.125
40
0.125
40
0.1875
40
0.1875
40
0.25
40
0.25
40
0.3125
40
0.3125
40
0.375
40
0.4375
40
0.4375
40
0.5
40
0.5
40
0.625
40
0.625
40
0.6875
40
0.6875
40
0.75
40
0.8125
40
0.8125
40
0.875
40
0.875
40
1
40
1
40
1
40
1
41
1
10
6.30115918733585
20
-0.720926877033122
30
0
41
1
10
6.30115387743678
20
-0.426629658801971
30
0
41
1
10
6.30114132205043
20
-0.131999841424118
30
0
41
1
10
6.30111984345399
20
0.31042663320963
30
0
41
1
10
6.30111222319033
20
0.457983072798981
30
0
41
1
10
6.30109728801878
20
0.753263022180448
30
0
41
1
10
6.30109005270359
20
0.899529386345961
30
0
41
1
10
6.30107721463472
20
1.18808975428246
30
0
41
1
10
6.30107158495795
20
1.33119726167959
30
0
41
1
10
6.30106301332367
20
1.60995961805818
30
0
41
1
10
6.30105709911436
20
1.88147909310121
30
0
41
1
10
6.30105772311612
20
2.1388725113128
30
0
41
1
10
6.3010620738485
20
2.38915122893363
30
0
41
1
10
6.30106613158219
20
2.51108448515262
30
0
41
1
10
6.30108426909126
20
2.86348794336482
30
0
41
1
10
6.30110407883319
20
3.07583186400384
30
0
41
1
10
6.3011436595265
20
3.36136140504232
30
0
41
1
10
6.30115851216354
20
3.45115918487034
30
0
41
1
10
6.30119081187772
20
3.6185769470066
30
0
41
1
10
6.30122533122378
20
3.77202720315947
30
0
41
1
10
6.30126250003309
20
3.89814785123474
30
0
41
1
10
6.30129995763053
20
4.01045679406221
30
0
41
1
10
6.30131886122115
20
4.05972548876636
30
0
41
1
10
6.30137337172187
20
4.1843672479707
30
0
41
1
10
6.30140720780625
20
4.23747925152611
30
0
41
1
10
6.3014321879119
20
4.25934104609081
30
0
0
SPLINE
5
B7
100
AcDbEntity
8
1
62
256
6
ByLayer
370
13
48
1
60
0
100
AcDbSpline
70
4
71
3
72
32
73
28
40
0
40
0
40
0
40
0
40
0.134607685717989
40
0.134607685717989
40
0.201911528576981
40
0.201911528576981
40
0.235563450006479
40
0.235563450006479
40
0.269215371435977
40
0.269215371435977
40
0.403823057153969
40
0.403823057153969
40
0.538430742871961
40
0.538430742871961
40
0.605734585730955
40
0.605734585730955
40
0.673038428589949
40
0.673038428589949
40
0.807646114307938
40
0.807646114307938
40
0.874949957166931
40
0.874949957166931
40
0.908601878596428
40
0.908601878596428
40
0.942253800025925
40
0.942253800025925
40
1
40
1
40
1
40
1
41
1
10
97.2899265678518
20
-4.21598880732287
30
0
41
1
10
96.3399681254446
20
-4.06364251655074
30
0
41
1
10
95.3992366494012
20
-3.83693518026797
30
0
41
1
10
93.9869585010005
20
-3.40231406886411
30
0
41
1
10
93.516009937259
20
-3.24167593937327
30
0
41
1
10
92.8072815369236
20
-2.97955260289342
30
0
41
1
10
92.5706561724455
20
-2.8886486005033
30
0
41
1
10
92.0963334190376
20
-2.70015577790372
30
0
41
1
10
91.8583267741582
20
-2.6024373030076
30
0
41
1
10
90.6682230994147
20
-2.0996540084752
30
0
41
1
10
89.7285725504991
20
-1.65778074989234
30
0
41
1
10
87.8533487366287
20
-0.735595680860769
30
0
41
1
10
86.9179811238769
20
-0.254761901536739
30
0
41
1
10
85.5029482224841
20
0.465460194755394
30
0
41
1
10
85.0290318666243
20
0.705676644655938
30
0
41
1
10
84.0759427122954
20
1.17976734153822
30
0
41
1
10
83.6021983629865
20
1.41091567674076
30
0
41
1
10
82.1852026438236
20
2.08001516056334
30
0
41
1
10
81.2462958296763
20
2.4938350024336
30
0
41
1
10
79.8313818480242
20
3.03967138021875
30
0
41
1
10
79.3586331301726
20
3.20910298438619
30
0
41
1
10
78.6459236425462
20
3.44161603106605
30
0
41
1
10
78.4073123685349
20
3.51570339104282
30
0
41
1
10
77.931242476346
20
3.65527752887124
30
0
41
1
10
77.6938433618415
20
3.72078693948922
30
0
41
1
10
77.0503649710045
20
3.88670994089847
30
0
41
1
10
76.6452339139663
20
3.97852964290036
30
0
41
1
10
76.2407098412744
20
4.05690033846511
30
0
0
SPLINE
5
B8
100
AcDbEntity
8
1
62
256
6
ByLayer
370
18
48
1
60
0
100
AcDbSpline
70
4
71
3
72
8
73
4
40
0
40
0
40
0
40
0
40
1
40
1
40
1
40
1
41
1
10
45.6037090654561
20
-4.33992968947194
30
0
41
1
10
45.0219289267871
20
-4.33815809833561
30
0
41
1
10
44.4389433300264
20
-4.30694862886628
30
0
41
1
10
43.8524549106157
20
-4.24619346629939
30
0
0
SPLINE
5
B9
100
AcDbEntity
8
1
62
256
6
ByLayer
370
13
48
1
60
0
100
AcDbSpline
70
4
71
3
72
36
73
32
40
0
40
0
40
0
40
0
40
0.0234954480319337
40
0.0234954480319337
40
0.153306187332057
40
0.153306187332057
40
0.28311692663218
40
0.28311692663218
40
0.31556961145721
40
0.31556961145721
40
0.348022296282241
40
0.348022296282241
40
0.412927665932301
40
0.412927665932301
40
0.542738405232425
40
0.542738405232425
40
0.575191090057455
40
0.575191090057455
40
0.607643774882485
40
0.607643774882485
40
0.672549144532544
40
0.672549144532544
40
0.802359883832665
40
0.802359883832665
40
0.867265253482725
40
0.867265253482725
40
0.899717938307755
40
0.899717938307755
40
0.932170623132785
40
0.932170623132785
40
1
40
1
40
1
40
1
41
1
10
43.8524549104224
20
-4.24619346627935
30
0
41
1
10
43.6799909840943
20
-4.22832768490107
30
0
41
1
10
43.507224160185
20
-4.20790701568905
30
0
41
1
10
42.3775749216069
20
-4.05797519302678
30
0
41
1
10
41.4318777765774
20
-3.85575783450861
30
0
41
1
10
39.5421570327113
20
-3.32438188710748
30
0
41
1
10
38.5981198808926
20
-2.99461481885228
30
0
41
1
10
37.4065675236404
20
-2.51908533015924
30
0
41
1
10
37.167239750934
20
-2.42064097873546
30
0
41
1
10
36.6894226327139
20
-2.21880840174794
30
0
41
1
10
36.4511809218191
20
-2.1155057157512
30
0
41
1
10
35.7379443197101
20
-1.79938690579829
30
0
41
1
10
35.2642910519612
20
-1.58071941471184
30
0
41
1
10
33.8456063576681
20
-0.907576430666268
30
0
41
1
10
32.9025098865626
20
-0.436411517051511
30
0
41
1
10
31.7146886940719
20
0.155818774028916
30
0
41
1
10
31.4766819479591
20
0.274435623788207
30
0
41
1
10
30.9994531955574
20
0.511341444009332
30
0
41
1
10
30.7598082395025
20
0.629798452979827
30
0
41
1
10
30.0434428136534
20
0.980982089821708
30
0
41
1
10
29.5683371144202
20
1.21038463230403
30
0
41
1
10
28.146606611808
20
1.87731591964734
30
0
41
1
10
27.2035376708088
20
2.29316046741735
30
0
41
1
10
25.7811647106893
20
2.84771152850573
30
0
41
1
10
25.3058316326549
20
3.02109911779039
30
0
41
1
10
24.5887492699838
20
3.26003407526687
30
0
41
1
10
24.3490319077276
20
3.33628669554835
30
0
41
1
10
23.8717105185192
20
3.48035318747662
30
0
41
1
10
23.6336273880479
20
3.54830060604746
30
0
41
1
10
22.8991938322525
20
3.74518695147262
30
0
41
1
10
22.4043287438151
20
3.86000830525543
30
0
41
1
10
21.9098789237887
20
3.95528482321831
30
0
0
SPLINE
5
BA
100
AcDbEntity
8
1
62
256
6
ByLayer
370
18
48
1
60
0
100
AcDbSpline
70
4
71
3
72
20
73
16
40
0
40
0
40
0
40
0
40
0.249999999999987
40
0.249999999999987
40
0.374999999999989
40
0.374999999999989
40
0.499999999999992
40
0.499999999999992
40
0.624999999999994
40
0.624999999999994
40
0.749999999999996
40
0.749999999999996
40
0.874999999999998
40
0.874999999999998
40
1
40
1
40
1
40
1
41
1
10
98.3107423551476
20
-1.05398284629356
30
0
41
1
10
98.3594544624783
20
-1.02796359702646
30
0
41
1
10
98.4120990708194
20
-0.98046228381537
30
0
41
1
10
98.497545259789
20
-0.878479909421429
30
0
41
1
10
98.5269658133342
20
-0.839400116274703
30
0
41
1
10
98.5860949354374
20
-0.753678765707406
30
0
41
1
10
98.6160282445477
20
-0.706775452416451
30
0
41
1
10
98.6766338379568
20
-0.605138206905963
30
0
41
1
10
98.7074480675705
20
-0.550094434054131
30
0
41
1
10
98.7680917664329
20
-0.435407466267947
30
0
41
1
10
98.7981145703494
20
-0.375467381443713
30
0
41
1
10
98.8575387775177
20
-0.250657653248965
30
0
41
1
10
98.887094429759
20
-0.185422939666381
30
0
41
1
10
98.9447310055427
20
-0.0518407606225253
30
0
41
1
10
98.9726827968437
20
0.0161674207525948
30
0
41
1
10
98.9997756249306
20
0.0853268805682035
30
0
0
SPLINE
5
BB
100
AcDbEntity
8
1
62
256
6
ByLayer
370
18
48
1
60
0
100
AcDbSpline
70
4
71
3
72
8
73
4
40
0
40
0
40
0
40
0
40
1
40
1
40
1
40
1
41
1
10
97.3891882454639
20
-4.50520110564401
30
0
41
1
10
97.6003693887282
20
-3.98483097587015
30
0
41
1
10
97.8162536718268
20
-3.4459174824251
30
0
41
1
10
98.0272338678127
20
-2.8827928137795
30
0
0
SPLINE
5
BC
100
AcDbEntity
8
1
62
256
6
ByLayer
370
18
48
1
60
0
100
AcDbSpline
70
4
71
3
72
18
73
14
40
0
40
0
40
0
40
0
40
0.0701721747841605
40
0.0701721747841605
40
0.18640065293614
40
0.18640065293614
40
0.302629131088121
40
0.302629131088121
40
0.53508608739208
40
0.53508608739208
40
0.76754304369604
40
0.76754304369604
40
1
40
1
40
1
40
1
41
1
10
8.52318967042473
20
3.45970737831257
30
0
41
1
10
8.59727995919221
20
3.45664645430796
30
0
41
1
10
8.67149433398319
20
3.45440094580886
30
0
41
1
10
8.86894763220323
20
3.45054955479242
30
0
41
1
10
8.99239786717143
20
3.45034642700904
30
0
41
1
10
9.239949054927
20
3.45428268382443
30
0
41
1
10
9.36436699797798
20
3.45844570842542
30
0
41
1
10
9.734961959038
20
3.47720069386443
30
0
41
1
10
9.97920486730212
20
3.49802980412846
30
0
41
1
10
10.4621312485011
20
3.55460479411539
30
0
41
1
10
10.7008082392041
20
3.59037652181948
30
0
41
1
10
11.1724189553329
20
3.6746243391274
30
0
41
1
10
11.4059987016584
20
3.72334324762272
30
0
41
1
10
11.6309339824932
20
3.77521968671229
30
0
0
SPLINE
5
BD
100
AcDbEntity
8
1
62
256
6
ByLayer
370
18
48
1
60
0
100
AcDbSpline
70
4
71
3
72
8
73
4
40
0
40
0
40
0
40
0
40
1
40
1
40
1
40
1
41
1
10
6.16416921929616
20
4.28025732360769
30
0
41
1
10
6.20833814279445
20
4.2741927918255
30
0
41
1
10
6.25447066468973
20
4.26697892721307
30
0
41
1
10
6.30143218792009
20
4.25934104609104
30
0
0
SPLINE
5
BE
100
AcDbEntity
8
1
62
256
6
ByLayer
370
18
48
1
60
0
100
AcDbSpline
70
4
71
3
72
18
73
14
40
0
40
0
40
0
40
0
40
0.141741463206426
40
0.141741463206426
40
0.31339317056514
40
0.31339317056514
40
0.656696585282568
40
0.656696585282568
40
0.742522438961926
40
0.742522438961926
40
0.828348292641284
40
0.828348292641284
40
1
40
1
40
1
40
1
41
1
10
8.52893341147038
20
-3.46126273379491
30
0
41
1
10
8.40218131162626
20
-3.51369666434152
30
0
41
1
10
8.27697641473603
20
-3.56506267806634
30
0
41
1
10
8.00401229389115
20
-3.67583093859383
30
0
41
1
10
7.85658781727579
20
-3.73483747726229
30
0
41
1
10
7.42792421494048
20
-3.90311892464797
30
0
41
1
10
7.15937817906098
20
-4.00427652990942
30
0
41
1
10
6.85669032133495
20
-4.10751513358807
30
0
41
1
10
6.7978450195186
20
-4.12696839016789
30
0
41
1
10
6.68405575434059
20
-4.16306647269752
30
0
41
1
10
6.62892674471556
20
-4.17976473269573
30
0
41
1
10
6.47170623142139
20
-4.2244430621891
30
0
41
1
10
6.37898508963721
20
-4.24672774474925
30
0
41
1
10
6.30143218790377
20
-4.25934104609328
30
0
0
SPLINE
5
BF
100
AcDbEntity
8
1
62
256
6
ByLayer
370
18
48
1
60
0
100
AcDbSpline
70
4
71
3
72
10
73
6
40
0
40
0
40
0
40
0
40
0.5
40
0.5
40
1
40
1
40
1
40
1
41
1
10
97.3404667481042
20
-4.32957840022235
30
0
41
1
10
97.337031899885
20
-4.30177133992638
30
0
41
1
10
97.330219812142
20
-4.27918212014748
30
0
41
1
10
97.3126152624675
20
-4.24181442299724
30
0
41
1
10
97.3019604018304
20
-4.22733633497586
30
0
41
1
10
97.2899265678517
20
-4.21598880732284
30
0
0
SPLINE
5
C0
100
AcDbEntity
8
1
62
256
6
ByLayer
370
18
48
1
60
0
100
AcDbSpline
70
4
71
3
72
24
73
20
40
0
40
0
40
0
40
0
40
0.250000000000004
40
0.250000000000004
40
0.375000000000004
40
0.375000000000004
40
0.500000000000003
40
0.500000000000003
40
0.562500000000003
40
0.562500000000003
40
0.625000000000003
40
0.625000000000003
40
0.750000000000003
40
0.750000000000003
40
0.875000000000003
40
0.875000000000003
40
0.937500000000001
40
0.937500000000001
40
1
40
1
40
1
40
1
41
1
10
6.30143218791184
20
-4.25934104609104
30
0
41
1
10
6.2434504167116
20
-4.26877127418456
30
0
41
1
10
6.18677456257643
20
-4.27754455421948
30
0
41
1
10
6.10695639533594
20
-4.28769051947333
30
0
41
1
10
6.08122216060198
20
-4.29056638994643
30
0
41
1
10
6.03303337639574
20
-4.29434470431707
30
0
41
1
10
6.01046211094223
20
-4.29532000125579
30
0
41
1
10
5.98219173950423
20
-4.29334910674896
30
0
41
1
10
5.97373276829103
20
-4.29209899287352
30
0
41
1
10
5.95997941424636
20
-4.28764067829573
30
0
41
1
10
5.95467844893247
20
-4.28436136328762
30
0
41
1
10
5.94636304158095
20
-4.27042989147355
30
0
41
1
10
5.95153775242943
20
-4.25549741019432
30
0
41
1
10
5.97760952942184
20
-4.21733066400378
30
0
41
1
10
5.99752376176315
20
-4.19474407359647
30
0
41
1
10
6.03095548518388
20
-4.15929377321137
30
0
41
1
10
6.04284596855362
20
-4.14711975272664
30
0
41
1
10
6.06729714908221
20
-4.1224514562648
30
0
41
1
10
6.07872593664962
20
-4.11049883906682
30
0
41
1
10
6.089586936692
20
-4.09881794861028
30
0
0
SPLINE
5
C1
100
AcDbEntity
8
1
62
256
6
ByLayer
370
18
48
1
60
0
100
AcDbSpline
70
4
71
3
72
24
73
20
40
0
40
0
40
0
40
0
40
0.209292595864865
40
0.209292595864865
40
0.418585191729729
40
0.418585191729729
40
0.523231489662162
40
0.523231489662162
40
0.627877787594595
40
0.627877787594595
40
0.680200936560811
40
0.680200936560811
40
0.732524085527027
40
0.732524085527027
40
0.83717038345946
40
0.83717038345946
40
0.941816681391893
40
0.941816681391893
40
1
40
1
40
1
40
1
41
1
10
6.19214507016869
20
-0.942889835640045
30
0
41
1
10
7.1474436664831
20
-1.41568613718741
30
0
41
1
10
8.10065705613366
20
-1.87137973884293
30
0
41
1
10
10.0091954517835
20
-2.6997163769197
30
0
41
1
10
10.9581255695609
20
-3.07028234881787
30
0
41
1
10
12.3891282819814
20
-3.53696654813058
30
0
41
1
10
12.8658835642827
20
-3.67677026668221
30
0
41
1
10
13.8173800337139
20
-3.9218959253063
30
0
41
1
10
14.2926555349691
20
-4.0273522282273
30
0
41
1
10
15.0072491119265
20
-4.15766932118837
30
0
41
1
10
15.2459669012574
20
-4.19650874930738
30
0
41
1
10
15.7228274799607
20
-4.26446989880722
30
0
41
1
10
15.9609286523727
20
-4.29361073972478
30
0
41
1
10
16.6746967497782
20
-4.36636040694182
30
0
41
1
10
17.1497943503828
20
-4.39527748658699
30
0
41
1
10
18.1015608306222
20
-4.41314715098017
30
0
41
1
10
18.5790735662797
20
-4.40202762950957
30
0
41
1
10
19.3198340482616
20
-4.35379340512986
30
0
41
1
10
19.5842346949773
20
-4.33043737096654
30
0
41
1
10
19.8485823691987
20
-4.30107116726984
30
0
0
SPLINE
5
C2
100
AcDbEntity
8
1
62
256
6
ByLayer
370
18
48
1
60
0
100
AcDbSpline
70
4
71
3
72
52
73
48
40
0
40
0
40
0
40
0
40
0.0354718925285315
40
0.0354718925285315
40
0.0842642881688566
40
0.0842642881688566
40
0.133056683809182
40
0.133056683809182
40
0.157452881629344
40
0.157452881629344
40
0.181849079449507
40
0.181849079449507
40
0.230641475089831
40
0.230641475089831
40
0.279433870730157
40
0.279433870730157
40
0.328226266370481
40
0.328226266370481
40
0.377018662010806
40
0.377018662010806
40
0.401414859830969
40
0.401414859830969
40
0.425811057651131
40
0.425811057651131
40
0.474603453291455
40
0.474603453291455
40
0.523395848931778
40
0.523395848931778
40
0.572188244572102
40
0.572188244572102
40
0.620980640212426
40
0.620980640212426
40
0.66977303585275
40
0.66977303585275
40
0.694169233672912
40
0.694169233672912
40
0.718565431493075
40
0.718565431493075
40
0.816150222773725
40
0.816150222773725
40
0.913735014054375
40
0.913735014054375
40
0.938131211874537
40
0.938131211874537
40
0.9625274096947
40
0.9625274096947
40
1
40
1
40
1
40
1
41
1
10
45.1196578214161
20
4.45614992072132
30
0
41
1
10
45.4645803252407
20
4.45663880129734
30
0
41
1
10
45.8093353095054
20
4.44651974145182
30
0
41
1
10
46.6291881076823
20
4.3973028868939
30
0
41
1
10
47.1056733637576
20
4.34865212381334
30
0
41
1
10
48.0554978757748
20
4.21274746119741
30
0
41
1
10
48.5294045054129
20
4.12550317594997
30
0
41
1
10
49.2409618308423
20
3.96725330028744
30
0
41
1
10
49.4782687377406
20
3.90994635859209
30
0
41
1
10
49.9535307070797
20
3.78657056941975
30
0
41
1
10
50.1916502974938
20
3.72039140379107
30
0
41
1
10
50.9045112288679
20
3.5096477274881
30
0
41
1
10
51.3784075087698
20
3.35275406549107
30
0
41
1
10
52.3266370030063
20
3.01018889408078
30
0
41
1
10
52.8011671017843
20
2.82461372262244
30
0
41
1
10
53.7525404832779
20
2.42813323293504
30
0
41
1
10
54.2266592372841
20
2.21838241844594
30
0
41
1
10
55.1746375525393
20
1.78079071204303
30
0
41
1
10
55.6486342859873
20
1.55320358848445
30
0
41
1
10
56.3613184135814
20
1.20158698620284
30
0
41
1
10
56.5992288329227
20
1.08264953631198
30
0
41
1
10
57.0739717372861
20
0.842968908659827
30
0
41
1
10
57.3110376198537
20
0.722085874725082
30
0
41
1
10
58.0219753066158
20
0.357574567837958
30
0
41
1
10
58.4957454250823
20
0.11239345822375
30
0
41
1
10
59.4448142798228
20
-0.378626641240203
30
0
41
1
10
59.9205596502243
20
-0.624420508264166
30
0
41
1
10
60.8688689666434
20
-1.1065141545478
30
0
41
1
10
61.3423368871941
20
-1.3434251513637
30
0
41
1
10
62.2904861980359
20
-1.80412406928934
30
0
41
1
10
62.7661469352912
20
-2.02828137189428
30
0
41
1
10
63.7148815130831
20
-2.45522060723792
30
0
41
1
10
64.1882537966349
20
-2.65830415043993
30
0
41
1
10
64.8988479696768
20
-2.94414195963572
30
0
41
1
10
65.1358045145591
20
-3.03628679305601
30
0
41
1
10
65.6102552723021
20
-3.21376318187436
30
0
41
1
10
65.8479938784371
20
-3.29917124485095
30
0
41
1
10
67.034763687702
20
-3.70652372219197
30
0
41
1
10
67.9790757015747
20
-3.97010521923002
30
0
41
1
10
69.8792283441197
20
-4.34952598433529
30
0
41
1
10
70.8235806622359
20
-4.46285801137029
30
0
41
1
10
72.0096107892028
20
-4.50348041767256
30
0
41
1
10
72.2472205060477
20
-4.50654215663465
30
0
41
1
10
72.7214363234737
20
-4.50250849230272
30
0
41
1
10
72.9582660299047
20
-4.49542812484489
30
0
41
1
10
73.55853581802
20
-4.46471864974873
30
0
41
1
10
73.9218708991902
20
-4.43426547112696
30
0
41
1
10
74.2855593906101
20
-4.39213519051029
30
0
0
SPLINE
5
C3
100
AcDbEntity
8
1
62
256
6
ByLayer
370
18
48
1
60
0
100
AcDbSpline
70
4
71
3
72
12
73
8
40
0
40
0
40
0
40
0
40
0.249999999999999
40
0.249999999999999
40
0.499999999999998
40
0.499999999999998
40
1
40
1
40
1
40
1
41
1
10
11.6309339824932
20
3.77521968671232
30
0
41
1
10
12.0598592751496
20
3.87414199332375
30
0
41
1
10
12.4897742824476
20
3.96085534060836
30
0
41
1
10
13.3480966434865
20
4.11120050081814
30
0
41
1
10
13.777009220122
20
4.17493359267996
30
0
41
1
10
15.0627240632828
20
4.33251984270501
30
0
41
1
10
15.9184772275276
20
4.39346582873773
30
0
41
1
10
16.7724656306895
20
4.40396559113495
30
0
0
SPLINE
5
C4
100
AcDbEntity
8
1
62
256
6
ByLayer
370
18
48
1
60
0
100
AcDbSpline
70
4
71
3
72
18
73
14
40
0
40
0
40
0
40
0
40
0.25
40
0.25
40
0.375000000000001
40
0.375000000000001
40
0.500000000000001
40
0.500000000000001
40
0.750000000000001
40
0.750000000000001
40
0.875000000000001
40
0.875000000000001
40
1
40
1
40
1
40
1
41
1
10
97.2899265678517
20
-4.21598880732284
30
0
41
1
10
97.2051133465433
20
-4.13601260224621
30
0
41
1
10
97.1298429649595
20
-4.03497388175089
30
0
41
1
10
97.0317237795773
20
-3.85077997005874
30
0
41
1
10
97.0014951890067
20
-3.78391310363301
30
0
41
1
10
96.9462592518198
20
-3.63865528209684
30
0
41
1
10
96.921284035765
20
-3.56014866276755
30
0
41
1
10
96.8560983488383
20
-3.31223561968295
30
0
41
1
10
96.8248720208169
20
-3.1289645696811
30
0
41
1
10
96.7968258793273
20
-2.82640654375587
30
0
41
1
10
96.7906208473901
20
-2.72061527344286
30
0
41
1
10
96.7848645526765
20
-2.50062063884516
30
0
41
1
10
96.7853201308525
20
-2.38740448782465
30
0
41
1
10
96.7890675874136
20
-2.2710099080316
30
0
0
SPLINE
5
C5
100
AcDbEntity
8
1
62
256
6
ByLayer
370
18
48
1
60
0
100
AcDbSpline
70
4
71
3
72
12
73
8
40
0
40
0
40
0
40
0
40
0.113157222470352
40
0.113157222470352
40
0.556578611235176
40
0.556578611235176
40
1
40
1
40
1
40
1
41
1
10
15.0113425325954
20
0.583997022291044
30
0
41
1
10
15.0514781756353
20
0.614181040498437
30
0
41
1
10
15.0918785237613
20
0.648152966538333
30
0
41
1
10
15.2906270797345
20
0.833146475599193
30
0
41
1
10
15.4488617129792
20
1.03620763264928
30
0
41
1
10
15.7340971080051
20
1.51387830315858
30
0
41
1
10
15.8609057858872
20
1.78816614249752
30
0
41
1
10
15.9594755401837
20
2.07102053808268
30
0
0
SPLINE
5
C6
100
AcDbEntity
8
1
62
256
6
ByLayer
370
18
48
1
60
0
100
AcDbSpline
70
4
71
3
72
20
73
16
40
0
40
0
40
0
40
0
40
0.125000000000008
40
0.125000000000008
40
0.250000000000016
40
0.250000000000016
40
0.500000000000018
40
0.500000000000018
40
0.625000000000013
40
0.625000000000013
40
0.750000000000009
40
0.750000000000009
40
0.875000000000004
40
0.875000000000004
40
1
40
1
40
1
40
1
41
1
10
98.3039576682983
20
-1.05481548314589
30
0
41
1
10
98.2604973848578
20
-1.05469219396329
30
0
41
1
10
98.2190090123493
20
-1.04491462538985
30
0
41
1
10
98.1393432705148
20
-1.009149146656
30
0
41
1
10
98.1010788074907
20
-0.983042803163443
30
0
41
1
10
97.9914247668678
20
-0.882964628444029
30
0
41
1
10
97.9281222491878
20
-0.790899457304562
30
0
41
1
10
97.8442693469891
20
-0.624091291145533
30
0
41
1
10
97.8181976132818
20
-0.563391216781213
30
0
41
1
10
97.7707424800115
20
-0.435974476233923
30
0
41
1
10
97.7491719215291
20
-0.368919294759252
30
0
41
1
10
97.7099331203422
20
-0.228754103441645
30
0
41
1
10
97.6922673906733
20
-0.155640194375479
30
0
41
1
10
97.6606488946974
20
-0.0036513468507735
30
0
41
1
10
97.6466471219976
20
0.0756070822613708
30
0
41
1
10
97.6346443745657
20
0.156594406506457
30
0
0
SPLINE
5
C7
100
AcDbEntity
8
1
62
256
6
ByLayer
370
18
48
1
60
0
100
AcDbSpline
70
4
71
3
72
8
73
4
40
0
40
0
40
0
40
0
40
1
40
1
40
1
40
1
41
1
10
16.7724656306895
20
-4.40396559113495
30
0
41
1
10
16.8396009555625
20
-4.40487354942238
30
0
41
1
10
16.9066900219684
20
-4.40538221871714
30
0
41
1
10
16.9737336497612
20
-4.40549374599536
30
0
0
SPLINE
5
C8
100
AcDbEntity
8
1
62
256
6
ByLayer
370
18
48
1
60
0
100
AcDbSpline
70
4
71
3
72
52
73
48
40
0
40
0
40
0
40
0
40
0.0024102842311538
40
0.0024102842311538
40
0.0754484201043779
40
0.0754484201043779
40
0.148486555977602
40
0.148486555977602
40
0.185005623914214
40
0.185005623914214
40
0.221524691850826
40
0.221524691850826
40
0.294562827724051
40
0.294562827724051
40
0.331081895660664
40
0.331081895660664
40
0.34934142962897
40
0.34934142962897
40
0.367600963597276
40
0.367600963597276
40
0.4406390994705
40
0.4406390994705
40
0.513677235343725
40
0.513677235343725
40
0.531936769312031
40
0.531936769312031
40
0.550196303280337
40
0.550196303280337
40
0.58671537121695
40
0.58671537121695
40
0.659753507090174
40
0.659753507090174
40
0.696272575026786
40
0.696272575026786
40
0.714532108995092
40
0.714532108995092
40
0.732791642963397
40
0.732791642963397
40
0.80582977883662
40
0.80582977883662
40
0.878867914709842
40
0.878867914709842
40
0.915386982646453
40
0.915386982646453
40
0.951906050583064
40
0.951906050583064
40
1
40
1
40
1
40
1
41
1
10
36.8971486031489
20
2.96053505852777
30
0
41
1
10
36.9250159969419
20
2.97121702046943
30
0
41
1
10
36.9528767023335
20
2.9818480181832
30
0
41
1
10
37.8248037868871
20
3.31300222395095
30
0
41
1
10
38.6613602630641
20
3.58893080261942
30
0
41
1
10
40.3351185335945
20
4.03375674276089
30
0
41
1
10
41.1720277335236
20
4.20306511213911
30
0
41
1
10
42.4382528118802
20
4.36644164315766
30
0
41
1
10
42.8635274178783
20
4.40575762882671
30
0
41
1
10
43.7082627431928
20
4.45215551125827
30
0
41
1
10
44.1286041558199
20
4.45950501816151
30
0
41
1
10
45.386357864019
20
4.43454484340043
30
0
41
1
10
46.2212194196322
20
4.35537559198465
30
0
41
1
10
47.4778346838663
20
4.14663957771296
30
0
41
1
10
47.8974990825385
20
4.06209307137863
30
0
41
1
10
48.5295516266185
20
3.91345225556626
30
0
41
1
10
48.7407661920701
20
3.86038020960387
30
0
41
1
10
49.1640406232991
20
3.74683238845702
30
0
41
1
10
49.3762788826874
20
3.68652857818682
30
0
41
1
10
50.4330056245085
20
3.37020031868647
30
0
41
1
10
51.2696607383863
20
3.0669992664071
30
0
41
1
10
52.942090820933
20
2.38576238459325
30
0
41
1
10
53.7770951937771
20
2.00657579678043
30
0
41
1
10
54.8289672147505
20
1.50004280817592
30
0
41
1
10
55.0398005045285
20
1.3972206791272
30
0
41
1
10
55.4623006199333
20
1.18830132290429
30
0
41
1
10
55.6745210069706
20
1.08237298725379
30
0
41
1
10
56.3089863120454
20
0.762850453540551
30
0
41
1
10
56.7297062114989
20
0.547228156085112
30
0
41
1
10
57.9880077499291
20
-0.101672606959795
30
0
41
1
10
58.8222241966641
20
-0.536007738603928
30
0
41
1
10
60.0762953745856
20
-1.17096998819315
30
0
41
1
10
60.4949840681064
20
-1.37946317504031
30
0
41
1
10
61.1252602589989
20
-1.68502793681927
30
0
41
1
10
61.3357352013552
20
-1.78567014961888
30
0
41
1
10
61.7575311518108
20
-1.98436103900067
30
0
41
1
10
61.9693176817119
20
-2.08223398519564
30
0
41
1
10
63.0274593302252
20
-2.56234635013317
30
0
41
1
10
63.8645791166796
20
-2.91149730163849
30
0
41
1
10
65.5358931428278
20
-3.51827523440761
30
0
41
1
10
66.3692503491772
20
-3.77699289533783
30
0
41
1
10
67.6282052865202
20
-4.0825103877323
30
0
41
1
10
68.0491994193496
20
-4.17077337965046
30
0
41
1
10
68.8956901216483
20
-4.31787033425613
30
0
41
1
10
69.3171099932336
20
-4.37587067501792
30
0
41
1
10
70.2894361933218
20
-4.47379441660385
30
0
41
1
10
70.8396545340478
20
-4.50221939215854
30
0
41
1
10
71.3893492728838
20
-4.5034422922555
30
0
0
SPLINE
5
C9
100
AcDbEntity
8
1
62
256
6
ByLayer
370
18
48
1
60
0
100
AcDbSpline
70
4
71
3
72
16
73
12
40
0
40
0
40
0
40
0
40
0.176782386511564
40
0.176782386511564
40
0.382586789883671
40
0.382586789883671
40
0.485488991569724
40
0.485488991569724
40
0.588391193255776
40
0.588391193255776
40
1
40
1
40
1
40
1
41
1
10
91.2754577398749
20
3.00738336827234
30
0
41
1
10
91.6333963093303
20
3.14831410120402
30
0
41
1
10
91.9915302035549
20
3.2816446135447
30
0
41
1
10
92.7683164508928
20
3.55178653159666
30
0
41
1
10
93.1871033996146
20
3.68578207883567
30
0
41
1
10
93.8181852309914
20
3.8675510322349
30
0
41
1
10
94.0294288177416
20
3.92489700170069
30
0
41
1
10
94.4516330930898
20
4.03256919286318
30
0
41
1
10
94.662200406224
20
4.08285052612578
30
0
41
1
10
95.714078556276
20
4.31517890800421
30
0
41
1
10
96.550248296002
20
4.44185931387156
30
0
41
1
10
97.3891882454639
20
4.50520110564401
30
0
0
SPLINE
5
CA
100
AcDbEntity
8
1
62
256
6
ByLayer
370
18
48
1
60
0
100
AcDbSpline
70
4
71
3
72
8
73
4
40
0
40
0
40
0
40
0
40
1
40
1
40
1
40
1
41
1
10
98.9997756249329
20
0.085326880565475
30
0
41
1
10
99.0000747916631
20
0.0284422935234829
30
0
41
1
10
99.0000747916631
20
-0.0284422935185376
30
0
41
1
10
98.9997756249329
20
-0.0853268805605296
30
0
0
SPLINE
5
CB
100
AcDbEntity
8
1
62
256
6
ByLayer
370
18
48
1
60
0
100
AcDbSpline
70
4
71
3
72
18
73
14
40
0
40
0
40
0
40
0
40
0.25
40
0.25
40
0.375000000000001
40
0.375000000000001
40
0.500000000000001
40
0.500000000000001
40
0.750000000000001
40
0.750000000000001
40
0.875
40
0.875
40
1
40
1
40
1
40
1
41
1
10
96.8983963553474
20
0.452345068732541
30
0
41
1
10
96.8506172909078
20
0.218971341887539
30
0
41
1
10
96.8121838732288
20
-0.014913900624407
30
0
41
1
10
96.7685858805736
20
-0.366510880410658
30
0
41
1
10
96.7564059880609
20
-0.483838648022896
30
0
41
1
10
96.7368946111029
20
-0.718759551364712
30
0
41
1
10
96.7295467390163
20
-0.836963030702066
30
0
41
1
10
96.7153204088734
20
-1.18643560470218
30
0
41
1
10
96.7160654971038
20
-1.41271672860856
30
0
41
1
10
96.7321087292792
20
-1.74236157003014
30
0
41
1
10
96.7399562661597
20
-1.85060572297627
30
0
41
1
10
96.7607269126037
20
-2.06376933270073
30
0
41
1
10
96.7736917883735
20
-2.16886089550309
30
0
41
1
10
96.7890675874136
20
-2.2710099080316
30
0
0
SPLINE
5
CC
100
AcDbEntity
8
1
62
256
6
ByLayer
370
18
48
1
60
0
100
AcDbSpline
70
4
71
3
72
8
73
4
40
0
40
0
40
0
40
0
40
1
40
1
40
1
40
1
41
1
10
5.94488049828794
20
-4.16284072653397
30
0
41
1
10
5.98558058620682
20
-4.11531932895721
30
0
41
1
10
6.03851507609144
20
-4.06236533587719
30
0
41
1
10
6.10137376075235
20
-4.00502353481221
30
0
0
SPLINE
5
CD
100
AcDbEntity
8
1
62
256
6
ByLayer
370
18
48
1
60
0
100
AcDbSpline
70
4
71
3
72
8
73
4
40
0
40
0
40
0
40
0
40
1
40
1
40
1
40
1
41
1
10
96.8983963553472
20
0.452345068732569
30
0
41
1
10
97.1417466865908
20
0.343339814017384
30
0
41
1
10
97.3870829177923
20
0.244353779766414
30
0
41
1
10
97.6346443745657
20
0.156594406506457
30
0
0
SPLINE
5
CE
100
AcDbEntity
8
1
62
256
6
ByLayer
370
13
48
1
60
0
100
AcDbSpline
70
4
71
3
72
10
73
6
40
0
40
0
40
0
40
0
40
0.5
40
0.5
40
1
40
1
40
1
40
1
41
1
10
6.30115918733583
20
-0.720926877033122
30
0
41
1
10
6.21998430069809
20
-0.693286951654017
30
0
41
1
10
6.14018710149901
20
-0.668084192766827
30
0
41
1
10
5.98362501425811
20
-0.621499069690486
30
0
41
1
10
5.90631777104846
20
-0.599993108272031
30
0
41
1
10
5.83344209331395
20
-0.580913833788799
30
0
0
SPLINE
5
CF
100
AcDbEntity
8
1
62
256
6
ByLayer
370
18
48
1
60
0
100
AcDbSpline
70
4
71
3
72
8
73
4
40
0
40
0
40
0
40
0
40
1
40
1
40
1
40
1
41
1
10
97.3264690102033
20
-4.40580259666635
30
0
41
1
10
97.3326654334149
20
-4.37843056904259
30
0
41
1
10
97.3373937611242
20
-4.3525185931388
30
0
41
1
10
97.3404667481191
20
-4.3295784001115
30
0
0
SPLINE
5
D0
100
AcDbEntity
8
1
62
256
6
ByLayer
370
13
48
1
60
0
100
AcDbSpline
70
4
71
3
72
86
73
82
40
0
40
0
40
0
40
0
40
0.0102206427491891
40
0.0228395818774683
40
0.0417679905698865
40
0.0480774601340261
40
0.0606963992623053
40
0.0733153383905844
40
0.0922437470830026
40
0.0985532166471422
40
0.111172155775421
40
0.1237910949037
40
0.142719503596119
40
0.149028973160258
40
0.161647912288538
40
0.174266851416817
40
0.193195260109235
40
0.199504729673374
40
0.212123668801654
40
0.224742607929933
40
0.243671016622351
40
0.249980486186491
40
0.26259942531477
40
0.275218364443049
40
0.294146773135468
40
0.300456242699607
40
0.313075181827886
40
0.325694120956165
40
0.344622529648584
40
0.350931999212723
40
0.363550938341002
40
0.376169877469281
40
0.3950982861617
40
0.40140775572584
40
0.414026694854118
40
0.426645633982397
40
0.445574042674816
40
0.451883512238956
40
0.464502451367235
40
0.477121390495514
40
0.496049799187932
40
0.502359268752072
40
0.514978207880351
40
0.52759714700863
40
0.546525555701048
40
0.552835025265188
40
0.565453964393467
40
0.578072903521746
40
0.597001312214165
40
0.603310781778304
40
0.615929720906583
40
0.628548660034862
40
0.647477068727281
40
0.65378653829142
40
0.666405477419696
40
0.679024416547979
40
0.697952825240398
40
0.704262294804536
40
0.716881233932815
40
0.729500173061093
40
0.748428581753517
40
0.754738051317652
40
0.767356990445931
40
0.77997592957421
40
0.79890433826663
40
0.805213807830769
40
0.817832746959047
40
0.830451686087326
40
0.849380094779745
40
0.855689564343885
40
0.868308503472163
40
0.88092744260044
40
0.899855851292864
40
0.906165320857001
40
0.918784259985279
40
0.931403199113558
40
0.950331607805978
40
0.956641077370117
40
0.969260016498396
40
0.981878955626674
40
1
40
1
40
1
40
1
41
1
10
84.495263951977
20
0.0289290900836646
30
0
41
1
10
84.4351498862748
20
0.0433490582911984
30
0
41
1
10
84.3008094576044
20
0.0755410336709869
30
0
41
1
10
84.0551373879064
20
0.134354174885885
30
0
41
1
10
83.832496235786
20
0.187655739890004
30
0
41
1
10
83.6098499825032
20
0.24083182401452
30
0
41
1
10
83.4242907136783
20
0.284958768864583
30
0
41
1
10
83.1645120216304
20
0.346504579236578
30
0
41
1
10
82.9418707223857
20
0.39908521152668
30
0
41
1
10
82.7192243924238
20
0.451400095960251
30
0
41
1
10
82.5336650830451
20
0.494717503652507
30
0
41
1
10
82.2738863962076
20
0.554970892812859
30
0
41
1
10
82.0512452162395
20
0.606279857856376
30
0
41
1
10
81.8285991551029
20
0.657188224304289
30
0
41
1
10
81.6430401374245
20
0.699246299074102
30
0
41
1
10
81.3832618545984
20
0.757582323344675
30
0
41
1
10
81.1606209232256
20
0.807085483327736
30
0
41
1
10
80.9379749098558
20
0.856052553366847
30
0
41
1
10
80.7524158241744
20
0.896405741647978
30
0
41
1
10
80.4926373408075
20
0.952201521253808
30
0
41
1
10
80.2699961733084
20
0.999367415939243
30
0
41
1
10
80.0473499372878
20
1.04586796532549
30
0
41
1
10
79.8617906989551
20
1.08408433003737
30
0
41
1
10
79.6020120641287
20
1.13674441882994
30
0
41
1
10
79.3793708208455
20
1.18107171316816
30
0
41
1
10
79.1567245398991
20
1.22461318933895
30
0
41
1
10
78.9711652755622
20
1.26028903754516
30
0
41
1
10
78.7113866605635
20
1.30925887335547
30
0
41
1
10
78.4887455387455
20
1.35028217266443
30
0
41
1
10
78.2660995208173
20
1.39040806548217
30
0
41
1
10
78.0805405133968
20
1.42316969515451
30
0
41
1
10
77.8207621949258
20
1.467936342282
30
0
41
1
10
77.5981211946873
20
1.50522525736704
30
0
41
1
10
77.3754750974099
20
1.5415132103055
30
0
41
1
10
77.1899159392159
20
1.57101465010535
30
0
41
1
10
76.9301373620761
20
1.6111034149454
30
0
41
1
10
76.7074961315276
20
1.64426073142351
30
0
41
1
10
76.4848498572218
20
1.67632305957931
30
0
41
1
10
76.2992906107786
20
1.70224849609559
30
0
41
1
10
76.0395120057028
20
1.73723025635228
30
0
41
1
10
75.8168708207962
20
1.76590235898305
30
0
41
1
10
75.5942246128404
20
1.79339972324603
30
0
41
1
10
75.4086654092341
20
1.81547678242653
30
0
41
1
10
75.1488868585928
20
1.84498637228298
30
0
41
1
10
74.926245756387
20
1.86887492544922
30
0
41
1
10
74.7035997114258
20
1.89152007413036
30
0
41
1
10
74.5180406579049
20
1.90951700607356
30
0
41
1
10
74.2582622601205
20
1.93324317096289
30
0
41
1
10
74.0356211956805
20
1.95209527167164
30
0
41
1
10
73.8129750636578
20
1.96964855401537
30
0
41
1
10
73.6274158869106
20
1.98337509075303
30
0
41
1
10
73.3676373031797
20
2.00106630230603
30
0
41
1
10
73.1449961047098
20
2.01468023529019
30
0
41
1
10
72.9223499099606
20
2.02695091604663
30
0
41
1
10
72.7367907716876
20
2.03625565622789
30
0
41
1
10
72.4770123771846
20
2.04771548529322
30
0
41
1
10
72.2543714050135
20
2.0559419401907
30
0
41
1
10
72.0317254013607
20
2.06280102068873
30
0
41
1
10
71.8461663379917
20
2.06759087950296
30
0
41
1
10
71.5863878861538
20
2.07271097849197
30
0
41
1
10
71.3637467416506
20
2.07547614875423
30
0
41
1
10
71.1411005195754
20
2.07686170852079
30
0
41
1
10
70.9555412612895
20
2.07709234916455
30
0
41
1
10
70.6957625352911
20
2.07582323472865
30
0
41
1
10
70.4731211724035
20
2.07309799983147
30
0
41
1
10
70.2504747684023
20
2.06899312823096
30
0
41
1
10
70.0649153771989
20
2.06465889924373
30
0
41
1
10
69.8051365325555
20
2.05700624842608
30
0
41
1
10
69.5824951861896
20
2.04880848813584
30
0
41
1
10
69.3598489433057
20
2.03924122755642
30
0
41
1
10
69.174289826411
20
2.03037217779919
30
0
41
1
10
68.9145115424965
20
2.01639485353583
30
0
41
1
10
68.6918707261364
20
2.00279839206308
30
0
41
1
10
68.4692248951249
20
1.98786908447152
30
0
41
1
10
68.2836659753583
20
1.97456734087913
30
0
41
1
10
68.0238877022692
20
1.95443590444875
30
0
41
1
10
67.8012466686885
20
1.93560969768872
30
0
41
1
10
67.578600499348
20
1.9154985052157
30
0
41
1
10
67.3930412570883
20
1.89791994014202
30
0
41
1.00000000000001
10
67.1380113059741
20
1.87233856342751
30
0
41
1
10
66.9572244944522
20
1.85300296715314
30
0
41
1
10
66.8506503476587
20
1.84118255534215
30
0
0
SPLINE
5
D1
100
AcDbEntity
8
1
62
256
6
ByLayer
370
13
48
1
60
0
100
AcDbSpline
70
4
71
3
72
70
73
66
40
0
40
0
40
0
40
0
40
0.0080078181988597
40
0.0237537258464964
40
0.0473725873179517
40
0.0552455411417704
40
0.0709914487894077
40
0.086737356437045
40
0.110356217908501
40
0.118229171732319
40
0.133975079379956
40
0.149720987027593
40
0.17333984849905
40
0.181212802322868
40
0.196958709970505
40
0.212704617618142
40
0.236323479089598
40
0.244196432913416
40
0.259942340561053
40
0.27568824820869
40
0.299307109680146
40
0.307180063503965
40
0.322925971151603
40
0.338671878799239
40
0.362290740270695
40
0.370163694094513
40
0.385909601742151
40
0.401655509389788
40
0.425274370861243
40
0.433147324685062
40
0.448893232332699
40
0.464639139980337
40
0.488258001451792
40
0.496130955275611
40
0.511876862923249
40
0.527622770570885
40
0.551241632042341
40
0.55911458586616
40
0.574860493513796
40
0.590606401161434
40
0.61422526263289
40
0.622098216456708
40
0.637844124104345
40
0.653590031751982
40
0.677208893223438
40
0.685081847047257
40
0.700827754694894
40
0.716573662342531
40
0.740192523813987
40
0.748065477637806
40
0.763811385285442
40
0.77955729293308
40
0.803176154404536
40
0.811049108228354
40
0.826795015875991
40
0.842540923523628
40
0.866159784995084
40
0.874032738818903
40
0.88977864646654
40
0.905524554114177
40
0.929143415585633
40
0.937016369409451
40
0.94488932323327
40
0.968508184704725
40
1
40
1
40
1
40
1
41
1
10
30.1000328563449
20
0.0277861955060529
30
0
41
1
10
30.0622861058302
20
0.0368349314675241
30
0
41
1
10
29.9503153569252
20
0.0636647733419406
30
0
41
1
10
29.7270123315833
20
0.117137195711478
30
0
41
1
10
29.5043711250811
20
0.170467624852022
30
0
41
1
10
29.2817248415804
20
0.223684855204168
30
0
41
1
10
29.0961655288189
20
0.267854210292312
30
0
41
1
10
28.8363867474557
20
0.329474030859869
30
0
41
1
10
28.6137453928919
20
0.382133762780709
30
0
41
1
10
28.391099076606
20
0.434541297310174
30
0
41
1
10
28.2055398650522
20
0.477944792315069
30
0
41
1
10
27.945761414961
20
0.538332845579842
30
0
41
1
10
27.723120438049
20
0.589770331117532
30
0
41
1
10
27.500474454256
20
0.640816072857629
30
0
41
1
10
27.3149154304106
20
0.682993947485582
30
0
41
1
10
27.0551370848452
20
0.741507709350398
30
0
41
1
10
26.8324960825563
20
0.791174538212996
30
0
41
1
10
26.6098500433554
20
0.840315683509683
30
0
41
1
10
26.4242909376153
20
0.88082080957454
30
0
41
1
10
26.1645123898211
20
0.936841596459256
30
0
41
1
10
25.9418711351544
20
0.984213339719641
30
0
41
1
10
25.7192247893539
20
1.03093034668228
30
0
41
1
10
25.5336654327073
20
1.06933376863392
30
0
41
1
10
25.2738866269168
20
1.12226754853125
30
0
41
1
10
25.0512452958874
20
1.16684174025408
30
0
41
1
10
24.828599049244
20
1.21063976916522
30
0
41
1
10
24.6430399042976
20
1.24653532308403
30
0
41
1
10
24.3832615335739
20
1.29582321617169
30
0
41
1
10
24.160620605832
20
1.33713003991988
30
0
41
1
10
23.9379746462417
20
1.37754782518808
30
0
41
1
10
23.7524156376266
20
1.41055765508974
30
0
41
1
10
23.4926373107574
20
1.45568105733616
30
0
41
1
10
23.2699963128195
20
1.49328600171835
30
0
41
1
10
23.0473502602949
20
1.52989833123274
30
0
41
1
10
22.8617911289587
20
1.55967512634813
30
0
41
1
10
22.6020125246074
20
1.6001588615156
30
0
41
1
10
22.3793712081696
20
1.63366506781289
30
0
41
1
10
22.1567247997746
20
1.66608438857934
30
0
41
1
10
21.9711653998789
20
1.69231204822207
30
0
41
1
10
21.7113865616293
20
1.72772459173074
30
0
41
1
10
21.4887452359892
20
1.75677299822302
30
0
41
1
10
21.2660990275566
20
1.78465030875065
30
0
41
1
10
21.0805399234547
20
1.80704548319988
30
0
41
1
10
20.820761610222
20
1.83700447659395
30
0
41
1
10
20.598120730387
20
1.86128391625859
30
0
41
1
10
20.3754748135584
20
1.88432530610319
30
0
41
1
10
20.1899158336508
20
1.90265548833718
30
0
41
1
10
19.9301375251509
20
1.92685441313607
30
0
41
1
10
19.7074965136157
20
1.94611892655356
30
0
41
1
10
19.4848504145547
20
1.96409000220247
30
0
41
1
10
19.2992912404158
20
1.97816749299507
30
0
41
1
10
19.0395125929469
20
1.99635618407452
30
0
41
1
10
18.8168712604057
20
2.01040397771495
30
0
41
1
10
18.5942248604062
20
2.02311432732105
30
0
41
1
10
18.4086654726469
20
2.03278851762507
30
0
41
1
10
18.1488866480818
20
2.04476913022318
30
0
41
1
10
17.9262453316551
20
2.05344325799728
30
0
41
1
10
17.7035991287714
20
2.06074665702211
30
0
41
1
10
17.5180400361439
20
2.06590317004252
30
0
41
1
10
17.2582617606714
20
2.07153223089892
30
0
41
1
10
17.0356209341201
20
2.07473128902324
30
0
41
1
10
16.8500936356072
20
2.07628185076356
30
0
41
1
10
16.6645230798884
20
2.07712276051932
30
0
41
1
10
16.3675992519896
20
2.07660294967854
30
0
41
1
10
16.1078813599488
20
2.07362177773992
30
0
41
1
10
15.9594755401837
20
2.07102053808272
30
0
0
SPLINE
5
D2
100
AcDbEntity
8
1
62
256
6
ByLayer
370
18
48
1
60
0
100
AcDbSpline
70
4
71
3
72
62
73
58
40
0
40
0
40
0
40
0
40
0.0279376451045051
40
0.0279376451045051
40
0.0558752902090102
40
0.0558752902090102
40
0.0838129353135153
40
0.0838129353135153
40
0.11175058041802
40
0.11175058041802
40
0.16762587062703
40
0.16762587062703
40
0.195563515731535
40
0.195563515731535
40
0.22350116083604
40
0.22350116083604
40
0.27937645104505
40
0.27937645104505
40
0.307314096149556
40
0.307314096149556
40
0.335251741254061
40
0.335251741254061
40
0.391127031463072
40
0.391127031463072
40
0.447002321672084
40
0.447002321672084
40
0.47493996677659
40
0.47493996677659
40
0.502877611881095
40
0.502877611881095
40
0.558752902090107
40
0.558752902090107
40
0.586690547194613
40
0.586690547194613
40
0.614628192299118
40
0.614628192299118
40
0.642565837403624
40
0.642565837403624
40
0.67050348250813
40
0.67050348250813
40
0.698441127612636
40
0.698441127612636
40
0.726378772717142
40
0.726378772717142
40
0.782254062926153
40
0.782254062926153
40
0.838129353135165
40
0.838129353135165
40
0.866066998239671
40
0.866066998239671
40
0.894004643344178
40
0.894004643344178
40
0.949879933553191
40
0.949879933553191
40
0.977817578657697
40
0.977817578657697
40
1
40
1
40
1
40
1
41
1
10
13.5349716447085
20
1.30742534651907
30
0
41
1
10
13.7550559892509
20
1.20416039607642
30
0
41
1
10
13.9744336355745
20
1.09971541925617
30
0
41
1
10
14.4119458716254
20
0.888812228258956
30
0
41
1
10
14.6303823218748
20
0.782989474452791
30
0
41
1
10
15.066332919851
20
0.569991097851499
30
0
41
1
10
15.2838626941022
20
0.462847790097442
30
0
41
1
10
15.7185599866398
20
0.248499939506019
30
0
41
1
10
15.9355650426206
20
0.140928143219497
30
0
41
1
10
16.5863217639814
20
-0.181439518407842
30
0
41
1
10
17.0197467382838
20
-0.396006144429663
30
0
41
1
10
17.6702356927121
20
-0.715558730971281
30
0
41
1
10
17.886986705431
20
-0.821992415483749
30
0
41
1
10
18.3212368326577
20
-1.03263693132837
30
0
41
1
10
18.5386217181335
20
-1.13705650332537
30
0
41
1
10
19.1918117726361
20
-1.4472978649664
30
0
41
1
10
19.6288245094505
20
-1.64972367066471
30
0
41
1
10
20.2876522611377
20
-1.94488357186694
30
0
41
1
10
20.5074503011027
20
-2.04244097601358
30
0
41
1
10
20.9454847104301
20
-2.2323847079679
30
0
41
1
10
21.1638584670483
20
-2.32459727758163
30
0
41
1
10
21.8176500770384
20
-2.59380935451981
30
0
41
1
10
22.2519955341535
20
-2.76331648579861
30
0
41
1
10
23.1194522443415
20
-3.07936979690797
30
0
41
1
10
23.5524550914995
20
-3.22691334272025
30
0
41
1
10
24.2022508782185
20
-3.42950425228935
30
0
41
1
10
24.4190485473505
20
-3.49354690614493
30
0
41
1
10
24.852729115873
20
-3.61664146050643
30
0
41
1
10
25.069603433852
20
-3.67554168542227
30
0
41
1
10
25.721892060316
20
-3.83813841325474
30
0
41
1
10
26.1581764350356
20
-3.93142126742728
30
0
41
1
10
26.8156143080878
20
-4.05052066858789
30
0
41
1
10
27.0356237429988
20
-4.08659900846655
30
0
41
1
10
27.4739194901977
20
-4.15139724400106
30
0
41
1
10
27.6924812808195
20
-4.18081812783765
30
0
41
1
10
28.1288231008543
20
-4.23006347904834
30
0
41
1
10
28.3464467929868
20
-4.2498509891293
30
0
41
1
10
28.7811058513464
20
-4.28131099331145
30
0
41
1
10
28.9982453624625
20
-4.29299202413645
30
0
41
1
10
29.431921410388
20
-4.30820276033248
30
0
41
1
10
29.648613679877
20
-4.31164858670982
30
0
41
1
10
30.0818732417362
20
-4.31107621990145
30
0
41
1
10
30.2982931895538
20
-4.3072167456389
30
0
41
1
10
30.9480447347137
20
-4.28315425264068
30
0
41
1
10
31.3814516548818
20
-4.24939582820986
30
0
41
1
10
32.2503928472665
20
-4.15136471442403
30
0
41
1
10
32.6861339238459
20
-4.0856664828147
30
0
41
1
10
33.3425142490194
20
-3.96604141756993
30
0
41
1
10
33.5623105500645
20
-3.92212834831
30
0
41
1
10
34.0004077762809
20
-3.82570135541189
30
0
41
1
10
34.2189440957246
20
-3.77362823030492
30
0
41
1
10
34.8730572338327
20
-3.60722685232466
30
0
41
1
10
35.3073793865308
20
-3.48266756149016
30
0
41
1
10
35.9575215942025
20
-3.27994125042849
30
0
41
1
10
36.1740663780957
20
-3.20946908638319
30
0
41
1
10
36.5622151064558
20
-3.07619453917729
30
0
41
1
10
36.7339998949726
20
-3.01524658908343
30
0
41
1
10
36.9058011827687
20
-2.95247151383651
30
0
0
SPLINE
5
D3
100
AcDbEntity
8
1
62
256
6
ByLayer
370
18
48
1
60
0
100
AcDbSpline
70
4
71
3
72
92
73
88
40
0
40
0
40
0
40
0
40
0.0077306635684035
40
0.0077306635684035
40
0.0266822854450195
40
0.0266822854450195
40
0.0456339073216356
40
0.0456339073216356
40
0.0645855291982516
40
0.0645855291982516
40
0.102488772951482
40
0.102488772951482
40
0.140392016704713
40
0.140392016704713
40
0.178295260457944
40
0.178295260457944
40
0.197246882334559
40
0.197246882334559
40
0.216198504211175
40
0.216198504211175
40
0.254101747964406
40
0.254101747964406
40
0.273053369841021
40
0.273053369841021
40
0.292004991717635
40
0.292004991717635
40
0.329908235470866
40
0.329908235470866
40
0.348859857347482
40
0.348859857347482
40
0.367811479224097
40
0.367811479224097
40
0.386763101100712
40
0.386763101100712
40
0.405714722977328
40
0.405714722977328
40
0.443617966730559
40
0.443617966730559
40
0.462569588607174
40
0.462569588607174
40
0.481521210483788
40
0.481521210483788
40
0.500472832360403
40
0.500472832360403
40
0.519424454237018
40
0.519424454237018
40
0.538376076113633
40
0.538376076113633
40
0.557327697990248
40
0.557327697990248
40
0.576279319866863
40
0.576279319866863
40
0.595230941743478
40
0.595230941743478
40
0.633134185496709
40
0.633134185496709
40
0.652085807373324
40
0.652085807373324
40
0.671037429249939
40
0.671037429249939
40
0.689989051126555
40
0.689989051126555
40
0.70894067300317
40
0.70894067300317
40
0.746843916756401
40
0.746843916756401
40
0.765795538633016
40
0.765795538633016
40
0.784747160509632
40
0.784747160509632
40
0.822650404262863
40
0.822650404262863
40
0.841602026139476
40
0.841602026139476
40
0.860553648016091
40
0.860553648016091
40
0.879505269892705
40
0.879505269892705
40
0.898456891769319
40
0.898456891769319
40
0.936360135522547
40
0.936360135522547
40
0.974263379275775
40
0.974263379275775
40
0.993215001152389
40
0.993215001152389
40
1
40
1
40
1
40
1
41
1
10
56.9958162767866
20
4.36001154843902
30
0
41
1
10
57.0849186326818
20
4.36014529154127
30
0
41
1
10
57.1739445817969
20
4.35959363990824
30
0
41
1
10
57.480877306813
20
4.35531154220979
30
0
41
1
10
57.6983342391861
20
4.34816411150825
30
0
41
1
10
58.1324750274985
20
4.32627907823553
30
0
41
1
10
58.3493042220173
20
4.31234790059412
30
0
41
1
10
58.7821305284332
20
4.27476384132072
30
0
41
1
10
58.9982886339624
20
4.25123776691771
30
0
41
1
10
59.6465141899302
20
4.1684127672068
30
0
41
1
10
60.0781543695499
20
4.09708316269064
30
0
41
1
10
60.9419048332416
20
3.92677530809451
30
0
41
1
10
61.3739770848644
20
3.82856945307364
30
0
41
1
10
62.241673995329
20
3.59831368399097
30
0
41
1
10
62.6770693153654
20
3.46790568283328
30
0
41
1
10
63.3333150294091
20
3.25333527383606
30
0
41
1
10
63.5521273753133
20
3.17906795606302
30
0
41
1
10
63.9889263383635
20
3.0250675154173
30
0
41
1
10
64.2070062524587
20
2.94494423129393
30
0
41
1
10
64.8614152958086
20
2.69561489405001
30
0
41
1
10
65.2974338304477
20
2.51749946709583
30
0
41
1
10
65.9524267904265
20
2.23718380525961
30
0
41
1
10
66.1709879101434
20
2.14164893517776
30
0
41
1
10
66.6084710874717
20
1.94695981095592
30
0
41
1
10
66.8266201960253
20
1.84773068612233
30
0
41
1
10
67.479527823123
20
1.5455931084654
30
0
41
1
10
67.9127064166091
20
1.33795833963506
30
0
41
1
10
68.5610277374925
20
1.02086585860738
30
0
41
1
10
68.7769101301399
20
0.914214297395688
30
0
41
1
10
69.2085153809035
20
0.699710946882306
30
0
41
1
10
69.4240423517846
20
0.591541593121747
30
0
41
1
10
69.8553434378205
20
0.374597407399079
30
0
41
1
10
70.0710524895519
20
0.265677425041247
30
0
41
1
10
70.502528031578
20
0.0470888412974091
30
0
41
1
10
70.7184569451078
20
-0.0622425199851477
30
0
41
1
10
71.3666856480532
20
-0.390770825837393
30
0
41
1
10
71.8001378425342
20
-0.60937821938893
30
0
41
1
10
72.4526316123744
20
-0.935003927179991
30
0
41
1
10
72.6710076781226
20
-1.04285391418543
30
0
41
1
10
73.1079220106118
20
-1.25684957638043
30
0
41
1
10
73.3258765054893
20
-1.362377479569
30
0
41
1
10
73.7608234507131
20
-1.57092780845707
30
0
41
1
10
73.9777148366367
20
-1.67390512411674
30
0
41
1
10
74.4109632834822
20
-1.8749357601921
30
0
41
1
10
74.6271793084549
20
-1.97370073475571
30
0
41
1
10
75.0591590761131
20
-2.16749194280177
30
0
41
1
10
75.2750348713075
20
-2.26223316554635
30
0
41
1
10
75.7063505175134
20
-2.44732479291449
30
0
41
1
10
75.9219426228682
20
-2.53753358936092
30
0
41
1
10
76.3531342914415
20
-2.71377840594934
30
0
41
1
10
76.5685248155704
20
-2.80051583229013
30
0
41
1
10
76.9999644837643
20
-2.96676194981083
30
0
41
1
10
77.2158946882155
20
-3.04660778019556
30
0
41
1
10
77.8642316954924
20
-3.27862589131348
30
0
41
1
10
78.2976295368532
20
-3.42185982075935
30
0
41
1
10
78.9506199986183
20
-3.61844173875755
30
0
41
1
10
79.1689558882867
20
-3.68125701113928
30
0
41
1
10
79.6054087817819
20
-3.79965478520845
30
0
41
1
10
79.8230397214224
20
-3.85482118386
30
0
41
1
10
80.2571288530223
20
-3.95757375765803
30
0
41
1
10
80.4737954656601
20
-4.00536995722928
30
0
41
1
10
80.9062869365049
20
-4.0932668846377
30
0
41
1
10
81.1220725605658
20
-4.13284942355529
30
0
41
1
10
81.7691029388221
20
-4.23901896833732
30
0
41
1
10
82.1995305864001
20
-4.29403214238818
30
0
41
1
10
82.8450581794069
20
-4.35413428601581
30
0
41
1
10
83.0602605990844
20
-4.37051148869608
30
0
41
1
10
83.4908244491274
20
-4.39597100382622
30
0
41
1
10
83.7060670020228
20
-4.40482275579907
30
0
41
1
10
84.3532595786696
20
-4.41587653014025
30
0
41
1
10
84.7858349358769
20
-4.40572083349053
30
0
41
1
10
85.4375517617583
20
-4.36655937639395
30
0
41
1
10
85.6553208929642
20
-4.34948792303774
30
0
41
1
10
86.0918267367517
20
-4.30767492313652
30
0
41
1
10
86.3093690617765
20
-4.28299596139115
30
0
41
1
10
86.7435699876473
20
-4.22522494633725
30
0
41
1
10
86.9601774488947
20
-4.19199152930625
30
0
41
1
10
87.3925012867308
20
-4.11818387170572
30
0
41
1
10
87.6083970635816
20
-4.07788529242919
30
0
41
1
10
88.255123585562
20
-3.94468136331716
30
0
41
1
10
88.6853104880641
20
-3.83923303182095
30
0
41
1
10
89.5456708266612
20
-3.60307107354836
30
0
41
1
10
89.9758621564908
20
-3.47209061800203
30
0
41
1
10
90.6224528371542
20
-3.25643528190372
30
0
41
1
10
90.8381138619471
20
-3.18103533562464
30
0
41
1
10
91.1317634552499
20
-3.07427119899819
30
0
41
1
10
91.2092251837048
20
-3.04571902065356
30
0
41
1
10
91.2867369031687
20
-3.01677483168123
30
0
0
SPLINE
5
D4
100
AcDbEntity
8
1
62
256
6
ByLayer
370
18
48
1
60
0
100
AcDbSpline
70
4
71
3
72
24
73
20
40
0
40
0
40
0
40
0
40
0.0074925377716441
40
0.0074925377716441
40
0.205994030217315
40
0.205994030217315
40
0.305244776440151
40
0.305244776440151
40
0.404495522662987
40
0.404495522662987
40
0.602997015108658
40
0.602997015108658
40
0.702247761331493
40
0.702247761331493
40
0.801498507554329
40
0.801498507554329
40
0.900749253777165
40
0.900749253777165
40
1
40
1
40
1
40
1
41
1
10
97.0237836838254
20
0.402272807437242
30
0
41
1
10
97.0250054824137
20
0.403925261409228
30
0
41
1
10
97.0262380255353
20
0.405593563985121
30
0
41
1
10
97.0604190425661
20
0.451897803333139
30
0
41
1
10
97.1000256275023
20
0.506543101835263
30
0
41
1
10
97.1675675677625
20
0.602082397706312
30
0
41
1
10
97.1914970879913
20
0.636257690467716
30
0
41
1
10
97.2422454228048
20
0.709350272905823
30
0
41
1
10
97.268912262844
20
0.748052488435832
30
0
41
1
10
97.3515038523652
20
0.868456312420875
30
0
41
1
10
97.4103927099146
20
0.955166247026852
30
0
41
1
10
97.5060630941948
20
1.09375827232861
30
0
41
1
10
97.5391196799132
20
1.14125024100841
30
0
41
1
10
97.6068013143696
20
1.23646149343412
30
0
41
1
10
97.641592029336
20
1.2844457101032
30
0
41
1
10
97.7140755751291
20
1.38040049729688
30
0
41
1
10
97.7517397307175
20
1.42839137402336
30
0
41
1
10
97.8319581408058
20
1.52295763247739
30
0
41
1
10
97.8746750170138
20
1.56974831226705
30
0
41
1
10
97.9207516529256
20
1.61316956674381
30
0
0
SPLINE
5
D5
100
AcDbEntity
8
1
62
256
6
ByLayer
370
18
48
1
60
0
100
AcDbSpline
70
4
71
3
72
8
73
4
40
0
40
0
40
0
40
0
40
1
40
1
40
1
40
1
41
1
10
98.7926689048248
20
0.662314227934559
30
0
41
1
10
98.5352422556132
20
1.40168902989481
30
0
41
1
10
98.2800923949537
20
2.1418468910195
30
0
41
1
10
98.0272338678126
20
2.88279281377984
30
0
0
SPLINE
5
D6
100
AcDbEntity
8
1
62
256
6
ByLayer
370
18
48
1
60
0
100
AcDbSpline
70
4
71
3
72
8
73
4
40
0
40
0
40
0
40
0
40
1
40
1
40
1
40
1
41
1
10
98.3039576682983
20
-1.05481548314589
30
0
41
1
10
98.3062118319156
20
-1.05456658000827
30
0
41
1
10
98.3084733781999
20
-1.05428909636066
30
0
41
1
10
98.3107423551781
20
-1.05398284627802
30
0
0
SPLINE
5
D7
100
AcDbEntity
8
1
62
256
6
ByLayer
370
18
48
1
60
0
100
AcDbSpline
70
4
71
3
72
44
73
40
40
0
40
0
40
0
40
0
40
0.0460554326066544
40
0.0460554326066544
40
0.0921108652133087
40
0.0921108652133087
40
0.184221730426617
40
0.184221730426617
40
0.230277163033271
40
0.230277163033271
40
0.253304879336598
40
0.253304879336598
40
0.276332595639924
40
0.276332595639924
40
0.368443460853234
40
0.368443460853234
40
0.460554326066544
40
0.460554326066544
40
0.483582042369872
40
0.483582042369872
40
0.506609758673199
40
0.506609758673199
40
0.552665191279853
40
0.552665191279853
40
0.644776056493162
40
0.644776056493162
40
0.690831489099816
40
0.690831489099816
40
0.713859205403142
40
0.713859205403142
40
0.736886921706468
40
0.736886921706468
40
0.828997786919772
40
0.828997786919772
40
0.921108652133076
40
0.921108652133076
40
0.967164084739727
40
0.967164084739727
40
1
40
1
40
1
40
1
41
1
10
16.7724656306895
20
4.40396559113489
30
0
41
1
10
17.1973655899851
20
4.40971206573818
30
0
41
1
10
17.6204126922752
20
4.39946449890843
30
0
41
1
10
18.4632163509529
20
4.34806980288636
30
0
41
1
10
18.883221056585
20
4.30690956836497
30
0
41
1
10
20.1418673000807
20
4.13882320384846
30
0
41
1
10
20.9784324960253
20
3.9666988131479
30
0
41
1
10
22.2415820269638
20
3.62705006553057
30
0
41
1
10
22.6638697888339
20
3.50016085191206
30
0
41
1
10
23.3004499025846
20
3.29021857593315
30
0
41
1
10
23.5129519982052
20
3.21714132556622
30
0
41
1
10
23.9363185562227
20
3.06601234157401
30
0
41
1
10
24.1473806686686
20
2.98761066182257
30
0
41
1
10
25.2012607646127
20
2.58405869882597
30
0
41
1
10
26.0382527117536
20
2.22195372701654
30
0
41
1
10
27.7141680826377
20
1.44393329905202
30
0
41
1
10
28.5535123170991
20
1.02884148197685
30
0
41
1
10
29.6126686581032
20
0.492187604934543
30
0
41
1
10
29.8253425897588
20
0.384061025780966
30
0
41
1
10
30.2489204117675
20
0.168069083988456
30
0
41
1
10
30.460064108205
20
0.0598332748166399
30
0
41
1
10
31.0926064408418
20
-0.263448927302278
30
0
41
1
10
31.5126131025533
20
-0.478124005549347
30
0
41
1
10
32.7701948912555
20
-1.11444714476653
30
0
41
1
10
33.6056235339259
20
-1.52778552251084
30
0
41
1
10
34.8653471703471
20
-2.11031565057604
30
0
41
1
10
35.2862165392519
20
-2.29849880790041
30
0
41
1
10
35.9204276841242
20
-2.56898503291106
30
0
41
1
10
36.1327883204733
20
-2.65713430281673
30
0
41
1
10
36.5567615367479
20
-2.82852942223695
30
0
41
1
10
36.7681099502779
20
-2.91166063357963
30
0
41
1
10
37.8231271253235
20
-3.31242019801505
30
0
41
1
10
38.659624458963
20
-3.58839049266271
30
0
41
1
10
40.3332448772857
20
-4.03333761520511
30
0
41
1
10
41.1700855743766
20
-4.20271553852126
30
0
41
1
10
42.4361898946234
20
-4.36622478642769
30
0
41
1
10
42.861429228707
20
-4.40558943301264
30
0
41
1
10
43.5848838406407
20
-4.44541633339429
30
0
41
1
10
43.8849677276597
20
-4.45393754181504
30
0
41
1
10
44.1843598591514
20
-4.45446844610953
30
0
0
SPLINE
5
D8
100
AcDbEntity
8
1
62
256
6
ByLayer
370
18
48
1
60
0
100
AcDbSpline
70
4
71
3
72
52
73
48
40
0
40
0
40
0
40
0
40
0.0185337901060775
40
0.0185337901060775
40
0.0940311908671505
40
0.0940311908671505
40
0.131779891247686
40
0.131779891247686
40
0.169528591628223
40
0.169528591628223
40
0.245025992389295
40
0.245025992389295
40
0.320523393150366
40
0.320523393150366
40
0.339397743340635
40
0.339397743340635
40
0.358272093530903
40
0.358272093530903
40
0.396020793911439
40
0.396020793911439
40
0.471518194672513
40
0.471518194672513
40
0.509266895053049
40
0.509266895053049
40
0.528141245243318
40
0.528141245243318
40
0.547015595433586
40
0.547015595433586
40
0.622512996194659
40
0.622512996194659
40
0.698010396955732
40
0.698010396955732
40
0.716884747145998
40
0.716884747145998
40
0.735759097336265
40
0.735759097336265
40
0.773507797716799
40
0.773507797716799
40
0.849005198477866
40
0.849005198477866
40
0.8867538988584
40
0.8867538988584
40
0.905628249048666
40
0.905628249048666
40
0.924502599238933
40
0.924502599238933
40
1
40
1
40
1
40
1
41
1
10
64.0806593420881
20
2.98187520535799
30
0
41
1
10
64.2860834982249
20
3.06173535714626
30
0
41
1
10
64.4913017367204
20
3.13899876132558
30
0
41
1
10
65.5320286177539
20
3.51700490082024
30
0
41
1
10
66.3653156526918
20
3.77585617797618
30
0
41
1
10
67.6241395073735
20
4.08161400223062
30
0
41
1
10
68.0450869715606
20
4.16996202274146
30
0
41
1
10
68.8914867008286
20
4.31723567447364
30
0
41
1
10
69.3129122264313
20
4.37534217351768
30
0
41
1
10
70.571806578043
20
4.50244205543916
30
0
41
1
10
71.405415788699
20
4.52437098776622
30
0
41
1
10
73.0747875380796
20
4.44285449927415
30
0
41
1
10
73.9112890005331
20
4.33960580425102
30
0
41
1
10
74.9674426115826
20
4.13322848379562
30
0
41
1
10
75.1791126828948
20
4.08813105739745
30
0
41
1
10
75.6007541605755
20
3.9912179322487
30
0
41
1
10
75.8109443109624
20
3.93916838177896
30
0
41
1
10
76.4405883181906
20
3.77327494174679
30
0
41
1
10
76.858761302582
20
3.64934512094024
30
0
41
1
10
78.1114548837567
20
3.24141815893242
30
0
41
1
10
78.9436147700791
20
2.9204868617698
30
0
41
1
10
80.1996022654791
20
2.38258309775304
30
0
41
1
10
80.6193815706839
20
2.1936163839062
30
0
41
1
10
81.2520964477832
20
1.89754908866294
30
0
41
1
10
81.4638477653685
20
1.79677844890307
30
0
41
1
10
81.8856496945041
20
1.59306761551338
30
0
41
1
10
82.0958873305997
20
1.48969774034646
30
0
41
1
10
83.1455467801566
20
0.968724956134878
30
0
41
1
10
83.9785917942374
20
0.53531306630299
30
0
41
1
10
85.6458950436273
20
-0.336348439229823
30
0
41
1
10
86.4805926063051
20
-0.773730213966417
30
0
41
1
10
87.5336483906814
20
-1.30601774703194
30
0
41
1
10
87.7452423724966
20
-1.41174385007628
30
0
41
1
10
88.1671920724116
20
-1.61999397830007
30
0
41
1
10
88.3774872719436
20
-1.72274857248362
30
0
41
1
10
89.0074197703099
20
-2.02494461270811
30
0
41
1
10
89.4255822437204
20
-2.21931342240356
30
0
41
1
10
90.6775173356584
20
-2.77662153869486
30
0
41
1
10
91.5088259261984
20
-3.11355299840233
30
0
41
1
10
92.762267344558
20
-3.54979274447825
30
0
41
1
10
93.1810081471756
20
-3.68389310219567
30
0
41
1
10
93.8120090002119
20
-3.86583734374832
30
0
41
1
10
94.0231920657525
20
-3.92323887484045
30
0
41
1
10
94.445442844613
20
-4.03105617678855
30
0
41
1
10
94.6561061864396
20
-4.08143453353409
30
0
41
1
10
95.7088675307277
20
-4.3143029491082
30
0
41
1
10
96.5469868578647
20
-4.4416130681951
30
0
41
1
10
97.389188245464
20
-4.50520110564401
30
0
0
SPLINE
5
D9
100
AcDbEntity
8
1
62
256
6
ByLayer
370
18
48
1
60
0
100
AcDbSpline
70
4
71
3
72
32
73
28
40
0
40
0
40
0
40
0
40
0.0312499999999988
40
0.0312499999999988
40
0.0624999999999976
40
0.0624999999999976
40
0.124999999999998
40
0.124999999999998
40
0.187499999999998
40
0.187499999999998
40
0.249999999999998
40
0.249999999999998
40
0.312499999999998
40
0.312499999999998
40
0.374999999999998
40
0.374999999999998
40
0.499999999999999
40
0.499999999999999
40
0.562499999999999
40
0.562499999999999
40
0.624999999999999
40
0.624999999999999
40
0.749999999999999
40
0.749999999999999
40
0.875
40
0.875
40
1
40
1
40
1
40
1
41
1
10
6.10137376075238
20
-4.00502353481221
30
0
41
1
10
6.12702713933544
20
-3.98162166219444
30
0
41
1
10
6.15874678439423
20
-3.95880207244821
30
0
41
1
10
6.23168277157978
20
-3.91430004252385
30
0
41
1
10
6.27326803436893
20
-3.89247923358224
30
0
41
1
10
6.40578563408627
20
-3.83051516670687
30
0
41
1
10
6.50492025916475
20
-3.79322626210879
30
0
41
1
10
6.71667314149801
20
-3.72473701878485
30
0
41
1
10
6.82744818216145
20
-3.69422189804217
30
0
41
1
10
7.05370164103189
20
-3.6394509438413
30
0
41
1
10
7.16960141557618
20
-3.61511072626726
30
0
41
1
10
7.40568623490094
20
-3.57168839822106
30
0
41
1
10
7.52634614946018
20
-3.55256511455872
30
0
41
1
10
7.76814860620402
20
-3.51963083278378
30
0
41
1
10
7.88948996464009
20
-3.50576475272447
30
0
41
1
10
8.25464855794394
20
-3.47128797807488
30
0
41
1
10
8.49958686017743
20
-3.45775405718379
30
0
41
1
10
8.86894763220323
20
-3.45054955479242
30
0
41
1
10
8.99239786717143
20
-3.45034642700904
30
0
41
1
10
9.239949054927
20
-3.45428268382443
30
0
41
1
10
9.36436699797798
20
-3.45844570842542
30
0
41
1
10
9.734961959038
20
-3.47720069386446
30
0
41
1
10
9.97920486730212
20
-3.49802980412849
30
0
41
1
10
10.4621312485011
20
-3.55460479411539
30
0
41
1
10
10.7008082392041
20
-3.59037652181951
30
0
41
1
10
11.1724189553329
20
-3.6746243391274
30
0
41
1
10
11.4059987016584
20
-3.72334324762272
30
0
41
1
10
11.6309339824932
20
-3.77521968671232
30
0
0
SPLINE
5
DA
100
AcDbEntity
8
1
62
256
6
ByLayer
370
18
48
1
60
0
100
AcDbSpline
70
4
71
3
72
30
73
26
40
0
40
0
40
0
40
0
40
0.0625
40
0.0625
40
0.09375
40
0.09375
40
0.125
40
0.125
40
0.1875
40
0.1875
40
0.25
40
0.25
40
0.375
40
0.375
40
0.5
40
0.5
40
0.625
40
0.625
40
0.75
40
0.75
40
0.8125
40
0.8125
40
0.875
40
0.875
40
1
40
1
40
1
40
1
41
1
10
6.30143218790397
20
4.25934104609365
30
0
41
1
10
6.37937315869075
20
4.24666462871133
30
0
41
1
10
6.47204497351592
20
4.22431623886715
30
0
41
1
10
6.62699421105688
20
4.18032893403822
30
0
41
1
10
6.68137844433966
20
4.16388982577999
30
0
41
1
10
6.79504027668193
20
4.12788292050351
30
0
41
1
10
6.85450356643969
20
4.10825058126073
30
0
41
1
10
7.03822040617044
20
4.04562057066843
30
0
41
1
10
7.16695260945906
20
3.99922522385208
30
0
41
1
10
7.43402336857548
20
3.89963075857821
30
0
41
1
10
7.57238400961035
20
3.84641310329616
30
0
41
1
10
7.99924418224219
20
3.67882431165583
30
0
41
1
10
8.30111938118904
20
3.55586461374258
30
0
41
1
10
8.91488337192547
20
3.30113591161583
30
0
41
1
10
9.22807843177017
20
3.16893216072955
30
0
41
1
10
9.86419084256417
20
2.89820039472244
30
0
41
1
10
10.1873112528622
20
2.75943499352738
30
0
41
1
10
10.8420797897791
20
2.4769165537931
30
0
41
1
10
11.174230643367
20
2.33296653335043
30
0
41
1
10
11.6757923887352
20
2.11537109340898
30
0
41
1
10
11.8434166441987
20
2.04261198547701
30
0
41
1
10
12.1794617202501
20
1.89679053085828
30
0
41
1
10
12.3478696800612
20
1.82376099795351
30
0
41
1
10
12.854519180751
20
1.60358220627225
30
0
41
1
10
13.1940168293069
20
1.45575950558083
30
0
41
1
10
13.5349716447085
20
1.30742534651898
30
0
0
SPLINE
5
DB
100
AcDbEntity
8
1
62
256
6
ByLayer
370
13
48
1
60
0
100
AcDbSpline
70
4
71
3
72
27
73
23
40
0
40
0
40
0
40
0
40
0.0168102378271996
40
0.0447998620315255
40
0.100779110440177
40
0.156758358848827
40
0.240727231461805
40
0.268716855666131
40
0.324696104074782
40
0.380675352483434
40
0.46464422509641
40
0.492633849300736
40
0.548613097709387
40
0.604592346118039
40
0.688561218731017
40
0.716550842935343
40
0.772530091343992
40
0.828509339752644
40
0.912478212365622
40
0.940467836569948
40
0.9964470849786
40
1
40
1
40
1
40
1
41
1
10
98.0751394997093
20
2.07663323940212
30
0
41
1
10
98.0528532683535
20
2.07655009255833
30
0
41
1
10
97.9934597010285
20
2.07627381676828
30
0
41
1
10
97.8598502440536
20
2.07532090754656
30
0
41
1
10
97.6742911148645
20
2.07307907234408
30
0
41
1
10
97.414512513909
20
2.06835289477126
30
0
41
1
10
97.1918712003193
20
2.0626653473136
30
0
41
1
10
96.9692247940523
20
2.05560562044203
30
0
41
1
10
96.7836653954204
20
2.04881965968396
30
0
41
1
10
96.523886557984
20
2.03774794712659
30
0
41
1
10
96.3012452319034
20
2.02662963150177
30
0
41
1
10
96.0785990219672
20
2.01415689128208
30
0
41
1
10
95.8930399162132
20
2.00288226269395
30
0
41
1
10
95.6332616002768
20
1.98555910235833
30
0
41
1
10
95.4106207177162
20
1.96911364477565
30
0
41
1
10
95.187974797809
20
1.95135758349899
30
0
41
1
10
95.0024158161266
20
1.9357204821162
30
0
41
1
10
94.7426375079997
20
1.91234950238066
30
0
41
1
10
94.5199965000561
20
1.89077363953242
30
0
41
1
10
94.2973504077933
20
1.86794173829343
30
0
41
1
10
94.1813040473383
20
1.85554577500678
30
0
41
1
10
94.1023701982194
20
1.84688629994954
30
0
41
1
10
94.0976593821737
20
1.84636868712049
30
0
0
SPLINE
5
DC
100
AcDbEntity
8
1
62
256
6
ByLayer
370
13
48
1
60
0
100
AcDbSpline
70
4
71
3
72
87
73
83
40
0
40
0
40
0
40
0
40
0.0141631169809468
40
0.0204757998808887
40
0.0331011656807694
40
0.0457265314806496
40
0.0646645801804701
40
0.0709772630804105
40
0.0836026288802917
40
0.0962279946801719
40
0.115166043379993
40
0.121478726279933
40
0.134104092079813
40
0.146729457879694
40
0.165667506579517
40
0.171980189479456
40
0.184605555279336
40
0.197230921079217
40
0.216168969779037
40
0.222481652678978
40
0.235107018478859
40
0.247732384278739
40
0.266670432978561
40
0.272983115878501
40
0.285608481678381
40
0.298233847478261
40
0.317171896178083
40
0.323484579078023
40
0.336109944877904
40
0.348735310677784
40
0.367673359377605
40
0.373986042277545
40
0.386611408077425
40
0.399236773877306
40
0.418174822577128
40
0.424487505477068
40
0.437112871276949
40
0.449738237076829
40
0.46867628577665
40
0.47498896867659
40
0.487614334476471
40
0.500239700276352
40
0.519177748976172
40
0.525490431876113
40
0.538115797675993
40
0.550741163475874
40
0.569679212175695
40
0.575991895075635
40
0.588617260875516
40
0.601242626675397
40
0.620180675375217
40
0.626493358275158
40
0.639118724075038
40
0.651744089874919
40
0.670682138574739
40
0.67699482147468
40
0.689620187274561
40
0.702245553074441
40
0.721183601774262
40
0.727496284674203
40
0.740121650474083
40
0.752747016273966
40
0.771685064973785
40
0.777997747873725
40
0.790623113673605
40
0.803248479473485
40
0.822186528173307
40
0.828499211073247
40
0.841124576873127
40
0.853749942673009
40
0.87268799137283
40
0.87900067427277
40
0.89162604007265
40
0.90425140587253
40
0.923189454572351
40
0.929502137472292
40
0.942127503272172
40
0.954752869072053
40
0.973690917771875
40
0.980003600671814
40
0.992628966471694
40
1
40
1
40
1
40
1
41
1
10
57.2892947220302
20
0.0303118429441439
30
0
41
1
10
57.2060385843123
20
0.0502887091361683
30
0
41
1
10
57.085678459204
20
0.0791814005984573
30
0
41
1
10
56.8911007275362
20
0.125854234749454
30
0
41
1
10
56.7055415441377
20
0.170222651530422
30
0
41
1
10
56.4457628630866
20
0.232193754806359
30
0
41
1
10
56.2231214862934
20
0.28522912982737
30
0
41
1
10
56.0004750382469
20
0.338074257604971
30
0
41
1
10
55.8149156104101
20
0.381882982275071
30
0
41
1
10
55.5551367362755
20
0.442910621366932
30
0
41
1
10
55.3324953907666
20
0.494973063039791
30
0
41
1
10
55.1098491778261
20
0.546709463867015
30
0
41
1
10
54.9242900852554
20
0.589505773370374
30
0
41
1
10
54.6645118149387
20
0.648959801144369
30
0
41
1
10
54.4418709932877
20
0.699509132164021
30
0
41
1
10
54.2192251451483
20
0.749594176789341
30
0
41
1
10
54.0336662122162
20
0.790924775454894
30
0
41
1
10
53.7738879281034
20
0.848169759379711
30
0
41
1
10
53.5512468886327
20
0.896662382321007
30
0
41
1
10
53.3286007125969
20
0.944558122759271
30
0
41
1
10
53.1430414612857
20
0.983980171111536
30
0
41
1
10
52.8832627086774
20
1.03840463394286
30
0
41
1
10
52.6606212936663
20
1.08432443609089
30
0
41
1
10
52.4379748275344
20
1.12952241230738
30
0
41
1
10
52.2524153826215
20
1.16661820143156
30
0
41
1
10
51.9926364685022
20
1.2176468110845
30
0
41
1
10
51.7699950768465
20
1.26050961766213
30
0
41
1
10
51.5473488107696
20
1.30253405174809
30
0
41
1
10
51.3617896842346
20
1.33691351763781
30
0
41
1
10
51.1020113970582
20
1.38401022143642
30
0
41
1
10
50.8793705883728
20
1.42336605102809
30
0
41
1
10
50.6567247717237
20
1.46177567949692
30
0
41
1
10
50.4711658673318
20
1.49307775599348
30
0
41
1
10
50.2113876198193
20
1.53574772296087
30
0
41
1
10
49.988746610559
20
1.57118274883754
30
0
41
1
10
49.7661004648331
20
1.60557332891533
30
0
41
1
10
49.5805412430335
20
1.6334682892874
30
0
41
1
10
49.3207625405876
20
1.67126127773809
30
0
41
1
10
49.0981211740856
20
1.70240056792712
30
0
41
1
10
48.875474756577
20
1.73240713662326
30
0
41
1
10
48.6899153529056
20
1.75659823273883
30
0
41
1
10
48.4301364998198
20
1.78911070586266
30
0
41
1
10
48.2074951641778
20
1.81561995386288
30
0
41
1
10
47.9848489583982
20
1.84091863541877
30
0
41
1
10
47.7992898761236
20
1.8611435539571
30
0
41
1
10
47.5395116295338
20
1.88802305548858
30
0
41
1
10
47.3168708330582
20
1.90961757458034
30
0
41
1
10
47.0942250085158
20
1.92994199502328
30
0
41
1
10
46.9086660942187
20
1.94599191840316
30
0
41
1
10
46.6488878382706
20
1.96696621891558
30
0
41
1
10
46.4262468280326
20
1.98343032543337
30
0
41
1
10
46.2036006898021
20
1.99857664408883
30
0
41
1
10
46.0180414673705
20
2.01028935835847
30
0
41
1
10
45.7582627382797
20
2.0251437790668
30
0
41
1
10
45.5356213236424
20
2.03630566128623
30
0
41
1
10
45.3129748370593
20
2.04611274046882
30
0
41
1
10
45.1274153766309
20
2.05336149807515
30
0
41
1
10
44.8676364616149
20
2.06193092026841
30
0
41
1
10
44.6449950912545
20
2.06766125976735
30
0
41
1
10
44.4223488685281
20
2.07201045108504
30
0
41
1
10
44.2367897717811
20
2.07470384528476
30
0
41
1
10
43.9770114922443
20
2.07687747093137
30
0
41
1
10
43.7543706560857
20
2.07710398035774
30
0
41
1
10
43.531724781833
20
2.0759481976739
30
0
41
1
10
43.3461658342993
20
2.07406470837409
30
0
41
1
10
43.0863875618659
20
2.06983895196662
30
0
41
1
10
42.863746567119
20
2.06458083021052
30
0
41
1
10
42.6411004686437
20
2.05795141452821
30
0
41
1
10
42.4555412815978
20
2.05152401811403
30
0
41
1
10
42.1957625933665
20
2.04095640682046
30
0
41
1
10
41.9731212068016
20
2.03027432780001
30
0
41
1
10
41.7504747421771
20
2.01824157738576
30
0
41
1
10
41.5649153070695
20
2.00733531515944
30
0
41
1
10
41.3051364503389
20
1.99052764916816
30
0
41
1
10
41.0824951510761
20
1.97451970057556
30
0
41
1
10
40.8598490144045
20
1.95719081817662
30
0
41
1
10
40.6742899952493
20
1.94190109343901
30
0
41
1
10
40.4145118297059
20
1.91900363838524
30
0
41
1
10
40.1918710948204
20
1.89782289373982
30
0
41
1
10
39.9692253212407
20
1.87537905181326
30
0
41
1
10
39.8145562707654
20
1.85912294335798
30
0
41
1
10
39.6970005172937
20
1.84625995334974
30
0
41
1
10
39.6536681243109
20
1.84145035415391
30
0
0
SPLINE
5
DD
100
AcDbEntity
8
1
62
256
6
ByLayer
370
18
48
1
60
0
100
AcDbSpline
70
4
71
3
72
56
73
52
40
0
40
0
40
0
40
0
40
0.0386021081494008
40
0.0386021081494008
40
0.0871550680774402
40
0.0871550680774402
40
0.11143154804146
40
0.11143154804146
40
0.135708028005479
40
0.135708028005479
40
0.184260987933517
40
0.184260987933517
40
0.232813947861555
40
0.232813947861555
40
0.281366907789594
40
0.281366907789594
40
0.329919867717632
40
0.329919867717632
40
0.354196347681651
40
0.354196347681651
40
0.378472827645671
40
0.378472827645671
40
0.427025787573711
40
0.427025787573711
40
0.47557874750175
40
0.47557874750175
40
0.52413170742979
40
0.52413170742979
40
0.54840818739381
40
0.54840818739381
40
0.57268466735783
40
0.57268466735783
40
0.621237627285871
40
0.621237627285871
40
0.669790587213911
40
0.669790587213911
40
0.766896507069992
40
0.766896507069992
40
0.791172987034012
40
0.791172987034012
40
0.815449466998032
40
0.815449466998032
40
0.864002426926073
40
0.864002426926073
40
0.888278906890093
40
0.888278906890093
40
0.912555386854113
40
0.912555386854113
40
0.961108346782153
40
0.961108346782153
40
1
40
1
40
1
40
1
41
1
10
17.9181953467117
20
4.40717988437692
30
0
41
1
10
18.2969669899146
20
4.4077595695704
30
0
41
1
10
18.6763703910621
20
4.39568600234401
30
0
41
1
10
19.5309176288864
20
4.34005659847224
30
0
41
1
10
20.0060279950254
20
4.28926761162364
30
0
41
1
10
20.719364706265
20
4.1843506127411
30
0
41
1
10
20.9572213320548
20
4.14457225088063
30
0
41
1
10
21.4334481570876
20
4.05557433760481
30
0
41
1
10
21.6720589088259
20
4.0063002852807
30
0
41
1
10
22.3866879437668
20
3.84519698695155
30
0
41
1
10
22.8618887308854
20
3.72007248131627
30
0
41
1
10
23.812457533743
20
3.43723786290053
30
0
41
1
10
24.287769935046
20
3.2794490522605
30
0
41
1
10
25.2413845743929
20
2.93455850954439
30
0
41
1
10
25.7168752901643
20
2.74823930926738
30
0
41
1
10
26.6672091177506
20
2.35266119533756
30
0
41
1
10
27.1421378458432
20
2.14326429610117
30
0
41
1
10
27.8562766384387
20
1.81521391922237
30
0
41
1
10
28.0947763516566
20
1.70341170689108
30
0
41
1
10
28.5708120644212
20
1.47657883626732
30
0
41
1
10
28.8085412753818
20
1.36147531459289
30
0
41
1
10
29.5213482179168
20
1.01202755559041
30
0
41
1
10
29.9960631983128
20
0.773578692797742
30
0
41
1
10
30.9471513588736
20
0.290766675153492
30
0
41
1
10
31.4240534914203
20
0.0458340460186548
30
0
41
1
10
32.374767870844
20
-0.440557644344978
30
0
41
1
10
32.8494111447823
20
-0.68241993089552
30
0
41
1
10
33.562077821384
20
-1.03976342575501
30
0
41
1
10
33.7997252392575
20
-1.15801728503118
30
0
41
1
10
34.2756205518621
20
-1.39199454549262
30
0
41
1
10
34.5139489033063
20
-1.50771413368864
30
0
41
1
10
35.2274434438567
20
-1.84859765272634
30
0
41
1
10
35.702048572386
20
-2.06804943243964
30
0
41
1
10
36.6516901937176
20
-2.48693535270849
30
0
41
1
10
37.1272055356147
20
-2.68653033354093
30
0
41
1
10
38.5554582232618
20
-3.2471324368189
30
0
41
1
10
39.5020177889317
20
-3.56694615270646
30
0
41
1
10
40.691655541698
20
-3.88209959110213
30
0
41
1
10
40.9297700166435
20
-3.94085631243237
30
0
41
1
10
41.4050506983735
20
-4.04910896866579
30
0
41
1
10
41.6424448908803
20
-4.09867307937034
30
0
41
1
10
42.3543956345293
20
-4.23333728769168
30
0
41
1
10
42.8286163668311
20
-4.30447031750614
30
0
41
1
10
43.5414520041566
20
-4.38180263980433
30
0
41
1
10
43.7795729556415
20
-4.40269710871053
30
0
41
1
10
44.2552583443417
20
-4.43441816736677
30
0
41
1
10
44.4927827603438
20
-4.44526222881447
30
0
41
1
10
45.20485756007
20
-4.46274680371795
30
0
41
1
10
45.6788744329031
20
-4.45432704635027
30
0
41
1
10
46.5338457072421
20
-4.40304595071845
30
0
41
1
10
46.9152284764961
20
-4.36730852937336
30
0
41
1
10
47.2960283274694
20
-4.31907829959772
30
0
0
SPLINE
5
DE
100
AcDbEntity
8
1
62
256
6
ByLayer
370
18
48
1
60
0
100
AcDbSpline
70
4
71
3
72
50
73
46
40
0
40
0
40
0
40
0
40
0.0065839689474297
40
0.0065839689474297
40
0.0349672841203625
40
0.0349672841203625
40
0.0917339144662265
40
0.0917339144662265
40
0.14850054481209
40
0.14850054481209
40
0.205267175157954
40
0.205267175157954
40
0.262033805503818
40
0.262033805503818
40
0.318800435849682
40
0.318800435849682
40
0.347183751022613
40
0.347183751022613
40
0.375567066195545
40
0.375567066195545
40
0.432333696541406
40
0.432333696541406
40
0.489100326887267
40
0.489100326887267
40
0.545866957233128
40
0.545866957233128
40
0.602633587578989
40
0.602633587578989
40
0.631016902751919
40
0.631016902751919
40
0.659400217924848
40
0.659400217924848
40
0.716166848270707
40
0.716166848270707
40
0.772933478616565
40
0.772933478616565
40
0.829700108962424
40
0.829700108962424
40
0.886466739308282
40
0.886466739308282
40
0.943233369654141
40
0.943233369654141
40
0.971616684827071
40
0.971616684827071
40
1
40
1
40
1
40
1
41
1
10
72.3178157369952
20
4.50510712611936
30
0
41
1
10
72.3728584407409
20
4.50519039280496
30
0
41
1
10
72.4278854850434
20
4.5050005963285
30
0
41
1
10
72.7199893673257
20
4.50254128937914
30
0
41
1
10
72.9568148645775
20
4.49548166880768
30
0
41
1
10
73.6668987467243
20
4.45921606475574
30
0
41
1
10
74.1398874196853
20
4.4149434640741
30
0
41
1
10
75.0876635810007
20
4.28698431137155
30
0
41
1
10
75.5628632587979
20
4.2031306292055
30
0
41
1
10
76.5098428620688
20
3.99889653483322
30
0
41
1
10
76.9827112031612
20
3.87855412506181
30
0
41
1
10
77.9296179004108
20
3.60369666077691
30
0
41
1
10
78.404563817705
20
3.44871120871446
30
0
41
1
10
79.352007365572
20
3.11003173373388
30
0
41
1
10
79.8247880778321
20
2.92628279944529
30
0
41
1
10
80.5344462061139
20
2.63181514099622
30
0
41
1
10
80.7710886398651
20
2.53053021567493
30
0
41
1
10
81.2449379242223
20
2.32228434282689
30
0
41
1
10
81.4823783794712
20
2.21519859818127
30
0
41
1
10
82.1934633158945
20
1.88718601350166
30
0
41
1
10
82.6661676133471
20
1.65932280537885
30
0
41
1
10
83.611932281598
20
1.19071748707307
30
0
41
1
10
84.0850111855338
20
0.949994946846175
30
0
41
1
10
85.0339069267593
20
0.460119606748037
30
0
41
1
10
85.5067482041378
20
0.212494066422408
30
0
41
1
10
86.4523488641645
20
-0.282113667236956
30
0
41
1
10
86.9250074850713
20
-0.529290030853815
30
0
41
1
10
87.6357313889104
20
-0.896119675764709
30
0
41
1
10
87.8730049245136
20
-1.0177555477307
30
0
41
1
10
88.3465616427301
20
-1.25791781869523
30
0
41
1
10
88.5830688656197
20
-1.37661021199463
30
0
41
1
10
89.2922333438005
20
-1.72770023712442
30
0
41
1
10
89.7645270761155
20
-1.95511410354686
30
0
41
1
10
90.7111218000281
20
-2.3913570218258
30
0
41
1
10
91.1856435336836
20
-2.60034328089426
30
0
41
1
10
92.131361216366
20
-2.99202808034781
30
0
41
1
10
92.6035340291884
20
-3.17519851333518
30
0
41
1
10
93.5491794818531
20
-3.51236359599369
30
0
41
1
10
94.0237446672966
20
-3.66656950266304
30
0
41
1
10
94.9690348673998
20
-3.93972399814487
30
0
41
1
10
95.4403037196718
20
-4.05896127532105
30
0
41
1
10
96.1471943660621
20
-4.21013241607528
30
0
41
1
10
96.3828188957104
20
-4.25591408679489
30
0
41
1
10
96.8543506333675
20
-4.33801964754269
30
0
41
1
10
97.0900476018596
20
-4.37444545064122
30
0
41
1
10
97.3264690102029
20
-4.40580259666802
30
0
0
SPLINE
5
DF
100
AcDbEntity
8
1
62
256
6
ByLayer
370
18
48
1
60
0
100
AcDbSpline
70
4
71
3
72
10
73
6
40
0
40
0
40
0
40
0
40
0.5
40
0.5
40
1
40
1
40
1
40
1
41
1
10
98.0751396624461
20
2.07663323898743
30
0
41
1
10
98.0457013769196
20
2.21158861592659
30
0
41
1
10
98.030917803467
20
2.34613725560851
30
0
41
1
10
98.0179222372819
20
2.61477459878429
30
0
41
1
10
98.0199086132181
20
2.74885779560566
30
0
41
1
10
98.0272338678132
20
2.88279281378001
30
0
0
SPLINE
5
E0
100
AcDbEntity
8
1
62
256
6
ByLayer
370
18
48
1
60
0
100
AcDbSpline
70
4
71
3
72
8
73
4
40
0
40
0
40
0
40
0
40
1
40
1
40
1
40
1
41
1
10
97.389188245464
20
-4.50520110564401
30
0
41
1
10
97.3655744261333
20
-4.48139738000117
30
0
41
1
10
97.3447877542575
20
-4.44829677002784
30
0
41
1
10
97.3264690102028
20
-4.40580259666788
30
0
0
SPLINE
5
E1
100
AcDbEntity
8
1
62
256
6
ByLayer
370
18
48
1
60
0
100
AcDbSpline
70
4
71
3
72
8
73
4
40
0
40
0
40
0
40
0
40
1
40
1
40
1
40
1
41
1
10
98.9997756249344
20
0.0853268805695961
30
0
41
1
10
98.9291283586533
20
0.276139827872669
30
0
41
1
10
98.8601565433094
20
0.468477810873196
30
0
41
1
10
98.7926689048174
20
0.662314227955846
30
0
0
SPLINE
5
E2
100
AcDbEntity
8
1
62
256
6
ByLayer
370
18
48
1
60
0
100
AcDbSpline
70
4
71
3
72
12
73
8
40
0
40
0
40
0
40
0
40
0.250000000000001
40
0.250000000000001
40
0.500000000000002
40
0.500000000000002
40
1
40
1
40
1
40
1
41
1
10
11.6309339824932
20
-3.77521968671232
30
0
41
1
10
12.0598592751496
20
-3.87414199332378
30
0
41
1
10
12.4897742824476
20
-3.96085534060836
30
0
41
1
10
13.3480966434865
20
-4.11120050081814
30
0
41
1
10
13.7770092201219
20
-4.17493359267996
30
0
41
1
10
15.0627240632827
20
-4.33251984270501
30
0
41
1
10
15.9184772275276
20
-4.39346582873773
30
0
41
1
10
16.7724656306895
20
-4.40396559113495
30
0
0
SPLINE
5
E3
100
AcDbEntity
8
1
62
256
6
ByLayer
370
18
48
1
60
0
100
AcDbSpline
70
4
71
3
72
38
73
34
40
0
40
0
40
0
40
0
40
0.0292973869795408
40
0.0292973869795408
40
0.103966818750345
40
0.103966818750345
40
0.141301534635748
40
0.141301534635748
40
0.17863625052115
40
0.17863625052115
40
0.253305682291955
40
0.253305682291955
40
0.327975114062759
40
0.327975114062759
40
0.402644545833564
40
0.402644545833564
40
0.551983409375173
40
0.551983409375173
40
0.589318125260575
40
0.589318125260575
40
0.626652841145977
40
0.626652841145977
40
0.701322272916782
40
0.701322272916782
40
0.738656988802184
40
0.738656988802184
40
0.775991704687586
40
0.775991704687586
40
0.850661136458391
40
0.850661136458391
40
0.925330568229195
40
0.925330568229195
40
1
40
1
40
1
40
1
41
1
10
5.83490429740684
20
4.38543870851328
30
0
41
1
10
5.83487035601343
20
4.3853728668343
30
0
41
1
10
5.83483505242219
20
4.38347100997166
30
0
41
1
10
5.83470611904039
20
4.37031041129075
30
0
41
1
10
5.83460687741919
20
4.34915691781734
30
0
41
1
10
5.83445527918275
20
4.29994866542344
30
0
41
1
10
5.83440427796944
20
4.28062421933998
30
0
41
1
10
5.83430242212012
20
4.23603712499994
30
0
41
1
10
5.83425139838863
20
4.21066948439824
30
0
41
1
10
5.83410179216546
20
4.12642349485574
30
0
41
1
10
5.8340065195911
20
4.05943913181179
30
0
41
1
10
5.83383092836982
20
3.90448683762307
30
0
41
1
10
5.83375059407012
20
3.81651777680045
30
0
41
1
10
5.83360924489744
20
3.61922147233355
30
0
41
1
10
5.83354814292449
20
3.50922803969132
30
0
41
1
10
5.83340169071369
20
3.15579912217768
30
0
41
1
10
5.83335175957671
20
2.887194452545
30
0
41
1
10
5.83333855261679
20
2.50935505929692
30
0
41
1
10
5.83333833309032
20
2.43182179239679
30
0
41
1
10
5.83334200276576
20
2.27467871744449
30
0
41
1
10
5.83334588062851
20
2.19481857626445
30
0
41
1
10
5.83336234639387
20
1.95143686177121
30
0
41
1
10
5.8333798086378
20
1.78412898186224
30
0
41
1
10
5.83340992201451
20
1.52556703654056
30
0
41
1
10
5.83342060365342
20
1.4381092987442
30
0
41
1
10
5.83344214076061
20
1.26060285964121
30
0
41
1
10
5.8334530271697
20
1.17026304292401
30
0
41
1
10
5.83348369092573
20
0.898826827068262
30
0
41
1
10
5.83350158253842
20
0.716562647398177
30
0
41
1
10
5.83352240535635
20
0.349495790598695
30
0
41
1
10
5.83352536313035
20
0.164693012878104
30
0
41
1
10
5.833505682245
20
-0.207500775845148
30
0
41
1
10
5.83348279879948
20
-0.395353644827168
30
0
41
1
10
5.83344209331278
20
-0.580913833788685
30
0
0
SPLINE
5
E4
100
AcDbEntity
8
1
62
256
6
ByLayer
370
18
48
1
60
0
100
AcDbSpline
70
4
71
3
72
8
73
4
40
0
40
0
40
0
40
0
40
1
40
1
40
1
40
1
41
1
10
5.94488049826322
20
-4.16284072653175
30
0
41
1
10
5.91251178711138
20
-4.15759926670628
30
0
41
1
10
5.88014166237437
20
-4.15226716528508
30
0
41
1
10
5.84776983550816
20
-4.14684432606546
30
0
0
SPLINE
5
E5
100
AcDbEntity
8
1
62
256
6
ByLayer
370
18
48
1
60
0
100
AcDbSpline
70
4
71
3
72
8
73
4
40
0
40
0
40
0
40
0
40
1
40
1
40
1
40
1
41
1
10
6.08958693669132
20
-4.09881794861062
30
0
41
1
10
6.04114250301106
20
-4.12028993506325
30
0
41
1
10
5.99290690727594
20
-4.14163117155812
30
0
41
1
10
5.9448804982639
20
-4.16284072654554
30
0
0
SPLINE
5
E6
100
AcDbEntity
8
1
62
256
6
ByLayer
370
18
48
1
60
0
100
AcDbSpline
70
4
71
3
72
32
73
28
40
0
40
0
40
0
40
0
40
0.101916097522853
40
0.101916097522853
40
0.203832195045707
40
0.203832195045707
40
0.30574829256856
40
0.30574829256856
40
0.407664390091413
40
0.407664390091413
40
0.458622438852837
40
0.458622438852837
40
0.509580487614261
40
0.509580487614261
40
0.61149658513711
40
0.61149658513711
40
0.713412682659958
40
0.713412682659958
40
0.764370731421382
40
0.764370731421382
40
0.815328780182806
40
0.815328780182806
40
0.86628682894423
40
0.86628682894423
40
0.917244877705654
40
0.917244877705654
40
1
40
1
40
1
40
1
41
1
10
96.8983963553474
20
0.452345068732512
30
0
41
1
10
96.466981789264
20
0.672221845882376
30
0
41
1
10
96.0371926222586
20
0.889096089705845
30
0
41
1
10
95.1792271023479
20
1.31379883241456
30
0
41
1
10
94.7513116028118
20
1.52167105520306
30
0
41
1
10
93.8956087605392
20
1.92468402346711
30
0
41
1
10
93.4676356489601
20
2.11969344117267
30
0
41
1
10
92.6095606639485
20
2.49270351386804
30
0
41
1
10
92.1795304816584
20
2.67127417171935
30
0
41
1
10
91.5317772625508
20
2.92492507014046
30
0
41
1
10
91.3153795237786
20
3.00706209801226
30
0
41
1
10
90.8812467030724
20
3.16572100445549
30
0
41
1
10
90.6633771639544
20
3.24235312904133
30
0
41
1
10
90.0088293818347
20
3.46185618152043
30
0
41
1
10
89.5747986173152
20
3.59453260755939
30
0
41
1
10
88.7093638093385
20
3.83314127459843
30
0
41
1
10
88.2779621264745
20
3.93934988843245
30
0
41
1
10
87.6318193473273
20
4.07335016313345
30
0
41
1
10
87.4164934261765
20
4.11379051313406
30
0
41
1
10
86.9859719896137
20
4.18785259169641
30
0
41
1
10
86.7706141431121
20
4.22122466127237
30
0
41
1
10
86.3396581535982
20
4.27931793924955
30
0
41
1
10
86.1241505556153
20
4.30414130541874
30
0
41
1
10
85.6923581518508
20
4.34631246375193
30
0
41
1
10
85.4762400703698
20
4.36370773719972
30
0
41
1
10
84.9082295049512
20
4.39910626249463
30
0
41
1
10
84.5556892854878
20
4.41071262062772
30
0
41
1
10
84.201586581065
20
4.41082686700861
30
0
0
SPLINE
5
E7
100
AcDbEntity
8
1
62
256
6
ByLayer
370
18
48
1
60
0
100
AcDbSpline
70
4
71
3
72
92
73
88
40
0
40
0
40
0
40
0
40
0.0099922486061291
40
0.0099922486061291
40
0.0289943159319042
40
0.0289943159319042
40
0.0669984505834544
40
0.0669984505834544
40
0.0860005179092294
40
0.0860005179092294
40
0.105002585235004
40
0.105002585235004
40
0.143006719886554
40
0.143006719886554
40
0.162008787212328
40
0.162008787212328
40
0.181010854538102
40
0.181010854538102
40
0.21901498918965
40
0.21901498918965
40
0.238017056515424
40
0.238017056515424
40
0.257019123841198
40
0.257019123841198
40
0.276021191166972
40
0.276021191166972
40
0.295023258492747
40
0.295023258492747
40
0.333027393144295
40
0.333027393144295
40
0.371031527795843
40
0.371031527795843
40
0.409035662447391
40
0.409035662447391
40
0.428037729773166
40
0.428037729773166
40
0.44703979709894
40
0.44703979709894
40
0.466041864424715
40
0.466041864424715
40
0.485043931750489
40
0.485043931750489
40
0.504045999076264
40
0.504045999076264
40
0.523048066402039
40
0.523048066402039
40
0.561052201053588
40
0.561052201053588
40
0.580054268379363
40
0.580054268379363
40
0.599056335705138
40
0.599056335705138
40
0.637060470356687
40
0.637060470356687
40
0.656062537682462
40
0.656062537682462
40
0.675064605008236
40
0.675064605008236
40
0.713068739659784
40
0.713068739659784
40
0.732070806985559
40
0.732070806985559
40
0.751072874311334
40
0.751072874311334
40
0.770074941637108
40
0.770074941637108
40
0.789077008962883
40
0.789077008962883
40
0.808079076288657
40
0.808079076288657
40
0.827081143614432
40
0.827081143614432
40
0.865085278265982
40
0.865085278265982
40
0.884087345591757
40
0.884087345591757
40
0.903089412917532
40
0.903089412917532
40
0.941093547569082
40
0.941093547569082
40
0.960095614894858
40
0.960095614894858
40
0.979097682220633
40
0.979097682220633
40
0.998099749546409
40
0.998099749546409
40
1
40
1
40
1
40
1
41
1
10
64.1575092820157
20
-2.96230242960786
30
0
41
1
10
64.0425658941485
20
-3.00479388976865
30
0
41
1
10
63.9276702711453
20
-3.04641105275297
30
0
41
1
10
63.5945643162089
20
-3.16447369760456
30
0
41
1
10
63.3763239412355
20
-3.2388384073227
30
0
41
1
10
62.7220140551153
20
-3.45396016292173
30
0
41
1
10
62.2859621785914
20
-3.58554730876571
30
0
41
1
10
61.6308609965154
20
-3.76083968864231
30
0
41
1
10
61.4123920533223
20
-3.81561805970898
30
0
41
1
10
60.9747425744953
20
-3.91640827709202
30
0
41
1
10
60.7560505190266
20
-3.96309719286967
30
0
41
1
10
60.1019968797693
20
-4.09297039820962
30
0
41
1
10
59.6676427409254
20
-4.16518979694754
30
0
41
1
10
59.017737664354
20
-4.24899666761826
30
0
41
1
10
58.8014118519193
20
-4.27278855908352
30
0
41
1
10
58.3692031942686
20
-4.31089487787548
30
0
41
1
10
58.1531569277948
20
-4.32498084509385
30
0
41
1
10
57.50513635077
20
-4.35837769618558
30
0
41
1
10
57.0730757346767
20
-4.36531484630356
30
0
41
1
10
56.4236022472834
20
-4.35112159266257
30
0
41
1
10
56.206854561952
20
-4.34254453407803
30
0
41
1
10
55.7728106977565
20
-4.31657786900098
30
0
41
1
10
55.5552958377876
20
-4.29872758173289
30
0
41
1
10
55.1194659869536
20
-4.25551732091182
30
0
41
1
10
54.901163617303
20
-4.23026983401138
30
0
41
1
10
54.4631488850936
20
-4.17129478532169
30
0
41
1
10
54.2440959506125
20
-4.13760366292075
30
0
41
1
10
53.5893736128018
20
-4.02516433913397
30
0
41
1
10
53.1547854202068
20
-3.9360078263928
30
0
41
1
10
52.2881424788725
20
-3.72615820837774
30
0
41
1
10
51.8557548808743
20
-3.60866006813003
30
0
41
1
10
50.9913977231936
20
-3.3469189132943
30
0
41
1
10
50.5593379112067
20
-3.20348569806416
30
0
41
1
10
49.9098549994612
20
-2.96874900059802
30
0
41
1
10
49.6932385096679
20
-2.88682641590575
30
0
41
1
10
49.2591468897942
20
-2.71973317799564
30
0
41
1
10
49.0417754619188
20
-2.63377132912012
30
0
41
1
10
48.6062661774147
20
-2.45660603582471
30
0
41
1
10
48.3879697390188
20
-2.36578613633392
30
0
41
1
10
47.9504344186303
20
-2.17872901956142
30
0
41
1
10
47.7309327044182
20
-2.08253497883172
30
0
41
1
10
47.2939560695072
20
-1.88684676274116
30
0
41
1
10
47.0762828314608
20
-1.78669046334784
30
0
41
1
10
46.6413125199183
20
-1.58471181511831
30
0
41
1
10
46.4240978488778
20
-1.48270982023956
30
0
41
1
10
45.7735690113625
20
-1.17288155777439
30
0
41
1
10
45.3408901976769
20
-0.962262087325342
30
0
41
1
10
44.692262541764
20
-0.642102485456888
30
0
41
1
10
44.4762178174157
20
-0.534427685056585
30
0
41
1
10
44.0438968071535
20
-0.318475363104198
30
0
41
1
10
43.8275553901709
20
-0.210384510582202
30
0
41
1
10
43.1783461371604
20
0.11513176129364
30
0
41
1
10
42.7447059336064
20
0.332704920260738
30
0
41
1
10
42.0916493290374
20
0.656818545935806
30
0
41
1
10
41.873591879254
20
0.764611532853706
30
0
41
1
10
41.4362171503466
20
0.978999430357248
30
0
41
1
10
41.2165990736326
20
1.0854501481015
30
0
41
1
10
40.5592873746148
20
1.40168636862586
30
0
41
1
10
40.1220318864942
20
1.60731501010542
30
0
41
1
10
39.4660995799582
20
1.90518768645396
30
0
41
1
10
39.2474545382514
20
2.00283780051674
30
0
41
1
10
38.8100500745775
20
2.1937755731567
30
0
41
1
10
38.5910938854391
20
2.28633523653741
30
0
41
1
10
38.1528167358759
20
2.46850319216833
30
0
41
1
10
37.933239141105
20
2.55780150394847
30
0
41
1
10
37.4953790901094
20
2.73084228701291
30
0
41
1
10
37.2770689328816
20
2.81496870990966
30
0
41
1
10
36.8412156643549
20
2.97695454081847
30
0
41
1
10
36.6237170615267
20
3.05490544066589
30
0
41
1
10
36.1895874678957
20
3.2042991887198
30
0
41
1
10
35.9728341478575
20
3.27503743803464
30
0
41
1
10
35.3231616442942
20
3.47799117219864
30
0
41
1
10
34.8904533750904
20
3.60234073622863
30
0
41
1
10
34.2411163569601
20
3.76820206432726
30
0
41
1
10
34.0245350792592
20
3.82004272891282
30
0
41
1
10
33.5912560896129
20
3.9160651695187
30
0
41
1
10
33.374369805221
20
3.95983639609778
30
0
41
1
10
32.7227250910839
20
4.07971115210609
30
0
41
1
10
32.2871956447288
20
4.14634608089938
30
0
41
1
10
31.6305943675596
20
4.22167373814395
30
0
41
1
10
31.4107332935317
20
4.2428440598282
30
0
41
1
10
30.9728565266219
20
4.27713896727298
30
0
41
1
10
30.7544720022097
20
4.29002551188185
30
0
41
1
10
30.3186017099704
20
4.30673392056949
30
0
41
1
10
30.1012273575175
20
4.31082644491099
30
0
41
1
10
29.8622553938694
20
4.31137857071525
30
0
41
1
10
29.8405329161451
20
4.31139137292774
30
0
41
1
10
29.8188131205658
20
4.31136638353024
30
0
0
SPLINE
5
E8
100
AcDbEntity
8
1
62
256
6
ByLayer
370
18
48
1
60
0
100
AcDbSpline
70
4
71
3
72
8
73
4
40
0
40
0
40
0
40
0
40
1
40
1
40
1
40
1
41
1
10
97.3891882454639
20
4.50520110564401
30
0
41
1
10
97.5994861710944
20
3.98700730689873
30
0
41
1
10
97.8153297795151
20
3.44838343212939
30
0
41
1
10
98.0272338678126
20
2.88279281377976
30
0
0
SPLINE
5
E9
100
AcDbEntity
8
1
62
256
6
ByLayer
370
18
48
1
60
0
100
AcDbSpline
70
4
71
3
72
18
73
14
40
0
40
0
40
0
40
0
40
0.0958928352956044
40
0.0958928352956044
40
0.191785670591209
40
0.191785670591209
40
0.383571341182418
40
0.383571341182418
40
0.767142682364836
40
0.767142682364836
40
0.958928352956045
40
0.958928352956045
40
1
40
1
40
1
40
1
41
1
10
5.84776983550464
20
-4.14684432606512
30
0
41
1
10
5.84263298521466
20
-4.16202014175724
30
0
41
1
10
5.83913093542645
20
-4.1765790427639
30
0
41
1
10
5.83521002196289
20
-4.20412686957016
30
0
41
1
10
5.83527365324741
20
-4.2171689140556
30
0
41
1
10
5.83525823628727
20
-4.25409507171869
30
0
41
1
10
5.83524263497671
20
-4.27578316008101
30
0
41
1
10
5.83518190526047
20
-4.33215676290331
30
0
41
1
10
5.83512287833855
20
-4.35818679016617
30
0
41
1
10
5.83501400812079
20
-4.37965673238031
30
0
41
1
10
5.83497418538667
20
-4.38387512406823
30
0
41
1
10
5.83492286507942
20
-4.3853353035862
30
0
41
1
10
5.83491370488909
20
-4.38545551347877
30
0
41
1
10
5.83490444321143
20
-4.38543898007708
30
0
0
SPLINE
5
EA
100
AcDbEntity
8
1
62
256
6
ByLayer
370
18
48
1
60
0
100
AcDbSpline
70
4
71
3
72
12
73
8
40
0
40
0
40
0
40
0
40
0.189812552663838
40
0.189812552663838
40
0.600662611159985
40
0.600662611159985
40
1
40
1
40
1
40
1
41
1
10
72.8268919369095
20
-4.38936964165913
30
0
41
1
10
72.7171828637651
20
-4.38921814119448
30
0
41
1
10
72.6073522050129
20
-4.38800561715576
30
0
41
1
10
72.2593533669051
20
-4.3807820243284
30
0
41
1
10
72.0204860552884
20
-4.37082617738207
30
0
41
1
10
71.5515295702575
20
-4.3415965596682
30
0
41
1
10
71.3209401247638
20
-4.32255101060446
30
0
41
1
10
71.0907629006688
20
-4.29898948384604
30
0
0
SPLINE
5
EB
100
AcDbEntity
8
1
62
256
6
ByLayer
370
13
48
1
60
0
100
AcDbSpline
70
4
71
3
72
42
73
38
40
0
40
0
40
0
40
0
40
0.0975270366211289
40
0.0975270366211289
40
0.226359720115399
40
0.226359720115399
40
0.258567890988965
40
0.258567890988965
40
0.290776061862531
40
0.290776061862531
40
0.355192403609664
40
0.355192403609664
40
0.419608745356797
40
0.419608745356797
40
0.48402508710393
40
0.48402508710393
40
0.516233257977495
40
0.516233257977495
40
0.548441428851061
40
0.548441428851061
40
0.612857770598193
40
0.612857770598193
40
0.74169045409246
40
0.74169045409246
40
0.773898624966027
40
0.773898624966027
40
0.806106795839594
40
0.806106795839594
40
0.870523137586728
40
0.870523137586728
40
0.934939479333863
40
0.934939479333863
40
0.96714765020743
40
0.96714765020743
40
0.999355821080997
40
0.999355821080997
40
1
40
1
40
1
40
1
41
1
10
71.0907629010379
20
-4.29898948388382
30
0
41
1
10
70.373687715124
20
-4.22558784198097
30
0
41
1
10
69.6606132221936
20
-4.10835771293299
30
0
41
1
10
68.004704822874
20
-3.74313355219991
30
0
41
1
10
67.061589543983
20
-3.46481637287255
30
0
41
1
10
65.8689094480605
20
-3.04111722575013
30
0
41
1
10
65.6304429623816
20
-2.95288047753499
30
0
41
1
10
65.155187139795
20
-2.77064805519447
30
0
41
1
10
64.9181099291058
20
-2.67654787681542
30
0
41
1
10
64.2080696250179
20
-2.3860465365172
30
0
41
1
10
63.7362737875501
20
-2.18139254119475
30
0
41
1
10
62.7931853115855
20
-1.75534260625704
30
0
41
1
10
62.3219541023454
20
-1.53384798061623
30
0
41
1
10
61.3775590770207
20
-1.07839968981113
30
0
41
1
10
60.9043449176787
20
-0.8444316448047
30
0
41
1
10
60.1911517727374
20
-0.48802274150421
30
0
41
1
10
59.9525780581278
20
-0.368134623916035
30
0
41
1
10
59.4752976407753
20
-0.127747726287538
30
0
41
1
10
59.2373311219633
20
-0.0076366822892169
30
0
41
1
10
58.524938606448
20
0.351365124279909
30
0
41
1
10
58.0519746482357
20
0.588758676348391
30
0
41
1
10
56.6357458678168
20
1.28948596781501
30
0
41
1
10
55.6943542871507
20
1.73933317638446
30
0
41
1
10
54.509123748588
20
2.25702256601744
30
0
41
1
10
54.2716442090761
20
2.35831782822211
30
0
41
1
10
53.795446063098
20
2.55570211585334
30
0
41
1
10
53.5564252725946
20
2.65192299642018
30
0
41
1
10
52.8400223110932
20
2.93079156075282
30
0
41
1
10
52.3630023100133
20
3.10359005622249
30
0
41
1
10
51.4078691872572
20
3.42026633499847
30
0
41
1
10
50.9302100043695
20
3.56374803623538
30
0
41
1
10
50.2141803997723
20
3.75300642465192
30
0
41
1
10
49.975441522088
20
3.81177539432943
30
0
41
1
10
49.4975736375767
20
3.92051673387354
30
0
41
1
10
49.2586322438595
20
3.97056493942884
30
0
41
1
10
49.0157879179321
20
4.01681066643494
30
0
41
1
10
49.0110263806262
20
4.0177156120329
30
0
41
1
10
49.0062650704504
20
4.01861870207151
30
0
0
SPLINE
5
EC
100
AcDbEntity
8
1
62
256
6
ByLayer
370
18
48
1
60
0
100
AcDbSpline
70
4
71
3
72
10
73
6
40
0
40
0
40
0
40
0
40
0.401310908807072
40
0.401310908807072
40
1
40
1
40
1
40
1
41
1
10
18.4052549195375
20
-4.29149656245727
30
0
41
1
10
18.1687700496038
20
-4.29071505827119
30
0
41
1
10
17.9321355455411
20
-4.28505057984964
30
0
41
1
10
17.344703277116
20
-4.25923502653319
30
0
41
1
10
16.9942129093778
20
-4.23331209682445
30
0
41
1
10
16.6444245720464
20
-4.19722648966709
30
0
0
SPLINE
5
ED
100
AcDbEntity
8
1
62
256
6
ByLayer
370
13
48
1
60
0
100
AcDbSpline
70
4
71
3
72
16
73
12
40
0
40
0
40
0
40
0
40
0.173899034624198
40
0.173899034624198
40
0.449266023082799
40
0.449266023082799
40
0.586949517312099
40
0.586949517312099
40
0.724633011541398
40
0.724633011541398
40
1
40
1
40
1
40
1
41
1
10
16.6444245728772
20
-4.19722648975281
30
0
41
1
10
16.0449460987568
20
-4.13538181856759
30
0
41
1
10
15.4475296426717
20
-4.04368712383811
30
0
41
1
10
13.902976650759
20
-3.73364127389078
30
0
41
1
10
12.9551773373808
20
-3.47347611832947
30
0
41
1
10
11.5169382827166
20
-2.99022447271611
30
0
41
1
10
11.0402499496833
20
-2.81569484783168
30
0
41
1
10
10.090207337401
20
-2.44458554101703
30
0
41
1
10
9.61676828052606
20
-2.24792467008336
30
0
41
1
10
8.19786019264166
20
-1.63107165412575
30
0
41
1
10
7.25371531762937
20
-1.18420005119574
30
0
41
1
10
6.30115918733588
20
-0.720926877033122
30
0
0
SPLINE
5
EE
100
AcDbEntity
8
1
62
256
6
ByLayer
370
13
48
1
60
0
100
AcDbSpline
70
4
71
3
72
87
73
83
40
0
40
0
40
0
40
0
40
0.0172371247399189
40
0.0235720389413786
40
0.0362418673442987
40
0.0489116957472182
40
0.0679164383515981
40
0.0742513525530584
40
0.0869211809559779
40
0.0995910093588979
40
0.118595751963278
40
0.124930666164738
40
0.137600494567658
40
0.150270322970578
40
0.169275065574958
40
0.175609979776417
40
0.188279808179337
40
0.200949636582257
40
0.219954379186637
40
0.226289293388097
40
0.238959121791017
40
0.251628950193937
40
0.270633692798317
40
0.276968606999777
40
0.289638435402697
40
0.302308263805617
40
0.321313006409997
40
0.327647920611456
40
0.340317749014376
40
0.352987577417296
40
0.371992320021676
40
0.378327234223136
40
0.390997062626056
40
0.403666891028976
40
0.422671633633356
40
0.429006547834816
40
0.441676376237735
40
0.454346204640655
40
0.473350947245035
40
0.479685861446495
40
0.492355689849415
40
0.505025518252335
40
0.524030260856715
40
0.530365175058175
40
0.543035003461095
40
0.555704831864015
40
0.574709574468395
40
0.581044488669854
40
0.593714317072775
40
0.606384145475695
40
0.625388888080074
40
0.631723802281534
40
0.644393630684454
40
0.657063459087374
40
0.676068201691754
40
0.682403115893214
40
0.695072944296133
40
0.707742772699054
40
0.726747515303433
40
0.733082429504894
40
0.745752257907813
40
0.758422086310733
40
0.777426828915113
40
0.783761743116573
40
0.796431571519493
40
0.809101399922413
40
0.828106142526793
40
0.834441056728253
40
0.847110885131173
40
0.859780713534093
40
0.878785456138473
40
0.885120370339932
40
0.897790198742852
40
0.910460027145772
40
0.929464769750152
40
0.935799683951612
40
0.948469512354532
40
0.961139340757452
40
0.980144083361831
40
0.986478997563292
40
0.999148825966208
40
1
40
1
40
1
40
1
41
1
10
88.6412557580526
20
-1.84917536361479
30
0
41
1
10
88.5402812848878
20
-1.86021909970927
30
0
41
1
10
88.4021893034969
20
-1.87481589957423
30
0
41
1
10
88.1898781904942
20
-1.89617001196845
30
0
41
1
10
88.0043438219115
20
-1.91402019159202
30
0
41
1
10
87.744591391113
20
-1.93751947546954
30
0
41
1
10
87.5219201868898
20
-1.95610063026459
30
0
41
1
10
87.2992538768484
20
-1.97339453074892
30
0
41
1
10
87.1137192326638
20
-1.98694612039705
30
0
41
1
10
86.8539662898057
20
-2.00436666536601
30
0
41
1
10
86.6312946377735
20
-2.01769308977234
30
0
41
1
10
86.4086280199392
20
-2.02969760457214
30
0
41
1
10
86.2230932575288
20
-2.03881235483351
30
0
41
1
10
85.9633403795108
20
-2.04998821557925
30
0
41
1
10
85.7406689749001
20
-2.05794050806975
30
0
41
1
10
85.5180026996084
20
-2.06454753888826
30
0
41
1
10
85.3324682261673
20
-2.06914153719993
30
0
41
1
10
85.072715692395
20
-2.07396654261564
30
0
41
1
10
84.8500445012374
20
-2.07646571673485
30
0
41
1
10
84.62737834212
20
-2.07760713498365
30
0
41
1
10
84.4418439377613
20
-2.07763133606562
30
0
41
1
10
84.1820914485087
20
-2.07604984448554
30
0
41
1
10
83.9594201893698
20
-2.07306080350932
30
0
41
1
10
83.7367538238435
20
-2.06871155636074
30
0
41
1
10
83.551219150016
20
-2.06415205767212
30
0
41
1
10
83.291466208214
20
-2.05616082631244
30
0
41
1
10
83.0687945947125
20
-2.0477018978203
30
0
41
1
10
82.8461280396799
20
-2.03790347075221
30
0
41
1
10
82.6605933343753
20
-2.02881140970132
30
0
41
1
10
82.4008405275798
20
-2.01450732727437
30
0
41
1
10
82.1781691673337
20
-2.0006829842907
30
0
41
1
10
81.9555029124229
20
-1.98555216356974
30
0
41
1
10
81.7699684413979
20
-1.9720323654839
30
0
41
1
10
81.510215894119
20
-1.95157499838015
30
0
41
1
10
81.2875446810551
20
-1.93253492230164
30
0
41
1
10
81.0648785028262
20
-1.91223289858803
30
0
41
1
10
80.8793440723367
20
-1.89442803128492
30
0
41
1
10
80.6195915197889
20
-1.86803074213574
30
0
41
1
10
80.3969201873478
20
-1.84397081290643
30
0
41
1
10
80.1742537401359
20
-1.81870424873551
30
0
41
1
10
79.9887190178025
20
-1.79679426587015
30
0
41
1
10
79.7289660610799
20
-1.76472403611288
30
0
41
1
10
79.5062944799744
20
-1.73589044612521
30
0
41
1
10
79.2836279850276
20
-1.70592332928786
30
0
41
1
10
79.0980933307652
20
-1.68014104268309
30
0
41
1
10
78.8383405747069
20
-1.64274336414513
30
0
41
1
10
78.6156692298507
20
-1.60944921865934
30
0
41
1
10
78.3930029576707
20
-1.57510596636061
30
0
41
1
10
78.2074684561404
20
-1.54572928203316
30
0
41
1
10
77.9477158516179
20
-1.5034050581971
30
0
41
1
10
77.7250445825742
20
-1.46600492531189
30
0
41
1
10
77.5023783553197
20
-1.42764936524097
30
0
41
1
10
77.3168438797786
20
-1.39498832391374
30
0
41
1
10
77.0570912553692
20
-1.34818254302797
30
0
41
1
10
76.8344198647528
20
-1.30706831212294
30
0
41
1
10
76.6117533743042
20
-1.26510185781808
30
0
41
1
10
76.4262186416976
20
-1.22949813983888
30
0
41
1
10
76.1664657206209
20
-1.17870089010924
30
0
41
1
10
75.9437942084025
20
-1.13430420533427
30
0
41
1
10
75.7211277973989
20
-1.08916921903276
30
0
41
1
10
75.5355932156843
20
-1.05099930750936
30
0
41
1
10
75.2758405534488
20
-0.996749496513019
30
0
41
1
10
75.053169271678
20
-0.949542873467891
30
0
41
1
10
74.830503037805
20
-0.901720476834697
30
0
41
1
10
74.6449685443884
20
-0.861391640199145
30
0
41
1
10
74.3852159100957
20
-0.804267752919657
30
0
41
1
10
74.1625445826423
20
-0.754753000673418
30
0
41
1
10
73.9398782823612
20
-0.704748855135819
30
0
41
1
10
73.7543437460645
20
-0.662685573843419
30
0
41
1
10
73.4945910572787
20
-0.603286757427952
30
0
41
1
10
73.2719196470504
20
-0.551982541686641
30
0
41
1
10
73.0492531836506
20
-0.50032180081817
30
0
41
1
10
72.8637184971605
20
-0.45696709207337
30
0
41
1
10
72.6039656554143
20
-0.395920649139725
30
0
41
1
10
72.3812942074036
20
-0.343369912438931
30
0
41
1
10
72.158627831139
20
-0.290599373302655
30
0
41
1
10
71.9730932679738
20
-0.246411950198791
30
0
41
1
10
71.7133406123273
20
-0.184364364781885
30
0
41
1
10
71.490669298469
20
-0.1311252708457
30
0
41
1
10
71.2680029850137
20
-0.0778079657621618
30
0
41
1
10
71.1516964505841
20
-0.049882771487205
30
0
41
1
10
71.0724961201804
20
-0.0308639998052911
30
0
41
1
10
71.0675102979256
20
-0.0296667238863222
30
0
0
SPLINE
5
EF
100
AcDbEntity
8
1
62
256
6
ByLayer
370
13
48
1
60
0
100
AcDbSpline
70
4
71
3
72
87
73
83
40
0
40
0
40
0
40
0
40
0.0161753783105781
40
0.0224917248114664
40
0.035124417813242
40
0.0477571108150186
40
0.066706150317682
40
0.0730224968185698
40
0.0856551898203459
40
0.098287882822122
40
0.117236922324786
40
0.123553268825674
40
0.13618596182745
40
0.148818654829226
40
0.16776769433189
40
0.174084040832778
40
0.186716733834554
40
0.19934942683633
40
0.218298466338994
40
0.224614812839882
40
0.237247505841658
40
0.249880198843433
40
0.268829238346097
40
0.275145584846985
40
0.287778277848761
40
0.300410970850537
40
0.319360010353201
40
0.325676356854089
40
0.338309049855866
40
0.350941742857641
40
0.369890782360305
40
0.376207128861193
40
0.388839821862969
40
0.401472514864745
40
0.42042155436741
40
0.426737900868297
40
0.439370593870073
40
0.452003286871848
40
0.470952326374513
40
0.477268672875401
40
0.489901365877177
40
0.502534058878953
40
0.521483098381617
40
0.527799444882505
40
0.540432137884281
40
0.553064830886056
40
0.57201387038872
40
0.578330216889609
40
0.590962909891385
40
0.60359560289316
40
0.622544642395824
40
0.628860988896712
40
0.641493681898488
40
0.654126374900264
40
0.673075414402928
40
0.679391760903816
40
0.692024453905592
40
0.704657146907368
40
0.723606186410032
40
0.72992253291092
40
0.742555225912696
40
0.755187918914471
40
0.774136958417135
40
0.780453304918024
40
0.7930859979198
40
0.805718690921576
40
0.82466773042424
40
0.830984076925128
40
0.843616769926903
40
0.856249462928679
40
0.875198502431343
40
0.881514848932231
40
0.894147541934007
40
0.906780234935783
40
0.925729274438447
40
0.932045620939335
40
0.944678313941111
40
0.957311006942887
40
0.976260046445551
40
0.982576392946439
40
0.995209085948215
40
1
40
1
40
1
40
1
41
1
10
34.2953076282268
20
-1.8432612041608
30
0
41
1
10
34.2002736291803
20
-1.85377880950873
30
0
41
1
10
34.0681231639615
20
-1.86794792891109
30
0
41
1
10
33.8617532914312
20
-1.88906473258783
30
0
41
1
10
33.676218784962
20
-1.9072411011353
30
0
41
1
10
33.4164660892546
20
-1.93120239786435
30
0
41
1
10
33.193794674054
20
-1.95018721721644
30
0
41
1
10
32.9711282660325
20
-1.96789518312849
30
0
41
1
10
32.7855936461252
20
-1.98179986106439
30
0
41
1
10
32.5258408758274
20
-1.9997250743649
30
0
41
1
10
32.3031694383132
20
-2.01349085600884
30
0
41
1
10
32.0805029912872
20
-2.02593688907516
30
0
41
1
10
31.8949683341789
20
-2.03542083116935
30
0
41
1
10
31.6352155458752
20
-2.04711413718846
30
0
41
1
10
31.4125441554608
20
-2.05550936249429
30
0
41
1
10
31.1898778409101
20
-2.06255919671136
30
0
41
1
10
31.0043433446573
20
-2.06752274238403
30
0
41
1
10
30.7445908183614
20
-2.0728639041707
30
0
41
1
10
30.5219196434509
20
-2.07580247855247
30
0
41
1
10
30.299253483143
20
-2.07738049498107
30
0
41
1
10
30.1137190000184
20
-2.07776715164323
30
0
41
1
10
29.8539662830757
20
-2.07669145705654
30
0
41
1
10
29.6312948099188
20
-2.07413589164656
30
0
41
1
10
29.4086283328611
20
-2.07022363762138
30
0
41
1
10
29.2230936564056
20
-2.06603166920547
30
0
41
1
10
28.9633408231166
20
-2.05855800244842
30
0
41
1
10
28.7406693598842
20
-2.05054307104726
30
0
41
1
10
28.5180029238749
20
-2.04118688046162
30
0
41
1
10
28.3324682985522
20
-2.03246218600458
30
0
41
1
10
28.0727155839261
20
-2.01866874976639
30
0
41
1
10
27.8500442780517
20
-2.00527717159221
30
0
41
1
10
27.6273780533283
20
-1.99057518824799
30
0
41
1
10
27.4418436262245
20
-1.97741061139081
30
0
41
1
10
27.1820911682718
20
-1.95744487205931
30
0
41
1
10
26.9594200105536
20
-1.93881884571851
30
0
41
1
10
26.7367538186761
20
-1.91892453032864
30
0
41
1
10
26.5512192903604
20
-1.90145555715279
30
0
41
1
10
26.2914665010296
20
-1.87552170568321
30
0
41
1
10
26.0687949655031
20
-1.85185268102185
30
0
41
1
10
25.8461284409648
20
-1.82697397660465
30
0
41
1
10
25.6605937248266
20
-1.80538585144907
30
0
41
1
10
25.4008408308708
20
-1.77376184015225
30
0
41
1
10
25.1781693206834
20
-1.74530454680917
30
0
41
1
10
24.9555028515345
20
-1.71570765059297
30
0
41
1
10
24.7699682173044
20
-1.69022993746683
30
0
41
1
10
24.5102155256615
20
-1.65325044005647
30
0
41
1
10
24.2875442679801
20
-1.62030539542968
30
0
41
1
10
24.0648781055938
20
-1.58630358063098
30
0
41
1
10
23.8793437224006
20
-1.55720659744958
30
0
41
1
10
23.6195912888855
20
-1.51526448518368
30
0
41
1
10
23.3969201076134
20
-1.47818159163825
30
0
41
1
10
23.1742538460457
20
-1.44013510800065
30
0
41
1
10
22.9887192510801
20
-1.40772645855091
30
0
41
1
10
22.7289663823376
20
-1.36126416142474
30
0
41
1
10
22.5062947976208
20
-1.32043384323248
30
0
41
1
10
22.2836282488798
20
-1.27874300186684
30
0
41
1
10
22.0980935175161
20
-1.24336359561499
30
0
41
1
10
21.8383406048708
20
-1.19286979175354
30
0
41
1
10
21.6156690903408
20
-1.14872151861797
30
0
41
1
10
21.3930026345271
20
-1.103824984211
30
0
41
1
10
21.207468025906
20
-1.06584722212875
30
0
41
1
10
20.9477153908449
20
-1.01185403976143
30
0
41
1
10
20.7250441949617
20
-0.964854103054563
30
0
41
1
10
20.5023780952011
20
-0.91722734278045
30
0
41
1
10
20.3168437552801
20
-0.877054242387345
30
0
41
1
10
20.0570913542411
20
-0.820136108085393
30
0
41
1
10
19.8344201675736
20
-0.770786076195662
30
0
41
1
10
19.6117538677655
20
-0.720938540338921
30
0
41
1
10
19.4262192319237
20
-0.679000582765696
30
0
41
1
10
19.166466305647
20
-0.619766882756807
30
0
41
1
10
18.9437946729919
20
-0.568592422152989
30
0
41
1
10
18.7211280814688
20
-0.517050364302861
30
0
41
1
10
18.5355933213908
20
-0.473786827568091
30
0
41
1
10
18.2758403903864
20
-0.412853864358681
30
0
41
1
10
18.0531688894804
20
-0.36038549417205
30
0
41
1
10
17.8305024802428
20
-0.307684708585072
30
0
41
1
10
17.6449679144522
20
-0.263546893393681
30
0
41
1
10
17.3852153225265
20
-0.201553145628566
30
0
41
1
10
17.1625441427444
20
-0.148343650986817
30
0
41
1
10
16.9398780345749
20
-0.0950417322636099
30
0
41
1
10
16.8004120663859
20
-0.0615583164127429
30
0
41
1
10
16.6980517941067
20
-0.0369748117281574
30
0
41
1
10
16.6699058680342
20
-0.0302154802532186
30
0
0
SPLINE
5
F0
100
AcDbEntity
8
1
62
256
6
ByLayer
370
18
48
1
60
0
100
AcDbSpline
70
4
71
3
72
16
73
12
40
0
40
0
40
0
40
0
40
0.125
40
0.125
40
0.25
40
0.25
40
0.5
40
0.5
40
0.75
40
0.75
40
1
40
1
40
1
40
1
41
1
10
5.8334420933181
20
-0.58091383378968
30
0
41
1
10
5.83343716094913
20
-0.603398550061257
30
0
41
1
10
5.83841211631776
20
-0.624990264622625
30
0
41
1
10
5.85455829840217
20
-0.666628355046669
30
0
41
1
10
5.86541562067436
20
-0.685831539331787
30
0
41
1
10
5.90316957321136
20
-0.740430089216432
30
0
41
1
10
5.93470329677731
20
-0.772098489158765
30
0
41
1
10
6.00198082854374
20
-0.829055708811694
30
0
41
1
10
6.03841750480129
20
-0.854730096951727
30
0
41
1
10
6.11351008455674
20
-0.901745786826297
30
0
41
1
10
6.15230883177202
20
-0.923174087857973
30
0
41
1
10
6.19214507016869
20
-0.942889835640074
30
0
0
SPLINE
5
F1
100
AcDbEntity
8
1
62
256
6
ByLayer
370
13
48
1
60
0
100
AcDbSpline
70
4
71
3
72
86
73
82
40
0
40
0
40
0
40
0
40
0.0084537732754838
40
0.0211329197502561
40
0.0401516394624111
40
0.0464912126997975
40
0.0591703591745688
40
0.07184950564934
40
0.0908682253614945
40
0.097207798598882
40
0.109886945073654
40
0.122566091548423
40
0.14158481126058
40
0.147924384497966
40
0.160603530972738
40
0.173282677447507
40
0.192301397159664
40
0.198640970397051
40
0.211320116871822
40
0.223999263346593
40
0.243017983058748
40
0.249357556296135
40
0.262036702770906
40
0.274715849245677
40
0.293734568957835
40
0.30007414219522
40
0.312753288669991
40
0.325432435144763
40
0.344451154856917
40
0.350790728094304
40
0.363469874569076
40
0.376149021043846
40
0.395167740756002
40
0.401507313993388
40
0.414186460468159
40
0.42686560694293
40
0.445884326655088
40
0.452223899892473
40
0.464903046367242
40
0.477582192842015
40
0.496600912554173
40
0.502940485791557
40
0.515619632266328
40
0.528298778741099
40
0.547317498453256
40
0.553657071690642
40
0.566336218165412
40
0.579015364640183
40
0.598034084352341
40
0.604373657589726
40
0.617052804064497
40
0.629731950539267
40
0.648750670251425
40
0.655090243488811
40
0.667769389963581
40
0.680448536438352
40
0.699467256150509
40
0.705806829387895
40
0.718485975862665
40
0.731165122337436
40
0.750183842049594
40
0.75652341528698
40
0.76920256176175
40
0.781881708236521
40
0.800900427948678
40
0.807240001186063
40
0.819919147660835
40
0.832598294135606
40
0.851617013847761
40
0.857956587085148
40
0.870635733559919
40
0.88331488003469
40
0.902333599746846
40
0.908673172984232
40
0.921352319459003
40
0.934031465933775
40
0.95305018564593
40
0.959389758883316
40
0.972068905358088
40
0.984748051832859
40
1
40
1
40
1
40
1
41
1
10
61.4340404718483
20
-1.84997868407703
30
0
41
1
10
61.3845570713026
20
-1.85538427835192
30
0
41
1
10
61.2608612972114
20
-1.86866500929824
30
0
41
1
10
61.0258413733756
20
-1.89280131221466
30
0
41
1
10
60.8031702215088
20
-1.91413580189877
30
0
41
1
10
60.5805039267203
20
-1.93420946946242
30
0
41
1
10
60.3949692787047
20
-1.95009882161131
30
0
41
1
10
60.135216319381
20
-1.97081984394822
30
0
41
1
10
59.9125446506331
20
-1.98699649666798
30
0
41
1
10
59.6898780292084
20
-2.00187105704694
30
0
41
1
10
59.5043432484528
20
-2.01339448851024
30
0
41
1
10
59.2445902980473
20
-2.02796234903226
30
0
41
1
10
59.021918795345
20
-2.03883530466282
30
0
41
1
10
58.7992524010608
20
-2.04837612996434
30
0
41
1
10
58.6137178626429
20
-2.05542739730765
30
0
41
1
10
58.3539653351964
20
-2.06370385391821
30
0
41
1
10
58.1312942326264
20
-2.06916526207451
30
0
41
1
10
57.9086282136781
20
-2.07327353306383
30
0
41
1
10
57.7230939301086
20
-2.07577663386829
30
0
41
1
10
57.4633415787831
20
-2.07766631108478
30
0
41
1
10
57.2406703946722
20
-2.07764552041149
30
0
41
1
10
57.0180040537361
20
-2.07626006661596
30
0
41
1
10
56.832469364437
20
-2.07417077863187
30
0
41
1
10
56.5727163473155
20
-2.06962852415896
30
0
41
1
10
56.3500446277233
20
-2.06410944821579
30
0
41
1
10
56.1273779537067
20
-2.05723956150939
30
0
41
1
10
55.9418431296688
20
-2.05058374966487
30
0
41
1
10
55.6820901248495
20
-2.03967324959169
30
0
41
1
10
55.4594185853858
20
-2.02873343134706
30
0
41
1
10
55.236752167184
20
-2.01646911951431
30
0
41
1
10
55.0512176106608
20
-2.00532917055588
30
0
41
1
10
54.7914650523361
20
-1.98817817546703
30
0
41
1
10
54.5687939168281
20
-1.9719393257358
30
0
41
1
10
54.3461278567283
20
-1.95441284378819
30
0
41
1
10
54.1605935447576
20
-1.93890655819089
30
0
41
1
10
53.9008411796209
20
-1.91569252765726
30
0
41
1
10
53.6781700128342
20
-1.89431894406675
30
0
41
1
10
53.4555037175355
20
-1.87170507668384
30
0
41
1
10
53.2699690701521
20
-1.8519857088659
30
0
41
1
10
53.0102161009257
20
-1.82293857153502
30
0
41
1
10
52.7875444100436
20
-1.79664562404327
30
0
41
1
10
52.5648777497823
20
-1.76917891780363
30
0
41
1
10
52.3793429426966
20
-1.74545578653604
30
0
41
1
10
52.1195899872899
20
-1.71088972643079
30
0
41
1
10
51.8969185143389
20
-1.67996488870435
30
0
41
1
10
51.6742521821262
20
-1.64794446725529
30
0
41
1
10
51.4887176935553
20
-1.62047444157056
30
0
41
1
10
51.2289652068266
20
-1.5807612816277
30
0
41
1
10
51.0062941095513
20
-1.54553491897974
30
0
41
1
10
50.783628067533
20
-1.50930133323669
30
0
41
1
10
50.5980937726333
20
-1.4783757166156
30
0
41
1
10
50.338341447485
20
-1.43393523367197
30
0
41
1
10
50.1156703268606
20
-1.39477845503609
30
0
41
1
10
49.8930040847284
20
-1.3547126759124
30
0
41
1
10
49.7074694713347
20
-1.32065619448724
30
0
41
1
10
49.4477165189902
20
-1.27195451372543
30
0
41
1
10
49.2250448151449
20
-1.22927783597052
30
0
41
1
10
49.0023781233778
20
-1.18580018567192
30
0
41
1
10
48.8168432877328
20
-1.14897042014562
30
0
41
1
10
48.5570902956975
20
-1.09651948715165
30
0
41
1
10
48.3344187925142
20
-1.05077215580403
30
0
41
1
10
48.1117524299772
20
-1.00434084515709
30
0
41
1
10
47.9262179118857
20
-0.965126245150884
30
0
41
1
10
47.6664653749825
20
-0.909479938968275
30
0
41
1
10
47.4437942291851
20
-0.861145925882767
30
0
41
1
10
47.2211281385255
20
-0.812253060775845
30
0
41
1
10
47.035593802364
20
-0.771069868981755
30
0
41
1
10
46.7758414161459
20
-0.712820228225041
30
0
41
1
10
46.5531702394718
20
-0.662415447928169
30
0
41
1
10
46.330503937006
20
-0.611584475000996
30
0
41
1
10
46.1449692793285
20
-0.568874586810267
30
0
41
1
10
45.8852162863816
20
-0.508646097666798
30
0
41
1
10
45.6625445703279
20
-0.456707851968503
30
0
41
1
10
45.4398778864652
20
-0.404475113197321
30
0
41
1
10
45.254343060733
20
-0.360685146266121
30
0
41
1
10
44.9945900771356
20
-0.299102811901122
30
0
41
1
10
44.7719185749248
20
-0.246167799373097
30
0
41
1
10
44.5492522048821
20
-0.193074688405318
30
0
41
1
10
44.3637176874203
20
-0.148660280443011
30
0
41
1
10
44.1260132670708
20
-0.0916556461568234
30
0
41
1
10
43.9625069689821
20
-0.0524609117946113
30
0
41
1
10
43.8732233215227
20
-0.0310558359288393
30
0
0
SPLINE
5
F2
100
AcDbEntity
8
1
62
256
6
ByLayer
370
18
48
1
60
0
100
AcDbSpline
70
4
71
4
72
10
73
5
40
0
40
0
40
0
40
0
40
0
40
1
40
1
40
1
40
1
40
1
41
1
10
16.7724656306893
20
4.40396559113486
30
0
41
1
10
16.569218108063
20
3.82072932787182
30
0
41
1
10
16.3659705854365
20
3.2374930646088
30
0
41
1
10
16.1627230628101
20
2.65425680134575
30
0
41
1
10
15.9594755401837
20
2.07102053808271
30
0
0
SPLINE
5
F3
100
AcDbEntity
8
1
62
256
6
ByLayer
370
18
48
1
60
0
100
AcDbSpline
70
4
71
3
72
12
73
8
40
0
40
0
40
0
40
0
40
0.500000000000026
40
0.500000000000026
40
0.750000000000013
40
0.750000000000013
40
1
40
1
40
1
40
1
41
1
10
97.9207516529366
20
1.61316956675304
30
0
41
1
10
97.983097160703
20
1.67192212333055
30
0
41
1
10
98.0349399526411
20
1.74157475550191
30
0
41
1
10
98.0775351442878
20
1.86345969929241
30
0
41
1
10
98.0853833043956
20
1.90536282213537
30
0
41
1
10
98.0888097813585
20
1.99163223527367
30
0
41
1
10
98.0843452206234
20
2.03443098572959
30
0
41
1
10
98.0751394989964
20
2.07663324267062
30
0
0
SPLINE
5
F4
100
AcDbEntity
8
1
62
256
6
ByLayer
370
18
48
1
60
0
100
AcDbSpline
70
4
71
3
72
11
73
7
40
0
40
0
40
0
40
0
40
0.211128560800696
40
0.454192041391015
40
0.729409382497868
40
1
40
1
40
1
40
1
41
1
10
57.2750292986719
20
0.0337348390130217
30
0
41
1
10
57.3944209429905
20
0.0050156438201157
30
0
41
1
10
57.6502803898565
20
-0.0638448450826559
30
0
41
1
10
58.0573080349663
20
-0.199312124803811
30
0
41
1
10
58.4944202201827
20
-0.375015944121088
30
0
41
1
10
58.7947582093843
20
-0.519769427889685
30
0
41
1
10
58.9431263427836
20
-0.597073638746053
30
0
0
SPLINE
5
F5
100
AcDbEntity
8
1
62
256
6
ByLayer
370
18
48
1
60
0
100
AcDbSpline
70
4
71
3
72
11
73
7
40
0
40
0
40
0
40
0
40
0.303973940459249
40
0.576858099545485
40
0.818582914933142
40
1
40
1
40
1
40
1
41
1
10
71.088144795381
20
-0.0346217657219654
30
0
41
1
10
70.9261622054457
20
0.0042720334546118
30
0
41
1
10
70.6186568223818
20
0.090333315262825
30
0
41
1
10
70.1820479241896
20
0.245849814304137
30
0
41
1
10
69.810520814518
20
0.402468230909392
30
0
41
1
10
69.5841307112853
20
0.511671454168862
30
0
41
1
10
69.4869977569655
20
0.560942183663343
30
0
0
SPLINE
5
F6
100
AcDbEntity
8
1
62
256
6
ByLayer
370
18
48
1
60
0
100
AcDbSpline
70
4
71
3
72
11
73
7
40
0
40
0
40
0
40
0
40
0.205807712342713
40
0.440914403691759
40
0.705555714304026
40
1
40
1
40
1
40
1
41
1
10
84.4743428082149
20
0.0339470006319686
30
0
41
1
10
84.5982017421733
20
0.0040726239326716
30
0
41
1
10
84.8609596852405
20
-0.0668417568590485
30
0
41
1
10
85.2712184171864
20
-0.204446897786909
30
0
41
1
10
85.7248381408367
20
-0.388547339964049
30
0
41
1
10
86.0394469214765
20
-0.540096854038723
30
0
41
1
10
86.2036732708642
20
-0.626092661947069
30
0
0
SPLINE
5
F7
100
AcDbEntity
8
1
62
256
6
ByLayer
370
18
48
1
60
0
100
AcDbSpline
70
4
71
3
72
26
73
22
40
0
40
0
40
0
40
0
40
0.0159227712356292
40
0.102852049126821
40
0.161487732228485
40
0.209313551679892
40
0.250304443355038
40
0.287405547713065
40
0.322139461734383
40
0.372718955426759
40
0.475472854610522
40
0.545917547487762
40
0.608099605802878
40
0.676141040829847
40
0.760276472194199
40
0.817788255439158
40
0.873473171175549
40
0.916513828479828
40
0.947397313804889
40
0.990385208673768
40
1
40
1
40
1
40
1
41
1
10
56.9781498663323
20
4.35999566315218
30
0
41
1
10
56.9254269222388
20
4.35992856808085
30
0
41
1
10
56.5848549145219
20
4.35947343524199
30
0
41
1
10
56.0498195408578
20
4.35998961836432
30
0
41
1
10
55.409252558668
20
4.35732391203862
30
0
41
1
10
54.9208214538919
20
4.3565494030799
30
0
41
1
10
54.5037191417194
20
4.35592974674006
30
0
41
1
10
54.1300095000465
20
4.35516402056771
30
0
41
1
10
53.7244317401423
20
4.35422198692709
30
0
41
1
10
53.1020916686733
20
4.35364030278629
30
0
41
1
10
52.3564148164632
20
4.35272161121364
30
0
41
1
10
51.5907371088916
20
4.34695129104639
30
0
41
1
10
50.9334908941562
20
4.35045546662869
30
0
41
1
10
50.2235936437446
20
4.34896774895614
30
0
41
1
10
49.5290264863819
20
4.34590665891838
30
0
41
1
10
48.8753628185688
20
4.34543966675835
30
0
41
1
10
48.3578418655317
20
4.34512028896583
30
0
41
1
10
47.9285334026218
20
4.34475020506548
30
0
41
1
10
47.5412552132763
20
4.3441223299597
30
0
41
1
10
47.2647409182687
20
4.34328637606598
30
0
41
1
10
47.0905000296027
20
4.34282027968442
30
0
41
1
10
47.0586516690425
20
4.34273700532398
30
0
0
SPLINE
5
F8
100
AcDbEntity
8
1
62
256
6
ByLayer
370
18
48
1
60
0
100
AcDbSpline
70
4
71
3
72
11
73
7
40
0
40
0
40
0
40
0
40
0.229996333643584
40
0.482892641305991
40
0.7588891174559
40
1
40
1
40
1
40
1
41
1
10
43.8882352042829
20
-0.0346547980519745
30
0
41
1
10
43.7683163233868
20
-0.0058906320964809
30
0
41
1
10
43.5168089832182
20
0.061803038467815
30
0
41
1
10
43.1224556432089
20
0.192872460285372
30
0
41
1
10
42.7232955738761
20
0.351373641566482
30
0
41
1
10
42.4561202161811
20
0.477523213097612
30
0
41
1
10
42.3317185491749
20
0.540403418091444
30
0
0
SPLINE
5
F9
100
AcDbEntity
8
1
62
256
6
ByLayer
370
18
48
1
60
0
100
AcDbSpline
70
4
71
3
72
24
73
20
40
0
40
0
40
0
40
0
40
0.0328295892431274
40
0.0989478780281771
40
0.161668770400441
40
0.217479752044652
40
0.270332399428425
40
0.326422361966968
40
0.399334058202759
40
0.479965638936554
40
0.538170478474484
40
0.620342546379013
40
0.710079871640921
40
0.778676978655706
40
0.831184839792317
40
0.866300897239439
40
0.900536770373021
40
0.947607929523706
40
1
40
1
40
1
40
1
41
1
10
29.7961080627754
20
4.31149111237769
30
0
41
1
10
29.6871523803372
20
4.31131498977763
30
0
41
1
10
29.3587542987681
20
4.31085657247453
30
0
41
1
10
28.8221201290007
20
4.31049007585517
30
0
41
1
10
28.2092285185336
20
4.31054416188007
30
0
41
1
10
27.6403670948104
20
4.30757347299885
30
0
41
1
10
27.0935151580653
20
4.30532857123879
30
0
41
1
10
26.4898965459364
20
4.3048551137118
30
0
41
1
10
25.7940754079416
20
4.30493823567656
30
0
41
1
10
25.0912313176359
20
4.30514919577405
30
0
41
1
10
24.3576539307807
20
4.30133487746798
30
0
41
1
10
23.5938883422533
20
4.30071228409696
30
0
41
1
10
22.7955177177363
20
4.29912590150377
30
0
41
1
10
22.0958657454122
20
4.29871295885567
30
0
41
1
10
21.5769154129826
20
4.29776506903099
30
0
41
1
10
21.1736312299886
20
4.29697442872694
30
0
41
1
10
20.7882658241652
20
4.29544843880458
30
0
41
1
10
20.3443099968766
20
4.29454089514849
30
0
41
1
10
20.0181219791988
20
4.29392754170522
30
0
41
1
10
19.8453960767673
20
4.29362070624649
30
0
0
SPLINE
5
FA
100
AcDbEntity
8
1
62
256
6
ByLayer
370
18
48
1
60
0
100
AcDbSpline
70
4
71
3
72
26
73
22
40
0
40
0
40
0
40
0
40
0.0759440327829179
40
0.148651557386693
40
0.206032481901535
40
0.245107582427848
40
0.285518399474755
40
0.334342411009931
40
0.384047366979964
40
0.445163282585414
40
0.507153090460083
40
0.550814575097157
40
0.593313933440628
40
0.650675192207241
40
0.717721745751339
40
0.769089679968406
40
0.818162837353181
40
0.870928330819641
40
0.931653277862222
40
0.99939878328268
40
1
40
1
40
1
40
1
41
1
10
18.4155171460534
20
-4.2914669246199
30
0
41
1
10
18.7033883865563
20
-4.29176339450367
30
0
41
1
10
19.2664941559193
20
-4.29244616529064
30
0
41
1
10
20.0477771669604
20
-4.29420026284126
30
0
41
1
10
20.6858704967023
20
-4.29506193605988
30
0
41
1
10
21.2054021992916
20
-4.29711845127898
30
0
41
1
10
21.6914482394653
20
-4.29796634877513
30
0
41
1
10
22.2194427168818
20
-4.29883976990766
30
0
41
1
10
22.8255510466822
20
-4.29922811726598
30
0
41
1
10
23.4818252260705
20
-4.30025441866559
30
0
41
1
10
24.1150805706821
20
-4.30160236093664
30
0
41
1
10
24.6776594927401
20
-4.30243415739045
30
0
41
1
10
25.2226642539777
20
-4.30555128982871
30
0
41
1
10
25.8564787928001
20
-4.30475942237007
30
0
41
1
10
26.5239655079758
20
-4.30492617109326
30
0
41
1
10
27.1599837915569
20
-4.30531679532194
30
0
41
1
10
27.7417593166802
20
-4.30844517104293
30
0
41
1
10
28.3590843767474
20
-4.31056492670237
30
0
41
1
10
29.0472603025085
20
-4.31080685900753
30
0
41
1
10
29.5375186013052
20
-4.3107109517569
30
0
41
1
10
29.7969595532129
20
-4.31133586325245
30
0
41
1
10
29.7992417390332
20
-4.31134138367784
30
0
0
SPLINE
5
FB
100
AcDbEntity
8
1
62
256
6
ByLayer
370
18
48
1
60
0
100
AcDbSpline
70
4
71
3
72
28
73
24
40
0
40
0
40
0
40
0
40
0.0667592461438865
40
0.128246392981339
40
0.182735198470238
40
0.222944075318755
40
0.255948465103675
40
0.295871498928422
40
0.344300321607282
40
0.396481875960102
40
0.457262450287428
40
0.512683962078416
40
0.552266166086912
40
0.598142822070747
40
0.656257771193751
40
0.71573638229667
40
0.768132313488533
40
0.81195803621113
40
0.846274772041743
40
0.880745982825599
40
0.930201608464381
40
0.984774593590991
40
1
40
1
40
1
40
1
41
1
10
72.7434620015295
20
-4.38922504591832
30
0
41
1
10
72.9963686893265
20
-4.38927234323825
30
0
41
1
10
73.4818810083138
20
-4.38961018015365
30
0
41
1
10
74.1817246488823
20
-4.39201411060054
30
0
41
1
10
74.7647643415585
20
-4.39258173374529
30
0
41
1
10
75.2542381138131
20
-4.39287110921592
30
0
41
1
10
75.6807258505416
20
-4.39442052173982
30
0
41
1
10
76.1436603921233
20
-4.39466082526189
30
0
41
1
10
76.6788501073512
20
-4.39698229399863
30
0
41
1
10
77.2937732059796
20
-4.39758837690567
30
0
41
1
10
77.9352583176236
20
-4.39792989108619
30
0
41
1
10
78.5287405099419
20
-4.39853486800416
30
0
41
1
10
79.0654608775554
20
-4.39955676182933
30
0
41
1
10
79.6124388614244
20
-4.40177294533504
30
0
41
1
10
80.2352219822106
20
-4.4025172718033
30
0
41
1
10
80.8828350862481
20
-4.40528394912573
30
0
41
1
10
81.4760150213365
20
-4.40484510128266
30
0
41
1
10
81.9733366441066
20
-4.40476982086284
30
0
41
1
10
82.4023365594136
20
-4.40500046869096
30
0
41
1
10
82.8527908144226
20
-4.4056427205675
30
0
41
1
10
83.3804178066017
20
-4.40827876770337
30
0
41
1
10
83.8348382869136
20
-4.41066991696297
30
0
41
1
10
84.1006388406897
20
-4.41073520536759
30
0
41
1
10
84.1586154265356
20
-4.41071481345054
30
0
0
SPLINE
5
FC
100
AcDbEntity
8
1
62
256
6
ByLayer
370
18
48
1
60
0
100
AcDbSpline
70
4
71
3
72
24
73
20
40
0
40
0
40
0
40
0
40
0.0361919978621067
40
0.109729132717241
40
0.161332533981107
40
0.201365430618263
40
0.253378178358826
40
0.317675825032985
40
0.391870048139117
40
0.474113475215308
40
0.533326538486512
40
0.605941728159169
40
0.694038007669725
40
0.766941547467033
40
0.825129529107753
40
0.862467826199996
40
0.896489142548806
40
0.942854822724409
40
1
40
1
40
1
40
1
41
1
10
84.1559334582577
20
4.41062316013247
30
0
41
1
10
84.0350997818886
20
4.41068179313632
30
0
41
1
10
83.6687311850748
20
4.41055940211439
30
0
41
1
10
83.1299165827817
20
4.40641470820148
30
0
41
1
10
82.5783076930575
20
4.40518549591215
30
0
41
1
10
82.0986356154818
20
4.40478796816981
30
0
41
1
10
81.5765102383327
20
4.4047697075396
30
0
41
1
10
80.9403050158477
20
4.40543291564927
30
0
41
1
10
80.2031451219229
20
4.40245861283185
30
0
41
1
10
79.4829631843983
20
4.40127284416855
30
0
41
1
10
78.7680468023965
20
4.39872306396765
30
0
41
1
10
78.0336276892273
20
4.39795786434044
30
0
41
1
10
77.2533874477459
20
4.39784441693195
30
0
41
1
10
76.5215729310949
20
4.3960818863705
30
0
41
1
10
75.9586367667407
20
4.39451815688128
30
0
41
1
10
75.5272292501321
20
4.39404997589571
30
0
41
1
10
75.1364439741152
20
4.39254654670591
30
0
41
1
10
74.6761450334217
20
4.39272652650718
30
0
41
1
10
74.3369697760727
20
4.39207132249513
30
0
41
1
10
74.1477448729065
20
4.39161531005476
30
0
0
SPLINE
5
FD
100
AcDbEntity
8
1
62
256
6
ByLayer
370
18
48
1
60
0
100
AcDbSpline
70
4
71
3
72
27
73
23
40
0
40
0
40
0
40
0
40
0.0751094032536184
40
0.1466209782463
40
0.203682860083551
40
0.242627550202975
40
0.281840204667687
40
0.329228203895023
40
0.378062079969055
40
0.439274732313979
40
0.504694245802247
40
0.549683862128568
40
0.586619860566399
40
0.624188069753202
40
0.664627813529865
40
0.706194622885757
40
0.764757239397764
40
0.832307298695498
40
0.890523265285215
40
0.940376904015662
40
0.980355969314962
40
1
40
1
40
1
40
1
41
1
10
45.613911189835
20
-4.33996096535509
30
0
41
1
10
45.8979485999322
20
-4.33998682882066
30
0
41
1
10
46.4525304011281
20
-4.34043437914951
30
0
41
1
10
47.2265791385758
20
-4.34328595163072
30
0
41
1
10
47.8584895873561
20
-4.3447027116195
30
0
41
1
10
48.3724038763274
20
-4.34509394170561
30
0
41
1
10
48.8485332056867
20
-4.34546999216116
30
0
41
1
10
49.3626922501
20
-4.34576466493661
30
0
41
1
10
49.9602086047014
20
-4.34784609628545
30
0
41
1
10
50.6260805043127
20
-4.34980321629402
30
0
41
1
10
51.2774607643113
20
-4.3502027774021
30
0
41
1
10
51.8364144390649
20
-4.35101672521498
30
0
41
1
10
52.2895754978087
20
-4.35128536343311
30
0
41
1
10
52.7258579486407
20
-4.35261924213316
30
0
41
1
10
53.1796416454302
20
-4.35387172551387
30
0
41
1
10
53.7131878037184
20
-4.35404637500071
30
0
41
1
10
54.3495974771469
20
-4.3558741202076
30
0
41
1
10
55.0492082986007
20
-4.35626525978293
30
0
41
1
10
55.7157785876685
20
-4.35909670588259
30
0
41
1
10
56.2776585264675
20
-4.35940411290127
30
0
41
1
10
56.6931562721126
20
-4.35964404797443
30
0
41
1
10
56.9194551315248
20
-4.35992614561323
30
0
41
1
10
56.9940146809125
20
-4.36002912662363
30
0
0
SPLINE
5
FE
100
AcDbEntity
8
1
62
256
6
ByLayer
370
18
48
1
60
0
100
AcDbSpline
70
4
71
3
72
11
73
7
40
0
40
0
40
0
40
0
40
0.218943921593315
40
0.470538677049746
40
0.755016391242187
40
1
40
1
40
1
40
1
41
1
10
16.6876119357731
20
-0.0344676875475329
30
0
41
1
10
16.5714242244171
20
-0.0064875008006027
30
0
41
1
10
16.3230072223815
20
0.0601502576139694
30
0
41
1
10
15.9295256718356
20
0.190267806858941
30
0
41
1
10
15.5261750004147
20
0.349632747818333
30
0
41
1
10
15.2551660852231
20
0.478139705213181
30
0
41
1
10
15.1302909382127
20
0.541692499870493
30
0
0
SPLINE
5
FF
100
AcDbEntity
8
1
62
256
6
ByLayer
370
18
48
1
60
0
100
AcDbSpline
70
4
71
2
72
6
73
3
40
0
40
0
40
0
40
1
40
1
40
1
41
1
10
30.0748669150598
20
0.0338184533946162
30
0
41
1
10
30.8932647057097
20
-0.160333574128202
30
0
41
1
10
31.7013716543913
20
-0.579957154638805
30
0
0
SPLINE
5
100
100
AcDbEntity
8
1
62
256
6
ByLayer
370
18
48
1
60
0
100
AcDbSpline
70
4
71
2
72
6
73
3
40
0
40
0
40
0
40
1
40
1
40
1
41
1
10
97.5771959005632
20
0.183646530312643
30
0
41
1
10
97.542610705565
20
0.194632039379257
30
0
41
1
10
97.5080358161048
20
0.206173395354483
30
0
0
SPLINE
5
101
100
AcDbEntity
8
1
62
256
6
ByLayer
370
18
48
1
60
0
100
AcDbSpline
70
4
71
2
72
6
73
3
40
0
40
0
40
0
40
1
40
1
40
1
41
1
10
97.1666627603087
20
0.333776855044675
30
0
41
1
10
96.915892588085
20
0.437555842118798
30
0
41
1
10
96.665666142738
20
0.570661673145651
30
0
0
LINE
5
7B
100
AcDbEntity
8
SK1
62
256
6
ByLayer
370
18
48
1
60
0
100
AcDbLine
10
-38.556624
20
5
30
0
11
-38.556624
21
-5
31
0
39
0
210
0
220
0
230
1
0
LINE
5
7D
100
AcDbEntity
8
SK1
62
256
6
ByLayer
370
18
48
1
60
0
100
AcDbLine
10
-40
20
2.5
30
0
11
-40
21
-2.5
31
0
39
0
210
0
220
0
230
1
0
LINE
5
7E
100
AcDbEntity
8
SK1
62
256
6
ByLayer
370
18
48
1
60
0
100
AcDbLine
10
0
20
-5
30
0
11
0
21
5
31
0
39
0
210
0
220
0
230
1
0
LINE
5
7F
100
AcDbEntity
8
1
62
256
6
ByLayer
370
13
48
1
60
0
100
AcDbLine
10
1.316601
20
4.377307
30
0
11
1.316601
21
-4.377307
31
0
39
0
210
0
220
0
230
1
0
LINE
5
80
100
AcDbEntity
8
1
62
256
6
ByLayer
370
18
48
1
60
0
100
AcDbLine
10
96.789068
20
-2.27101
30
0
11
98.303958
21
-1.054815
31
0
39
0
210
0
220
0
230
1
0
LINE
5
81
100
AcDbEntity
8
1
62
256
6
ByLayer
370
18
48
1
60
0
100
AcDbLine
10
0
20
-5
30
0
11
0
21
5
31
0
39
0
210
0
220
0
230
1
0
LINE
5
82
100
AcDbEntity
8
1
62
256
6
ByLayer
370
13
48
1
60
0
100
AcDbLine
10
0.657536
20
4.688653
30
0
11
0.657536
21
-4.688653
31
0
39
0
210
0
220
0
230
1
0
LINE
5
83
100
AcDbEntity
8
80
62
256
6
ByLayer
370
18
48
1
60
0
100
AcDbLine
10
0
20
0
30
0
11
-5
21
0
31
0
39
0
210
0
220
0
230
1
0
LINE
5
84
100
AcDbEntity
8
4
62
256
6
ByLayer
370
18
48
0.05
60
0
100
AcDbLine
10
99
20
0
30
0
11
0
21
0
31
0
39
0
210
0
220
0
230
1
0
LINE
5
86
100
AcDbEntity
8
SK4
62
256
6
ByLayer
370
18
48
0.05
60
0
100
AcDbLine
10
104
20
0
30
0
11
-45
21
0
31
0
39
0
210
0
220
0
230
1
0
LINE
5
88
100
AcDbEntity
8
SK1
62
256
6
ByLayer
370
18
48
1
60
0
100
AcDbLine
10
-40
20
-2.5
30
0
11
-38.556624
21
-5
31
0
39
0
210
0
220
0
230
1
0
LINE
5
89
100
AcDbEntity
8
SK1
62
256
6
ByLayer
370
18
48
1
60
0
100
AcDbLine
10
-38.556624
20
5
30
0
11
-40
21
2.5
31
0
39
0
210
0
220
0
230
1
0
LINE
5
8A
100
AcDbEntity
8
SK1
62
256
6
ByLayer
370
18
48
1
60
0
100
AcDbLine
10
-38.556624
20
-5
30
0
11
0
21
-5
31
0
39
0
210
0
220
0
230
1
0
LINE
5
8B
100
AcDbEntity
8
SK1
62
256
6
ByLayer
370
18
48
1
60
0
100
AcDbLine
10
0
20
5
30
0
11
-38.556624
21
5
31
0
39
0
210
0
220
0
230
1
0
LINE
5
8C
100
AcDbEntity
8
1
62
256
6
ByLayer
370
18
48
1
60
0
100
AcDbLine
10
1.316601
20
-4.377307
30
0
11
5.834886
21
-4.38544
31
0
39
0
210
0
220
0
230
1
0
LINE
5
8D
100
AcDbEntity
8
1
62
256
6
ByLayer
370
18
48
1
60
0
100
AcDbLine
10
16.970899
20
-4.405485
30
0
11
17.914626
21
-4.407184
31
0
39
0
210
0
220
0
230
1
0
LINE
5
8E
100
AcDbEntity
8
1
62
256
6
ByLayer
370
18
48
1
60
0
100
AcDbLine
10
44.183871
20
-4.454468
30
0
11
45.112998
21
-4.456141
31
0
39
0
210
0
220
0
230
1
0
LINE
5
8F
100
AcDbEntity
8
1
62
256
6
ByLayer
370
18
48
1
60
0
100
AcDbLine
10
71.396554
20
-4.503451
30
0
11
72.312297
21
-4.5051
31
0
39
0
210
0
220
0
230
1
0
LINE
5
90
100
AcDbEntity
8
1
62
256
6
ByLayer
370
18
48
1
60
0
100
AcDbLine
10
72.312297
20
4.5051
30
0
11
71.396554
21
4.503451
31
0
39
0
210
0
220
0
230
1
0
LINE
5
91
100
AcDbEntity
8
1
62
256
6
ByLayer
370
18
48
1
60
0
100
AcDbLine
10
45.112998
20
4.456141
30
0
11
44.183871
21
4.454468
31
0
39
0
210
0
220
0
230
1
0
LINE
5
92
100
AcDbEntity
8
1
62
256
6
ByLayer
370
18
48
1
60
0
100
AcDbLine
10
17.914626
20
4.407184
30
0
11
16.970899
21
4.405485
31
0
39
0
210
0
220
0
230
1
0
LINE
5
93
100
AcDbEntity
8
1
62
256
6
ByLayer
370
18
48
1
60
0
100
AcDbLine
10
5.834886
20
4.38544
30
0
11
1.316601
21
4.377307
31
0
39
0
210
0
220
0
230
1
0
LINE
5
94
100
AcDbEntity
8
81
62
256
6
ByLayer
370
18
48
1
60
0
100
AcDbLine
10
99
20
0
30
0
11
104
21
0
31
0
39
0
210
0
220
0
230
1
0
LINE
5
95
100
AcDbEntity
8
SK2
62
256
6
ByLayer
370
13
48
1
60
0
100
AcDbLine
10
-48.625163
20
-5
30
0
11
-48.625163
21
35.857173
31
0
39
0
210
0
220
0
230
1
0
LINE
5
97
100
AcDbEntity
8
SK2
62
256
6
ByLayer
370
13
48
1
60
0
100
AcDbLine
10
-41.5875
20
5
30
0
11
-50.625163
21
5
31
0
39
0
210
0
220
0
230
1
0
LINE
5
98
100
AcDbEntity
8
SK2
62
256
6
ByLayer
370
13
48
1
60
0
100
AcDbLine
10
-41.5875
20
-5
30
0
11
-50.625163
21
-5
31
0
39
0
210
0
220
0
230
1
0
LINE
5
99
100
AcDbEntity
8
1
62
256
6
ByLayer
370
18
48
1
60
1
100
AcDbLine
10
-48.625163
20
5
30
0
11
-48.164379
21
1.500002
31
0
39
0
210
0
220
0
230
1
0
LINE
5
9A
100
AcDbEntity
8
1
62
256
6
ByLayer
370
18
48
1
60
1
100
AcDbLine
10
-48.164379
20
1.500002
30
0
11
-49.085946
21
1.499998
31
0
39
0
210
0
220
0
230
1
0
LINE
5
9B
100
AcDbEntity
8
1
62
256
6
ByLayer
370
18
48
1
60
1
100
AcDbLine
10
-49.085946
20
1.499998
30
0
11
-48.625163
21
5
31
0
39
0
210
0
220
0
230
1
0
LINE
5
9C
100
AcDbEntity
8
1
62
256
6
ByLayer
370
18
48
1
60
1
100
AcDbLine
10
-48.625163
20
-5
30
0
11
-49.085946
21
-1.500002
31
0
39
0
210
0
220
0
230
1
0
LINE
5
9D
100
AcDbEntity
8
1
62
256
6
ByLayer
370
18
48
1
60
1
100
AcDbLine
10
-49.085946
20
-1.500002
30
0
11
-48.164379
21
-1.499998
31
0
39
0
210
0
220
0
230
1
0
LINE
5
9E
100
AcDbEntity
8
1
62
256
6
ByLayer
370
18
48
1
60
1
100
AcDbLine
10
-48.164379
20
-1.499998
30
0
11
-48.625163
21
-5
31
0
39
0
210
0
220
0
230
1
0
LINE
5
9F
100
AcDbEntity
8
2
62
256
6
ByLayer
370
13
48
1
60
0
100
AcDbLine
10
111.083343
20
-4.55
30
0
11
111.083343
21
31.385327
31
0
39
0
210
0
220
0
230
1
0
LINE
5
A1
100
AcDbEntity
8
2
62
256
6
ByLayer
370
13
48
1
60
0
100
AcDbLine
10
98.8445
20
4.55
30
0
11
113.083343
21
4.55
31
0
39
0
210
0
220
0
230
1
0
LINE
5
A2
100
AcDbEntity
8
2
62
256
6
ByLayer
370
13
48
1
60
0
100
AcDbLine
10
98.8445
20
-4.55
30
0
11
113.083343
21
-4.55
31
0
39
0
210
0
220
0
230
1
0
LINE
5
A3
100
AcDbEntity
8
1
62
256
6
ByLayer
370
18
48
1
60
1
100
AcDbLine
10
111.083343
20
4.55
30
0
11
111.544126
21
1.050002
31
0
39
0
210
0
220
0
230
1
0
LINE
5
A4
100
AcDbEntity
8
1
62
256
6
ByLayer
370
18
48
1
60
1
100
AcDbLine
10
111.544126
20
1.050002
30
0
11
110.622559
21
1.049998
31
0
39
0
210
0
220
0
230
1
0
LINE
5
A5
100
AcDbEntity
8
1
62
256
6
ByLayer
370
18
48
1
60
1
100
AcDbLine
10
110.622559
20
1.049998
30
0
11
111.083343
21
4.55
31
0
39
0
210
0
220
0
230
1
0
LINE
5
A6
100
AcDbEntity
8
1
62
256
6
ByLayer
370
18
48
1
60
1
100
AcDbLine
10
111.083343
20
-4.55
30
0
11
110.622559
21
-1.050002
31
0
39
0
210
0
220
0
230
1
0
LINE
5
A7
100
AcDbEntity
8
1
62
256
6
ByLayer
370
18
48
1
60
1
100
AcDbLine
10
110.622559
20
-1.050002
30
0
11
111.544126
21
-1.049998
31
0
39
0
210
0
220
0
230
1
0
LINE
5
A8
100
AcDbEntity
8
1
62
256
6
ByLayer
370
18
48
1
60
1
100
AcDbLine
10
111.544126
20
-1.049998
30
0
11
111.083343
21
-4.55
31
0
39
0
210
0
220
0
230
1
0
LINE
5
108
100
AcDbEntity
8
1
62
256
6
ByLayer
370
18
48
1
60
1
100
AcDbLine
10
-48.625163
20
5
30
0
11
-48.164379
21
1.500002
31
0
39
0
210
0
220
0
230
1
0
LINE
5
109
100
AcDbEntity
8
1
62
256
6
ByLayer
370
18
48
1
60
1
100
AcDbLine
10
-48.164379
20
1.500002
30
0
11
-49.085946
21
1.499998
31
0
39
0
210
0
220
0
230
1
0
LINE
5
10A
100
AcDbEntity
8
1
62
256
6
ByLayer
370
18
48
1
60
1
100
AcDbLine
10
-49.085946
20
1.499998
30
0
11
-48.625163
21
5
31
0
39
0
210
0
220
0
230
1
0
LINE
5
10C
100
AcDbEntity
8
1
62
256
6
ByLayer
370
18
48
1
60
1
100
AcDbLine
10
-48.625163
20
-5
30
0
11
-49.085946
21
-1.500002
31
0
39
0
210
0
220
0
230
1
0
LINE
5
10D
100
AcDbEntity
8
1
62
256
6
ByLayer
370
18
48
1
60
1
100
AcDbLine
10
-49.085946
20
-1.500002
30
0
11
-48.164379
21
-1.499998
31
0
39
0
210
0
220
0
230
1
0
LINE
5
10E
100
AcDbEntity
8
1
62
256
6
ByLayer
370
18
48
1
60
1
100
AcDbLine
10
-48.164379
20
-1.499998
30
0
11
-48.625163
21
-5
31
0
39
0
210
0
220
0
230
1
0
LINE
5
112
100
AcDbEntity
8
1
62
256
6
ByLayer
370
18
48
1
60
1
100
AcDbLine
10
111.083343
20
4.55
30
0
11
111.544126
21
1.050002
31
0
39
0
210
0
220
0
230
1
0
LINE
5
113
100
AcDbEntity
8
1
62
256
6
ByLayer
370
18
48
1
60
1
100
AcDbLine
10
111.544126
20
1.050002
30
0
11
110.622559
21
1.049998
31
0
39
0
210
0
220
0
230
1
0
LINE
5
114
100
AcDbEntity
8
1
62
256
6
ByLayer
370
18
48
1
60
1
100
AcDbLine
10
110.622559
20
1.049998
30
0
11
111.083343
21
4.55
31
0
39
0
210
0
220
0
230
1
0
LINE
5
116
100
AcDbEntity
8
1
62
256
6
ByLayer
370
18
48
1
60
1
100
AcDbLine
10
111.083343
20
-4.55
30
0
11
110.622559
21
-1.050002
31
0
39
0
210
0
220
0
230
1
0
LINE
5
117
100
AcDbEntity
8
1
62
256
6
ByLayer
370
18
48
1
60
1
100
AcDbLine
10
110.622559
20
-1.050002
30
0
11
111.544126
21
-1.049998
31
0
39
0
210
0
220
0
230
1
0
LINE
5
118
100
AcDbEntity
8
1
62
256
6
ByLayer
370
18
48
1
60
1
100
AcDbLine
10
111.544126
20
-1.049998
30
0
11
111.083343
21
-4.55
31
0
39
0
210
0
220
0
230
1
0
MTEXT
5
102
100
AcDbEntity
8
SK6
62
256
6
ByLayer
370
13
48
1
60
0
100
AcDbMText
10
1.828407
20
37.090328
30
0
210
0
220
0
230
1
1
\W0.7280;860.1-0910-080A1-PM P1BM
40
3.5
41
0
44
1.084337
50
0
71
7
72
5
7
iso_b_vert
0
MTEXT
5
106
100
AcDbEntity
8
SK2
62
256
6
ByLayer
370
18
48
1
60
0
100
AcDbMText
10
-50.189796
20
18.409024
30
0
210
0
220
0
230
1
1
%%c
40
3.5
41
0
44
1.084337
50
90
71
7
72
5
7
iso_b_vert
0
MTEXT
5
107
100
AcDbEntity
8
SK2
62
256
6
ByLayer
370
18
48
1
60
0
100
AcDbMText
10
-50.189796
20
23.63168
30
0
210
0
220
0
230
1
1
\W0.6930;10,000
40
3.5
41
0
44
1.084337
50
90
71
7
72
5
7
iso_b_vert
0
MTEXT
5
110
100
AcDbEntity
8
2
62
256
6
ByLayer
370
18
48
1
60
0
100
AcDbMText
10
109.518709
20
16.55211
30
0
210
0
220
0
230
1
1
%%c
40
3.5
41
0
44
1.084337
50
90
71
7
72
5
7
iso_b_vert
0
MTEXT
5
111
100
AcDbEntity
8
2
62
256
6
ByLayer
370
18
48
1
60
0
100
AcDbMText
10
109.518709
20
21.774766
30
0
210
0
220
0
230
1
1
\W0.6713;9,100
40
3.5
41
0
44
1.084337
50
90
71
7
72
5
7
iso_b_vert
0
HATCH
5
10B
100
AcDbEntity
8
SK2
62
256
6
ByLayer
370
13
48
1
60
0
100
AcDbHatch
10
0
20
0
30
0
210
0
220
0
230
1
2
ANSI31
70
0
71
0
91
1
92
5
93
3
72
1
10
-48.6251625675374
20
5
11
-48.1643788259847
21
1.50000169255318
72
1
10
-48.1643788259847
20
1.50000169255318
11
-49.0859463090902
21
1.49999830744682
72
1
10
-49.0859463090902
20
1.49999830744682
11
-48.6251625675374
21
5
97
0
75
0
76
1
52
0
41
0.0062
77
0
78
1
53
45
43
0
44
0
45
-0.0139193969876572
46
0.0139193969876572
79
0
47
0
98
1
10
0
20
0
0
HATCH
5
10F
100
AcDbEntity
8
SK2
62
256
6
ByLayer
370
13
48
1
60
0
100
AcDbHatch
10
0
20
0
30
0
210
0
220
0
230
1
2
ANSI31
70
0
71
0
91
1
92
5
93
3
72
1
10
-48.6251625675374
20
-5
11
-49.0859463090902
21
-1.50000169255318
72
1
10
-49.0859463090902
20
-1.50000169255318
11
-48.1643788259847
21
-1.49999830744682
72
1
10
-48.1643788259847
20
-1.49999830744682
11
-48.6251625675374
21
-5
97
0
75
0
76
1
52
0
41
0.0062
77
0
78
1
53
45
43
0
44
0
45
-0.0139193969876572
46
0.0139193969876572
79
0
47
0
98
1
10
0
20
0
0
HATCH
5
115
100
AcDbEntity
8
2
62
256
6
ByLayer
370
13
48
1
60
0
100
AcDbHatch
10
0
20
0
30
0
210
0
220
0
230
1
2
ANSI31
70
0
71
0
91
1
92
5
93
3
72
1
10
111.083342615295
20
4.55000000000001
11
111.544126356848
21
1.05000169255319
72
1
10
111.544126356848
20
1.05000169255319
11
110.622558873742
21
1.04999830744683
72
1
10
110.622558873742
20
1.04999830744683
11
111.083342615295
21
4.55000000000001
97
0
75
0
76
1
52
0
41
0.0062
77
0
78
1
53
45
43
0
44
0
45
-0.0139193969876572
46
0.0139193969876572
79
0
47
0
98
1
10
0
20
0
0
HATCH
5
119
100
AcDbEntity
8
2
62
256
6
ByLayer
370
13
48
1
60
0
100
AcDbHatch
10
0
20
0
30
0
210
0
220
0
230
1
2
ANSI31
70
0
71
0
91
1
92
5
93
3
72
1
10
111.083342615295
20
-4.54999999999998
11
110.622558873742
21
-1.05000169255317
72
1
10
110.622558873742
20
-1.05000169255317
11
111.544126356848
21
-1.0499983074468
72
1
10
111.544126356848
20
-1.0499983074468
11
111.083342615295
21
-4.54999999999998
97
0
75
0
76
1
52
0
41
0.0062
77
0
78
1
53
45
43
0
44
0
45
-0.0139193969876572
46
0.0139193969876572
79
0
47
0
98
1
10
0
20
0
0
DIMENSION
5
11B
100
AcDbEntity
8
2
62
256
6
ByLayer
370
13
48
1
60
0
100
AcDbDimension
2
_U0
10
97.257
20
-14.763398
30
0
11
48.6285
21
-14.763398
31
0
70
32
71
1
72
1
41
1
210
0
220
0
230
1
3
Standard
100
AcDbAlignedDimension
13
0
23
0
33
0
14
97.257
24
-4.55
34
0
50
0
100
AcDbRotatedDimension
1001
ACAD
1000
DSTYLE
1002
{
1070
   371
1070
    13
1070
   372
1070
    13
1070
   170
1070
     0
1070
   144
1040
1.0
1070
   277
1070
     2
1070
   278
1070
    44
1070
   146
1040
1.0
1070
   345
1005
16
1070
   347
1005
16
1070
   346
1005
16
1070
   344
1005
0
1070
   343
1005
0
1070
   172
1070
     1
1070
    76
1070
     0
1070
    75
1070
     0
1070
   282
1070
     0
1070
   281
1070
     0
1070
    71
1070
     0
1070
    74
1070
     0
1070
   279
1070
     0
1070
   173
1070
     1
1070
   340
1005
103
1070
   271
1070
     2
1070
   272
1070
     2
1070
    77
1070
     1
1070
    73
1070
     1
1070
   171
1070
     3
1070
   274
1070
     4
1070
   177
1070
    35
1070
   176
1070
    35
1070
   178
1070
    35
1070
    48
1040
-0.1
1070
    41
1040
3.5
1070
   147
1040
1.75
1070
    42
1040
1.5875
1070
    44
1040
2.0
1070
   140
1040
3.5
1002
}
1001
ACAD_DSTYLE_DIM_LINETYPE
1070
   380
1005
16
1001
ACAD_DSTYLE_DIM_EXT1_LINETYPE
1070
   381
1005
16
1001
ACAD_DSTYLE_DIM_EXT2_LINETYPE
1070
   382
1005
16
0
DIMENSION
5
134
100
AcDbEntity
8
SK2
62
256
6
ByLayer
370
13
48
1
60
0
100
AcDbDimension
2
_U1
10
99
20
-33.692985
30
0
11
29.5
21
-33.692985
31
0
70
32
71
1
72
1
41
1
210
0
220
0
230
1
3
Standard
100
AcDbAlignedDimension
13
-40
23
-5
33
0
14
99
24
0
34
0
50
0
100
AcDbRotatedDimension
1001
ACAD
1000
DSTYLE
1002
{
1070
   371
1070
    13
1070
   372
1070
    13
1070
   170
1070
     0
1070
   144
1040
1.0
1070
   277
1070
     2
1070
   278
1070
    44
1070
   146
1040
1.0
1070
   345
1005
16
1070
   347
1005
16
1070
   346
1005
16
1070
   344
1005
0
1070
   343
1005
0
1070
   172
1070
     1
1070
    76
1070
     0
1070
    75
1070
     0
1070
   282
1070
     0
1070
   281
1070
     0
1070
    71
1070
     0
1070
    74
1070
     0
1070
   279
1070
     0
1070
   173
1070
     1
1070
   340
1005
103
1070
   271
1070
     2
1070
   272
1070
     2
1070
    77
1070
     1
1070
    73
1070
     1
1070
   171
1070
     3
1070
   274
1070
     4
1070
   177
1070
    35
1070
   176
1070
    35
1070
   178
1070
    35
1070
    48
1040
-0.1
1070
    41
1040
3.5
1070
   147
1040
1.75
1070
    42
1040
1.5875
1070
    44
1040
2.0
1070
   140
1040
3.5
1002
}
1001
ACAD_DSTYLE_DIM_LINETYPE
1070
   380
1005
16
1001
ACAD_DSTYLE_DIM_EXT1_LINETYPE
1070
   381
1005
16
1001
ACAD_DSTYLE_DIM_EXT2_LINETYPE
1070
   382
1005
16
0
DIMENSION
5
14C
100
AcDbEntity
8
SK2
62
256
6
ByLayer
370
13
48
1
60
0
100
AcDbDimension
2
_U2
10
99
20
16.159119
30
0
11
61.73
21
16.159119
31
0
70
32
71
1
72
1
41
1
210
0
220
0
230
1
3
Standard
100
AcDbAlignedDimension
13
24.46
23
4.55
33
0
14
99
24
0
34
0
50
0
100
AcDbRotatedDimension
1001
ACAD
1000
DSTYLE
1002
{
1070
   371
1070
    13
1070
   372
1070
    13
1070
   170
1070
     0
1070
   144
1040
1.0
1070
   277
1070
     2
1070
   278
1070
    44
1070
   146
1040
1.0
1070
   345
1005
16
1070
   347
1005
16
1070
   346
1005
16
1070
   344
1005
0
1070
   343
1005
0
1070
   172
1070
     1
1070
    76
1070
     0
1070
    75
1070
     0
1070
   282
1070
     0
1070
   281
1070
     0
1070
    71
1070
     0
1070
    74
1070
     0
1070
   279
1070
     0
1070
   173
1070
     1
1070
   340
1005
103
1070
   271
1070
     2
1070
   272
1070
     2
1070
    77
1070
     1
1070
    73
1070
     1
1070
   171
1070
     3
1070
   274
1070
     4
1070
   177
1070
    35
1070
   176
1070
    35
1070
   178
1070
    35
1070
    48
1040
-0.1
1070
    41
1040
3.5
1070
   147
1040
1.75
1070
    42
1040
1.5875
1070
    44
1040
2.0
1070
   140
1040
3.5
1002
}
1001
ACAD_DSTYLE_DIM_LINETYPE
1070
   380
1005
16
1001
ACAD_DSTYLE_DIM_EXT1_LINETYPE
1070
   381
1005
16
1001
ACAD_DSTYLE_DIM_EXT2_LINETYPE
1070
   382
1005
16
0
DIMENSION
5
164
100
AcDbEntity
8
SK2
62
256
6
ByLayer
370
13
48
1
60
0
100
AcDbDimension
2
_U3
10
97.257
20
-17.352503
30
0
11
116.416667
21
-17.352503
31
0
70
32
71
1
72
1
41
1
210
0
220
0
230
1
3
Standard
100
AcDbAlignedDimension
13
99
23
0
33
0
14
97.257
24
-4.55
34
0
50
0
100
AcDbRotatedDimension
1001
ACAD
1000
DSTYLE
1002
{
1070
   371
1070
    13
1070
   372
1070
    13
1070
   170
1070
     0
1070
   144
1040
1.0
1070
   277
1070
     2
1070
   278
1070
    44
1070
   146
1040
1.0
1070
   345
1005
16
1070
   347
1005
16
1070
   346
1005
16
1070
   344
1005
0
1070
   343
1005
0
1070
   172
1070
     1
1070
    76
1070
     0
1070
    75
1070
     0
1070
   282
1070
     0
1070
   281
1070
     0
1070
    71
1070
     0
1070
    74
1070
     0
1070
   279
1070
     0
1070
   173
1070
     1
1070
   340
1005
103
1070
   271
1070
     2
1070
   272
1070
     2
1070
    77
1070
     1
1070
    73
1070
     1
1070
   171
1070
     3
1070
   274
1070
     4
1070
   177
1070
    35
1070
   176
1070
    35
1070
   178
1070
    35
1070
    48
1040
-0.1
1070
    41
1040
3.5
1070
   147
1040
1.75
1070
    42
1040
1.5875
1070
    44
1040
2.0
1070
   140
1040
3.5
1002
}
1001
ACAD_DSTYLE_DIM_LINETYPE
1070
   380
1005
16
1001
ACAD_DSTYLE_DIM_EXT1_LINETYPE
1070
   381
1005
16
1001
ACAD_DSTYLE_DIM_EXT2_LINETYPE
1070
   382
1005
16
0
DIMENSION
5
17E
100
AcDbEntity
8
SK2
62
256
6
ByLayer
370
13
48
1
60
0
100
AcDbDimension
2
_U4
10
97.257
20
-23.343428
30
0
11
28.6285
21
-23.343428
31
0
70
32
71
1
72
1
41
1
210
0
220
0
230
1
3
Standard
100
AcDbAlignedDimension
13
-40
23
-5
33
0
14
97.257
24
-4.55
34
0
50
0
100
AcDbRotatedDimension
1001
ACAD
1000
DSTYLE
1002
{
1070
   371
1070
    13
1070
   372
1070
    13
1070
   170
1070
     0
1070
   144
1040
1.0
1070
   277
1070
     2
1070
   278
1070
    44
1070
   146
1040
1.0
1070
   345
1005
16
1070
   347
1005
16
1070
   346
1005
16
1070
   344
1005
0
1070
   343
1005
0
1070
   172
1070
     1
1070
    76
1070
     0
1070
    75
1070
     0
1070
   282
1070
     0
1070
   281
1070
     0
1070
    71
1070
     0
1070
    74
1070
     0
1070
   279
1070
     0
1070
   173
1070
     1
1070
   340
1005
103
1070
   271
1070
     2
1070
   272
1070
     2
1070
    77
1070
     1
1070
    73
1070
     1
1070
   171
1070
     3
1070
   274
1070
     4
1070
   177
1070
    35
1070
   176
1070
    35
1070
   178
1070
    35
1070
    48
1040
-0.1
1070
    41
1040
3.5
1070
   147
1040
1.75
1070
    42
1040
1.5875
1070
    44
1040
2.0
1070
   140
1040
3.5
1002
}
1001
ACAD_DSTYLE_DIM_LINETYPE
1070
   380
1005
16
1001
ACAD_DSTYLE_DIM_EXT1_LINETYPE
1070
   381
1005
16
1001
ACAD_DSTYLE_DIM_EXT2_LINETYPE
1070
   382
1005
16
0
ENDSEC
0
SECTION
2
OBJECTS
0
DICTIONARY
5
206
330
0
100
AcDbDictionary
280
0
281
1
3
ACAD_GROUP
350
207
3
ACAD_MLINESTYLE
350
208
0
DICTIONARY
5
207
330
0
100
AcDbDictionary
280
0
281
1
0
DICTIONARY
5
208
330
0
100
AcDbDictionary
280
0
281
1
3
Standard
350
18
0
MLINESTYLE
5
18
330
208
100
AcDbMlineStyle
2
Standard
70
0
3

62
256
51
90
52
90
71
2
49
-0.5
62
256
6
ByLayer
49
0.5
62
256
6
ByLayer
0
RASTERVARIABLES
5
1f4
330

100
AcDbRasterVariables
90
0
70
1
71
1
72
1
0
ENDSEC
0
EOF
