0
SECTION
2
HEADER
9
$ACADVER
1
AC1015
9
$DWGCODEPAGE
3
ANSI_1252
9
$HANDSEED
5
1fb
9
$ANGBASE
50
0
9
$ANGDIR
70
0
9
$ATTMODE
70
1
9
$AUNITS
70
0
9
$AUPREC
70
0
9
$CECOLOR
62
256
9
$CELTSCALE
40
1
9
$CELTYPE
6
ByLayer
9
$CELWEIGHT
370
18
9
$CLAYER
8
0
9
$CMLJUST
70
0
9
$CMLSCALE
40
1
9
$CMLSTYLE
2
Standard
9
$DIMSTYLE
2
Standard
9
$TEXTSIZE
40
0.2
9
$TEXTSTYLE
7
Standard
9
$LUNITS
70
2
9
$LUPREC
70
4
9
$EXTNAMES
290
1
9
$INSUNITS
70
4
9
$LTSCALE
40
1
9
$LWDISPLAY
290
1
9
$PDMODE
70
0
9
$PDSIZE
40
0
9
$PLINEGEN
70
0
0
ENDSEC
0
SECTION
2
CLASSES
0
CLASS
1
RASTERVARIABLES
2
AcDbRasterVariables
3
ISM
90
0
280
0
281
0
0
ENDSEC
0
SECTION
2
TABLES
0
TABLE
2
VPORT
5
1f1
100
AcDbSymbolTable
0
VPORT
5
1
100
AcDbSymbolTableRecord
100
AcDbViewportTableRecord
2
*Active
70
0
10
0
20
0
11
1
21
1
12
-1
22
1
13
0
23
0
14
0.5
24
0.5
15
10
25
10
16
0
26
0
36
1
17
0
27
0
37
0
0
ENDTAB
0
TABLE
2
LTYPE
5
1f2
100
AcDbSymbolTable
0
LTYPE
5
14
100
AcDbSymbolTableRecord
100
AcDbLinetypeTableRecord
70
0
2
ByBlock
3

72
65
73
0
40
0
0
LTYPE
5
15
100
AcDbSymbolTableRecord
100
AcDbLinetypeTableRecord
70
0
2
ByLayer
3

72
65
73
0
40
0
0
LTYPE
5
16
100
AcDbSymbolTableRecord
100
AcDbLinetypeTableRecord
70
0
2
Continuous
3
Solid line
72
65
73
0
40
0
0
LTYPE
5
6E
100
AcDbSymbolTableRecord
100
AcDbLinetypeTableRecord
70
0
2
CENTER
3
____ _ ____ _ ____ _ ____
72
65
73
4
40
47.5
49
22
74
0
49
-8.5
74
0
49
8.5
74
0
49
-8.5
74
0
0
LTYPE
5
6F
100
AcDbSymbolTableRecord
100
AcDbLinetypeTableRecord
70
0
2
DASHED
3
__ __ __ __ __ __ __ __ __
72
65
73
2
40
25.72
49
12.86
74
0
49
-12.86
74
0
0
ENDTAB
0
TABLE
2
LAYER
5
1f3
100
AcDbSymbolTable
0
LAYER
5
10
100
AcDbSymbolTableRecord
100
AcDbLayerTableRecord
2
0
70
0
62
7
6
Continuous
290
1
370
-3
390
0
0
LAYER
5
71
100
AcDbSymbolTableRecord
100
AcDbLayerTableRecord
2
80
70
0
62
-6
6
Continuous
290
1
370
-3
390
0
0
LAYER
5
73
100
AcDbSymbolTableRecord
100
AcDbLayerTableRecord
2
81
70
0
62
-3
6
Continuous
290
1
370
-3
390
0
0
LAYER
5
75
100
AcDbSymbolTableRecord
100
AcDbLayerTableRecord
2
1
70
0
62
4
6
Continuous
290
1
370
-3
390
0
0
LAYER
5
86
100
AcDbSymbolTableRecord
100
AcDbLayerTableRecord
2
4
70
0
62
-2
6
CENTER
290
1
370
-3
390
0
0
LAYER
5
9D
100
AcDbSymbolTableRecord
100
AcDbLayerTableRecord
2
2
70
0
62
7
6
Continuous
290
1
370
-3
390
0
0
LAYER
5
106
100
AcDbSymbolTableRecord
100
AcDbLayerTableRecord
2
Defpoints
70
0
62
7
6
Continuous
290
0
370
-3
390
0
0
LAYER
5
1dd
100
AcDbSymbolTableRecord
100
AcDbLayerTableRecord
2
SK1
70
0
62
4
6
Continuous
290
1
370
-3
390
0
0
LAYER
5
1de
100
AcDbSymbolTableRecord
100
AcDbLayerTableRecord
2
SK4
70
0
62
2
6
CENTER
290
1
370
-3
390
0
0
LAYER
5
1df
100
AcDbSymbolTableRecord
100
AcDbLayerTableRecord
2
SK2
70
0
62
7
6
Continuous
290
1
370
-3
390
0
0
LAYER
5
1e0
100
AcDbSymbolTableRecord
100
AcDbLayerTableRecord
2
SK6
70
0
62
5
6
Continuous
290
1
370
-3
390
0
0
ENDTAB
0
TABLE
2
STYLE
5
1f4
100
AcDbSymbolTable
0
STYLE
5
11
100
AcDbSymbolTableRecord
100
AcDbTextStyleTableRecord
2
Standard
3
txt
70
0
71
0
40
0
41
1
42
0
50
0
0
STYLE
5
EB
100
AcDbSymbolTableRecord
100
AcDbTextStyleTableRecord
2
iso_b_vert
3
simplex.shx
70
0
71
0
40
0
41
1
42
0
50
0
0
STYLE
5
EC
100
AcDbSymbolTableRecord
100
AcDbTextStyleTableRecord
2
DWGDirectTextStyle
3
simplex
70
0
71
0
40
0
41
1
42
0
50
0
0
ENDTAB
0
TABLE
2
DIMSTYLE
5
1f5
100
AcDbSymbolTable
100
AcDbDimStyleTable
0
DIMSTYLE
105
27
100
AcDbSymbolTableRecord
100
AcDbDimStyleTableRecord
2
Standard
70
0
3
<>
41
0.18
42
0.0625
44
0.18
140
0.18
147
0.09
73
0
74
0
77
1
271
2
275
0
278
52
280
0
340
11
0
ENDTAB
0
TABLE
2
VIEW
5
1f6
100
AcDbSymbolTable
0
ENDTAB
0
TABLE
2
UCS
5
1f7
100
AcDbSymbolTable
0
ENDTAB
0
TABLE
2
APPID
5
1f8
100
AcDbSymbolTable
0
APPID
5
12
100
AcDbSymbolTableRecord
100
AcDbRegAppTableRecord
2
ACAD
70
0
0
APPID
5
102
100
AcDbSymbolTableRecord
100
AcDbRegAppTableRecord
2
ACAD_DSTYLE_DIMBREAK
70
0
0
APPID
5
19C
100
AcDbSymbolTableRecord
100
AcDbRegAppTableRecord
2
ACAD_DSTYLE_DIM_LINETYPE
70
0
0
APPID
5
19D
100
AcDbSymbolTableRecord
100
AcDbRegAppTableRecord
2
ACAD_DSTYLE_DIM_EXT1_LINETYPE
70
0
0
APPID
5
19E
100
AcDbSymbolTableRecord
100
AcDbRegAppTableRecord
2
ACAD_DSTYLE_DIM_EXT2_LINETYPE
70
0
0
APPID
5
1D9
100
AcDbSymbolTableRecord
100
AcDbRegAppTableRecord
2
ACAD_MLEADERVER
70
0
0
ENDTAB
0
TABLE
2
BLOCK_RECORD
5
1f9
100
AcDbSymbolTable
0
BLOCK_RECORD
5
1F
100
AcDbSymbolTableRecord
100
AcDbBlockTableRecord
2
*Model_Space
340
0
70
0
0
BLOCK_RECORD
5
1B
100
AcDbSymbolTableRecord
100
AcDbBlockTableRecord
2
*Paper_Space
340
0
70
0
0
BLOCK_RECORD
5
23
100
AcDbSymbolTableRecord
100
AcDbBlockTableRecord
2
*Paper_Space0
340
0
70
0
0
BLOCK_RECORD
5
107
100
AcDbSymbolTableRecord
100
AcDbBlockTableRecord
2
*D1
340
0
70
0
0
BLOCK_RECORD
5
113
100
AcDbSymbolTableRecord
100
AcDbBlockTableRecord
2
_U0
340
0
70
0
0
BLOCK_RECORD
5
11F
100
AcDbSymbolTableRecord
100
AcDbBlockTableRecord
2
*D3
340
0
70
0
0
BLOCK_RECORD
5
12B
100
AcDbSymbolTableRecord
100
AcDbBlockTableRecord
2
_U1
340
0
70
0
0
BLOCK_RECORD
5
137
100
AcDbSymbolTableRecord
100
AcDbBlockTableRecord
2
*D5
340
0
70
0
0
BLOCK_RECORD
5
143
100
AcDbSymbolTableRecord
100
AcDbBlockTableRecord
2
_U2
340
0
70
0
0
BLOCK_RECORD
5
14F
100
AcDbSymbolTableRecord
100
AcDbBlockTableRecord
2
*D7
340
0
70
0
0
BLOCK_RECORD
5
15D
100
AcDbSymbolTableRecord
100
AcDbBlockTableRecord
2
_U3
340
0
70
0
0
BLOCK_RECORD
5
169
100
AcDbSymbolTableRecord
100
AcDbBlockTableRecord
2
*D9
340
0
70
0
0
BLOCK_RECORD
5
175
100
AcDbSymbolTableRecord
100
AcDbBlockTableRecord
2
_U4
340
0
70
0
0
ENDTAB
0
ENDSEC
0
SECTION
2
BLOCKS
0
BLOCK
5
20
100
AcDbEntity
8
0
100
AcDbBlockBegin
2
*Model_Space
70
0
10
0
20
0
30
0
3
*Model_Space
0
ENDBLK
5
21
100
AcDbEntity
8
0
100
AcDbBlockEnd
0
BLOCK
5
1C
100
AcDbEntity
8
0
100
AcDbBlockBegin
2
*Paper_Space
70
0
10
0
20
0
30
0
3
*Paper_Space
0
ENDBLK
5
1D
100
AcDbEntity
8
0
100
AcDbBlockEnd
0
BLOCK
5
24
100
AcDbEntity
8
0
100
AcDbBlockBegin
2
*Paper_Space0
70
0
10
0
20
0
30
0
3
*Paper_Space0
0
ENDBLK
5
25
100
AcDbEntity
8
0
100
AcDbBlockEnd
0
BLOCK
5
108
100
AcDbEntity
8
0
100
AcDbBlockBegin
2
*D1
70
1
10
0
20
0
30
0
3
*D1
0
LINE
5
10A
100
AcDbEntity
8
0
62
256
6
ByLayer
370
-2
48
1
60
0
100
AcDbLine
10
0
20
-1.5875
30
0
11
0
21
-16.113398
31
0
39
0
210
0
220
0
230
1
0
LINE
5
10B
100
AcDbEntity
8
0
62
256
6
ByLayer
370
-2
48
1
60
0
100
AcDbLine
10
41.5199
20
-5.4875
30
0
11
41.5199
21
-16.113398
31
0
39
0
210
0
220
0
230
1
0
LINE
5
10C
100
AcDbEntity
8
0
62
256
6
ByLayer
370
-2
48
1
60
0
100
AcDbLine
10
3.5
20
-14.113398
30
0
11
38.0199
21
-14.113398
31
0
39
0
210
0
220
0
230
1
0
SOLID
5
10D
100
AcDbEntity
8
0
62
256
6
ByLayer
370
-1
48
1
60
0
100
AcDbTrace
10
3.5
20
-13.530065
30
0
11
3.5
21
-14.696732
31
0
12
0
22
-14.113398
32
0
13
0
23
-14.113398
33
0
39
0
210
0
220
0
230
1
0
SOLID
5
10E
100
AcDbEntity
8
0
62
256
6
ByLayer
370
-1
48
1
60
0
100
AcDbTrace
10
38.0199
20
-14.696732
30
0
11
38.0199
21
-13.530065
31
0
12
41.5199
22
-14.113398
32
0
13
41.5199
23
-14.113398
33
0
39
0
210
0
220
0
230
1
0
MTEXT
5
10F
100
AcDbEntity
8
0
62
256
6
ByLayer
370
18
48
1
60
0
100
AcDbMText
10
20.75995
20
-7.113398
30
0
210
0
220
0
230
1
1
\A1;41.52
40
3.5
41
0
44
1
50
0
71
5
72
5
7
iso_b_vert
0
POINT
5
110
100
AcDbEntity
8
Defpoints
62
0
6
ByLayer
370
-1
48
1
60
0
100
AcDbPoint
10
0
20
0
30
0
39
0
210
0
220
0
230
1
50
360
0
POINT
5
111
100
AcDbEntity
8
Defpoints
62
0
6
ByLayer
370
-1
48
1
60
0
100
AcDbPoint
10
41.5199
20
-3.9
30
0
39
0
210
0
220
0
230
1
50
360
0
POINT
5
112
100
AcDbEntity
8
Defpoints
62
0
6
ByLayer
370
-1
48
1
60
0
100
AcDbPoint
10
41.5199
20
-14.113398
30
0
39
0
210
0
220
0
230
1
50
360
0
ENDBLK
5
109
100
AcDbEntity
8
0
100
AcDbBlockEnd
0
BLOCK
5
11A
100
AcDbEntity
8
0
100
AcDbBlockBegin
2
_U0
70
0
10
0
20
0
30
0
3
_U0
0
MTEXT
5
114
100
AcDbEntity
8
2
62
256
6
ByLayer
370
13
48
1
60
0
100
AcDbMText
10
15.875818
20
-13.080765
30
0
210
0
220
0
230
1
1
\W0.6977;41,52
40
3.5
41
0
44
1.084337
50
0
71
7
72
5
7
iso_b_vert
0
LINE
5
115
100
AcDbEntity
8
2
62
256
6
ByLayer
370
13
48
1
60
0
100
AcDbLine
10
0
20
-1.5875
30
0
11
0
21
-16.113398
31
0
39
0
210
0
220
0
230
1
0
LINE
5
116
100
AcDbEntity
8
2
62
256
6
ByLayer
370
13
48
1
60
0
100
AcDbLine
10
41.5199
20
-5.4875
30
0
11
41.5199
21
-16.113398
31
0
39
0
210
0
220
0
230
1
0
LINE
5
117
100
AcDbEntity
8
2
62
256
6
ByLayer
370
13
48
1
60
0
100
AcDbLine
10
0
20
-14.113398
30
0
11
41.5199
21
-14.113398
31
0
39
0
210
0
220
0
230
1
0
SOLID
5
118
100
AcDbEntity
8
2
62
256
6
ByLayer
370
18
48
1
60
0
100
AcDbTrace
10
0
20
-14.113398
30
0
11
3.499998
21
-13.652615
31
0
12
3.500002
22
-14.574182
32
0
13
3.500002
23
-14.574182
33
0
39
0
210
0
220
0
230
1
0
SOLID
5
119
100
AcDbEntity
8
2
62
256
6
ByLayer
370
18
48
1
60
0
100
AcDbTrace
10
41.5199
20
-14.113398
30
0
11
38.019902
21
-14.574182
31
0
12
38.019898
22
-13.652615
32
0
13
38.019898
23
-13.652615
33
0
39
0
210
0
220
0
230
1
0
ENDBLK
5
11B
100
AcDbEntity
8
0
100
AcDbBlockEnd
0
BLOCK
5
120
100
AcDbEntity
8
0
100
AcDbBlockBegin
2
*D3
70
1
10
0
20
0
30
0
3
*D3
0
LINE
5
122
100
AcDbEntity
8
0
62
256
6
ByLayer
370
-2
48
1
60
0
100
AcDbLine
10
-36
20
-5.5875
30
0
11
-36
21
-34.692985
31
0
39
0
210
0
220
0
230
1
0
LINE
5
123
100
AcDbEntity
8
0
62
256
6
ByLayer
370
-2
48
1
60
0
100
AcDbLine
10
43
20
-1.5875
30
0
11
43
21
-34.692985
31
0
39
0
210
0
220
0
230
1
0
LINE
5
124
100
AcDbEntity
8
0
62
256
6
ByLayer
370
-2
48
1
60
0
100
AcDbLine
10
-32.5
20
-32.692985
30
0
11
39.5
21
-32.692985
31
0
39
0
210
0
220
0
230
1
0
SOLID
5
125
100
AcDbEntity
8
0
62
256
6
ByLayer
370
-1
48
1
60
0
100
AcDbTrace
10
-32.5
20
-32.109652
30
0
11
-32.5
21
-33.276319
31
0
12
-36
22
-32.692985
32
0
13
-36
23
-32.692985
33
0
39
0
210
0
220
0
230
1
0
SOLID
5
126
100
AcDbEntity
8
0
62
256
6
ByLayer
370
-1
48
1
60
0
100
AcDbTrace
10
39.5
20
-33.276319
30
0
11
39.5
21
-32.109652
31
0
12
43
22
-32.692985
32
0
13
43
23
-32.692985
33
0
39
0
210
0
220
0
230
1
0
MTEXT
5
127
100
AcDbEntity
8
0
62
256
6
ByLayer
370
18
48
1
60
0
100
AcDbMText
10
3.5
20
-25.692985
30
0
210
0
220
0
230
1
1
\A1;79.00
40
3.5
41
0
44
1
50
0
71
5
72
5
7
iso_b_vert
0
POINT
5
128
100
AcDbEntity
8
Defpoints
62
0
6
ByLayer
370
-1
48
1
60
0
100
AcDbPoint
10
-36
20
-4
30
0
39
0
210
0
220
0
230
1
50
360
0
POINT
5
129
100
AcDbEntity
8
Defpoints
62
0
6
ByLayer
370
-1
48
1
60
0
100
AcDbPoint
10
43
20
0
30
0
39
0
210
0
220
0
230
1
50
360
0
POINT
5
12A
100
AcDbEntity
8
Defpoints
62
0
6
ByLayer
370
-1
48
1
60
0
100
AcDbPoint
10
43
20
-32.692985
30
0
39
0
210
0
220
0
230
1
50
360
0
ENDBLK
5
121
100
AcDbEntity
8
0
100
AcDbBlockEnd
0
BLOCK
5
132
100
AcDbEntity
8
0
100
AcDbBlockBegin
2
_U1
70
0
10
0
20
0
30
0
3
_U1
0
MTEXT
5
12C
100
AcDbEntity
8
SK2
62
256
6
ByLayer
370
13
48
1
60
0
100
AcDbMText
10
-1.637299
20
-31.660352
30
0
210
0
220
0
230
1
1
\W0.7317;79,00
40
3.5
41
0
44
1.084337
50
0
71
7
72
5
7
iso_b_vert
0
LINE
5
12D
100
AcDbEntity
8
SK2
62
256
6
ByLayer
370
13
48
1
60
0
100
AcDbLine
10
-36
20
-5.5875
30
0
11
-36
21
-34.692985
31
0
39
0
210
0
220
0
230
1
0
LINE
5
12E
100
AcDbEntity
8
SK2
62
256
6
ByLayer
370
13
48
1
60
0
100
AcDbLine
10
43
20
-1.5875
30
0
11
43
21
-34.692985
31
0
39
0
210
0
220
0
230
1
0
LINE
5
12F
100
AcDbEntity
8
SK2
62
256
6
ByLayer
370
13
48
1
60
0
100
AcDbLine
10
-36
20
-32.692985
30
0
11
43
21
-32.692985
31
0
39
0
210
0
220
0
230
1
0
SOLID
5
130
100
AcDbEntity
8
SK2
62
256
6
ByLayer
370
18
48
1
60
0
100
AcDbTrace
10
-36
20
-32.692985
30
0
11
-32.500002
21
-32.232202
31
0
12
-32.499998
22
-33.153769
32
0
13
-32.499998
23
-33.153769
33
0
39
0
210
0
220
0
230
1
0
SOLID
5
131
100
AcDbEntity
8
SK2
62
256
6
ByLayer
370
18
48
1
60
0
100
AcDbTrace
10
43
20
-32.692985
30
0
11
39.500002
21
-33.153769
31
0
12
39.499998
22
-32.232202
32
0
13
39.499998
23
-32.232202
33
0
39
0
210
0
220
0
230
1
0
ENDBLK
5
133
100
AcDbEntity
8
0
100
AcDbBlockEnd
0
BLOCK
5
138
100
AcDbEntity
8
0
100
AcDbBlockBegin
2
*D5
70
1
10
0
20
0
30
0
3
*D5
0
LINE
5
13A
100
AcDbEntity
8
0
62
256
6
ByLayer
370
-2
48
1
60
0
100
AcDbLine
10
18.12
20
5.4875
30
0
11
18.12
21
17.509119
31
0
39
0
210
0
220
0
230
1
0
LINE
5
13B
100
AcDbEntity
8
0
62
256
6
ByLayer
370
-2
48
1
60
0
100
AcDbLine
10
43
20
1.5875
30
0
11
43
21
17.509119
31
0
39
0
210
0
220
0
230
1
0
LINE
5
13C
100
AcDbEntity
8
0
62
256
6
ByLayer
370
-2
48
1
60
0
100
AcDbLine
10
21.62
20
15.509119
30
0
11
39.5
21
15.509119
31
0
39
0
210
0
220
0
230
1
0
SOLID
5
13D
100
AcDbEntity
8
0
62
256
6
ByLayer
370
-1
48
1
60
0
100
AcDbTrace
10
21.62
20
16.092453
30
0
11
21.62
21
14.925786
31
0
12
18.12
22
15.509119
32
0
13
18.12
23
15.509119
33
0
39
0
210
0
220
0
230
1
0
SOLID
5
13E
100
AcDbEntity
8
0
62
256
6
ByLayer
370
-1
48
1
60
0
100
AcDbTrace
10
39.5
20
14.925786
30
0
11
39.5
21
16.092453
31
0
12
43
22
15.509119
32
0
13
43
23
15.509119
33
0
39
0
210
0
220
0
230
1
0
MTEXT
5
13F
100
AcDbEntity
8
0
62
256
6
ByLayer
370
18
48
1
60
0
100
AcDbMText
10
30.56
20
22.509119
30
0
210
0
220
0
230
1
1
\A1;24.88
40
3.5
41
0
44
1
50
0
71
5
72
5
7
iso_b_vert
0
POINT
5
140
100
AcDbEntity
8
Defpoints
62
0
6
ByLayer
370
-1
48
1
60
0
100
AcDbPoint
10
18.12
20
3.9
30
0
39
0
210
0
220
0
230
1
50
360
0
POINT
5
141
100
AcDbEntity
8
Defpoints
62
0
6
ByLayer
370
-1
48
1
60
0
100
AcDbPoint
10
43
20
0
30
0
39
0
210
0
220
0
230
1
50
360
0
POINT
5
142
100
AcDbEntity
8
Defpoints
62
0
6
ByLayer
370
-1
48
1
60
0
100
AcDbPoint
10
43
20
15.509119
30
0
39
0
210
0
220
0
230
1
50
360
0
ENDBLK
5
139
100
AcDbEntity
8
0
100
AcDbBlockEnd
0
BLOCK
5
14A
100
AcDbEntity
8
0
100
AcDbBlockBegin
2
_U2
70
0
10
0
20
0
30
0
3
_U2
0
MTEXT
5
144
100
AcDbEntity
8
SK2
62
256
6
ByLayer
370
13
48
1
60
0
100
AcDbMText
10
25.238435
20
16.541753
30
0
210
0
220
0
230
1
1
\W0.7581;24,88
40
3.5
41
0
44
1.084337
50
0
71
7
72
5
7
iso_b_vert
0
LINE
5
145
100
AcDbEntity
8
SK2
62
256
6
ByLayer
370
13
48
1
60
0
100
AcDbLine
10
18.12
20
5.4875
30
0
11
18.12
21
17.509119
31
0
39
0
210
0
220
0
230
1
0
LINE
5
146
100
AcDbEntity
8
SK2
62
256
6
ByLayer
370
13
48
1
60
0
100
AcDbLine
10
43
20
1.5875
30
0
11
43
21
17.509119
31
0
39
0
210
0
220
0
230
1
0
LINE
5
147
100
AcDbEntity
8
SK2
62
256
6
ByLayer
370
13
48
1
60
0
100
AcDbLine
10
18.12
20
15.509119
30
0
11
43
21
15.509119
31
0
39
0
210
0
220
0
230
1
0
SOLID
5
148
100
AcDbEntity
8
SK2
62
256
6
ByLayer
370
18
48
1
60
0
100
AcDbTrace
10
18.12
20
15.509119
30
0
11
21.619998
21
15.969903
31
0
12
21.620002
22
15.048335
32
0
13
21.620002
23
15.048335
33
0
39
0
210
0
220
0
230
1
0
SOLID
5
149
100
AcDbEntity
8
SK2
62
256
6
ByLayer
370
18
48
1
60
0
100
AcDbTrace
10
43
20
15.509119
30
0
11
39.500002
21
15.048335
31
0
12
39.499998
22
15.969903
32
0
13
39.499998
23
15.969903
33
0
39
0
210
0
220
0
230
1
0
ENDBLK
5
14B
100
AcDbEntity
8
0
100
AcDbBlockEnd
0
BLOCK
5
150
100
AcDbEntity
8
0
100
AcDbBlockBegin
2
*D7
70
1
10
0
20
0
30
0
3
*D7
0
LINE
5
152
100
AcDbEntity
8
0
62
256
6
ByLayer
370
-2
48
1
60
0
100
AcDbLine
10
43
20
-1.5875
30
0
11
43
21
-18.702503
31
0
39
0
210
0
220
0
230
1
0
LINE
5
153
100
AcDbEntity
8
0
62
256
6
ByLayer
370
-2
48
1
60
0
100
AcDbLine
10
41.5199
20
-5.4875
30
0
11
41.5199
21
-18.702503
31
0
39
0
210
0
220
0
230
1
0
LINE
5
154
100
AcDbEntity
8
0
62
256
6
ByLayer
370
-2
48
1
60
0
100
AcDbLine
10
43
20
-16.702503
30
0
11
70.666667
21
-16.702503
31
0
39
0
210
0
220
0
230
1
0
LINE
5
155
100
AcDbEntity
8
0
62
256
6
ByLayer
370
-2
48
1
60
0
100
AcDbLine
10
46.5
20
-16.702503
30
0
11
50
21
-16.702503
31
0
39
0
210
0
220
0
230
1
0
LINE
5
156
100
AcDbEntity
8
0
62
256
6
ByLayer
370
-2
48
1
60
0
100
AcDbLine
10
38.0199
20
-16.702503
30
0
11
34.5199
21
-16.702503
31
0
39
0
210
0
220
0
230
1
0
SOLID
5
157
100
AcDbEntity
8
0
62
256
6
ByLayer
370
-1
48
1
60
0
100
AcDbTrace
10
46.5
20
-16.11917
30
0
11
46.5
21
-17.285837
31
0
12
43
22
-16.702503
32
0
13
43
23
-16.702503
33
0
39
0
210
0
220
0
230
1
0
SOLID
5
158
100
AcDbEntity
8
0
62
256
6
ByLayer
370
-1
48
1
60
0
100
AcDbTrace
10
38.0199
20
-17.285837
30
0
11
38.0199
21
-16.11917
31
0
12
41.5199
22
-16.702503
32
0
13
41.5199
23
-16.702503
33
0
39
0
210
0
220
0
230
1
0
MTEXT
5
159
100
AcDbEntity
8
0
62
256
6
ByLayer
370
18
48
1
60
0
100
AcDbMText
10
60.333333
20
-9.702503
30
0
210
0
220
0
230
1
1
\A1;1.48
40
3.5
41
0
44
1
50
0
71
5
72
5
7
iso_b_vert
0
POINT
5
15A
100
AcDbEntity
8
Defpoints
62
0
6
ByLayer
370
-1
48
1
60
0
100
AcDbPoint
10
43
20
0
30
0
39
0
210
0
220
0
230
1
50
360
0
POINT
5
15B
100
AcDbEntity
8
Defpoints
62
0
6
ByLayer
370
-1
48
1
60
0
100
AcDbPoint
10
41.5199
20
-3.9
30
0
39
0
210
0
220
0
230
1
50
360
0
POINT
5
15C
100
AcDbEntity
8
Defpoints
62
0
6
ByLayer
370
-1
48
1
60
0
100
AcDbPoint
10
41.5199
20
-16.702503
30
0
39
0
210
0
220
0
230
1
50
360
0
ENDBLK
5
151
100
AcDbEntity
8
0
100
AcDbBlockEnd
0
BLOCK
5
164
100
AcDbEntity
8
0
100
AcDbBlockBegin
2
_U3
70
0
10
0
20
0
30
0
3
_U3
0
MTEXT
5
15E
100
AcDbEntity
8
SK2
62
256
6
ByLayer
370
13
48
1
60
0
100
AcDbMText
10
49.405026
20
-15.66987
30
0
210
0
220
0
230
1
1
\W0.6709;1,48
40
3.5
41
0
44
1.084337
50
0
71
7
72
5
7
iso_b_vert
0
LINE
5
15F
100
AcDbEntity
8
SK2
62
256
6
ByLayer
370
13
48
1
60
0
100
AcDbLine
10
43
20
-1.5875
30
0
11
43
21
-18.702503
31
0
39
0
210
0
220
0
230
1
0
LINE
5
160
100
AcDbEntity
8
SK2
62
256
6
ByLayer
370
13
48
1
60
0
100
AcDbLine
10
41.5199
20
-5.4875
30
0
11
41.5199
21
-18.702503
31
0
39
0
210
0
220
0
230
1
0
LINE
5
161
100
AcDbEntity
8
SK2
62
256
6
ByLayer
370
13
48
1
60
0
100
AcDbLine
10
32.7699
20
-16.702503
30
0
11
56.743324
21
-16.702503
31
0
39
0
210
0
220
0
230
1
0
SOLID
5
162
100
AcDbEntity
8
SK2
62
256
6
ByLayer
370
18
48
1
60
0
100
AcDbTrace
10
43
20
-16.702503
30
0
11
46.499998
21
-16.241719
31
0
12
46.500002
22
-17.163287
32
0
13
46.500002
23
-17.163287
33
0
39
0
210
0
220
0
230
1
0
SOLID
5
163
100
AcDbEntity
8
SK2
62
256
6
ByLayer
370
18
48
1
60
0
100
AcDbTrace
10
41.5199
20
-16.702503
30
0
11
38.019902
21
-17.163287
31
0
12
38.019898
22
-16.241719
32
0
13
38.019898
23
-16.241719
33
0
39
0
210
0
220
0
230
1
0
ENDBLK
5
165
100
AcDbEntity
8
0
100
AcDbBlockEnd
0
BLOCK
5
16A
100
AcDbEntity
8
0
100
AcDbBlockBegin
2
*D9
70
1
10
0
20
0
30
0
3
*D9
0
LINE
5
16C
100
AcDbEntity
8
0
62
256
6
ByLayer
370
-2
48
1
60
0
100
AcDbLine
10
-36
20
-5.5875
30
0
11
-36
21
-24.343428
31
0
39
0
210
0
220
0
230
1
0
LINE
5
16D
100
AcDbEntity
8
0
62
256
6
ByLayer
370
-2
48
1
60
0
100
AcDbLine
10
41.5199
20
-5.4875
30
0
11
41.5199
21
-24.343428
31
0
39
0
210
0
220
0
230
1
0
LINE
5
16E
100
AcDbEntity
8
0
62
256
6
ByLayer
370
-2
48
1
60
0
100
AcDbLine
10
-32.5
20
-22.343428
30
0
11
38.0199
21
-22.343428
31
0
39
0
210
0
220
0
230
1
0
SOLID
5
16F
100
AcDbEntity
8
0
62
256
6
ByLayer
370
-1
48
1
60
0
100
AcDbTrace
10
-32.5
20
-21.760095
30
0
11
-32.5
21
-22.926762
31
0
12
-36
22
-22.343428
32
0
13
-36
23
-22.343428
33
0
39
0
210
0
220
0
230
1
0
SOLID
5
170
100
AcDbEntity
8
0
62
256
6
ByLayer
370
-1
48
1
60
0
100
AcDbTrace
10
38.0199
20
-22.926762
30
0
11
38.0199
21
-21.760095
31
0
12
41.5199
22
-22.343428
32
0
13
41.5199
23
-22.343428
33
0
39
0
210
0
220
0
230
1
0
MTEXT
5
171
100
AcDbEntity
8
0
62
256
6
ByLayer
370
18
48
1
60
0
100
AcDbMText
10
2.75995
20
-15.343428
30
0
210
0
220
0
230
1
1
\A1;77.52
40
3.5
41
0
44
1
50
0
71
5
72
5
7
iso_b_vert
0
POINT
5
172
100
AcDbEntity
8
Defpoints
62
0
6
ByLayer
370
-1
48
1
60
0
100
AcDbPoint
10
-36
20
-4
30
0
39
0
210
0
220
0
230
1
50
360
0
POINT
5
173
100
AcDbEntity
8
Defpoints
62
0
6
ByLayer
370
-1
48
1
60
0
100
AcDbPoint
10
41.5199
20
-3.9
30
0
39
0
210
0
220
0
230
1
50
360
0
POINT
5
174
100
AcDbEntity
8
Defpoints
62
0
6
ByLayer
370
-1
48
1
60
0
100
AcDbPoint
10
41.5199
20
-22.343428
30
0
39
0
210
0
220
0
230
1
50
360
0
ENDBLK
5
16B
100
AcDbEntity
8
0
100
AcDbBlockEnd
0
BLOCK
5
17C
100
AcDbEntity
8
0
100
AcDbBlockBegin
2
_U4
70
0
10
0
20
0
30
0
3
_U4
0
MTEXT
5
176
100
AcDbEntity
8
SK2
62
256
6
ByLayer
370
13
48
1
60
0
100
AcDbMText
10
-2.377349
20
-21.310795
30
0
210
0
220
0
230
1
1
\W0.7317;77,52
40
3.5
41
0
44
1.084337
50
0
71
7
72
5
7
iso_b_vert
0
LINE
5
177
100
AcDbEntity
8
SK2
62
256
6
ByLayer
370
13
48
1
60
0
100
AcDbLine
10
-36
20
-5.5875
30
0
11
-36
21
-24.343428
31
0
39
0
210
0
220
0
230
1
0
LINE
5
178
100
AcDbEntity
8
SK2
62
256
6
ByLayer
370
13
48
1
60
0
100
AcDbLine
10
41.5199
20
-5.4875
30
0
11
41.5199
21
-24.343428
31
0
39
0
210
0
220
0
230
1
0
LINE
5
179
100
AcDbEntity
8
SK2
62
256
6
ByLayer
370
13
48
1
60
0
100
AcDbLine
10
-36
20
-22.343428
30
0
11
41.5199
21
-22.343428
31
0
39
0
210
0
220
0
230
1
0
SOLID
5
17A
100
AcDbEntity
8
SK2
62
256
6
ByLayer
370
18
48
1
60
0
100
AcDbTrace
10
-36
20
-22.343428
30
0
11
-32.500002
21
-21.882645
31
0
12
-32.499998
22
-22.804212
32
0
13
-32.499998
23
-22.804212
33
0
39
0
210
0
220
0
230
1
0
SOLID
5
17B
100
AcDbEntity
8
SK2
62
256
6
ByLayer
370
18
48
1
60
0
100
AcDbTrace
10
41.5199
20
-22.343428
30
0
11
38.019902
21
-22.804212
31
0
12
38.019898
22
-21.882645
32
0
13
38.019898
23
-21.882645
33
0
39
0
210
0
220
0
230
1
0
ENDBLK
5
17D
100
AcDbEntity
8
0
100
AcDbBlockEnd
0
ENDSEC
0
SECTION
2
ENTITIES
0
ARC
5
A6
100
AcDbEntity
8
1
62
256
6
ByLayer
370
18
48
1
60
0
100
AcDbCircle
39
0
10
0
20
3.15
30
0
40
0.850000000000001
210
0
220
0
230
1
100
AcDbArc
50
63.89732
51
90
0
ARC
5
A7
100
AcDbEntity
8
1
62
256
6
ByLayer
370
18
48
1
60
0
100
AcDbCircle
39
0
10
0
20
-3.15
30
0
40
0.850000000000001
210
0
220
0
230
1
100
AcDbArc
50
270
51
296.10268
0
ARC
5
A8
100
AcDbEntity
8
1
62
256
6
ByLayer
370
18
48
1
60
0
100
AcDbCircle
39
0
10
0.747968
20
-4.676612
30
0
40
0.85
210
0
220
0
230
1
100
AcDbArc
50
89.896868
51
116.10268
0
ARC
5
A9
100
AcDbEntity
8
1
62
256
6
ByLayer
370
18
48
1
60
0
100
AcDbCircle
39
0
10
0.747968
20
4.676612
30
0
40
0.85
210
0
220
0
230
1
100
AcDbArc
50
243.89732
51
270.103132
0
ELLIPSE
5
AA
100
AcDbEntity
8
1
62
256
6
ByLayer
370
13
48
1
60
0
100
AcDbEllipse
10
87.194174
20
42.329751
30
0
11
-60.9999999999999
21
7.47009875831649E-15
31
0
210
0
220
0
230
1
40
0.99863
41
0.732443783071617
42
0.756859647904086
0
ELLIPSE
5
AB
100
AcDbEntity
8
1
62
256
6
ByLayer
370
13
48
1
60
0
100
AcDbEllipse
10
3.88279
20
3.484809
30
0
11
0.0837579571056941
21
0.288070485509156
31
0
210
0
220
0
230
1
40
0.43577
41
-3.12959307773895
42
-2.54961459934243
0
ELLIPSE
5
AC
100
AcDbEntity
8
1
62
256
6
ByLayer
370
13
48
1
60
0
100
AcDbEllipse
10
10.510095
20
-63.658237
30
0
11
-48.1711090203831
21
56.7813586410533
31
0
210
0
220
0
230
1
40
0.699061
41
-0.881583760698467
42
-0.773888842502897
0
ELLIPSE
5
AD
100
AcDbEntity
8
1
62
256
6
ByLayer
370
18
48
1
60
0
100
AcDbEllipse
10
3.881525
20
4.729491
30
0
11
-1
21
1.22460635382238E-16
31
0
210
0
220
0
230
1
40
0.999999
41
1.12182383746622
42
1.57567744657653
0
ELLIPSE
5
AE
100
AcDbEntity
8
1
62
256
6
ByLayer
370
18
48
1
60
0
100
AcDbEllipse
10
3.881525
20
-4.729491
30
0
11
-1
21
1.22460635382238E-16
31
0
210
0
220
0
230
1
40
0.999999
41
-1.5691278334848
42
-1.12216067530443
0
POINT
5
70
100
AcDbEntity
8
80
62
256
6
ByLayer
370
18
48
1
60
0
100
AcDbPoint
10
0
20
0
30
0
39
0
210
0
220
0
230
1
50
360
0
POINT
5
72
100
AcDbEntity
8
81
62
256
6
ByLayer
370
18
48
1
60
0
100
AcDbPoint
10
43
20
0
30
0
39
0
210
0
220
0
230
1
50
360
0
POINT
5
74
100
AcDbEntity
8
1
62
256
6
ByLayer
370
18
48
1
60
1
100
AcDbPoint
10
41.5199
20
-3.9
30
0
39
0
210
0
220
0
230
1
50
360
0
POINT
5
76
100
AcDbEntity
8
1
62
256
6
ByLayer
370
18
48
1
60
1
100
AcDbPoint
10
-36
20
-4
30
0
39
0
210
0
220
0
230
1
50
360
0
POINT
5
77
100
AcDbEntity
8
1
62
256
6
ByLayer
370
18
48
1
60
1
100
AcDbPoint
10
18.12
20
3.9
30
0
39
0
210
0
220
0
230
1
50
360
0
POINT
5
78
100
AcDbEntity
8
1
62
256
6
ByLayer
370
18
48
1
60
1
100
AcDbPoint
10
41.5199
20
-3.9
30
0
39
0
210
0
220
0
230
1
50
360
0
POINT
5
79
100
AcDbEntity
8
1
62
256
6
ByLayer
370
18
48
1
60
1
100
AcDbPoint
10
-36
20
-4
30
0
39
0
210
0
220
0
230
1
50
360
0
POINT
5
7A
100
AcDbEntity
8
1
62
256
6
ByLayer
370
18
48
1
60
1
100
AcDbPoint
10
41.5199
20
-3.9
30
0
39
0
210
0
220
0
230
1
50
360
0
SPLINE
5
AF
100
AcDbEntity
8
1
62
256
6
ByLayer
370
18
48
1
60
0
100
AcDbSpline
70
4
71
3
72
18
73
14
40
0
40
0
40
0
40
0
40
0.249999999999998
40
0.249999999999998
40
0.374999999999999
40
0.374999999999999
40
0.499999999999999
40
0.499999999999999
40
0.749999999999999
40
0.749999999999999
40
0.875
40
0.875
40
1
40
1
40
1
40
1
41
1
10
41.2172868120646
20
0.547182187371902
30
0
41
1
10
41.1677872054927
20
0.328671200158311
30
0
41
1
10
41.1277470458404
20
0.1086318559598
30
0
41
1
10
41.082052061576
20
-0.22374814573314
30
0
41
1
10
41.0692277367714
20
-0.334930431518245
30
0
41
1
10
41.0485967464575
20
-0.558105703195679
30
0
41
1
10
41.0408324021255
20
-0.670061113784357
30
0
41
1
10
41.0256838310031
20
-0.999553356107015
30
0
41
1
10
41.0261084354254
20
-1.21333259373662
30
0
41
1
10
41.0424848125871
20
-1.52520378031417
30
0
41
1
10
41.0506244453538
20
-1.62805182712728
30
0
41
1
10
41.0721523181124
20
-1.82886416434786
30
0
41
1
10
41.0854842601895
20
-1.92652900235819
30
0
41
1
10
41.1013444713084
20
-2.021494928409
30
0
0
SPLINE
5
B0
100
AcDbEntity
8
1
62
256
6
ByLayer
370
13
48
1
60
0
100
AcDbSpline
70
4
71
3
72
17
73
13
40
0
40
0
40
0
40
0
40
0.0494124373881435
40
0.108824160051384
40
0.168235882714625
40
0.287059328041108
40
0.346471050704348
40
0.405882773367589
40
0.524706218694072
40
0.584117941357312
40
0.762353109347036
40
1
40
1
40
1
40
1
41
1
10
12.5483495820578
20
-1.47162977795892
30
0
41
1
10
12.5147747554471
20
-1.47418750509738
30
0
41
1
10
12.4408293269544
20
-1.47970884092905
30
0
41
1
10
12.3265093584741
20
-1.48786218445173
30
0
41
1
10
12.1650594604233
20
-1.49869989137161
30
0
41
1
10
12.0036004741311
20
-1.50863854282826
30
0
41
1
10
11.8421336030544
20
-1.51767703546699
30
0
41
1
10
11.680684115832
20
-1.52604999789543
30
0
41
1
10
11.5192255067625
20
-1.53351355540758
30
0
41
1
10
11.2770546099314
20
-1.54327137376248
30
0
41
1
10
10.9541935245296
20
-1.55364629218727
30
0
41
1
10
10.6715902817572
20
-1.55914645353809
30
0
41
1
10
10.5100954506227
20
-1.56106196700179
30
0
0
SPLINE
5
B1
100
AcDbEntity
8
1
62
256
6
ByLayer
370
18
48
1
60
0
100
AcDbSpline
70
4
71
3
72
18
73
14
40
0
40
0
40
0
40
0
40
0.249999999999993
40
0.249999999999993
40
0.374999999999994
40
0.374999999999994
40
0.499999999999995
40
0.499999999999995
40
0.624999999999996
40
0.624999999999996
40
0.749999999999998
40
0.749999999999998
40
1
40
1
40
1
40
1
41
1
10
42.404632347447
20
-0.951768979828444
30
0
41
1
10
42.4480083175359
20
-0.92219870379742
30
0
41
1
10
42.4943877941646
20
-0.874918169910842
30
0
41
1
10
42.568842202279
20
-0.779020018257114
30
0
41
1
10
42.5944604091294
20
-0.742792662499028
30
0
41
1
10
42.6457146961812
20
-0.664423705322776
30
0
41
1
10
42.6715560711357
20
-0.622028818391328
30
0
41
1
10
42.7236601964304
20
-0.531066662350526
30
0
41
1
10
42.7500998053855
20
-0.482135951561702
30
0
41
1
10
42.8021743948619
20
-0.380440502570053
30
0
41
1
10
42.8278705976883
20
-0.327608896279031
30
0
41
1
10
42.9039179347231
20
-0.163501439268032
30
0
41
1
10
42.9535923872373
20
-0.0456261516823133
30
0
41
1
10
42.9997987902526
20
0.0749280187047248
30
0
0
SPLINE
5
B2
100
AcDbEntity
8
1
62
256
6
ByLayer
370
18
48
1
60
0
100
AcDbSpline
70
4
71
3
72
8
73
4
40
0
40
0
40
0
40
0
40
1
40
1
40
1
40
1
41
1
10
41.6314544935714
20
3.86916443018944
30
0
41
1
10
41.7566682741113
20
3.56817751837315
30
0
41
1
10
41.8846037493303
20
3.25728768571682
30
0
41
1
10
42.0127293043026
20
2.93456170165592
30
0
0
SPLINE
5
B3
100
AcDbEntity
8
1
62
256
6
ByLayer
370
18
48
1
60
0
100
AcDbSpline
70
4
71
3
72
8
73
4
40
0
40
0
40
0
40
0
40
1
40
1
40
1
40
1
41
1
10
9.61229169146128
20
3.73871411628397
30
0
41
1
10
9.65284829771335
20
3.73881085614752
30
0
41
1
10
9.69343109877482
20
3.73877274200746
30
0
41
1
10
9.73403942690697
20
3.73860488999034
30
0
0
SPLINE
5
B4
100
AcDbEntity
8
1
62
256
6
ByLayer
370
18
48
1
60
0
100
AcDbSpline
70
4
71
1
72
4
73
2
40
0
40
0
40
1
40
1
41
1
10
41.5805633878665
20
-3.73377916372215
30
0
41
1
10
42.3955338656958
20
-0.982484939476421
30
0
0
SPLINE
5
B5
100
AcDbEntity
8
1
62
256
6
ByLayer
370
18
48
1
60
0
100
AcDbSpline
70
4
71
3
72
10
73
6
40
0
40
0
40
0
40
0
40
0.421073138678662
40
0.421073138678662
40
1
40
1
40
1
40
1
41
1
10
22.2101525168443
20
-3.76001744287319
30
0
41
1
10
21.9895789242156
20
-3.76350402370846
30
0
41
1
10
21.7690991166634
20
-3.76131376518413
30
0
41
1
10
21.2459459890823
20
-3.74244387723431
30
0
41
1
10
20.9429407020917
20
-3.72054581079649
30
0
41
1
10
20.639679027985
20
-3.68800963969045
30
0
0
SPLINE
5
B6
100
AcDbEntity
8
1
62
256
6
ByLayer
370
13
48
1
60
0
100
AcDbSpline
70
4
71
3
72
34
73
30
40
0
40
0
40
0
40
0
40
0.0162754515039229
40
0.0162754515039229
40
0.156807529860503
40
0.156807529860503
40
0.227073569038793
40
0.227073569038793
40
0.262206588627938
40
0.262206588627938
40
0.297339608217083
40
0.297339608217083
40
0.437871686573665
40
0.437871686573665
40
0.508137725751956
40
0.508137725751956
40
0.543270745341101
40
0.543270745341101
40
0.578403764930246
40
0.578403764930246
40
0.718935843286829
40
0.718935843286829
40
0.789201882465122
40
0.789201882465122
40
0.824334902054268
40
0.824334902054268
40
0.859467921643414
40
0.859467921643414
40
1
40
1
40
1
40
1
41
1
10
20.6396790277965
20
-3.68800963967024
30
0
41
1
10
20.5482608587498
20
-3.67820161760653
30
0
41
1
10
20.4568193912988
20
-3.66742688992923
30
0
41
1
10
19.5755613194872
20
-3.55439142314168
30
0
41
1
10
18.7941150277851
20
-3.38364563419654
30
0
41
1
10
17.6188568332499
20
-3.03521359369117
30
0
41
1
10
17.2267048420231
20
-2.90382182710968
30
0
41
1
10
16.6356838459993
20
-2.68590378967576
30
0
41
1
10
16.4378611212041
20
-2.60962296753777
30
0
41
1
10
16.0433330556847
20
-2.45136415407558
30
0
41
1
10
15.8466304012358
20
-2.36941411276979
30
0
41
1
10
14.8652596639374
20
-1.94675306687799
30
0
41
1
10
14.0866601598281
20
-1.56754791140827
30
0
41
1
10
12.9134926349026
20
-0.963614447603163
30
0
41
1
10
12.5216576278861
20
-0.756153069489784
30
0
41
1
10
11.9304408592901
20
-0.439730011252038
30
0
41
1
10
11.7324305857879
20
-0.333124024625761
30
0
41
1
10
11.3378646279263
20
-0.120131205272401
30
0
41
1
10
11.1411460962178
20
-0.0136679026852846
30
0
41
1
10
10.1595257740106
20
0.516852230651978
30
0
41
1
10
9.38055547007488
20
0.935389004543907
30
0
41
1
10
8.20656695791607
20
1.52724842806984
30
0
41
1
10
7.81424020415307
20
1.71835597900144
30
0
41
1
10
7.22248131817258
20
1.99253387088811
30
0
41
1
10
7.0243823425771
20
2.0820549632933
30
0
41
1
10
6.62968770744982
20
2.25511271374737
30
0
41
1
10
6.43281882707592
20
2.3387354933792
30
0
41
1
10
5.45007768852565
20
2.74132580703974
30
0
41
1
10
4.66913199740816
20
3.01398026675713
30
0
41
1
10
3.88333226584365
20
3.22539070020363
30
0
0
SPLINE
5
B7
100
AcDbEntity
8
1
62
256
6
ByLayer
370
18
48
1
60
0
100
AcDbSpline
70
4
71
3
72
18
73
14
40
0
40
0
40
0
40
0
40
0.250000000000003
40
0.250000000000003
40
0.375000000000002
40
0.375000000000002
40
0.500000000000002
40
0.500000000000002
40
0.750000000000001
40
0.750000000000001
40
0.875
40
0.875
40
1
40
1
40
1
40
1
41
1
10
41.5267028996935
20
-3.60529098317659
30
0
41
1
10
41.4571880232478
20
-3.53851949632926
30
0
41
1
10
41.3952971704804
20
-3.45506760151608
30
0
41
1
10
41.314213595376
20
-3.30417631630704
30
0
41
1
10
41.289154454484
20
-3.24957191422234
30
0
41
1
10
41.2431623328674
20
-3.1313355889138
30
0
41
1
10
41.2221679917341
20
-3.06738145752058
30
0
41
1
10
41.1668720662825
20
-2.86541553910084
30
0
41
1
10
41.1397535361585
20
-2.71655964080696
30
0
41
1
10
41.1138737538776
20
-2.47169553768123
30
0
41
1
10
41.107726820681
20
-2.38645802795995
30
0
41
1
10
41.1005985925805
20
-2.20844984877166
30
0
41
1
10
41.0996561623693
20
-2.11610846511743
30
0
41
1
10
41.1013444713115
20
-2.02149492840906
30
0
0
SPLINE
5
B8
100
AcDbEntity
8
1
62
256
6
ByLayer
370
13
48
1
60
0
100
AcDbSpline
70
4
71
3
72
22
73
18
40
0
40
0
40
0
40
0
40
0.0407018966469035
40
0.0917512058425281
40
0.142800515038144
40
0.244899133429387
40
0.295948442625001
40
0.346997751820632
40
0.449096370211871
40
0.500145679407487
40
0.551194988603104
40
0.653293606994356
40
0.704342916189973
40
0.755392225385591
40
0.857490843776839
40
0.959589462168081
40
1
40
1
40
1
40
1
41
1
10
41.8409893138841
20
1.56215081492408
30
0
41
1
10
41.8088066866086
20
1.56209834116416
30
0
41
1
10
41.7362608327795
20
1.56186973590249
30
0
41
1
10
41.6233546262903
20
1.56112612050592
30
0
41
1
10
41.4618873516242
20
1.55936750875924
30
0
41
1
10
41.3004292556411
20
1.55668559697747
30
0
41
1
10
41.1389791557091
20
1.55307697918118
30
0
41
1
10
40.9775118489772
20
1.54878193708393
30
0
41
1
10
40.8160538953064
20
1.5435640730656
30
0
41
1
10
40.6546040847564
20
1.53742110721706
30
0
41
1
10
40.4931370900542
20
1.53060407257908
30
0
41
1
10
40.3316794640359
20
1.52287141501171
30
0
41
1
10
40.170229807573
20
1.51422602338698
30
0
41
1
10
40.0087626227551
20
1.50492491277058
30
0
41
1
10
39.8069278601577
20
1.49214832152521
30
0
41
1
10
39.6135151241831
20
1.47846715902259
30
0
41
1
10
39.500824133855
20
1.46989927601035
30
0
41
1
10
39.4688688669623
20
1.46742275099862
30
0
0
SPLINE
5
B9
100
AcDbEntity
8
1
62
256
6
ByLayer
370
18
48
1
60
0
100
AcDbSpline
70
4
71
3
72
30
73
26
40
0
40
0
40
0
40
0
40
0.198797334310017
40
0.198797334310017
40
0.298196001465025
40
0.298196001465025
40
0.397594668620034
40
0.397594668620034
40
0.496993335775042
40
0.496993335775042
40
0.59639200293005
40
0.59639200293005
40
0.646091336507556
40
0.646091336507556
40
0.695790670085062
40
0.695790670085062
40
0.795189337240077
40
0.795189337240077
40
0.894588004395092
40
0.894588004395092
40
0.944287337972598
40
0.944287337972598
40
0.993986671550103
40
0.993986671550103
40
1
40
1
40
1
40
1
41
1
10
41.2172868120646
20
0.54718218737176
30
0
41
1
10
40.5632225306854
20
0.901783270557104
30
0
41
1
10
39.9108008701658
20
1.24856956468742
30
0
41
1
10
38.9257418709948
20
1.73842899784387
30
0
41
1
10
38.598457070668
20
1.89626649383078
30
0
41
1
10
37.9439079881484
20
2.19679065966329
30
0
41
1
10
37.6169832685188
20
2.34065785162184
30
0
41
1
10
36.9617142448974
20
2.61182777294184
30
0
41
1
10
36.6328309618461
20
2.73907304783219
30
0
41
1
10
35.9775124950091
20
2.97345479400886
30
0
41
1
10
35.6507648794419
20
3.07993458335298
30
0
41
1
10
35.1597697444998
20
3.22483045742996
30
0
41
1
10
34.9959050371311
20
3.27054608605869
30
0
41
1
10
34.6678689060805
20
3.35669898426443
30
0
41
1
10
34.5037658912615
20
3.39731730589747
30
0
41
1
10
34.0112595796692
20
3.51016294320684
30
0
41
1
10
33.6839955366876
20
3.57330247375347
30
0
41
1
10
33.0295026599588
20
3.67315644827622
30
0
41
1
10
32.7022920862159
20
3.71210761912468
30
0
41
1
10
32.2104381578903
20
3.750932051804
30
0
41
1
10
32.0461888519163
20
3.760650411006
30
0
41
1
10
31.7179990123256
20
3.77422201005342
30
0
41
1
10
31.5540744727498
20
3.77808721755145
30
0
41
1
10
31.3704845334013
20
3.77845471486609
30
0
41
1
10
31.3506720016251
20
3.77843928242308
30
0
41
1
10
31.3308621151126
20
3.77837048535179
30
0
0
SPLINE
5
BA
100
AcDbEntity
8
1
62
256
6
ByLayer
370
18
48
1
60
0
100
AcDbSpline
70
4
71
3
72
22
73
18
40
0
40
0
40
0
40
0
40
0.0787658304980927
40
0.0787658304980927
40
0.170889247448282
40
0.170889247448282
40
0.263012664398471
40
0.263012664398471
40
0.447259498298854
40
0.447259498298854
40
0.631506332199236
40
0.631506332199236
40
0.815753166099618
40
0.815753166099618
40
0.907876583049809
40
0.907876583049809
40
1
40
1
40
1
40
1
41
1
10
15.0776918934084
20
-2.63971874466716
30
0
41
1
10
14.9371439485796
20
-2.69376568068975
30
0
41
1
10
14.7966843896987
20
-2.74601913863685
30
0
41
1
10
14.4920898884561
20
-2.85434601502104
30
0
41
1
10
14.328033975763
20
-2.91038372030715
30
0
41
1
10
13.9997784597989
20
-3.01851073134537
30
0
41
1
10
13.8356556716124
20
-3.07040190470607
30
0
41
1
10
13.3429314678467
20
-3.21827870565699
30
0
41
1
10
13.0134219033504
20
-3.30692626971148
30
0
41
1
10
12.3562478563593
20
-3.45918688547127
30
0
41
1
10
12.0291288393455
20
-3.52110647388355
30
0
41
1
10
11.3738992998518
20
-3.62490280150055
30
0
41
1
10
11.0467439463303
20
-3.6662687625776
30
0
41
1
10
10.555382262173
20
-3.70857657322668
30
0
41
1
10
10.3916079653208
20
-3.71943089548108
30
0
41
1
10
10.063388949732
20
-3.73399856644096
30
0
41
1
10
9.8988977719352
20
-3.73775594358597
30
0
41
1
10
9.73403942690695
20
-3.73860488999034
30
0
0
SPLINE
5
BB
100
AcDbEntity
8
1
62
256
6
ByLayer
370
18
48
1
60
0
100
AcDbSpline
70
4
71
3
72
18
73
14
40
0
40
0
40
0
40
0
40
0.124999999999999
40
0.124999999999999
40
0.249999999999998
40
0.249999999999998
40
0.374999999999996
40
0.374999999999996
40
0.499999999999995
40
0.499999999999995
40
0.749999999999997
40
0.749999999999997
40
1
40
1
40
1
40
1
41
1
10
42.4008155709543
20
-0.947957920217817
30
0
41
1
10
42.3556344284104
20
-0.954941220470687
30
0
41
1
10
42.3125522770396
20
-0.949969274138141
30
0
41
1
10
42.2298562101496
20
-0.920271313254403
30
0
41
1
10
42.1898877337017
20
-0.8951004020943
30
0
41
1
10
42.1153596458853
20
-0.828641172497044
30
0
41
1
10
42.0807266207273
20
-0.78757264003994
30
0
41
1
10
42.0159630756344
20
-0.692020707710469
30
0
41
1
10
41.9859047428769
20
-0.637441198856038
30
0
41
1
10
41.9041600066265
20
-0.460677116190823
30
0
41
1
10
41.8595859615463
20
-0.323856082174132
30
0
41
1
10
41.7879039242404
20
-0.0206439739142183
30
0
41
1
10
41.7618441086339
20
0.141198613527934
30
0
41
1
10
41.7443960850467
20
0.31205388534687
30
0
0
SPLINE
5
BC
100
AcDbEntity
8
1
62
256
6
ByLayer
370
18
48
1
60
0
100
AcDbSpline
70
4
71
3
72
12
73
8
40
0
40
0
40
0
40
0
40
0.477895969392381
40
0.477895969392381
40
0.738947984696191
40
0.738947984696191
40
1
40
1
40
1
40
1
41
1
10
3.44160399164571
20
3.83145950089838
30
0
41
1
10
3.44161772680812
20
3.83225831701313
30
0
41
1
10
3.44163663023346
20
3.79894712000913
30
0
41
1
10
3.44161758084337
20
3.69525226606953
30
0
41
1
10
3.44160111874771
20
3.64810238378865
30
0
41
1
10
3.44153692596979
20
3.53527445778775
30
0
41
1
10
3.44148926304837
20
3.46946839183747
30
0
41
1
10
3.44141999966629
20
3.3942466928292
30
0
0
SPLINE
5
BD
100
AcDbEntity
8
1
62
256
6
ByLayer
370
18
48
1
60
0
100
AcDbSpline
70
4
71
3
72
8
73
4
40
0
40
0
40
0
40
0
40
1
40
1
40
1
40
1
41
1
10
3.53409988069822
20
-0.14980573098606
30
0
41
1
10
3.50960976075317
20
-0.136212305418582
30
0
41
1
10
3.48511675734881
20
-0.122607298523661
30
0
41
1
10
3.46062078690125
20
-0.108990796290811
30
0
0
SPLINE
5
BE
100
AcDbEntity
8
1
62
256
6
ByLayer
370
18
48
1
60
0
100
AcDbSpline
70
4
71
3
72
8
73
4
40
0
40
0
40
0
40
0
40
1
40
1
40
1
40
1
41
1
10
3.64223269164188
20
-0.205990043148063
30
0
41
1
10
3.60603549338791
20
-0.187554341647484
30
0
41
1
10
3.56999105757069
20
-0.168826689038411
30
0
41
1
10
3.53409988069888
20
-0.149805730986742
30
0
0
SPLINE
5
BF
100
AcDbEntity
8
1
62
256
6
ByLayer
370
18
48
1
60
0
100
AcDbSpline
70
4
71
3
72
10
73
6
40
0
40
0
40
0
40
0
40
0.5
40
0.5
40
1
40
1
40
1
40
1
41
1
10
3.53409988071249
20
-0.149805730990096
30
0
41
1
10
3.56433488106717
20
-0.0385360278753524
30
0
41
1
10
3.60250085643753
20
0.0705614991645973
30
0
41
1
10
3.69302990317763
20
0.284867793134936
30
0
41
1
10
3.74458798109424
20
0.388144134200047
30
0
41
1
10
3.80095209299802
20
0.487551024711905
30
0
0
SPLINE
5
C0
100
AcDbEntity
8
1
62
256
6
ByLayer
370
18
48
1
60
0
100
AcDbSpline
70
4
71
3
72
8
73
4
40
0
40
0
40
0
40
0
40
1
40
1
40
1
40
1
41
1
10
42.9997987902522
20
0.0749280187037016
30
0
41
1
10
43.0000670699116
20
0.0249760062345104
30
0
41
1
10
43.0000670699116
20
-0.0249760062346525
30
0
41
1
10
42.9997987902522
20
-0.0749280187038153
30
0
0
SPLINE
5
C1
100
AcDbEntity
8
1
62
256
6
ByLayer
370
13
48
1
60
0
100
AcDbSpline
70
4
71
3
72
80
73
76
40
0
40
0
40
0
40
0
40
0.003261439393001
40
0.0122738633539062
40
0.021286287314812
40
0.0393111352366232
40
0.0483235591975287
40
0.0573359831584342
40
0.0753608310802455
40
0.0843732550411508
40
0.0933856790020573
40
0.111410526923868
40
0.120422950884774
40
0.129435374845679
40
0.14746022276749
40
0.156472646728396
40
0.165485070689301
40
0.183509918611112
40
0.201534766532923
40
0.219559614454735
40
0.255609310298357
40
0.264621734259262
40
0.273634158220168
40
0.291659006141979
40
0.300671430102884
40
0.309683854063789
40
0.327708701985601
40
0.345733549907412
40
0.363758397829224
40
0.399808093672845
40
0.408820517633751
40
0.417832941594657
40
0.435857789516468
40
0.444870213477373
40
0.453882637438279
40
0.47190748536009
40
0.480919909320995
40
0.489932333281901
40
0.507957181203712
40
0.516969605164618
40
0.525982029125523
40
0.544006877047335
40
0.55301930100824
40
0.562031724969145
40
0.580056572890957
40
0.589068996851862
40
0.598081420812768
40
0.616106268734579
40
0.625118692695484
40
0.634131116656391
40
0.652155964578201
40
0.661168388539107
40
0.670180812500013
40
0.688205660421823
40
0.706230508343634
40
0.724255356265446
40
0.760305052109068
40
0.769317476069973
40
0.778329900030879
40
0.79635474795269
40
0.805367171913596
40
0.814379595874502
40
0.832404443796312
40
0.850429291718124
40
0.868454139639935
40
0.904503835483557
40
0.913516259444462
40
0.922528683405368
40
0.940553531327179
40
0.949565955288084
40
0.95857837924899
40
0.976603227170801
40
0.985615651131707
40
0.994628075092613
40
1
40
1
40
1
40
1
41
1
10
34.2883067042534
20
-1.47237583637028
30
0
41
1
10
34.2736991185579
20
-1.47348305777365
30
0
41
1
10
34.2187256543293
20
-1.47761372545665
30
0
41
1
10
34.1233842407859
20
-1.48454107181504
30
0
41
1
10
33.9619347393804
20
-1.49562861236618
30
0
41
1
10
33.8004759806944
20
-1.50582004831466
30
0
41
1
10
33.6390092167213
20
-1.51510990044642
30
0
41
1
10
33.4775597727144
20
-1.52373433420294
30
0
41
1
10
33.316101105137
20
-1.5314483346468
30
0
41
1
10
33.1546344344763
20
-1.5382517747307
30
0
41
1
10
32.9931850102269
20
-1.54437483125332
30
0
41
1
10
32.831726262297
20
-1.54957973728372
30
0
41
1
10
32.6702594407336
20
-1.55386756634985
30
0
41
1
10
32.5088098661004
20
-1.5574620830057
30
0
41
1
10
32.34735094513
20
-1.56013329015522
30
0
41
1
10
32.1858840420858
20
-1.56188351188132
30
0
41
1
10
32.0244346915638
20
-1.5629297036958
30
0
41
1
10
31.8226237619601
20
-1.56303851535475
30
0
41
1
10
31.5804386225016
20
-1.56130171466759
30
0
41
1
10
31.2575586996318
20
-1.55627877346799
30
0
41
1
10
30.9749884999021
20
-1.54873922886236
30
0
41
1
10
30.7327590964246
20
-1.54004494008177
30
0
41
1
10
30.5713092466618
20
-1.53346064057811
30
0
41
1
10
30.4098503575595
20
-1.5259788026342
30
0
41
1
10
30.2483836148511
20
-1.51761084233036
30
0
41
1
10
30.0869343582312
20
-1.50853550334958
30
0
41
1
10
29.8851234608502
20
-1.49603484036814
30
0
41
1
10
29.6429382859693
20
-1.47927016591194
30
0
41
1
10
29.3200583208764
20
-1.45430984605866
30
0
41
1
10
29.0374880936543
20
-1.42958952933265
30
0
41
1
10
28.7952587524258
20
-1.40638775927511
30
0
41
1
10
28.633809028332
20
-1.39014991242735
30
0
41
1
10
28.4723503810412
20
-1.37310956399006
30
0
41
1
10
28.3108838706239
20
-1.35528542316965
30
0
41
1
10
28.1494345939395
20
-1.33680434017126
30
0
41
1
10
27.9879759789171
20
-1.31755362899216
30
0
41
1
10
27.8265092381479
20
-1.29755311146403
30
0
41
1
10
27.6650597226285
20
-1.27691594936664
30
0
41
1
10
27.5036008530694
20
-1.25554648821847
30
0
41
1
10
27.3421339491179
20
-1.2334673179254
30
0
41
1
10
27.1806843874139
20
-1.21077600030034
30
0
41
1
10
27.0192256302111
20
-1.18739419963859
30
0
41
1
10
26.8577589463524
20
-1.16334563466722
30
0
41
1
10
26.6963096033123
20
-1.13871197754241
30
0
41
1
10
26.5348510516083
20
-1.11343246742609
30
0
41
1
10
26.373384470716
20
-1.08753199099004
30
0
41
1
10
26.2119351081828
20
-1.06107605791684
30
0
41
1
10
26.0504763631162
20
-1.03402161580661
30
0
41
1
10
25.8890094684157
20
-1.00639461865748
30
0
41
1
10
25.7275598071597
20
-0.978244541110598
30
0
41
1
10
25.5661007984192
20
-0.949546581083951
30
0
41
1
10
25.4046338343276
20
-0.92032833206099
30
0
41
1
10
25.2431844217928
20
-0.890622507328374
30
0
41
1
10
25.0413734347075
20
-0.852803558609963
30
0
41
1
10
24.7991883416075
20
-0.806461697466659
30
0
41
1
10
24.4763085913492
20
-0.743135850718033
30
0
41
1
10
24.1937385657201
20
-0.686390436977462
30
0
41
1
10
23.9515091814429
20
-0.636904305132106
30
0
41
1
10
23.790059339062
20
-0.603436449054129
30
0
41
1
10
23.6286004603103
20
-0.569649002273707
30
0
41
1
10
23.4671337273252
20
-0.535571965422093
30
0
41
1
10
23.3056844419363
20
-0.50117005816017
30
0
41
1
10
23.1038734639998
20
-0.457778555862717
30
0
41
1
10
22.8616882539753
20
-0.405227366198545
30
0
41
1
10
22.5388083568101
20
-0.334294883866448
30
0
41
1
10
22.2562382303702
20
-0.271741322644289
30
0
41
1
10
22.0140088855171
20
-0.21789479054047
30
0
41
1
10
21.852559151828
20
-0.181712131032469
30
0
41
1
10
21.6911004922374
20
-0.145461302276146
30
0
41
1
10
21.5296339682849
20
-0.109172604530073
30
0
41
1
10
21.3681846631451
20
-0.0727461933002473
30
0
41
1
10
21.2067260202098
20
-0.036314992626302
30
0
41
1
10
21.0452592958731
20
9.03727122648E-05
30
0
41
1
10
20.9404762617159
20
0.0237755068701233
30
0
41
1
10
20.8760536148704
20
0.0383244263537392
30
0
41
1
10
20.8519943104031
20
0.0437557652743124
30
0
0
SPLINE
5
C2
100
AcDbEntity
8
1
62
256
6
ByLayer
370
18
48
1
60
0
100
AcDbSpline
70
4
71
3
72
8
73
4
40
0
40
0
40
0
40
0
40
1
40
1
40
1
40
1
41
1
10
42.847424595513
20
-0.502002941682036
30
0
41
1
10
42.5659950760038
20
-1.31176400840172
30
0
41
1
10
42.2877546771415
20
-2.12261397998461
30
0
41
1
10
42.0127293043026
20
-2.93456170165595
30
0
0
SPLINE
5
C3
100
AcDbEntity
8
1
62
256
6
ByLayer
370
18
48
1
60
0
100
AcDbSpline
70
4
71
3
72
8
73
4
40
0
40
0
40
0
40
0
40
1
40
1
40
1
40
1
41
1
10
42.999798790252
20
0.0749280187040995
30
0
41
1
10
42.9479824464453
20
0.216355656234526
30
0
41
1
10
42.8972232958312
20
0.358716449343831
30
0
41
1
10
42.847424595513
20
0.502002941681923
30
0
0
SPLINE
5
C4
100
AcDbEntity
8
1
62
256
6
ByLayer
370
18
48
1
60
0
100
AcDbSpline
70
4
71
3
72
8
73
4
40
0
40
0
40
0
40
0
40
1
40
1
40
1
40
1
41
1
10
41.8409893139179
20
1.56215081492414
30
0
41
1
10
41.8397274839418
20
1.57328311313444
30
0
41
1
10
41.8387496989768
20
1.58445426898672
30
0
41
1
10
41.8380816825883
20
1.59564271928494
30
0
0
SPLINE
5
C5
100
AcDbEntity
8
1
62
256
6
ByLayer
370
18
48
1
60
0
100
AcDbSpline
70
4
71
3
72
58
73
54
40
0
40
0
40
0
40
0
40
0.0411125504209295
40
0.0411125504209295
40
0.0753585307630398
40
0.0753585307630398
40
0.0924815209340946
40
0.0924815209340946
40
0.109604511105149
40
0.109604511105149
40
0.143850491447259
40
0.143850491447259
40
0.178096471789369
40
0.178096471789369
40
0.246588432473589
40
0.246588432473589
40
0.263711422644644
40
0.263711422644644
40
0.280834412815699
40
0.280834412815699
40
0.315080393157809
40
0.315080393157809
40
0.349326373499919
40
0.349326373499919
40
0.38357235384203
40
0.38357235384203
40
0.41781833418414
40
0.41781833418414
40
0.45206431452625
40
0.45206431452625
40
0.589048235894692
40
0.589048235894692
40
0.623294216236803
40
0.623294216236803
40
0.640417206407857
40
0.640417206407857
40
0.657540196578912
40
0.657540196578912
40
0.691786176921021
40
0.691786176921021
40
0.72603215726313
40
0.72603215726313
40
0.794524117947348
40
0.794524117947348
40
0.828770098289456
40
0.828770098289456
40
0.863016078631565
40
0.863016078631565
40
0.931508039315782
40
0.931508039315782
40
0.965754019657891
40
0.965754019657891
40
1
40
1
40
1
40
1
41
1
10
15.0783520949206
20
2.63455486339092
30
0
41
1
10
15.4412497223649
20
2.78226152071343
30
0
41
1
10
15.8043256062623
20
2.91914606871558
30
0
41
1
10
16.4719772017028
20
3.14778989067602
30
0
41
1
10
16.776032282793
20
3.24343310188922
30
0
41
1
10
17.2344536503323
20
3.37277951171512
30
0
41
1
10
17.387762427388
20
3.4137474181677
30
0
41
1
10
17.693478515928
20
3.49028665105015
30
0
41
1
10
17.8460385317262
20
3.52586682580525
30
0
41
1
10
18.3029213524577
20
3.62464512253979
30
0
41
1
10
18.6061895778865
20
3.68005233974094
30
0
41
1
10
19.2114700570595
20
3.76940360712069
30
0
41
1
10
19.513289738164
20
3.80340201323909
30
0
41
1
10
20.4197964090495
20
3.87236565954382
30
0
41
1
10
21.0240341124038
20
3.87482366264084
30
0
41
1
10
21.7853599654637
20
3.82178345465184
30
0
41
1
10
21.9379485971567
20
3.80837629198899
30
0
41
1
10
22.2439107108285
20
3.77592978407577
30
0
41
1
10
22.3970654864844
20
3.75688043219068
30
0
41
1
10
22.8548578868395
20
3.69186304854591
30
0
41
1
10
23.1584775429326
20
3.63773760046226
30
0
41
1
10
23.7644885195007
20
3.50949724903381
30
0
41
1
10
24.066488670945
20
3.43511005983035
30
0
41
1
10
24.6702214993865
20
3.26727775621782
30
0
41
1
10
24.9721667559959
20
3.17406911120247
30
0
41
1
10
25.5767179663609
20
2.96961622102884
30
0
41
1
10
25.8793375511107
20
2.85837043414867
30
0
41
1
10
26.4863075074594
20
2.61866031475543
30
0
41
1
10
26.791536909667
20
2.49075985950049
30
0
41
1
10
28.3216312058317
20
1.81351106258782
30
0
41
1
10
29.519371862239
20
1.17158757195204
30
0
41
1
10
31.0341256490189
20
0.331162735051322
30
0
41
1
10
31.3375802948444
20
0.160481074048306
30
0
41
1
10
31.7955198553045
20
-0.0957965640161831
30
0
41
1
10
31.9486944957757
20
-0.181684299429747
30
0
41
1
10
32.2540192770597
20
-0.352269911426674
30
0
41
1
10
32.4062219603961
20
-0.437328607491395
30
0
41
1
10
32.8620794041682
20
-0.690653539725247
30
0
41
1
10
33.1644894013336
20
-0.857973330621178
30
0
41
1
10
33.7689813213229
20
-1.18482968648757
30
0
41
1
10
34.0705926595764
20
-1.34522003544814
30
0
41
1
10
34.975225343852
20
-1.8143319551979
30
0
41
1
10
35.5786896162533
20
-2.10993432856512
30
0
41
1
10
36.4911018423206
20
-2.51636930171063
30
0
41
1
10
36.7976100254773
20
-2.64591506290372
30
0
41
1
10
37.406546759364
20
-2.88723164034101
30
0
41
1
10
37.709275623948
20
-2.99958807907794
30
0
41
1
10
38.6151710127056
20
-3.30876821389205
30
0
41
1
10
39.2160402896025
20
-3.47797871936541
30
0
41
1
10
40.1182149414281
20
-3.67187711751507
30
0
41
1
10
40.4195662812107
20
-3.7261823486831
30
0
41
1
10
41.0238868968188
20
-3.81378425554229
30
0
41
1
10
41.3269256990913
20
-3.84701931988474
30
0
41
1
10
41.6314544935713
20
-3.86916443018941
30
0
0
SPLINE
5
C6
100
AcDbEntity
8
1
62
256
6
ByLayer
370
18
48
1
60
0
100
AcDbSpline
70
4
71
3
72
8
73
4
40
0
40
0
40
0
40
0
40
1
40
1
40
1
40
1
41
1
10
41.6314544935714
20
-3.86916443018941
30
0
41
1
10
41.7566745441855
20
-3.56816244646751
30
0
41
1
10
41.8846103547886
20
-3.25727104771636
30
0
41
1
10
42.0127293043026
20
-2.93456170165595
30
0
0
SPLINE
5
C7
100
AcDbEntity
8
1
62
256
6
ByLayer
370
18
48
1
60
0
100
AcDbSpline
70
4
71
3
72
38
73
34
40
0
40
0
40
0
40
0
40
0.0410886666866431
40
0.0410886666866431
40
0.0821773333732861
40
0.0821773333732861
40
0.164354666746572
40
0.164354666746572
40
0.246532000119858
40
0.246532000119858
40
0.287620666806501
40
0.287620666806501
40
0.328709333493144
40
0.328709333493144
40
0.493064000239716
40
0.493064000239716
40
0.575241333613002
40
0.575241333613002
40
0.657418666986288
40
0.657418666986288
40
0.739596000359574
40
0.739596000359574
40
0.780684667046217
40
0.780684667046217
40
0.82177333373286
40
0.82177333373286
40
0.903950667106146
40
0.903950667106146
40
0.945039333792789
40
0.945039333792789
40
0.986128000479432
40
0.986128000479432
40
1
40
1
40
1
40
1
41
1
10
3.46062078690352
20
-0.108990796290925
30
0
41
1
10
3.44910477738378
20
-0.189684223228625
30
0
41
1
10
3.4442820975417
20
-0.270532140332193
30
0
41
1
10
3.4442497389922
20
-0.432319531562655
30
0
41
1
10
3.44422690755306
20
-0.512993126651281
30
0
41
1
10
3.44414067083804
20
-0.754348887314052
30
0
41
1
10
3.44406003155112
20
-0.912832457857206
30
0
41
1
10
3.44386813424615
20
-1.2220752475705
30
0
41
1
10
3.44375666853708
20
-1.37333224727595
30
0
41
1
10
3.44357544240253
20
-1.5951586845284
30
0
41
1
10
3.44351268181558
20
-1.66825519058003
30
0
41
1
10
3.44338386611389
20
-1.81272402434809
30
0
41
1
10
3.4433175886777
20
-1.88432165115947
30
0
41
1
10
3.44298562294787
20
-2.23343638906414
30
0
41
1
10
3.4427177346567
20
-2.48705367062595
30
0
41
1
10
3.44236410684172
20
-2.82939732334319
30
0
41
1
10
3.44225373954214
20
-2.93741090793378
30
0
41
1
10
3.44205956217107
20
-3.1344858844522
30
0
41
1
10
3.44197489584553
20
-3.22434656368426
30
0
41
1
10
3.44183164400377
20
-3.38694810953015
30
0
41
1
10
3.44177305958235
20
-3.45969041621927
30
0
41
1
10
3.44170424644858
20
-3.55551623982149
30
0
41
1
10
3.44168455039392
20
-3.58514041749933
30
0
41
1
10
3.44165152126843
20
-3.63913246492874
30
0
41
1
10
3.44163810826836
20
-3.66360913127571
30
0
41
1
10
3.44160602807261
20
-3.72960714813368
30
0
41
1
10
3.44159557349263
20
-3.76372551809737
30
0
41
1
10
3.44159085840437
20
-3.80004849461759
30
0
41
1
10
3.44159110203759
20
-3.80967315848224
30
0
41
1
10
3.4415941333852
20
-3.82386033653674
30
0
41
1
10
3.44159693617215
20
-3.82841921814637
30
0
41
1
10
3.44160149103419
20
-3.83101772314268
30
0
41
1
10
3.4416027132439
20
-3.83138326960815
30
0
41
1
10
3.44160397948951
20
-3.83145878492513
30
0
0
SPLINE
5
C8
100
AcDbEntity
8
1
62
256
6
ByLayer
370
18
48
1
60
0
100
AcDbSpline
70
4
71
4
72
10
73
5
40
0
40
0
40
0
40
0
40
0
40
1
40
1
40
1
40
1
40
1
41
1
10
10.5100954506227
20
-1.56106196700182
30
0
41
1
10
10.316081444661
20
-2.10544769784082
30
0
41
1
10
10.1220674386993
20
-2.64983342867984
30
0
41
1
10
9.92805343273767
20
-3.19421915951884
30
0
41
1
10
9.73403942677598
20
-3.73860489035786
30
0
0
SPLINE
5
C9
100
AcDbEntity
8
1
62
256
6
ByLayer
370
18
48
1
60
0
100
AcDbSpline
70
4
71
3
72
18
73
14
40
0
40
0
40
0
40
0
40
0.131869054175059
40
0.131869054175059
40
0.348901790631296
40
0.348901790631296
40
0.565934527087533
40
0.565934527087533
40
0.782967263543771
40
0.782967263543771
40
0.891483631771886
40
0.891483631771886
40
1
40
1
40
1
40
1
41
1
10
41.3276360204886
20
0.485168727871894
30
0
41
1
10
41.3554197028066
20
0.511222440766232
30
0
41
1
10
41.3837503663617
20
0.540729448849163
30
0
41
1
10
41.459928343102
20
0.627574665176411
30
0
41
1
10
41.5091135826415
20
0.691432918635599
30
0
41
1
10
41.6043511416813
20
0.831919011814392
30
0
41
1
10
41.6511517358579
20
0.909192316911856
30
0
41
1
10
41.7381946254767
20
1.0782243605556
30
0
41
1
10
41.7775434188375
20
1.16735526242178
30
0
41
1
10
41.8207204621325
20
1.31102968480104
30
0
41
1
10
41.832260167072
20
1.3607060394975
30
0
41
1
10
41.845229629582
20
1.46044464514395
30
0
41
1
10
41.8467952899732
20
1.51092849648373
30
0
41
1
10
41.8409893139178
20
1.56215081492414
30
0
0
SPLINE
5
CA
100
AcDbEntity
8
1
62
256
6
ByLayer
370
18
48
1
60
0
100
AcDbSpline
70
4
71
3
72
8
73
4
40
0
40
0
40
0
40
0
40
1
40
1
40
1
40
1
41
1
10
41.2172868120646
20
0.547182187371874
30
0
41
1
10
41.3917636095707
20
0.462800959013379
30
0
41
1
10
41.5674231318153
20
0.384211503292875
30
0
41
1
10
41.7443960850467
20
0.312053885346927
30
0
0
SPLINE
5
CB
100
AcDbEntity
8
1
62
256
6
ByLayer
370
13
48
1
60
0
100
AcDbSpline
70
4
71
3
72
34
73
30
40
0
40
0
40
0
40
0
40
0.13714600651908
40
0.13714600651908
40
0.205719009778621
40
0.205719009778621
40
0.240005511408391
40
0.240005511408391
40
0.274292013038161
40
0.274292013038161
40
0.411438019557241
40
0.411438019557241
40
0.480011022816781
40
0.480011022816781
40
0.514297524446552
40
0.514297524446552
40
0.548584026076323
40
0.548584026076323
40
0.68573003259541
40
0.68573003259541
40
0.754303035854953
40
0.754303035854953
40
0.788589537484725
40
0.788589537484725
40
0.822876039114497
40
0.822876039114497
40
0.960022045633581
40
0.960022045633581
40
1
40
1
40
1
40
1
41
1
10
41.5267028996935
20
-3.60529098317659
30
0
41
1
10
40.7390870225312
20
-3.46837572440293
30
0
41
1
10
39.9597070037912
20
-3.26328958619024
30
0
41
1
10
38.7879084628631
20
-2.86885063556795
30
0
41
1
10
38.3968849753999
20
-2.72290595644952
30
0
41
1
10
37.807617842689
20
-2.48460962832081
30
0
41
1
10
37.6104055094079
20
-2.40177188610818
30
0
41
1
10
37.2165496387949
20
-2.23070183090525
30
0
41
1
10
37.0202269043659
20
-2.14263224140689
30
0
41
1
10
36.040838701289
20
-1.6909984156924
30
0
41
1
10
35.264063445338
20
-1.29417432733902
30
0
41
1
10
34.0943736575399
20
-0.671546990169304
30
0
41
1
10
33.7036889339809
20
-0.459473428774203
30
0
41
1
10
33.1144131506834
20
-0.138244941248331
30
0
41
1
10
32.9170970326465
20
-0.0303682120120357
30
0
41
1
10
32.5230954235457
20
0.184830697913611
30
0
41
1
10
32.3266799560948
20
0.291956837056063
30
0
41
1
10
31.3467493663582
20
0.823837910655271
30
0
41
1
10
30.5697865451753
20
1.23757704514327
30
0
41
1
10
29.3992429507402
20
1.81305299029856
30
0
41
1
10
29.0083631291342
20
1.99767306037359
30
0
41
1
10
28.4187773141603
20
2.25983580081956
30
0
41
1
10
28.2213342576746
20
2.34498338388687
30
0
41
1
10
27.8271794741818
20
2.5090188536364
30
0
41
1
10
27.6306778892749
20
2.58777806422577
30
0
41
1
10
26.6501574420973
20
2.96447867573968
30
0
41
1
10
25.8727749171077
20
3.21227575921932
30
0
41
1
10
24.863974690859
20
3.44816946995593
30
0
41
1
10
24.6360277351707
20
3.49607174856467
30
0
41
1
10
24.4075503467064
20
3.53830455345818
30
0
0
SPLINE
5
CC
100
AcDbEntity
8
1
62
256
6
ByLayer
370
18
48
1
60
0
100
AcDbSpline
70
4
71
3
72
8
73
4
40
0
40
0
40
0
40
0
40
1
40
1
40
1
40
1
41
1
10
41.5718935067475
20
-3.78172216778194
30
0
41
1
10
41.5754033564251
20
-3.76492081612037
30
0
41
1
10
41.5783045342801
20
-3.74883529398994
30
0
41
1
10
41.5805633878714
20
-3.73377916369992
30
0
0
SPLINE
5
CD
100
AcDbEntity
8
1
62
256
6
ByLayer
370
18
48
1
60
0
100
AcDbSpline
70
4
71
3
72
46
73
42
40
0
40
0
40
0
40
0
40
0.0614080857703222
40
0.0614080857703222
40
0.122816171540644
40
0.122816171540644
40
0.153520214425805
40
0.153520214425805
40
0.184224257310966
40
0.184224257310966
40
0.245632343081289
40
0.245632343081289
40
0.307040428851611
40
0.307040428851611
40
0.337744471736772
40
0.337744471736772
40
0.368448514621933
40
0.368448514621933
40
0.429856600392255
40
0.429856600392255
40
0.460560643277416
40
0.460560643277416
40
0.491264686162576
40
0.491264686162576
40
0.552672771932898
40
0.552672771932898
40
0.614080857703219
40
0.614080857703219
40
0.67548894347354
40
0.67548894347354
40
0.736897029243861
40
0.736897029243861
40
0.798305115014183
40
0.798305115014183
40
0.859713200784504
40
0.859713200784504
40
0.921121286554825
40
0.921121286554825
40
0.982529372325147
40
0.982529372325147
40
1
40
1
40
1
40
1
41
1
10
3.77152096503164
20
3.21374555720814
30
0
41
1
10
4.16725132060171
20
3.09502271438805
30
0
41
1
10
4.56275357174863
20
2.96023179996689
30
0
41
1
10
5.35234576065562
20
2.6641215374068
30
0
41
1
10
5.74669499561401
20
2.50248867412452
30
0
41
1
10
6.33946004601677
20
2.24213531786097
30
0
41
1
10
6.53742335799586
20
2.15228881378121
30
0
41
1
10
6.93174179441741
20
1.96816903248995
30
0
41
1
10
7.12838649360245
20
1.87381182306825
30
0
41
1
10
7.71744333263385
20
1.58499424786061
30
0
41
1
10
8.10882512213004
20
1.38454453573897
30
0
41
1
10
8.89119266275407
20
0.971732164710772
30
0
41
1
10
9.2821460050946
20
0.759295597361927
30
0
41
1
10
9.8707468451158
20
0.436017722613315
30
0
41
1
10
10.067310152183
20
0.32749462876248
30
0
41
1
10
10.4613292483085
20
0.109195902691937
30
0
41
1
10
10.6591111328709
20
-0.0007374015234518
30
0
41
1
10
11.251604177226
20
-0.329775089576714
30
0
41
1
10
11.6454617454087
20
-0.547997134098097
30
0
41
1
10
12.236518998618
20
-0.870099093283955
30
0
41
1
10
12.4335658843678
20
-0.976625061130335
30
0
41
1
10
12.8280993104275
20
-1.18730981178379
30
0
41
1
10
13.0258033510526
20
-1.29159450881394
30
0
41
1
10
13.6182408977923
20
-1.59903409677736
30
0
41
1
10
14.0120506049523
20
-1.79660563406387
30
0
41
1
10
14.8000015857224
20
-2.17283657680846
30
0
41
1
10
15.1946445447458
20
-2.35187777316463
30
0
41
1
10
15.984373716605
20
-2.68552329541399
30
0
41
1
10
16.3780651851787
20
-2.83959616373704
30
0
41
1
10
17.1657497618513
20
-3.11909567869734
30
0
41
1
10
17.5603245236183
20
-3.24467352847367
30
0
41
1
10
18.3498706350168
20
-3.46328681907164
30
0
41
1
10
18.7435726159973
20
-3.5558519684854
30
0
41
1
10
19.5310548201998
20
-3.7060700657259
30
0
41
1
10
19.92536149638
20
-3.76374531193011
30
0
41
1
10
20.714792128287
20
-3.84183998319062
30
0
41
1
10
21.1083739180296
20
-3.86224429273867
30
0
41
1
10
21.8956425379279
20
-3.86561491231987
30
0
41
1
10
22.2898589689268
20
-3.8484838843946
30
0
41
1
10
22.7967396606915
20
-3.80250273976287
30
0
41
1
10
22.9089117612459
20
-3.79082373874255
30
0
41
1
10
23.0210178578734
20
-3.77766587268186
30
0
0
SPLINE
5
CE
100
AcDbEntity
8
1
62
256
6
ByLayer
370
18
48
1
60
0
100
AcDbSpline
70
4
71
3
72
32
73
28
40
0
40
0
40
0
40
0
40
0.0312499999999975
40
0.0312499999999975
40
0.0624999999999949
40
0.0624999999999949
40
0.0937499999999924
40
0.0937499999999924
40
0.12499999999999
40
0.12499999999999
40
0.187499999999989
40
0.187499999999989
40
0.249999999999988
40
0.249999999999988
40
0.374999999999987
40
0.374999999999987
40
0.437499999999986
40
0.437499999999986
40
0.499999999999986
40
0.499999999999986
40
0.624999999999989
40
0.624999999999989
40
0.749999999999993
40
0.749999999999993
40
0.874999999999996
40
0.874999999999996
40
1
40
1
40
1
40
1
41
1
10
3.80095209299802
20
0.487551024711877
30
0
41
1
10
3.82235961742975
20
0.525306528443565
30
0
41
1
10
3.84739043423909
20
0.56081873551247
30
0
41
1
10
3.90213716144427
20
0.626895670690573
30
0
41
1
10
3.93201934879696
20
0.657730227497439
30
0
41
1
10
3.99585810646966
20
0.715838352878336
30
0
41
1
10
4.02973827850371
20
0.742995893340606
30
0
41
1
10
4.09931271656069
20
0.793295584766526
30
0
41
1
10
4.13520707944042
20
0.816615374768361
30
0
41
1
10
4.24558907224127
20
0.882140249883292
30
0
41
1
10
4.32289574938881
20
0.920031596218934
30
0
41
1
10
4.4821657149345
20
0.986944608188026
30
0
41
1
10
4.56306398727949
20
1.0155165217441
30
0
41
1
10
4.80864168177388
20
1.09023385865427
30
0
41
1
10
4.97615814358952
20
1.12556462209614
30
0
41
1
10
5.23171240135412
20
1.16259522999832
30
0
41
1
10
5.31783704666523
20
1.17220643566597
30
0
41
1
10
5.4893484009194
20
1.18617075187376
30
0
41
1
10
5.57496042813835
20
1.19056623328677
30
0
41
1
10
5.83139483268298
20
1.1965462112683
30
0
41
1
10
6.00181874543472
20
1.19099051206359
30
0
41
1
10
6.34164655374178
20
1.16150926244191
30
0
41
1
10
6.51104928817023
20
1.13756424715495
30
0
41
1
10
6.84878147811685
20
1.06996092613019
30
0
41
1
10
7.01489586133536
20
1.02665308711917
30
0
41
1
10
7.33810650625216
20
0.921269229790454
30
0
41
1
10
7.49575450566951
20
0.859079048165597
30
0
41
1
10
7.64927793070072
20
0.786677085864369
30
0
0
SPLINE
5
CF
100
AcDbEntity
8
1
62
256
6
ByLayer
370
18
48
1
60
0
100
AcDbSpline
70
4
71
3
72
28
73
24
40
0
40
0
40
0
40
0
40
0.25
40
0.25
40
0.375
40
0.375
40
0.5
40
0.5
40
0.625
40
0.625
40
0.6875
40
0.6875
40
0.75
40
0.75
40
0.8125
40
0.8125
40
0.875
40
0.875
40
0.9375
40
0.9375
40
0.96875
40
0.96875
40
1
40
1
40
1
40
1
41
1
10
9.73403942690695
20
-3.73860488999034
30
0
41
1
10
9.18362328893281
20
-3.74088000111314
30
0
41
1
10
8.64033288393358
20
-3.71920127140405
30
0
41
1
10
7.83993044997283
20
-3.63349895869629
30
0
41
1
10
7.5756357610378
20
-3.59567543193543
30
0
41
1
10
7.05219747541886
20
-3.50101380331554
30
0
41
1
10
6.79297170168337
20
-3.444559416289
30
0
41
1
10
6.28101771629295
20
-3.3064667591135
30
0
41
1
10
6.02820308892638
20
-3.22523330389927
30
0
41
1
10
5.65509258727505
20
-3.07882256929429
30
0
41
1
10
5.53157912344196
20
-3.0257139036228
30
0
41
1
10
5.28792417247837
20
-2.90921689784344
30
0
41
1
10
5.16878486658774
20
-2.8462980893589
30
0
41
1
10
4.93617851955222
20
-2.7105390966903
30
0
41
1
10
4.82274393968373
20
-2.63763910606201
30
0
41
1
10
4.6031286425233
20
-2.47894534091503
30
0
41
1
10
4.49681466408055
20
-2.39298654433165
30
0
41
1
10
4.29721836004751
20
-2.20854066399537
30
0
41
1
10
4.20342201318104
20
-2.10976002204381
30
0
41
1
10
4.07394973751428
20
-1.94920453495396
30
0
41
1
10
4.03267353043168
20
-1.89360965512572
30
0
41
1
10
3.95443964608023
20
-1.77763143954957
30
0
41
1
10
3.9173017345654
20
-1.71690729373302
30
0
41
1
10
3.8831809009028
20
-1.6542852537317
30
0
0
SPLINE
5
D0
100
AcDbEntity
8
1
62
256
6
ByLayer
370
18
48
1
60
0
100
AcDbSpline
70
4
71
3
72
8
73
4
40
0
40
0
40
0
40
0
40
1
40
1
40
1
40
1
41
1
10
42.8474245955181
20
0.502002941667371
30
0
41
1
10
42.5659966460762
20
1.31175949081074
30
0
41
1
10
42.2877562156445
20
2.12260943791654
30
0
41
1
10
42.0127293043026
20
2.93456170165592
30
0
0
SPLINE
5
D1
100
AcDbEntity
8
1
62
256
6
ByLayer
370
13
48
1
60
0
100
AcDbSpline
70
4
71
3
72
22
73
18
40
0
40
0
40
0
40
0
40
0.0832393781875383
40
0.0832393781875383
40
0.266591502550031
40
0.266591502550031
40
0.358267564731277
40
0.358267564731277
40
0.449943626912523
40
0.449943626912523
40
0.541619689093769
40
0.541619689093769
40
0.633295751275015
40
0.633295751275015
40
0.816647875637508
40
0.816647875637508
40
1
40
1
40
1
40
1
41
1
10
3.88314098326157
20
-3.72948231056589
30
0
41
1
10
3.88313660589117
20
-3.730158887871
30
0
41
1
10
3.8831333874769
20
-3.72551149106451
30
0
41
1
10
3.88312652069868
20
-3.69316716032569
30
0
41
1
10
3.88312715117033
20
-3.64521282610764
30
0
41
1
10
3.88313296593105
20
-3.53641078728913
30
0
41
1
10
3.88313571761222
20
-3.49394440396804
30
0
41
1
10
3.88314231726704
20
-3.39629053484353
30
0
41
1
10
3.88314616858793
20
-3.3410360770402
30
0
41
1
10
3.88315423497573
20
-3.21970021089823
30
0
41
1
10
3.88315846516176
20
-3.15340514157566
30
0
41
1
10
3.88316672178468
20
-3.00950532662296
30
0
41
1
10
3.88317074759792
20
-2.9317837280731
30
0
41
1
10
3.88318145969401
20
-2.68564141633522
30
0
41
1
10
3.88318684625159
20
-2.50321068062476
30
0
41
1
10
3.88319018757056
20
-2.10118259786418
30
0
41
1
10
3.88318804106274
20
-1.88337635168335
30
0
41
1
10
3.88318090090283
20
-1.6542852537317
30
0
0
SPLINE
5
D2
100
AcDbEntity
8
1
62
256
6
ByLayer
370
18
48
1
60
0
100
AcDbSpline
70
4
71
3
72
8
73
4
40
0
40
0
40
0
40
0
40
1
40
1
40
1
40
1
41
1
10
42.4008155709543
20
-0.947957920217817
30
0
41
1
10
42.4020877716918
20
-0.949228331604814
30
0
41
1
10
42.4033600305316
20
-0.950498684810412
30
0
41
1
10
42.4046323474655
20
-0.951768979826824
30
0
0
SPLINE
5
D3
100
AcDbEntity
8
1
62
256
6
ByLayer
370
18
48
1
60
0
100
AcDbSpline
70
4
71
3
72
22
73
18
40
0
40
0
40
0
40
0
40
0.221655623676452
40
0.221655623676452
40
0.443311247352903
40
0.443311247352903
40
0.55413905919113
40
0.55413905919113
40
0.609552965110243
40
0.609552965110243
40
0.664966871029355
40
0.664966871029355
40
0.775794682867578
40
0.775794682867578
40
0.886622494705801
40
0.886622494705801
40
1
40
1
40
1
40
1
41
1
10
12.5282150508009
20
-1.44438707484815
30
0
41
1
10
13.1406295288248
20
-1.76157285291924
30
0
41
1
10
13.7478744831768
20
-2.05610672885504
30
0
41
1
10
14.9572232454312
20
-2.59414409101569
30
0
41
1
10
15.5605560871867
20
-2.83560783176824
30
0
41
1
10
16.4704097960072
20
-3.14728150557752
30
0
41
1
10
16.7743419422011
20
-3.24291665406611
30
0
41
1
10
17.2325717527188
20
-3.37226810081191
30
0
41
1
10
17.3858197190456
20
-3.41323826121041
30
0
41
1
10
17.6914201129042
20
-3.48979379145379
30
0
41
1
10
17.8439215823592
20
-3.52538465864396
30
0
41
1
10
18.3006321212068
20
-3.6241986321146
30
0
41
1
10
18.6037869534755
20
-3.67963754978774
30
0
41
1
10
19.2088316205624
20
-3.76907373884475
30
0
41
1
10
19.5105353295893
20
-3.80312253178124
30
0
41
1
10
20.1215785927957
20
-3.84974923531496
30
0
41
1
10
20.4305464616779
20
-3.8619505476222
30
0
41
1
10
20.740145793834
20
-3.86259238563977
30
0
0
SPLINE
5
D4
100
AcDbEntity
8
1
62
256
6
ByLayer
370
18
48
1
60
0
100
AcDbSpline
70
4
71
3
72
16
73
12
40
0
40
0
40
0
40
0
40
0.0524009737850315
40
0.0524009737850315
40
0.241920779028022
40
0.241920779028022
40
0.620960389514012
40
0.620960389514012
40
0.810480194757006
40
0.810480194757006
40
1
40
1
40
1
40
1
41
1
10
36.8394608506376
20
2.66053663278152
30
0
41
1
10
36.9238423086992
20
2.69523207162717
30
0
41
1
10
37.0081723067003
20
2.72931440364024
30
0
41
1
10
37.3968606542195
20
2.88354370574888
30
0
41
1
10
37.6997292353709
20
2.99613766300044
30
0
41
1
10
38.6063999705267
20
3.30615045502861
30
0
41
1
10
39.2083089822094
20
3.4760275387948
30
0
41
1
10
40.1127807337524
20
3.67085172893422
30
0
41
1
10
40.415034427028
20
3.7254415114129
30
0
41
1
10
41.0214355576368
20
3.81351185316447
30
0
41
1
10
41.326011508766
20
3.84695284063562
30
0
41
1
10
41.6314544935714
20
3.86916443018941
30
0
0
SPLINE
5
D5
100
AcDbEntity
8
1
62
256
6
ByLayer
370
18
48
1
60
0
100
AcDbSpline
70
4
71
3
72
8
73
4
40
0
40
0
40
0
40
0
40
1
40
1
40
1
40
1
41
1
10
42.9997987902521
20
-0.0749280187039858
30
0
41
1
10
42.9479091405273
20
-0.216555737561151
30
0
41
1
10
42.8971521068038
20
-0.358921282521265
30
0
41
1
10
42.8474245955133
20
-0.50200294168107
30
0
0
SPLINE
5
D6
100
AcDbEntity
8
1
62
256
6
ByLayer
370
18
48
1
60
0
100
AcDbSpline
70
4
71
3
72
25
73
21
40
0
40
0
40
0
40
0
40
0.249999999999997
40
0.374999999999999
40
0.374999999999999
40
0.5
40
0.5
40
0.5625
40
0.5625
40
0.625000000000001
40
0.625000000000001
40
0.687500000000002
40
0.687500000000002
40
0.750000000000002
40
0.750000000000002
40
0.875000000000001
40
0.875000000000001
40
0.937500000000001
40
0.937500000000001
40
1
40
1
40
1
40
1
41
1
10
3.8831809009028
20
-1.6542852537317
30
0
41
1
10
3.82408067335467
20
-1.54581847797223
30
0
41
1
10
3.73705918319649
20
-1.38217150442839
30
0
41
1
10
3.656073960718
20
-1.214798777189
30
0
41
1
10
3.60450044393136
20
-1.10169937595154
30
0
41
1
10
3.5798045165742
20
-1.04446613611304
30
0
41
1
10
3.54700005167828
20
-0.955923278904891
30
0
41
1
10
3.53679240844821
20
-0.925946966131875
30
0
41
1
10
3.51908747934692
20
-0.864265904506112
30
0
41
1
10
3.51153132794835
20
-0.832264961340968
30
0
41
1
10
3.50181294942723
20
-0.766327897167855
30
0
41
1
10
3.4998674503054
20
-0.733095817029096
30
0
41
1
10
3.50255309166428
20
-0.666035278697336
30
0
41
1
10
3.50717809555852
20
-0.632016244683996
30
0
41
1
10
3.52781302191815
20
-0.530657938797305
30
0
41
1
10
3.54926272782146
20
-0.465309723780706
30
0
41
1
10
3.58447676462561
20
-0.368166099319808
30
0
41
1
10
3.59730279817012
20
-0.336099433511947
30
0
41
1
10
3.62092711125305
20
-0.271379901401644
30
0
41
1
10
3.63188061662419
20
-0.238771907557464
30
0
41
1
10
3.64223269164046
20
-0.205990043147636
30
0
0
SPLINE
5
D7
100
AcDbEntity
8
1
62
256
6
ByLayer
370
13
48
1
60
0
100
AcDbSpline
70
4
71
3
72
10
73
6
40
0
40
0
40
0
40
0
40
0.5
40
0.5
40
1
40
1
40
1
40
1
41
1
10
3.88333226584362
20
3.22539070020363
30
0
41
1
10
3.80697895698145
20
3.23973054461069
30
0
41
1
10
3.73179497896524
20
3.2608573230674
30
0
41
1
10
3.58408887869945
20
3.31689886769701
30
0
41
1
10
3.51101348445914
20
3.35218313400634
30
0
41
1
10
3.44141999966484
20
3.39424669282985
30
0
0
SPLINE
5
D8
100
AcDbEntity
8
1
62
256
6
ByLayer
370
18
48
1
60
0
100
AcDbSpline
70
4
71
3
72
12
73
8
40
0
40
0
40
0
40
0
40
0.250000000000001
40
0.250000000000001
40
0.500000000000001
40
0.500000000000001
40
1
40
1
40
1
40
1
41
1
10
41.5805633878687
20
-3.73377916372198
30
0
41
1
10
41.5791518372963
20
-3.71793515352192
30
0
41
1
10
41.576588071193
20
-3.70333990458934
30
0
41
1
10
41.5699309235249
20
-3.67736474218086
30
0
41
1
10
41.5658224692053
20
-3.6657849575239
30
0
41
1
10
41.5516731201917
20
-3.6343381609606
30
0
41
1
10
41.5398906163985
20
-3.61795824948535
30
0
41
1
10
41.5267028996935
20
-3.60529098317659
30
0
0
SPLINE
5
D9
100
AcDbEntity
8
1
62
256
6
ByLayer
370
13
48
1
60
0
100
AcDbSpline
70
4
71
3
72
14
73
10
40
0
40
0
40
0
40
0
40
0.392758890271882
40
0.392758890271882
40
0.589138335407823
40
0.589138335407823
40
0.785517780543765
40
0.785517780543765
40
1
40
1
40
1
40
1
41
1
10
3.88333226584365
20
3.22539070020363
30
0
41
1
10
3.88329249105081
20
3.35413800770834
30
0
41
1
10
3.88325789279997
20
3.45870284229952
30
0
41
1
10
3.88321475256927
20
3.57960589387682
30
0
41
1
10
3.88320187863295
20
3.61370174693761
30
0
41
1
10
3.88317953142058
20
3.66854463275169
30
0
41
1
10
3.88316997999669
20
3.68951363663388
30
0
41
1
10
3.88315318785905
20
3.72015596138442
30
0
41
1
10
3.88314624598735
20
3.72867100999642
30
0
41
1
10
3.88314098101253
20
3.72948265773911
30
0
0
SPLINE
5
DA
100
AcDbEntity
8
1
62
256
6
ByLayer
370
18
48
1
60
0
100
AcDbSpline
70
4
71
3
72
14
73
10
40
0
40
0
40
0
40
0
40
0.25
40
0.25
40
0.5
40
0.5
40
0.75
40
0.75
40
1
40
1
40
1
40
1
41
1
10
3.44141999966629
20
3.39424669282627
30
0
41
1
10
3.4414016543586
20
3.3743232455266
30
0
41
1
10
3.45927260348623
20
3.35511003960801
30
0
41
1
10
3.50522535052866
20
3.32044868902571
30
0
41
1
10
3.53417246501098
20
3.30463628533224
30
0
41
1
10
3.59585482098805
20
3.27556480812942
30
0
41
1
10
3.62922440498562
20
3.26206983778431
30
0
41
1
10
3.69862198351623
20
3.23668411630735
30
0
41
1
10
3.73455327076658
20
3.22483621450516
30
0
41
1
10
3.77152096503164
20
3.21374555720814
30
0
0
SPLINE
5
DB
100
AcDbEntity
8
1
62
256
6
ByLayer
370
18
48
1
60
0
100
AcDbSpline
70
4
71
1
72
4
73
2
40
0
40
0
40
1
40
1
41
1
10
42.3955338656935
20
-0.982484939475739
30
0
41
1
10
42.4046323474466
20
-0.951768979845696
30
0
0
SPLINE
5
DC
100
AcDbEntity
8
1
62
256
6
ByLayer
370
18
48
1
60
0
100
AcDbSpline
70
4
71
3
72
42
73
38
40
0
40
0
40
0
40
0
40
0.0577427348452565
40
0.0577427348452565
40
0.116633813917427
40
0.116633813917427
40
0.175524892989598
40
0.175524892989598
40
0.23441597206177
40
0.23441597206177
40
0.293307051133941
40
0.293307051133941
40
0.352198130206113
40
0.352198130206113
40
0.411089209278285
40
0.411089209278285
40
0.469980288350456
40
0.469980288350456
40
0.528871367422628
40
0.528871367422628
40
0.587762446494799
40
0.587762446494799
40
0.646653525566971
40
0.646653525566971
40
0.705544604639143
40
0.705544604639143
40
0.734990144175229
40
0.734990144175229
40
0.764435683711315
40
0.764435683711315
40
0.882217841855658
40
0.882217841855658
40
0.941108920927829
40
0.941108920927829
40
0.970554460463915
40
0.970554460463915
40
1
40
1
40
1
40
1
41
1
10
21.5239574118058
20
3.86400406620899
30
0
41
1
10
21.9099144633916
20
3.86497057455605
30
0
41
1
10
22.2964234215579
20
3.84785295120696
30
0
41
1
10
23.0779116246952
20
3.77703256744815
30
0
41
1
10
23.4713221958106
20
3.72280791694652
30
0
41
1
10
24.2583423400462
20
3.5788074844026
30
0
41
1
10
24.6524538199395
20
3.4888264228837
30
0
41
1
10
25.4414848097611
20
3.27572145454514
30
0
41
1
10
25.8347269393468
20
3.15292726500249
30
0
41
1
10
26.6214785244442
20
2.87784175449431
30
0
41
1
10
27.0155361853103
20
2.72532244562578
30
0
41
1
10
27.8043856293232
20
2.39504428286159
30
0
41
1
10
28.1975326640469
20
2.21779502961013
30
0
41
1
10
28.9841430892454
20
1.84334666235378
30
0
41
1
10
29.3780346063626
20
1.64567576924406
30
0
41
1
10
30.1666634572549
20
1.23614329104714
30
0
41
1
10
30.5596741590671
20
1.02475515506208
30
0
41
1
10
31.34614096071
20
0.594039783041438
30
0
41
1
10
31.7400053407822
20
0.374158730989024
30
0
41
1
10
32.5283880697478
20
-0.0675337569744272
30
0
41
1
10
32.9213009910161
20
-0.288661002730493
30
0
41
1
10
33.7075548630156
20
-0.72615605809483
30
0
41
1
10
34.1013107323976
20
-0.943079853198583
30
0
41
1
10
34.8893929592806
20
-1.36612878034251
30
0
41
1
10
35.2822598051334
20
-1.57142617480699
30
0
41
1
10
35.8717399161453
20
-1.86689538351655
30
0
41
1
10
36.0682554113913
20
-1.96331742427904
30
0
41
1
10
36.4616810906878
20
-2.15145589051272
30
0
41
1
10
36.6588245646848
20
-2.24326223851912
30
0
41
1
10
37.6435205735698
20
-2.68762059038349
30
0
41
1
10
38.4260906670996
20
-2.99560971760636
30
0
41
1
10
39.6084724730337
20
-3.36607934273192
30
0
41
1
10
40.001337879286
20
-3.47346317213757
30
0
41
1
10
40.5900881975045
20
-3.60870615239864
30
0
41
1
10
40.7862755597414
20
-3.64950168211101
30
0
41
1
10
41.1788424122919
20
-3.7222863610084
30
0
41
1
10
41.3749296573965
20
-3.75440284279534
30
0
41
1
10
41.5718935067519
20
-3.78172216777128
30
0
0
SPLINE
5
DD
100
AcDbEntity
8
1
62
256
6
ByLayer
370
18
48
1
60
0
100
AcDbSpline
70
4
71
3
72
12
73
8
40
0
40
0
40
0
40
0
40
0.250000000000001
40
0.250000000000001
40
0.500000000000002
40
0.500000000000002
40
1
40
1
40
1
40
1
41
1
10
41.8380816825884
20
1.59564271928514
30
0
41
1
10
41.831185346131
20
1.71114784614483
30
0
41
1
10
41.8344522851831
20
1.82479160621912
30
0
41
1
10
41.8512664179602
20
2.05019633527579
30
0
41
1
10
41.8650038160849
20
2.16192246901716
30
0
41
1
10
41.9155781140556
20
2.49538623516517
30
0
41
1
10
41.9615286444229
20
2.71545473943189
30
0
41
1
10
42.0127293043026
20
2.93456170165592
30
0
0
SPLINE
5
DE
100
AcDbEntity
8
1
62
256
6
ByLayer
370
18
48
1
60
0
100
AcDbSpline
70
4
71
3
72
8
73
4
40
0
40
0
40
0
40
0
40
1
40
1
40
1
40
1
41
1
10
41.6314544935714
20
-3.86916443018941
30
0
41
1
10
41.6088773370041
20
-3.84938004892808
30
0
41
1
10
41.5891527091686
20
-3.82027319598581
30
0
41
1
10
41.5718935067505
20
-3.78172216777264
30
0
0
SPLINE
5
DF
100
AcDbEntity
8
1
62
256
6
ByLayer
370
18
48
1
60
0
100
AcDbSpline
70
4
71
3
72
14
73
10
40
0
40
0
40
0
40
0
40
0.25
40
0.25
40
0.5
40
0.5
40
0.75
40
0.75
40
1
40
1
40
1
40
1
41
1
10
7.64927793070069
20
0.786677085864341
30
0
41
1
10
8.0525920839155
20
0.59647330353809
30
0
41
1
10
8.4583575966976
20
0.407252814063867
30
0
41
1
10
9.27400169513095
20
0.0298287829989192
30
0
41
1
10
9.68481188231439
20
-0.158787500880521
30
0
41
1
10
10.5021791428808
20
-0.531866720803919
30
0
41
1
10
10.9094754552796
20
-0.716674202616957
30
0
41
1
10
11.7211200752751
20
-1.08303952132968
30
0
41
1
10
12.1254692297634
20
-1.26459885059819
30
0
41
1
10
12.5282150508009
20
-1.44438707484815
30
0
0
SPLINE
5
E0
100
AcDbEntity
8
1
62
256
6
ByLayer
370
18
48
1
60
0
100
AcDbSpline
70
4
71
3
72
80
73
76
40
0
40
0
40
0
40
0
40
0.0181570639668623
40
0.0181570639668623
40
0.0363141279337245
40
0.0363141279337245
40
0.0726282558674496
40
0.0726282558674496
40
0.0907853198343121
40
0.0907853198343121
40
0.108942383801175
40
0.108942383801175
40
0.145256511734899
40
0.145256511734899
40
0.163413575701761
40
0.163413575701761
40
0.181570639668623
40
0.181570639668623
40
0.199727703635485
40
0.199727703635485
40
0.217884767602347
40
0.217884767602347
40
0.254198895536071
40
0.254198895536071
40
0.272355959502933
40
0.272355959502933
40
0.290513023469795
40
0.290513023469795
40
0.308670087436657
40
0.308670087436657
40
0.326827151403519
40
0.326827151403519
40
0.363141279337243
40
0.363141279337243
40
0.381298343304106
40
0.381298343304106
40
0.399455407270968
40
0.399455407270968
40
0.435769535204692
40
0.435769535204692
40
0.472083663138415
40
0.472083663138415
40
0.490240727105278
40
0.490240727105278
40
0.508397791072139
40
0.508397791072139
40
0.544711919005863
40
0.544711919005863
40
0.562868982972725
40
0.562868982972725
40
0.581026046939587
40
0.581026046939587
40
0.61734017487331
40
0.61734017487331
40
0.653654302807034
40
0.653654302807034
40
0.689968430740758
40
0.689968430740758
40
0.726282558674482
40
0.726282558674482
40
0.762596686608206
40
0.762596686608206
40
0.780753750575067
40
0.780753750575067
40
0.798910814541928
40
0.798910814541928
40
0.871539070409372
40
0.871539070409372
40
0.907853198343093
40
0.907853198343093
40
0.944167326276815
40
0.944167326276815
40
0.980481454210536
40
0.980481454210536
40
1
40
1
40
1
40
1
41
1
10
9.734039426907
20
3.73860488999034
30
0
41
1
10
9.8990673450007
20
3.73775507036083
30
0
41
1
10
10.0637975919735
20
3.73399099340935
30
0
41
1
10
10.3926637538672
20
3.71937342407995
30
0
41
1
10
10.5568489606205
20
3.70847623389847
30
0
41
1
10
11.0496954219581
20
3.66596226734799
30
0
41
1
10
11.3781789530476
20
3.62435424990656
30
0
41
1
10
11.8720026683597
20
3.54593072198824
30
0
41
1
10
12.0367137120525
20
3.51718722025933
30
0
41
1
10
12.365814118441
20
3.454035553652
30
0
41
1
10
12.5301583298326
20
3.41901046382742
30
0
41
1
10
13.0228474677766
20
3.30449818226578
30
0
41
1
10
13.3509520298197
20
3.21603999663711
30
0
41
1
10
13.8435917290645
20
3.06793281252013
30
0
41
1
10
14.0078490982464
20
3.01592804686334
30
0
41
1
10
14.3366374834851
20
2.90747001449134
30
0
41
1
10
14.5012490282298
20
2.85119478332311
30
0
41
1
10
14.8301737705037
20
2.73399647857695
30
0
41
1
10
14.9943431758855
20
2.67234254176941
30
0
41
1
10
15.3223664276949
20
2.54467929274026
30
0
41
1
10
15.4863377980203
20
2.47875252131908
30
0
41
1
10
15.9781025512035
20
2.27476981696907
30
0
41
1
10
16.3060246896374
20
2.13062112058463
30
0
41
1
10
16.7991650329542
20
1.90426260645452
30
0
41
1
10
16.9636857414304
20
1.82705227511019
30
0
41
1
10
17.2920556937289
20
1.66952499619845
30
0
41
1
10
17.4561450509326
20
1.58926735994294
30
0
41
1
10
17.7840335067922
20
1.42640728982042
30
0
41
1
10
17.9479435808863
20
1.34394945097185
30
0
41
1
10
18.2755606137671
20
1.17693898124585
30
0
41
1
10
18.4393831839199
20
1.09226638775874
30
0
41
1
10
18.9314131518953
20
0.834915361773881
30
0
41
1
10
19.2605681383672
20
0.659545046397511
30
0
41
1
10
19.7531871921913
20
0.394403071300672
30
0
41
1
10
19.9172741451162
20
0.305772487895496
30
0
41
1
10
20.2451745796053
20
0.127952893970445
30
0
41
1
10
20.4090496003414
20
0.0388801248064965
30
0
41
1
10
20.9005409683882
20
-0.228679302645475
30
0
41
1
10
21.2286347852763
20
-0.406398566993431
30
0
41
1
10
21.8865621998401
20
-0.758844525309911
30
0
41
1
10
22.2147987780795
20
-0.933264687335026
30
0
41
1
10
22.706478265588
20
-1.1899070128116
30
0
41
1
10
22.8703679953289
20
-1.27460801037776
30
0
41
1
10
23.1980787297784
20
-1.44174630990992
30
0
41
1
10
23.3622326026251
20
-1.52348021906388
30
0
41
1
10
23.8548013651838
20
-1.76532367708862
30
0
41
1
10
24.1839138776486
20
-1.9218881199468
30
0
41
1
10
24.6761919280221
20
-2.14592497105272
30
0
41
1
10
24.840275812215
20
-2.21868316302422
30
0
41
1
10
25.1680598352658
20
-2.36161607542354
30
0
41
1
10
25.3319655287619
20
-2.43125199744452
30
0
41
1
10
25.8237275600433
20
-2.63280323595265
30
0
41
1
10
26.1524355706821
20
-2.75829803011797
30
0
41
1
10
26.8097668289314
20
-2.99063291517317
30
0
41
1
10
27.1378474027445
20
-3.09594815070753
30
0
41
1
10
27.7933039912255
20
-3.28847254218351
30
0
41
1
10
28.1213413906945
20
-3.37255054657882
30
0
41
1
10
28.7782412587904
20
-3.51953915611739
30
0
41
1
10
29.1068835928909
20
-3.58165535852018
30
0
41
1
10
29.762631717417
20
-3.6800774954707
30
0
41
1
10
30.09033291396
20
-3.7178692239724
30
0
41
1
10
30.5822151223983
20
-3.75438453272892
30
0
41
1
10
30.7461749867362
20
-3.76339050006177
30
0
41
1
10
31.0745700022434
20
-3.77561330320401
30
0
41
1
10
31.2388734716062
20
-3.77889281007847
30
0
41
1
10
32.0592721739645
20
-3.77634231675793
30
0
41
1
10
32.7129747750182
20
-3.72206884139655
30
0
41
1
10
33.6981264646621
20
-3.57082692367189
30
0
41
1
10
34.0259259340925
20
-3.50711004113148
30
0
41
1
10
34.6809745730772
20
-3.35639351870648
30
0
41
1
10
35.0084740627972
20
-3.26974285010684
30
0
41
1
10
35.6637797367243
20
-3.07581933307605
30
0
41
1
10
35.9920480875535
20
-2.96854245234178
30
0
41
1
10
36.4956901633619
20
-2.78795905175002
30
0
41
1
10
36.6716448170858
20
-2.72212108708808
30
0
41
1
10
36.8475401850048
20
-2.65366750250303
30
0
0
SPLINE
5
E1
100
AcDbEntity
8
1
62
256
6
ByLayer
370
18
48
1
60
0
100
AcDbSpline
70
4
71
3
72
10
73
6
40
0
40
0
40
0
40
0
40
0.627302619376695
40
0.627302619376695
40
1
40
1
40
1
40
1
41
1
10
10.5100954506225
20
-1.56106196700176
30
0
41
1
10
10.5811864757719
20
-1.36158698842894
30
0
41
1
10
10.6732202903078
20
-1.16952636675254
30
0
41
1
10
10.8386661426886
20
-0.90575577940038
30
0
41
1
10
10.9044239809115
20
-0.816919184996181
30
0
41
1
10
10.9718614670371
20
-0.740456458273115
30
0
0
SPLINE
5
E2
100
AcDbEntity
8
1
62
256
6
ByLayer
370
13
48
1
60
0
100
AcDbSpline
70
4
71
3
72
80
73
76
40
0
40
0
40
0
40
0
40
0.0098097001379762
40
0.0277700785424055
40
0.0457304569468357
40
0.081651213755695
40
0.09063140295791
40
0.0996115921601248
40
0.117571970564554
40
0.12655215976677
40
0.135532348968984
40
0.153492727373414
40
0.162472916575629
40
0.171453105777844
40
0.189413484182273
40
0.198393673384488
40
0.207373862586703
40
0.225334240991133
40
0.234314430193348
40
0.243294619395563
40
0.261254997799993
40
0.270235187002207
40
0.279215376204422
40
0.297175754608852
40
0.306155943811067
40
0.315136133013283
40
0.333096511417711
40
0.342076700619926
40
0.351056889822142
40
0.369017268226571
40
0.386977646631001
40
0.404938025035431
40
0.44085878184429
40
0.449838971046505
40
0.45881916024872
40
0.476779538653149
40
0.485759727855365
40
0.49473991705758
40
0.512700295462009
40
0.530660673866439
40
0.548621052270868
40
0.584541809079728
40
0.593521998281943
40
0.602502187484157
40
0.620462565888587
40
0.629442755090802
40
0.638422944293017
40
0.656383322697447
40
0.665363511899662
40
0.674343701101877
40
0.692304079506306
40
0.701284268708521
40
0.710264457910736
40
0.728224836315166
40
0.737205025517381
40
0.746185214719596
40
0.764145593124025
40
0.77312578232624
40
0.782105971528455
40
0.800066349932885
40
0.8090465391351
40
0.818026728337314
40
0.835987106741744
40
0.844967295943959
40
0.853947485146174
40
0.871907863550604
40
0.889868241955034
40
0.907828620359463
40
0.943749377168323
40
0.952729566370538
40
0.961709755572753
40
0.979670133977182
40
0.988650323179397
40
0.997630512381612
40
1
40
1
40
1
40
1
41
1
10
31.2204652212128
20
-0.0457914159205757
30
0
41
1
10
31.1763697459183
20
-0.0358565858998077
30
0
41
1
10
31.0515414599352
20
-0.0077200209687476
30
0
41
1
10
30.8459880467698
20
0.0386732300143819
30
0
41
1
10
30.5230347297259
20
0.111297915313259
30
0
41
1
10
30.2405007655886
20
0.174885450716204
30
0
41
1
10
29.9983550490292
20
0.22923131404039
30
0
41
1
10
29.8368881185904
20
0.265171045211815
30
0
41
1
10
29.675430098613
20
0.301002699435713
30
0
41
1
10
29.5139799307553
20
0.336697316210405
30
0
41
1
10
29.3525125532539
20
0.372150291925721
30
0
41
1
10
29.1910545010885
20
0.407432219086502
30
0
41
1
10
29.0296045634058
20
0.442514740963077
30
0
41
1
10
28.8681374245792
20
0.477310462614554
30
0
41
1
10
28.7066796267773
20
0.511872432562882
30
0
41
1
10
28.5452298521554
20
0.546171384154491
30
0
41
1
10
28.3837627594902
20
0.580138735305951
30
0
41
1
10
28.2223048494295
20
0.613809955725714
30
0
41
1
10
28.0608548548564
20
0.647156423244496
30
0
41
1
10
27.8993875436394
20
0.680128432336943
30
0
41
1
10
27.7379294281856
20
0.712743870595546
30
0
41
1
10
27.5764793307385
20
0.744974893473056
30
0
41
1
10
27.415012039023
20
0.776790716466621
30
0
41
1
10
27.253554116809
20
0.808191635065242
30
0
41
1
10
27.0921043329497
20
0.839150655451789
30
0
41
1
10
26.9306373397687
20
0.869655828807652
30
0
41
1
10
26.7691796810699
20
0.899689544221019
30
0
41
1
10
26.6077299665991
20
0.929225161824434
30
0
41
1
10
26.4462627249669
20
0.958270098547303
30
0
41
1
10
26.2444278950545
20
0.993849540234947
30
0
41
1
10
26.0022379908301
20
1.03541289635251
30
0
41
1
10
25.6792844590419
20
1.08891982366833
30
0
41
1
10
25.3967502934476
20
1.13372193403353
30
0
41
1
10
25.1546046199539
20
1.17051972306265
30
0
41
1
10
24.9931378077467
20
1.19435589615955
30
0
41
1
10
24.8316800190945
20
1.21751837299718
30
0
41
1
10
24.6702300737295
20
1.23998576054191
30
0
41
1
10
24.5087627050662
20
1.26184110346065
30
0
41
1
10
24.3069278660187
20
1.28820048385052
30
0
41
1
10
24.0647380786575
20
1.31833492001451
30
0
41
1
10
23.7417846937427
20
1.35616270353327
30
0
41
1
10
23.4592506289149
20
1.38664607971393
30
0
41
1
10
23.2171049159395
20
1.41077455289806
30
0
41
1
10
23.055637995064
20
1.42608822466428
30
0
41
1
10
22.8941799873645
20
1.44058011321445
30
0
41
1
10
22.7327298330488
20
1.45423527164144
30
0
41
1
10
22.5712624840013
20
1.46720547793692
30
0
41
1
10
22.4098044597473
20
1.47932751848239
30
0
41
1
10
22.2483545056529
20
1.49058750591112
30
0
41
1
10
22.086887318697
20
1.50115255962882
30
0
41
1
10
21.9254294436614
20
1.51084600694168
30
0
41
1
10
21.7639795942635
20
1.51965514444851
30
0
41
1
10
21.6025124401967
20
1.52776190257205
30
0
41
1
10
21.4410545057913
20
1.53497658333708
30
0
41
1
10
21.2796045599687
20
1.54128765454118
30
0
41
1
10
21.1181373361325
20
1.54689229504873
30
0
41
1
10
20.9566793468218
20
1.55159008649966
30
0
41
1
10
20.7952293748326
20
1.55537350020478
30
0
41
1
10
20.6337621926504
20
1.5584516638998
30
0
41
1
10
20.4723043371755
20
1.56061384198085
30
0
41
1
10
20.310854540316
20
1.56185365562561
30
0
41
1
10
20.1493874985354
20
1.56239176777731
30
0
41
1
10
19.987929759296
20
1.56200759283394
30
0
41
1
10
19.8264799681094
20
1.56069593444764
30
0
41
1
10
19.6650126509248
20
1.558688362612
30
0
41
1
10
19.463177750477
20
1.55498605515516
30
0
41
1
10
19.2209878952319
20
1.5486740869147
30
0
41
1
10
18.8980345546359
20
1.53763667257024
30
0
41
1
10
18.6155005901232
20
1.52481133685373
30
0
41
1
10
18.3733549424846
20
1.51154914528851
30
0
41
1
10
18.2118881261968
20
1.50200946622419
30
0
41
1
10
18.0504303163856
20
1.49156992327991
30
0
41
1
10
17.8889803439071
20
1.48023402401958
30
0
41
1
10
17.7975955484996
20
1.47345967839809
30
0
41
1
10
17.7465775389436
20
1.46955805579699
30
0
41
1
10
17.7359264410286
20
1.46873830656756
30
0
0
SPLINE
5
E3
100
AcDbEntity
8
1
62
256
6
ByLayer
370
18
48
1
60
0
100
AcDbSpline
70
4
71
3
72
11
73
7
40
0
40
0
40
0
40
0
40
0.202835990244392
40
0.436906723529161
40
0.702480763480207
40
1
40
1
40
1
40
1
41
1
10
20.8602939342109
20
0.0418820590095379
30
0
41
1
10
20.7517763216656
20
0.0664301111059729
30
0
41
1
10
20.5185202458158
20
0.12671471134982
30
0
41
1
10
20.1453122719385
20
0.249405154265901
30
0
41
1
10
19.7236720805015
20
0.421675369828819
30
0
41
1
10
19.427350223929
20
0.568544376477689
30
0
41
1
10
19.2712040001911
20
0.653275519041784
30
0
0
SPLINE
5
E4
100
AcDbEntity
8
1
62
256
6
ByLayer
370
18
48
1
60
0
100
AcDbSpline
70
4
71
3
72
25
73
21
40
0
40
0
40
0
40
0
40
0.0701333841297843
40
0.127193845798186
40
0.166160571780227
40
0.202077771403695
40
0.276665385120349
40
0.33677704443165
40
0.412936588222056
40
0.501541450472203
40
0.569897194784297
40
0.622413768949134
40
0.656117783431297
40
0.700724222080487
40
0.760627226987988
40
0.812981514764784
40
0.853898390015333
40
0.902369220584287
40
0.963102403257289
40
1
40
1
40
1
40
1
41
1
10
21.9883848358475
20
-3.76163732496968
30
0
41
1
10
22.2067967630197
20
-3.76183651285101
30
0
41
1
10
22.6028979044537
20
-3.76234661748566
30
0
41
1
10
23.1204887008756
20
-3.76397195736499
30
0
41
1
10
23.5312587770727
20
-3.76466381891734
30
0
41
1
10
23.9965478032383
20
-3.76511822410524
30
0
41
1
10
24.5281042714319
20
-3.76520808517321
30
0
41
1
10
25.1848407035353
20
-3.7669226213996
30
0
41
1
10
25.8852700605217
20
-3.76878129483708
30
0
41
1
10
26.6113811395385
20
-3.76989225825616
30
0
41
1
10
27.2638398434292
20
-3.76985604349383
30
0
41
1
10
27.7452983934629
20
-3.77197329094992
30
0
41
1
10
28.1527885885801
20
-3.77210259105578
30
0
41
1
10
28.5832893346416
20
-3.77276296976223
30
0
41
1
10
29.0718794771944
20
-3.77412206992221
30
0
41
1
10
29.5489787985206
20
-3.77434105246289
30
0
41
1
10
29.9904691441121
20
-3.77564062696146
30
0
41
1
10
30.4580499795608
20
-3.77652573463953
30
0
41
1
10
30.9131216612887
20
-3.77702250004685
30
0
41
1
10
31.217199695953
20
-3.77791225124543
30
0
41
1
10
31.3321185777483
20
-3.77828569845883
30
0
0
SPLINE
5
E5
100
AcDbEntity
8
1
62
256
6
ByLayer
370
18
48
1
60
0
100
AcDbSpline
70
4
71
3
72
21
73
17
40
0
40
0
40
0
40
0
40
0.0420866721920599
40
0.0977906421120444
40
0.208992737564445
40
0.343469971432312
40
0.437049171016076
40
0.523835951360472
40
0.59195595045914
40
0.646311440442533
40
0.684095798142229
40
0.723843172442846
40
0.771623605493952
40
0.840036331716507
40
0.929760414559605
40
1
40
1
40
1
40
1
41
1
10
9.61306449021905
20
3.73881780437026
30
0
41
1
10
9.53275525783573
20
3.73849046416248
30
0
41
1
10
9.34610876800713
20
3.73786884575037
30
0
41
1
10
8.94683898821566
20
3.73745518366698
30
0
41
1
10
8.37122954553632
20
3.73758626084461
30
0
41
1
10
7.72321028145075
20
3.73638554622445
30
0
41
1
10
7.12184939444359
20
3.7343901841607
30
0
41
1
10
6.64722692231874
20
3.73431424805972
30
0
41
1
10
6.24752491693101
20
3.73370556837088
30
0
41
1
10
5.94141964364365
20
3.73339084460704
30
0
41
1
10
5.68950849571868
20
3.73319718991303
30
0
41
1
10
5.45015681121703
20
3.73286712019811
30
0
41
1
10
5.15231034023981
20
3.73178686353009
30
0
41
1
10
4.75901439295083
20
3.73097225241472
30
0
41
1
10
4.32279695126212
20
3.73021125868118
30
0
41
1
10
4.01726843560067
20
3.72970259837226
30
0
41
1
10
3.88311237136503
20
3.72948925086615
30
0
0
SPLINE
5
E6
100
AcDbEntity
8
1
62
256
6
ByLayer
370
18
48
1
60
0
100
AcDbSpline
70
4
71
2
72
6
73
3
40
0
40
0
40
0
40
1
40
1
40
1
41
1
10
41.5884933636093
20
0.379712905328944
30
0
41
1
10
41.3053943965221
20
0.487373843297178
30
0
41
1
10
41.0243602433193
20
0.65155861428255
30
0
0
SPLINE
5
E7
100
AcDbEntity
8
1
62
256
6
ByLayer
370
18
48
1
60
0
100
AcDbSpline
70
4
71
3
72
26
73
22
40
0
40
0
40
0
40
0
40
0.049202864818498
40
0.136282659603213
40
0.192438224860332
40
0.251040307705264
40
0.325102693894771
40
0.382963036526581
40
0.424777034379788
40
0.46252633703775
40
0.507008827413807
40
0.560789744900645
40
0.624804245986699
40
0.6937623261923
40
0.74619259253946
40
0.788920355220978
40
0.841324725339512
40
0.897766175570523
40
0.938182339871997
40
0.982030012187513
40
1
40
1
40
1
40
1
41
1
10
31.331239498069
20
3.77819693846899
30
0
41
1
10
31.1950550654307
20
3.77778318457635
30
0
41
1
10
30.8178447639385
20
3.77668767162086
30
0
41
1
10
30.285168952856
20
3.77665117891047
30
0
41
1
10
29.7264801101567
20
3.77456564720816
30
0
41
1
10
29.2038210017869
20
3.77427901030131
30
0
41
1
10
28.6764436437495
20
3.77305669507024
30
0
41
1
10
28.1955353863681
20
3.77207871788133
30
0
41
1
10
27.8151449631509
20
3.77205387015525
30
0
41
1
10
27.4717894880327
20
3.77074052360217
30
0
41
1
10
27.0953049718545
20
3.76999210354506
30
0
41
1
10
26.6461239080438
20
3.76982345754166
30
0
41
1
10
26.1291904391593
20
3.76892700230641
30
0
41
1
10
25.6159842256288
20
3.76842544471555
30
0
41
1
10
25.1617228898567
20
3.7668670669575
30
0
41
1
10
24.7532573396435
20
3.76557188435959
30
0
41
1
10
24.3337320643273
20
3.7653231700601
30
0
41
1
10
23.9204945483459
20
3.76501820572398
30
0
41
1
10
23.5312608600889
20
3.76467022221377
30
0
41
1
10
23.2484129387924
20
3.76418755343275
30
0
41
1
10
23.0773279154301
20
3.76375596087291
30
0
41
1
10
23.0275917134738
20
3.76362521715384
30
0
0
SPLINE
5
E8
100
AcDbEntity
8
1
62
256
6
ByLayer
370
18
48
1
60
0
100
AcDbSpline
70
4
71
3
72
20
73
16
40
0
40
0
40
0
40
0
40
0.0702335376548001
40
0.159949895053446
40
0.228356730787073
40
0.296250849786963
40
0.353658046976224
40
0.408008856830208
40
0.476122990644411
40
0.562902298452679
40
0.656473440657791
40
0.77302788498725
40
0.869560876540337
40
0.962185851430376
40
1
40
1
40
1
40
1
41
1
10
3.88311237136503
20
-3.72948925086618
30
0
41
1
10
4.01726843560064
20
-3.72970259837229
30
0
41
1
10
4.32279690972905
20
-3.73021499883862
30
0
41
1
10
4.75901456220245
20
-3.7309570108751
30
0
41
1
10
5.19073760116351
20
-3.73190796684759
30
0
41
1
10
5.56075514972116
20
-3.7331633460434
30
0
41
1
10
5.90392960324624
20
-3.73333929753457
30
0
41
1
10
6.24752487956926
20
-3.73371004036221
30
0
41
1
10
6.64722691632846
20
-3.73431185178404
30
0
41
1
10
7.12184949860878
20
-3.73439442749043
30
0
41
1
10
7.68899585083488
20
-3.73625531726398
30
0
41
1
10
8.27479712819087
20
-3.73749752332617
30
0
41
1
10
8.85871949199034
20
-3.73746702178329
30
0
41
1
10
9.29243625399005
20
-3.73765695564964
30
0
41
1
10
9.54139957686832
20
-3.73852988497015
30
0
41
1
10
9.61356212886412
20
-3.73882342109292
30
0
0
SPLINE
5
E9
100
AcDbEntity
8
1
62
256
6
ByLayer
370
18
48
1
60
0
100
AcDbSpline
70
4
71
3
72
11
73
7
40
0
40
0
40
0
40
0
40
0.202397538760764
40
0.436290518776347
40
0.702011992783689
40
1
40
1
40
1
40
1
41
1
10
31.20602629672
20
-0.042538130078583
30
0
41
1
10
31.3191588570702
20
-0.0680510712709577
30
0
41
1
10
31.5627807827643
20
-0.131247302071671
30
0
41
1
10
31.953977152455
20
-0.261597330895967
30
0
41
1
10
32.3971834618241
20
-0.446163509013331
30
0
41
1
10
32.7091921560843
20
-0.604900815175512
30
0
41
1
10
32.8738028283759
20
-0.696789317220862
30
0
0
LINE
5
7B
100
AcDbEntity
8
SK1
62
256
6
ByLayer
370
18
48
1
60
0
100
AcDbLine
10
-34.845299
20
4
30
0
11
-34.845299
21
-4
31
0
39
0
210
0
220
0
230
1
0
LINE
5
7D
100
AcDbEntity
8
SK1
62
256
6
ByLayer
370
18
48
1
60
0
100
AcDbLine
10
-36
20
2
30
0
11
-36
21
-2
31
0
39
0
210
0
220
0
230
1
0
LINE
5
7E
100
AcDbEntity
8
SK1
62
256
6
ByLayer
370
18
48
1
60
0
100
AcDbLine
10
0
20
-4
30
0
11
0
21
4
31
0
39
0
210
0
220
0
230
1
0
LINE
5
7F
100
AcDbEntity
8
1
62
256
6
ByLayer
370
13
48
1
60
0
100
AcDbLine
10
0.373984
20
3.913306
30
0
11
0.373984
21
-3.913306
31
0
39
0
210
0
220
0
230
1
0
LINE
5
80
100
AcDbEntity
8
1
62
256
6
ByLayer
370
18
48
1
60
0
100
AcDbLine
10
41.101344
20
-2.021495
30
0
11
42.395534
21
-0.982485
31
0
39
0
210
0
220
0
230
1
0
LINE
5
81
100
AcDbEntity
8
1
62
256
6
ByLayer
370
18
48
1
60
0
100
AcDbLine
10
0
20
-4
30
0
11
0
21
4
31
0
39
0
210
0
220
0
230
1
0
LINE
5
82
100
AcDbEntity
8
1
62
256
6
ByLayer
370
13
48
1
60
0
100
AcDbLine
10
0.749498
20
3.826613
30
0
11
0.749498
21
-3.826613
31
0
39
0
210
0
220
0
230
1
0
LINE
5
83
100
AcDbEntity
8
1
62
256
6
ByLayer
370
18
48
1
60
0
100
AcDbLine
10
42.395534
20
-0.982485
30
0
11
42.400816
21
-0.947958
31
0
39
0
210
0
220
0
230
1
0
LINE
5
84
100
AcDbEntity
8
80
62
256
6
ByLayer
370
18
48
1
60
0
100
AcDbLine
10
0
20
0
30
0
11
-5
21
0
31
0
39
0
210
0
220
0
230
1
0
LINE
5
85
100
AcDbEntity
8
4
62
256
6
ByLayer
370
18
48
0.05
60
0
100
AcDbLine
10
43
20
0
30
0
11
0
21
0
31
0
39
0
210
0
220
0
230
1
0
LINE
5
87
100
AcDbEntity
8
SK4
62
256
6
ByLayer
370
18
48
0.05
60
0
100
AcDbLine
10
48
20
0
30
0
11
-41
21
0
31
0
39
0
210
0
220
0
230
1
0
LINE
5
89
100
AcDbEntity
8
SK1
62
256
6
ByLayer
370
18
48
1
60
0
100
AcDbLine
10
-36
20
-2
30
0
11
-34.845299
21
-4
31
0
39
0
210
0
220
0
230
1
0
LINE
5
8A
100
AcDbEntity
8
SK1
62
256
6
ByLayer
370
18
48
1
60
0
100
AcDbLine
10
-34.845299
20
4
30
0
11
-36
21
2
31
0
39
0
210
0
220
0
230
1
0
LINE
5
8B
100
AcDbEntity
8
SK1
62
256
6
ByLayer
370
18
48
1
60
0
100
AcDbLine
10
-34.845299
20
-4
30
0
11
0
21
-4
31
0
39
0
210
0
220
0
230
1
0
LINE
5
8C
100
AcDbEntity
8
SK1
62
256
6
ByLayer
370
18
48
1
60
0
100
AcDbLine
10
0
20
4
30
0
11
-34.845299
21
4
31
0
39
0
210
0
220
0
230
1
0
LINE
5
8D
100
AcDbEntity
8
1
62
256
6
ByLayer
370
18
48
1
60
0
100
AcDbLine
10
0.749498
20
-3.826613
30
0
11
3.441585
21
-3.831459
31
0
39
0
210
0
220
0
230
1
0
LINE
5
8E
100
AcDbEntity
8
1
62
256
6
ByLayer
370
18
48
1
60
0
100
AcDbLine
10
20.743532
20
-3.862603
30
0
11
21.532346
21
-3.864022
31
0
39
0
210
0
220
0
230
1
0
LINE
5
8F
100
AcDbEntity
8
1
62
256
6
ByLayer
370
18
48
1
60
0
100
AcDbLine
10
21.532346
20
3.864022
30
0
11
20.743528
21
3.862603
31
0
39
0
210
0
220
0
230
1
0
LINE
5
90
100
AcDbEntity
8
1
62
256
6
ByLayer
370
18
48
1
60
0
100
AcDbLine
10
3.441585
20
3.831459
30
0
11
0.749498
21
3.826613
31
0
39
0
210
0
220
0
230
1
0
LINE
5
91
100
AcDbEntity
8
81
62
256
6
ByLayer
370
18
48
1
60
0
100
AcDbLine
10
43
20
0
30
0
11
48
21
0
31
0
39
0
210
0
220
0
230
1
0
LINE
5
92
100
AcDbEntity
8
SK2
62
256
6
ByLayer
370
13
48
1
60
0
100
AcDbLine
10
-44.625163
20
-4
30
0
11
-44.625163
21
33.117107
31
0
39
0
210
0
220
0
230
1
0
LINE
5
94
100
AcDbEntity
8
SK2
62
256
6
ByLayer
370
13
48
1
60
0
100
AcDbLine
10
-37.5875
20
4
30
0
11
-46.625163
21
4
31
0
39
0
210
0
220
0
230
1
0
LINE
5
95
100
AcDbEntity
8
SK2
62
256
6
ByLayer
370
13
48
1
60
0
100
AcDbLine
10
-37.5875
20
-4
30
0
11
-46.625163
21
-4
31
0
39
0
210
0
220
0
230
1
0
LINE
5
96
100
AcDbEntity
8
1
62
256
6
ByLayer
370
18
48
1
60
1
100
AcDbLine
10
-44.625163
20
4
30
0
11
-44.164379
21
0.500002
31
0
39
0
210
0
220
0
230
1
0
LINE
5
97
100
AcDbEntity
8
1
62
256
6
ByLayer
370
18
48
1
60
1
100
AcDbLine
10
-44.164379
20
0.500002
30
0
11
-45.085946
21
0.499998
31
0
39
0
210
0
220
0
230
1
0
LINE
5
98
100
AcDbEntity
8
1
62
256
6
ByLayer
370
18
48
1
60
1
100
AcDbLine
10
-45.085946
20
0.499998
30
0
11
-44.625163
21
4
31
0
39
0
210
0
220
0
230
1
0
LINE
5
99
100
AcDbEntity
8
1
62
256
6
ByLayer
370
18
48
1
60
1
100
AcDbLine
10
-44.625163
20
-4
30
0
11
-45.085946
21
-0.500002
31
0
39
0
210
0
220
0
230
1
0
LINE
5
9A
100
AcDbEntity
8
1
62
256
6
ByLayer
370
18
48
1
60
1
100
AcDbLine
10
-45.085946
20
-0.500002
30
0
11
-44.164379
21
-0.499998
31
0
39
0
210
0
220
0
230
1
0
LINE
5
9B
100
AcDbEntity
8
1
62
256
6
ByLayer
370
18
48
1
60
1
100
AcDbLine
10
-44.164379
20
-0.499998
30
0
11
-44.625163
21
-4
31
0
39
0
210
0
220
0
230
1
0
LINE
5
9C
100
AcDbEntity
8
2
62
256
6
ByLayer
370
13
48
1
60
0
100
AcDbLine
10
55.083343
20
-3.9
30
0
11
55.083343
21
31.610193
31
0
39
0
210
0
220
0
230
1
0
LINE
5
9E
100
AcDbEntity
8
2
62
256
6
ByLayer
370
13
48
1
60
0
100
AcDbLine
10
43.1074
20
3.9
30
0
11
57.083343
21
3.9
31
0
39
0
210
0
220
0
230
1
0
LINE
5
9F
100
AcDbEntity
8
2
62
256
6
ByLayer
370
13
48
1
60
0
100
AcDbLine
10
43.1074
20
-3.9
30
0
11
57.083343
21
-3.9
31
0
39
0
210
0
220
0
230
1
0
LINE
5
A0
100
AcDbEntity
8
1
62
256
6
ByLayer
370
18
48
1
60
1
100
AcDbLine
10
55.083343
20
3.9
30
0
11
55.544126
21
0.400002
31
0
39
0
210
0
220
0
230
1
0
LINE
5
A1
100
AcDbEntity
8
1
62
256
6
ByLayer
370
18
48
1
60
1
100
AcDbLine
10
55.544126
20
0.400002
30
0
11
54.622559
21
0.399998
31
0
39
0
210
0
220
0
230
1
0
LINE
5
A2
100
AcDbEntity
8
1
62
256
6
ByLayer
370
18
48
1
60
1
100
AcDbLine
10
54.622559
20
0.399998
30
0
11
55.083343
21
3.9
31
0
39
0
210
0
220
0
230
1
0
LINE
5
A3
100
AcDbEntity
8
1
62
256
6
ByLayer
370
18
48
1
60
1
100
AcDbLine
10
55.083343
20
-3.9
30
0
11
54.622559
21
-0.400002
31
0
39
0
210
0
220
0
230
1
0
LINE
5
A4
100
AcDbEntity
8
1
62
256
6
ByLayer
370
18
48
1
60
1
100
AcDbLine
10
54.622559
20
-0.400002
30
0
11
55.544126
21
-0.399998
31
0
39
0
210
0
220
0
230
1
0
LINE
5
A5
100
AcDbEntity
8
1
62
256
6
ByLayer
370
18
48
1
60
1
100
AcDbLine
10
55.544126
20
-0.399998
30
0
11
55.083343
21
-3.9
31
0
39
0
210
0
220
0
230
1
0
LINE
5
F0
100
AcDbEntity
8
1
62
256
6
ByLayer
370
18
48
1
60
1
100
AcDbLine
10
-44.625163
20
4
30
0
11
-44.164379
21
0.500002
31
0
39
0
210
0
220
0
230
1
0
LINE
5
F1
100
AcDbEntity
8
1
62
256
6
ByLayer
370
18
48
1
60
1
100
AcDbLine
10
-44.164379
20
0.500002
30
0
11
-45.085946
21
0.499998
31
0
39
0
210
0
220
0
230
1
0
LINE
5
F2
100
AcDbEntity
8
1
62
256
6
ByLayer
370
18
48
1
60
1
100
AcDbLine
10
-45.085946
20
0.499998
30
0
11
-44.625163
21
4
31
0
39
0
210
0
220
0
230
1
0
LINE
5
F4
100
AcDbEntity
8
1
62
256
6
ByLayer
370
18
48
1
60
1
100
AcDbLine
10
-44.625163
20
-4
30
0
11
-45.085946
21
-0.500002
31
0
39
0
210
0
220
0
230
1
0
LINE
5
F5
100
AcDbEntity
8
1
62
256
6
ByLayer
370
18
48
1
60
1
100
AcDbLine
10
-45.085946
20
-0.500002
30
0
11
-44.164379
21
-0.499998
31
0
39
0
210
0
220
0
230
1
0
LINE
5
F6
100
AcDbEntity
8
1
62
256
6
ByLayer
370
18
48
1
60
1
100
AcDbLine
10
-44.164379
20
-0.499998
30
0
11
-44.625163
21
-4
31
0
39
0
210
0
220
0
230
1
0
LINE
5
FA
100
AcDbEntity
8
1
62
256
6
ByLayer
370
18
48
1
60
1
100
AcDbLine
10
55.083343
20
3.9
30
0
11
55.544126
21
0.400002
31
0
39
0
210
0
220
0
230
1
0
LINE
5
FB
100
AcDbEntity
8
1
62
256
6
ByLayer
370
18
48
1
60
1
100
AcDbLine
10
55.544126
20
0.400002
30
0
11
54.622559
21
0.399998
31
0
39
0
210
0
220
0
230
1
0
LINE
5
FC
100
AcDbEntity
8
1
62
256
6
ByLayer
370
18
48
1
60
1
100
AcDbLine
10
54.622559
20
0.399998
30
0
11
55.083343
21
3.9
31
0
39
0
210
0
220
0
230
1
0
LINE
5
FE
100
AcDbEntity
8
1
62
256
6
ByLayer
370
18
48
1
60
1
100
AcDbLine
10
55.083343
20
-3.9
30
0
11
54.622559
21
-0.400002
31
0
39
0
210
0
220
0
230
1
0
LINE
5
FF
100
AcDbEntity
8
1
62
256
6
ByLayer
370
18
48
1
60
1
100
AcDbLine
10
54.622559
20
-0.400002
30
0
11
55.544126
21
-0.399998
31
0
39
0
210
0
220
0
230
1
0
LINE
5
100
100
AcDbEntity
8
1
62
256
6
ByLayer
370
18
48
1
60
1
100
AcDbLine
10
55.544126
20
-0.399998
30
0
11
55.083343
21
-3.9
31
0
39
0
210
0
220
0
230
1
0
MTEXT
5
EA
100
AcDbEntity
8
SK6
62
256
6
ByLayer
370
13
48
1
60
0
100
AcDbMText
10
-25.04646
20
36.440328
30
0
210
0
220
0
230
1
1
\W0.7492;860.1-0780-028A0-PM P1BM
40
3.5
41
0
44
1.084337
50
0
71
7
72
5
7
iso_b_vert
0
MTEXT
5
EE
100
AcDbEntity
8
SK2
62
256
6
ByLayer
370
18
48
1
60
0
100
AcDbMText
10
-46.189796
20
17.409024
30
0
210
0
220
0
230
1
1
%%c
40
3.5
41
0
44
1.084337
50
90
71
7
72
5
7
iso_b_vert
0
MTEXT
5
EF
100
AcDbEntity
8
SK2
62
256
6
ByLayer
370
18
48
1
60
0
100
AcDbMText
10
-46.189796
20
22.63168
30
0
210
0
220
0
230
1
1
\W0.7317;8,000
40
3.5
41
0
44
1.084337
50
90
71
7
72
5
7
iso_b_vert
0
MTEXT
5
F8
100
AcDbEntity
8
2
62
256
6
ByLayer
370
18
48
1
60
0
100
AcDbMText
10
53.518709
20
15.90211
30
0
210
0
220
0
230
1
1
%%c
40
3.5
41
0
44
1.084337
50
90
71
7
72
5
7
iso_b_vert
0
MTEXT
5
F9
100
AcDbEntity
8
2
62
256
6
ByLayer
370
18
48
1
60
0
100
AcDbMText
10
53.518709
20
21.124766
30
0
210
0
220
0
230
1
1
\W0.7317;7,800
40
3.5
41
0
44
1.084337
50
90
71
7
72
5
7
iso_b_vert
0
HATCH
5
F3
100
AcDbEntity
8
SK2
62
256
6
ByLayer
370
13
48
1
60
0
100
AcDbHatch
10
0
20
0
30
0
210
0
220
0
230
1
2
ANSI31
70
0
71
0
91
1
92
5
93
3
72
1
10
-44.6251625675374
20
4
11
-44.1643788259847
21
0.500001692553184
72
1
10
-44.1643788259847
20
0.500001692553184
11
-45.0859463090902
21
0.499998307446816
72
1
10
-45.0859463090902
20
0.499998307446816
11
-44.6251625675374
21
4
97
0
75
0
76
1
52
0
41
0.0062
77
0
78
1
53
45
43
0
44
0
45
-0.0139193969876572
46
0.0139193969876572
79
0
47
0
98
1
10
0
20
0
0
HATCH
5
F7
100
AcDbEntity
8
SK2
62
256
6
ByLayer
370
13
48
1
60
0
100
AcDbHatch
10
0
20
0
30
0
210
0
220
0
230
1
2
ANSI31
70
0
71
0
91
1
92
5
93
3
72
1
10
-44.6251625675374
20
-4
11
-45.0859463090902
21
-0.500001692553184
72
1
10
-45.0859463090902
20
-0.500001692553184
11
-44.1643788259847
21
-0.499998307446816
72
1
10
-44.1643788259847
20
-0.499998307446816
11
-44.6251625675374
21
-4
97
0
75
0
76
1
52
0
41
0.0062
77
0
78
1
53
45
43
0
44
0
45
-0.0139193969876572
46
0.0139193969876572
79
0
47
0
98
1
10
0
20
0
0
HATCH
5
FD
100
AcDbEntity
8
2
62
256
6
ByLayer
370
13
48
1
60
0
100
AcDbHatch
10
0
20
0
30
0
210
0
220
0
230
1
2
ANSI31
70
0
71
0
91
1
92
5
93
3
72
1
10
55.083342615295
20
3.90000000000001
11
55.5441263568478
21
0.40000169255319
72
1
10
55.5441263568478
20
0.40000169255319
11
54.6225588737423
21
0.399998307446822
72
1
10
54.6225588737423
20
0.399998307446822
11
55.083342615295
21
3.90000000000001
97
0
75
0
76
1
52
0
41
0.0062
77
0
78
1
53
45
43
0
44
0
45
-0.0139193969876572
46
0.0139193969876572
79
0
47
0
98
1
10
0
20
0
0
HATCH
5
101
100
AcDbEntity
8
2
62
256
6
ByLayer
370
13
48
1
60
0
100
AcDbHatch
10
0
20
0
30
0
210
0
220
0
230
1
2
ANSI31
70
0
71
0
91
1
92
5
93
3
72
1
10
55.083342615295
20
-3.89999999999998
11
54.6225588737423
21
-0.400001692553161
72
1
10
54.6225588737423
20
-0.400001692553161
11
55.5441263568478
21
-0.399998307446793
72
1
10
55.5441263568478
20
-0.399998307446793
11
55.083342615295
21
-3.89999999999998
97
0
75
0
76
1
52
0
41
0.0062
77
0
78
1
53
45
43
0
44
0
45
-0.0139193969876572
46
0.0139193969876572
79
0
47
0
98
1
10
0
20
0
0
DIMENSION
5
103
100
AcDbEntity
8
2
62
256
6
ByLayer
370
13
48
1
60
0
100
AcDbDimension
2
_U0
10
41.5199
20
-14.113398
30
0
11
20.75995
21
-14.113398
31
0
70
32
71
1
72
1
41
1
210
0
220
0
230
1
3
Standard
100
AcDbAlignedDimension
13
0
23
0
33
0
14
41.5199
24
-3.9
34
0
50
0
100
AcDbRotatedDimension
1001
ACAD
1000
DSTYLE
1002
{
1070
   371
1070
    13
1070
   372
1070
    13
1070
   170
1070
     0
1070
   144
1040
1.0
1070
   277
1070
     2
1070
   278
1070
    44
1070
   146
1040
1.0
1070
   345
1005
16
1070
   347
1005
16
1070
   346
1005
16
1070
   344
1005
0
1070
   343
1005
0
1070
   172
1070
     1
1070
    76
1070
     0
1070
    75
1070
     0
1070
   282
1070
     0
1070
   281
1070
     0
1070
    71
1070
     0
1070
    74
1070
     0
1070
   279
1070
     0
1070
   173
1070
     1
1070
   340
1005
EB
1070
   271
1070
     2
1070
   272
1070
     2
1070
    77
1070
     1
1070
    73
1070
     1
1070
   171
1070
     3
1070
   274
1070
     4
1070
   177
1070
    35
1070
   176
1070
    35
1070
   178
1070
    35
1070
    48
1040
-0.1
1070
    41
1040
3.5
1070
   147
1040
1.75
1070
    42
1040
1.5875
1070
    44
1040
2.0
1070
   140
1040
3.5
1002
}
1001
ACAD_DSTYLE_DIM_LINETYPE
1070
   380
1005
16
1001
ACAD_DSTYLE_DIM_EXT1_LINETYPE
1070
   381
1005
16
1001
ACAD_DSTYLE_DIM_EXT2_LINETYPE
1070
   382
1005
16
0
DIMENSION
5
11C
100
AcDbEntity
8
SK2
62
256
6
ByLayer
370
13
48
1
60
0
100
AcDbDimension
2
_U1
10
43
20
-32.692985
30
0
11
3.5
21
-32.692985
31
0
70
32
71
1
72
1
41
1
210
0
220
0
230
1
3
Standard
100
AcDbAlignedDimension
13
-36
23
-4
33
0
14
43
24
0
34
0
50
0
100
AcDbRotatedDimension
1001
ACAD
1000
DSTYLE
1002
{
1070
   371
1070
    13
1070
   372
1070
    13
1070
   170
1070
     0
1070
   144
1040
1.0
1070
   277
1070
     2
1070
   278
1070
    44
1070
   146
1040
1.0
1070
   345
1005
16
1070
   347
1005
16
1070
   346
1005
16
1070
   344
1005
0
1070
   343
1005
0
1070
   172
1070
     1
1070
    76
1070
     0
1070
    75
1070
     0
1070
   282
1070
     0
1070
   281
1070
     0
1070
    71
1070
     0
1070
    74
1070
     0
1070
   279
1070
     0
1070
   173
1070
     1
1070
   340
1005
EB
1070
   271
1070
     2
1070
   272
1070
     2
1070
    77
1070
     1
1070
    73
1070
     1
1070
   171
1070
     3
1070
   274
1070
     4
1070
   177
1070
    35
1070
   176
1070
    35
1070
   178
1070
    35
1070
    48
1040
-0.1
1070
    41
1040
3.5
1070
   147
1040
1.75
1070
    42
1040
1.5875
1070
    44
1040
2.0
1070
   140
1040
3.5
1002
}
1001
ACAD_DSTYLE_DIM_LINETYPE
1070
   380
1005
16
1001
ACAD_DSTYLE_DIM_EXT1_LINETYPE
1070
   381
1005
16
1001
ACAD_DSTYLE_DIM_EXT2_LINETYPE
1070
   382
1005
16
0
DIMENSION
5
134
100
AcDbEntity
8
SK2
62
256
6
ByLayer
370
13
48
1
60
0
100
AcDbDimension
2
_U2
10
43
20
15.509119
30
0
11
30.56
21
15.509119
31
0
70
32
71
1
72
1
41
1
210
0
220
0
230
1
3
Standard
100
AcDbAlignedDimension
13
18.12
23
3.9
33
0
14
43
24
0
34
0
50
0
100
AcDbRotatedDimension
1001
ACAD
1000
DSTYLE
1002
{
1070
   371
1070
    13
1070
   372
1070
    13
1070
   170
1070
     0
1070
   144
1040
1.0
1070
   277
1070
     2
1070
   278
1070
    44
1070
   146
1040
1.0
1070
   345
1005
16
1070
   347
1005
16
1070
   346
1005
16
1070
   344
1005
0
1070
   343
1005
0
1070
   172
1070
     1
1070
    76
1070
     0
1070
    75
1070
     0
1070
   282
1070
     0
1070
   281
1070
     0
1070
    71
1070
     0
1070
    74
1070
     0
1070
   279
1070
     0
1070
   173
1070
     1
1070
   340
1005
EB
1070
   271
1070
     2
1070
   272
1070
     2
1070
    77
1070
     1
1070
    73
1070
     1
1070
   171
1070
     3
1070
   274
1070
     4
1070
   177
1070
    35
1070
   176
1070
    35
1070
   178
1070
    35
1070
    48
1040
-0.1
1070
    41
1040
3.5
1070
   147
1040
1.75
1070
    42
1040
1.5875
1070
    44
1040
2.0
1070
   140
1040
3.5
1002
}
1001
ACAD_DSTYLE_DIM_LINETYPE
1070
   380
1005
16
1001
ACAD_DSTYLE_DIM_EXT1_LINETYPE
1070
   381
1005
16
1001
ACAD_DSTYLE_DIM_EXT2_LINETYPE
1070
   382
1005
16
0
DIMENSION
5
14C
100
AcDbEntity
8
SK2
62
256
6
ByLayer
370
13
48
1
60
0
100
AcDbDimension
2
_U3
10
41.5199
20
-16.702503
30
0
11
60.333333
21
-16.702503
31
0
70
32
71
1
72
1
41
1
210
0
220
0
230
1
3
Standard
100
AcDbAlignedDimension
13
43
23
0
33
0
14
41.5199
24
-3.9
34
0
50
0
100
AcDbRotatedDimension
1001
ACAD
1000
DSTYLE
1002
{
1070
   371
1070
    13
1070
   372
1070
    13
1070
   170
1070
     0
1070
   144
1040
1.0
1070
   277
1070
     2
1070
   278
1070
    44
1070
   146
1040
1.0
1070
   345
1005
16
1070
   347
1005
16
1070
   346
1005
16
1070
   344
1005
0
1070
   343
1005
0
1070
   172
1070
     1
1070
    76
1070
     0
1070
    75
1070
     0
1070
   282
1070
     0
1070
   281
1070
     0
1070
    71
1070
     0
1070
    74
1070
     0
1070
   279
1070
     0
1070
   173
1070
     1
1070
   340
1005
EB
1070
   271
1070
     2
1070
   272
1070
     2
1070
    77
1070
     1
1070
    73
1070
     1
1070
   171
1070
     3
1070
   274
1070
     4
1070
   177
1070
    35
1070
   176
1070
    35
1070
   178
1070
    35
1070
    48
1040
-0.1
1070
    41
1040
3.5
1070
   147
1040
1.75
1070
    42
1040
1.5875
1070
    44
1040
2.0
1070
   140
1040
3.5
1002
}
1001
ACAD_DSTYLE_DIM_LINETYPE
1070
   380
1005
16
1001
ACAD_DSTYLE_DIM_EXT1_LINETYPE
1070
   381
1005
16
1001
ACAD_DSTYLE_DIM_EXT2_LINETYPE
1070
   382
1005
16
0
DIMENSION
5
166
100
AcDbEntity
8
SK2
62
256
6
ByLayer
370
13
48
1
60
0
100
AcDbDimension
2
_U4
10
41.5199
20
-22.343428
30
0
11
2.75995
21
-22.343428
31
0
70
32
71
1
72
1
41
1
210
0
220
0
230
1
3
Standard
100
AcDbAlignedDimension
13
-36
23
-4
33
0
14
41.5199
24
-3.9
34
0
50
0
100
AcDbRotatedDimension
1001
ACAD
1000
DSTYLE
1002
{
1070
   371
1070
    13
1070
   372
1070
    13
1070
   170
1070
     0
1070
   144
1040
1.0
1070
   277
1070
     2
1070
   278
1070
    44
1070
   146
1040
1.0
1070
   345
1005
16
1070
   347
1005
16
1070
   346
1005
16
1070
   344
1005
0
1070
   343
1005
0
1070
   172
1070
     1
1070
    76
1070
     0
1070
    75
1070
     0
1070
   282
1070
     0
1070
   281
1070
     0
1070
    71
1070
     0
1070
    74
1070
     0
1070
   279
1070
     0
1070
   173
1070
     1
1070
   340
1005
EB
1070
   271
1070
     2
1070
   272
1070
     2
1070
    77
1070
     1
1070
    73
1070
     1
1070
   171
1070
     3
1070
   274
1070
     4
1070
   177
1070
    35
1070
   176
1070
    35
1070
   178
1070
    35
1070
    48
1040
-0.1
1070
    41
1040
3.5
1070
   147
1040
1.75
1070
    42
1040
1.5875
1070
    44
1040
2.0
1070
   140
1040
3.5
1002
}
1001
ACAD_DSTYLE_DIM_LINETYPE
1070
   380
1005
16
1001
ACAD_DSTYLE_DIM_EXT1_LINETYPE
1070
   381
1005
16
1001
ACAD_DSTYLE_DIM_EXT2_LINETYPE
1070
   382
1005
16
0
ENDSEC
0
SECTION
2
OBJECTS
0
DICTIONARY
5
1ee
330
0
100
AcDbDictionary
280
0
281
1
3
ACAD_GROUP
350
1ef
3
ACAD_MLINESTYLE
350
1f0
0
DICTIONARY
5
1ef
330
0
100
AcDbDictionary
280
0
281
1
0
DICTIONARY
5
1f0
330
0
100
AcDbDictionary
280
0
281
1
3
Standard
350
18
0
MLINESTYLE
5
18
330
1f0
100
AcDbMlineStyle
2
Standard
70
0
3

62
256
51
90
52
90
71
2
49
-0.5
62
256
6
ByLayer
49
0.5
62
256
6
ByLayer
0
RASTERVARIABLES
5
1dc
330

100
AcDbRasterVariables
90
0
70
1
71
1
72
1
0
ENDSEC
0
EOF
