0
SECTION
2
HEADER
9
$ACADVER
1
AC1015
9
$DWGCODEPAGE
3
ANSI_1252
9
$HANDSEED
5
1fa
9
$ANGBASE
50
0
9
$ANGDIR
70
0
9
$ATTMODE
70
1
9
$AUNITS
70
0
9
$AUPREC
70
0
9
$CECOLOR
62
256
9
$CELTSCALE
40
1
9
$CELTYPE
6
ByLayer
9
$CELWEIGHT
370
18
9
$CLAYER
8
0
9
$CMLJUST
70
0
9
$CMLSCALE
40
1
9
$CMLSTYLE
2
Standard
9
$DIMSTYLE
2
Standard
9
$TEXTSIZE
40
0.2
9
$TEXTSTYLE
7
Standard
9
$LUNITS
70
2
9
$LUPREC
70
4
9
$EXTNAMES
290
1
9
$INSUNITS
70
4
9
$LTSCALE
40
1
9
$LWDISPLAY
290
1
9
$PDMODE
70
0
9
$PDSIZE
40
0
9
$PLINEGEN
70
0
0
ENDSEC
0
SECTION
2
CLASSES
0
CLASS
1
RASTERVARIABLES
2
AcDbRasterVariables
3
ISM
90
0
280
0
281
0
0
ENDSEC
0
SECTION
2
TABLES
0
TABLE
2
VPORT
5
1f0
100
AcDbSymbolTable
0
VPORT
5
1
100
AcDbSymbolTableRecord
100
AcDbViewportTableRecord
2
*Active
70
0
10
0
20
0
11
1
21
1
12
-1
22
1
13
0
23
0
14
0.5
24
0.5
15
10
25
10
16
0
26
0
36
1
17
0
27
0
37
0
0
ENDTAB
0
TABLE
2
LTYPE
5
1f1
100
AcDbSymbolTable
0
LTYPE
5
14
100
AcDbSymbolTableRecord
100
AcDbLinetypeTableRecord
70
0
2
ByBlock
3

72
65
73
0
40
0
0
LTYPE
5
15
100
AcDbSymbolTableRecord
100
AcDbLinetypeTableRecord
70
0
2
ByLayer
3

72
65
73
0
40
0
0
LTYPE
5
16
100
AcDbSymbolTableRecord
100
AcDbLinetypeTableRecord
70
0
2
Continuous
3
Solid line
72
65
73
0
40
0
0
LTYPE
5
6E
100
AcDbSymbolTableRecord
100
AcDbLinetypeTableRecord
70
0
2
CENTER
3
____ _ ____ _ ____ _ ____
72
65
73
4
40
47.5
49
22
74
0
49
-8.5
74
0
49
8.5
74
0
49
-8.5
74
0
0
LTYPE
5
6F
100
AcDbSymbolTableRecord
100
AcDbLinetypeTableRecord
70
0
2
DASHED
3
__ __ __ __ __ __ __ __ __
72
65
73
2
40
25.72
49
12.86
74
0
49
-12.86
74
0
0
ENDTAB
0
TABLE
2
LAYER
5
1f2
100
AcDbSymbolTable
0
LAYER
5
10
100
AcDbSymbolTableRecord
100
AcDbLayerTableRecord
2
0
70
0
62
7
6
Continuous
290
1
370
-3
390
0
0
LAYER
5
71
100
AcDbSymbolTableRecord
100
AcDbLayerTableRecord
2
80
70
0
62
-6
6
Continuous
290
1
370
-3
390
0
0
LAYER
5
73
100
AcDbSymbolTableRecord
100
AcDbLayerTableRecord
2
81
70
0
62
-3
6
Continuous
290
1
370
-3
390
0
0
LAYER
5
75
100
AcDbSymbolTableRecord
100
AcDbLayerTableRecord
2
1
70
0
62
4
6
Continuous
290
1
370
-3
390
0
0
LAYER
5
87
100
AcDbSymbolTableRecord
100
AcDbLayerTableRecord
2
4
70
0
62
-2
6
CENTER
290
1
370
-3
390
0
0
LAYER
5
9C
100
AcDbSymbolTableRecord
100
AcDbLayerTableRecord
2
2
70
0
62
7
6
Continuous
290
1
370
-3
390
0
0
LAYER
5
105
100
AcDbSymbolTableRecord
100
AcDbLayerTableRecord
2
Defpoints
70
0
62
7
6
Continuous
290
0
370
-3
390
0
0
LAYER
5
1dc
100
AcDbSymbolTableRecord
100
AcDbLayerTableRecord
2
SK1
70
0
62
4
6
Continuous
290
1
370
-3
390
0
0
LAYER
5
1dd
100
AcDbSymbolTableRecord
100
AcDbLayerTableRecord
2
SK4
70
0
62
2
6
CENTER
290
1
370
-3
390
0
0
LAYER
5
1de
100
AcDbSymbolTableRecord
100
AcDbLayerTableRecord
2
SK2
70
0
62
7
6
Continuous
290
1
370
-3
390
0
0
LAYER
5
1df
100
AcDbSymbolTableRecord
100
AcDbLayerTableRecord
2
SK6
70
0
62
5
6
Continuous
290
1
370
-3
390
0
0
ENDTAB
0
TABLE
2
STYLE
5
1f3
100
AcDbSymbolTable
0
STYLE
5
11
100
AcDbSymbolTableRecord
100
AcDbTextStyleTableRecord
2
Standard
3
txt
70
0
71
0
40
0
41
1
42
0
50
0
0
STYLE
5
EA
100
AcDbSymbolTableRecord
100
AcDbTextStyleTableRecord
2
iso_b_vert
3
simplex.shx
70
0
71
0
40
0
41
1
42
0
50
0
0
STYLE
5
EB
100
AcDbSymbolTableRecord
100
AcDbTextStyleTableRecord
2
DWGDirectTextStyle
3
simplex
70
0
71
0
40
0
41
1
42
0
50
0
0
ENDTAB
0
TABLE
2
DIMSTYLE
5
1f4
100
AcDbSymbolTable
100
AcDbDimStyleTable
0
DIMSTYLE
105
27
100
AcDbSymbolTableRecord
100
AcDbDimStyleTableRecord
2
Standard
70
0
3
<>
41
0.18
42
0.0625
44
0.18
140
0.18
147
0.09
73
0
74
0
77
1
271
2
275
0
278
52
280
0
340
11
0
ENDTAB
0
TABLE
2
VIEW
5
1f5
100
AcDbSymbolTable
0
ENDTAB
0
TABLE
2
UCS
5
1f6
100
AcDbSymbolTable
0
ENDTAB
0
TABLE
2
APPID
5
1f7
100
AcDbSymbolTable
0
APPID
5
12
100
AcDbSymbolTableRecord
100
AcDbRegAppTableRecord
2
ACAD
70
0
0
APPID
5
101
100
AcDbSymbolTableRecord
100
AcDbRegAppTableRecord
2
ACAD_DSTYLE_DIMBREAK
70
0
0
APPID
5
19B
100
AcDbSymbolTableRecord
100
AcDbRegAppTableRecord
2
ACAD_DSTYLE_DIM_LINETYPE
70
0
0
APPID
5
19C
100
AcDbSymbolTableRecord
100
AcDbRegAppTableRecord
2
ACAD_DSTYLE_DIM_EXT1_LINETYPE
70
0
0
APPID
5
19D
100
AcDbSymbolTableRecord
100
AcDbRegAppTableRecord
2
ACAD_DSTYLE_DIM_EXT2_LINETYPE
70
0
0
APPID
5
1D8
100
AcDbSymbolTableRecord
100
AcDbRegAppTableRecord
2
ACAD_MLEADERVER
70
0
0
ENDTAB
0
TABLE
2
BLOCK_RECORD
5
1f8
100
AcDbSymbolTable
0
BLOCK_RECORD
5
1F
100
AcDbSymbolTableRecord
100
AcDbBlockTableRecord
2
*Model_Space
340
0
70
0
0
BLOCK_RECORD
5
1B
100
AcDbSymbolTableRecord
100
AcDbBlockTableRecord
2
*Paper_Space
340
0
70
0
0
BLOCK_RECORD
5
23
100
AcDbSymbolTableRecord
100
AcDbBlockTableRecord
2
*Paper_Space0
340
0
70
0
0
BLOCK_RECORD
5
106
100
AcDbSymbolTableRecord
100
AcDbBlockTableRecord
2
*D1
340
0
70
0
0
BLOCK_RECORD
5
112
100
AcDbSymbolTableRecord
100
AcDbBlockTableRecord
2
_U0
340
0
70
0
0
BLOCK_RECORD
5
11E
100
AcDbSymbolTableRecord
100
AcDbBlockTableRecord
2
*D3
340
0
70
0
0
BLOCK_RECORD
5
12A
100
AcDbSymbolTableRecord
100
AcDbBlockTableRecord
2
_U1
340
0
70
0
0
BLOCK_RECORD
5
136
100
AcDbSymbolTableRecord
100
AcDbBlockTableRecord
2
*D5
340
0
70
0
0
BLOCK_RECORD
5
142
100
AcDbSymbolTableRecord
100
AcDbBlockTableRecord
2
_U2
340
0
70
0
0
BLOCK_RECORD
5
14E
100
AcDbSymbolTableRecord
100
AcDbBlockTableRecord
2
*D7
340
0
70
0
0
BLOCK_RECORD
5
15C
100
AcDbSymbolTableRecord
100
AcDbBlockTableRecord
2
_U3
340
0
70
0
0
BLOCK_RECORD
5
168
100
AcDbSymbolTableRecord
100
AcDbBlockTableRecord
2
*D9
340
0
70
0
0
BLOCK_RECORD
5
174
100
AcDbSymbolTableRecord
100
AcDbBlockTableRecord
2
_U4
340
0
70
0
0
ENDTAB
0
ENDSEC
0
SECTION
2
BLOCKS
0
BLOCK
5
20
100
AcDbEntity
8
0
100
AcDbBlockBegin
2
*Model_Space
70
0
10
0
20
0
30
0
3
*Model_Space
0
ENDBLK
5
21
100
AcDbEntity
8
0
100
AcDbBlockEnd
0
BLOCK
5
1C
100
AcDbEntity
8
0
100
AcDbBlockBegin
2
*Paper_Space
70
0
10
0
20
0
30
0
3
*Paper_Space
0
ENDBLK
5
1D
100
AcDbEntity
8
0
100
AcDbBlockEnd
0
BLOCK
5
24
100
AcDbEntity
8
0
100
AcDbBlockBegin
2
*Paper_Space0
70
0
10
0
20
0
30
0
3
*Paper_Space0
0
ENDBLK
5
25
100
AcDbEntity
8
0
100
AcDbBlockEnd
0
BLOCK
5
107
100
AcDbEntity
8
0
100
AcDbBlockBegin
2
*D1
70
1
10
0
20
0
30
0
3
*D1
0
LINE
5
109
100
AcDbEntity
8
0
62
256
6
ByLayer
370
-2
48
1
60
0
100
AcDbLine
10
0
20
-1.5875
30
0
11
0
21
-16.313398
31
0
39
0
210
0
220
0
230
1
0
LINE
5
10A
100
AcDbEntity
8
0
62
256
6
ByLayer
370
-2
48
1
60
0
100
AcDbLine
10
47.4174
20
-5.6875
30
0
11
47.4174
21
-16.313398
31
0
39
0
210
0
220
0
230
1
0
LINE
5
10B
100
AcDbEntity
8
0
62
256
6
ByLayer
370
-2
48
1
60
0
100
AcDbLine
10
3.5
20
-14.313398
30
0
11
43.9174
21
-14.313398
31
0
39
0
210
0
220
0
230
1
0
SOLID
5
10C
100
AcDbEntity
8
0
62
256
6
ByLayer
370
-1
48
1
60
0
100
AcDbTrace
10
3.5
20
-13.730065
30
0
11
3.5
21
-14.896732
31
0
12
0
22
-14.313398
32
0
13
0
23
-14.313398
33
0
39
0
210
0
220
0
230
1
0
SOLID
5
10D
100
AcDbEntity
8
0
62
256
6
ByLayer
370
-1
48
1
60
0
100
AcDbTrace
10
43.9174
20
-14.896732
30
0
11
43.9174
21
-13.730065
31
0
12
47.4174
22
-14.313398
32
0
13
47.4174
23
-14.313398
33
0
39
0
210
0
220
0
230
1
0
MTEXT
5
10E
100
AcDbEntity
8
0
62
256
6
ByLayer
370
18
48
1
60
0
100
AcDbMText
10
23.7087
20
-7.313398
30
0
210
0
220
0
230
1
1
\A1;47.42
40
3.5
41
0
44
1
50
0
71
5
72
5
7
iso_b_vert
0
POINT
5
10F
100
AcDbEntity
8
Defpoints
62
0
6
ByLayer
370
-1
48
1
60
0
100
AcDbPoint
10
0
20
0
30
0
39
0
210
0
220
0
230
1
50
360
0
POINT
5
110
100
AcDbEntity
8
Defpoints
62
0
6
ByLayer
370
-1
48
1
60
0
100
AcDbPoint
10
47.4174
20
-4.1
30
0
39
0
210
0
220
0
230
1
50
360
0
POINT
5
111
100
AcDbEntity
8
Defpoints
62
0
6
ByLayer
370
-1
48
1
60
0
100
AcDbPoint
10
47.4174
20
-14.313398
30
0
39
0
210
0
220
0
230
1
50
360
0
ENDBLK
5
108
100
AcDbEntity
8
0
100
AcDbBlockEnd
0
BLOCK
5
119
100
AcDbEntity
8
0
100
AcDbBlockBegin
2
_U0
70
0
10
0
20
0
30
0
3
_U0
0
MTEXT
5
113
100
AcDbEntity
8
2
62
256
6
ByLayer
370
13
48
1
60
0
100
AcDbMText
10
18.202868
20
-13.280765
30
0
210
0
220
0
230
1
1
\W0.7845;47,42
40
3.5
41
0
44
1.084337
50
0
71
7
72
5
7
iso_b_vert
0
LINE
5
114
100
AcDbEntity
8
2
62
256
6
ByLayer
370
13
48
1
60
0
100
AcDbLine
10
0
20
-1.5875
30
0
11
0
21
-16.313398
31
0
39
0
210
0
220
0
230
1
0
LINE
5
115
100
AcDbEntity
8
2
62
256
6
ByLayer
370
13
48
1
60
0
100
AcDbLine
10
47.4174
20
-5.6875
30
0
11
47.4174
21
-16.313398
31
0
39
0
210
0
220
0
230
1
0
LINE
5
116
100
AcDbEntity
8
2
62
256
6
ByLayer
370
13
48
1
60
0
100
AcDbLine
10
0
20
-14.313398
30
0
11
47.4174
21
-14.313398
31
0
39
0
210
0
220
0
230
1
0
SOLID
5
117
100
AcDbEntity
8
2
62
256
6
ByLayer
370
18
48
1
60
0
100
AcDbTrace
10
0
20
-14.313398
30
0
11
3.499998
21
-13.852615
31
0
12
3.500002
22
-14.774182
32
0
13
3.500002
23
-14.774182
33
0
39
0
210
0
220
0
230
1
0
SOLID
5
118
100
AcDbEntity
8
2
62
256
6
ByLayer
370
18
48
1
60
0
100
AcDbTrace
10
47.4174
20
-14.313398
30
0
11
43.917402
21
-14.774182
31
0
12
43.917398
22
-13.852615
32
0
13
43.917398
23
-13.852615
33
0
39
0
210
0
220
0
230
1
0
ENDBLK
5
11A
100
AcDbEntity
8
0
100
AcDbBlockEnd
0
BLOCK
5
11F
100
AcDbEntity
8
0
100
AcDbBlockBegin
2
*D3
70
1
10
0
20
0
30
0
3
*D3
0
LINE
5
121
100
AcDbEntity
8
0
62
256
6
ByLayer
370
-2
48
1
60
0
100
AcDbLine
10
-40
20
-6.5875
30
0
11
-40
21
-35.692985
31
0
39
0
210
0
220
0
230
1
0
LINE
5
122
100
AcDbEntity
8
0
62
256
6
ByLayer
370
-2
48
1
60
0
100
AcDbLine
10
49
20
-1.5875
30
0
11
49
21
-35.692985
31
0
39
0
210
0
220
0
230
1
0
LINE
5
123
100
AcDbEntity
8
0
62
256
6
ByLayer
370
-2
48
1
60
0
100
AcDbLine
10
-36.5
20
-33.692985
30
0
11
45.5
21
-33.692985
31
0
39
0
210
0
220
0
230
1
0
SOLID
5
124
100
AcDbEntity
8
0
62
256
6
ByLayer
370
-1
48
1
60
0
100
AcDbTrace
10
-36.5
20
-33.109652
30
0
11
-36.5
21
-34.276319
31
0
12
-40
22
-33.692985
32
0
13
-40
23
-33.692985
33
0
39
0
210
0
220
0
230
1
0
SOLID
5
125
100
AcDbEntity
8
0
62
256
6
ByLayer
370
-1
48
1
60
0
100
AcDbTrace
10
45.5
20
-34.276319
30
0
11
45.5
21
-33.109652
31
0
12
49
22
-33.692985
32
0
13
49
23
-33.692985
33
0
39
0
210
0
220
0
230
1
0
MTEXT
5
126
100
AcDbEntity
8
0
62
256
6
ByLayer
370
18
48
1
60
0
100
AcDbMText
10
4.5
20
-26.692985
30
0
210
0
220
0
230
1
1
\A1;89.00
40
3.5
41
0
44
1
50
0
71
5
72
5
7
iso_b_vert
0
POINT
5
127
100
AcDbEntity
8
Defpoints
62
0
6
ByLayer
370
-1
48
1
60
0
100
AcDbPoint
10
-40
20
-5
30
0
39
0
210
0
220
0
230
1
50
360
0
POINT
5
128
100
AcDbEntity
8
Defpoints
62
0
6
ByLayer
370
-1
48
1
60
0
100
AcDbPoint
10
49
20
0
30
0
39
0
210
0
220
0
230
1
50
360
0
POINT
5
129
100
AcDbEntity
8
Defpoints
62
0
6
ByLayer
370
-1
48
1
60
0
100
AcDbPoint
10
49
20
-33.692985
30
0
39
0
210
0
220
0
230
1
50
360
0
ENDBLK
5
120
100
AcDbEntity
8
0
100
AcDbBlockEnd
0
BLOCK
5
131
100
AcDbEntity
8
0
100
AcDbBlockBegin
2
_U1
70
0
10
0
20
0
30
0
3
_U1
0
MTEXT
5
12B
100
AcDbEntity
8
SK2
62
256
6
ByLayer
370
13
48
1
60
0
100
AcDbMText
10
-0.637299
20
-32.660352
30
0
210
0
220
0
230
1
1
\W0.7317;89,00
40
3.5
41
0
44
1.084337
50
0
71
7
72
5
7
iso_b_vert
0
LINE
5
12C
100
AcDbEntity
8
SK2
62
256
6
ByLayer
370
13
48
1
60
0
100
AcDbLine
10
-40
20
-6.5875
30
0
11
-40
21
-35.692985
31
0
39
0
210
0
220
0
230
1
0
LINE
5
12D
100
AcDbEntity
8
SK2
62
256
6
ByLayer
370
13
48
1
60
0
100
AcDbLine
10
49
20
-1.5875
30
0
11
49
21
-35.692985
31
0
39
0
210
0
220
0
230
1
0
LINE
5
12E
100
AcDbEntity
8
SK2
62
256
6
ByLayer
370
13
48
1
60
0
100
AcDbLine
10
-40
20
-33.692985
30
0
11
49
21
-33.692985
31
0
39
0
210
0
220
0
230
1
0
SOLID
5
12F
100
AcDbEntity
8
SK2
62
256
6
ByLayer
370
18
48
1
60
0
100
AcDbTrace
10
-40
20
-33.692985
30
0
11
-36.500002
21
-33.232202
31
0
12
-36.499998
22
-34.153769
32
0
13
-36.499998
23
-34.153769
33
0
39
0
210
0
220
0
230
1
0
SOLID
5
130
100
AcDbEntity
8
SK2
62
256
6
ByLayer
370
18
48
1
60
0
100
AcDbTrace
10
49
20
-33.692985
30
0
11
45.500002
21
-34.153769
31
0
12
45.499998
22
-33.232202
32
0
13
45.499998
23
-33.232202
33
0
39
0
210
0
220
0
230
1
0
ENDBLK
5
132
100
AcDbEntity
8
0
100
AcDbBlockEnd
0
BLOCK
5
137
100
AcDbEntity
8
0
100
AcDbBlockBegin
2
*D5
70
1
10
0
20
0
30
0
3
*D5
0
LINE
5
139
100
AcDbEntity
8
0
62
256
6
ByLayer
370
-2
48
1
60
0
100
AcDbLine
10
22.82
20
5.6875
30
0
11
22.82
21
17.709119
31
0
39
0
210
0
220
0
230
1
0
LINE
5
13A
100
AcDbEntity
8
0
62
256
6
ByLayer
370
-2
48
1
60
0
100
AcDbLine
10
49
20
1.5875
30
0
11
49
21
17.709119
31
0
39
0
210
0
220
0
230
1
0
LINE
5
13B
100
AcDbEntity
8
0
62
256
6
ByLayer
370
-2
48
1
60
0
100
AcDbLine
10
26.32
20
15.709119
30
0
11
45.5
21
15.709119
31
0
39
0
210
0
220
0
230
1
0
SOLID
5
13C
100
AcDbEntity
8
0
62
256
6
ByLayer
370
-1
48
1
60
0
100
AcDbTrace
10
26.32
20
16.292453
30
0
11
26.32
21
15.125786
31
0
12
22.82
22
15.709119
32
0
13
22.82
23
15.709119
33
0
39
0
210
0
220
0
230
1
0
SOLID
5
13D
100
AcDbEntity
8
0
62
256
6
ByLayer
370
-1
48
1
60
0
100
AcDbTrace
10
45.5
20
15.125786
30
0
11
45.5
21
16.292453
31
0
12
49
22
15.709119
32
0
13
49
23
15.709119
33
0
39
0
210
0
220
0
230
1
0
MTEXT
5
13E
100
AcDbEntity
8
0
62
256
6
ByLayer
370
18
48
1
60
0
100
AcDbMText
10
35.91
20
22.709119
30
0
210
0
220
0
230
1
1
\A1;26.18
40
3.5
41
0
44
1
50
0
71
5
72
5
7
iso_b_vert
0
POINT
5
13F
100
AcDbEntity
8
Defpoints
62
0
6
ByLayer
370
-1
48
1
60
0
100
AcDbPoint
10
22.82
20
4.1
30
0
39
0
210
0
220
0
230
1
50
360
0
POINT
5
140
100
AcDbEntity
8
Defpoints
62
0
6
ByLayer
370
-1
48
1
60
0
100
AcDbPoint
10
49
20
0
30
0
39
0
210
0
220
0
230
1
50
360
0
POINT
5
141
100
AcDbEntity
8
Defpoints
62
0
6
ByLayer
370
-1
48
1
60
0
100
AcDbPoint
10
49
20
15.709119
30
0
39
0
210
0
220
0
230
1
50
360
0
ENDBLK
5
138
100
AcDbEntity
8
0
100
AcDbBlockEnd
0
BLOCK
5
149
100
AcDbEntity
8
0
100
AcDbBlockBegin
2
_U2
70
0
10
0
20
0
30
0
3
_U2
0
MTEXT
5
143
100
AcDbEntity
8
SK2
62
256
6
ByLayer
370
13
48
1
60
0
100
AcDbMText
10
31.210135
20
16.741753
30
0
210
0
220
0
230
1
1
\W0.6713;26,18
40
3.5
41
0
44
1.084337
50
0
71
7
72
5
7
iso_b_vert
0
LINE
5
144
100
AcDbEntity
8
SK2
62
256
6
ByLayer
370
13
48
1
60
0
100
AcDbLine
10
22.82
20
5.6875
30
0
11
22.82
21
17.709119
31
0
39
0
210
0
220
0
230
1
0
LINE
5
145
100
AcDbEntity
8
SK2
62
256
6
ByLayer
370
13
48
1
60
0
100
AcDbLine
10
49
20
1.5875
30
0
11
49
21
17.709119
31
0
39
0
210
0
220
0
230
1
0
LINE
5
146
100
AcDbEntity
8
SK2
62
256
6
ByLayer
370
13
48
1
60
0
100
AcDbLine
10
22.82
20
15.709119
30
0
11
49
21
15.709119
31
0
39
0
210
0
220
0
230
1
0
SOLID
5
147
100
AcDbEntity
8
SK2
62
256
6
ByLayer
370
18
48
1
60
0
100
AcDbTrace
10
22.82
20
15.709119
30
0
11
26.319998
21
16.169903
31
0
12
26.320002
22
15.248335
32
0
13
26.320002
23
15.248335
33
0
39
0
210
0
220
0
230
1
0
SOLID
5
148
100
AcDbEntity
8
SK2
62
256
6
ByLayer
370
18
48
1
60
0
100
AcDbTrace
10
49
20
15.709119
30
0
11
45.500002
21
15.248335
31
0
12
45.499998
22
16.169903
32
0
13
45.499998
23
16.169903
33
0
39
0
210
0
220
0
230
1
0
ENDBLK
5
14A
100
AcDbEntity
8
0
100
AcDbBlockEnd
0
BLOCK
5
14F
100
AcDbEntity
8
0
100
AcDbBlockBegin
2
*D7
70
1
10
0
20
0
30
0
3
*D7
0
LINE
5
151
100
AcDbEntity
8
0
62
256
6
ByLayer
370
-2
48
1
60
0
100
AcDbLine
10
49
20
-1.5875
30
0
11
49
21
-18.902503
31
0
39
0
210
0
220
0
230
1
0
LINE
5
152
100
AcDbEntity
8
0
62
256
6
ByLayer
370
-2
48
1
60
0
100
AcDbLine
10
47.4174
20
-5.6875
30
0
11
47.4174
21
-18.902503
31
0
39
0
210
0
220
0
230
1
0
LINE
5
153
100
AcDbEntity
8
0
62
256
6
ByLayer
370
-2
48
1
60
0
100
AcDbLine
10
49
20
-16.902503
30
0
11
76.666667
21
-16.902503
31
0
39
0
210
0
220
0
230
1
0
LINE
5
154
100
AcDbEntity
8
0
62
256
6
ByLayer
370
-2
48
1
60
0
100
AcDbLine
10
52.5
20
-16.902503
30
0
11
56
21
-16.902503
31
0
39
0
210
0
220
0
230
1
0
LINE
5
155
100
AcDbEntity
8
0
62
256
6
ByLayer
370
-2
48
1
60
0
100
AcDbLine
10
43.9174
20
-16.902503
30
0
11
40.4174
21
-16.902503
31
0
39
0
210
0
220
0
230
1
0
SOLID
5
156
100
AcDbEntity
8
0
62
256
6
ByLayer
370
-1
48
1
60
0
100
AcDbTrace
10
52.5
20
-16.31917
30
0
11
52.5
21
-17.485837
31
0
12
49
22
-16.902503
32
0
13
49
23
-16.902503
33
0
39
0
210
0
220
0
230
1
0
SOLID
5
157
100
AcDbEntity
8
0
62
256
6
ByLayer
370
-1
48
1
60
0
100
AcDbTrace
10
43.9174
20
-17.485837
30
0
11
43.9174
21
-16.31917
31
0
12
47.4174
22
-16.902503
32
0
13
47.4174
23
-16.902503
33
0
39
0
210
0
220
0
230
1
0
MTEXT
5
158
100
AcDbEntity
8
0
62
256
6
ByLayer
370
18
48
1
60
0
100
AcDbMText
10
66.333333
20
-9.902503
30
0
210
0
220
0
230
1
1
\A1;1.58
40
3.5
41
0
44
1
50
0
71
5
72
5
7
iso_b_vert
0
POINT
5
159
100
AcDbEntity
8
Defpoints
62
0
6
ByLayer
370
-1
48
1
60
0
100
AcDbPoint
10
49
20
0
30
0
39
0
210
0
220
0
230
1
50
360
0
POINT
5
15A
100
AcDbEntity
8
Defpoints
62
0
6
ByLayer
370
-1
48
1
60
0
100
AcDbPoint
10
47.4174
20
-4.1
30
0
39
0
210
0
220
0
230
1
50
360
0
POINT
5
15B
100
AcDbEntity
8
Defpoints
62
0
6
ByLayer
370
-1
48
1
60
0
100
AcDbPoint
10
47.4174
20
-16.902503
30
0
39
0
210
0
220
0
230
1
50
360
0
ENDBLK
5
150
100
AcDbEntity
8
0
100
AcDbBlockEnd
0
BLOCK
5
163
100
AcDbEntity
8
0
100
AcDbBlockBegin
2
_U3
70
0
10
0
20
0
30
0
3
_U3
0
MTEXT
5
15D
100
AcDbEntity
8
SK2
62
256
6
ByLayer
370
13
48
1
60
0
100
AcDbMText
10
55.589293
20
-15.86987
30
0
210
0
220
0
230
1
1
\W0.6367;1,58
40
3.5
41
0
44
1.084337
50
0
71
7
72
5
7
iso_b_vert
0
LINE
5
15E
100
AcDbEntity
8
SK2
62
256
6
ByLayer
370
13
48
1
60
0
100
AcDbLine
10
49
20
-1.5875
30
0
11
49
21
-18.902503
31
0
39
0
210
0
220
0
230
1
0
LINE
5
15F
100
AcDbEntity
8
SK2
62
256
6
ByLayer
370
13
48
1
60
0
100
AcDbLine
10
47.4174
20
-5.6875
30
0
11
47.4174
21
-18.902503
31
0
39
0
210
0
220
0
230
1
0
LINE
5
160
100
AcDbEntity
8
SK2
62
256
6
ByLayer
370
13
48
1
60
0
100
AcDbLine
10
38.6674
20
-16.902503
30
0
11
62.559058
21
-16.902503
31
0
39
0
210
0
220
0
230
1
0
SOLID
5
161
100
AcDbEntity
8
SK2
62
256
6
ByLayer
370
18
48
1
60
0
100
AcDbTrace
10
49
20
-16.902503
30
0
11
52.499998
21
-16.441719
31
0
12
52.500002
22
-17.363287
32
0
13
52.500002
23
-17.363287
33
0
39
0
210
0
220
0
230
1
0
SOLID
5
162
100
AcDbEntity
8
SK2
62
256
6
ByLayer
370
18
48
1
60
0
100
AcDbTrace
10
47.4174
20
-16.902503
30
0
11
43.917402
21
-17.363287
31
0
12
43.917398
22
-16.441719
32
0
13
43.917398
23
-16.441719
33
0
39
0
210
0
220
0
230
1
0
ENDBLK
5
164
100
AcDbEntity
8
0
100
AcDbBlockEnd
0
BLOCK
5
169
100
AcDbEntity
8
0
100
AcDbBlockBegin
2
*D9
70
1
10
0
20
0
30
0
3
*D9
0
LINE
5
16B
100
AcDbEntity
8
0
62
256
6
ByLayer
370
-2
48
1
60
0
100
AcDbLine
10
-40
20
-6.5875
30
0
11
-40
21
-25.343428
31
0
39
0
210
0
220
0
230
1
0
LINE
5
16C
100
AcDbEntity
8
0
62
256
6
ByLayer
370
-2
48
1
60
0
100
AcDbLine
10
47.4174
20
-5.6875
30
0
11
47.4174
21
-25.343428
31
0
39
0
210
0
220
0
230
1
0
LINE
5
16D
100
AcDbEntity
8
0
62
256
6
ByLayer
370
-2
48
1
60
0
100
AcDbLine
10
-36.5
20
-23.343428
30
0
11
43.9174
21
-23.343428
31
0
39
0
210
0
220
0
230
1
0
SOLID
5
16E
100
AcDbEntity
8
0
62
256
6
ByLayer
370
-1
48
1
60
0
100
AcDbTrace
10
-36.5
20
-22.760095
30
0
11
-36.5
21
-23.926762
31
0
12
-40
22
-23.343428
32
0
13
-40
23
-23.343428
33
0
39
0
210
0
220
0
230
1
0
SOLID
5
16F
100
AcDbEntity
8
0
62
256
6
ByLayer
370
-1
48
1
60
0
100
AcDbTrace
10
43.9174
20
-23.926762
30
0
11
43.9174
21
-22.760095
31
0
12
47.4174
22
-23.343428
32
0
13
47.4174
23
-23.343428
33
0
39
0
210
0
220
0
230
1
0
MTEXT
5
170
100
AcDbEntity
8
0
62
256
6
ByLayer
370
18
48
1
60
0
100
AcDbMText
10
3.7087
20
-16.343428
30
0
210
0
220
0
230
1
1
\A1;87.42
40
3.5
41
0
44
1
50
0
71
5
72
5
7
iso_b_vert
0
POINT
5
171
100
AcDbEntity
8
Defpoints
62
0
6
ByLayer
370
-1
48
1
60
0
100
AcDbPoint
10
-40
20
-5
30
0
39
0
210
0
220
0
230
1
50
360
0
POINT
5
172
100
AcDbEntity
8
Defpoints
62
0
6
ByLayer
370
-1
48
1
60
0
100
AcDbPoint
10
47.4174
20
-4.1
30
0
39
0
210
0
220
0
230
1
50
360
0
POINT
5
173
100
AcDbEntity
8
Defpoints
62
0
6
ByLayer
370
-1
48
1
60
0
100
AcDbPoint
10
47.4174
20
-23.343428
30
0
39
0
210
0
220
0
230
1
50
360
0
ENDBLK
5
16A
100
AcDbEntity
8
0
100
AcDbBlockEnd
0
BLOCK
5
17B
100
AcDbEntity
8
0
100
AcDbBlockBegin
2
_U4
70
0
10
0
20
0
30
0
3
_U4
0
MTEXT
5
175
100
AcDbEntity
8
SK2
62
256
6
ByLayer
370
13
48
1
60
0
100
AcDbMText
10
-1.612865
20
-22.310795
30
0
210
0
220
0
230
1
1
\W0.7581;87,42
40
3.5
41
0
44
1.084337
50
0
71
7
72
5
7
iso_b_vert
0
LINE
5
176
100
AcDbEntity
8
SK2
62
256
6
ByLayer
370
13
48
1
60
0
100
AcDbLine
10
-40
20
-6.5875
30
0
11
-40
21
-25.343428
31
0
39
0
210
0
220
0
230
1
0
LINE
5
177
100
AcDbEntity
8
SK2
62
256
6
ByLayer
370
13
48
1
60
0
100
AcDbLine
10
47.4174
20
-5.6875
30
0
11
47.4174
21
-25.343428
31
0
39
0
210
0
220
0
230
1
0
LINE
5
178
100
AcDbEntity
8
SK2
62
256
6
ByLayer
370
13
48
1
60
0
100
AcDbLine
10
-40
20
-23.343428
30
0
11
47.4174
21
-23.343428
31
0
39
0
210
0
220
0
230
1
0
SOLID
5
179
100
AcDbEntity
8
SK2
62
256
6
ByLayer
370
18
48
1
60
0
100
AcDbTrace
10
-40
20
-23.343428
30
0
11
-36.500002
21
-22.882645
31
0
12
-36.499998
22
-23.804212
32
0
13
-36.499998
23
-23.804212
33
0
39
0
210
0
220
0
230
1
0
SOLID
5
17A
100
AcDbEntity
8
SK2
62
256
6
ByLayer
370
18
48
1
60
0
100
AcDbTrace
10
47.4174
20
-23.343428
30
0
11
43.917402
21
-23.804212
31
0
12
43.917398
22
-22.882645
32
0
13
43.917398
23
-22.882645
33
0
39
0
210
0
220
0
230
1
0
ENDBLK
5
17C
100
AcDbEntity
8
0
100
AcDbBlockEnd
0
ENDSEC
0
SECTION
2
ENTITIES
0
ARC
5
A5
100
AcDbEntity
8
1
62
256
6
ByLayer
370
18
48
1
60
0
100
AcDbCircle
39
0
10
1.541202
20
-4.867424
30
0
40
0.85
210
0
220
0
230
1
100
AcDbArc
50
89.896868
51
155.038179
0
ARC
5
A6
100
AcDbEntity
8
1
62
256
6
ByLayer
370
18
48
1
60
0
100
AcDbCircle
39
0
10
0
20
-4.15
30
0
40
0.85
210
0
220
0
230
1
100
AcDbArc
50
270
51
335.038179
0
ARC
5
A7
100
AcDbEntity
8
1
62
256
6
ByLayer
370
18
48
1
60
0
100
AcDbCircle
39
0
10
1.541202
20
4.867424
30
0
40
0.85
210
0
220
0
230
1
100
AcDbArc
50
204.961821
51
270.103132
0
ARC
5
A8
100
AcDbEntity
8
1
62
256
6
ByLayer
370
18
48
1
60
0
100
AcDbCircle
39
0
10
0
20
4.15
30
0
40
0.85
210
0
220
0
230
1
100
AcDbArc
50
24.961821
51
90
0
ELLIPSE
5
A9
100
AcDbEntity
8
1
62
256
6
ByLayer
370
13
48
1
60
0
100
AcDbEllipse
10
93.194174
20
42.140273
30
0
11
-60.8
21
7.44560663124005E-15
31
0
210
0
220
0
230
1
40
0.99863
41
0.736993559324194
42
0.752008243749309
0
ELLIPSE
5
AA
100
AcDbEntity
8
1
62
256
6
ByLayer
370
13
48
1
60
0
100
AcDbEllipse
10
6.359141
20
1.502689
30
0
11
0.124169212848136
21
0.273097064394099
31
0
210
0
220
0
230
1
40
0.157555
41
-2.74814156884636
42
-1.89919746262945
0
ELLIPSE
5
AB
100
AcDbEntity
8
1
62
256
6
ByLayer
370
13
48
1
60
0
100
AcDbEllipse
10
13.33306
20
-75.763333
30
0
11
-4.03528630259779
21
74.1352873889736
31
0
210
0
220
0
230
1
40
0.86393
41
-0.0247064750691331
42
0.065235482096076
0
ELLIPSE
5
AC
100
AcDbEntity
8
1
62
256
6
ByLayer
370
13
48
1
60
0
100
AcDbEllipse
10
6.047106
20
1.667731
30
0
11
-0.158118549876296
21
-0.254948081351905
31
0
210
0
220
0
230
1
40
0.228276
41
-1.0132191213832
42
-0.977899178620752
0
ELLIPSE
5
AD
100
AcDbEntity
8
1
62
256
6
ByLayer
370
18
48
1
60
0
100
AcDbEllipse
10
6.357554
20
4.922079
30
0
11
-1
21
1.22460635382238E-16
31
0
210
0
220
0
230
1
40
0.999963
41
1.12074401661417
42
1.57616349439802
0
ELLIPSE
5
AE
100
AcDbEntity
8
1
62
256
6
ByLayer
370
18
48
1
60
0
100
AcDbEllipse
10
6.357554
20
-4.922079
30
0
11
-1
21
1.22460635382238E-16
31
0
210
0
220
0
230
1
40
0.999963
41
-1.57129468716733
42
-1.12128505266006
0
POINT
5
70
100
AcDbEntity
8
80
62
256
6
ByLayer
370
18
48
1
60
0
100
AcDbPoint
10
0
20
0
30
0
39
0
210
0
220
0
230
1
50
360
0
POINT
5
72
100
AcDbEntity
8
81
62
256
6
ByLayer
370
18
48
1
60
0
100
AcDbPoint
10
49
20
0
30
0
39
0
210
0
220
0
230
1
50
360
0
POINT
5
74
100
AcDbEntity
8
1
62
256
6
ByLayer
370
18
48
1
60
1
100
AcDbPoint
10
47.4174
20
-4.1
30
0
39
0
210
0
220
0
230
1
50
360
0
POINT
5
76
100
AcDbEntity
8
1
62
256
6
ByLayer
370
18
48
1
60
1
100
AcDbPoint
10
-40
20
-5
30
0
39
0
210
0
220
0
230
1
50
360
0
POINT
5
77
100
AcDbEntity
8
1
62
256
6
ByLayer
370
18
48
1
60
1
100
AcDbPoint
10
22.82
20
4.1
30
0
39
0
210
0
220
0
230
1
50
360
0
POINT
5
78
100
AcDbEntity
8
1
62
256
6
ByLayer
370
18
48
1
60
1
100
AcDbPoint
10
47.4174
20
-4.1
30
0
39
0
210
0
220
0
230
1
50
360
0
POINT
5
79
100
AcDbEntity
8
1
62
256
6
ByLayer
370
18
48
1
60
1
100
AcDbPoint
10
-40
20
-5
30
0
39
0
210
0
220
0
230
1
50
360
0
POINT
5
7A
100
AcDbEntity
8
1
62
256
6
ByLayer
370
18
48
1
60
1
100
AcDbPoint
10
47.4174
20
-4.1
30
0
39
0
210
0
220
0
230
1
50
360
0
SPLINE
5
AF
100
AcDbEntity
8
1
62
256
6
ByLayer
370
18
48
1
60
0
100
AcDbSpline
70
4
71
3
72
34
73
30
40
0
40
0
40
0
40
0
40
0.0706464146901253
40
0.0706464146901253
40
0.141292829380251
40
0.141292829380251
40
0.211939244070376
40
0.211939244070376
40
0.282585658760501
40
0.282585658760501
40
0.353232073450627
40
0.353232073450627
40
0.423878488140752
40
0.423878488140752
40
0.494524902830877
40
0.494524902830877
40
0.565171317521003
40
0.565171317521003
40
0.706464146901254
40
0.706464146901254
40
0.77711056159138
40
0.77711056159138
40
0.847756976281507
40
0.847756976281507
40
0.918403390971633
40
0.918403390971633
40
0.989049805661759
40
0.989049805661759
40
1
40
1
40
1
40
1
41
1
10
6.26095482856735
20
1.24295915812272
30
0
41
1
10
6.69215976994673
20
1.05256977446803
30
0
41
1
10
7.12323026941789
20
0.857325438465637
30
0
41
1
10
7.98423785853112
20
0.462000263586447
30
0
41
1
10
8.41443215690913
20
0.26174999565788
30
0
41
1
10
9.27637702552934
20
-0.139259311498506
30
0
41
1
10
9.70687353096071
20
-0.33980013750093
30
0
41
1
10
10.5662865873063
20
-0.736738810969342
30
0
41
1
10
10.9956039450058
20
-0.933146868670491
30
0
41
1
10
11.8551126033368
20
-1.31833343381138
30
0
41
1
10
12.2858908109221
20
-1.50759541353051
30
0
41
1
10
13.1468602609178
20
-1.87281214473614
30
0
41
1
10
13.5764517230273
20
-2.04875736459619
30
0
41
1
10
14.4352604680001
20
-2.38472193497211
30
0
41
1
10
14.8646035211173
20
-2.54450857651702
30
0
41
1
10
15.7247815285697
20
-2.84483970757742
30
0
41
1
10
16.155882836448
20
-2.9855206440489
30
0
41
1
10
17.4452293404362
20
-3.37167496444008
30
0
41
1
10
18.3022756603739
20
-3.58239733747607
30
0
41
1
10
19.5939966786262
20
-3.81665439553188
30
0
41
1
10
20.0239953325789
20
-3.88068370848558
30
0
41
1
10
20.8826613386135
20
-3.97974070068741
30
0
41
1
10
21.3115555872879
20
-4.01478736406963
30
0
41
1
10
22.1704783438359
20
-4.05507568489438
30
0
41
1
10
22.6013071306505
20
-4.06031554000074
30
0
41
1
10
23.4613105019258
20
-4.04071552596687
30
0
41
1
10
23.8903751950481
20
-4.01591630762891
30
0
41
1
10
24.3859764923303
20
-3.9703513465729
30
0
41
1
10
24.4524856773502
20
-3.96388477110418
30
0
41
1
10
24.5189976156914
20
-3.95706765969768
30
0
0
SPLINE
5
B0
100
AcDbEntity
8
1
62
256
6
ByLayer
370
18
48
1
60
0
100
AcDbSpline
70
4
71
3
72
42
73
38
40
0
40
0
40
0
40
0
40
0.0178909410968306
40
0.0178909410968306
40
0.0695808915654181
40
0.0695808915654181
40
0.121270842034005
40
0.121270842034005
40
0.172960792502593
40
0.172960792502593
40
0.276340693439769
40
0.276340693439769
40
0.379720594376946
40
0.379720594376946
40
0.431410544845533
40
0.431410544845533
40
0.48310049531412
40
0.48310049531412
40
0.534790445782708
40
0.534790445782708
40
0.586480396251295
40
0.586480396251295
40
0.638170346719883
40
0.638170346719883
40
0.68986029718847
40
0.68986029718847
40
0.793240198125647
40
0.793240198125647
40
0.844930148594235
40
0.844930148594235
40
0.896620099062823
40
0.896620099062823
40
0.948310049531411
40
0.948310049531411
40
0.974155024765705
40
0.974155024765705
40
1
40
1
40
1
40
1
41
1
10
22.5834320832763
20
4.05529018923545
30
0
41
1
10
22.7323607642455
20
4.05550554023623
30
0
41
1
10
22.8812816131874
20
4.05392500786104
30
0
41
1
10
23.4600763841605
20
4.04077163659127
30
0
41
1
10
23.889111101626
20
4.01600302145494
30
0
41
1
10
24.7472335122373
20
3.93716724613529
30
0
41
1
10
25.176290648755
20
3.88310817770733
30
0
41
1
10
26.0359181106211
20
3.74638477262474
30
0
41
1
10
26.4665255037506
20
3.66360702542946
30
0
41
1
10
27.7545247161117
20
3.37647794148023
30
0
41
1
10
28.6109921005263
20
3.13261212238444
30
0
41
1
10
30.3322890327282
20
2.55678807210432
30
0
41
1
10
31.1883507454955
20
2.2277861880246
30
0
41
1
10
32.4758844622694
20
1.69076669506472
30
0
41
1
10
32.9063822480827
20
1.50419721157147
30
0
41
1
10
33.7654254271046
20
1.12215827904083
30
0
41
1
10
34.1940256278977
20
0.926351336159684
30
0
41
1
10
35.0513539586498
20
0.529258687370344
30
0
41
1
10
35.4801033501941
20
0.328020935993749
30
0
41
1
10
36.3394260901375
20
-0.0763404744851073
30
0
41
1
10
36.7694831910572
20
-0.279543208362696
30
0
41
1
10
37.6271941763001
20
-0.681391384661708
30
0
41
1
10
38.0555967928074
20
-0.880297058791882
30
0
41
1
10
38.9131022806623
20
-1.27071658909719
30
0
41
1
10
39.3425356631772
20
-1.46261137256113
30
0
41
1
10
40.6317156681204
20
-2.02045348300987
30
0
41
1
10
41.4870495097397
20
-2.36631888043223
30
0
41
1
10
42.77387924683
20
-2.82814490084064
30
0
41
1
10
43.2042634061946
20
-2.97265620618225
30
0
41
1
10
44.0613014438406
20
-3.23781141700835
30
0
41
1
10
44.4886220367142
20
-3.3586795834743
30
0
41
1
10
45.3425559998026
20
-3.57506316861949
30
0
41
1
10
45.7692323861669
20
-3.67051348912304
30
0
41
1
10
46.4099621233686
20
-3.79339022218383
30
0
41
1
10
46.6236561050279
20
-3.83096747890252
30
0
41
1
10
47.0514718253606
20
-3.89915687046175
30
0
41
1
10
47.2654475753249
20
-3.92985279548412
30
0
41
1
10
47.4800372182119
20
-3.95678980038855
30
0
0
SPLINE
5
B1
100
AcDbEntity
8
1
62
256
6
ByLayer
370
18
48
1
60
0
100
AcDbSpline
70
4
71
3
72
56
73
52
40
0
40
0
40
0
40
0
40
0.031250000000001
40
0.031250000000001
40
0.0625000000000019
40
0.0625000000000019
40
0.0937500000000029
40
0.0937500000000029
40
0.125000000000004
40
0.125000000000004
40
0.187500000000005
40
0.187500000000005
40
0.218750000000006
40
0.218750000000006
40
0.250000000000006
40
0.250000000000006
40
0.312500000000005
40
0.312500000000005
40
0.343750000000005
40
0.343750000000005
40
0.375000000000005
40
0.375000000000005
40
0.406250000000004
40
0.406250000000004
40
0.437500000000004
40
0.437500000000004
40
0.500000000000002
40
0.500000000000002
40
0.531250000000002
40
0.531250000000002
40
0.562500000000001
40
0.562500000000001
40
0.625000000000001
40
0.625000000000001
40
0.65625
40
0.65625
40
0.6875
40
0.6875
40
0.718749999999999
40
0.718749999999999
40
0.749999999999999
40
0.749999999999999
40
0.812499999999999
40
0.812499999999999
40
0.843749999999999
40
0.843749999999999
40
0.874999999999999
40
0.874999999999999
40
0.9375
40
0.9375
40
1
40
1
40
1
40
1
41
1
10
15.5733594150934
20
3.09804106737997
30
0
41
1
10
15.9074179155195
20
3.19911309231773
30
0
41
1
10
16.2412272776071
20
3.29246206756454
30
0
41
1
10
16.9079207292885
20
3.46456860398484
30
0
41
1
10
17.2409450686429
20
3.54311812640759
30
0
41
1
10
17.9070373276943
20
3.68440140461235
30
0
41
1
10
18.240475552747
20
3.7468156424851
30
0
41
1
10
18.9077595341674
20
3.85540071670391
30
0
41
1
10
19.2423822301979
20
3.90112879706828
30
0
41
1
10
20.2427288329677
20
4.01218288278204
30
0
41
1
10
20.9084081014118
20
4.05078477021192
30
0
41
1
10
21.9080616778468
20
4.05476675324201
30
0
41
1
10
22.2422539861229
20
4.04708993304007
30
0
41
1
10
22.9098741339774
20
4.01362443701919
30
0
41
1
10
23.2433338920282
20
3.98801418305251
30
0
41
1
10
24.2422472489537
20
3.88456600974712
30
0
41
1
10
24.9077923292326
20
3.78081162177796
30
0
41
1
10
25.9088647146593
20
3.57498877526322
30
0
41
1
10
26.2430093182705
20
3.49837710008788
30
0
41
1
10
26.9093199661939
20
3.3298340737382
30
0
41
1
10
27.24226946387
20
3.23825754764715
30
0
41
1
10
27.9078600087682
20
3.04065778781944
30
0
41
1
10
28.2408103349536
20
2.93505145868596
30
0
41
1
10
28.9072762367067
20
2.71053146335891
30
0
41
1
10
29.2414693350157
20
2.59179610417135
30
0
41
1
10
30.2418801671313
20
2.21917526363282
30
0
41
1
10
30.9067424405135
20
1.94954381339221
30
0
41
1
10
31.9055211407114
20
1.52185909201896
30
0
41
1
10
32.2386583165197
20
1.37535053638928
30
0
41
1
10
32.9063527224883
20
1.07638015099181
30
0
41
1
10
33.2395691273948
20
0.924149195314357
30
0
41
1
10
34.2383718783855
20
0.463301881593878
30
0
41
1
10
34.9027338846766
20
0.148904932002495
30
0
41
1
10
35.9027657407162
20
-0.321202530842413
30
0
41
1
10
36.2366264568415
20
-0.478362044512465
30
0
41
1
10
36.9030123314634
20
-0.788270645508135
30
0
41
1
10
37.2355098397042
20
-0.942162277453008
30
0
41
1
10
37.9008500509935
20
-1.24420741768006
30
0
41
1
10
38.2331948691447
20
-1.39338372148035
30
0
41
1
10
38.8990797362012
20
-1.68429110073575
30
0
41
1
10
39.2324405469945
20
-1.8272364766097
30
0
41
1
10
40.2330392775239
20
-2.2413445034648
30
0
41
1
10
40.8970710607053
20
-2.50010464781232
30
0
41
1
10
41.8950790759813
20
-2.85114010353527
30
0
41
1
10
42.2276278852446
20
-2.96268115836909
30
0
41
1
10
42.8944886193476
20
-3.1717019320397
30
0
41
1
10
43.2277067470617
20
-3.26985308853475
30
0
41
1
10
44.2246239245538
20
-3.53996200825077
30
0
41
1
10
44.8858143531124
20
-3.69032985526204
30
0
41
1
10
46.209877683903
20
-3.92354366206638
30
0
41
1
10
46.8717237372101
20
-4.00722976674084
30
0
41
1
10
47.5374739890082
20
-4.05502389036718
30
0
0
SPLINE
5
B2
100
AcDbEntity
8
1
62
256
6
ByLayer
370
18
48
1
60
0
100
AcDbSpline
70
4
71
1
72
4
73
2
40
0
40
0
40
1
40
1
41
1
10
47.4922995017666
20
-3.88966055091075
30
0
41
1
10
48.3359694153559
20
-1.04147865527443
30
0
0
SPLINE
5
B3
100
AcDbEntity
8
1
62
256
6
ByLayer
370
18
48
1
60
0
100
AcDbSpline
70
4
71
3
72
8
73
4
40
0
40
0
40
0
40
0
40
1
40
1
40
1
40
1
41
1
10
47.4800372182137
20
-3.9567898003836
30
0
41
1
10
47.4852935811768
20
-3.93292982885922
30
0
41
1
10
47.4894412703836
20
-3.910156683591
30
0
41
1
10
47.4922995017727
20
-3.8896605508827
30
0
0
SPLINE
5
B4
100
AcDbEntity
8
1
62
256
6
ByLayer
370
13
48
1
60
0
100
AcDbSpline
70
4
71
3
72
21
73
17
40
0
40
0
40
0
40
0
40
0.0314160964375064
40
0.0915059393073336
40
0.21168562504699
40
0.27177546791682
40
0.331865310786646
40
0.452044996526301
40
0.512134839396132
40
0.572224682265959
40
0.692404368005613
40
0.752494210875437
40
0.812584053745267
40
0.932763739484925
40
0.992853582354753
40
1
40
1
40
1
40
1
41
1
10
48.3016625266376
20
2.02765377385197
30
0
41
1
10
48.2574174476596
20
2.02719302120542
30
0
41
1
10
48.1285417058379
20
2.02561149846832
30
0
41
1
10
47.8303473496905
20
2.02021354838842
30
0
41
1
10
47.4918066792858
20
2.01074869195531
30
0
41
1
10
47.1533086044328
20
1.99794413190594
30
0
41
1
10
46.8147223261574
20
1.98262209346174
30
0
41
1
10
46.4761814581815
20
1.96400425043342
30
0
41
1
10
46.1376831444779
20
1.94210987102579
30
0
41
1
10
45.7990966829484
20
1.91780822733275
30
0
41
1
10
45.4605558304581
20
1.89029007730272
30
0
41
1
10
45.1220579097821
20
1.85958789205597
30
0
41
1
10
44.78347190535
20
1.82661783351835
30
0
41
1
10
44.4449314450078
20
1.79055864165244
30
0
41
1
10
44.1809936958479
20
1.76008384201512
30
0
41
1
10
44.0862911022735
20
1.7488240098755
30
0
41
1
10
44.0762252078037
20
1.74762356081479
30
0
0
SPLINE
5
B5
100
AcDbEntity
8
1
62
256
6
ByLayer
370
18
48
1
60
0
100
AcDbSpline
70
4
71
3
72
8
73
4
40
0
40
0
40
0
40
0
40
1
40
1
40
1
40
1
41
1
10
48.7908091731667
20
0.664299677666918
30
0
41
1
10
48.6872631595878
20
0.960308288565926
30
0
41
1
10
48.5841216752782
20
1.25645681465051
30
0
41
1
10
48.4813858702171
20
1.55274565366574
30
0
0
SPLINE
5
B6
100
AcDbEntity
8
1
62
256
6
ByLayer
370
18
48
1
60
0
100
AcDbSpline
70
4
71
3
72
18
73
14
40
0
40
0
40
0
40
0
40
0.25
40
0.25
40
0.375
40
0.375
40
0.5
40
0.5
40
0.625
40
0.625
40
0.75
40
0.75
40
1
40
1
40
1
40
1
41
1
10
48.3359694153439
20
-1.04147865527952
30
0
41
1
10
48.3839022295306
20
-1.00922401310854
30
0
41
1
10
48.4351838569755
20
-0.957610642263063
30
0
41
1
10
48.5175790763962
20
-0.852952747312798
30
0
41
1
10
48.5460036242455
20
-0.813337668301102
30
0
41
1
10
48.6029331578466
20
-0.727592156333003
30
0
41
1
10
48.6316606061957
20
-0.681196152589791
30
0
41
1
10
48.6896343687045
20
-0.581647851383877
30
0
41
1
10
48.719078531066
20
-0.528104423159789
30
0
41
1
10
48.7773532987288
20
-0.41637033444772
30
0
41
1
10
48.8061429014555
20
-0.358307622361707
30
0
41
1
10
48.8914486524979
20
-0.177929008750567
30
0
41
1
10
48.9474060369569
20
-0.0481497350993152
30
0
41
1
10
48.9997518896161
20
0.0849655645108669
30
0
0
SPLINE
5
B7
100
AcDbEntity
8
1
62
256
6
ByLayer
370
18
48
1
60
0
100
AcDbSpline
70
4
71
3
72
8
73
4
40
0
40
0
40
0
40
0
40
1
40
1
40
1
40
1
41
1
10
47.5374739890081
20
-4.05502389036718
30
0
41
1
10
47.7923338884218
20
-3.40827383630179
30
0
41
1
10
48.0539719589934
20
-2.73637506227323
30
0
41
1
10
48.3016625267218
20
-2.02765377385285
30
0
0
SPLINE
5
B8
100
AcDbEntity
8
1
62
256
6
ByLayer
370
18
48
1
60
0
100
AcDbSpline
70
4
71
3
72
8
73
4
40
0
40
0
40
0
40
0
40
1
40
1
40
1
40
1
41
1
10
48.7908091731575
20
-0.664299677693094
30
0
41
1
10
48.6872629457926
20
-0.960308899745513
30
0
41
1
10
48.584121462959
20
-1.25645742697651
30
0
41
1
10
48.4813858702171
20
-1.55274565366563
30
0
0
SPLINE
5
B9
100
AcDbEntity
8
1
62
256
6
ByLayer
370
18
48
1
60
0
100
AcDbSpline
70
4
71
3
72
8
73
4
40
0
40
0
40
0
40
0
40
1
40
1
40
1
40
1
41
1
10
5.91008589427423
20
1.56534543208076
30
0
41
1
10
5.91007958254744
20
1.56196601169671
30
0
41
1
10
5.91021685418363
20
1.55858221633142
30
0
41
1
10
5.91048893960271
20
1.55520842040846
30
0
0
SPLINE
5
BA
100
AcDbEntity
8
1
62
256
6
ByLayer
370
13
48
1
60
0
100
AcDbSpline
70
4
71
3
72
60
73
56
40
0
40
0
40
0
40
0
40
0.0266502161114496
40
0.040888083154358
40
0.0551259501972664
40
0.083601684283083
40
0.0978395513259914
40
0.1120774183689
40
0.140553152454717
40
0.154791019497625
40
0.169028886540533
40
0.19750462062635
40
0.211742487669258
40
0.225980354712167
40
0.254456088797983
40
0.268693955840892
40
0.2829318228838
40
0.311407556969617
40
0.325645424012525
40
0.339883291055433
40
0.36835902514125
40
0.382596892184159
40
0.396834759227067
40
0.425310493312884
40
0.439548360355792
40
0.4537862273987
40
0.482261961484517
40
0.496499828527426
40
0.510737695570334
40
0.539213429656151
40
0.553451296699059
40
0.567689163741967
40
0.596164897827784
40
0.610402764870692
40
0.624640631913601
40
0.653116365999418
40
0.667354233042326
40
0.681592100085234
40
0.710067834171051
40
0.724305701213959
40
0.738543568256868
40
0.767019302342684
40
0.781257169385593
40
0.795495036428501
40
0.823970770514318
40
0.838208637557226
40
0.852446504600135
40
0.880922238685951
40
0.89516010572886
40
0.909397972771768
40
0.937873706857585
40
0.952111573900493
40
0.966349440943402
40
0.994825175029218
40
1
40
1
40
1
40
1
41
1
10
34.6793144932273
20
0.0975563582464928
30
0
41
1
10
34.5208834323018
20
0.134604190267424
30
0
41
1
10
34.2778309949543
20
0.191449410668895
30
0
41
1
10
33.9501833358572
20
0.267935596403106
30
0
41
1
10
33.6115972219363
20
0.346270444151002
30
0
41
1
10
33.2730564479434
20
0.424228897230875
30
0
41
1
10
32.9345582977649
20
0.5016280342588
30
0
41
1
10
32.5959720705961
20
0.578047238969588
30
0
41
1
10
32.2574313664785
20
0.653701937560526
30
0
41
1
10
31.9189332606283
20
0.728412072870412
30
0
41
1
10
31.5803470280501
20
0.801861679263424
30
0
41
1
10
31.2418063798475
20
0.874173078118758
30
0
41
1
10
30.9033084801321
20
0.945174479898752
30
0
41
1
10
30.5647223365357
20
1.0146542194652
30
0
41
1
10
30.2261815681251
20
1.08263721879868
30
0
41
1
10
29.8876832866266
20
1.1489548492105
30
0
41
1
10
29.5490967890421
20
1.21350693557005
30
0
41
1
10
29.210555797897
20
1.27622155153989
30
0
41
1
10
28.8720577312482
20
1.33694093860478
30
0
41
1
10
28.5334716906912
20
1.39567666808114
30
0
41
1
10
28.1949312959014
20
1.45226131504998
30
0
41
1
10
27.8564334802754
20
1.50654945664328
30
0
41
1
10
27.5178474351079
20
1.55866352564723
30
0
41
1
10
27.1793067850885
20
1.60834240845486
30
0
41
1
10
26.840808699247
20
1.65545360750227
30
0
41
1
10
26.5022223875957
20
1.70022970328836
30
0
41
1
10
26.1636814596891
20
1.74232008384021
30
0
41
1
10
25.8251830857856
20
1.78160866337919
30
0
41
1
10
25.48659658717
20
1.81843317125308
30
0
41
1
10
25.1480557336701
20
1.85235650116641
30
0
41
1
10
24.8095578499491
20
1.8832770282435
30
0
41
1
10
24.4709718877378
20
1.91163710289368
30
0
41
1
10
24.1324314701058
20
1.93692180333414
30
0
41
1
10
23.7939335568523
20
1.95905193999397
30
0
41
1
10
23.4553473651471
20
1.97856278660819
30
0
41
1
10
23.1168065252547
20
1.99486556758546
30
0
41
1
10
22.7783083558279
20
2.00789600346707
30
0
41
1
10
22.4397221206729
20
2.01828203896244
30
0
41
1
10
22.1011814266197
20
2.02537406507508
30
0
41
1
10
21.7626833359757
20
2.02913576175328
30
0
41
1
10
21.4240971116138
20
2.03026970196922
30
0
41
1
10
21.0855564605544
20
2.02807018306066
30
0
41
1
10
20.7470585233717
20
2.02251562955007
30
0
41
1
10
20.408472306996
20
2.01438013150877
30
0
41
1
10
20.0699314347296
20
2.00291211658177
30
0
41
1
10
19.7314330580382
20
1.98811195462727
30
0
41
1
10
19.3928464905181
20
1.97081124295465
30
0
41
1
10
19.0543054811215
20
1.95021785025852
30
0
41
1
10
18.7158075146458
20
1.92634593751083
30
0
41
1
10
18.3772216674727
20
1.90008737273439
30
0
41
1
10
18.038681550258
20
1.87063355153535
30
0
41
1
10
17.7001839946706
20
1.83803952073134
30
0
41
1
10
17.3615981537164
20
1.80322252418958
30
0
41
1
10
17.0769316539835
20
1.771387752544
30
0
41
1
10
16.8769200002918
20
1.74763269608036
30
0
41
1
10
16.8461619330629
20
1.74394665445769
30
0
0
SPLINE
5
BB
100
AcDbEntity
8
1
62
256
6
ByLayer
370
18
48
1
60
0
100
AcDbSpline
70
4
71
3
72
18
73
14
40
0
40
0
40
0
40
0
40
0.165494521864034
40
0.165494521864034
40
0.330989043728068
40
0.330989043728068
40
0.496483565592102
40
0.496483565592102
40
0.661978087456136
40
0.661978087456136
40
0.992967131184207
40
0.992967131184207
40
1
40
1
40
1
40
1
41
1
10
15.5733594150934
20
-3.09804106737997
30
0
41
1
10
15.907231708693
20
-3.19905675397882
30
0
41
1
10
16.2408549695463
20
-3.29235815464401
30
0
41
1
10
16.9071781757324
20
-3.46438470296866
30
0
41
1
10
17.2400173094424
20
-3.54290319938704
30
0
41
1
10
17.9057373781363
20
-3.68414375690304
30
0
41
1
10
18.2389895422144
20
-3.74654535992701
30
0
41
1
10
18.9058980097673
20
-3.8551261226236
30
0
41
1
10
19.2403356397606
20
-3.90086238558217
30
0
41
1
10
20.2401307809037
20
-4.01197248214032
30
0
41
1
10
20.905439473216
20
-4.05065196028801
30
0
41
1
10
21.5856530315453
20
-4.05348474395348
30
0
41
1
10
21.5998072671936
20
-4.05352744042594
30
0
41
1
10
21.6139631434598
20
-4.05355389059957
30
0
0
SPLINE
5
BC
100
AcDbEntity
8
1
62
256
6
ByLayer
370
18
48
1
60
0
100
AcDbSpline
70
4
71
3
72
18
73
14
40
0
40
0
40
0
40
0
40
0.0090016653597863
40
0.0090016653597863
40
0.174168054466488
40
0.174168054466488
40
0.339334443573191
40
0.339334443573191
40
0.669667221786596
40
0.669667221786596
40
0.834833610893298
40
0.834833610893298
40
1
40
1
40
1
40
1
41
1
10
41.4935880014318
20
2.70983338192752
30
0
41
1
10
41.5117064714506
20
2.71625286918797
30
0
41
1
10
41.5298258108549
20
2.7226541766797
30
0
41
1
10
41.8804250309591
20
2.84615473157427
30
0
41
1
10
42.2127784097719
20
2.95781704863461
30
0
41
1
10
42.8792301439946
20
3.16711975740222
30
0
41
1
10
43.2124175449623
20
3.26548338375588
30
0
41
1
10
44.2108550898307
20
3.53667099979379
30
0
41
1
10
44.8747713126745
20
3.68815860190364
30
0
41
1
10
45.8745421741623
20
3.86459079668754
30
0
41
1
10
46.2074869292883
20
3.915125699844
30
0
41
1
10
46.8728009538782
20
3.99824891149436
30
0
41
1
10
47.2049591385809
20
4.03115269268307
30
0
41
1
10
47.537473989008
20
4.05502389036718
30
0
0
SPLINE
5
BD
100
AcDbEntity
8
1
62
256
6
ByLayer
370
18
48
1
60
0
100
AcDbSpline
70
4
71
3
72
18
73
14
40
0
40
0
40
0
40
0
40
0.0252427950578604
40
0.0252427950578604
40
0.187702329214884
40
0.187702329214884
40
0.350161863371908
40
0.350161863371908
40
0.512621397528932
40
0.512621397528932
40
0.675080931685956
40
0.675080931685956
40
1
40
1
40
1
40
1
41
1
10
7.69459459018529
20
3.92364910224003
30
0
41
1
10
7.73433081669143
20
3.92383135008811
30
0
41
1
10
7.77418940873176
20
3.92375718224744
30
0
41
1
10
8.07122306568579
20
3.92139092230246
30
0
41
1
10
8.33226162896887
20
3.90940275686808
30
0
41
1
10
8.86068413382094
20
3.87036288201872
30
0
41
1
10
9.12792710827586
20
3.84374831225267
30
0
41
1
10
9.66808951918864
20
3.77750451762
30
0
41
1
10
9.94036102327885
20
3.73730134975082
30
0
41
1
10
10.486739340892
20
3.64728636602587
30
0
41
1
10
10.7611925438167
20
3.59708455879374
30
0
41
1
10
11.5881271655587
20
3.43206061166313
30
0
41
1
10
12.1441210435447
20
3.30326601989867
30
0
41
1
10
12.7038253393334
20
3.16209339079467
30
0
0
SPLINE
5
BE
100
AcDbEntity
8
1
62
256
6
ByLayer
370
18
48
1
60
0
100
AcDbSpline
70
4
71
3
72
18
73
14
40
0
40
0
40
0
40
0
40
0.25
40
0.25
40
0.375
40
0.375
40
0.5
40
0.5
40
0.75
40
0.75
40
0.875
40
0.875
40
1
40
1
40
1
40
1
41
1
10
47.1068268673459
20
0.404254729153052
30
0
41
1
10
47.0632444670918
20
0.1907091680294
30
0
41
1
10
47.0283252363835
20
-0.0233027604068354
30
0
41
1
10
46.9889948484744
20
-0.345023095086589
30
0
41
1
10
46.9780696671561
20
-0.452380829684415
30
0
41
1
10
46.9607292961592
20
-0.66733908677304
30
0
41
1
10
46.9543051174746
20
-0.775481873507829
30
0
41
1
10
46.9423035569095
20
-1.094575823676
30
0
41
1
10
46.9437763695117
20
-1.30109195452479
30
0
41
1
10
46.9598547449625
20
-1.60177044102142
30
0
41
1
10
46.9675372862415
20
-1.70047307240696
30
0
41
1
10
46.9876310598759
20
-1.89477715151824
30
0
41
1
10
47.0000622061633
20
-1.99035929775644
30
0
41
1
10
47.0147145795764
20
-2.08314323459683
30
0
0
SPLINE
5
BF
100
AcDbEntity
8
1
62
256
6
ByLayer
370
18
48
1
60
0
100
AcDbSpline
70
4
71
3
72
12
73
8
40
0
40
0
40
0
40
0
40
0.290785993705922
40
0.290785993705922
40
0.581571987411843
40
0.581571987411843
40
1
40
1
40
1
40
1
41
1
10
5.9163991775888
20
-3.804168416923
30
0
41
1
10
5.91633504783175
20
-3.84547945184875
30
0
41
1
10
5.91626086639138
20
-3.8814994996836
30
0
41
1
10
5.91609924068948
20
-3.94123243775897
30
0
41
1
10
5.91601162371572
20
-3.9651506947319
30
0
41
1
10
5.91578500966642
20
-4.00928705688918
30
0
41
1
10
5.91564056207375
20
-4.0233533516043
30
0
41
1
10
5.91548775418551
20
-4.02512510202502
30
0
0
SPLINE
5
C0
100
AcDbEntity
8
1
62
256
6
ByLayer
370
18
48
1
60
0
100
AcDbSpline
70
4
71
3
72
10
73
6
40
0
40
0
40
0
40
0
40
0.5
40
0.5
40
1
40
1
40
1
40
1
41
1
10
48.1722343908226
20
1.3347385764408
30
0
41
1
10
48.2290810441508
20
1.36234161125427
30
0
41
1
10
48.2849405572386
20
1.39334156582407
30
0
41
1
10
48.389773263268
20
1.46465198050782
30
0
41
1
10
48.4394417287896
20
1.50545736586849
30
0
41
1
10
48.4813858702203
20
1.5527456536617
30
0
0
SPLINE
5
C1
100
AcDbEntity
8
1
62
256
6
ByLayer
370
13
48
1
60
0
100
AcDbSpline
70
4
71
3
72
10
73
6
40
0
40
0
40
0
40
0
40
0.5
40
0.5
40
1
40
1
40
1
40
1
41
1
10
6.35982055321142
20
1.3960895230924
30
0
41
1
10
6.28257050033508
20
1.41890450129875
30
0
41
1
10
6.20666702856465
20
1.44403970449304
30
0
41
1
10
6.0577388992568
20
1.49960347764571
30
0
41
1
10
5.98413912480908
20
1.53031429444567
30
0
41
1
10
5.91405640538756
20
1.56345711524582
30
0
0
SPLINE
5
C2
100
AcDbEntity
8
1
62
256
6
ByLayer
370
18
48
1
60
0
100
AcDbSpline
70
4
71
3
72
24
73
20
40
0
40
0
40
0
40
0
40
0.0474946803010375
40
0.0474946803010375
40
0.15332860471203
40
0.15332860471203
40
0.259162529123023
40
0.259162529123023
40
0.364996453534015
40
0.364996453534015
40
0.576664302356
40
0.576664302356
40
0.682498226767
40
0.682498226767
40
0.788332151178
40
0.788332151178
40
0.894166075589
40
0.894166075589
40
1
40
1
40
1
40
1
41
1
10
47.1364548841215
20
0.373038871189323
30
0
41
1
10
47.1461378494061
20
0.382757297158832
30
0
41
1
10
47.1561450972437
20
0.392932903679252
30
0
41
1
10
47.1893594150193
20
0.427108915070562
30
0
41
1
10
47.2137943396129
20
0.452846016666598
30
0
41
1
10
47.2657310267033
20
0.508463628526869
30
0
41
1
10
47.2932315552519
20
0.538345047963873
30
0
41
1
10
47.3515395058256
20
0.602165245848283
30
0
41
1
10
47.3823979634636
20
0.636163582682258
30
0
41
1
10
47.4781956689642
20
0.741446049494243
30
0
41
1
10
47.5468670434551
20
0.816825062774114
30
0
41
1
10
47.6604146938874
20
0.934686818635669
30
0
41
1
10
47.7002543878615
20
0.974940342204462
30
0
41
1
10
47.7828175289607
20
1.05432312775162
30
0
41
1
10
47.8256916036884
20
1.09363707257313
30
0
41
1
10
47.915952430644
20
1.17001526381634
30
0
41
1
10
47.9636313594117
20
1.20730023894595
30
0
41
1
10
48.064190508778
20
1.27629992095677
30
0
41
1
10
48.116678998707
20
1.30776253945595
30
0
41
1
10
48.1722343908227
20
1.33473857644077
30
0
0
SPLINE
5
C3
100
AcDbEntity
8
1
62
256
6
ByLayer
370
18
48
1
60
0
100
AcDbSpline
70
4
71
3
72
78
73
74
40
0
40
0
40
0
40
0
40
0.037339898255531
40
0.037339898255531
40
0.0746797965110619
40
0.0746797965110619
40
0.112019694766593
40
0.112019694766593
40
0.130689643894358
40
0.130689643894358
40
0.149359593022123
40
0.149359593022123
40
0.186699491277653
40
0.186699491277653
40
0.205369440405418
40
0.205369440405418
40
0.224039389533183
40
0.224039389533183
40
0.242709338660948
40
0.242709338660948
40
0.261379287788713
40
0.261379287788713
40
0.298719186044242
40
0.298719186044242
40
0.317389135172008
40
0.317389135172008
40
0.336059084299773
40
0.336059084299773
40
0.373398982555303
40
0.373398982555303
40
0.410738880810833
40
0.410738880810833
40
0.448078779066364
40
0.448078779066364
40
0.466748728194129
40
0.466748728194129
40
0.485418677321894
40
0.485418677321894
40
0.50408862644966
40
0.50408862644966
40
0.522758575577425
40
0.522758575577425
40
0.560098473832955
40
0.560098473832955
40
0.597438372088485
40
0.597438372088485
40
0.634778270344016
40
0.634778270344016
40
0.672118168599546
40
0.672118168599546
40
0.709458066855077
40
0.709458066855077
40
0.728128015982841
40
0.728128015982841
40
0.746797965110606
40
0.746797965110606
40
0.784137863366135
40
0.784137863366135
40
0.8028078124939
40
0.8028078124939
40
0.821477761621666
40
0.821477761621666
40
0.840147710749431
40
0.840147710749431
40
0.858817659877196
40
0.858817659877196
40
0.896157558132726
40
0.896157558132726
40
0.933497456388257
40
0.933497456388257
40
0.970837354643787
40
0.970837354643787
40
1
40
1
40
1
40
1
41
1
10
12.7038253393333
20
3.16209339079472
30
0
41
1
10
13.0638950056758
20
3.06640775936268
30
0
41
1
10
13.4226556197086
20
2.96248006048577
30
0
41
1
10
14.1400872803374
20
2.73819497161918
30
0
41
1
10
14.4985987583177
20
2.6179772631609
30
0
41
1
10
15.2159244125291
20
2.36633173510609
30
0
41
1
10
15.5745345137908
20
2.23485867455929
30
0
41
1
10
16.1135956558697
20
2.02826347013317
30
0
41
1
10
16.2934415693823
20
1.95755434717316
30
0
41
1
10
16.6526567750913
20
1.81401753324306
30
0
41
1
10
16.8322212654278
20
1.74125356601991
30
0
41
1
10
17.3703633784147
20
1.51931627781784
30
0
41
1
10
17.7288036233929
20
1.36733710414541
30
0
41
1
10
18.2664456993777
20
1.13482788275175
30
0
41
1
10
18.4455786520691
20
1.05635761556209
30
0
41
1
10
18.8042834304013
20
0.898488882997952
30
0
41
1
10
18.9837426831971
20
0.818876079033942
30
0
41
1
10
19.3427212394919
20
0.658310135431577
30
0
41
1
10
19.522371306743
20
0.57730374843058
30
0
41
1
10
19.8818362578021
20
0.415075326121126
30
0
41
1
10
20.0613611352018
20
0.333664943872321
30
0
41
1
10
20.5994438882984
20
0.0887643162463121
30
0
41
1
10
20.9579311928578
20
-0.0744389957644103
30
0
41
1
10
21.4953068193426
20
-0.319249705150554
30
0
41
1
10
21.6744678646009
20
-0.400646094598301
30
0
41
1
10
22.0328807893497
20
-0.563020708902513
30
0
41
1
10
22.2120485770977
20
-0.644165596086765
30
0
41
1
10
22.7500098248594
20
-0.885979711167096
30
0
41
1
10
23.1099153742885
20
-1.04508025130656
30
0
41
1
10
23.8276317212673
20
-1.35757444760372
30
0
41
1
10
24.1861865723024
20
-1.51002332773416
30
0
41
1
10
24.9025562529685
20
-1.8085770043744
30
0
41
1
10
25.2608061801442
20
-1.95258217295722
30
0
41
1
10
25.7986401497141
20
-2.16110996110729
30
0
41
1
10
25.9781211144632
20
-2.22912743750879
30
0
41
1
10
26.3371796636782
20
-2.36283239056974
30
0
41
1
10
26.516864335134
20
-2.42852495655683
30
0
41
1
10
26.876016288262
20
-2.55661342231073
30
0
41
1
10
27.0554800844089
20
-2.61929653724499
30
0
41
1
10
27.413979747645
20
-2.7410827229287
30
0
41
1
10
27.5930250567642
20
-2.79997236353427
30
0
41
1
10
28.1304473183708
20
-2.96997612409393
30
0
41
1
10
28.4883414405004
20
-3.07589840553303
30
0
41
1
10
29.2052258487027
20
-3.27154398751682
30
0
41
1
10
29.5636217697373
20
-3.36295287196435
30
0
41
1
10
30.2823704161247
20
-3.5262305457872
30
0
41
1
10
30.6407249006131
20
-3.59954315536825
30
0
41
1
10
31.3572791721095
20
-3.72617516855323
30
0
41
1
10
31.7150825536911
20
-3.7790411031522
30
0
41
1
10
32.4314848757936
20
-3.86570770328706
30
0
41
1
10
32.7897610364313
20
-3.89944581125224
30
0
41
1
10
33.3281659422702
20
-3.9364303421838
30
0
41
1
10
33.5076927107288
20
-3.9470079982006
30
0
41
1
10
33.8662142576069
20
-3.96203556912107
30
0
41
1
10
34.0454270250543
20
-3.96631493440054
30
0
41
1
10
34.5825482548981
20
-3.97112236988102
30
0
41
1
10
34.9402771829385
20
-3.96377892509955
30
0
41
1
10
35.4770511007117
20
-3.93842290349437
30
0
41
1
10
35.6559021358605
20
-3.92763838945632
30
0
41
1
10
36.0139572031109
20
-3.90165912989102
30
0
41
1
10
36.1930937368146
20
-3.88639370185695
30
0
41
1
10
36.5515597366124
20
-3.84987124805377
30
0
41
1
10
36.7310171656339
20
-3.8286850511459
30
0
41
1
10
37.0898282742933
20
-3.781694133218
30
0
41
1
10
37.2690730551897
20
-3.75585722064699
30
0
41
1
10
37.8062669153131
20
-3.67092945650816
30
0
41
1
10
38.1641299109823
20
-3.60465078482287
30
0
41
1
10
38.8794636969509
20
-3.45580661726822
30
0
41
1
10
39.2373653838261
20
-3.37184950187938
30
0
41
1
10
39.9539063834534
20
-3.18529412301268
30
0
41
1
10
40.3132820452811
20
-3.08370600744178
30
0
41
1
10
40.9512372426624
20
-2.88996063531326
30
0
41
1
10
41.2308182877791
20
-2.8012087671718
30
0
41
1
10
41.5102297925779
20
-2.70756657923872
30
0
0
SPLINE
5
C4
100
AcDbEntity
8
1
62
256
6
ByLayer
370
18
48
1
60
0
100
AcDbSpline
70
4
71
3
72
8
73
4
40
0
40
0
40
0
40
0
40
1
40
1
40
1
40
1
41
1
10
47.1068268673459
20
0.404254729153052
30
0
41
1
10
47.2789372720835
20
0.320123299286422
30
0
41
1
10
47.4522392772971
20
0.241756074421403
30
0
41
1
10
47.6268324273064
20
0.169634586646055
30
0
0
SPLINE
5
C5
100
AcDbEntity
8
1
62
256
6
ByLayer
370
13
48
1
60
0
100
AcDbSpline
70
4
71
3
72
10
73
6
40
0
40
0
40
0
40
0
40
0.306746247789434
40
0.306746247789434
40
1
40
1
40
1
40
1
41
1
10
6.36050144009945
20
-3.9222667953747
30
0
41
1
10
6.36052092424242
20
-3.9222110146323
30
0
41
1
10
6.36054039018779
20
-3.91778144272172
30
0
41
1
10
6.36060289220143
20
-3.88898432204636
30
0
41
1
10
6.36064389731416
20
-3.84700758437791
30
0
41
1
10
6.36067853257339
20
-3.78408818804098
30
0
0
SPLINE
5
C6
100
AcDbEntity
8
1
62
256
6
ByLayer
370
13
48
1
60
0
100
AcDbSpline
70
4
71
3
72
60
73
56
40
0
40
0
40
0
40
0
40
0.0174039383724815
40
0.0317265191795149
40
0.046049099986549
40
0.0746942616006164
40
0.0890168424076502
40
0.103339423214684
40
0.131984584828751
40
0.146307165635785
40
0.160629746442819
40
0.189274908056886
40
0.20359748886392
40
0.217920069670954
40
0.246565231285021
40
0.260887812092055
40
0.275210392899089
40
0.303855554513156
40
0.31817813532019
40
0.332500716127224
40
0.361145877741291
40
0.375468458548325
40
0.389791039355359
40
0.418436200969426
40
0.43275878177646
40
0.447081362583493
40
0.475726524197561
40
0.490049105004595
40
0.504371685811628
40
0.533016847425696
40
0.547339428232729
40
0.561662009039763
40
0.590307170653831
40
0.604629751460864
40
0.618952332267898
40
0.647597493881966
40
0.661920074688999
40
0.676242655496033
40
0.7048878171101
40
0.719210397917135
40
0.733532978724168
40
0.762178140338235
40
0.776500721145269
40
0.790823301952303
40
0.81946846356637
40
0.833791044373404
40
0.848113625180437
40
0.876758786794505
40
0.891081367601539
40
0.905403948408573
40
0.93404911002264
40
0.948371690829674
40
0.962694271636707
40
0.991339433250775
40
1
40
1
40
1
40
1
41
1
10
39.0322921243758
20
-1.75712232271636
30
0
41
1
10
38.9294500993065
20
-1.76919528496114
30
0
41
1
10
38.7419642513622
20
-1.79053693707428
30
0
41
1
10
38.4698147945215
20
-1.81972142233391
30
0
41
1
10
38.1313180933586
20
-1.85381336227854
30
0
41
1
10
37.7927758168477
20
-1.88478628477716
30
0
41
1
10
37.4541904326442
20
-1.91257631362529
30
0
41
1
10
37.1156928913192
20
-1.93798789857689
30
0
41
1
10
36.7771495644485
20
-1.96015908101569
30
0
41
1
10
36.4385636393364
20
-1.97906868959757
30
0
41
1
10
36.1000659770879
20
-1.99548935989753
30
0
41
1
10
35.7615230128567
20
-2.00860595422023
30
0
41
1
10
35.4229377350145
20
-2.01841150112662
30
0
41
1
10
35.0844408568524
20
-2.02564157367959
30
0
41
1
10
34.7458987601224
20
-2.02953420491059
30
0
41
1
10
34.4073141556291
20
-2.03009727709229
30
0
41
1
10
34.0688176898186
20
-2.02802417860457
30
0
41
1
10
33.7302755097978
20
-2.02261208328565
30
0
41
1
10
33.3916901843574
20
-2.01388421561802
30
0
41
1
10
33.0531928786055
20
-2.00249454584409
30
0
41
1
10
32.7146499321253
20
-1.98782013822591
30
0
41
1
10
32.3760644354937
20
-1.96992254584302
30
0
41
1
10
32.0375672223819
20
-1.94938895184038
30
0
41
1
10
31.6990246629261
20
-1.9256813967668
30
0
41
1
10
31.3604394736263
20
-1.89887699767189
30
0
41
1
10
31.021942373771
20
-1.86949311903749
30
0
41
1
10
30.6833997444231
20
-1.83708384600544
30
0
41
1
10
30.3448145107774
20
-1.80174576362845
30
0
41
1
10
30.0063174163192
20
-1.76391873786568
30
0
41
1
10
29.6677747310389
20
-1.72325274466996
30
0
41
1
10
29.3291892912311
20
-1.67985948279872
30
0
41
1
10
28.990692107781
20
-1.63410005006747
30
0
41
1
10
28.6521495427237
20
-1.58572786897747
30
0
41
1
10
28.3135644847366
20
-1.53487557601738
30
0
41
1
10
27.9750676553079
20
-1.48181586173206
30
0
41
1
10
27.6365253130088
20
-1.4264080397821
30
0
41
1
10
27.2979400401644
20
-1.36879845858172
30
0
41
1
10
26.9594427536794
20
-1.30916893394621
30
0
41
1
10
26.6208998149814
20
-1.2474862531295
30
0
41
1
10
26.2823142910948
20
-1.18390945072696
30
0
41
1
10
25.943817009222
20
-1.11852777369069
30
0
41
1
10
25.605274325774
20
-1.05141637249383
30
0
41
1
10
25.2666890721198
20
-0.982745828134114
30
0
41
1
10
24.9281920567444
20
-0.912510599748714
30
0
41
1
10
24.5896496511959
20
-0.840892620173946
30
0
41
1
10
24.2510646856173
20
-0.768070226915341
30
0
41
1
10
23.912567857212
20
-0.693944891684254
30
0
41
1
10
23.5740253772437
20
-0.618804618761061
30
0
41
1
10
23.2354399214446
20
-0.542836635570438
30
0
41
1
10
22.896942556601
20
-0.465846844422288
30
0
41
1
10
22.5583996407448
20
-0.388222746724949
30
0
41
1
10
22.2198142144932
20
-0.310151126886268
30
0
41
1
10
21.8813170791721
20
-0.231350374969537
30
0
41
1
10
21.5762328077004
20
-0.160117251908559
30
0
41
1
10
21.3557600319109
20
-0.108615966902676
30
0
41
1
10
21.3045789494618
20
-0.0966475299043452
30
0
0
SPLINE
5
C7
100
AcDbEntity
8
1
62
256
6
ByLayer
370
18
48
1
60
0
100
AcDbSpline
70
4
71
3
72
8
73
4
40
0
40
0
40
0
40
0
40
1
40
1
40
1
40
1
41
1
10
48.3047911410318
20
-1.04743513833611
30
0
41
1
10
48.3150238169836
20
-1.04604261642598
30
0
41
1
10
48.3254145732953
20
-1.04406453707355
30
0
41
1
10
48.3359694153528
20
-1.04147865527355
30
0
0
SPLINE
5
C8
100
AcDbEntity
8
1
62
256
6
ByLayer
370
18
48
1
60
0
100
AcDbSpline
70
4
71
3
72
8
73
4
40
0
40
0
40
0
40
0
40
1
40
1
40
1
40
1
41
1
10
47.5374739890081
20
4.05502389036718
30
0
41
1
10
47.7923152136563
20
3.4083212266743
30
0
41
1
10
48.0539529034211
20
2.73642958631069
30
0
41
1
10
48.3016625267218
20
2.02765377385285
30
0
0
SPLINE
5
C9
100
AcDbEntity
8
1
62
256
6
ByLayer
370
18
48
1
60
0
100
AcDbSpline
70
4
71
3
72
8
73
4
40
0
40
0
40
0
40
0
40
1
40
1
40
1
40
1
41
1
10
48.3016625267218
20
2.02765377385285
30
0
41
1
10
48.3587541515681
20
1.86429652415959
30
0
41
1
10
48.4186117559997
20
1.70621046088817
30
0
41
1
10
48.481385870224
20
1.55274565364886
30
0
0
SPLINE
5
CA
100
AcDbEntity
8
1
62
256
6
ByLayer
370
18
48
1
60
0
100
AcDbSpline
70
4
71
3
72
10
73
6
40
0
40
0
40
0
40
0
40
0.744290369291553
40
0.744290369291553
40
1
40
1
40
1
40
1
41
1
10
23.0716231201082
20
-3.94868019880795
30
0
41
1
10
22.6338373308958
20
-3.94704350365373
30
0
41
1
10
22.1972415689154
20
-3.93028850252296
30
0
41
1
10
21.6110958420552
20
-3.88770060063391
30
0
41
1
10
21.4612539535479
20
-3.87507649470751
30
0
41
1
10
21.3114189459486
20
-3.86073238125283
30
0
0
SPLINE
5
CB
100
AcDbEntity
8
1
62
256
6
ByLayer
370
13
48
1
60
0
100
AcDbSpline
70
4
71
3
72
24
73
20
40
0
40
0
40
0
40
0
40
0.141484806614709
40
0.141484806614709
40
0.227336325953237
40
0.227336325953237
40
0.313187845291766
40
0.313187845291766
40
0.484890883968825
40
0.484890883968825
40
0.656593922645883
40
0.656593922645883
40
0.699519682315148
40
0.699519682315148
40
0.742445441984412
40
0.742445441984412
40
0.828296961322942
40
0.828296961322942
40
1
40
1
40
1
40
1
41
1
10
21.3114189458138
20
-3.86073238123996
30
0
41
1
10
20.6098763460705
20
-3.79357179703487
30
0
41
1
10
19.9084845900536
20
-3.68870509199269
30
0
41
1
10
18.7760748177029
20
-3.46192315922292
30
0
41
1
10
18.3471999612234
20
-3.36306353733556
30
0
41
1
10
17.485294640106
20
-3.14025811771393
30
0
41
1
10
17.0556615422475
20
-3.01724507272238
30
0
41
1
10
15.771645672672
20
-2.61821083877783
30
0
41
1
10
14.9207277261967
20
-2.31136659965935
30
0
41
1
10
13.2166186713546
20
-1.64044621596858
30
0
41
1
10
12.3633145772222
20
-1.27597748410926
30
0
41
1
10
11.2874512313401
20
-0.800207286193313
30
0
41
1
10
11.0715529477473
20
-0.703941724658165
30
0
41
1
10
10.6410175104812
20
-0.510875555968994
30
0
41
1
10
10.4261486643573
20
-0.413979202371365
30
0
41
1
10
9.78242703407614
20
-0.122902327849033
30
0
41
1
10
9.35444335963962
20
0.0716168625923217
30
0
41
1
10
8.0716746905515
20
0.651454929146496
30
0
41
1
10
7.21824234845482
20
1.03358536051459
30
0
41
1
10
6.35982055321139
20
1.3960895230924
30
0
0
SPLINE
5
CC
100
AcDbEntity
8
1
62
256
6
ByLayer
370
18
48
1
60
0
100
AcDbSpline
70
4
71
3
72
8
73
4
40
0
40
0
40
0
40
0
40
1
40
1
40
1
40
1
41
1
10
14.2572480467865
20
2.71147489165969
30
0
41
1
10
14.6968296376161
20
2.84772315672589
30
0
41
1
10
15.1355565842116
20
2.97670368409095
30
0
41
1
10
15.5733594150934
20
3.09804106737997
30
0
0
SPLINE
5
CD
100
AcDbEntity
8
1
62
256
6
ByLayer
370
18
48
1
60
0
100
AcDbSpline
70
4
71
3
72
22
73
18
40
0
40
0
40
0
40
0
40
0.249999999999999
40
0.249999999999999
40
0.374999999999999
40
0.374999999999999
40
0.499999999999999
40
0.499999999999999
40
0.624999999999999
40
0.624999999999999
40
0.749999999999998
40
0.749999999999998
40
0.812499999999998
40
0.812499999999998
40
0.874999999999998
40
0.874999999999998
40
1
40
1
40
1
40
1
41
1
10
12.7038253393335
20
-3.16209339079467
30
0
41
1
10
12.1439576752194
20
-3.30330722582863
30
0
41
1
10
11.5872896358778
20
-3.43227551791915
30
0
41
1
10
10.7582927867396
20
-3.59763920971972
30
0
41
1
10
10.4825966156614
20
-3.64802171232864
30
0
41
1
10
9.93564899410623
20
-3.73802394820706
30
0
41
1
10
9.6642964942013
20
-3.77800926075491
30
0
41
1
10
9.12703085130852
20
-3.84381830080477
30
0
41
1
10
8.86092313907429
20
-3.87032551431298
30
0
41
1
10
8.33413467372623
20
-3.90928400736789
30
0
41
1
10
8.07357552948326
20
-3.92130866231062
30
0
41
1
10
7.68805352525456
20
-3.92447467896099
30
0
41
1
10
7.56018235470981
20
-3.92300748222567
30
0
41
1
10
7.3084541690061
20
-3.91416382431123
30
0
41
1
10
7.1844721281343
20
-3.90680191834591
30
0
41
1
10
6.81899681013817
20
-3.87437631179964
30
0
41
1
10
6.58380154316967
20
-3.83928711730212
30
0
41
1
10
6.36067853257339
20
-3.78408818804095
30
0
0
SPLINE
5
CE
100
AcDbEntity
8
1
62
256
6
ByLayer
370
18
48
1
60
0
100
AcDbSpline
70
4
71
4
72
10
73
5
40
0
40
0
40
0
40
0
40
0
40
1
40
1
40
1
40
1
40
1
41
1
10
13.0372999545355
20
-2.31066985282101
30
0
41
1
10
12.953931300735
20
-2.52352573731443
30
0
41
1
10
12.8705626469344
20
-2.73638162180788
30
0
41
1
10
12.7871939931338
20
-2.9492375063013
30
0
41
1
10
12.7038253393333
20
-3.16209339079475
30
0
0
SPLINE
5
CF
100
AcDbEntity
8
1
62
256
6
ByLayer
370
18
48
1
60
0
100
AcDbSpline
70
4
71
4
72
10
73
5
40
0
40
0
40
0
40
0
40
0
40
1
40
1
40
1
40
1
40
1
41
1
10
15.5733594150933
20
3.09804106737991
30
0
41
1
10
15.4954688413733
20
2.90765113718101
30
0
41
1
10
15.4175782676534
20
2.71726120698213
30
0
41
1
10
15.3396876939334
20
2.52687127678325
30
0
41
1
10
15.2617971202134
20
2.33648134658435
30
0
0
SPLINE
5
D0
100
AcDbEntity
8
1
62
256
6
ByLayer
370
18
48
1
60
0
100
AcDbSpline
70
4
71
3
72
24
73
20
40
0
40
0
40
0
40
0
40
0.125
40
0.125
40
0.25
40
0.25
40
0.375
40
0.375
40
0.5
40
0.5
40
0.625
40
0.625
40
0.6875
40
0.6875
40
0.75
40
0.75
40
0.875
40
0.875
40
1
40
1
40
1
40
1
41
1
10
5.91639917758886
20
-3.804168416923
30
0
41
1
10
5.82546508706838
20
-3.77279033042376
30
0
41
1
10
5.73745390649174
20
-3.73705367409849
30
0
41
1
10
5.57023313642603
20
-3.65549480369819
30
0
41
1
10
5.49170655897802
20
-3.61003664047507
30
0
41
1
10
5.34661109560099
20
-3.50796508203038
30
0
41
1
10
5.2800238670205
20
-3.45136945028284
30
0
41
1
10
5.16150987834138
20
-3.32433811013794
30
0
41
1
10
5.10925762745973
20
-3.25307631867881
30
0
41
1
10
5.02660857720684
20
-3.09876872764295
30
0
41
1
10
4.99573212391215
20
-3.01551725178896
30
0
41
1
10
4.96715277548842
20
-2.88020083608222
30
0
41
1
10
4.9606108043601
20
-2.83313470167983
30
0
41
1
10
4.95397115420596
20
-2.73759219070828
30
0
41
1
10
4.95379879916402
20
-2.68889462401489
30
0
41
1
10
4.9624969019309
20
-2.54008026256614
30
0
41
1
10
4.98068807335409
20
-2.43679821214582
30
0
41
1
10
5.0404804468948
20
-2.22504361745476
30
0
41
1
10
5.08124187603315
20
-2.11906236951862
30
0
41
1
10
5.13113512434569
20
-2.01300002681
30
0
0
SPLINE
5
D1
100
AcDbEntity
8
1
62
256
6
ByLayer
370
18
48
1
60
0
100
AcDbSpline
70
4
71
3
72
8
73
4
40
0
40
0
40
0
40
0
40
1
40
1
40
1
40
1
41
1
10
48.9997518896158
20
0.08496556451027
30
0
41
1
10
49.0000827034553
20
0.0283218548367472
30
0
41
1
10
49.0000827034553
20
-0.0283218548368041
30
0
41
1
10
48.9997518896158
20
-0.0849655645103269
30
0
0
SPLINE
5
D2
100
AcDbEntity
8
1
62
256
6
ByLayer
370
13
48
1
60
0
100
AcDbSpline
70
4
71
3
72
8
73
4
40
0
40
0
40
0
40
0
40
1
40
1
40
1
40
1
41
1
10
5.91008589425655
20
1.56534543208923
30
0
41
1
10
5.91140695371152
20
1.56471361316829
30
0
41
1
10
5.91273045371474
20
1.56408417108847
30
0
41
1
10
5.91405640538756
20
1.56345711524582
30
0
0
SPLINE
5
D3
100
AcDbEntity
8
1
62
256
6
ByLayer
370
18
48
1
60
0
100
AcDbSpline
70
4
71
3
72
36
73
32
40
0
40
0
40
0
40
0
40
0.0844665035204301
40
0.0844665035204301
40
0.16893300704086
40
0.16893300704086
40
0.211166258801077
40
0.211166258801077
40
0.253399510561293
40
0.253399510561293
40
0.295632762321509
40
0.295632762321509
40
0.337866014081726
40
0.337866014081726
40
0.422332517602156
40
0.422332517602156
40
0.506799021122586
40
0.506799021122586
40
0.591265524643016
40
0.591265524643016
40
0.675732028163446
40
0.675732028163446
40
0.760198531683877
40
0.760198531683877
40
0.844665035204307
40
0.844665035204307
40
0.886898286964522
40
0.886898286964522
40
0.929131538724737
40
0.929131538724737
40
1
40
1
40
1
40
1
41
1
10
47.1068268673459
20
0.404254729152996
30
0
41
1
10
46.749017138745
20
0.567967620103445
30
0
41
1
10
46.3916806719289
20
0.730757987152316
30
0
41
1
10
45.6764068881353
20
1.05109903276343
30
0
41
1
10
45.3188794441122
20
1.20949757488896
30
0
41
1
10
44.7816866289354
20
1.44183699161513
30
0
41
1
10
44.6026119536991
20
1.51869634529382
30
0
41
1
10
44.2438878263162
20
1.67004694404918
30
0
41
1
10
44.0645774263466
20
1.74446483010522
30
0
41
1
10
43.7066090636592
20
1.89057923526212
30
0
41
1
10
43.5278704739871
20
1.9621052499181
30
0
41
1
10
43.1701999573088
20
2.10281528507574
30
0
41
1
10
42.9913061735103
20
2.17185585778191
30
0
41
1
10
42.4550417448936
20
2.37572686516728
30
0
41
1
10
42.0973623625354
20
2.50607379265423
30
0
41
1
10
41.3816858366705
20
2.75310108925351
30
0
41
1
10
41.0226274231562
20
2.86837494680563
30
0
41
1
10
40.3058830456119
20
3.08585579729348
30
0
41
1
10
39.9477550500667
20
3.18698540861132
30
0
41
1
10
39.2323177345549
20
3.3730725169967
30
0
41
1
10
38.8745513714006
20
3.45691616736892
30
0
41
1
10
38.1586257323364
20
3.60570738316608
30
0
41
1
10
37.7997592886766
20
3.67208823344777
30
0
41
1
10
37.0823505362491
20
3.7852446080775
30
0
41
1
10
36.724188939559
20
3.83240891978909
30
0
41
1
10
36.1874429449082
20
3.8869048111161
30
0
41
1
10
36.0085047847315
20
3.90209932209274
30
0
41
1
10
35.6506758897683
20
3.92797165371295
30
0
41
1
10
35.4718474840302
20
3.93871450539089
30
0
41
1
10
34.9925022454513
20
3.96123325105347
30
0
41
1
10
34.691975593855
20
3.9686186635175
30
0
41
1
10
34.390965801927
20
3.96865216619881
30
0
0
SPLINE
5
D4
100
AcDbEntity
8
1
62
256
6
ByLayer
370
18
48
1
60
0
100
AcDbSpline
70
4
71
3
72
10
73
6
40
0
40
0
40
0
40
0
40
0.305068567450461
40
0.305068567450461
40
1
40
1
40
1
40
1
41
1
10
14.2536611495196
20
-2.69820257196506
30
0
41
1
10
14.0960676273211
20
-2.75039125100284
30
0
41
1
10
13.9385144764926
20
-2.80121357960815
30
0
41
1
10
13.422115816251
20
-2.96264318377743
30
0
41
1
10
13.0635109895622
20
-3.06650980857077
30
0
41
1
10
12.7038253393333
20
-3.16209339079472
30
0
0
SPLINE
5
D5
100
AcDbEntity
8
1
62
256
6
ByLayer
370
18
48
1
60
0
100
AcDbSpline
70
4
71
3
72
8
73
4
40
0
40
0
40
0
40
0
40
1
40
1
40
1
40
1
41
1
10
48.9997518896158
20
0.084965564510469
30
0
41
1
10
48.9284565695147
20
0.276572738881185
30
0
41
1
10
48.858882600636
20
0.46969710429974
30
0
41
1
10
48.7908091731575
20
0.664299677692895
30
0
0
SPLINE
5
D6
100
AcDbEntity
8
1
62
256
6
ByLayer
370
18
48
1
60
0
100
AcDbSpline
70
4
71
3
72
12
73
8
40
0
40
0
40
0
40
0
40
0.25
40
0.25
40
0.5
40
0.5
40
1
40
1
40
1
40
1
41
1
10
5.91048893960271
20
1.55520842040809
30
0
41
1
10
5.91365001409122
20
1.51601183186449
30
0
41
1
10
5.93370002639804
20
1.48018035923272
30
0
41
1
10
5.98357850333616
20
1.41753641021197
30
0
41
1
10
6.01427640384588
20
1.39001038121887
30
0
41
1
10
6.11146459808629
20
1.31621747937996
30
0
41
1
10
6.18488624009188
20
1.27654562776982
30
0
41
1
10
6.26095482856738
20
1.24295915812272
30
0
0
SPLINE
5
D7
100
AcDbEntity
8
1
62
256
6
ByLayer
370
13
48
1
60
0
100
AcDbSpline
70
4
71
3
72
34
73
30
40
0
40
0
40
0
40
0
40
0.0608878824919308
40
0.0608878824919308
40
0.121775764983862
40
0.121775764983862
40
0.243551529967722
40
0.243551529967722
40
0.304439412459652
40
0.304439412459652
40
0.334883353705617
40
0.334883353705617
40
0.365327294951583
40
0.365327294951583
40
0.487103059935451
40
0.487103059935451
40
0.60887882491932
40
0.60887882491932
40
0.669766707411254
40
0.669766707411254
40
0.730654589903188
40
0.730654589903188
40
0.791542472395122
40
0.791542472395122
40
0.852430354887056
40
0.852430354887056
40
0.974206119870924
40
0.974206119870924
40
1
40
1
40
1
40
1
41
1
10
47.4464003922745
20
-3.77738755686698
30
0
41
1
10
47.016435059377
20
-3.7122861448166
30
0
41
1
10
46.5857708212375
20
-3.63313637977498
30
0
41
1
10
45.7277946276323
20
-3.44953507263034
30
0
41
1
10
45.3006144315656
20
-3.34517214022148
30
0
41
1
10
44.0221662486098
20
-2.99773623743064
30
0
41
1
10
43.1736413363686
20
-2.72042062181123
30
0
41
1
10
41.8976403815457
20
-2.25099723213893
30
0
41
1
10
41.4717068180195
20
-2.0856766525736
30
0
41
1
10
40.8305876792466
20
-1.82668753226497
30
0
41
1
10
40.6165398296748
20
-1.73848386595876
30
0
41
1
10
40.1875753597122
20
-1.55866895665969
30
0
41
1
10
39.9723216079657
20
-1.46691580809588
30
0
41
1
10
38.897863059659
20
-1.00255266248169
30
0
41
1
10
38.0458531012836
20
-0.614944771493185
30
0
41
1
10
36.3447866222665
20
0.165345105646764
30
0
41
1
10
35.4953891611536
20
0.557259724300252
30
0
41
1
10
34.2141292330629
20
1.1280140886436
30
0
41
1
10
33.7858290848949
20
1.31536622164879
30
0
41
1
10
32.9248161365224
20
1.67985186023449
30
0
41
1
10
32.4950376155228
20
1.85635705496199
30
0
41
1
10
31.6363421347547
20
2.19386174023268
30
0
41
1
10
31.2072601743741
20
2.35499978807022
30
0
41
1
10
30.347857309922
20
2.65873810181293
30
0
41
1
10
29.9168981719554
20
2.80161493932752
30
0
41
1
10
28.6268889680489
20
3.19634110396186
30
0
41
1
10
27.7699116595069
20
3.41507945161692
30
0
41
1
10
26.7269257230021
20
3.61574152317303
30
0
41
1
10
26.5445283391998
20
3.64848036270013
30
0
41
1
10
26.362117364433
20
3.6787849670641
30
0
0
SPLINE
5
D8
100
AcDbEntity
8
1
62
256
6
ByLayer
370
18
48
1
60
0
100
AcDbSpline
70
4
71
3
72
20
73
16
40
0
40
0
40
0
40
0
40
0.125
40
0.125
40
0.25
40
0.25
40
0.375
40
0.375
40
0.5
40
0.5
40
0.75
40
0.75
40
0.875
40
0.875
40
1
40
1
40
1
40
1
41
1
10
48.3047911410318
20
-1.04743513833626
30
0
41
1
10
48.2610542836564
20
-1.04849181865495
30
0
41
1
10
48.2190681756291
20
-1.03973973367741
30
0
41
1
10
48.138112018275
20
-1.00533776396441
30
0
41
1
10
48.0988321410252
20
-0.979324853408855
30
0
41
1
10
48.0250427613513
20
-0.913399651979489
30
0
41
1
10
47.9904530342511
20
-0.87363841426864
30
0
41
1
10
47.9252650013153
20
-0.782342983108947
30
0
41
1
10
47.8945260707588
20
-0.730434887477429
30
0
41
1
10
47.8097285176884
20
-0.562375410525988
30
0
41
1
10
47.7623329008915
20
-0.433615485746372
30
0
41
1
10
47.7025229258576
20
-0.219825356452503
30
0
41
1
10
47.684445989627
20
-0.144701705912865
30
0
41
1
10
47.6526068572593
20
0.0093316348309429
30
0
41
1
10
47.6387539105369
20
0.0884847497254952
30
0
41
1
10
47.6268324273064
20
0.169634586646055
30
0
0
SPLINE
5
D9
100
AcDbEntity
8
1
62
256
6
ByLayer
370
18
48
1
60
0
100
AcDbSpline
70
4
71
3
72
10
73
6
40
0
40
0
40
0
40
0
40
0.5
40
0.5
40
1
40
1
40
1
40
1
41
1
10
47.4922995017687
20
-3.8896605509114
30
0
41
1
10
47.4894895071731
20
-3.86248465367453
30
0
41
1
10
47.4835361745364
20
-3.84035250736582
30
0
41
1
10
47.4675425780125
20
-3.80322942978893
30
0
41
1
10
47.4576413810874
20
-3.78870916226944
30
0
41
1
10
47.446400392289
20
-3.7773875568692
30
0
0
SPLINE
5
DA
100
AcDbEntity
8
1
62
256
6
ByLayer
370
18
48
1
60
0
100
AcDbSpline
70
4
71
3
72
8
73
4
40
0
40
0
40
0
40
0
40
1
40
1
40
1
40
1
41
1
10
48.9997518896158
20
-0.08496556451027
30
0
41
1
10
48.9283415985867
20
-0.27688172486495
30
0
41
1
10
48.8587719367982
20
-0.470013460746372
30
0
41
1
10
48.7908091731575
20
-0.664299677692981
30
0
0
SPLINE
5
DB
100
AcDbEntity
8
1
62
256
6
ByLayer
370
18
48
1
60
0
100
AcDbSpline
70
4
71
3
72
10
73
6
40
0
40
0
40
0
40
0
40
0.5
40
0.5
40
1
40
1
40
1
40
1
41
1
10
10.9105216911413
20
-1.54027463099112
30
0
41
1
10
11.6923269457982
20
-1.84659821429938
30
0
41
1
10
12.472104667582
20
-2.12760977153602
30
0
41
1
10
14.0266604658529
20
-2.64640820376218
30
0
41
1
10
14.8014463425365
20
-2.88410477975484
30
0
41
1
10
15.5733594150934
20
-3.09804106738
30
0
0
SPLINE
5
DC
100
AcDbEntity
8
1
62
256
6
ByLayer
370
18
48
1
60
0
100
AcDbSpline
70
4
71
3
72
8
73
4
40
0
40
0
40
0
40
0
40
1
40
1
40
1
40
1
41
1
10
47.5374739890081
20
-4.05502389036718
30
0
41
1
10
47.5157090733272
20
-4.03144922847832
30
0
41
1
10
47.496677690447
20
-3.9987637526074
30
0
41
1
10
47.4800372182123
20
-3.95678980038792
30
0
0
SPLINE
5
DD
100
AcDbEntity
8
1
62
256
6
ByLayer
370
18
48
1
60
0
100
AcDbSpline
70
4
71
3
72
28
73
24
40
0
40
0
40
0
40
0
40
0.0312500000000001
40
0.0312500000000001
40
0.0625000000000002
40
0.0625000000000002
40
0.125
40
0.125
40
0.187500000000001
40
0.187500000000001
40
0.250000000000001
40
0.250000000000001
40
0.312500000000001
40
0.312500000000001
40
0.375000000000001
40
0.375000000000001
40
0.500000000000002
40
0.500000000000002
40
0.625000000000002
40
0.625000000000002
40
0.750000000000002
40
0.750000000000002
40
1
40
1
40
1
40
1
41
1
10
5.13113512434563
20
-2.01300002681
30
0
41
1
10
5.15571519320804
20
-1.96074807337627
30
0
41
1
10
5.18866324750906
20
-1.91006088019373
30
0
41
1
10
5.26429164879761
20
-1.81638041276963
30
0
41
1
10
5.30726807073
20
-1.77262700830818
30
0
41
1
10
5.44804101912388
20
-1.64862688943498
30
0
41
1
10
5.5533074615401
20
-1.57881480357926
30
0
41
1
10
5.77559575678563
20
-1.45492659703461
30
0
41
1
10
5.89348085509042
20
-1.40088769732736
30
0
41
1
10
6.13210259075595
20
-1.30655512652797
30
0
41
1
10
6.25371647423961
20
-1.26584740793513
30
0
41
1
10
6.50038779931668
20
-1.19431651999636
30
0
41
1
10
6.62546094778469
20
-1.16353474583684
30
0
41
1
10
6.87850064264353
20
-1.11043991614704
30
0
41
1
10
7.00665035823687
20
-1.08814392135801
30
0
41
1
10
7.39004803252948
20
-1.03341834284672
30
0
41
1
10
7.64593375398704
20
-1.01260122350809
30
0
41
1
10
8.1581903067682
20
-0.997917648840797
30
0
41
1
10
8.4145631235821
20
-1.00415270406808
30
0
41
1
10
8.92778664767638
20
-1.04301510460138
30
0
41
1
10
9.18596946638343
20
-1.07600770880393
30
0
41
1
10
9.94603012307533
20
-1.21280723024094
30
0
41
1
10
10.436376671401
20
-1.35449716199938
30
0
41
1
10
10.9105216911413
20
-1.54027463099109
30
0
0
SPLINE
5
DE
100
AcDbEntity
8
1
62
256
6
ByLayer
370
18
48
1
60
0
100
AcDbSpline
70
4
71
3
72
27
73
23
40
0
40
0
40
0
40
0
40
0.0390791043571376
40
0.0390791043571376
40
0.119155845660709
40
0.119155845660709
40
0.199232586964281
40
0.279309328267853
40
0.279309328267853
40
0.359386069571424
40
0.359386069571424
40
0.519539552178568
40
0.519539552178568
40
0.59961629348214
40
0.59961629348214
40
0.679693034785712
40
0.679693034785712
40
0.839846517392856
40
0.839846517392856
40
0.919923258696428
40
0.919923258696428
40
1
40
1
40
1
40
1
41
1
10
5.91546442580258
20
4.02529980990451
30
0
41
1
10
5.91541231541677
20
4.02547721075081
30
0
41
1
10
5.91535925734794
20
4.02423859222694
30
0
41
1
10
5.91519487275403
20
4.01610618382256
30
0
41
1
10
5.91508176903346
20
4.00461927772218
30
0
41
1
10
5.91485312170462
20
3.97013173965701
30
0
41
1
10
5.91462138579391
20
3.92410047305418
30
0
41
1
10
5.91438325008312
20
3.85522586186278
30
0
41
1
10
5.91414094393517
20
3.77474826891435
30
0
41
1
10
5.9140170335215
20
3.72841623226202
30
0
41
1
10
5.91364191910534
20
3.57370388184046
30
0
41
1
10
5.91338822449097
20
3.45025587053385
30
0
41
1
10
5.91298686256221
20
3.23541090598465
30
0
41
1
10
5.91284953141982
20
3.15881772850088
30
0
41
1
10
5.91256414165457
20
2.99540549967119
30
0
41
1
10
5.91241622347798
20
2.90865206786961
30
0
41
1
10
5.91196002120205
20
2.63852761806712
30
0
41
1
10
5.91163651870366
20
2.44369695673336
30
0
41
1
10
5.91109846390694
20
2.12942748360305
30
0
41
1
10
5.91090980088967
20
2.02071534998822
30
0
41
1
10
5.91051207131025
20
1.79677956879647
30
0
41
1
10
5.91030434448641
20
1.68230790474325
30
0
41
1
10
5.91008589425348
20
1.56534543208778
30
0
0
SPLINE
5
DF
100
AcDbEntity
8
1
62
256
6
ByLayer
370
18
48
1
60
0
100
AcDbSpline
70
4
71
3
72
8
73
4
40
0
40
0
40
0
40
0
40
1
40
1
40
1
40
1
41
1
10
48.3016625267218
20
-2.02765377385285
30
0
41
1
10
48.3587541515681
20
-1.86429652415956
30
0
41
1
10
48.4186117559997
20
-1.70621046088809
30
0
41
1
10
48.481385870224
20
-1.55274565364874
30
0
0
SPLINE
5
E0
100
AcDbEntity
8
1
62
256
6
ByLayer
370
18
48
1
60
0
100
AcDbSpline
70
4
71
3
72
12
73
8
40
0
40
0
40
0
40
0
40
0.5
40
0.5
40
0.75
40
0.75
40
1
40
1
40
1
40
1
41
1
10
6.36067853257339
20
-3.78408818804098
30
0
41
1
10
6.29483033991448
20
-3.76779784793288
30
0
41
1
10
6.22587229503961
20
-3.75712836890619
30
0
41
1
10
6.11357736257156
20
-3.75808057889049
30
0
41
1
10
6.07537796996462
20
-3.76132678296619
30
0
41
1
10
5.99681758289191
20
-3.77601444647883
30
0
41
1
10
5.95608805431877
20
-3.78772805217045
30
0
41
1
10
5.91639917758886
20
-3.80416841692298
30
0
0
SPLINE
5
E1
100
AcDbEntity
8
1
62
256
6
ByLayer
370
13
48
1
60
0
100
AcDbSpline
70
4
71
3
72
28
73
24
40
0
40
0
40
0
40
0
40
0.0762509739078993
40
0.0762509739078993
40
0.152501947815799
40
0.152501947815799
40
0.305003895631597
40
0.305003895631597
40
0.381254869539496
40
0.381254869539496
40
0.457505843447395
40
0.457505843447395
40
0.610007791263194
40
0.610007791263194
40
0.686258765171093
40
0.686258765171093
40
0.762509739078993
40
0.762509739078993
40
0.915011686894791
40
0.915011686894791
40
0.991262660802691
40
0.991262660802691
40
1
40
1
40
1
40
1
41
1
10
6.35982055321142
20
1.3960895230924
30
0
41
1
10
6.35984745008471
20
1.5094423701924
30
0
41
1
10
6.35987147472605
20
1.62037611482239
30
0
41
1
10
6.35991511173773
20
1.83745141173407
30
0
41
1
10
6.35993478662277
20
1.9439746967183
30
0
41
1
10
6.35998851797444
20
2.25314861456209
30
0
41
1
10
6.36001733783735
20
2.44497562301879
30
0
41
1
10
6.36005743501187
20
2.71189485055007
30
0
41
1
10
6.36007025705487
20
2.79737555322686
30
0
41
1
10
6.36009584729891
20
2.96118538293359
30
0
41
1
10
6.36010864272004
20
3.03960455322442
30
0
41
1
10
6.3601475326509
20
3.25924074362951
30
0
41
1
10
6.36017447672015
20
3.38671097285058
30
0
41
1
10
6.36022011555514
20
3.5498270262475
30
0
41
1
10
6.36023617683568
20
3.5994885397553
30
0
41
1
10
6.36027036835696
20
3.68908222105895
30
0
41
1
10
6.36028831548504
20
3.72850215622682
30
0
41
1
10
6.36034446660793
20
3.83035405059704
30
0
41
1
10
6.36038520094638
20
3.87684731757074
30
0
41
1
10
6.36044975084488
20
3.91398588940024
30
0
41
1
10
6.36047182288112
20
3.9208452834421
30
0
41
1
10
6.36049636317566
20
3.92220679888146
30
0
41
1
10
6.36049888636944
20
3.92227350514955
30
0
41
1
10
6.36050140926056
20
3.92226688001034
30
0
0
SPLINE
5
E2
100
AcDbEntity
8
1
62
256
6
ByLayer
370
18
48
1
60
0
100
AcDbSpline
70
4
71
3
72
18
73
14
40
0
40
0
40
0
40
0
40
0.250000000000003
40
0.250000000000003
40
0.375000000000002
40
0.375000000000002
40
0.500000000000002
40
0.500000000000002
40
0.750000000000001
40
0.750000000000001
40
0.875
40
0.875
40
1
40
1
40
1
40
1
41
1
10
47.4464003922859
20
-3.77738755686605
30
0
41
1
10
47.3741611457513
20
-3.70463023467983
30
0
41
1
10
47.310066632616
20
-3.61429192473452
30
0
41
1
10
47.2264630085618
20
-3.45171997846776
30
0
41
1
10
47.2006955790874
20
-3.39299536896434
30
0
41
1
10
47.1535615541371
20
-3.26604663599426
30
0
41
1
10
47.1321393901671
20
-3.19749340205965
30
0
41
1
10
47.0760218324771
20
-2.98136471278977
30
0
41
1
10
47.0489334976978
20
-2.82244423017741
30
0
41
1
10
47.0239654702512
20
-2.56155364610356
30
0
41
1
10
47.0182677066887
20
-2.47081811749922
30
0
41
1
10
47.0123390078127
20
-2.28149122461377
30
0
41
1
10
47.0121460468299
20
-2.18349770133253
30
0
41
1
10
47.0147145795764
20
-2.08314323459683
30
0
0
SPLINE
5
E3
100
AcDbEntity
8
1
62
256
6
ByLayer
370
18
48
1
60
0
100
AcDbSpline
70
4
71
3
72
11
73
7
40
0
40
0
40
0
40
0
40
0.211485262961404
40
0.454736609390226
40
0.729920481806371
40
1
40
1
40
1
40
1
41
1
10
21.3251402609168
20
-0.101455027291195
30
0
41
1
10
21.2349576300706
20
-0.0803293979963939
30
0
41
1
10
21.0418588254851
20
-0.0306557333419732
30
0
41
1
10
20.7351416296274
20
0.0640281586236142
30
0
41
1
10
20.4062616750578
20
0.183720416112578
30
0
41
1
10
20.1803856885332
20
0.280333444370513
30
0
41
1
10
20.0689043042978
20
0.331487020913642
30
0
0
SPLINE
5
E4
100
AcDbEntity
8
1
62
256
6
ByLayer
370
18
48
1
60
0
100
AcDbSpline
70
4
71
3
72
11
73
7
40
0
40
0
40
0
40
0
40
0.295959398863389
40
0.56132363868266
40
0.796024395220043
40
1
40
1
40
1
40
1
41
1
10
34.6637522106131
20
0.101195490941421
30
0
41
1
10
34.7995369073565
20
0.0694408296425308
30
0
41
1
10
35.0570559328137
20
5.42657158462E-05
30
0
41
1
10
35.4221934481898
20
-0.122958670019244
30
0
41
1
10
35.7451413589864
20
-0.251206367569552
30
0
41
1
10
35.9465104561481
20
-0.341623893941687
30
0
41
1
10
36.0401636303462
20
-0.385947428295737
30
0
0
SPLINE
5
E5
100
AcDbEntity
8
1
62
256
6
ByLayer
370
18
48
1
60
0
100
AcDbSpline
70
4
71
3
72
31
73
27
40
0
40
0
40
0
40
0
40
0.0711357725942411
40
0.1320407380323
40
0.18032783699695
40
0.218756120815767
40
0.25263408721001
40
0.287641817559829
40
0.336546000490618
40
0.396738434574489
40
0.446735164433741
40
0.492551561089002
40
0.55869254371394
40
0.610953267304042
40
0.653873976477477
40
0.688666425203031
40
0.719278101849389
40
0.74601254339023
40
0.779242650781729
40
0.815874237604992
40
0.858031110793235
40
0.890053187289039
40
0.911341461495242
40
0.942020101599321
40
0.991241901978206
40
1
40
1
40
1
40
1
41
1
10
23.0976335545019
20
-3.94894458783611
30
0
41
1
10
23.3632023134878
20
-3.94910591802389
30
0
41
1
10
23.8563216323694
20
-3.94968582829051
30
0
41
1
10
24.5325350783267
20
-3.95118744359129
30
0
41
1
10
25.0830034730153
20
-3.95289990356264
30
0
41
1
10
25.5347158885271
20
-3.95340445056482
30
0
41
1
10
25.9364672417916
20
-3.95388912799015
30
0
41
1
10
26.3774985300424
20
-3.95439790083557
30
0
41
1
10
26.917036524643
20
-3.95537350652214
30
0
41
1
10
27.5126939581888
20
-3.95788542240405
30
0
41
1
10
28.0967987154749
20
-3.95824987094466
30
0
41
1
10
28.7031683076685
20
-3.95834305893933
30
0
41
1
10
29.3180247215173
20
-3.95893278874183
30
0
41
1
10
29.9220320839505
20
-3.96072538442021
30
0
41
1
10
30.4086687440136
20
-3.96135315775294
30
0
41
1
10
30.8142474450721
20
-3.9626670151691
30
0
41
1
10
31.1592244111927
20
-3.96340742133128
30
0
41
1
10
31.498353978798
20
-3.96353685192662
30
0
41
1
10
31.8600199980332
20
-3.96348680634696
30
0
41
1
10
32.2794409401124
20
-3.96354307610628
30
0
41
1
10
32.6942900302202
20
-3.96384512781245
30
0
41
1
10
33.0518276019393
20
-3.96452154918691
30
0
41
1
10
33.3658149287136
20
-3.96552079370906
30
0
41
1
10
33.7446649663274
20
-3.96818090716383
30
0
41
1
10
34.0766212815361
20
-3.96851807928661
30
0
41
1
10
34.2936960975851
20
-3.96853597092411
30
0
41
1
10
34.3264860464088
20
-3.96852626189477
30
0
0
SPLINE
5
E6
100
AcDbEntity
8
1
62
256
6
ByLayer
370
18
48
1
60
0
100
AcDbSpline
70
4
71
3
72
10
73
6
40
0
40
0
40
0
40
0
40
0.207423970453755
40
0.658567554031577
40
1
40
1
40
1
40
1
41
1
10
6.36046536796184
20
-3.92212871281456
30
0
41
1
10
6.45570164066393
20
-3.92246045002895
30
0
41
1
10
6.75807536614013
20
-3.92336939914407
30
0
41
1
10
7.21721496149462
20
-3.9236469852064
30
0
41
1
10
7.58111864341888
20
-3.923769908352
30
0
41
1
10
7.73788422201872
20
-3.92374058262797
30
0
0
SPLINE
5
E7
100
AcDbEntity
8
1
62
256
6
ByLayer
370
18
48
1
60
0
100
AcDbSpline
70
4
71
3
72
26
73
22
40
0
40
0
40
0
40
0
40
0.0410027059437181
40
0.0731645811291589
40
0.149461204344061
40
0.219091059450151
40
0.273918881554173
40
0.354542921918312
40
0.436471476544461
40
0.502804775440396
40
0.55257284728957
40
0.605990486872193
40
0.67381351112179
40
0.735603021328412
40
0.780749707718631
40
0.829050509338483
40
0.885920436746206
40
0.931316337668235
40
0.956270666358777
40
0.994767445414643
40
1
40
1
40
1
40
1
41
1
10
34.3888835314805
20
3.96861941458189
30
0
41
1
10
34.2538518853459
20
3.96876521220887
30
0
41
1
10
34.0129048084427
20
3.96868234166766
30
0
41
1
10
33.5207046847738
20
3.96709915238674
30
0
41
1
10
32.9342229762837
20
3.96366111756032
30
0
41
1
10
32.2730971847148
20
3.96355072998696
30
0
41
1
10
31.5977150338107
20
3.96355802119737
30
0
41
1
10
30.8818334597787
20
3.96308435361013
30
0
41
1
10
30.128062179455
20
3.96087575129121
30
0
41
1
10
29.4759063372484
20
3.95953171354429
30
0
41
1
10
28.9176423734048
20
3.95827201701903
30
0
41
1
10
28.3544756734037
20
3.95842000731508
30
0
41
1
10
27.751713468596
20
3.95812704738987
30
0
41
1
10
27.1761945974423
20
3.95660414195325
30
0
41
1
10
26.6649735005208
20
3.95476154174989
30
0
41
1
10
26.1699400160669
20
3.9541624514892
30
0
41
1
10
25.674114708627
20
3.95359153681903
30
0
41
1
10
25.2550845323456
20
3.95305125764364
30
0
41
1
10
24.8968126797284
20
3.95242358577914
30
0
41
1
10
24.6706486143097
20
3.95180065499915
30
0
41
1
10
24.5266412808737
20
3.9514584781912
30
0
41
1
10
24.5094095247435
20
3.95141826215536
30
0
0
SPLINE
5
E8
100
AcDbEntity
8
1
62
256
6
ByLayer
370
18
48
1
60
0
100
AcDbSpline
70
4
71
3
72
10
73
6
40
0
40
0
40
0
40
0
40
0.340651769218529
40
0.792330145779065
40
1
40
1
40
1
40
1
41
1
10
7.73625333755547
20
3.92374025457986
30
0
41
1
10
7.58003138785574
20
3.92376935871718
30
0
41
1
10
7.21667133389616
20
3.92364677307029
30
0
41
1
10
6.75807536620169
20
3.92336938276378
30
0
41
1
10
6.45570164066396
20
3.92246045002892
30
0
41
1
10
6.36046536796184
20
3.92212871281456
30
0
0
LINE
5
7B
100
AcDbEntity
8
SK1
62
256
6
ByLayer
370
18
48
1
60
0
100
AcDbLine
10
0
20
-5
30
0
11
0
21
5
31
0
39
0
210
0
220
0
230
1
0
LINE
5
7D
100
AcDbEntity
8
SK1
62
256
6
ByLayer
370
18
48
1
60
0
100
AcDbLine
10
-38.556624
20
5
30
0
11
-38.556624
21
-5
31
0
39
0
210
0
220
0
230
1
0
LINE
5
7E
100
AcDbEntity
8
SK1
62
256
6
ByLayer
370
18
48
1
60
0
100
AcDbLine
10
-40
20
2.5
30
0
11
-40
21
-2.5
31
0
39
0
210
0
220
0
230
1
0
LINE
5
7F
100
AcDbEntity
8
1
62
256
6
ByLayer
370
13
48
1
60
0
100
AcDbLine
10
1.542732
20
4.017426
30
0
11
1.542732
21
-4.017426
31
0
39
0
210
0
220
0
230
1
0
LINE
5
80
100
AcDbEntity
8
1
62
256
6
ByLayer
370
13
48
1
60
0
100
AcDbLine
10
0.770601
20
4.508712
30
0
11
0.770601
21
-4.508712
31
0
39
0
210
0
220
0
230
1
0
LINE
5
81
100
AcDbEntity
8
1
62
256
6
ByLayer
370
18
48
1
60
0
100
AcDbLine
10
47.014715
20
-2.083143
30
0
11
48.304791
21
-1.047435
31
0
39
0
210
0
220
0
230
1
0
LINE
5
82
100
AcDbEntity
8
1
62
256
6
ByLayer
370
18
48
1
60
0
100
AcDbLine
10
0
20
-5
30
0
11
0
21
5
31
0
39
0
210
0
220
0
230
1
0
LINE
5
83
100
AcDbEntity
8
80
62
256
6
ByLayer
370
18
48
1
60
0
100
AcDbLine
10
0
20
0
30
0
11
-5
21
0
31
0
39
0
210
0
220
0
230
1
0
LINE
5
84
100
AcDbEntity
8
SK4
62
256
6
ByLayer
370
18
48
0.05
60
0
100
AcDbLine
10
54
20
0
30
0
11
-45
21
0
31
0
39
0
210
0
220
0
230
1
0
LINE
5
86
100
AcDbEntity
8
4
62
256
6
ByLayer
370
18
48
0.05
60
0
100
AcDbLine
10
49
20
0
30
0
11
0
21
0
31
0
39
0
210
0
220
0
230
1
0
LINE
5
88
100
AcDbEntity
8
SK1
62
256
6
ByLayer
370
18
48
1
60
0
100
AcDbLine
10
-40
20
-2.5
30
0
11
-38.556624
21
-5
31
0
39
0
210
0
220
0
230
1
0
LINE
5
89
100
AcDbEntity
8
SK1
62
256
6
ByLayer
370
18
48
1
60
0
100
AcDbLine
10
-38.556624
20
5
30
0
11
-40
21
2.5
31
0
39
0
210
0
220
0
230
1
0
LINE
5
8A
100
AcDbEntity
8
SK1
62
256
6
ByLayer
370
18
48
1
60
0
100
AcDbLine
10
-38.556624
20
-5
30
0
11
0
21
-5
31
0
39
0
210
0
220
0
230
1
0
LINE
5
8B
100
AcDbEntity
8
SK1
62
256
6
ByLayer
370
18
48
1
60
0
100
AcDbLine
10
0
20
5
30
0
11
-38.556624
21
5
31
0
39
0
210
0
220
0
230
1
0
LINE
5
8C
100
AcDbEntity
8
1
62
256
6
ByLayer
370
18
48
1
60
0
100
AcDbLine
10
1.542732
20
-4.017426
30
0
11
5.915423
21
-4.025296
31
0
39
0
210
0
220
0
230
1
0
LINE
5
8D
100
AcDbEntity
8
1
62
256
6
ByLayer
370
18
48
1
60
0
100
AcDbLine
10
21.614932
20
-4.053556
30
0
11
22.576808
21
-4.055287
31
0
39
0
210
0
220
0
230
1
0
LINE
5
8E
100
AcDbEntity
8
1
62
256
6
ByLayer
370
18
48
1
60
0
100
AcDbLine
10
22.576808
20
4.055287
30
0
11
21.614932
21
4.053556
31
0
39
0
210
0
220
0
230
1
0
LINE
5
8F
100
AcDbEntity
8
1
62
256
6
ByLayer
370
18
48
1
60
0
100
AcDbLine
10
5.915423
20
4.025296
30
0
11
1.542732
21
4.017426
31
0
39
0
210
0
220
0
230
1
0
LINE
5
90
100
AcDbEntity
8
81
62
256
6
ByLayer
370
18
48
1
60
0
100
AcDbLine
10
49
20
0
30
0
11
54
21
0
31
0
39
0
210
0
220
0
230
1
0
LINE
5
91
100
AcDbEntity
8
SK2
62
256
6
ByLayer
370
13
48
1
60
0
100
AcDbLine
10
-48.625163
20
-5
30
0
11
-48.625163
21
35.857173
31
0
39
0
210
0
220
0
230
1
0
LINE
5
93
100
AcDbEntity
8
SK2
62
256
6
ByLayer
370
13
48
1
60
0
100
AcDbLine
10
-41.5875
20
5
30
0
11
-50.625163
21
5
31
0
39
0
210
0
220
0
230
1
0
LINE
5
94
100
AcDbEntity
8
SK2
62
256
6
ByLayer
370
13
48
1
60
0
100
AcDbLine
10
-41.5875
20
-5
30
0
11
-50.625163
21
-5
31
0
39
0
210
0
220
0
230
1
0
LINE
5
95
100
AcDbEntity
8
1
62
256
6
ByLayer
370
18
48
1
60
1
100
AcDbLine
10
-48.625163
20
5
30
0
11
-48.164379
21
1.500002
31
0
39
0
210
0
220
0
230
1
0
LINE
5
96
100
AcDbEntity
8
1
62
256
6
ByLayer
370
18
48
1
60
1
100
AcDbLine
10
-48.164379
20
1.500002
30
0
11
-49.085946
21
1.499998
31
0
39
0
210
0
220
0
230
1
0
LINE
5
97
100
AcDbEntity
8
1
62
256
6
ByLayer
370
18
48
1
60
1
100
AcDbLine
10
-49.085946
20
1.499998
30
0
11
-48.625163
21
5
31
0
39
0
210
0
220
0
230
1
0
LINE
5
98
100
AcDbEntity
8
1
62
256
6
ByLayer
370
18
48
1
60
1
100
AcDbLine
10
-48.625163
20
-5
30
0
11
-49.085946
21
-1.500002
31
0
39
0
210
0
220
0
230
1
0
LINE
5
99
100
AcDbEntity
8
1
62
256
6
ByLayer
370
18
48
1
60
1
100
AcDbLine
10
-49.085946
20
-1.500002
30
0
11
-48.164379
21
-1.499998
31
0
39
0
210
0
220
0
230
1
0
LINE
5
9A
100
AcDbEntity
8
1
62
256
6
ByLayer
370
18
48
1
60
1
100
AcDbLine
10
-48.164379
20
-1.499998
30
0
11
-48.625163
21
-5
31
0
39
0
210
0
220
0
230
1
0
LINE
5
9B
100
AcDbEntity
8
2
62
256
6
ByLayer
370
13
48
1
60
0
100
AcDbLine
10
61.083343
20
-4.1
30
0
11
61.083343
21
31.810193
31
0
39
0
210
0
220
0
230
1
0
LINE
5
9D
100
AcDbEntity
8
2
62
256
6
ByLayer
370
13
48
1
60
0
100
AcDbLine
10
49.0049
20
4.1
30
0
11
63.083343
21
4.1
31
0
39
0
210
0
220
0
230
1
0
LINE
5
9E
100
AcDbEntity
8
2
62
256
6
ByLayer
370
13
48
1
60
0
100
AcDbLine
10
49.0049
20
-4.1
30
0
11
63.083343
21
-4.1
31
0
39
0
210
0
220
0
230
1
0
LINE
5
9F
100
AcDbEntity
8
1
62
256
6
ByLayer
370
18
48
1
60
1
100
AcDbLine
10
61.083343
20
4.1
30
0
11
61.544126
21
0.600002
31
0
39
0
210
0
220
0
230
1
0
LINE
5
A0
100
AcDbEntity
8
1
62
256
6
ByLayer
370
18
48
1
60
1
100
AcDbLine
10
61.544126
20
0.600002
30
0
11
60.622559
21
0.599998
31
0
39
0
210
0
220
0
230
1
0
LINE
5
A1
100
AcDbEntity
8
1
62
256
6
ByLayer
370
18
48
1
60
1
100
AcDbLine
10
60.622559
20
0.599998
30
0
11
61.083343
21
4.1
31
0
39
0
210
0
220
0
230
1
0
LINE
5
A2
100
AcDbEntity
8
1
62
256
6
ByLayer
370
18
48
1
60
1
100
AcDbLine
10
61.083343
20
-4.1
30
0
11
60.622559
21
-0.600002
31
0
39
0
210
0
220
0
230
1
0
LINE
5
A3
100
AcDbEntity
8
1
62
256
6
ByLayer
370
18
48
1
60
1
100
AcDbLine
10
60.622559
20
-0.600002
30
0
11
61.544126
21
-0.599998
31
0
39
0
210
0
220
0
230
1
0
LINE
5
A4
100
AcDbEntity
8
1
62
256
6
ByLayer
370
18
48
1
60
1
100
AcDbLine
10
61.544126
20
-0.599998
30
0
11
61.083343
21
-4.1
31
0
39
0
210
0
220
0
230
1
0
LINE
5
EF
100
AcDbEntity
8
1
62
256
6
ByLayer
370
18
48
1
60
1
100
AcDbLine
10
-48.625163
20
5
30
0
11
-48.164379
21
1.500002
31
0
39
0
210
0
220
0
230
1
0
LINE
5
F0
100
AcDbEntity
8
1
62
256
6
ByLayer
370
18
48
1
60
1
100
AcDbLine
10
-48.164379
20
1.500002
30
0
11
-49.085946
21
1.499998
31
0
39
0
210
0
220
0
230
1
0
LINE
5
F1
100
AcDbEntity
8
1
62
256
6
ByLayer
370
18
48
1
60
1
100
AcDbLine
10
-49.085946
20
1.499998
30
0
11
-48.625163
21
5
31
0
39
0
210
0
220
0
230
1
0
LINE
5
F3
100
AcDbEntity
8
1
62
256
6
ByLayer
370
18
48
1
60
1
100
AcDbLine
10
-48.625163
20
-5
30
0
11
-49.085946
21
-1.500002
31
0
39
0
210
0
220
0
230
1
0
LINE
5
F4
100
AcDbEntity
8
1
62
256
6
ByLayer
370
18
48
1
60
1
100
AcDbLine
10
-49.085946
20
-1.500002
30
0
11
-48.164379
21
-1.499998
31
0
39
0
210
0
220
0
230
1
0
LINE
5
F5
100
AcDbEntity
8
1
62
256
6
ByLayer
370
18
48
1
60
1
100
AcDbLine
10
-48.164379
20
-1.499998
30
0
11
-48.625163
21
-5
31
0
39
0
210
0
220
0
230
1
0
LINE
5
F9
100
AcDbEntity
8
1
62
256
6
ByLayer
370
18
48
1
60
1
100
AcDbLine
10
61.083343
20
4.1
30
0
11
61.544126
21
0.600002
31
0
39
0
210
0
220
0
230
1
0
LINE
5
FA
100
AcDbEntity
8
1
62
256
6
ByLayer
370
18
48
1
60
1
100
AcDbLine
10
61.544126
20
0.600002
30
0
11
60.622559
21
0.599998
31
0
39
0
210
0
220
0
230
1
0
LINE
5
FB
100
AcDbEntity
8
1
62
256
6
ByLayer
370
18
48
1
60
1
100
AcDbLine
10
60.622559
20
0.599998
30
0
11
61.083343
21
4.1
31
0
39
0
210
0
220
0
230
1
0
LINE
5
FD
100
AcDbEntity
8
1
62
256
6
ByLayer
370
18
48
1
60
1
100
AcDbLine
10
61.083343
20
-4.1
30
0
11
60.622559
21
-0.600002
31
0
39
0
210
0
220
0
230
1
0
LINE
5
FE
100
AcDbEntity
8
1
62
256
6
ByLayer
370
18
48
1
60
1
100
AcDbLine
10
60.622559
20
-0.600002
30
0
11
61.544126
21
-0.599998
31
0
39
0
210
0
220
0
230
1
0
LINE
5
FF
100
AcDbEntity
8
1
62
256
6
ByLayer
370
18
48
1
60
1
100
AcDbLine
10
61.544126
20
-0.599998
30
0
11
61.083343
21
-4.1
31
0
39
0
210
0
220
0
230
1
0
MTEXT
5
E9
100
AcDbEntity
8
SK6
62
256
6
ByLayer
370
13
48
1
60
0
100
AcDbMText
10
-23.609026
20
36.640328
30
0
210
0
220
0
230
1
1
\W0.7386;860.1-0820-031A0-PM P1BM
40
3.5
41
0
44
1.084337
50
0
71
7
72
5
7
iso_b_vert
0
MTEXT
5
ED
100
AcDbEntity
8
SK2
62
256
6
ByLayer
370
18
48
1
60
0
100
AcDbMText
10
-50.189796
20
18.409024
30
0
210
0
220
0
230
1
1
%%c
40
3.5
41
0
44
1.084337
50
90
71
7
72
5
7
iso_b_vert
0
MTEXT
5
EE
100
AcDbEntity
8
SK2
62
256
6
ByLayer
370
18
48
1
60
0
100
AcDbMText
10
-50.189796
20
23.63168
30
0
210
0
220
0
230
1
1
\W0.6930;10,000
40
3.5
41
0
44
1.084337
50
90
71
7
72
5
7
iso_b_vert
0
MTEXT
5
F7
100
AcDbEntity
8
2
62
256
6
ByLayer
370
18
48
1
60
0
100
AcDbMText
10
59.518709
20
16.10211
30
0
210
0
220
0
230
1
1
%%c
40
3.5
41
0
44
1.084337
50
90
71
7
72
5
7
iso_b_vert
0
MTEXT
5
F8
100
AcDbEntity
8
2
62
256
6
ByLayer
370
18
48
1
60
0
100
AcDbMText
10
59.518709
20
21.324766
30
0
210
0
220
0
230
1
1
\W0.7317;8,200
40
3.5
41
0
44
1.084337
50
90
71
7
72
5
7
iso_b_vert
0
HATCH
5
F2
100
AcDbEntity
8
SK2
62
256
6
ByLayer
370
13
48
1
60
0
100
AcDbHatch
10
0
20
0
30
0
210
0
220
0
230
1
2
ANSI31
70
0
71
0
91
1
92
5
93
3
72
1
10
-48.6251625675374
20
5
11
-48.1643788259847
21
1.50000169255318
72
1
10
-48.1643788259847
20
1.50000169255318
11
-49.0859463090902
21
1.49999830744682
72
1
10
-49.0859463090902
20
1.49999830744682
11
-48.6251625675374
21
5
97
0
75
0
76
1
52
0
41
0.0062
77
0
78
1
53
45
43
0
44
0
45
-0.0139193969876572
46
0.0139193969876572
79
0
47
0
98
1
10
0
20
0
0
HATCH
5
F6
100
AcDbEntity
8
SK2
62
256
6
ByLayer
370
13
48
1
60
0
100
AcDbHatch
10
0
20
0
30
0
210
0
220
0
230
1
2
ANSI31
70
0
71
0
91
1
92
5
93
3
72
1
10
-48.6251625675374
20
-5
11
-49.0859463090902
21
-1.50000169255318
72
1
10
-49.0859463090902
20
-1.50000169255318
11
-48.1643788259847
21
-1.49999830744682
72
1
10
-48.1643788259847
20
-1.49999830744682
11
-48.6251625675374
21
-5
97
0
75
0
76
1
52
0
41
0.0062
77
0
78
1
53
45
43
0
44
0
45
-0.0139193969876572
46
0.0139193969876572
79
0
47
0
98
1
10
0
20
0
0
HATCH
5
FC
100
AcDbEntity
8
2
62
256
6
ByLayer
370
13
48
1
60
0
100
AcDbHatch
10
0
20
0
30
0
210
0
220
0
230
1
2
ANSI31
70
0
71
0
91
1
92
5
93
3
72
1
10
61.083342615295
20
4.10000000000002
11
61.5441263568478
21
0.600001692553207
72
1
10
61.5441263568478
20
0.600001692553207
11
60.6225588737423
21
0.599998307446839
72
1
10
60.6225588737423
20
0.599998307446839
11
61.083342615295
21
4.10000000000002
97
0
75
0
76
1
52
0
41
0.0062
77
0
78
1
53
45
43
0
44
0
45
-0.0139193969876572
46
0.0139193969876572
79
0
47
0
98
1
10
0
20
0
0
HATCH
5
100
100
AcDbEntity
8
2
62
256
6
ByLayer
370
13
48
1
60
0
100
AcDbHatch
10
0
20
0
30
0
210
0
220
0
230
1
2
ANSI31
70
0
71
0
91
1
92
5
93
3
72
1
10
61.083342615295
20
-4.09999999999999
11
60.6225588737423
21
-0.600001692553178
72
1
10
60.6225588737423
20
-0.600001692553178
11
61.5441263568478
21
-0.59999830744681
72
1
10
61.5441263568478
20
-0.59999830744681
11
61.083342615295
21
-4.09999999999999
97
0
75
0
76
1
52
0
41
0.0062
77
0
78
1
53
45
43
0
44
0
45
-0.0139193969876572
46
0.0139193969876572
79
0
47
0
98
1
10
0
20
0
0
DIMENSION
5
102
100
AcDbEntity
8
2
62
256
6
ByLayer
370
13
48
1
60
0
100
AcDbDimension
2
_U0
10
47.4174
20
-14.313398
30
0
11
23.7087
21
-14.313398
31
0
70
32
71
1
72
1
41
1
210
0
220
0
230
1
3
Standard
100
AcDbAlignedDimension
13
0
23
0
33
0
14
47.4174
24
-4.1
34
0
50
0
100
AcDbRotatedDimension
1001
ACAD
1000
DSTYLE
1002
{
1070
   371
1070
    13
1070
   372
1070
    13
1070
   170
1070
     0
1070
   144
1040
1.0
1070
   277
1070
     2
1070
   278
1070
    44
1070
   146
1040
1.0
1070
   345
1005
16
1070
   347
1005
16
1070
   346
1005
16
1070
   344
1005
0
1070
   343
1005
0
1070
   172
1070
     1
1070
    76
1070
     0
1070
    75
1070
     0
1070
   282
1070
     0
1070
   281
1070
     0
1070
    71
1070
     0
1070
    74
1070
     0
1070
   279
1070
     0
1070
   173
1070
     1
1070
   340
1005
EA
1070
   271
1070
     2
1070
   272
1070
     2
1070
    77
1070
     1
1070
    73
1070
     1
1070
   171
1070
     3
1070
   274
1070
     4
1070
   177
1070
    35
1070
   176
1070
    35
1070
   178
1070
    35
1070
    48
1040
-0.1
1070
    41
1040
3.5
1070
   147
1040
1.75
1070
    42
1040
1.5875
1070
    44
1040
2.0
1070
   140
1040
3.5
1002
}
1001
ACAD_DSTYLE_DIM_LINETYPE
1070
   380
1005
16
1001
ACAD_DSTYLE_DIM_EXT1_LINETYPE
1070
   381
1005
16
1001
ACAD_DSTYLE_DIM_EXT2_LINETYPE
1070
   382
1005
16
0
DIMENSION
5
11B
100
AcDbEntity
8
SK2
62
256
6
ByLayer
370
13
48
1
60
0
100
AcDbDimension
2
_U1
10
49
20
-33.692985
30
0
11
4.5
21
-33.692985
31
0
70
32
71
1
72
1
41
1
210
0
220
0
230
1
3
Standard
100
AcDbAlignedDimension
13
-40
23
-5
33
0
14
49
24
0
34
0
50
0
100
AcDbRotatedDimension
1001
ACAD
1000
DSTYLE
1002
{
1070
   371
1070
    13
1070
   372
1070
    13
1070
   170
1070
     0
1070
   144
1040
1.0
1070
   277
1070
     2
1070
   278
1070
    44
1070
   146
1040
1.0
1070
   345
1005
16
1070
   347
1005
16
1070
   346
1005
16
1070
   344
1005
0
1070
   343
1005
0
1070
   172
1070
     1
1070
    76
1070
     0
1070
    75
1070
     0
1070
   282
1070
     0
1070
   281
1070
     0
1070
    71
1070
     0
1070
    74
1070
     0
1070
   279
1070
     0
1070
   173
1070
     1
1070
   340
1005
EA
1070
   271
1070
     2
1070
   272
1070
     2
1070
    77
1070
     1
1070
    73
1070
     1
1070
   171
1070
     3
1070
   274
1070
     4
1070
   177
1070
    35
1070
   176
1070
    35
1070
   178
1070
    35
1070
    48
1040
-0.1
1070
    41
1040
3.5
1070
   147
1040
1.75
1070
    42
1040
1.5875
1070
    44
1040
2.0
1070
   140
1040
3.5
1002
}
1001
ACAD_DSTYLE_DIM_LINETYPE
1070
   380
1005
16
1001
ACAD_DSTYLE_DIM_EXT1_LINETYPE
1070
   381
1005
16
1001
ACAD_DSTYLE_DIM_EXT2_LINETYPE
1070
   382
1005
16
0
DIMENSION
5
133
100
AcDbEntity
8
SK2
62
256
6
ByLayer
370
13
48
1
60
0
100
AcDbDimension
2
_U2
10
49
20
15.709119
30
0
11
35.91
21
15.709119
31
0
70
32
71
1
72
1
41
1
210
0
220
0
230
1
3
Standard
100
AcDbAlignedDimension
13
22.82
23
4.1
33
0
14
49
24
0
34
0
50
0
100
AcDbRotatedDimension
1001
ACAD
1000
DSTYLE
1002
{
1070
   371
1070
    13
1070
   372
1070
    13
1070
   170
1070
     0
1070
   144
1040
1.0
1070
   277
1070
     2
1070
   278
1070
    44
1070
   146
1040
1.0
1070
   345
1005
16
1070
   347
1005
16
1070
   346
1005
16
1070
   344
1005
0
1070
   343
1005
0
1070
   172
1070
     1
1070
    76
1070
     0
1070
    75
1070
     0
1070
   282
1070
     0
1070
   281
1070
     0
1070
    71
1070
     0
1070
    74
1070
     0
1070
   279
1070
     0
1070
   173
1070
     1
1070
   340
1005
EA
1070
   271
1070
     2
1070
   272
1070
     2
1070
    77
1070
     1
1070
    73
1070
     1
1070
   171
1070
     3
1070
   274
1070
     4
1070
   177
1070
    35
1070
   176
1070
    35
1070
   178
1070
    35
1070
    48
1040
-0.1
1070
    41
1040
3.5
1070
   147
1040
1.75
1070
    42
1040
1.5875
1070
    44
1040
2.0
1070
   140
1040
3.5
1002
}
1001
ACAD_DSTYLE_DIM_LINETYPE
1070
   380
1005
16
1001
ACAD_DSTYLE_DIM_EXT1_LINETYPE
1070
   381
1005
16
1001
ACAD_DSTYLE_DIM_EXT2_LINETYPE
1070
   382
1005
16
0
DIMENSION
5
14B
100
AcDbEntity
8
SK2
62
256
6
ByLayer
370
13
48
1
60
0
100
AcDbDimension
2
_U3
10
47.4174
20
-16.902503
30
0
11
66.333333
21
-16.902503
31
0
70
32
71
1
72
1
41
1
210
0
220
0
230
1
3
Standard
100
AcDbAlignedDimension
13
49
23
0
33
0
14
47.4174
24
-4.1
34
0
50
0
100
AcDbRotatedDimension
1001
ACAD
1000
DSTYLE
1002
{
1070
   371
1070
    13
1070
   372
1070
    13
1070
   170
1070
     0
1070
   144
1040
1.0
1070
   277
1070
     2
1070
   278
1070
    44
1070
   146
1040
1.0
1070
   345
1005
16
1070
   347
1005
16
1070
   346
1005
16
1070
   344
1005
0
1070
   343
1005
0
1070
   172
1070
     1
1070
    76
1070
     0
1070
    75
1070
     0
1070
   282
1070
     0
1070
   281
1070
     0
1070
    71
1070
     0
1070
    74
1070
     0
1070
   279
1070
     0
1070
   173
1070
     1
1070
   340
1005
EA
1070
   271
1070
     2
1070
   272
1070
     2
1070
    77
1070
     1
1070
    73
1070
     1
1070
   171
1070
     3
1070
   274
1070
     4
1070
   177
1070
    35
1070
   176
1070
    35
1070
   178
1070
    35
1070
    48
1040
-0.1
1070
    41
1040
3.5
1070
   147
1040
1.75
1070
    42
1040
1.5875
1070
    44
1040
2.0
1070
   140
1040
3.5
1002
}
1001
ACAD_DSTYLE_DIM_LINETYPE
1070
   380
1005
16
1001
ACAD_DSTYLE_DIM_EXT1_LINETYPE
1070
   381
1005
16
1001
ACAD_DSTYLE_DIM_EXT2_LINETYPE
1070
   382
1005
16
0
DIMENSION
5
165
100
AcDbEntity
8
SK2
62
256
6
ByLayer
370
13
48
1
60
0
100
AcDbDimension
2
_U4
10
47.4174
20
-23.343428
30
0
11
3.7087
21
-23.343428
31
0
70
32
71
1
72
1
41
1
210
0
220
0
230
1
3
Standard
100
AcDbAlignedDimension
13
-40
23
-5
33
0
14
47.4174
24
-4.1
34
0
50
0
100
AcDbRotatedDimension
1001
ACAD
1000
DSTYLE
1002
{
1070
   371
1070
    13
1070
   372
1070
    13
1070
   170
1070
     0
1070
   144
1040
1.0
1070
   277
1070
     2
1070
   278
1070
    44
1070
   146
1040
1.0
1070
   345
1005
16
1070
   347
1005
16
1070
   346
1005
16
1070
   344
1005
0
1070
   343
1005
0
1070
   172
1070
     1
1070
    76
1070
     0
1070
    75
1070
     0
1070
   282
1070
     0
1070
   281
1070
     0
1070
    71
1070
     0
1070
    74
1070
     0
1070
   279
1070
     0
1070
   173
1070
     1
1070
   340
1005
EA
1070
   271
1070
     2
1070
   272
1070
     2
1070
    77
1070
     1
1070
    73
1070
     1
1070
   171
1070
     3
1070
   274
1070
     4
1070
   177
1070
    35
1070
   176
1070
    35
1070
   178
1070
    35
1070
    48
1040
-0.1
1070
    41
1040
3.5
1070
   147
1040
1.75
1070
    42
1040
1.5875
1070
    44
1040
2.0
1070
   140
1040
3.5
1002
}
1001
ACAD_DSTYLE_DIM_LINETYPE
1070
   380
1005
16
1001
ACAD_DSTYLE_DIM_EXT1_LINETYPE
1070
   381
1005
16
1001
ACAD_DSTYLE_DIM_EXT2_LINETYPE
1070
   382
1005
16
0
ENDSEC
0
SECTION
2
OBJECTS
0
DICTIONARY
5
1ed
330
0
100
AcDbDictionary
280
0
281
1
3
ACAD_GROUP
350
1ee
3
ACAD_MLINESTYLE
350
1ef
0
DICTIONARY
5
1ee
330
0
100
AcDbDictionary
280
0
281
1
0
DICTIONARY
5
1ef
330
0
100
AcDbDictionary
280
0
281
1
3
Standard
350
18
0
MLINESTYLE
5
18
330
1ef
100
AcDbMlineStyle
2
Standard
70
0
3

62
256
51
90
52
90
71
2
49
-0.5
62
256
6
ByLayer
49
0.5
62
256
6
ByLayer
0
RASTERVARIABLES
5
1db
330

100
AcDbRasterVariables
90
0
70
1
71
1
72
1
0
ENDSEC
0
EOF
