0
SECTION
2
HEADER
9
$ACADVER
1
AC1015
9
$DWGCODEPAGE
3
ANSI_1252
9
$HANDSEED
5
201
9
$ANGBASE
50
0
9
$ANGDIR
70
0
9
$ATTMODE
70
1
9
$AUNITS
70
0
9
$AUPREC
70
0
9
$CECOLOR
62
256
9
$CELTSCALE
40
1
9
$CELTYPE
6
ByLayer
9
$CELWEIGHT
370
18
9
$CLAYER
8
0
9
$CMLJUST
70
0
9
$CMLSCALE
40
1
9
$CMLSTYLE
2
Standard
9
$DIMSTYLE
2
Standard
9
$TEXTSIZE
40
0.2
9
$TEXTSTYLE
7
Standard
9
$LUNITS
70
2
9
$LUPREC
70
4
9
$EXTNAMES
290
1
9
$INSUNITS
70
4
9
$LTSCALE
40
1
9
$LWDISPLAY
290
1
9
$PDMODE
70
0
9
$PDSIZE
40
0
9
$PLINEGEN
70
0
0
ENDSEC
0
SECTION
2
CLASSES
0
CLASS
1
RASTERVARIABLES
2
AcDbRasterVariables
3
ISM
90
0
280
0
281
0
0
ENDSEC
0
SECTION
2
TABLES
0
TABLE
2
VPORT
5
1f7
100
AcDbSymbolTable
0
VPORT
5
1
100
AcDbSymbolTableRecord
100
AcDbViewportTableRecord
2
*Active
70
0
10
0
20
0
11
1
21
1
12
-1
22
1
13
0
23
0
14
0.5
24
0.5
15
10
25
10
16
0
26
0
36
1
17
0
27
0
37
0
0
ENDTAB
0
TABLE
2
LTYPE
5
1f8
100
AcDbSymbolTable
0
LTYPE
5
14
100
AcDbSymbolTableRecord
100
AcDbLinetypeTableRecord
70
0
2
ByBlock
3

72
65
73
0
40
0
0
LTYPE
5
15
100
AcDbSymbolTableRecord
100
AcDbLinetypeTableRecord
70
0
2
ByLayer
3

72
65
73
0
40
0
0
LTYPE
5
16
100
AcDbSymbolTableRecord
100
AcDbLinetypeTableRecord
70
0
2
Continuous
3
Solid line
72
65
73
0
40
0
0
LTYPE
5
6E
100
AcDbSymbolTableRecord
100
AcDbLinetypeTableRecord
70
0
2
CENTER
3
____ _ ____ _ ____ _ ____
72
65
73
4
40
47.5
49
22
74
0
49
-8.5
74
0
49
8.5
74
0
49
-8.5
74
0
0
LTYPE
5
6F
100
AcDbSymbolTableRecord
100
AcDbLinetypeTableRecord
70
0
2
DASHED
3
__ __ __ __ __ __ __ __ __
72
65
73
2
40
25.72
49
12.86
74
0
49
-12.86
74
0
0
ENDTAB
0
TABLE
2
LAYER
5
1f9
100
AcDbSymbolTable
0
LAYER
5
10
100
AcDbSymbolTableRecord
100
AcDbLayerTableRecord
2
0
70
0
62
7
6
Continuous
290
1
370
-3
390
0
0
LAYER
5
71
100
AcDbSymbolTableRecord
100
AcDbLayerTableRecord
2
80
70
0
62
-6
6
Continuous
290
1
370
-3
390
0
0
LAYER
5
73
100
AcDbSymbolTableRecord
100
AcDbLayerTableRecord
2
81
70
0
62
-3
6
Continuous
290
1
370
-3
390
0
0
LAYER
5
75
100
AcDbSymbolTableRecord
100
AcDbLayerTableRecord
2
1
70
0
62
4
6
Continuous
290
1
370
-3
390
0
0
LAYER
5
86
100
AcDbSymbolTableRecord
100
AcDbLayerTableRecord
2
4
70
0
62
-2
6
CENTER
290
1
370
-3
390
0
0
LAYER
5
9D
100
AcDbSymbolTableRecord
100
AcDbLayerTableRecord
2
2
70
0
62
7
6
Continuous
290
1
370
-3
390
0
0
LAYER
5
10C
100
AcDbSymbolTableRecord
100
AcDbLayerTableRecord
2
Defpoints
70
0
62
7
6
Continuous
290
0
370
-3
390
0
0
LAYER
5
1e3
100
AcDbSymbolTableRecord
100
AcDbLayerTableRecord
2
SK1
70
0
62
4
6
Continuous
290
1
370
-3
390
0
0
LAYER
5
1e4
100
AcDbSymbolTableRecord
100
AcDbLayerTableRecord
2
SK4
70
0
62
2
6
CENTER
290
1
370
-3
390
0
0
LAYER
5
1e5
100
AcDbSymbolTableRecord
100
AcDbLayerTableRecord
2
SK2
70
0
62
7
6
Continuous
290
1
370
-3
390
0
0
LAYER
5
1e6
100
AcDbSymbolTableRecord
100
AcDbLayerTableRecord
2
SK6
70
0
62
5
6
Continuous
290
1
370
-3
390
0
0
ENDTAB
0
TABLE
2
STYLE
5
1fa
100
AcDbSymbolTable
0
STYLE
5
11
100
AcDbSymbolTableRecord
100
AcDbTextStyleTableRecord
2
Standard
3
txt
70
0
71
0
40
0
41
1
42
0
50
0
0
STYLE
5
F1
100
AcDbSymbolTableRecord
100
AcDbTextStyleTableRecord
2
iso_b_vert
3
simplex.shx
70
0
71
0
40
0
41
1
42
0
50
0
0
STYLE
5
F2
100
AcDbSymbolTableRecord
100
AcDbTextStyleTableRecord
2
DWGDirectTextStyle
3
simplex
70
0
71
0
40
0
41
1
42
0
50
0
0
ENDTAB
0
TABLE
2
DIMSTYLE
5
1fb
100
AcDbSymbolTable
100
AcDbDimStyleTable
0
DIMSTYLE
105
27
100
AcDbSymbolTableRecord
100
AcDbDimStyleTableRecord
2
Standard
70
0
3
<>
41
0.18
42
0.0625
44
0.18
140
0.18
147
0.09
73
0
74
0
77
1
271
2
275
0
278
52
280
0
340
11
0
ENDTAB
0
TABLE
2
VIEW
5
1fc
100
AcDbSymbolTable
0
ENDTAB
0
TABLE
2
UCS
5
1fd
100
AcDbSymbolTable
0
ENDTAB
0
TABLE
2
APPID
5
1fe
100
AcDbSymbolTable
0
APPID
5
12
100
AcDbSymbolTableRecord
100
AcDbRegAppTableRecord
2
ACAD
70
0
0
APPID
5
108
100
AcDbSymbolTableRecord
100
AcDbRegAppTableRecord
2
ACAD_DSTYLE_DIMBREAK
70
0
0
APPID
5
1A2
100
AcDbSymbolTableRecord
100
AcDbRegAppTableRecord
2
ACAD_DSTYLE_DIM_LINETYPE
70
0
0
APPID
5
1A3
100
AcDbSymbolTableRecord
100
AcDbRegAppTableRecord
2
ACAD_DSTYLE_DIM_EXT1_LINETYPE
70
0
0
APPID
5
1A4
100
AcDbSymbolTableRecord
100
AcDbRegAppTableRecord
2
ACAD_DSTYLE_DIM_EXT2_LINETYPE
70
0
0
APPID
5
1DF
100
AcDbSymbolTableRecord
100
AcDbRegAppTableRecord
2
ACAD_MLEADERVER
70
0
0
ENDTAB
0
TABLE
2
BLOCK_RECORD
5
1ff
100
AcDbSymbolTable
0
BLOCK_RECORD
5
1F
100
AcDbSymbolTableRecord
100
AcDbBlockTableRecord
2
*Model_Space
340
0
70
0
0
BLOCK_RECORD
5
1B
100
AcDbSymbolTableRecord
100
AcDbBlockTableRecord
2
*Paper_Space
340
0
70
0
0
BLOCK_RECORD
5
23
100
AcDbSymbolTableRecord
100
AcDbBlockTableRecord
2
*Paper_Space0
340
0
70
0
0
BLOCK_RECORD
5
10D
100
AcDbSymbolTableRecord
100
AcDbBlockTableRecord
2
*D1
340
0
70
0
0
BLOCK_RECORD
5
119
100
AcDbSymbolTableRecord
100
AcDbBlockTableRecord
2
_U0
340
0
70
0
0
BLOCK_RECORD
5
125
100
AcDbSymbolTableRecord
100
AcDbBlockTableRecord
2
*D3
340
0
70
0
0
BLOCK_RECORD
5
131
100
AcDbSymbolTableRecord
100
AcDbBlockTableRecord
2
_U1
340
0
70
0
0
BLOCK_RECORD
5
13D
100
AcDbSymbolTableRecord
100
AcDbBlockTableRecord
2
*D5
340
0
70
0
0
BLOCK_RECORD
5
149
100
AcDbSymbolTableRecord
100
AcDbBlockTableRecord
2
_U2
340
0
70
0
0
BLOCK_RECORD
5
155
100
AcDbSymbolTableRecord
100
AcDbBlockTableRecord
2
*D7
340
0
70
0
0
BLOCK_RECORD
5
163
100
AcDbSymbolTableRecord
100
AcDbBlockTableRecord
2
_U3
340
0
70
0
0
BLOCK_RECORD
5
16F
100
AcDbSymbolTableRecord
100
AcDbBlockTableRecord
2
*D9
340
0
70
0
0
BLOCK_RECORD
5
17B
100
AcDbSymbolTableRecord
100
AcDbBlockTableRecord
2
_U4
340
0
70
0
0
ENDTAB
0
ENDSEC
0
SECTION
2
BLOCKS
0
BLOCK
5
20
100
AcDbEntity
8
0
100
AcDbBlockBegin
2
*Model_Space
70
0
10
0
20
0
30
0
3
*Model_Space
0
ENDBLK
5
21
100
AcDbEntity
8
0
100
AcDbBlockEnd
0
BLOCK
5
1C
100
AcDbEntity
8
0
100
AcDbBlockBegin
2
*Paper_Space
70
0
10
0
20
0
30
0
3
*Paper_Space
0
ENDBLK
5
1D
100
AcDbEntity
8
0
100
AcDbBlockEnd
0
BLOCK
5
24
100
AcDbEntity
8
0
100
AcDbBlockBegin
2
*Paper_Space0
70
0
10
0
20
0
30
0
3
*Paper_Space0
0
ENDBLK
5
25
100
AcDbEntity
8
0
100
AcDbBlockEnd
0
BLOCK
5
10E
100
AcDbEntity
8
0
100
AcDbBlockBegin
2
*D1
70
1
10
0
20
0
30
0
3
*D1
0
LINE
5
110
100
AcDbEntity
8
0
62
256
6
ByLayer
370
-2
48
1
60
0
100
AcDbLine
10
0
20
-1.5875
30
0
11
0
21
-16.213398
31
0
39
0
210
0
220
0
230
1
0
LINE
5
111
100
AcDbEntity
8
0
62
256
6
ByLayer
370
-2
48
1
60
0
100
AcDbLine
10
41.4851
20
-5.5875
30
0
11
41.4851
21
-16.213398
31
0
39
0
210
0
220
0
230
1
0
LINE
5
112
100
AcDbEntity
8
0
62
256
6
ByLayer
370
-2
48
1
60
0
100
AcDbLine
10
3.5
20
-14.213398
30
0
11
37.9851
21
-14.213398
31
0
39
0
210
0
220
0
230
1
0
SOLID
5
113
100
AcDbEntity
8
0
62
256
6
ByLayer
370
-1
48
1
60
0
100
AcDbTrace
10
3.5
20
-13.630065
30
0
11
3.5
21
-14.796732
31
0
12
0
22
-14.213398
32
0
13
0
23
-14.213398
33
0
39
0
210
0
220
0
230
1
0
SOLID
5
114
100
AcDbEntity
8
0
62
256
6
ByLayer
370
-1
48
1
60
0
100
AcDbTrace
10
37.9851
20
-14.796732
30
0
11
37.9851
21
-13.630065
31
0
12
41.4851
22
-14.213398
32
0
13
41.4851
23
-14.213398
33
0
39
0
210
0
220
0
230
1
0
MTEXT
5
115
100
AcDbEntity
8
0
62
256
6
ByLayer
370
18
48
1
60
0
100
AcDbMText
10
20.74255
20
-7.213398
30
0
210
0
220
0
230
1
1
\A1;41.49
40
3.5
41
0
44
1
50
0
71
5
72
5
7
iso_b_vert
0
POINT
5
116
100
AcDbEntity
8
Defpoints
62
0
6
ByLayer
370
-1
48
1
60
0
100
AcDbPoint
10
0
20
0
30
0
39
0
210
0
220
0
230
1
50
360
0
POINT
5
117
100
AcDbEntity
8
Defpoints
62
0
6
ByLayer
370
-1
48
1
60
0
100
AcDbPoint
10
41.4851
20
-4
30
0
39
0
210
0
220
0
230
1
50
360
0
POINT
5
118
100
AcDbEntity
8
Defpoints
62
0
6
ByLayer
370
-1
48
1
60
0
100
AcDbPoint
10
41.4851
20
-14.213398
30
0
39
0
210
0
220
0
230
1
50
360
0
ENDBLK
5
10F
100
AcDbEntity
8
0
100
AcDbBlockEnd
0
BLOCK
5
120
100
AcDbEntity
8
0
100
AcDbBlockBegin
2
_U0
70
0
10
0
20
0
30
0
3
_U0
0
MTEXT
5
11A
100
AcDbEntity
8
2
62
256
6
ByLayer
370
13
48
1
60
0
100
AcDbMText
10
15.674151
20
-13.180765
30
0
210
0
220
0
230
1
1
\W0.7326;41,49
40
3.5
41
0
44
1.084337
50
0
71
7
72
5
7
iso_b_vert
0
LINE
5
11B
100
AcDbEntity
8
2
62
256
6
ByLayer
370
13
48
1
60
0
100
AcDbLine
10
0
20
-1.5875
30
0
11
0
21
-16.213398
31
0
39
0
210
0
220
0
230
1
0
LINE
5
11C
100
AcDbEntity
8
2
62
256
6
ByLayer
370
13
48
1
60
0
100
AcDbLine
10
41.4851
20
-5.5875
30
0
11
41.4851
21
-16.213398
31
0
39
0
210
0
220
0
230
1
0
LINE
5
11D
100
AcDbEntity
8
2
62
256
6
ByLayer
370
13
48
1
60
0
100
AcDbLine
10
0
20
-14.213398
30
0
11
41.4851
21
-14.213398
31
0
39
0
210
0
220
0
230
1
0
SOLID
5
11E
100
AcDbEntity
8
2
62
256
6
ByLayer
370
18
48
1
60
0
100
AcDbTrace
10
0
20
-14.213398
30
0
11
3.499998
21
-13.752615
31
0
12
3.500002
22
-14.674182
32
0
13
3.500002
23
-14.674182
33
0
39
0
210
0
220
0
230
1
0
SOLID
5
11F
100
AcDbEntity
8
2
62
256
6
ByLayer
370
18
48
1
60
0
100
AcDbTrace
10
41.4851
20
-14.213398
30
0
11
37.985102
21
-14.674182
31
0
12
37.985098
22
-13.752615
32
0
13
37.985098
23
-13.752615
33
0
39
0
210
0
220
0
230
1
0
ENDBLK
5
121
100
AcDbEntity
8
0
100
AcDbBlockEnd
0
BLOCK
5
126
100
AcDbEntity
8
0
100
AcDbBlockBegin
2
*D3
70
1
10
0
20
0
30
0
3
*D3
0
LINE
5
128
100
AcDbEntity
8
0
62
256
6
ByLayer
370
-2
48
1
60
0
100
AcDbLine
10
-36
20
-5.5875
30
0
11
-36
21
-34.692985
31
0
39
0
210
0
220
0
230
1
0
LINE
5
129
100
AcDbEntity
8
0
62
256
6
ByLayer
370
-2
48
1
60
0
100
AcDbLine
10
43
20
-1.5875
30
0
11
43
21
-34.692985
31
0
39
0
210
0
220
0
230
1
0
LINE
5
12A
100
AcDbEntity
8
0
62
256
6
ByLayer
370
-2
48
1
60
0
100
AcDbLine
10
-32.5
20
-32.692985
30
0
11
39.5
21
-32.692985
31
0
39
0
210
0
220
0
230
1
0
SOLID
5
12B
100
AcDbEntity
8
0
62
256
6
ByLayer
370
-1
48
1
60
0
100
AcDbTrace
10
-32.5
20
-32.109652
30
0
11
-32.5
21
-33.276319
31
0
12
-36
22
-32.692985
32
0
13
-36
23
-32.692985
33
0
39
0
210
0
220
0
230
1
0
SOLID
5
12C
100
AcDbEntity
8
0
62
256
6
ByLayer
370
-1
48
1
60
0
100
AcDbTrace
10
39.5
20
-33.276319
30
0
11
39.5
21
-32.109652
31
0
12
43
22
-32.692985
32
0
13
43
23
-32.692985
33
0
39
0
210
0
220
0
230
1
0
MTEXT
5
12D
100
AcDbEntity
8
0
62
256
6
ByLayer
370
18
48
1
60
0
100
AcDbMText
10
3.5
20
-25.692985
30
0
210
0
220
0
230
1
1
\A1;79.00
40
3.5
41
0
44
1
50
0
71
5
72
5
7
iso_b_vert
0
POINT
5
12E
100
AcDbEntity
8
Defpoints
62
0
6
ByLayer
370
-1
48
1
60
0
100
AcDbPoint
10
-36
20
-4
30
0
39
0
210
0
220
0
230
1
50
360
0
POINT
5
12F
100
AcDbEntity
8
Defpoints
62
0
6
ByLayer
370
-1
48
1
60
0
100
AcDbPoint
10
43
20
0
30
0
39
0
210
0
220
0
230
1
50
360
0
POINT
5
130
100
AcDbEntity
8
Defpoints
62
0
6
ByLayer
370
-1
48
1
60
0
100
AcDbPoint
10
43
20
-32.692985
30
0
39
0
210
0
220
0
230
1
50
360
0
ENDBLK
5
127
100
AcDbEntity
8
0
100
AcDbBlockEnd
0
BLOCK
5
138
100
AcDbEntity
8
0
100
AcDbBlockBegin
2
_U1
70
0
10
0
20
0
30
0
3
_U1
0
MTEXT
5
132
100
AcDbEntity
8
SK2
62
256
6
ByLayer
370
13
48
1
60
0
100
AcDbMText
10
-1.637299
20
-31.660352
30
0
210
0
220
0
230
1
1
\W0.7317;79,00
40
3.5
41
0
44
1.084337
50
0
71
7
72
5
7
iso_b_vert
0
LINE
5
133
100
AcDbEntity
8
SK2
62
256
6
ByLayer
370
13
48
1
60
0
100
AcDbLine
10
-36
20
-5.5875
30
0
11
-36
21
-34.692985
31
0
39
0
210
0
220
0
230
1
0
LINE
5
134
100
AcDbEntity
8
SK2
62
256
6
ByLayer
370
13
48
1
60
0
100
AcDbLine
10
43
20
-1.5875
30
0
11
43
21
-34.692985
31
0
39
0
210
0
220
0
230
1
0
LINE
5
135
100
AcDbEntity
8
SK2
62
256
6
ByLayer
370
13
48
1
60
0
100
AcDbLine
10
-36
20
-32.692985
30
0
11
43
21
-32.692985
31
0
39
0
210
0
220
0
230
1
0
SOLID
5
136
100
AcDbEntity
8
SK2
62
256
6
ByLayer
370
18
48
1
60
0
100
AcDbTrace
10
-36
20
-32.692985
30
0
11
-32.500002
21
-32.232202
31
0
12
-32.499998
22
-33.153769
32
0
13
-32.499998
23
-33.153769
33
0
39
0
210
0
220
0
230
1
0
SOLID
5
137
100
AcDbEntity
8
SK2
62
256
6
ByLayer
370
18
48
1
60
0
100
AcDbTrace
10
43
20
-32.692985
30
0
11
39.500002
21
-33.153769
31
0
12
39.499998
22
-32.232202
32
0
13
39.499998
23
-32.232202
33
0
39
0
210
0
220
0
230
1
0
ENDBLK
5
139
100
AcDbEntity
8
0
100
AcDbBlockEnd
0
BLOCK
5
13E
100
AcDbEntity
8
0
100
AcDbBlockBegin
2
*D5
70
1
10
0
20
0
30
0
3
*D5
0
LINE
5
140
100
AcDbEntity
8
0
62
256
6
ByLayer
370
-2
48
1
60
0
100
AcDbLine
10
17.49
20
5.5875
30
0
11
17.49
21
17.609119
31
0
39
0
210
0
220
0
230
1
0
LINE
5
141
100
AcDbEntity
8
0
62
256
6
ByLayer
370
-2
48
1
60
0
100
AcDbLine
10
43
20
1.5875
30
0
11
43
21
17.609119
31
0
39
0
210
0
220
0
230
1
0
LINE
5
142
100
AcDbEntity
8
0
62
256
6
ByLayer
370
-2
48
1
60
0
100
AcDbLine
10
20.99
20
15.609119
30
0
11
39.5
21
15.609119
31
0
39
0
210
0
220
0
230
1
0
SOLID
5
143
100
AcDbEntity
8
0
62
256
6
ByLayer
370
-1
48
1
60
0
100
AcDbTrace
10
20.99
20
16.192453
30
0
11
20.99
21
15.025786
31
0
12
17.49
22
15.609119
32
0
13
17.49
23
15.609119
33
0
39
0
210
0
220
0
230
1
0
SOLID
5
144
100
AcDbEntity
8
0
62
256
6
ByLayer
370
-1
48
1
60
0
100
AcDbTrace
10
39.5
20
15.025786
30
0
11
39.5
21
16.192453
31
0
12
43
22
15.609119
32
0
13
43
23
15.609119
33
0
39
0
210
0
220
0
230
1
0
MTEXT
5
145
100
AcDbEntity
8
0
62
256
6
ByLayer
370
18
48
1
60
0
100
AcDbMText
10
30.245
20
22.609119
30
0
210
0
220
0
230
1
1
\A1;25.51
40
3.5
41
0
44
1
50
0
71
5
72
5
7
iso_b_vert
0
POINT
5
146
100
AcDbEntity
8
Defpoints
62
0
6
ByLayer
370
-1
48
1
60
0
100
AcDbPoint
10
17.49
20
4
30
0
39
0
210
0
220
0
230
1
50
360
0
POINT
5
147
100
AcDbEntity
8
Defpoints
62
0
6
ByLayer
370
-1
48
1
60
0
100
AcDbPoint
10
43
20
0
30
0
39
0
210
0
220
0
230
1
50
360
0
POINT
5
148
100
AcDbEntity
8
Defpoints
62
0
6
ByLayer
370
-1
48
1
60
0
100
AcDbPoint
10
43
20
15.609119
30
0
39
0
210
0
220
0
230
1
50
360
0
ENDBLK
5
13F
100
AcDbEntity
8
0
100
AcDbBlockEnd
0
BLOCK
5
150
100
AcDbEntity
8
0
100
AcDbBlockBegin
2
_U2
70
0
10
0
20
0
30
0
3
_U2
0
MTEXT
5
14A
100
AcDbEntity
8
SK2
62
256
6
ByLayer
370
13
48
1
60
0
100
AcDbMText
10
25.545135
20
16.641753
30
0
210
0
220
0
230
1
1
\W0.7211;25,51
40
3.5
41
0
44
1.084337
50
0
71
7
72
5
7
iso_b_vert
0
LINE
5
14B
100
AcDbEntity
8
SK2
62
256
6
ByLayer
370
13
48
1
60
0
100
AcDbLine
10
17.49
20
5.5875
30
0
11
17.49
21
17.609119
31
0
39
0
210
0
220
0
230
1
0
LINE
5
14C
100
AcDbEntity
8
SK2
62
256
6
ByLayer
370
13
48
1
60
0
100
AcDbLine
10
43
20
1.5875
30
0
11
43
21
17.609119
31
0
39
0
210
0
220
0
230
1
0
LINE
5
14D
100
AcDbEntity
8
SK2
62
256
6
ByLayer
370
13
48
1
60
0
100
AcDbLine
10
17.49
20
15.609119
30
0
11
43
21
15.609119
31
0
39
0
210
0
220
0
230
1
0
SOLID
5
14E
100
AcDbEntity
8
SK2
62
256
6
ByLayer
370
18
48
1
60
0
100
AcDbTrace
10
17.49
20
15.609119
30
0
11
20.989998
21
16.069903
31
0
12
20.990002
22
15.148335
32
0
13
20.990002
23
15.148335
33
0
39
0
210
0
220
0
230
1
0
SOLID
5
14F
100
AcDbEntity
8
SK2
62
256
6
ByLayer
370
18
48
1
60
0
100
AcDbTrace
10
43
20
15.609119
30
0
11
39.500002
21
15.148335
31
0
12
39.499998
22
16.069903
32
0
13
39.499998
23
16.069903
33
0
39
0
210
0
220
0
230
1
0
ENDBLK
5
151
100
AcDbEntity
8
0
100
AcDbBlockEnd
0
BLOCK
5
156
100
AcDbEntity
8
0
100
AcDbBlockBegin
2
*D7
70
1
10
0
20
0
30
0
3
*D7
0
LINE
5
158
100
AcDbEntity
8
0
62
256
6
ByLayer
370
-2
48
1
60
0
100
AcDbLine
10
43
20
-1.5875
30
0
11
43
21
-18.802503
31
0
39
0
210
0
220
0
230
1
0
LINE
5
159
100
AcDbEntity
8
0
62
256
6
ByLayer
370
-2
48
1
60
0
100
AcDbLine
10
41.4851
20
-5.5875
30
0
11
41.4851
21
-18.802503
31
0
39
0
210
0
220
0
230
1
0
LINE
5
15A
100
AcDbEntity
8
0
62
256
6
ByLayer
370
-2
48
1
60
0
100
AcDbLine
10
43
20
-16.802503
30
0
11
69.666667
21
-16.802503
31
0
39
0
210
0
220
0
230
1
0
LINE
5
15B
100
AcDbEntity
8
0
62
256
6
ByLayer
370
-2
48
1
60
0
100
AcDbLine
10
46.5
20
-16.802503
30
0
11
50
21
-16.802503
31
0
39
0
210
0
220
0
230
1
0
LINE
5
15C
100
AcDbEntity
8
0
62
256
6
ByLayer
370
-2
48
1
60
0
100
AcDbLine
10
37.9851
20
-16.802503
30
0
11
34.4851
21
-16.802503
31
0
39
0
210
0
220
0
230
1
0
SOLID
5
15D
100
AcDbEntity
8
0
62
256
6
ByLayer
370
-1
48
1
60
0
100
AcDbTrace
10
46.5
20
-16.21917
30
0
11
46.5
21
-17.385837
31
0
12
43
22
-16.802503
32
0
13
43
23
-16.802503
33
0
39
0
210
0
220
0
230
1
0
SOLID
5
15E
100
AcDbEntity
8
0
62
256
6
ByLayer
370
-1
48
1
60
0
100
AcDbTrace
10
37.9851
20
-17.385837
30
0
11
37.9851
21
-16.21917
31
0
12
41.4851
22
-16.802503
32
0
13
41.4851
23
-16.802503
33
0
39
0
210
0
220
0
230
1
0
MTEXT
5
15F
100
AcDbEntity
8
0
62
256
6
ByLayer
370
18
48
1
60
0
100
AcDbMText
10
59.833333
20
-9.802503
30
0
210
0
220
0
230
1
1
\A1;1.51
40
3.5
41
0
44
1
50
0
71
5
72
5
7
iso_b_vert
0
POINT
5
160
100
AcDbEntity
8
Defpoints
62
0
6
ByLayer
370
-1
48
1
60
0
100
AcDbPoint
10
43
20
0
30
0
39
0
210
0
220
0
230
1
50
360
0
POINT
5
161
100
AcDbEntity
8
Defpoints
62
0
6
ByLayer
370
-1
48
1
60
0
100
AcDbPoint
10
41.4851
20
-4
30
0
39
0
210
0
220
0
230
1
50
360
0
POINT
5
162
100
AcDbEntity
8
Defpoints
62
0
6
ByLayer
370
-1
48
1
60
0
100
AcDbPoint
10
41.4851
20
-16.802503
30
0
39
0
210
0
220
0
230
1
50
360
0
ENDBLK
5
157
100
AcDbEntity
8
0
100
AcDbBlockEnd
0
BLOCK
5
16A
100
AcDbEntity
8
0
100
AcDbBlockBegin
2
_U3
70
0
10
0
20
0
30
0
3
_U3
0
MTEXT
5
164
100
AcDbEntity
8
SK2
62
256
6
ByLayer
370
13
48
1
60
0
100
AcDbMText
10
50.026726
20
-15.76987
30
0
210
0
220
0
230
1
1
\W0.6132;1,51
40
3.5
41
0
44
1.084337
50
0
71
7
72
5
7
iso_b_vert
0
LINE
5
165
100
AcDbEntity
8
SK2
62
256
6
ByLayer
370
13
48
1
60
0
100
AcDbLine
10
43
20
-1.5875
30
0
11
43
21
-18.802503
31
0
39
0
210
0
220
0
230
1
0
LINE
5
166
100
AcDbEntity
8
SK2
62
256
6
ByLayer
370
13
48
1
60
0
100
AcDbLine
10
41.4851
20
-5.5875
30
0
11
41.4851
21
-18.802503
31
0
39
0
210
0
220
0
230
1
0
LINE
5
167
100
AcDbEntity
8
SK2
62
256
6
ByLayer
370
13
48
1
60
0
100
AcDbLine
10
32.7351
20
-16.802503
30
0
11
56.121624
21
-16.802503
31
0
39
0
210
0
220
0
230
1
0
SOLID
5
168
100
AcDbEntity
8
SK2
62
256
6
ByLayer
370
18
48
1
60
0
100
AcDbTrace
10
43
20
-16.802503
30
0
11
46.499998
21
-16.341719
31
0
12
46.500002
22
-17.263287
32
0
13
46.500002
23
-17.263287
33
0
39
0
210
0
220
0
230
1
0
SOLID
5
169
100
AcDbEntity
8
SK2
62
256
6
ByLayer
370
18
48
1
60
0
100
AcDbTrace
10
41.4851
20
-16.802503
30
0
11
37.985102
21
-17.263287
31
0
12
37.985098
22
-16.341719
32
0
13
37.985098
23
-16.341719
33
0
39
0
210
0
220
0
230
1
0
ENDBLK
5
16B
100
AcDbEntity
8
0
100
AcDbBlockEnd
0
BLOCK
5
170
100
AcDbEntity
8
0
100
AcDbBlockBegin
2
*D9
70
1
10
0
20
0
30
0
3
*D9
0
LINE
5
172
100
AcDbEntity
8
0
62
256
6
ByLayer
370
-2
48
1
60
0
100
AcDbLine
10
-36
20
-5.5875
30
0
11
-36
21
-24.343428
31
0
39
0
210
0
220
0
230
1
0
LINE
5
173
100
AcDbEntity
8
0
62
256
6
ByLayer
370
-2
48
1
60
0
100
AcDbLine
10
41.4851
20
-5.5875
30
0
11
41.4851
21
-24.343428
31
0
39
0
210
0
220
0
230
1
0
LINE
5
174
100
AcDbEntity
8
0
62
256
6
ByLayer
370
-2
48
1
60
0
100
AcDbLine
10
-32.5
20
-22.343428
30
0
11
37.9851
21
-22.343428
31
0
39
0
210
0
220
0
230
1
0
SOLID
5
175
100
AcDbEntity
8
0
62
256
6
ByLayer
370
-1
48
1
60
0
100
AcDbTrace
10
-32.5
20
-21.760095
30
0
11
-32.5
21
-22.926762
31
0
12
-36
22
-22.343428
32
0
13
-36
23
-22.343428
33
0
39
0
210
0
220
0
230
1
0
SOLID
5
176
100
AcDbEntity
8
0
62
256
6
ByLayer
370
-1
48
1
60
0
100
AcDbTrace
10
37.9851
20
-22.926762
30
0
11
37.9851
21
-21.760095
31
0
12
41.4851
22
-22.343428
32
0
13
41.4851
23
-22.343428
33
0
39
0
210
0
220
0
230
1
0
MTEXT
5
177
100
AcDbEntity
8
0
62
256
6
ByLayer
370
18
48
1
60
0
100
AcDbMText
10
2.74255
20
-15.343428
30
0
210
0
220
0
230
1
1
\A1;77.49
40
3.5
41
0
44
1
50
0
71
5
72
5
7
iso_b_vert
0
POINT
5
178
100
AcDbEntity
8
Defpoints
62
0
6
ByLayer
370
-1
48
1
60
0
100
AcDbPoint
10
-36
20
-4
30
0
39
0
210
0
220
0
230
1
50
360
0
POINT
5
179
100
AcDbEntity
8
Defpoints
62
0
6
ByLayer
370
-1
48
1
60
0
100
AcDbPoint
10
41.4851
20
-4
30
0
39
0
210
0
220
0
230
1
50
360
0
POINT
5
17A
100
AcDbEntity
8
Defpoints
62
0
6
ByLayer
370
-1
48
1
60
0
100
AcDbPoint
10
41.4851
20
-22.343428
30
0
39
0
210
0
220
0
230
1
50
360
0
ENDBLK
5
171
100
AcDbEntity
8
0
100
AcDbBlockEnd
0
BLOCK
5
182
100
AcDbEntity
8
0
100
AcDbBlockBegin
2
_U4
70
0
10
0
20
0
30
0
3
_U4
0
MTEXT
5
17C
100
AcDbEntity
8
SK2
62
256
6
ByLayer
370
13
48
1
60
0
100
AcDbMText
10
-2.579015
20
-21.310795
30
0
210
0
220
0
230
1
1
\W0.7669;77,49
40
3.5
41
0
44
1.084337
50
0
71
7
72
5
7
iso_b_vert
0
LINE
5
17D
100
AcDbEntity
8
SK2
62
256
6
ByLayer
370
13
48
1
60
0
100
AcDbLine
10
-36
20
-5.5875
30
0
11
-36
21
-24.343428
31
0
39
0
210
0
220
0
230
1
0
LINE
5
17E
100
AcDbEntity
8
SK2
62
256
6
ByLayer
370
13
48
1
60
0
100
AcDbLine
10
41.4851
20
-5.5875
30
0
11
41.4851
21
-24.343428
31
0
39
0
210
0
220
0
230
1
0
LINE
5
17F
100
AcDbEntity
8
SK2
62
256
6
ByLayer
370
13
48
1
60
0
100
AcDbLine
10
-36
20
-22.343428
30
0
11
41.4851
21
-22.343428
31
0
39
0
210
0
220
0
230
1
0
SOLID
5
180
100
AcDbEntity
8
SK2
62
256
6
ByLayer
370
18
48
1
60
0
100
AcDbTrace
10
-36
20
-22.343428
30
0
11
-32.500002
21
-21.882645
31
0
12
-32.499998
22
-22.804212
32
0
13
-32.499998
23
-22.804212
33
0
39
0
210
0
220
0
230
1
0
SOLID
5
181
100
AcDbEntity
8
SK2
62
256
6
ByLayer
370
18
48
1
60
0
100
AcDbTrace
10
41.4851
20
-22.343428
30
0
11
37.985102
21
-22.804212
31
0
12
37.985098
22
-21.882645
32
0
13
37.985098
23
-21.882645
33
0
39
0
210
0
220
0
230
1
0
ENDBLK
5
183
100
AcDbEntity
8
0
100
AcDbBlockEnd
0
ENDSEC
0
SECTION
2
ENTITIES
0
ARC
5
A6
100
AcDbEntity
8
1
62
256
6
ByLayer
370
18
48
1
60
0
100
AcDbCircle
39
0
10
0.495388
20
4.77622
30
0
40
0.85
210
0
220
0
230
1
100
AcDbArc
50
253.057942
51
270.103132
0
ARC
5
A7
100
AcDbEntity
8
1
62
256
6
ByLayer
370
18
48
1
60
0
100
AcDbCircle
39
0
10
0
20
-3.15
30
0
40
0.85
210
0
220
0
230
1
100
AcDbArc
50
270
51
286.942058
0
ARC
5
A8
100
AcDbEntity
8
1
62
256
6
ByLayer
370
18
48
1
60
0
100
AcDbCircle
39
0
10
0.495388
20
-4.77622
30
0
40
0.85
210
0
220
0
230
1
100
AcDbArc
50
89.896868
51
106.942058
0
ARC
5
A9
100
AcDbEntity
8
1
62
256
6
ByLayer
370
18
48
1
60
0
100
AcDbCircle
39
0
10
0
20
3.15
30
0
40
0.85
210
0
220
0
230
1
100
AcDbArc
50
73.057942
51
90
0
ELLIPSE
5
AA
100
AcDbEntity
8
1
62
256
6
ByLayer
370
13
48
1
60
0
100
AcDbEllipse
10
10.505118
20
-64.036044
30
0
11
-47.2791012775041
21
57.5262115541173
31
0
210
0
220
0
230
1
40
0.699368
41
-0.865753247939477
42
-0.757123862933488
0
ELLIPSE
5
AB
100
AcDbEntity
8
1
62
256
6
ByLayer
370
13
48
1
60
0
100
AcDbEllipse
10
3.630712
20
3.626398
30
0
11
0.0817176206004235
21
0.288655903254039
31
0
210
0
220
0
230
1
40
0.450611
41
-2.93899302047188
42
-2.57715039959449
0
ELLIPSE
5
AC
100
AcDbEntity
8
1
62
256
6
ByLayer
370
13
48
1
60
0
100
AcDbEllipse
10
87.194174
20
42.329751
30
0
11
-61
21
7.4700987583165E-15
31
0
210
0
220
0
230
1
40
0.99863
41
0.729549299142813
42
0.756868800761596
0
ELLIPSE
5
AD
100
AcDbEntity
8
1
62
256
6
ByLayer
370
18
48
1
60
0
100
AcDbEllipse
10
3.629455
20
4.827046
30
0
11
-1
21
1.22460635382238E-16
31
0
210
0
220
0
230
1
40
0.999999
41
1.11841043111358
42
1.57450589510293
0
ELLIPSE
5
AE
100
AcDbEntity
8
1
62
256
6
ByLayer
370
18
48
1
60
0
100
AcDbEllipse
10
3.629455
20
-4.827046
30
0
11
-1
21
1.22460635382238E-16
31
0
210
0
220
0
230
1
40
0.999999
41
-1.57048796093135
42
-1.11890250954436
0
POINT
5
70
100
AcDbEntity
8
80
62
256
6
ByLayer
370
18
48
1
60
0
100
AcDbPoint
10
0
20
0
30
0
39
0
210
0
220
0
230
1
50
360
0
POINT
5
72
100
AcDbEntity
8
81
62
256
6
ByLayer
370
18
48
1
60
0
100
AcDbPoint
10
43
20
0
30
0
39
0
210
0
220
0
230
1
50
360
0
POINT
5
74
100
AcDbEntity
8
1
62
256
6
ByLayer
370
18
48
1
60
1
100
AcDbPoint
10
41.4851
20
-4
30
0
39
0
210
0
220
0
230
1
50
360
0
POINT
5
76
100
AcDbEntity
8
1
62
256
6
ByLayer
370
18
48
1
60
1
100
AcDbPoint
10
-36
20
-4
30
0
39
0
210
0
220
0
230
1
50
360
0
POINT
5
77
100
AcDbEntity
8
1
62
256
6
ByLayer
370
18
48
1
60
1
100
AcDbPoint
10
17.49
20
4
30
0
39
0
210
0
220
0
230
1
50
360
0
POINT
5
78
100
AcDbEntity
8
1
62
256
6
ByLayer
370
18
48
1
60
1
100
AcDbPoint
10
41.4851
20
-4
30
0
39
0
210
0
220
0
230
1
50
360
0
POINT
5
79
100
AcDbEntity
8
1
62
256
6
ByLayer
370
18
48
1
60
1
100
AcDbPoint
10
-36
20
-4
30
0
39
0
210
0
220
0
230
1
50
360
0
POINT
5
7A
100
AcDbEntity
8
1
62
256
6
ByLayer
370
18
48
1
60
1
100
AcDbPoint
10
41.4851
20
-4
30
0
39
0
210
0
220
0
230
1
50
360
0
SPLINE
5
AF
100
AcDbEntity
8
1
62
256
6
ByLayer
370
18
48
1
60
0
100
AcDbSpline
70
4
71
1
72
4
73
2
40
0
40
0
40
1
40
1
41
1
10
42.3900500084516
20
-0.988080631373606
30
0
41
1
10
42.4000480337231
20
-0.954327863719271
30
0
0
SPLINE
5
B0
100
AcDbEntity
8
1
62
256
6
ByLayer
370
18
48
1
60
0
100
AcDbSpline
70
4
71
3
72
8
73
4
40
0
40
0
40
0
40
0
40
1
40
1
40
1
40
1
41
1
10
42.9998036201195
20
0.0750168971280232
30
0
41
1
10
43.0000654599517
20
0.0250056323759509
30
0
41
1
10
43.0000654599517
20
-0.0250056323761214
30
0
41
1
10
42.9998036201195
20
-0.0750168971281937
30
0
0
SPLINE
5
B1
100
AcDbEntity
8
1
62
256
6
ByLayer
370
18
48
1
60
0
100
AcDbSpline
70
4
71
3
72
18
73
14
40
0
40
0
40
0
40
0
40
0.25
40
0.25
40
0.375
40
0.375
40
0.5
40
0.5
40
0.625
40
0.625
40
0.75
40
0.75
40
1
40
1
40
1
40
1
41
1
10
42.40004803372
20
-0.954327863701849
30
0
41
1
10
42.4435914436874
20
-0.925856330855652
30
0
41
1
10
42.490240355861
20
-0.879284950458555
30
0
41
1
10
42.5652714325577
20
-0.783814144304955
30
0
41
1
10
42.5910760970047
20
-0.747666217502996
30
0
41
1
10
42.6427363228019
20
-0.66926842862901
30
0
41
1
10
42.6687978806623
20
-0.626765654838323
30
0
41
1
10
42.7213779280031
20
-0.535395318030396
30
0
41
1
10
42.7480638897578
20
-0.486178173278347
30
0
41
1
10
42.8005587412403
20
-0.383928125312593
30
0
41
1
10
42.8264721637673
20
-0.330748015130723
30
0
41
1
10
42.9031899484566
20
-0.165382260524808
30
0
41
1
10
42.9532806205965
20
-0.0464947758014489
30
0
41
1
10
42.9998036201195
20
0.07501689712808
30
0
0
SPLINE
5
B2
100
AcDbEntity
8
1
62
256
6
ByLayer
370
18
48
1
60
0
100
AcDbSpline
70
4
71
3
72
50
73
46
40
0
40
0
40
0
40
0
40
0.0530592772442373
40
0.0530592772442373
40
0.112243072416471
40
0.112243072416471
40
0.171426867588705
40
0.171426867588705
40
0.230610662760939
40
0.230610662760939
40
0.289794457933173
40
0.289794457933173
40
0.348978253105407
40
0.348978253105407
40
0.408162048277641
40
0.408162048277641
40
0.467345843449875
40
0.467345843449875
40
0.496937741035993
40
0.496937741035993
40
0.526529638622111
40
0.526529638622111
40
0.585713433794346
40
0.585713433794346
40
0.615305331380464
40
0.615305331380464
40
0.644897228966582
40
0.644897228966582
40
0.704081024138817
40
0.704081024138817
40
0.733672921724935
40
0.733672921724935
40
0.763264819311052
40
0.763264819311052
40
0.822448614483289
40
0.822448614483289
40
0.852040512069408
40
0.852040512069408
40
0.881632409655526
40
0.881632409655526
40
0.940816204827763
40
0.940816204827763
40
0.970408102413881
40
0.970408102413881
40
1
40
1
40
1
40
1
41
1
10
21.4768543003325
20
3.96397998596714
30
0
41
1
10
21.832320198344
20
3.96473890562098
30
0
41
1
10
22.1886128505068
20
3.94975997218984
30
0
41
1
10
22.9403118347299
20
3.88526263337141
30
0
41
1
10
23.3359260810547
20
3.83205794125124
30
0
41
1
10
24.1283621645599
20
3.68835442036803
30
0
41
1
10
24.5258538874076
20
3.59754184821338
30
0
41
1
10
25.3182658588119
20
3.38221499924129
30
0
41
1
10
25.7137032507451
20
3.25750708196443
30
0
41
1
10
26.5060038706343
20
2.97676149636294
30
0
41
1
10
26.90343194959
20
2.82042728957455
30
0
41
1
10
27.6955243030275
20
2.48280817347413
30
0
41
1
10
28.0908206830419
20
2.30102757240113
30
0
41
1
10
28.8831779001771
20
1.91601799484033
30
0
41
1
10
29.2804366977497
20
1.71231785029633
30
0
41
1
10
30.0721869331433
20
1.29167459835256
30
0
41
1
10
30.4674034460265
20
1.07403500578957
30
0
41
1
10
31.0616594456596
20
0.740602817989384
30
0
41
1
10
31.2601942345984
20
0.628129332911584
30
0
41
1
10
31.6567215433061
20
0.40204727794216
30
0
41
1
10
31.854685463484
20
0.288526645432768
30
0
41
1
10
32.4482355795028
20
-0.0525005815807162
30
0
41
1
10
32.8433759869936
20
-0.280654311469931
30
0
41
1
10
33.4376111765952
20
-0.61996054711247
30
0
41
1
10
33.6361449796429
20
-0.732745330365645
30
0
41
1
10
34.0324353263654
20
-0.955940794545342
30
0
41
1
10
34.2302854506171
20
-1.06638343196289
30
0
41
1
10
34.8235494483848
20
-1.39325813465408
30
0
41
1
10
35.2186774865253
20
-1.60523970763035
30
0
41
1
10
35.812852934044
20
-1.91092659478989
30
0
41
1
10
36.0113238721925
20
-2.01086396103318
30
0
41
1
10
36.4073511696865
20
-2.20517999479969
30
0
41
1
10
36.6050952977016
20
-2.29964631850385
30
0
41
1
10
37.1981112949128
20
-2.57416298992612
30
0
41
1
10
37.5931756163195
20
-2.74532589413565
30
0
41
1
10
38.1873935886737
20
-2.98152449285928
30
0
41
1
10
38.3858128167651
20
-3.05685494530383
30
0
41
1
10
38.781179520655
20
-3.19933272417853
30
0
41
1
10
38.9784496779464
20
-3.26657276752857
30
0
41
1
10
39.56945461394
20
-3.45598780972892
30
0
41
1
10
39.9624180947869
20
-3.56581800280523
30
0
41
1
10
40.5524181347715
20
-3.70421328669533
30
0
41
1
10
40.7491670907662
20
-3.74596115701175
30
0
41
1
10
41.143160573144
20
-3.82040992544063
30
0
41
1
10
41.3401006581836
20
-3.85324118502774
30
0
41
1
10
41.5381049028676
20
-3.8811230008011
30
0
0
SPLINE
5
B3
100
AcDbEntity
8
1
62
256
6
ByLayer
370
13
48
1
60
0
100
AcDbSpline
70
4
71
3
72
8
73
4
40
0
40
0
40
0
40
0
40
1
40
1
40
1
40
1
41
1
10
3.63106355816453
20
-0.228779824478153
30
0
41
1
10
3.63106775297524
20
-0.269687026050775
30
0
41
1
10
3.63107183223923
20
-0.310695103086999
30
0
41
1
10
3.63107576765816
20
-0.351570636952687
30
0
0
SPLINE
5
B4
100
AcDbEntity
8
1
62
256
6
ByLayer
370
18
48
1
60
0
100
AcDbSpline
70
4
71
3
72
8
73
4
40
0
40
0
40
0
40
0
40
1
40
1
40
1
40
1
41
1
10
41.5993745259105
20
-3.96944765923209
30
0
41
1
10
41.5761644688844
20
-3.94954944516422
30
0
41
1
10
41.5558747193194
20
-3.92014200284083
30
0
41
1
10
41.5381049028661
20
-3.88112300080223
30
0
0
SPLINE
5
B5
100
AcDbEntity
8
1
62
256
6
ByLayer
370
13
48
1
60
0
100
AcDbSpline
70
4
71
3
72
16
73
12
40
0
40
0
40
0
40
0
40
0.0615629501320181
40
0.124125420123216
40
0.249250360105615
40
0.311812830096813
40
0.374375300088013
40
0.49950024007041
40
0.562062710061608
40
0.749750120035205
40
1
40
1
40
1
40
1
41
1
10
12.4407105040369
20
-1.49094766162676
30
0
41
1
10
12.4009848198737
20
-1.49386828056041
30
0
41
1
10
12.3208869276084
20
-1.49961139147325
30
0
41
1
10
12.1600817999418
20
-1.51046997170684
30
0
41
1
10
11.9986228144805
20
-1.52046519348181
30
0
41
1
10
11.8371560083873
20
-1.52955242025357
30
0
41
1
10
11.6757064448073
20
-1.53797047998847
30
0
41
1
10
11.5142478372975
20
-1.54547127186319
30
0
41
1
10
11.2720768091132
20
-1.55527508065615
30
0
41
1
10
10.9492152700398
20
-1.56569442824483
30
0
41
1
10
10.6666124493718
20
-1.5711969664992
30
0
41
1
10
10.5051179237768
20
-1.5731034520885
30
0
0
SPLINE
5
B6
100
AcDbEntity
8
1
62
256
6
ByLayer
370
13
48
1
60
0
100
AcDbSpline
70
4
71
3
72
21
73
17
40
0
40
0
40
0
40
0
40
0.0432757814422253
40
0.0960124318465754
40
0.201485732655287
40
0.254222383059636
40
0.306959033464002
40
0.41243233427271
40
0.465168984677061
40
0.51790563508141
40
0.623378935890132
40
0.676115586294484
40
0.728852236698837
40
0.834325537507555
40
0.939798838316265
40
1
40
1
40
1
40
1
41
1
10
41.7330131068749
20
1.57420146527664
30
0
41
1
10
41.6998911513772
20
1.57416145695029
30
0
41
1
10
41.62640640861
20
1.57395389234813
30
0
41
1
10
41.4721809419789
20
1.57290893325714
30
0
41
1
10
41.3107228397281
20
1.57088360573354
30
0
41
1
10
41.1492726679344
20
1.56792299902727
30
0
41
1
10
40.9878054311057
20
1.56426947948239
30
0
41
1
10
40.8263474726377
20
1.55968393767966
30
0
41
1
10
40.6648975935648
20
1.55416352277706
30
0
41
1
10
40.5034306728373
20
1.54796167364026
30
0
41
1
10
40.3419730459548
20
1.54083389425287
30
0
41
1
10
40.18052332322
20
1.53278258829658
30
0
41
1
10
40.0190562140365
20
1.52406741465683
30
0
41
1
10
39.8172215465631
20
1.51200868746182
30
0
41
1
10
39.6096832974898
20
1.49804612562664
30
0
41
1
10
39.4828646928633
20
1.48874766706317
30
0
41
1
10
39.4367828889892
20
1.48527075097488
30
0
0
SPLINE
5
B7
100
AcDbEntity
8
1
62
256
6
ByLayer
370
13
48
1
60
0
100
AcDbSpline
70
4
71
3
72
13
73
9
40
0
40
0
40
0
40
0
40
0.440425675342266
40
0.440425675342266
40
0.660638513013398
40
0.660638513013398
40
0.880851350684531
40
1
40
1
40
1
40
1
41
1
10
3.6312509901197
20
3.36281773075399
30
0
41
1
10
3.63120781215349
20
3.49745226905327
30
0
41
1
10
3.63117042284466
20
3.60430115825142
30
0
41
1
10
3.63112591508315
20
3.71958642016935
30
0
41
1
10
3.63111290989949
20
3.75069928519415
30
0
41
1
10
3.63109104364383
20
3.79721407170726
30
0
41
1
10
3.63107732761318
20
3.82114558543574
30
0
41
1
10
3.63106812630383
20
3.82716108168475
30
0
41
1
10
3.63106542918052
20
3.82705039073085
30
0
0
SPLINE
5
B8
100
AcDbEntity
8
1
62
256
6
ByLayer
370
18
48
1
60
0
100
AcDbSpline
70
4
71
3
72
8
73
4
40
0
40
0
40
0
40
0
40
1
40
1
40
1
40
1
41
1
10
9.5205736533249
20
3.83683802113359
30
0
41
1
10
9.57593685809906
20
3.837073771869
30
0
41
1
10
9.63135031106668
20
3.83704367507707
30
0
41
1
10
9.68681301209659
20
3.83675492222466
30
0
0
SPLINE
5
B9
100
AcDbEntity
8
1
62
256
6
ByLayer
370
18
48
1
60
0
100
AcDbSpline
70
4
71
3
72
10
73
6
40
0
40
0
40
0
40
0
40
0.5
40
0.5
40
1
40
1
40
1
40
1
41
1
10
3.63113655112036
20
-1.17741822635421
30
0
41
1
10
3.60354537892815
20
-1.04425798487412
30
0
41
1
10
3.58798042640333
20
-0.908961414301558
30
0
41
1
10
3.58780904090284
20
-0.632822376069925
30
0
41
1
10
3.60357480241225
20
-0.491205811510781
30
0
41
1
10
3.63107576766106
20
-0.351570636938135
30
0
0
SPLINE
5
BA
100
AcDbEntity
8
1
62
256
6
ByLayer
370
18
48
1
60
0
100
AcDbSpline
70
4
71
3
72
10
73
6
40
0
40
0
40
0
40
0
40
0.387964770006485
40
0.387964770006485
40
1
40
1
40
1
40
1
41
1
10
21.934067083306
20
-3.85957682041311
30
0
41
1
10
21.7558506182638
20
-3.85932732570296
30
0
41
1
10
21.5777756299445
20
-3.85524818532963
30
0
41
1
10
21.1188263149779
20
-3.83485740086914
30
0
41
1
10
20.8377460358454
20
-3.81269210720725
30
0
41
1
10
20.5565055737708
20
-3.78115178499493
30
0
0
SPLINE
5
BB
100
AcDbEntity
8
1
62
256
6
ByLayer
370
13
48
1
60
0
100
AcDbSpline
70
4
71
3
72
32
73
28
40
0
40
0
40
0
40
0
40
0.0204089532236202
40
0.0204089532236202
40
0.160350531334533
40
0.160350531334533
40
0.230321320389989
40
0.230321320389989
40
0.265306714917718
40
0.265306714917718
40
0.300292109445445
40
0.300292109445445
40
0.440233687556357
40
0.440233687556357
40
0.510204476611813
40
0.510204476611813
40
0.545189871139541
40
0.545189871139541
40
0.580175265667269
40
0.580175265667269
40
0.72011684377818
40
0.72011684377818
40
0.790087632833635
40
0.790087632833635
40
0.86005842188909
40
0.86005842188909
40
1
40
1
40
1
40
1
41
1
10
20.5565055737827
20
-3.7811517849963
30
0
41
1
10
20.4406942173498
20
-3.76816386899461
30
0
41
1
10
20.3248556988411
20
-3.75358623792755
30
0
41
1
10
19.4145286709046
20
-3.62673175378049
30
0
41
1
10
18.6287518386659
20
-3.44417080426254
30
0
41
1
10
17.4464376813025
20
-3.07557827092464
30
0
41
1
10
17.0518590730028
20
-2.93701920204936
30
0
41
1
10
16.4569530464173
20
-2.70777182663099
30
0
41
1
10
16.2578259492246
20
-2.62761807476326
30
0
41
1
10
15.8611556507893
20
-2.46172227666932
30
0
41
1
10
15.6633808465182
20
-2.37591282358636
30
0
41
1
10
14.6766018121676
20
-1.93379948397452
30
0
41
1
10
13.8935055664892
20
-1.53855447440719
30
0
41
1
10
12.7124638648883
20
-0.910719626831536
30
0
41
1
10
12.3178184906024
20
-0.695310788194348
30
0
41
1
10
11.7219538338619
20
-0.367153868614224
30
0
41
1
10
11.5228329565784
20
-0.256933195927701
30
0
41
1
10
11.1265153772375
20
-0.0371899703167173
30
0
41
1
10
10.9288876032821
20
0.0725646733468182
30
0
41
1
10
9.9425055898472
20
0.619079706845724
30
0
41
1
10
9.15905014517233
20
1.04897258287193
30
0
41
1
10
7.97641904963544
20
1.65477209018408
30
0
41
1
10
7.580885167454
20
1.85000178809869
30
0
41
1
10
6.78464373604822
20
2.22257743945309
30
0
41
1
10
6.38882683053583
20
2.39789725105572
30
0
41
1
10
5.20531981634701
20
2.88383042606688
30
0
41
1
10
4.42117991792517
20
3.15550201479948
30
0
41
1
10
3.6312509901197
20
3.36281773075399
30
0
0
SPLINE
5
BC
100
AcDbEntity
8
1
62
256
6
ByLayer
370
18
48
1
60
0
100
AcDbSpline
70
4
71
3
72
8
73
4
40
0
40
0
40
0
40
0
40
1
40
1
40
1
40
1
41
1
10
41.5381049028634
20
-3.88112300081068
30
0
41
1
10
41.5413832125951
20
-3.86552226002803
30
0
41
1
10
41.544142101311
20
-3.85051267257927
30
0
41
1
10
41.5463486177912
20
-3.83636879183089
30
0
0
SPLINE
5
BD
100
AcDbEntity
8
1
62
256
6
ByLayer
370
13
48
1
60
0
100
AcDbSpline
70
4
71
3
72
27
73
23
40
0
40
0
40
0
40
0
40
0.0872717644556516
40
0.0872717644556516
40
0.174543528911303
40
0.174543528911303
40
0.261815293366955
40
0.261815293366955
40
0.349087057822606
40
0.436358822278257
40
0.436358822278257
40
0.523630586733909
40
0.523630586733909
40
0.698174115645211
40
0.698174115645211
40
0.785445880100862
40
0.785445880100862
40
0.872717644556513
40
0.872717644556513
40
0.959989409012164
40
0.959989409012164
40
1
40
1
40
1
40
1
41
1
10
3.63113655112039
20
-1.17741822635421
30
0
41
1
10
3.63114313021615
20
-1.30972350546727
30
0
41
1
10
3.63114801409625
20
-1.43997687580401
30
0
41
1
10
3.63115450928916
20
-1.69625311575419
30
0
41
1
10
3.63115609154218
20
-1.8216288965495
30
0
41
1
10
3.63115626870822
20
-2.06364895197049
30
0
41
1
10
3.63115486269467
20
-2.18125172978853
30
0
41
1
10
3.63114964079776
20
-2.40589261134679
30
0
41
1
10
3.63114204390098
20
-2.61988503614017
30
0
41
1
10
3.63113105608244
20
-2.81300293681622
30
0
41
1
10
3.63111907582555
20
-2.99551466345608
30
0
41
1
10
3.63111257247445
20
-3.08157598286374
30
0
41
1
10
3.63109322176498
20
-3.31763868272046
30
0
41
1
10
3.63108039490018
20
-3.44807722630372
30
0
41
1
10
3.63106593822289
20
-3.60360194224549
30
0
41
1
10
3.63106190512937
20
-3.64885203816067
30
0
41
1
10
3.63105631666485
20
-3.72438032708573
30
0
41
1
10
3.63105476482127
20
-3.75457051999226
30
0
41
1
10
3.63105477648134
20
-3.79982262920944
30
0
41
1
10
3.63105636008885
20
-3.81476991251137
30
0
41
1
10
3.63106123586144
20
-3.82525997828074
30
0
41
1
10
3.63106313740135
20
-3.82695302416764
30
0
41
1
10
3.63106542190783
20
-3.8270502145833
30
0
0
SPLINE
5
BE
100
AcDbEntity
8
1
62
256
6
ByLayer
370
18
48
1
60
0
100
AcDbSpline
70
4
71
3
72
8
73
4
40
0
40
0
40
0
40
0
40
1
40
1
40
1
40
1
41
1
10
41.5993745259057
20
3.9694476592436
30
0
41
1
10
41.7179988318845
20
3.68643365213535
30
0
41
1
10
41.8392503642995
20
3.39396393134376
30
0
41
1
10
41.9611250675981
20
3.09038096325503
30
0
0
SPLINE
5
BF
100
AcDbEntity
8
1
62
256
6
ByLayer
370
18
48
1
60
0
100
AcDbSpline
70
4
71
3
72
12
73
8
40
0
40
0
40
0
40
0
40
0.249999999999999
40
0.249999999999999
40
0.499999999999999
40
0.499999999999999
40
1
40
1
40
1
40
1
41
1
10
41.5463486177858
20
-3.83636879187245
30
0
41
1
10
41.5450760870183
20
-3.81961665671136
30
0
41
1
10
41.5425230660871
20
-3.80421632044724
30
0
41
1
10
41.5357370145777
20
-3.77690220309665
30
0
41
1
10
41.5314895551417
20
-3.76476758388503
30
0
41
1
10
41.5167763672882
20
-3.7318753366807
30
0
41
1
10
41.5044788880479
20
-3.7149163467918
30
0
41
1
10
41.4906934397085
20
-3.70183861982272
30
0
0
SPLINE
5
C0
100
AcDbEntity
8
1
62
256
6
ByLayer
370
18
48
1
60
0
100
AcDbSpline
70
4
71
3
72
8
73
4
40
0
40
0
40
0
40
0
40
1
40
1
40
1
40
1
41
1
10
3.65536792804448
20
-0.242185377139265
30
0
41
1
10
3.60256944328179
20
-0.215212959967403
30
0
41
1
10
3.55010303868482
20
-0.187621521375462
30
0
41
1
10
3.49796966094539
20
-0.159408128972274
30
0
0
SPLINE
5
C1
100
AcDbEntity
8
1
62
256
6
ByLayer
370
18
48
1
60
0
100
AcDbSpline
70
4
71
3
72
50
73
46
40
0
40
0
40
0
40
0
40
0.0609273275286659
40
0.0609273275286659
40
0.121854655057332
40
0.121854655057332
40
0.152318318821665
40
0.152318318821665
40
0.182781982585999
40
0.182781982585999
40
0.243709310114664
40
0.243709310114664
40
0.30463663764333
40
0.30463663764333
40
0.335100301407664
40
0.335100301407664
40
0.365563965171997
40
0.365563965171997
40
0.426491292700663
40
0.426491292700663
40
0.456954956464996
40
0.456954956464996
40
0.487418620229329
40
0.487418620229329
40
0.548345947757995
40
0.548345947757995
40
0.578809611522329
40
0.578809611522329
40
0.609273275286662
40
0.609273275286662
40
0.67020060281533
40
0.67020060281533
40
0.700664266579663
40
0.700664266579663
40
0.731127930343997
40
0.731127930343997
40
0.792055257872664
40
0.792055257872664
40
0.852982585401331
40
0.852982585401331
40
0.913909912929997
40
0.913909912929997
40
0.974837240458664
40
0.974837240458664
40
1
40
1
40
1
40
1
41
1
10
3.51647006154019
20
3.35889173773359
30
0
41
1
10
3.91465822583169
20
3.241963590995
30
0
41
1
10
4.31259292810043
20
3.10805346964949
30
0
41
1
10
5.10699453143852
20
2.81189340315822
30
0
41
1
10
5.50375846550861
20
2.64935584596759
30
0
41
1
10
6.10024874272452
20
2.38629545492012
30
0
41
1
10
6.29940405065219
20
2.29535385278601
30
0
41
1
10
6.69600273656994
20
2.10868743397364
30
0
41
1
10
6.8937723102126
20
2.01285808723483
30
0
41
1
10
7.48620011773738
20
1.71905699749689
30
0
41
1
10
7.87982615627976
20
1.51454379749936
30
0
41
1
10
8.66679522672828
20
1.09218487603516
30
0
41
1
10
9.06010651667691
20
0.874266132475384
30
0
41
1
10
9.65245412996401
20
0.5417503696805
30
0
41
1
10
9.85030525981847
20
0.429986186924253
30
0
41
1
10
10.2469934396493
20
0.204893423852241
30
0
41
1
10
10.4461182185385
20
0.0914216216015404
30
0
41
1
10
11.0420280792858
20
-0.24819921720453
30
0
41
1
10
11.4382305744257
20
-0.473935478788604
30
0
41
1
10
12.0330247336459
20
-0.807860054733681
30
0
41
1
10
12.231352288309
20
-0.918420840894726
30
0
41
1
10
12.6285443250088
20
-1.1373291126294
30
0
41
1
10
12.8275581993488
20
-1.24576886454304
30
0
41
1
10
13.4232428746619
20
-1.56539114207874
30
0
41
1
10
13.8193587987543
20
-1.77127472253147
30
0
41
1
10
14.4141083724488
20
-2.06603024058884
30
0
41
1
10
14.6124307108776
20
-2.16197209528926
30
0
41
1
10
15.0096236705604
20
-2.34859989578189
30
0
41
1
10
15.2085428605919
20
-2.43933181953287
30
0
41
1
10
15.8039258900921
20
-2.70151390629738
30
0
41
1
10
16.1998894210911
20
-2.8634608007836
30
0
41
1
10
16.7944958903643
20
-3.08455633835041
30
0
41
1
10
16.9928205913733
20
-3.15460336579432
30
0
41
1
10
17.3900441748366
20
-3.28698992351065
30
0
41
1
10
17.5888490268078
20
-3.34932797883047
30
0
41
1
10
18.1839522452731
20
-3.52328128573967
30
0
41
1
10
18.5798586644665
20
-3.62218551817835
30
0
41
1
10
19.372553788519
20
-3.78400206007177
30
0
41
1
10
19.7702451736488
20
-3.84693939105483
30
0
41
1
10
20.5634307983519
20
-3.93396602163386
30
0
41
1
10
20.9592350572539
20
-3.95826297887214
30
0
41
1
10
21.7518296433312
20
-3.9679552452277
30
0
41
1
10
22.1494104319518
20
-3.95318337164557
30
0
41
1
10
22.7095138206653
20
-3.90504070963482
30
0
41
1
10
22.8730965624795
20
-3.88769462670868
30
0
41
1
10
23.0366477397086
20
-3.86711250554387
30
0
0
SPLINE
5
C2
100
AcDbEntity
8
1
62
256
6
ByLayer
370
13
48
1
60
0
100
AcDbSpline
70
4
71
3
72
38
73
34
40
0
40
0
40
0
40
0
40
0.0345565988544322
40
0.0345565988544322
40
0.0691131977088643
40
0.0691131977088643
40
0.13822639541773
40
0.13822639541773
40
0.276452790835463
40
0.276452790835463
40
0.311009389689894
40
0.311009389689894
40
0.345565988544326
40
0.345565988544326
40
0.414679186253189
40
0.414679186253189
40
0.552905581670916
40
0.552905581670916
40
0.587462180525347
40
0.587462180525347
40
0.622018779379778
40
0.622018779379778
40
0.691131977088639
40
0.691131977088639
40
0.829358372506358
40
0.829358372506358
40
0.863914971360788
40
0.863914971360788
40
0.898471570215218
40
0.898471570215218
40
0.967584767924076
40
0.967584767924076
40
1
40
1
40
1
40
1
41
1
10
41.4906934397122
20
-3.70183861982338
30
0
41
1
10
41.2924392308436
20
-3.6668035999933
30
0
41
1
10
41.0942728854029
20
-3.62725469830932
30
0
41
1
10
40.697803691892
20
-3.53935770199845
30
0
41
1
10
40.4992482603893
20
-3.49093713271381
30
0
41
1
10
39.9059045966298
20
-3.33364257603409
30
0
41
1
10
39.5128207470904
20
-3.21261982408458
30
0
41
1
10
38.3366840021785
20
-2.80640779384657
30
0
41
1
10
37.5568129851733
20
-2.47825364153351
30
0
41
1
10
36.5741181594689
20
-2.01351078779464
30
0
41
1
10
36.3771922946178
20
-1.91782212276939
30
0
41
1
10
35.9821581103852
20
-1.72152456494834
30
0
41
1
10
35.7835851636356
20
-1.62069154849183
30
0
41
1
10
35.1893092925645
20
-1.31347956203359
30
0
41
1
10
34.7956805498005
20
-1.10263922384959
30
0
41
1
10
33.6184578153496
20
-0.459267116570942
30
0
41
1
10
32.8382559212182
20
-0.0163490357684282
30
0
41
1
10
31.8555037749621
20
0.530680132228838
30
0
41
1
10
31.6585996081887
20
0.639793599126421
30
0
41
1
10
31.2636994451219
20
0.85673713977252
30
0
41
1
10
31.0653951738643
20
0.964657817677079
30
0
41
1
10
30.4701608386035
20
1.2845332061421
30
0
41
1
10
30.0759402277348
20
1.49120841468385
30
0
41
1
10
28.8963916677004
20
2.08406537164217
30
0
41
1
10
28.1148063889426
20
2.44432001545943
30
0
41
1
10
27.1297506286277
20
2.82969217793155
30
0
41
1
10
26.9323827965986
20
2.90362257490438
30
0
41
1
10
26.5365393005198
20
3.04456886727607
30
0
41
1
10
26.3376623359216
20
3.11170717329281
30
0
41
1
10
25.7430511437696
20
3.30062440507496
30
0
41
1
10
25.3487816363962
20
3.41014809361226
30
0
41
1
10
24.7703817694662
20
3.54554439332657
30
0
41
1
10
24.5858823533656
20
3.58503359962239
30
0
41
1
10
24.4014035464319
20
3.62067964933144
30
0
0
SPLINE
5
C3
100
AcDbEntity
8
1
62
256
6
ByLayer
370
18
48
1
60
0
100
AcDbSpline
70
4
71
3
72
12
73
8
40
0
40
0
40
0
40
0
40
0.250000000000008
40
0.250000000000008
40
0.500000000000016
40
0.500000000000016
40
1
40
1
40
1
40
1
41
1
10
3.1852900667601
20
3.53343696669677
30
0
41
1
10
3.18527394786986
20
3.51441453001854
30
0
41
1
10
3.20317960346446
20
3.49601750988057
30
0
41
1
10
3.24921220028301
20
3.46270802902228
30
0
41
1
10
3.27825124914639
20
3.44743294227362
30
0
41
1
10
3.37106387831165
20
3.40519859238364
30
0
41
1
10
3.44221021725613
20
3.38069817686943
30
0
41
1
10
3.51647006154019
20
3.35889173773359
30
0
0
SPLINE
5
C4
100
AcDbEntity
8
1
62
256
6
ByLayer
370
18
48
1
60
0
100
AcDbSpline
70
4
71
3
72
10
73
6
40
0
40
0
40
0
40
0
40
0.5
40
0.5
40
1
40
1
40
1
40
1
41
1
10
3.49796966095909
20
-0.159408128975855
30
0
41
1
10
3.5302316047985
20
-0.0469283710713171
30
0
41
1
10
3.57027558077337
20
0.063561167767233
30
0
41
1
10
3.66416882725736
20
0.280478815431167
30
0
41
1
10
3.71700421381877
20
0.384653897225718
30
0
41
1
10
3.77466242991051
20
0.485323253930034
30
0
0
SPLINE
5
C5
100
AcDbEntity
8
1
62
256
6
ByLayer
370
18
48
1
60
0
100
AcDbSpline
70
4
71
3
72
8
73
4
40
0
40
0
40
0
40
0
40
1
40
1
40
1
40
1
41
1
10
42.9998036201195
20
-0.0750168971281084
30
0
41
1
10
42.9480441636963
20
-0.216481741198976
30
0
41
1
10
42.8974120917028
20
-0.358682118017299
30
0
41
1
10
42.8478079661817
20
-0.501597600231491
30
0
0
SPLINE
5
C6
100
AcDbEntity
8
1
62
256
6
ByLayer
370
18
48
1
60
0
100
AcDbSpline
70
4
71
3
72
8
73
4
40
0
40
0
40
0
40
0
40
1
40
1
40
1
40
1
41
1
10
42.3958543517806
20
-0.95013707648414
30
0
41
1
10
42.3972521755781
20
-0.951534075790789
30
0
41
1
10
42.3986500695707
20
-0.952931004864411
30
0
41
1
10
42.4000480337477
20
-0.954327863694601
30
0
0
SPLINE
5
C7
100
AcDbEntity
8
1
62
256
6
ByLayer
370
18
48
1
60
0
100
AcDbSpline
70
4
71
3
72
18
73
14
40
0
40
0
40
0
40
0
40
0.25
40
0.25
40
0.375
40
0.375
40
0.499999999999999
40
0.499999999999999
40
0.749999999999999
40
0.749999999999999
40
0.875
40
0.875
40
1
40
1
40
1
40
1
41
1
10
41.1688731309965
20
0.549415929075963
30
0
41
1
10
41.1188658163397
20
0.327086695813904
30
0
41
1
10
41.0784136175968
20
0.103293590146507
30
0
41
1
10
41.0322305766665
20
-0.234616785213547
30
0
41
1
10
41.0192651537249
20
-0.347625695444606
30
0
41
1
10
40.998391142823
20
-0.574418238186837
30
0
41
1
10
40.9905156164083
20
-0.688282978860542
30
0
41
1
10
40.97510838972
20
-1.02339652220226
30
0
41
1
10
40.9754534278029
20
-1.24079297938525
30
0
41
1
10
40.9918091887364
20
-1.55791784139606
30
0
41
1
10
40.9999491917682
20
-1.66242373825864
30
0
41
1
10
41.0215563542042
20
-1.86693245780683
30
0
41
1
10
41.0349506757405
20
-1.96642193893797
30
0
41
1
10
41.0508942239788
20
-2.06319084540732
30
0
0
SPLINE
5
C8
100
AcDbEntity
8
1
62
256
6
ByLayer
370
18
48
1
60
0
100
AcDbSpline
70
4
71
1
72
4
73
2
40
0
40
0
40
1
40
1
41
1
10
41.5463486177818
20
-3.83636879187259
30
0
41
1
10
42.3900500084557
20
-0.9880806313748
30
0
0
SPLINE
5
C9
100
AcDbEntity
8
1
62
256
6
ByLayer
370
18
48
1
60
0
100
AcDbSpline
70
4
71
3
72
84
73
80
40
0
40
0
40
0
40
0
40
0.0363220404393285
40
0.0363220404393285
40
0.0726440808786569
40
0.0726440808786569
40
0.0908051010983211
40
0.0908051010983211
40
0.108966121317985
40
0.108966121317985
40
0.145288161757314
40
0.145288161757314
40
0.163449181976978
40
0.163449181976978
40
0.181610202196643
40
0.181610202196643
40
0.217932242635971
40
0.217932242635971
40
0.2542542830753
40
0.2542542830753
40
0.272415303294964
40
0.272415303294964
40
0.290576323514628
40
0.290576323514628
40
0.308737343734292
40
0.308737343734292
40
0.326898363953956
40
0.326898363953956
40
0.363220404393283
40
0.363220404393283
40
0.381381424612947
40
0.381381424612947
40
0.39954244483261
40
0.39954244483261
40
0.417703465052274
40
0.417703465052274
40
0.435864485271937
40
0.435864485271937
40
0.472186525711264
40
0.472186525711264
40
0.490347545930928
40
0.490347545930928
40
0.508508566150591
40
0.508508566150591
40
0.544830606589919
40
0.544830606589919
40
0.562991626809582
40
0.562991626809582
40
0.581152647029245
40
0.581152647029245
40
0.617474687468572
40
0.617474687468572
40
0.653796727907899
40
0.653796727907899
40
0.671957748127562
40
0.671957748127562
40
0.690118768347226
40
0.690118768347226
40
0.708279788566889
40
0.708279788566889
40
0.726440808786552
40
0.726440808786552
40
0.762762849225879
40
0.762762849225879
40
0.780923869445542
40
0.780923869445542
40
0.799084889665206
40
0.799084889665206
40
0.835406930104532
40
0.835406930104532
40
0.871728970543859
40
0.871728970543859
40
0.908051010983186
40
0.908051010983186
40
0.944373051422513
40
0.944373051422513
40
0.98069509186184
40
0.98069509186184
40
1
40
1
40
1
40
1
41
1
10
9.68681301209656
20
3.83675492222466
30
0
41
1
10
10.0171866608027
20
3.83459754677674
30
0
41
1
10
10.3459634988679
20
3.81853008057325
30
0
41
1
10
11.0037817921043
20
3.75872058462346
30
0
41
1
10
11.3326294531308
20
3.71551060307053
30
0
41
1
10
11.8269281388375
20
3.63478430942004
30
0
41
1
10
11.991808974151
20
3.60546551357129
30
0
41
1
10
12.321089152304
20
3.53946076220311
30
0
41
1
10
12.4855544153821
20
3.50281345136452
30
0
41
1
10
12.9786358538584
20
3.38394494948946
30
0
41
1
10
13.3070769913197
20
3.29245155929414
30
0
41
1
10
13.8002805263996
20
3.13961299542424
30
0
41
1
10
13.9647366201427
20
3.08602441149554
30
0
41
1
10
14.2938932227868
20
2.97446325064547
30
0
41
1
10
14.4586298363315
20
2.9167041589609
30
0
41
1
10
14.9521633240256
20
2.73448933725223
30
0
41
1
10
15.2801458230369
20
2.6021643333543
30
0
41
1
10
15.93642346047
20
2.32190758614453
30
0
41
1
10
16.264822649519
20
2.17322852212158
30
0
41
1
10
16.7587351931157
20
1.94015767903096
30
0
41
1
10
16.9232283001408
20
1.86077975303411
30
0
41
1
10
17.2516755728666
20
1.69855948192557
30
0
41
1
10
17.4158427737734
20
1.61606441203409
30
0
41
1
10
17.7439116677731
20
1.44863681601601
30
0
41
1
10
17.9079157205202
20
1.36391661650967
30
0
41
1
10
18.2358451921681
20
1.19204013142957
30
0
41
1
10
18.3999546959325
20
1.10479271851821
30
0
41
1
10
18.8927602311843
20
0.840018127284878
30
0
41
1
10
19.222349299519
20
0.65967407062314
30
0
41
1
10
19.7150440411079
20
0.387391709461355
30
0
41
1
10
19.8792137675024
20
0.296386112273666
30
0
41
1
10
20.2072954768188
20
0.113699823416454
30
0
41
1
10
20.3712854772138
20
0.0221611256002063
30
0
41
1
10
20.6993598701899
20
-0.161062926144012
30
0
41
1
10
20.8636246407906
20
-0.252439871290619
30
0
41
1
10
21.1924119644719
20
-0.434995849765642
30
0
41
1
10
21.357299297655
20
-0.525835145903784
30
0
41
1
10
21.8508611073918
20
-0.796930555678017
30
0
41
1
10
22.1789365137799
20
-0.975650050504328
30
0
41
1
10
22.670928421397
20
-1.23906912328186
30
0
41
1
10
22.8349825412764
20
-1.32594745994476
30
0
41
1
10
23.1632314344513
20
-1.49713779733386
30
0
41
1
10
23.3277730138108
20
-1.58082994430592
30
0
41
1
10
23.8215593411217
20
-1.828952386655
30
0
41
1
10
24.1503710658914
20
-1.98895649376493
30
0
41
1
10
24.642755501703
20
-2.2182203636529
30
0
41
1
10
24.8069242544497
20
-2.29282633725825
30
0
41
1
10
25.1349818050668
20
-2.43925458471716
30
0
41
1
10
25.2991371121434
20
-2.51024096892701
30
0
41
1
10
25.7918819900667
20
-2.71617640949194
30
0
41
1
10
26.1215571230733
20
-2.84470967942676
30
0
41
1
10
26.7784773367302
20
-3.08124326947637
30
0
41
1
10
27.1066454548685
20
-3.18872696382576
30
0
41
1
10
27.5988218318095
20
-3.33583673356782
30
0
41
1
10
27.7630038736256
20
-3.38185885138148
30
0
41
1
10
28.0917302108314
20
-3.46783056991907
30
0
41
1
10
28.2566181159793
20
-3.50771602468717
30
0
41
1
10
28.5855453397666
20
-3.5822274823139
30
0
41
1
10
28.7496762500415
20
-3.61683199064899
30
0
41
1
10
29.077946779681
20
-3.67890368132535
30
0
41
1
10
29.2419439661402
20
-3.7066478017307
30
0
41
1
10
29.7341153455519
20
-3.78071900623354
30
0
41
1
10
30.0623480570424
20
-3.81856999309869
30
0
41
1
10
30.5556778646687
20
-3.85440975749174
30
0
41
1
10
30.7202194961762
20
-3.86313607573163
30
0
41
1
10
31.0482306570133
20
-3.87467071998381
30
0
41
1
10
31.2117532223793
20
-3.87730131843907
30
0
41
1
10
31.7016811503992
20
-3.87380609438191
30
0
41
1
10
32.0270027447134
20
-3.85858712291477
30
0
41
1
10
32.6769834531434
20
-3.80336080375309
30
0
41
1
10
33.0014438697107
20
-3.7627778341336
30
0
41
1
10
33.6509875477253
20
-3.65907309649816
30
0
41
1
10
33.9760288824091
20
-3.59365281805802
30
0
41
1
10
34.6287732738157
20
-3.4386836594168
30
0
41
1
10
34.9566243079944
20
-3.34935834463261
30
0
41
1
10
35.6143051150228
20
-3.14888749433666
30
0
41
1
10
35.9419469000147
20
-3.03852719269236
30
0
41
1
10
36.4440332625581
20
-2.8531929095561
30
0
41
1
10
36.6182807129687
20
-2.78612883959801
30
0
41
1
10
36.7925865072621
20
-2.71639191508797
30
0
0
SPLINE
5
CA
100
AcDbEntity
8
1
62
256
6
ByLayer
370
18
48
1
60
0
100
AcDbSpline
70
4
71
3
72
20
73
16
40
0
40
0
40
0
40
0
40
0.125000000000001
40
0.125000000000001
40
0.187500000000002
40
0.187500000000002
40
0.250000000000003
40
0.250000000000003
40
0.375000000000004
40
0.375000000000004
40
0.500000000000005
40
0.500000000000005
40
0.750000000000002
40
0.750000000000002
40
1
40
1
40
1
40
1
41
1
10
42.395854351775
20
-0.950137076478086
30
0
41
1
10
42.3512645873808
20
-0.955962253188716
30
0
41
1
10
42.3087756020765
20
-0.950169065328879
30
0
41
1
10
42.2476441173666
20
-0.927088952687143
30
0
41
1
10
42.2277056100107
20
-0.916969603461212
30
0
41
1
10
42.1886605528989
20
-0.892129761200522
30
0
41
1
10
42.1695249536152
20
-0.877355202686999
30
0
41
1
10
42.1143797684805
20
-0.827436773577688
30
0
41
1
10
42.0802169408709
20
-0.786544265689599
30
0
41
1
10
42.0163342820277
20
-0.691752013577826
30
0
41
1
10
41.9866089651184
20
-0.637632269490126
30
0
41
1
10
41.9057370644507
20
-0.462573011251067
30
0
41
1
10
41.8617178857211
20
-0.327876947651816
30
0
41
1
10
41.7903713919639
20
-0.0281389873440219
30
0
41
1
10
41.764191095943
20
0.132385682743092
30
0
41
1
10
41.7465363950853
20
0.302035461219305
30
0
0
SPLINE
5
CB
100
AcDbEntity
8
1
62
256
6
ByLayer
370
18
48
1
60
0
100
AcDbSpline
70
4
71
4
72
10
73
5
40
0
40
0
40
0
40
0
40
0
40
1
40
1
40
1
40
1
40
1
41
1
10
10.5051179237768
20
-1.5731034520885
30
0
41
1
10
10.3005416958568
20
-2.13901631962253
30
0
41
1
10
10.0959654679367
20
-2.70492918715655
30
0
41
1
10
9.89138924001662
20
-3.2708420546906
30
0
41
1
10
9.68681301209656
20
-3.83675492222463
30
0
0
SPLINE
5
CC
100
AcDbEntity
8
1
62
256
6
ByLayer
370
18
48
1
60
0
100
AcDbSpline
70
4
71
3
72
8
73
4
40
0
40
0
40
0
40
0
40
1
40
1
40
1
40
1
41
1
10
42.8478079661862
20
-0.50159760021856
30
0
41
1
10
42.5487148109861
20
-1.3633211373901
30
0
41
1
10
42.2531439585726
20
-2.22624555450128
30
0
41
1
10
41.9611250675981
20
-3.09038096325534
30
0
0
SPLINE
5
CD
100
AcDbEntity
8
1
62
256
6
ByLayer
370
18
48
1
60
0
100
AcDbSpline
70
4
71
3
72
58
73
54
40
0
40
0
40
0
40
0
40
0.0449076826976451
40
0.0449076826976451
40
0.0790181226013022
40
0.0790181226013022
40
0.0960733425531305
40
0.0960733425531305
40
0.113128562504959
40
0.113128562504959
40
0.147239002408615
40
0.147239002408615
40
0.181349442312272
40
0.181349442312272
40
0.249570322119585
40
0.249570322119585
40
0.283680762023242
40
0.283680762023242
40
0.317791201926899
40
0.317791201926899
40
0.351901641830556
40
0.351901641830556
40
0.386012081734213
40
0.386012081734213
40
0.42012252163787
40
0.42012252163787
40
0.437177741589698
40
0.437177741589698
40
0.454232961541526
40
0.454232961541526
40
0.590674721156146
40
0.590674721156146
40
0.624785161059801
40
0.624785161059801
40
0.658895600963456
40
0.658895600963456
40
0.693006040867111
40
0.693006040867111
40
0.727116480770765
40
0.727116480770765
40
0.795337360578075
40
0.795337360578075
40
0.812392580529902
40
0.812392580529902
40
0.829447800481729
40
0.829447800481729
40
0.863558240385383
40
0.863558240385383
40
0.931779120192692
40
0.931779120192692
40
0.965889560096346
40
0.965889560096346
40
1
40
1
40
1
40
1
41
1
10
15.0182129589248
20
2.69764482347645
30
0
41
1
10
15.4147762058579
20
2.86353246880123
30
0
41
1
10
15.811470989378
20
3.01616539503146
30
0
41
1
10
16.5121196764484
20
3.25828346950314
30
0
41
1
10
16.8152881058751
20
3.35427603795901
30
0
41
1
10
17.2724605339816
20
3.48381004488351
30
0
41
1
10
17.4252631899005
20
3.524722336738
30
0
41
1
10
17.7296471746274
20
3.60100036985674
30
0
41
1
10
17.8815471961107
20
3.63639844535987
30
0
41
1
10
18.3365181670346
20
3.73444358171278
30
0
41
1
10
18.638572732278
20
3.78912993447429
30
0
41
1
10
19.2414822005955
20
3.87664104538987
30
0
41
1
10
19.542201139944
20
3.9094897766237
30
0
41
1
10
20.4455546966505
20
3.97440340734605
30
0
41
1
10
21.0479935417185
20
3.97326527964714
30
0
41
1
10
21.959772432485
20
3.90285258740454
30
0
41
1
10
22.2655996305624
20
3.86771397900898
30
0
41
1
10
22.872966480896
20
3.77596954937917
30
0
41
1
10
23.1751339579501
20
3.71916087933073
30
0
41
1
10
23.7784600175559
20
3.58524799888187
30
0
41
1
10
24.0792937204406
20
3.50793328752491
30
0
41
1
10
24.6807690353695
20
3.33377803210249
30
0
41
1
10
24.981750699105
20
3.23727972063077
30
0
41
1
10
25.5846205277699
20
3.02585833224577
30
0
41
1
10
25.8866244929513
20
2.91105571385
30
0
41
1
10
26.341016032252
20
2.72545082668211
30
0
41
1
10
26.4928459787951
20
2.6615204555122
30
0
41
1
10
26.7974317443425
20
2.52977524172556
30
0
41
1
10
26.9501986247188
20
2.46182147451728
30
0
41
1
10
28.3189400665863
20
1.83658086801091
30
0
41
1
10
29.5116930725979
20
1.17987518749479
30
0
41
1
10
31.0240528377144
20
0.318293773461932
30
0
41
1
10
31.3276558596468
20
0.143042808374105
30
0
41
1
10
31.9373373243809
20
-0.20683396135135
30
0
41
1
10
32.2404169916566
20
-0.381027080230979
30
0
41
1
10
32.8445534355363
20
-0.725337466336669
30
0
41
1
10
33.1453896775139
20
-0.895836473673654
30
0
41
1
10
33.7470678838903
20
-1.22931846524852
30
0
41
1
10
34.0476100989933
20
-1.39283707939546
30
0
41
1
10
34.9493780519417
20
-1.87194008612519
30
0
41
1
10
35.5517545883358
20
-2.17439362339962
30
0
41
1
10
36.3125572377712
20
-2.52075201733905
30
0
41
1
10
36.4650069004082
20
-2.58855867601301
30
0
41
1
10
36.7688039410032
20
-2.71952625417393
30
0
41
1
10
36.9202316253978
20
-2.78309095568855
30
0
41
1
10
37.373965530755
20
-2.96697609230154
30
0
41
1
10
37.6751220527333
20
-3.08126568504176
30
0
41
1
10
38.5771386980315
20
-3.39653805211788
30
0
41
1
10
39.1773696025914
20
-3.56935565342161
30
0
41
1
10
40.0806371696672
20
-3.76794915306331
30
0
41
1
10
40.3828719734822
20
-3.82356981730348
30
0
41
1
10
40.9898188804729
20
-3.91324207288139
30
0
41
1
10
41.2949562246744
20
-3.94712984831332
30
0
41
1
10
41.5993745259105
20
-3.96944765923209
30
0
0
SPLINE
5
CE
100
AcDbEntity
8
1
62
256
6
ByLayer
370
18
48
1
60
0
100
AcDbSpline
70
4
71
3
72
18
73
14
40
0
40
0
40
0
40
0
40
0.250000000000003
40
0.250000000000003
40
0.375000000000002
40
0.375000000000002
40
0.500000000000001
40
0.500000000000001
40
0.750000000000001
40
0.750000000000001
40
0.875
40
0.875
40
1
40
1
40
1
40
1
41
1
10
41.4906934397096
20
-3.70183861982363
30
0
41
1
10
41.4185186152702
20
-3.6333691275866
30
0
41
1
10
41.354276956568
20
-3.54748175273349
30
0
41
1
10
41.2701538252616
20
-3.39177823043264
30
0
41
1
10
41.2441631754514
20
-3.33537525686526
30
0
41
1
10
41.1964834801029
20
-3.21312480286517
30
0
41
1
10
41.1747425851182
20
-3.14697167926047
30
0
41
1
10
41.1175566367911
20
-2.93803665054185
30
0
41
1
10
41.0895856247383
20
-2.78388318626082
30
0
41
1
10
41.0630813314779
20
-2.5300316613905
30
0
41
1
10
41.0568360654277
20
-2.4416235829342
30
0
41
1
10
41.049749885105
20
-2.25689570987353
30
0
41
1
10
41.0489522332323
20
-2.16126421076328
30
0
41
1
10
41.0508942239837
20
-2.06319084540741
30
0
0
SPLINE
5
CF
100
AcDbEntity
8
1
62
256
6
ByLayer
370
18
48
1
60
0
100
AcDbSpline
70
4
71
3
72
12
73
8
40
0
40
0
40
0
40
0
40
0.25
40
0.25
40
0.5
40
0.5
40
1
40
1
40
1
40
1
41
1
10
41.7202058167898
20
1.72691573374237
30
0
41
1
10
41.7237882737252
20
1.84392203663288
30
0
41
1
10
41.7348873918176
20
1.95938610230033
30
0
41
1
10
41.765148162692
20
2.1886599963546
30
0
41
1
10
41.7844330326661
20
2.3024445435513
30
0
41
1
10
41.8498480769017
20
2.64224696672443
30
0
41
1
10
41.9033111606664
20
2.86676030687661
30
0
41
1
10
41.9611250675996
20
3.09038096325583
30
0
0
SPLINE
5
D0
100
AcDbEntity
8
1
62
256
6
ByLayer
370
18
48
1
60
0
100
AcDbSpline
70
4
71
3
72
28
73
24
40
0
40
0
40
0
40
0
40
0.0312499999999997
40
0.0312499999999997
40
0.0624999999999994
40
0.0624999999999994
40
0.124999999999995
40
0.124999999999995
40
0.249999999999991
40
0.249999999999991
40
0.374999999999986
40
0.374999999999986
40
0.499999999999982
40
0.499999999999982
40
0.562499999999982
40
0.562499999999982
40
0.624999999999983
40
0.624999999999983
40
0.749999999999988
40
0.749999999999988
40
0.874999999999994
40
0.874999999999994
40
1
40
1
40
1
40
1
41
1
10
3.77466242991048
20
0.485323253930034
30
0
41
1
10
3.79584599567985
20
0.522309065896792
30
0
41
1
10
3.82064161633997
20
0.557499762221539
30
0
41
1
10
3.87516582974826
20
0.623420349097472
30
0
41
1
10
3.90464063204166
20
0.653942108352908
30
0
41
1
10
3.99824689584392
20
0.739824491991669
30
0
41
1
10
4.06815023178882
20
0.789943594981395
30
0
41
1
10
4.28659800340736
20
0.921380534052162
30
0
41
1
10
4.44338494658845
20
0.985257321884205
30
0
41
1
10
4.76974849632694
20
1.08647905480481
30
0
41
1
10
4.93528263939516
20
1.12190825780343
30
0
41
1
10
5.26940633672228
20
1.17144785090983
30
0
41
1
10
5.4380897421461
20
1.18535292543106
30
0
41
1
10
5.69328800257506
20
1.19178678184318
30
0
41
1
10
5.77886800300354
20
1.19147897499764
30
0
41
1
10
5.94889776660511
20
1.18610329112309
30
0
41
1
10
6.03355849971345
20
1.18104801696296
30
0
41
1
10
6.28650264003522
20
1.15891662851118
30
0
41
1
10
6.4537542558362
20
1.13492526559455
30
0
41
1
10
6.78544615571462
20
1.06776304990319
30
0
41
1
10
6.95094856706802
20
1.02417427650428
30
0
41
1
10
7.27183697038305
20
0.91806209302473
30
0
41
1
10
7.42752871273095
20
0.855623416484207
30
0
41
1
10
7.57836368021202
20
0.7833441322
30
0
0
SPLINE
5
D1
100
AcDbEntity
8
1
62
256
6
ByLayer
370
18
48
1
60
0
100
AcDbSpline
70
4
71
3
72
10
73
6
40
0
40
0
40
0
40
0
40
0.661070456150891
40
0.661070456150891
40
1
40
1
40
1
40
1
41
1
10
10.5051179237766
20
-1.57310345208842
30
0
41
1
10
10.5771113015627
20
-1.37395040639686
30
0
41
1
10
10.6703132938684
20
-1.18269635732008
30
0
41
1
10
10.829300804709
20
-0.934230669710161
30
0
41
1
10
10.8862757146393
20
-0.857176129765861
30
0
41
1
10
10.9447670973046
20
-0.789123746011398
30
0
0
SPLINE
5
D2
100
AcDbEntity
8
1
62
256
6
ByLayer
370
18
48
1
60
0
100
AcDbSpline
70
4
71
3
72
34
73
30
40
0
40
0
40
0
40
0
40
0.0992310077037176
40
0.0992310077037176
40
0.198462015407435
40
0.198462015407435
40
0.297693023111153
40
0.297693023111153
40
0.39692403081487
40
0.39692403081487
40
0.446539534666729
40
0.446539534666729
40
0.496155038518588
40
0.496155038518588
40
0.595386046222302
40
0.595386046222302
40
0.645001550074158
40
0.645001550074158
40
0.694617053926013
40
0.694617053926013
40
0.793848061629724
40
0.793848061629724
40
0.893079069333436
40
0.893079069333436
40
0.942694573185293
40
0.942694573185293
40
0.99231007703715
40
0.99231007703715
40
1
40
1
40
1
40
1
41
1
10
41.1688731309965
20
0.549415929075934
30
0
41
1
10
40.8419788562195
20
0.731317506738577
30
0
41
1
10
40.5155093490332
20
0.911235820403476
30
0
41
1
10
39.8615318089897
20
1.26383118742834
30
0
41
1
10
39.5341206982445
20
1.43712604892795
30
0
41
1
10
38.8779602411407
20
1.77237649326787
30
0
41
1
10
38.5509065537189
20
1.93447153980742
30
0
41
1
10
37.8966497464479
20
2.24330804072323
30
0
41
1
10
37.5697993291639
20
2.39121652298044
30
0
41
1
10
37.0782876137064
20
2.60048523271129
30
0
41
1
10
36.9140171275149
20
2.66805134513049
30
0
41
1
10
36.5858155710644
20
2.7983052072176
30
0
41
1
10
36.4221241347615
20
2.86139316597666
30
0
41
1
10
35.9310081139312
20
3.0423268394029
30
0
41
1
10
35.6044131340525
20
3.15208179537271
30
0
41
1
10
35.1134538662517
20
3.30146135986183
30
0
41
1
10
34.9495652501697
20
3.34862273974312
30
0
41
1
10
34.6214046427173
20
3.43756000411219
30
0
41
1
10
34.4572359308689
20
3.47951161693626
30
0
41
1
10
33.9653295757966
20
3.59597813038084
30
0
41
1
10
33.6383224009163
20
3.66146275991312
30
0
41
1
10
32.9840314852005
20
3.7651729561463
30
0
41
1
10
32.6567803245239
20
3.8056877863923
30
0
41
1
10
32.1645543530367
20
3.84656084719398
30
0
41
1
10
32.0004327279806
20
3.85681896095235
30
0
41
1
10
31.6726737221457
20
3.87127813195974
30
0
41
1
10
31.508918797714
20
3.87557139290567
30
0
41
1
10
31.3198898372019
20
3.87642435048789
30
0
41
1
10
31.2945278862334
20
3.87644622862138
30
0
41
1
10
31.2691689891348
20
3.87637873493912
30
0
0
SPLINE
5
D3
100
AcDbEntity
8
1
62
256
6
ByLayer
370
18
48
1
60
0
100
AcDbSpline
70
4
71
3
72
22
73
18
40
0
40
0
40
0
40
0
40
0.0768198966143788
40
0.0768198966143788
40
0.169137906952941
40
0.169137906952941
40
0.261455917291503
40
0.261455917291503
40
0.446091937968627
40
0.446091937968627
40
0.538409948307189
40
0.538409948307189
40
0.630727958645751
40
0.630727958645751
40
0.815363979322876
40
0.815363979322876
40
1
40
1
40
1
40
1
41
1
10
15.0145692493448
20
-2.70636456625559
30
0
41
1
10
14.8778916331023
20
-2.76031630472104
30
0
41
1
10
14.7412321144529
20
-2.81254841471025
30
0
41
1
10
14.4402092957846
20
-2.92325675291025
30
0
41
1
10
14.2760111840034
20
-2.98067900163235
30
0
41
1
10
13.9471973655796
20
-3.09179638272408
30
0
41
1
10
13.7826765334555
20
-3.14525237967089
30
0
41
1
10
13.2883608436568
20
-3.29785146646117
30
0
41
1
10
12.9597979262817
20
-3.38891606570723
30
0
41
1
10
12.4688571012192
20
-3.50660621084251
30
0
41
1
10
12.3054285912703
20
-3.54281104468763
30
0
41
1
10
11.9789620358175
20
-3.60781034476094
30
0
41
1
10
11.8157677531983
20
-3.63671074332416
30
0
41
1
10
11.3256704657786
20
-3.7164299702691
30
0
41
1
10
10.9991144760472
20
-3.75922466102327
30
0
41
1
10
10.3446014369881
20
-3.81857346351004
30
0
41
1
10
10.0168151056944
20
-3.83459997307151
30
0
41
1
10
9.68681301209656
20
-3.83675492222463
30
0
0
SPLINE
5
D4
100
AcDbEntity
8
1
62
256
6
ByLayer
370
18
48
1
60
0
100
AcDbSpline
70
4
71
3
72
8
73
4
40
0
40
0
40
0
40
0
40
1
40
1
40
1
40
1
41
1
10
41.5993745259105
20
-3.96944765923209
30
0
41
1
10
41.7180045115837
20
-3.68642010150253
30
0
41
1
10
41.8392563642069
20
-3.39394898591502
30
0
41
1
10
41.9611250675981
20
-3.09038096325506
30
0
0
SPLINE
5
D5
100
AcDbEntity
8
1
62
256
6
ByLayer
370
18
48
1
60
0
100
AcDbSpline
70
4
71
3
72
14
73
10
40
0
40
0
40
0
40
0
40
0.25
40
0.25
40
0.5
40
0.5
40
0.75
40
0.75
40
1
40
1
40
1
40
1
41
1
10
7.57836368021202
20
0.7833441322
30
0
41
1
10
7.99664999715679
20
0.582903636739758
30
0
41
1
10
8.41480353714292
20
0.384968204093042
30
0
41
1
10
9.2504866840811
20
-0.007338578996297
30
0
41
1
10
9.66801862853117
20
-0.201697704304934
30
0
41
1
10
10.5022232552682
20
-0.587538747565162
30
0
41
1
10
10.9188968447312
20
-0.779017353114
30
0
41
1
10
11.7512186132467
20
-1.15928790951963
30
0
41
1
10
12.166866942449
20
-1.34808243958952
30
0
41
1
10
12.581947067307
20
-1.53538310610384
30
0
0
SPLINE
5
D6
100
AcDbEntity
8
1
62
256
6
ByLayer
370
18
48
1
60
0
100
AcDbSpline
70
4
71
3
72
18
73
14
40
0
40
0
40
0
40
0
40
0.144661255644553
40
0.144661255644553
40
0.358495941733416
40
0.358495941733416
40
0.57233062782228
40
0.57233062782228
40
0.786165313911143
40
0.786165313911143
40
0.893082656955572
40
0.893082656955572
40
1
40
1
40
1
40
1
41
1
10
41.2908006164931
20
0.486798122452228
30
0
41
1
10
41.3196583430189
20
0.515046698254821
30
0
41
1
10
41.349133378118
20
0.54759248711332
30
0
41
1
10
41.423087074502
20
0.638346417694123
30
0
41
1
10
41.4686469941457
20
0.702380328701395
30
0
41
1
10
41.5555899411594
20
0.843550860703033
30
0
41
1
10
41.5975601180277
20
0.921058901409509
30
0
41
1
10
41.6729445025863
20
1.09172256228197
30
0
41
1
10
41.7052996127692
20
1.1817733043367
30
0
41
1
10
41.7354073141209
20
1.3262965302051
30
0
41
1
10
41.7420917615066
20
1.37590618742098
30
0
41
1
10
41.7455578500409
20
1.47474305969584
30
0
41
1
10
41.7424155761101
20
1.5243976197323
30
0
41
1
10
41.7330131069981
20
1.57420146527682
30
0
0
SPLINE
5
D7
100
AcDbEntity
8
1
62
256
6
ByLayer
370
18
48
1
60
0
100
AcDbSpline
70
4
71
3
72
8
73
4
40
0
40
0
40
0
40
0
40
1
40
1
40
1
40
1
41
1
10
3.63107576765816
20
-0.351570636952687
30
0
41
1
10
3.63828095856243
20
-0.314986535970178
30
0
41
1
10
3.6463862349778
20
-0.27852587126074
30
0
41
1
10
3.65536792804448
20
-0.242185377139265
30
0
0
SPLINE
5
D8
100
AcDbEntity
8
1
62
256
6
ByLayer
370
18
48
1
60
0
100
AcDbSpline
70
4
71
3
72
30
73
26
40
0
40
0
40
0
40
0
40
0.125
40
0.125
40
0.250000000000001
40
0.250000000000001
40
0.375000000000001
40
0.375000000000001
40
0.500000000000002
40
0.500000000000002
40
0.625000000000002
40
0.625000000000002
40
0.687500000000002
40
0.687500000000002
40
0.750000000000002
40
0.750000000000002
40
0.812500000000002
40
0.812500000000002
40
0.875000000000002
40
0.875000000000002
40
0.906250000000002
40
0.906250000000002
40
0.937500000000001
40
0.937500000000001
40
1
40
1
40
1
40
1
41
1
10
9.68681301209654
20
-3.83675492222463
30
0
41
1
10
9.38701129102162
20
-3.83831576582784
30
0
41
1
10
9.08876071218432
20
-3.83231706109609
30
0
41
1
10
8.49570151170371
20
-3.8029745263872
30
0
41
1
10
8.20091873478515
20
-3.77942508214571
30
0
41
1
10
7.61552522923364
20
-3.70976974296252
30
0
41
1
10
7.32465303965697
20
-3.66311405634571
30
0
41
1
10
6.75340687019943
20
-3.54609031041636
30
0
41
1
10
6.47226340623061
20
-3.47587004970737
30
0
41
1
10
5.9217822643601
20
-3.30314819451092
30
0
41
1
10
5.65216869775077
20
-3.20150739306598
30
0
41
1
10
5.25947338889495
20
-3.01586904790881
30
0
41
1
10
5.13017806538062
20
-2.94793965239828
30
0
41
1
10
4.87961917012967
20
-2.79991665654987
30
0
41
1
10
4.75801672697668
20
-2.7200460033902
30
0
41
1
10
4.52374715155636
20
-2.54586707173502
30
0
41
1
10
4.41060639351105
20
-2.45089051050474
30
0
41
1
10
4.19971140095254
20
-2.24550652943165
30
0
41
1
10
4.10171204437759
20
-2.13512037345234
30
0
41
1
10
3.96877414750958
20
-1.95485995186826
30
0
41
1
10
3.92681918632351
20
-1.8923111110027
30
0
41
1
10
3.84836653718261
20
-1.76148705681604
30
0
41
1
10
3.81193809345129
20
-1.69320988037566
30
0
41
1
10
3.71433656494187
20
-1.48330569534079
30
0
41
1
10
3.66385198243671
20
-1.33530911636541
30
0
41
1
10
3.63113655112394
20
-1.17741822636324
30
0
0
SPLINE
5
D9
100
AcDbEntity
8
1
62
256
6
ByLayer
370
18
48
1
60
0
100
AcDbSpline
70
4
71
3
72
38
73
34
40
0
40
0
40
0
40
0
40
0.0401163820696806
40
0.0401163820696806
40
0.0802327641393611
40
0.0802327641393611
40
0.160465528278722
40
0.160465528278722
40
0.240698292418083
40
0.240698292418083
40
0.280814674487764
40
0.280814674487764
40
0.320931056557444
40
0.320931056557444
40
0.481396584836166
40
0.481396584836166
40
0.561629348975527
40
0.561629348975527
40
0.641862113114888
40
0.641862113114888
40
0.722094877254249
40
0.722094877254249
40
0.762211259323929
40
0.762211259323929
40
0.80232764139361
40
0.80232764139361
40
0.882560405532971
40
0.882560405532971
40
0.922676787602651
40
0.922676787602651
40
0.962793169672332
40
0.962793169672332
40
1
40
1
40
1
40
1
41
1
10
3.20508128173839
20
0.007318634428259
30
0
41
1
10
3.19323803312562
20
-0.0756266888083701
30
0
41
1
10
3.18817162077261
20
-0.158759940968452
30
0
41
1
10
3.18813247743231
20
-0.325220992374682
30
0
41
1
10
3.18810591571946
20
-0.408291970419924
30
0
41
1
10
3.18800763824964
20
-0.657023339342828
30
0
41
1
10
3.18791764577119
20
-0.821117479467262
30
0
41
1
10
3.18770613885349
20
-1.14140563892488
30
0
41
1
10
3.18758432559463
20
-1.2983094846237
30
0
41
1
10
3.18738745643739
20
-1.52880679359541
30
0
41
1
10
3.18731946019477
20
-1.60482711161924
30
0
41
1
10
3.18718023717258
20
-1.75521429635629
30
0
41
1
10
3.18710874837143
20
-1.82984370483956
30
0
41
1
10
3.1867506612189
20
-2.19489699024254
30
0
41
1
10
3.18646414229056
20
-2.46122103515199
30
0
41
1
10
3.1860896278084
20
-2.82277331542349
30
0
41
1
10
3.18597328251661
20
-2.93740925532728
30
0
41
1
10
3.18577005506239
20
-3.14760437242415
30
0
41
1
10
3.18568236755863
20
-3.24389413098802
30
0
41
1
10
3.18553615141747
20
-3.4191423161864
30
0
41
1
10
3.1854776232172
20
-3.49810182508517
30
0
41
1
10
3.1854112109215
20
-3.60312472631313
30
0
41
1
10
3.1853926496361
20
-3.63587493907855
30
0
41
1
10
3.18536265136464
20
-3.69594514399577
30
0
41
1
10
3.18535112456087
20
-3.72339857002188
30
0
41
1
10
3.1853257297112
20
-3.79815324840717
30
0
41
1
10
3.1853211018979
20
-3.83787853679164
30
0
41
1
10
3.18532683179785
20
-3.88230388252259
30
0
41
1
10
3.18533084106514
20
-3.89457782210317
30
0
41
1
10
3.18534191022852
20
-3.91396520535065
30
0
41
1
10
3.18534900184866
20
-3.92108896342387
30
0
41
1
10
3.18536418145601
20
-3.92962569037923
30
0
41
1
10
3.18537218009695
20
-3.93147026285121
30
0
41
1
10
3.18538024326057
20
-3.93106029904058
30
0
0
SPLINE
5
DA
100
AcDbEntity
8
1
62
256
6
ByLayer
370
18
48
1
60
0
100
AcDbSpline
70
4
71
3
72
8
73
4
40
0
40
0
40
0
40
0
40
1
40
1
40
1
40
1
41
1
10
42.8478079661882
20
0.501597600213131
30
0
41
1
10
42.5487165249059
20
1.36331619938005
30
0
41
1
10
42.2531456366564
20
2.22624058875545
30
0
41
1
10
41.9611250675982
20
3.09038096325534
30
0
0
SPLINE
5
DB
100
AcDbEntity
8
1
62
256
6
ByLayer
370
18
48
1
60
0
100
AcDbSpline
70
4
71
3
72
8
73
4
40
0
40
0
40
0
40
0
40
1
40
1
40
1
40
1
41
1
10
3.65536792804448
20
-0.242185377139265
30
0
41
1
10
3.64726765396475
20
-0.237718504970047
30
0
41
1
10
3.63916619625633
20
-0.233249983503924
30
0
41
1
10
3.63106355816012
20
-0.228779824475708
30
0
0
SPLINE
5
DC
100
AcDbEntity
8
1
62
256
6
ByLayer
370
18
48
1
60
0
100
AcDbSpline
70
4
71
3
72
8
73
4
40
0
40
0
40
0
40
0
40
1
40
1
40
1
40
1
41
1
10
41.1688731309965
20
0.549415929075963
30
0
41
1
10
41.3436547893364
20
0.467676305524264
30
0
41
1
10
41.5195584760627
20
0.391514621283505
30
0
41
1
10
41.6967070086079
20
0.32154143861132
30
0
0
SPLINE
5
DD
100
AcDbEntity
8
1
62
256
6
ByLayer
370
13
48
1
60
0
100
AcDbSpline
70
4
71
3
72
79
73
75
40
0
40
0
40
0
40
0
40
0.0070114878060058
40
0.0160374157161727
40
0.0340892715365057
40
0.0431151994466721
40
0.0521411273568385
40
0.0701929831771716
40
0.079218911087338
40
0.0882448389975054
40
0.106296694817838
40
0.115322622728005
40
0.124348550638171
40
0.142400406458504
40
0.15142633436867
40
0.160452262278837
40
0.17850411809917
40
0.196555973919502
40
0.214607829739836
40
0.250711541380502
40
0.259737469290668
40
0.268763397200835
40
0.286815253021168
40
0.295841180931334
40
0.3048671088415
40
0.322918964661834
40
0.340970820482166
40
0.3590226763025
40
0.395126387943166
40
0.404152315853332
40
0.413178243763499
40
0.431230099583832
40
0.440256027493998
40
0.449281955404165
40
0.467333811224498
40
0.476359739134665
40
0.485385667044831
40
0.503437522865164
40
0.512463450775331
40
0.521489378685497
40
0.53954123450583
40
0.548567162415996
40
0.557593090326163
40
0.575644946146496
40
0.584670874056663
40
0.593696801966829
40
0.611748657787162
40
0.620774585697329
40
0.629800513607496
40
0.647852369427828
40
0.656878297337994
40
0.665904225248162
40
0.683956081068494
40
0.702007936888827
40
0.72005979270916
40
0.756163504349826
40
0.765189432259992
40
0.774215360170159
40
0.792267215990492
40
0.801293143900659
40
0.810319071810826
40
0.828370927631158
40
0.846422783451492
40
0.864474639271824
40
0.90057835091249
40
0.909604278822657
40
0.918630206732823
40
0.936682062553156
40
0.945707990463323
40
0.954733918373489
40
0.972785774193822
40
0.981811702103988
40
0.990837630014155
40
1
40
1
40
1
40
1
41
1
10
34.2124788518746
20
-1.48931423515205
30
0
41
1
10
34.1811217488448
20
-1.49163787786358
30
0
41
1
10
34.109398416286
20
-1.49684832949833
30
0
41
1
10
33.9569570734076
20
-1.50738017047223
30
0
41
1
10
33.7954983196079
20
-1.51763047162353
30
0
41
1
10
33.6340316256901
20
-1.52697129173194
30
0
41
1
10
33.4725821099431
20
-1.53564301419198
30
0
41
1
10
33.3111234459678
20
-1.54339638475395
30
0
41
1
10
33.1496568447781
20
-1.55023128313601
30
0
41
1
10
32.9882073487912
20
-1.55638213751467
30
0
41
1
10
32.8267486052216
20
-1.56160689566278
30
0
41
1
10
32.6652818542098
20
-1.56590663136174
30
0
41
1
10
32.5038322087841
20
-1.56950939224214
30
0
41
1
10
32.342373292977
20
-1.57218085163987
30
0
41
1
10
32.1809064602867
20
-1.57392332751021
30
0
41
1
10
32.0194570376774
20
-1.57495808920873
30
0
41
1
10
31.8176460158321
20
-1.57504336284839
30
0
41
1
10
31.5754608657776
20
-1.57326247882804
30
0
41
1
10
31.2525806414617
20
-1.56816361531597
30
0
41
1
10
30.9700105765312
20
-1.56052868990599
30
0
41
1
10
30.7277815030738
20
-1.55173286954019
30
0
41
1
10
30.5663315797883
20
-1.54507869498258
30
0
41
1
10
30.4048726944764
20
-1.53751925109015
30
0
41
1
10
30.243406020077
20
-1.52906605169417
30
0
41
1
10
30.0819566898798
20
-1.51990204500439
30
0
41
1
10
29.8801456991922
20
-1.50728184090875
30
0
41
1
10
29.63796051285
20
-1.49035895757407
30
0
41
1
10
29.3150802452335
20
-1.46517199321417
30
0
41
1
10
29.0325101530879
20
-1.44022678642122
30
0
41
1
10
28.79028114398
20
-1.41681451188492
30
0
41
1
10
28.6288313478551
20
-1.40043451398114
30
0
41
1
10
28.4673727059299
20
-1.38324514017097
30
0
41
1
10
28.3059062660332
20
-1.36526527221346
30
0
41
1
10
28.1444569185209
20
-1.34662552959929
30
0
41
1
10
27.9829983079625
20
-1.32720954105562
30
0
41
1
10
27.8215316362452
20
-1.30703729749695
30
0
41
1
10
27.6600820478303
20
-1.28622561411947
30
0
41
1
10
27.4986231808972
20
-1.2646753359972
30
0
41
1
10
27.3371563459036
20
-1.24240929343878
30
0
41
1
10
27.175706711828
20
-1.21952850737188
30
0
41
1
10
27.0142479586801
20
-1.19595133203922
30
0
41
1
10
26.8527813461592
20
-1.17170172466192
30
0
41
1
10
26.691331933582
20
-1.14686461755701
30
0
41
1
10
26.5298733884915
20
-1.12137613648886
30
0
41
1
10
26.3684068796833
20
-1.09526140663942
30
0
41
1
10
26.206957447449
20
-1.06858899295293
30
0
41
1
10
26.0454987074757
20
-1.04131293155061
30
0
41
1
10
25.8840318818364
20
-1.01345941468037
30
0
41
1
10
25.7225821472116
20
-0.985080782638107
30
0
41
1
10
25.5611231401027
20
-0.956149567867953
30
0
41
1
10
25.3996562433453
20
-0.926693659735491
30
0
41
1
10
25.2382067564316
20
-0.896748385743422
30
0
41
1
10
25.0363956759432
20
-0.858625377568501
30
0
41
1
10
24.794210574833
20
-0.811910956719828
30
0
41
1
10
24.4713305295778
20
-0.748080848727795
30
0
41
1
10
24.1887606453197
20
-0.69088146977856
30
0
41
1
10
23.9465315926865
20
-0.640998820542819
30
0
41
1
10
23.7850816766324
20
-0.6072662226305
30
0
41
1
10
23.6236228001381
20
-0.573211344808982
30
0
41
1
10
23.4621561334847
20
-0.53886450433501
30
0
41
1
10
23.300706772766
20
-0.504191967012559
30
0
41
1
10
23.0988957001442
20
-0.460459795143123
30
0
41
1
10
22.8567104799794
20
-0.40749617772093
30
0
41
1
10
22.5338302844015
20
-0.33601081321649
30
0
41
1
10
22.2512602973044
20
-0.272968470036204
30
0
41
1
10
22.0090312851686
20
-0.21870111569072
30
0
41
1
10
21.8475814790152
20
-0.182238188203769
30
0
41
1
10
21.6861228233751
20
-0.145706584243726
30
0
41
1
10
21.5246563681116
20
-0.109136919181736
30
0
41
1
10
21.3632069905394
20
-0.0724297204461664
30
0
41
1
10
21.201748351297
20
-0.0357177701578451
30
0
41
1
10
21.0402816969936
20
0.0009679888850656
30
0
41
1
10
20.9185843977622
20
0.0286874362473952
30
0
41
1
10
20.8372463534747
20
0.0471929241446958
30
0
41
1
10
20.7962715084325
20
0.0565085236204652
30
0
0
SPLINE
5
DE
100
AcDbEntity
8
1
62
256
6
ByLayer
370
18
48
1
60
0
100
AcDbSpline
70
4
71
3
72
8
73
4
40
0
40
0
40
0
40
0
40
1
40
1
40
1
40
1
41
1
10
41.7465363950744
20
0.302035461223653
30
0
41
1
10
41.7365484787238
20
0.305841631269459
30
0
41
1
10
41.7265765146931
20
0.309620202816348
30
0
41
1
10
41.7166225722431
20
0.313369394728426
30
0
0
SPLINE
5
DF
100
AcDbEntity
8
1
62
256
6
ByLayer
370
13
48
1
60
0
100
AcDbSpline
70
4
71
3
72
80
73
76
40
0
40
0
40
0
40
0
40
0.0048714635818256
40
0.022871207673573
40
0.040870951765321
40
0.0768704399488159
40
0.0858703119946897
40
0.0948701840405636
40
0.112869928132311
40
0.121869800178185
40
0.130869672224059
40
0.148869416315806
40
0.15786928836168
40
0.166869160407554
40
0.184868904499302
40
0.193868776545176
40
0.202868648591049
40
0.220868392682797
40
0.229868264728671
40
0.238868136774544
40
0.256867880866292
40
0.265867752912166
40
0.27486762495804
40
0.292867369049787
40
0.301867241095661
40
0.310867113141536
40
0.328866857233283
40
0.337866729279156
40
0.346866601325031
40
0.364866345416778
40
0.382866089508525
40
0.400865833600273
40
0.436865321783768
40
0.445865193829642
40
0.454865065875516
40
0.472864809967263
40
0.481864682013137
40
0.490864554059012
40
0.508864298150759
40
0.526864042242507
40
0.544863786334254
40
0.580863274517749
40
0.589863146563623
40
0.598863018609497
40
0.616862762701244
40
0.625862634747118
40
0.634862506792992
40
0.652862250884739
40
0.661862122930613
40
0.670861994976487
40
0.688861739068235
40
0.697861611114108
40
0.706861483159982
40
0.72486122725173
40
0.733861099297604
40
0.742860971343478
40
0.760860715435225
40
0.769860587481099
40
0.778860459526973
40
0.79686020361872
40
0.805860075664594
40
0.814859947710468
40
0.832859691802215
40
0.841859563848089
40
0.850859435893963
40
0.868859179985711
40
0.886858924077458
40
0.904858668169206
40
0.940858156352701
40
0.949858028398575
40
0.958857900444449
40
0.976857644536196
40
0.985857516582071
40
0.994857388627944
40
1
40
1
40
1
40
1
41
1
10
31.1640219969035
20
-0.0600675813604994
30
0
41
1
10
31.1421723993876
20
-0.0551072248280491
30
0
41
1
10
31.0395904308598
20
-0.0318115620555943
30
0
41
1
10
30.8562817491306
20
0.0098781353134427
30
0
41
1
10
30.5333287345999
20
0.0831107407084914
30
0
41
1
10
30.2507946353892
20
0.147287497443017
30
0
41
1
10
30.0086485867207
20
0.202178360910409
30
0
41
1
10
29.8471817283109
20
0.238494840074765
30
0
41
1
10
29.6857237029681
20
0.274718982447382
30
0
41
1
10
29.5242734645924
20
0.310821536597842
30
0
41
1
10
29.3628061579167
20
0.346694125560333
30
0
41
1
10
29.2013481012868
20
0.382410724379383
30
0
41
1
10
29.0398980945536
20
0.4179426705239
30
0
41
1
10
28.8784310286191
20
0.453198943469033
30
0
41
1
10
28.7169732281901
20
0.488235736303068
30
0
41
1
10
28.5555233846118
20
0.523023388731019
30
0
41
1
10
28.3940563643152
20
0.557489917032086
30
0
41
1
10
28.2325984501992
20
0.591673693962747
30
0
41
1
10
28.0711483842909
20
0.625545688140136
30
0
41
1
10
27.9096811426091
20
0.659053020190271
30
0
41
1
10
27.7482230205424
20
0.692216235155144
30
0
41
1
10
27.5867728510142
20
0.725007063777866
30
0
41
1
10
27.4253056289981
20
0.757391780413769
30
0
41
1
10
27.2638477016905
20
0.789373088365096
30
0
41
1
10
27.1023978487717
20
0.820923554894534
30
0
41
1
10
26.9409309289563
20
0.85202850949878
30
0
41
1
10
26.7794732686246
20
0.882672458542942
30
0
41
1
10
26.6180234868211
20
0.912828253393741
30
0
41
1
10
26.4565563195646
20
0.942500870280014
30
0
41
1
10
26.2547215830513
20
0.978877078153261
30
0
41
1
10
26.0125316868379
20
1.02141429348808
30
0
41
1
10
25.6895784500392
20
1.0762438460994
30
0
41
1
10
25.4070441430809
20
1.12222912681787
30
0
41
1
10
25.164898137956
20
1.16005702931304
30
0
41
1
10
25.0034313994198
20
1.18458548479953
30
0
41
1
10
24.8419736085099
20
1.20844601486277
30
0
41
1
10
24.6805235968151
20
1.23161665429717
30
0
41
1
10
24.5190563034787
20
1.25417917159405
30
0
41
1
10
24.3172215591126
20
1.28142848055035
30
0
41
1
10
24.0750317818921
20
1.31263875961048
30
0
41
1
10
23.7520786953814
20
1.35191097454438
30
0
41
1
10
23.4695444912163
20
1.38366699622867
30
0
41
1
10
23.2273984455353
20
1.40888968455417
30
0
41
1
10
23.0659315971213
20
1.42493420909241
30
0
41
1
10
22.9044735854705
20
1.44015762894622
30
0
41
1
10
22.7430233624676
20
1.45454440096356
30
0
41
1
10
22.5815560858497
20
1.4682462777476
30
0
41
1
10
22.4200980579024
20
1.48109938043888
30
0
41
1
10
22.2586480337771
20
1.49308921900322
30
0
41
1
10
22.097180918039
20
1.5043832027055
30
0
41
1
10
21.9357230380592
20
1.51480367728613
30
0
41
1
10
21.7742731176358
20
1.52433733038819
30
0
41
1
10
21.6128060343789
20
1.53316669850977
30
0
41
1
10
21.4513480956279
20
1.54110078445211
30
0
41
1
10
21.2898980803295
20
1.5481274410279
30
0
41
1
10
21.1284309288015
20
1.55444478508136
30
0
41
1
10
20.9669729365292
20
1.55985080664908
30
0
41
1
10
20.8055228959304
20
1.56433739750793
30
0
41
1
10
20.6440557864331
20
1.56811491760999
30
0
41
1
10
20.4825979275565
20
1.57097074560323
30
0
41
1
10
20.3211480609552
20
1.57289792015726
30
0
41
1
10
20.1596810907534
20
1.5741186344417
30
0
41
1
10
19.9982233470467
20
1.57441012210416
30
0
41
1
10
19.8367734859527
20
1.57376660270506
30
0
41
1
10
19.6753062410985
20
1.57242147649978
30
0
41
1
10
19.4734714329966
20
1.5695367601507
30
0
41
1
10
19.231281588697
20
1.56418823364982
30
0
41
1
10
18.9083285501201
20
1.55440898527001
30
0
41
1
10
18.6257944510901
20
1.54265054535378
30
0
41
1
10
18.3836484730537
20
1.53027588626125
30
0
41
1
10
18.2221817299643
20
1.52131913334168
30
0
41
1
10
18.0607239159878
20
1.51145110733918
30
0
41
1
10
17.8992738748063
20
1.50067481756525
30
0
41
1
10
17.7954742120096
20
1.49333411206035
30
0
41
1
10
17.7320412792672
20
1.48866051555757
30
0
41
1
10
17.708975287599
20
1.48693638945477
30
0
0
SPLINE
5
E0
100
AcDbEntity
8
1
62
256
6
ByLayer
370
18
48
1
60
0
100
AcDbSpline
70
4
71
3
72
8
73
4
40
0
40
0
40
0
40
0
40
1
40
1
40
1
40
1
41
1
10
42.9998036201195
20
0.07501689712808
30
0
41
1
10
42.9481185424296
20
0.2162784551399
30
0
41
1
10
42.8974843325901
20
0.358473983288235
30
0
41
1
10
42.8478079661816
20
0.501597600231918
30
0
0
SPLINE
5
E1
100
AcDbEntity
8
1
62
256
6
ByLayer
370
18
48
1
60
0
100
AcDbSpline
70
4
71
3
72
12
73
8
40
0
40
0
40
0
40
0
40
0.434464943669921
40
0.434464943669921
40
0.717232471834961
40
0.717232471834961
40
1
40
1
40
1
40
1
41
1
10
3.18538023230269
20
3.93106085479897
30
0
41
1
10
3.18540694739033
20
3.92970930971038
30
0
41
1
10
3.18543437391682
20
3.90360825758808
30
0
41
1
10
3.18544300321568
20
3.820181028539
30
0
41
1
10
3.18543662915479
20
3.77646330813019
30
0
41
1
10
3.18539100796664
20
3.66960729704979
30
0
41
1
10
3.18535190280238
20
3.6064117298211
30
0
41
1
10
3.1852900667601
20
3.53343696669694
30
0
0
SPLINE
5
E2
100
AcDbEntity
8
1
62
256
6
ByLayer
370
18
48
1
60
0
100
AcDbSpline
70
4
71
3
72
22
73
18
40
0
40
0
40
0
40
0
40
0.22376178436958
40
0.22376178436958
40
0.447523568739159
40
0.447523568739159
40
0.559404460923949
40
0.559404460923949
40
0.615344907016344
40
0.615344907016344
40
0.671285353108739
40
0.671285353108739
40
0.783166245293529
40
0.783166245293529
40
0.895047137478318
40
0.895047137478318
40
1
40
1
40
1
40
1
41
1
10
12.581947067307
20
-1.53538310610384
30
0
41
1
10
13.1924739832167
20
-1.85784855782359
30
0
41
1
10
13.7977437895536
20
-2.15664357240431
30
0
41
1
10
15.0033274673023
20
-2.70101746255389
30
0
41
1
10
15.6047850261808
20
-2.94474394318647
30
0
41
1
10
16.5121598743212
20
-3.25829660318931
30
0
41
1
10
16.8153314585049
20
-3.35428936244028
30
0
41
1
10
17.2725088131465
20
-3.48382320352098
30
0
41
1
10
17.4253129402232
20
-3.52473539922153
30
0
41
1
10
17.7296998917632
20
-3.60101298531814
30
0
41
1
10
17.8816014147169
20
-3.63641077160992
30
0
41
1
10
18.3365768144178
20
-3.7344549351823
30
0
41
1
10
18.638634281107
20
-3.78914044040556
30
0
41
1
10
19.2415498098796
20
-3.87664928616513
30
0
41
1
10
19.5422717224569
20
-3.90949667719158
30
0
41
1
10
20.125867312538
20
-3.95142943593476
30
0
41
1
10
20.4083866456799
20
-3.96195481138867
30
0
41
1
10
20.6914883648055
20
-3.96256564045589
30
0
0
SPLINE
5
E3
100
AcDbEntity
8
1
62
256
6
ByLayer
370
18
48
1
60
0
100
AcDbSpline
70
4
71
3
72
16
73
12
40
0
40
0
40
0
40
0
40
0.0599740630328416
40
0.0599740630328416
40
0.247979250426276
40
0.247979250426276
40
0.623989625213138
40
0.623989625213138
40
0.811994812606569
40
0.811994812606569
40
1
40
1
40
1
40
1
41
1
10
36.7819414132052
20
2.72449045711625
30
0
41
1
10
36.8786606507009
20
2.76535262207796
30
0
41
1
10
36.9752306652235
20
2.80538191840696
30
0
41
1
10
37.3742180042105
20
2.96707384745983
30
0
41
1
10
37.6753767573446
20
3.08136007049961
30
0
41
1
10
38.5774022257636
20
3.39661943081211
30
0
41
1
10
39.1776386408387
20
3.56942796810503
30
0
41
1
10
40.080917298669
20
3.76800415622688
30
0
41
1
10
40.3831558024607
20
3.82361883207057
30
0
41
1
10
40.9901108687563
20
3.91327812445678
30
0
41
1
10
41.295278500985
20
3.94715347534799
30
0
41
1
10
41.5993745259105
20
3.96944765923209
30
0
0
SPLINE
5
E4
100
AcDbEntity
8
1
62
256
6
ByLayer
370
18
48
1
60
0
100
AcDbSpline
70
4
71
3
72
8
73
4
40
0
40
0
40
0
40
0
40
1
40
1
40
1
40
1
41
1
10
3.49796966094505
20
-0.159408128971734
30
0
41
1
10
3.40035104557879
20
-0.10397008910104
30
0
41
1
10
3.30272353998953
20
-0.0483916798226858
30
0
41
1
10
3.20508128173557
20
0.0073186344283727
30
0
0
SPLINE
5
E5
100
AcDbEntity
8
1
62
256
6
ByLayer
370
18
48
1
60
0
100
AcDbSpline
70
4
71
3
72
8
73
4
40
0
40
0
40
0
40
0
40
1
40
1
40
1
40
1
41
1
10
41.7330131069981
20
1.57420146527682
30
0
41
1
10
41.7234949492104
20
1.62461810102189
30
0
41
1
10
41.7186302080153
20
1.67545491765586
30
0
41
1
10
41.7202058167897
20
1.72691573374226
30
0
0
SPLINE
5
E6
100
AcDbEntity
8
1
62
256
6
ByLayer
370
18
48
1
60
0
100
AcDbSpline
70
4
71
3
72
8
73
4
40
0
40
0
40
0
40
0
40
1
40
1
40
1
40
1
41
1
10
3.63106355816456
20
-0.228779824478153
30
0
41
1
10
3.4825262468151
20
-0.146833007222739
30
0
41
1
10
3.33970713691915
20
-0.069649191113939
30
0
41
1
10
3.20508128173566
20
0.0073186344283158
30
0
0
SPLINE
5
E7
100
AcDbEntity
8
1
62
256
6
ByLayer
370
13
48
1
60
0
100
AcDbSpline
70
4
71
3
72
10
73
6
40
0
40
0
40
0
40
0
40
0.5
40
0.5
40
1
40
1
40
1
40
1
41
1
10
3.6312509901197
20
3.36281773075399
30
0
41
1
10
3.55416136168765
20
3.37694001417336
30
0
41
1
10
3.47826322325091
20
3.39810868483622
30
0
41
1
10
3.32919137613439
20
3.45473236560286
30
0
41
1
10
3.25542729151687
20
3.49058498839742
30
0
41
1
10
3.18529006675897
20
3.53343696669734
30
0
0
SPLINE
5
E8
100
AcDbEntity
8
1
62
256
6
ByLayer
370
18
48
1
60
0
100
AcDbSpline
70
4
71
3
72
26
73
22
40
0
40
0
40
0
40
0
40
0.0825395315950996
40
0.147673670867639
40
0.19767985158424
40
0.238406902878988
40
0.271186983573528
40
0.334710217973818
40
0.408520941622478
40
0.47173583097165
40
0.531179753466864
40
0.575519768448421
40
0.61643986605221
40
0.681874048276156
40
0.736148648372335
40
0.773715928358723
40
0.811199686678019
40
0.852051171538459
40
0.901391097742639
40
0.963729357735973
40
1
40
1
40
1
40
1
41
1
10
21.8696158020442
20
-3.85948857971036
30
0
41
1
10
22.1276974894561
20
-3.85973351956864
30
0
41
1
10
22.589503738547
20
-3.86031525712809
30
0
41
1
10
23.2095258869197
20
-3.86208732013793
30
0
41
1
10
23.6961588028402
20
-3.86279037977664
30
0
41
1
10
24.08288787579
20
-3.86304072654059
30
0
41
1
10
24.5121704875954
20
-3.86329790820326
30
0
41
1
10
25.0450281994235
20
-3.86470670993748
30
0
41
1
10
25.6732312658918
20
-3.86643668845281
30
0
41
1
10
26.2886683441245
20
-3.86727865224418
30
0
41
1
10
26.8117754985309
20
-3.86783626625785
30
0
41
1
10
27.2650448564589
20
-3.86810335242345
30
0
41
1
10
27.7370864297473
20
-3.87024919548611
30
0
41
1
10
28.240250217906
20
-3.87021733814086
30
0
41
1
10
28.7329085558179
20
-3.8718094898795
30
0
41
1
10
29.1380164715983
20
-3.87233709775268
30
0
41
1
10
29.5010753824509
20
-3.87235223557744
30
0
41
1
10
29.9010092305502
20
-3.87366179541979
30
0
41
1
10
30.3787920146425
20
-3.87441936479007
30
0
41
1
10
30.842232111186
20
-3.87520044473081
30
0
41
1
10
31.1511186015757
20
-3.87577114588393
30
0
41
1
10
31.2647344565039
20
-3.87598664307268
30
0
0
SPLINE
5
E9
100
AcDbEntity
8
1
62
256
6
ByLayer
370
18
48
1
60
0
100
AcDbSpline
70
4
71
3
72
21
73
17
40
0
40
0
40
0
40
0
40
0.025531070744696
40
0.0984402338179788
40
0.167883636760981
40
0.272879656750609
40
0.341822411241659
40
0.397973729891541
40
0.445745898180795
40
0.513800488905935
40
0.604533042925103
40
0.689021330051747
40
0.770824997858361
40
0.841294338147463
40
0.930104992804983
40
1
40
1
40
1
40
1
41
1
10
9.52223012439237
20
3.83689193621007
30
0
41
1
10
9.47209443682544
20
3.83662597315654
30
0
41
1
10
9.27878614398395
20
3.8357075785463
30
0
41
1
10
8.94911912727889
20
3.83517499591295
30
0
41
1
10
8.46338768788843
20
3.83494247498632
30
0
41
1
10
7.98545000015048
20
3.83491706810068
30
0
41
1
10
7.53361325385458
20
3.83397250971913
30
0
41
1
10
7.19415158512544
20
3.83281271649645
30
0
41
1
10
6.85643136301729
20
3.83209062377509
30
0
41
1
10
6.45080794287836
20
3.83192070445546
30
0
41
1
10
5.97308675900848
20
3.83114465071188
30
0
41
1
10
5.46835657858537
20
3.83095690914274
30
0
41
1
10
5.00342112521122
20
3.82970999621881
30
0
41
1
10
4.52999750288944
20
3.82854776356498
30
0
41
1
10
4.07995630185348
20
3.82779755424645
30
0
41
1
10
3.76830589641895
20
3.82726685470087
30
0
41
1
10
3.63105375486342
20
3.82704877026666
30
0
0
SPLINE
5
EA
100
AcDbEntity
8
1
62
256
6
ByLayer
370
18
48
1
60
0
100
AcDbSpline
70
4
71
3
72
26
73
22
40
0
40
0
40
0
40
0
40
0.0789956859921902
40
0.138019736311003
40
0.185064078142604
40
0.226798907132706
40
0.265303032654195
40
0.305785899786999
40
0.363426608264643
40
0.432526614972128
40
0.477532811603875
40
0.519997825688381
40
0.576726029953166
40
0.64401789348207
40
0.705111767758942
40
0.757947072433137
40
0.80158844039825
40
0.844050923021929
40
0.891498751973152
40
0.952731685277292
40
1
40
1
40
1
40
1
41
1
10
31.2657708401383
20
3.87624622342179
30
0
41
1
10
31.0490885961502
20
3.87554570681482
30
0
41
1
10
30.6705078683548
20
3.87445474224057
30
0
41
1
10
30.162896700418
20
3.8744261564062
30
0
41
1
10
29.757485299253
20
3.87298313567229
30
0
41
1
10
29.4083561350772
20
3.87236847800719
30
0
41
1
10
29.0772222136577
20
3.87228613460891
30
0
41
1
10
28.7024587751824
20
3.87169657373695
30
0
41
1
10
28.2437747826915
20
3.87025560452645
30
0
41
1
10
27.7726809080456
20
3.87028219169827
30
0
41
1
10
27.343215523296
20
3.86843626187218
30
0
41
1
10
26.9476898926187
20
3.86782883277036
30
0
41
1
10
26.4910411128446
20
3.86760612157863
30
0
41
1
10
25.9832832829125
20
3.86671389768583
30
0
41
1
10
25.4861993598111
20
3.86619306419019
30
0
41
1
10
25.0540073934759
20
3.86479094540133
30
0
41
1
10
24.6728892782843
20
3.86348461162768
30
0
41
1
10
24.3066211163477
20
3.86320820824284
30
0
41
1
10
23.8918205172212
20
3.86291059426523
30
0
41
1
10
23.4653618500388
20
3.86254633879116
30
0
41
1
10
23.1677387913947
20
3.86185077446783
30
0
41
1
10
23.0380547697975
20
3.86154025077096
30
0
0
SPLINE
5
EB
100
AcDbEntity
8
1
62
256
6
ByLayer
370
18
48
1
60
0
100
AcDbSpline
70
4
71
3
72
19
73
15
40
0
40
0
40
0
40
0
40
0.0962686038816732
40
0.198340276351415
40
0.294803301990148
40
0.422313648607781
40
0.52120578304668
40
0.585351974609406
40
0.647510175101996
40
0.727456282755011
40
0.828530809430183
40
0.896331777422451
40
0.963803115769103
40
1
40
1
40
1
40
1
41
1
10
3.63105447391351
20
-3.82705591697598
30
0
41
1
10
3.82001038453606
20
-3.82735820770202
30
0
41
1
10
4.20931368974001
20
-3.82806283508614
30
0
41
1
10
4.78796385992081
20
-3.82893052180546
30
0
41
1
10
5.42792983857333
20
-3.83109300663284
30
0
41
1
10
6.06166416161733
20
-3.83131190763419
30
0
41
1
10
6.63194770821025
20
-3.83196790358718
30
0
41
1
10
7.07397194721875
20
-3.83242025452819
30
0
41
1
10
7.47880357908076
20
-3.83380841019633
30
0
41
1
10
7.95612234127225
20
-3.8349108826211
30
0
41
1
10
8.44451575759885
20
-3.83494408490088
30
0
41
1
10
8.90842783919132
20
-3.83514802548146
30
0
41
1
10
9.24498145916675
20
-3.83561217781434
30
0
41
1
10
9.4484624484603
20
-3.83655397623656
30
0
41
1
10
9.51951008343269
20
-3.83693868442794
30
0
0
SPLINE
5
EC
100
AcDbEntity
8
1
62
256
6
ByLayer
370
18
48
1
60
0
100
AcDbSpline
70
4
71
2
72
6
73
3
40
0
40
0
40
0
40
1
40
1
40
1
41
1
10
41.6984496620373
20
0.328557210903824
30
0
41
1
10
41.6443858719689
20
0.347229730125406
30
0
41
1
10
41.5903821879119
20
0.367597832498944
30
0
0
SPLINE
5
ED
100
AcDbEntity
8
1
62
256
6
ByLayer
370
18
48
1
60
0
100
AcDbSpline
70
4
71
2
72
6
73
3
40
0
40
0
40
0
40
1
40
1
40
1
41
1
10
41.4363532753135
20
0.429191640731233
30
0
41
1
10
41.1695340388167
20
0.541961253943811
30
0
41
1
10
40.9041867292886
20
0.696253745001968
30
0
0
SPLINE
5
EE
100
AcDbEntity
8
1
62
256
6
ByLayer
370
18
48
1
60
0
100
AcDbSpline
70
4
71
3
72
11
73
7
40
0
40
0
40
0
40
0
40
0.207646567248204
40
0.447547821453965
40
0.720040357821215
40
1
40
1
40
1
40
1
41
1
10
20.7982724589139
20
0.0560536037305326
30
0
41
1
10
20.6847043748018
20
0.0819075399136011
30
0
41
1
10
20.4402283618337
20
0.145717898405422
30
0
41
1
10
20.0479368866555
20
0.27684789609745
30
0
41
1
10
19.6175850187297
20
0.455470533886881
30
0
41
1
10
19.3188161383918
20
0.607070633082344
30
0
41
1
10
19.1677188527912
20
0.690737483388148
30
0
0
SPLINE
5
EF
100
AcDbEntity
8
1
62
256
6
ByLayer
370
18
48
1
60
0
100
AcDbSpline
70
4
71
3
72
11
73
7
40
0
40
0
40
0
40
0
40
0.202375217868928
40
0.436247616626445
40
0.701956535862924
40
1
40
1
40
1
40
1
41
1
10
31.1494407048182
20
-0.0567570672700413
30
0
41
1
10
31.2684401728368
20
-0.0838117261359344
30
0
41
1
10
31.5246561846526
20
-0.151041530671364
30
0
41
1
10
31.9359159908965
20
-0.290295950201511
30
0
41
1
10
32.4017536978528
20
-0.488325702143641
30
0
41
1
10
32.7295639311367
20
-0.65883249056472
30
0
41
1
10
32.9024915658131
20
-0.757619424739602
30
0
0
LINE
5
7B
100
AcDbEntity
8
SK1
62
256
6
ByLayer
370
18
48
1
60
0
100
AcDbLine
10
0
20
-4
30
0
11
0
21
4
31
0
39
0
210
0
220
0
230
1
0
LINE
5
7D
100
AcDbEntity
8
SK1
62
256
6
ByLayer
370
18
48
1
60
0
100
AcDbLine
10
-36
20
2
30
0
11
-36
21
-2
31
0
39
0
210
0
220
0
230
1
0
LINE
5
7E
100
AcDbEntity
8
SK1
62
256
6
ByLayer
370
18
48
1
60
0
100
AcDbLine
10
-34.845299
20
4
30
0
11
-34.845299
21
-4
31
0
39
0
210
0
220
0
230
1
0
LINE
5
7F
100
AcDbEntity
8
1
62
256
6
ByLayer
370
18
48
1
60
0
100
AcDbLine
10
41.050894
20
-2.063191
30
0
11
42.39005
21
-0.988081
31
0
39
0
210
0
220
0
230
1
0
LINE
5
80
100
AcDbEntity
8
1
62
256
6
ByLayer
370
13
48
1
60
0
100
AcDbLine
10
0.247694
20
3.96311
30
0
11
0.247694
21
-3.96311
31
0
39
0
210
0
220
0
230
1
0
LINE
5
81
100
AcDbEntity
8
1
62
256
6
ByLayer
370
18
48
1
60
0
100
AcDbLine
10
0
20
-4
30
0
11
0
21
4
31
0
39
0
210
0
220
0
230
1
0
LINE
5
82
100
AcDbEntity
8
1
62
256
6
ByLayer
370
18
48
1
60
0
100
AcDbLine
10
42.39005
20
-0.988081
30
0
11
42.395854
21
-0.950137
31
0
39
0
210
0
220
0
230
1
0
LINE
5
83
100
AcDbEntity
8
1
62
256
6
ByLayer
370
13
48
1
60
0
100
AcDbLine
10
0.496918
20
3.926221
30
0
11
0.496918
21
-3.926221
31
0
39
0
210
0
220
0
230
1
0
LINE
5
84
100
AcDbEntity
8
80
62
256
6
ByLayer
370
18
48
1
60
0
100
AcDbLine
10
0
20
0
30
0
11
-5
21
0
31
0
39
0
210
0
220
0
230
1
0
LINE
5
85
100
AcDbEntity
8
4
62
256
6
ByLayer
370
18
48
0.05
60
0
100
AcDbLine
10
43
20
0
30
0
11
0
21
0
31
0
39
0
210
0
220
0
230
1
0
LINE
5
87
100
AcDbEntity
8
SK4
62
256
6
ByLayer
370
18
48
0.05
60
0
100
AcDbLine
10
48
20
0
30
0
11
-41
21
0
31
0
39
0
210
0
220
0
230
1
0
LINE
5
89
100
AcDbEntity
8
SK1
62
256
6
ByLayer
370
18
48
1
60
0
100
AcDbLine
10
-34.845299
20
-4
30
0
11
0
21
-4
31
0
39
0
210
0
220
0
230
1
0
LINE
5
8A
100
AcDbEntity
8
SK1
62
256
6
ByLayer
370
18
48
1
60
0
100
AcDbLine
10
0
20
4
30
0
11
-34.845299
21
4
31
0
39
0
210
0
220
0
230
1
0
LINE
5
8B
100
AcDbEntity
8
SK1
62
256
6
ByLayer
370
18
48
1
60
0
100
AcDbLine
10
-36
20
-2
30
0
11
-34.845299
21
-4
31
0
39
0
210
0
220
0
230
1
0
LINE
5
8C
100
AcDbEntity
8
SK1
62
256
6
ByLayer
370
18
48
1
60
0
100
AcDbLine
10
-34.845299
20
4
30
0
11
-36
21
2
31
0
39
0
210
0
220
0
230
1
0
LINE
5
8D
100
AcDbEntity
8
1
62
256
6
ByLayer
370
18
48
1
60
0
100
AcDbLine
10
20.696073
20
-3.96258
30
0
11
21.481344
21
-3.963993
31
0
39
0
210
0
220
0
230
1
0
LINE
5
8E
100
AcDbEntity
8
1
62
256
6
ByLayer
370
18
48
1
60
0
100
AcDbLine
10
21.481344
20
3.963993
30
0
11
20.696073
21
3.96258
31
0
39
0
210
0
220
0
230
1
0
LINE
5
8F
100
AcDbEntity
8
1
62
256
6
ByLayer
370
18
48
1
60
0
100
AcDbLine
10
0.496918
20
-3.926221
30
0
11
3.185354
21
-3.93106
31
0
39
0
210
0
220
0
230
1
0
LINE
5
90
100
AcDbEntity
8
1
62
256
6
ByLayer
370
18
48
1
60
0
100
AcDbLine
10
3.185354
20
3.93106
30
0
11
0.496918
21
3.926221
31
0
39
0
210
0
220
0
230
1
0
LINE
5
91
100
AcDbEntity
8
81
62
256
6
ByLayer
370
18
48
1
60
0
100
AcDbLine
10
43
20
0
30
0
11
48
21
0
31
0
39
0
210
0
220
0
230
1
0
LINE
5
92
100
AcDbEntity
8
SK2
62
256
6
ByLayer
370
13
48
1
60
0
100
AcDbLine
10
-44.625163
20
-4
30
0
11
-44.625163
21
33.117107
31
0
39
0
210
0
220
0
230
1
0
LINE
5
94
100
AcDbEntity
8
SK2
62
256
6
ByLayer
370
13
48
1
60
0
100
AcDbLine
10
-37.5875
20
4
30
0
11
-46.625163
21
4
31
0
39
0
210
0
220
0
230
1
0
LINE
5
95
100
AcDbEntity
8
SK2
62
256
6
ByLayer
370
13
48
1
60
0
100
AcDbLine
10
-37.5875
20
-4
30
0
11
-46.625163
21
-4
31
0
39
0
210
0
220
0
230
1
0
LINE
5
96
100
AcDbEntity
8
1
62
256
6
ByLayer
370
18
48
1
60
1
100
AcDbLine
10
-44.625163
20
4
30
0
11
-44.164379
21
0.500002
31
0
39
0
210
0
220
0
230
1
0
LINE
5
97
100
AcDbEntity
8
1
62
256
6
ByLayer
370
18
48
1
60
1
100
AcDbLine
10
-44.164379
20
0.500002
30
0
11
-45.085946
21
0.499998
31
0
39
0
210
0
220
0
230
1
0
LINE
5
98
100
AcDbEntity
8
1
62
256
6
ByLayer
370
18
48
1
60
1
100
AcDbLine
10
-45.085946
20
0.499998
30
0
11
-44.625163
21
4
31
0
39
0
210
0
220
0
230
1
0
LINE
5
99
100
AcDbEntity
8
1
62
256
6
ByLayer
370
18
48
1
60
1
100
AcDbLine
10
-44.625163
20
-4
30
0
11
-45.085946
21
-0.500002
31
0
39
0
210
0
220
0
230
1
0
LINE
5
9A
100
AcDbEntity
8
1
62
256
6
ByLayer
370
18
48
1
60
1
100
AcDbLine
10
-45.085946
20
-0.500002
30
0
11
-44.164379
21
-0.499998
31
0
39
0
210
0
220
0
230
1
0
LINE
5
9B
100
AcDbEntity
8
1
62
256
6
ByLayer
370
18
48
1
60
1
100
AcDbLine
10
-44.164379
20
-0.499998
30
0
11
-44.625163
21
-4
31
0
39
0
210
0
220
0
230
1
0
LINE
5
9C
100
AcDbEntity
8
2
62
256
6
ByLayer
370
13
48
1
60
0
100
AcDbLine
10
55.083343
20
-4
30
0
11
55.083343
21
31.710193
31
0
39
0
210
0
220
0
230
1
0
LINE
5
9E
100
AcDbEntity
8
2
62
256
6
ByLayer
370
13
48
1
60
0
100
AcDbLine
10
43.0726
20
4
30
0
11
57.083343
21
4
31
0
39
0
210
0
220
0
230
1
0
LINE
5
9F
100
AcDbEntity
8
2
62
256
6
ByLayer
370
13
48
1
60
0
100
AcDbLine
10
43.0726
20
-4
30
0
11
57.083343
21
-4
31
0
39
0
210
0
220
0
230
1
0
LINE
5
A0
100
AcDbEntity
8
1
62
256
6
ByLayer
370
18
48
1
60
1
100
AcDbLine
10
55.083343
20
4
30
0
11
55.544126
21
0.500002
31
0
39
0
210
0
220
0
230
1
0
LINE
5
A1
100
AcDbEntity
8
1
62
256
6
ByLayer
370
18
48
1
60
1
100
AcDbLine
10
55.544126
20
0.500002
30
0
11
54.622559
21
0.499998
31
0
39
0
210
0
220
0
230
1
0
LINE
5
A2
100
AcDbEntity
8
1
62
256
6
ByLayer
370
18
48
1
60
1
100
AcDbLine
10
54.622559
20
0.499998
30
0
11
55.083343
21
4
31
0
39
0
210
0
220
0
230
1
0
LINE
5
A3
100
AcDbEntity
8
1
62
256
6
ByLayer
370
18
48
1
60
1
100
AcDbLine
10
55.083343
20
-4
30
0
11
54.622559
21
-0.500002
31
0
39
0
210
0
220
0
230
1
0
LINE
5
A4
100
AcDbEntity
8
1
62
256
6
ByLayer
370
18
48
1
60
1
100
AcDbLine
10
54.622559
20
-0.500002
30
0
11
55.544126
21
-0.499998
31
0
39
0
210
0
220
0
230
1
0
LINE
5
A5
100
AcDbEntity
8
1
62
256
6
ByLayer
370
18
48
1
60
1
100
AcDbLine
10
55.544126
20
-0.499998
30
0
11
55.083343
21
-4
31
0
39
0
210
0
220
0
230
1
0
LINE
5
F6
100
AcDbEntity
8
1
62
256
6
ByLayer
370
18
48
1
60
1
100
AcDbLine
10
-44.625163
20
4
30
0
11
-44.164379
21
0.500002
31
0
39
0
210
0
220
0
230
1
0
LINE
5
F7
100
AcDbEntity
8
1
62
256
6
ByLayer
370
18
48
1
60
1
100
AcDbLine
10
-44.164379
20
0.500002
30
0
11
-45.085946
21
0.499998
31
0
39
0
210
0
220
0
230
1
0
LINE
5
F8
100
AcDbEntity
8
1
62
256
6
ByLayer
370
18
48
1
60
1
100
AcDbLine
10
-45.085946
20
0.499998
30
0
11
-44.625163
21
4
31
0
39
0
210
0
220
0
230
1
0
LINE
5
FA
100
AcDbEntity
8
1
62
256
6
ByLayer
370
18
48
1
60
1
100
AcDbLine
10
-44.625163
20
-4
30
0
11
-45.085946
21
-0.500002
31
0
39
0
210
0
220
0
230
1
0
LINE
5
FB
100
AcDbEntity
8
1
62
256
6
ByLayer
370
18
48
1
60
1
100
AcDbLine
10
-45.085946
20
-0.500002
30
0
11
-44.164379
21
-0.499998
31
0
39
0
210
0
220
0
230
1
0
LINE
5
FC
100
AcDbEntity
8
1
62
256
6
ByLayer
370
18
48
1
60
1
100
AcDbLine
10
-44.164379
20
-0.499998
30
0
11
-44.625163
21
-4
31
0
39
0
210
0
220
0
230
1
0
LINE
5
100
100
AcDbEntity
8
1
62
256
6
ByLayer
370
18
48
1
60
1
100
AcDbLine
10
55.083343
20
4
30
0
11
55.544126
21
0.500002
31
0
39
0
210
0
220
0
230
1
0
LINE
5
101
100
AcDbEntity
8
1
62
256
6
ByLayer
370
18
48
1
60
1
100
AcDbLine
10
55.544126
20
0.500002
30
0
11
54.622559
21
0.499998
31
0
39
0
210
0
220
0
230
1
0
LINE
5
102
100
AcDbEntity
8
1
62
256
6
ByLayer
370
18
48
1
60
1
100
AcDbLine
10
54.622559
20
0.499998
30
0
11
55.083343
21
4
31
0
39
0
210
0
220
0
230
1
0
LINE
5
104
100
AcDbEntity
8
1
62
256
6
ByLayer
370
18
48
1
60
1
100
AcDbLine
10
55.083343
20
-4
30
0
11
54.622559
21
-0.500002
31
0
39
0
210
0
220
0
230
1
0
LINE
5
105
100
AcDbEntity
8
1
62
256
6
ByLayer
370
18
48
1
60
1
100
AcDbLine
10
54.622559
20
-0.500002
30
0
11
55.544126
21
-0.499998
31
0
39
0
210
0
220
0
230
1
0
LINE
5
106
100
AcDbEntity
8
1
62
256
6
ByLayer
370
18
48
1
60
1
100
AcDbLine
10
55.544126
20
-0.499998
30
0
11
55.083343
21
-4
31
0
39
0
210
0
220
0
230
1
0
MTEXT
5
F0
100
AcDbEntity
8
SK6
62
256
6
ByLayer
370
13
48
1
60
0
100
AcDbMText
10
-25.04646
20
36.540328
30
0
210
0
220
0
230
1
1
\W0.7492;860.1-0800-028A0-PM P1BM
40
3.5
41
0
44
1.084337
50
0
71
7
72
5
7
iso_b_vert
0
MTEXT
5
F4
100
AcDbEntity
8
SK2
62
256
6
ByLayer
370
18
48
1
60
0
100
AcDbMText
10
-46.189796
20
17.409024
30
0
210
0
220
0
230
1
1
%%c
40
3.5
41
0
44
1.084337
50
90
71
7
72
5
7
iso_b_vert
0
MTEXT
5
F5
100
AcDbEntity
8
SK2
62
256
6
ByLayer
370
18
48
1
60
0
100
AcDbMText
10
-46.189796
20
22.63168
30
0
210
0
220
0
230
1
1
\W0.7317;8,000
40
3.5
41
0
44
1.084337
50
90
71
7
72
5
7
iso_b_vert
0
MTEXT
5
FE
100
AcDbEntity
8
2
62
256
6
ByLayer
370
18
48
1
60
0
100
AcDbMText
10
53.518709
20
16.00211
30
0
210
0
220
0
230
1
1
%%c
40
3.5
41
0
44
1.084337
50
90
71
7
72
5
7
iso_b_vert
0
MTEXT
5
FF
100
AcDbEntity
8
2
62
256
6
ByLayer
370
18
48
1
60
0
100
AcDbMText
10
53.518709
20
21.224766
30
0
210
0
220
0
230
1
1
\W0.7317;8,000
40
3.5
41
0
44
1.084337
50
90
71
7
72
5
7
iso_b_vert
0
HATCH
5
F9
100
AcDbEntity
8
SK2
62
256
6
ByLayer
370
13
48
1
60
0
100
AcDbHatch
10
0
20
0
30
0
210
0
220
0
230
1
2
ANSI31
70
0
71
0
91
1
92
5
93
3
72
1
10
-44.6251625675374
20
4
11
-44.1643788259847
21
0.500001692553184
72
1
10
-44.1643788259847
20
0.500001692553184
11
-45.0859463090902
21
0.499998307446816
72
1
10
-45.0859463090902
20
0.499998307446816
11
-44.6251625675374
21
4
97
0
75
0
76
1
52
0
41
0.0062
77
0
78
1
53
45
43
0
44
0
45
-0.0139193969876572
46
0.0139193969876572
79
0
47
0
98
1
10
0
20
0
0
HATCH
5
FD
100
AcDbEntity
8
SK2
62
256
6
ByLayer
370
13
48
1
60
0
100
AcDbHatch
10
0
20
0
30
0
210
0
220
0
230
1
2
ANSI31
70
0
71
0
91
1
92
5
93
3
72
1
10
-44.6251625675374
20
-4
11
-45.0859463090902
21
-0.500001692553184
72
1
10
-45.0859463090902
20
-0.500001692553184
11
-44.1643788259847
21
-0.499998307446816
72
1
10
-44.1643788259847
20
-0.499998307446816
11
-44.6251625675374
21
-4
97
0
75
0
76
1
52
0
41
0.0062
77
0
78
1
53
45
43
0
44
0
45
-0.0139193969876572
46
0.0139193969876572
79
0
47
0
98
1
10
0
20
0
0
HATCH
5
103
100
AcDbEntity
8
2
62
256
6
ByLayer
370
13
48
1
60
0
100
AcDbHatch
10
0
20
0
30
0
210
0
220
0
230
1
2
ANSI31
70
0
71
0
91
1
92
5
93
3
72
1
10
55.083342615295
20
4
11
55.5441263568478
21
0.500001692553184
72
1
10
55.5441263568478
20
0.500001692553184
11
54.6225588737423
21
0.499998307446816
72
1
10
54.6225588737423
20
0.499998307446816
11
55.083342615295
21
4
97
0
75
0
76
1
52
0
41
0.0062
77
0
78
1
53
45
43
0
44
0
45
-0.0139193969876572
46
0.0139193969876572
79
0
47
0
98
1
10
0
20
0
0
HATCH
5
107
100
AcDbEntity
8
2
62
256
6
ByLayer
370
13
48
1
60
0
100
AcDbHatch
10
0
20
0
30
0
210
0
220
0
230
1
2
ANSI31
70
0
71
0
91
1
92
5
93
3
72
1
10
55.083342615295
20
-4
11
54.6225588737423
21
-0.500001692553184
72
1
10
54.6225588737423
20
-0.500001692553184
11
55.5441263568478
21
-0.499998307446816
72
1
10
55.5441263568478
20
-0.499998307446816
11
55.083342615295
21
-4
97
0
75
0
76
1
52
0
41
0.0062
77
0
78
1
53
45
43
0
44
0
45
-0.0139193969876572
46
0.0139193969876572
79
0
47
0
98
1
10
0
20
0
0
DIMENSION
5
109
100
AcDbEntity
8
2
62
256
6
ByLayer
370
13
48
1
60
0
100
AcDbDimension
2
_U0
10
41.4851
20
-14.213398
30
0
11
20.74255
21
-14.213398
31
0
70
32
71
1
72
1
41
1
210
0
220
0
230
1
3
Standard
100
AcDbAlignedDimension
13
0
23
0
33
0
14
41.4851
24
-4
34
0
50
0
100
AcDbRotatedDimension
1001
ACAD
1000
DSTYLE
1002
{
1070
   371
1070
    13
1070
   372
1070
    13
1070
   170
1070
     0
1070
   144
1040
1.0
1070
   277
1070
     2
1070
   278
1070
    44
1070
   146
1040
1.0
1070
   345
1005
16
1070
   347
1005
16
1070
   346
1005
16
1070
   344
1005
0
1070
   343
1005
0
1070
   172
1070
     1
1070
    76
1070
     0
1070
    75
1070
     0
1070
   282
1070
     0
1070
   281
1070
     0
1070
    71
1070
     0
1070
    74
1070
     0
1070
   279
1070
     0
1070
   173
1070
     1
1070
   340
1005
F1
1070
   271
1070
     2
1070
   272
1070
     2
1070
    77
1070
     1
1070
    73
1070
     1
1070
   171
1070
     3
1070
   274
1070
     4
1070
   177
1070
    35
1070
   176
1070
    35
1070
   178
1070
    35
1070
    48
1040
-0.1
1070
    41
1040
3.5
1070
   147
1040
1.75
1070
    42
1040
1.5875
1070
    44
1040
2.0
1070
   140
1040
3.5
1002
}
1001
ACAD_DSTYLE_DIM_LINETYPE
1070
   380
1005
16
1001
ACAD_DSTYLE_DIM_EXT1_LINETYPE
1070
   381
1005
16
1001
ACAD_DSTYLE_DIM_EXT2_LINETYPE
1070
   382
1005
16
0
DIMENSION
5
122
100
AcDbEntity
8
SK2
62
256
6
ByLayer
370
13
48
1
60
0
100
AcDbDimension
2
_U1
10
43
20
-32.692985
30
0
11
3.5
21
-32.692985
31
0
70
32
71
1
72
1
41
1
210
0
220
0
230
1
3
Standard
100
AcDbAlignedDimension
13
-36
23
-4
33
0
14
43
24
0
34
0
50
0
100
AcDbRotatedDimension
1001
ACAD
1000
DSTYLE
1002
{
1070
   371
1070
    13
1070
   372
1070
    13
1070
   170
1070
     0
1070
   144
1040
1.0
1070
   277
1070
     2
1070
   278
1070
    44
1070
   146
1040
1.0
1070
   345
1005
16
1070
   347
1005
16
1070
   346
1005
16
1070
   344
1005
0
1070
   343
1005
0
1070
   172
1070
     1
1070
    76
1070
     0
1070
    75
1070
     0
1070
   282
1070
     0
1070
   281
1070
     0
1070
    71
1070
     0
1070
    74
1070
     0
1070
   279
1070
     0
1070
   173
1070
     1
1070
   340
1005
F1
1070
   271
1070
     2
1070
   272
1070
     2
1070
    77
1070
     1
1070
    73
1070
     1
1070
   171
1070
     3
1070
   274
1070
     4
1070
   177
1070
    35
1070
   176
1070
    35
1070
   178
1070
    35
1070
    48
1040
-0.1
1070
    41
1040
3.5
1070
   147
1040
1.75
1070
    42
1040
1.5875
1070
    44
1040
2.0
1070
   140
1040
3.5
1002
}
1001
ACAD_DSTYLE_DIM_LINETYPE
1070
   380
1005
16
1001
ACAD_DSTYLE_DIM_EXT1_LINETYPE
1070
   381
1005
16
1001
ACAD_DSTYLE_DIM_EXT2_LINETYPE
1070
   382
1005
16
0
DIMENSION
5
13A
100
AcDbEntity
8
SK2
62
256
6
ByLayer
370
13
48
1
60
0
100
AcDbDimension
2
_U2
10
43
20
15.609119
30
0
11
30.245
21
15.609119
31
0
70
32
71
1
72
1
41
1
210
0
220
0
230
1
3
Standard
100
AcDbAlignedDimension
13
17.49
23
4
33
0
14
43
24
0
34
0
50
0
100
AcDbRotatedDimension
1001
ACAD
1000
DSTYLE
1002
{
1070
   371
1070
    13
1070
   372
1070
    13
1070
   170
1070
     0
1070
   144
1040
1.0
1070
   277
1070
     2
1070
   278
1070
    44
1070
   146
1040
1.0
1070
   345
1005
16
1070
   347
1005
16
1070
   346
1005
16
1070
   344
1005
0
1070
   343
1005
0
1070
   172
1070
     1
1070
    76
1070
     0
1070
    75
1070
     0
1070
   282
1070
     0
1070
   281
1070
     0
1070
    71
1070
     0
1070
    74
1070
     0
1070
   279
1070
     0
1070
   173
1070
     1
1070
   340
1005
F1
1070
   271
1070
     2
1070
   272
1070
     2
1070
    77
1070
     1
1070
    73
1070
     1
1070
   171
1070
     3
1070
   274
1070
     4
1070
   177
1070
    35
1070
   176
1070
    35
1070
   178
1070
    35
1070
    48
1040
-0.1
1070
    41
1040
3.5
1070
   147
1040
1.75
1070
    42
1040
1.5875
1070
    44
1040
2.0
1070
   140
1040
3.5
1002
}
1001
ACAD_DSTYLE_DIM_LINETYPE
1070
   380
1005
16
1001
ACAD_DSTYLE_DIM_EXT1_LINETYPE
1070
   381
1005
16
1001
ACAD_DSTYLE_DIM_EXT2_LINETYPE
1070
   382
1005
16
0
DIMENSION
5
152
100
AcDbEntity
8
SK2
62
256
6
ByLayer
370
13
48
1
60
0
100
AcDbDimension
2
_U3
10
41.4851
20
-16.802503
30
0
11
59.833333
21
-16.802503
31
0
70
32
71
1
72
1
41
1
210
0
220
0
230
1
3
Standard
100
AcDbAlignedDimension
13
43
23
0
33
0
14
41.4851
24
-4
34
0
50
0
100
AcDbRotatedDimension
1001
ACAD
1000
DSTYLE
1002
{
1070
   371
1070
    13
1070
   372
1070
    13
1070
   170
1070
     0
1070
   144
1040
1.0
1070
   277
1070
     2
1070
   278
1070
    44
1070
   146
1040
1.0
1070
   345
1005
16
1070
   347
1005
16
1070
   346
1005
16
1070
   344
1005
0
1070
   343
1005
0
1070
   172
1070
     1
1070
    76
1070
     0
1070
    75
1070
     0
1070
   282
1070
     0
1070
   281
1070
     0
1070
    71
1070
     0
1070
    74
1070
     0
1070
   279
1070
     0
1070
   173
1070
     1
1070
   340
1005
F1
1070
   271
1070
     2
1070
   272
1070
     2
1070
    77
1070
     1
1070
    73
1070
     1
1070
   171
1070
     3
1070
   274
1070
     4
1070
   177
1070
    35
1070
   176
1070
    35
1070
   178
1070
    35
1070
    48
1040
-0.1
1070
    41
1040
3.5
1070
   147
1040
1.75
1070
    42
1040
1.5875
1070
    44
1040
2.0
1070
   140
1040
3.5
1002
}
1001
ACAD_DSTYLE_DIM_LINETYPE
1070
   380
1005
16
1001
ACAD_DSTYLE_DIM_EXT1_LINETYPE
1070
   381
1005
16
1001
ACAD_DSTYLE_DIM_EXT2_LINETYPE
1070
   382
1005
16
0
DIMENSION
5
16C
100
AcDbEntity
8
SK2
62
256
6
ByLayer
370
13
48
1
60
0
100
AcDbDimension
2
_U4
10
41.4851
20
-22.343428
30
0
11
2.74255
21
-22.343428
31
0
70
32
71
1
72
1
41
1
210
0
220
0
230
1
3
Standard
100
AcDbAlignedDimension
13
-36
23
-4
33
0
14
41.4851
24
-4
34
0
50
0
100
AcDbRotatedDimension
1001
ACAD
1000
DSTYLE
1002
{
1070
   371
1070
    13
1070
   372
1070
    13
1070
   170
1070
     0
1070
   144
1040
1.0
1070
   277
1070
     2
1070
   278
1070
    44
1070
   146
1040
1.0
1070
   345
1005
16
1070
   347
1005
16
1070
   346
1005
16
1070
   344
1005
0
1070
   343
1005
0
1070
   172
1070
     1
1070
    76
1070
     0
1070
    75
1070
     0
1070
   282
1070
     0
1070
   281
1070
     0
1070
    71
1070
     0
1070
    74
1070
     0
1070
   279
1070
     0
1070
   173
1070
     1
1070
   340
1005
F1
1070
   271
1070
     2
1070
   272
1070
     2
1070
    77
1070
     1
1070
    73
1070
     1
1070
   171
1070
     3
1070
   274
1070
     4
1070
   177
1070
    35
1070
   176
1070
    35
1070
   178
1070
    35
1070
    48
1040
-0.1
1070
    41
1040
3.5
1070
   147
1040
1.75
1070
    42
1040
1.5875
1070
    44
1040
2.0
1070
   140
1040
3.5
1002
}
1001
ACAD_DSTYLE_DIM_LINETYPE
1070
   380
1005
16
1001
ACAD_DSTYLE_DIM_EXT1_LINETYPE
1070
   381
1005
16
1001
ACAD_DSTYLE_DIM_EXT2_LINETYPE
1070
   382
1005
16
0
ENDSEC
0
SECTION
2
OBJECTS
0
DICTIONARY
5
1f4
330
0
100
AcDbDictionary
280
0
281
1
3
ACAD_GROUP
350
1f5
3
ACAD_MLINESTYLE
350
1f6
0
DICTIONARY
5
1f5
330
0
100
AcDbDictionary
280
0
281
1
0
DICTIONARY
5
1f6
330
0
100
AcDbDictionary
280
0
281
1
3
Standard
350
18
0
MLINESTYLE
5
18
330
1f6
100
AcDbMlineStyle
2
Standard
70
0
3

62
256
51
90
52
90
71
2
49
-0.5
62
256
6
ByLayer
49
0.5
62
256
6
ByLayer
0
RASTERVARIABLES
5
1e2
330

100
AcDbRasterVariables
90
0
70
1
71
1
72
1
0
ENDSEC
0
EOF
