0
SECTION
2
HEADER
9
$ACADVER
1
AC1015
9
$DWGCODEPAGE
3
ANSI_1252
9
$HANDSEED
5
1fa
9
$ANGBASE
50
0
9
$ANGDIR
70
0
9
$ATTMODE
70
1
9
$AUNITS
70
0
9
$AUPREC
70
0
9
$CECOLOR
62
256
9
$CELTSCALE
40
1
9
$CELTYPE
6
ByLayer
9
$CELWEIGHT
370
18
9
$CLAYER
8
0
9
$CMLJUST
70
0
9
$CMLSCALE
40
1
9
$CMLSTYLE
2
Standard
9
$DIMSTYLE
2
Standard
9
$TEXTSIZE
40
0.2
9
$TEXTSTYLE
7
Standard
9
$LUNITS
70
2
9
$LUPREC
70
4
9
$EXTNAMES
290
1
9
$INSUNITS
70
4
9
$LTSCALE
40
1
9
$LWDISPLAY
290
1
9
$PDMODE
70
0
9
$PDSIZE
40
0
9
$PLINEGEN
70
0
0
ENDSEC
0
SECTION
2
CLASSES
0
CLASS
1
RASTERVARIABLES
2
AcDbRasterVariables
3
ISM
90
0
280
0
281
0
0
ENDSEC
0
SECTION
2
TABLES
0
TABLE
2
VPORT
5
1f0
100
AcDbSymbolTable
0
VPORT
5
1
100
AcDbSymbolTableRecord
100
AcDbViewportTableRecord
2
*Active
70
0
10
0
20
0
11
1
21
1
12
-1
22
1
13
0
23
0
14
0.5
24
0.5
15
10
25
10
16
0
26
0
36
1
17
0
27
0
37
0
0
ENDTAB
0
TABLE
2
LTYPE
5
1f1
100
AcDbSymbolTable
0
LTYPE
5
14
100
AcDbSymbolTableRecord
100
AcDbLinetypeTableRecord
70
0
2
ByBlock
3

72
65
73
0
40
0
0
LTYPE
5
15
100
AcDbSymbolTableRecord
100
AcDbLinetypeTableRecord
70
0
2
ByLayer
3

72
65
73
0
40
0
0
LTYPE
5
16
100
AcDbSymbolTableRecord
100
AcDbLinetypeTableRecord
70
0
2
Continuous
3
Solid line
72
65
73
0
40
0
0
LTYPE
5
6E
100
AcDbSymbolTableRecord
100
AcDbLinetypeTableRecord
70
0
2
CENTER
3
____ _ ____ _ ____ _ ____
72
65
73
4
40
47.5
49
22
74
0
49
-8.5
74
0
49
8.5
74
0
49
-8.5
74
0
0
LTYPE
5
6F
100
AcDbSymbolTableRecord
100
AcDbLinetypeTableRecord
70
0
2
DASHED
3
__ __ __ __ __ __ __ __ __
72
65
73
2
40
25.72
49
12.86
74
0
49
-12.86
74
0
0
ENDTAB
0
TABLE
2
LAYER
5
1f2
100
AcDbSymbolTable
0
LAYER
5
10
100
AcDbSymbolTableRecord
100
AcDbLayerTableRecord
2
0
70
0
62
7
6
Continuous
290
1
370
-3
390
0
0
LAYER
5
71
100
AcDbSymbolTableRecord
100
AcDbLayerTableRecord
2
80
70
0
62
-6
6
Continuous
290
1
370
-3
390
0
0
LAYER
5
73
100
AcDbSymbolTableRecord
100
AcDbLayerTableRecord
2
81
70
0
62
-3
6
Continuous
290
1
370
-3
390
0
0
LAYER
5
75
100
AcDbSymbolTableRecord
100
AcDbLayerTableRecord
2
1
70
0
62
4
6
Continuous
290
1
370
-3
390
0
0
LAYER
5
86
100
AcDbSymbolTableRecord
100
AcDbLayerTableRecord
2
4
70
0
62
-2
6
CENTER
290
1
370
-3
390
0
0
LAYER
5
9D
100
AcDbSymbolTableRecord
100
AcDbLayerTableRecord
2
2
70
0
62
7
6
Continuous
290
1
370
-3
390
0
0
LAYER
5
105
100
AcDbSymbolTableRecord
100
AcDbLayerTableRecord
2
Defpoints
70
0
62
7
6
Continuous
290
0
370
-3
390
0
0
LAYER
5
1dc
100
AcDbSymbolTableRecord
100
AcDbLayerTableRecord
2
SK1
70
0
62
4
6
Continuous
290
1
370
-3
390
0
0
LAYER
5
1dd
100
AcDbSymbolTableRecord
100
AcDbLayerTableRecord
2
SK4
70
0
62
2
6
CENTER
290
1
370
-3
390
0
0
LAYER
5
1de
100
AcDbSymbolTableRecord
100
AcDbLayerTableRecord
2
SK2
70
0
62
7
6
Continuous
290
1
370
-3
390
0
0
LAYER
5
1df
100
AcDbSymbolTableRecord
100
AcDbLayerTableRecord
2
SK6
70
0
62
5
6
Continuous
290
1
370
-3
390
0
0
ENDTAB
0
TABLE
2
STYLE
5
1f3
100
AcDbSymbolTable
0
STYLE
5
11
100
AcDbSymbolTableRecord
100
AcDbTextStyleTableRecord
2
Standard
3
txt
70
0
71
0
40
0
41
1
42
0
50
0
0
STYLE
5
EA
100
AcDbSymbolTableRecord
100
AcDbTextStyleTableRecord
2
iso_b_vert
3
simplex.shx
70
0
71
0
40
0
41
1
42
0
50
0
0
STYLE
5
EB
100
AcDbSymbolTableRecord
100
AcDbTextStyleTableRecord
2
DWGDirectTextStyle
3
simplex
70
0
71
0
40
0
41
1
42
0
50
0
0
ENDTAB
0
TABLE
2
DIMSTYLE
5
1f4
100
AcDbSymbolTable
100
AcDbDimStyleTable
0
DIMSTYLE
105
27
100
AcDbSymbolTableRecord
100
AcDbDimStyleTableRecord
2
Standard
70
0
3
<>
41
0.18
42
0.0625
44
0.18
140
0.18
147
0.09
73
0
74
0
77
1
271
2
275
0
278
52
280
0
340
11
0
ENDTAB
0
TABLE
2
VIEW
5
1f5
100
AcDbSymbolTable
0
ENDTAB
0
TABLE
2
UCS
5
1f6
100
AcDbSymbolTable
0
ENDTAB
0
TABLE
2
APPID
5
1f7
100
AcDbSymbolTable
0
APPID
5
12
100
AcDbSymbolTableRecord
100
AcDbRegAppTableRecord
2
ACAD
70
0
0
APPID
5
101
100
AcDbSymbolTableRecord
100
AcDbRegAppTableRecord
2
ACAD_DSTYLE_DIMBREAK
70
0
0
APPID
5
19B
100
AcDbSymbolTableRecord
100
AcDbRegAppTableRecord
2
ACAD_DSTYLE_DIM_LINETYPE
70
0
0
APPID
5
19C
100
AcDbSymbolTableRecord
100
AcDbRegAppTableRecord
2
ACAD_DSTYLE_DIM_EXT1_LINETYPE
70
0
0
APPID
5
19D
100
AcDbSymbolTableRecord
100
AcDbRegAppTableRecord
2
ACAD_DSTYLE_DIM_EXT2_LINETYPE
70
0
0
APPID
5
1D8
100
AcDbSymbolTableRecord
100
AcDbRegAppTableRecord
2
ACAD_MLEADERVER
70
0
0
ENDTAB
0
TABLE
2
BLOCK_RECORD
5
1f8
100
AcDbSymbolTable
0
BLOCK_RECORD
5
1F
100
AcDbSymbolTableRecord
100
AcDbBlockTableRecord
2
*Model_Space
340
0
70
0
0
BLOCK_RECORD
5
1B
100
AcDbSymbolTableRecord
100
AcDbBlockTableRecord
2
*Paper_Space
340
0
70
0
0
BLOCK_RECORD
5
23
100
AcDbSymbolTableRecord
100
AcDbBlockTableRecord
2
*Paper_Space0
340
0
70
0
0
BLOCK_RECORD
5
106
100
AcDbSymbolTableRecord
100
AcDbBlockTableRecord
2
*D1
340
0
70
0
0
BLOCK_RECORD
5
112
100
AcDbSymbolTableRecord
100
AcDbBlockTableRecord
2
_U0
340
0
70
0
0
BLOCK_RECORD
5
11E
100
AcDbSymbolTableRecord
100
AcDbBlockTableRecord
2
*D3
340
0
70
0
0
BLOCK_RECORD
5
12A
100
AcDbSymbolTableRecord
100
AcDbBlockTableRecord
2
_U1
340
0
70
0
0
BLOCK_RECORD
5
136
100
AcDbSymbolTableRecord
100
AcDbBlockTableRecord
2
*D5
340
0
70
0
0
BLOCK_RECORD
5
142
100
AcDbSymbolTableRecord
100
AcDbBlockTableRecord
2
_U2
340
0
70
0
0
BLOCK_RECORD
5
14E
100
AcDbSymbolTableRecord
100
AcDbBlockTableRecord
2
*D7
340
0
70
0
0
BLOCK_RECORD
5
15C
100
AcDbSymbolTableRecord
100
AcDbBlockTableRecord
2
_U3
340
0
70
0
0
BLOCK_RECORD
5
168
100
AcDbSymbolTableRecord
100
AcDbBlockTableRecord
2
*D9
340
0
70
0
0
BLOCK_RECORD
5
174
100
AcDbSymbolTableRecord
100
AcDbBlockTableRecord
2
_U4
340
0
70
0
0
ENDTAB
0
ENDSEC
0
SECTION
2
BLOCKS
0
BLOCK
5
20
100
AcDbEntity
8
0
100
AcDbBlockBegin
2
*Model_Space
70
0
10
0
20
0
30
0
3
*Model_Space
0
ENDBLK
5
21
100
AcDbEntity
8
0
100
AcDbBlockEnd
0
BLOCK
5
1C
100
AcDbEntity
8
0
100
AcDbBlockBegin
2
*Paper_Space
70
0
10
0
20
0
30
0
3
*Paper_Space
0
ENDBLK
5
1D
100
AcDbEntity
8
0
100
AcDbBlockEnd
0
BLOCK
5
24
100
AcDbEntity
8
0
100
AcDbBlockBegin
2
*Paper_Space0
70
0
10
0
20
0
30
0
3
*Paper_Space0
0
ENDBLK
5
25
100
AcDbEntity
8
0
100
AcDbBlockEnd
0
BLOCK
5
107
100
AcDbEntity
8
0
100
AcDbBlockBegin
2
*D1
70
1
10
0
20
0
30
0
3
*D1
0
LINE
5
109
100
AcDbEntity
8
0
62
256
6
ByLayer
370
-2
48
1
60
0
100
AcDbLine
10
0
20
-1.5875
30
0
11
0
21
-15.763398
31
0
39
0
210
0
220
0
230
1
0
LINE
5
10A
100
AcDbEntity
8
0
62
256
6
ByLayer
370
-2
48
1
60
0
100
AcDbLine
10
41.6414
20
-5.1375
30
0
11
41.6414
21
-15.763398
31
0
39
0
210
0
220
0
230
1
0
LINE
5
10B
100
AcDbEntity
8
0
62
256
6
ByLayer
370
-2
48
1
60
0
100
AcDbLine
10
3.5
20
-13.763398
30
0
11
38.1414
21
-13.763398
31
0
39
0
210
0
220
0
230
1
0
SOLID
5
10C
100
AcDbEntity
8
0
62
256
6
ByLayer
370
-1
48
1
60
0
100
AcDbTrace
10
3.5
20
-13.180065
30
0
11
3.5
21
-14.346732
31
0
12
0
22
-13.763398
32
0
13
0
23
-13.763398
33
0
39
0
210
0
220
0
230
1
0
SOLID
5
10D
100
AcDbEntity
8
0
62
256
6
ByLayer
370
-1
48
1
60
0
100
AcDbTrace
10
38.1414
20
-14.346732
30
0
11
38.1414
21
-13.180065
31
0
12
41.6414
22
-13.763398
32
0
13
41.6414
23
-13.763398
33
0
39
0
210
0
220
0
230
1
0
MTEXT
5
10E
100
AcDbEntity
8
0
62
256
6
ByLayer
370
18
48
1
60
0
100
AcDbMText
10
20.8207
20
-6.763398
30
0
210
0
220
0
230
1
1
\A1;41.64
40
3.5
41
0
44
1
50
0
71
5
72
5
7
iso_b_vert
0
POINT
5
10F
100
AcDbEntity
8
Defpoints
62
0
6
ByLayer
370
-1
48
1
60
0
100
AcDbPoint
10
0
20
0
30
0
39
0
210
0
220
0
230
1
50
360
0
POINT
5
110
100
AcDbEntity
8
Defpoints
62
0
6
ByLayer
370
-1
48
1
60
0
100
AcDbPoint
10
41.6414
20
-3.55
30
0
39
0
210
0
220
0
230
1
50
360
0
POINT
5
111
100
AcDbEntity
8
Defpoints
62
0
6
ByLayer
370
-1
48
1
60
0
100
AcDbPoint
10
41.6414
20
-13.763398
30
0
39
0
210
0
220
0
230
1
50
360
0
ENDBLK
5
108
100
AcDbEntity
8
0
100
AcDbBlockEnd
0
BLOCK
5
119
100
AcDbEntity
8
0
100
AcDbBlockBegin
2
_U0
70
0
10
0
20
0
30
0
3
_U0
0
MTEXT
5
113
100
AcDbEntity
8
2
62
256
6
ByLayer
370
13
48
1
60
0
100
AcDbMText
10
15.752301
20
-12.730765
30
0
210
0
220
0
230
1
1
\W0.7159;41,64
40
3.5
41
0
44
1.084337
50
0
71
7
72
5
7
iso_b_vert
0
LINE
5
114
100
AcDbEntity
8
2
62
256
6
ByLayer
370
13
48
1
60
0
100
AcDbLine
10
0
20
-1.5875
30
0
11
0
21
-15.763398
31
0
39
0
210
0
220
0
230
1
0
LINE
5
115
100
AcDbEntity
8
2
62
256
6
ByLayer
370
13
48
1
60
0
100
AcDbLine
10
41.6414
20
-5.1375
30
0
11
41.6414
21
-15.763398
31
0
39
0
210
0
220
0
230
1
0
LINE
5
116
100
AcDbEntity
8
2
62
256
6
ByLayer
370
13
48
1
60
0
100
AcDbLine
10
0
20
-13.763398
30
0
11
41.6414
21
-13.763398
31
0
39
0
210
0
220
0
230
1
0
SOLID
5
117
100
AcDbEntity
8
2
62
256
6
ByLayer
370
18
48
1
60
0
100
AcDbTrace
10
0
20
-13.763398
30
0
11
3.499998
21
-13.302615
31
0
12
3.500002
22
-14.224182
32
0
13
3.500002
23
-14.224182
33
0
39
0
210
0
220
0
230
1
0
SOLID
5
118
100
AcDbEntity
8
2
62
256
6
ByLayer
370
18
48
1
60
0
100
AcDbTrace
10
41.6414
20
-13.763398
30
0
11
38.141402
21
-14.224182
31
0
12
38.141398
22
-13.302615
32
0
13
38.141398
23
-13.302615
33
0
39
0
210
0
220
0
230
1
0
ENDBLK
5
11A
100
AcDbEntity
8
0
100
AcDbBlockEnd
0
BLOCK
5
11F
100
AcDbEntity
8
0
100
AcDbBlockBegin
2
*D3
70
1
10
0
20
0
30
0
3
*D3
0
LINE
5
121
100
AcDbEntity
8
0
62
256
6
ByLayer
370
-2
48
1
60
0
100
AcDbLine
10
-36
20
-5.5875
30
0
11
-36
21
-34.692985
31
0
39
0
210
0
220
0
230
1
0
LINE
5
122
100
AcDbEntity
8
0
62
256
6
ByLayer
370
-2
48
1
60
0
100
AcDbLine
10
43
20
-1.5875
30
0
11
43
21
-34.692985
31
0
39
0
210
0
220
0
230
1
0
LINE
5
123
100
AcDbEntity
8
0
62
256
6
ByLayer
370
-2
48
1
60
0
100
AcDbLine
10
-32.5
20
-32.692985
30
0
11
39.5
21
-32.692985
31
0
39
0
210
0
220
0
230
1
0
SOLID
5
124
100
AcDbEntity
8
0
62
256
6
ByLayer
370
-1
48
1
60
0
100
AcDbTrace
10
-32.5
20
-32.109652
30
0
11
-32.5
21
-33.276319
31
0
12
-36
22
-32.692985
32
0
13
-36
23
-32.692985
33
0
39
0
210
0
220
0
230
1
0
SOLID
5
125
100
AcDbEntity
8
0
62
256
6
ByLayer
370
-1
48
1
60
0
100
AcDbTrace
10
39.5
20
-33.276319
30
0
11
39.5
21
-32.109652
31
0
12
43
22
-32.692985
32
0
13
43
23
-32.692985
33
0
39
0
210
0
220
0
230
1
0
MTEXT
5
126
100
AcDbEntity
8
0
62
256
6
ByLayer
370
18
48
1
60
0
100
AcDbMText
10
3.5
20
-25.692985
30
0
210
0
220
0
230
1
1
\A1;79.00
40
3.5
41
0
44
1
50
0
71
5
72
5
7
iso_b_vert
0
POINT
5
127
100
AcDbEntity
8
Defpoints
62
0
6
ByLayer
370
-1
48
1
60
0
100
AcDbPoint
10
-36
20
-4
30
0
39
0
210
0
220
0
230
1
50
360
0
POINT
5
128
100
AcDbEntity
8
Defpoints
62
0
6
ByLayer
370
-1
48
1
60
0
100
AcDbPoint
10
43
20
0
30
0
39
0
210
0
220
0
230
1
50
360
0
POINT
5
129
100
AcDbEntity
8
Defpoints
62
0
6
ByLayer
370
-1
48
1
60
0
100
AcDbPoint
10
43
20
-32.692985
30
0
39
0
210
0
220
0
230
1
50
360
0
ENDBLK
5
120
100
AcDbEntity
8
0
100
AcDbBlockEnd
0
BLOCK
5
131
100
AcDbEntity
8
0
100
AcDbBlockBegin
2
_U1
70
0
10
0
20
0
30
0
3
_U1
0
MTEXT
5
12B
100
AcDbEntity
8
SK2
62
256
6
ByLayer
370
13
48
1
60
0
100
AcDbMText
10
-1.637299
20
-31.660352
30
0
210
0
220
0
230
1
1
\W0.7317;79,00
40
3.5
41
0
44
1.084337
50
0
71
7
72
5
7
iso_b_vert
0
LINE
5
12C
100
AcDbEntity
8
SK2
62
256
6
ByLayer
370
13
48
1
60
0
100
AcDbLine
10
-36
20
-5.5875
30
0
11
-36
21
-34.692985
31
0
39
0
210
0
220
0
230
1
0
LINE
5
12D
100
AcDbEntity
8
SK2
62
256
6
ByLayer
370
13
48
1
60
0
100
AcDbLine
10
43
20
-1.5875
30
0
11
43
21
-34.692985
31
0
39
0
210
0
220
0
230
1
0
LINE
5
12E
100
AcDbEntity
8
SK2
62
256
6
ByLayer
370
13
48
1
60
0
100
AcDbLine
10
-36
20
-32.692985
30
0
11
43
21
-32.692985
31
0
39
0
210
0
220
0
230
1
0
SOLID
5
12F
100
AcDbEntity
8
SK2
62
256
6
ByLayer
370
18
48
1
60
0
100
AcDbTrace
10
-36
20
-32.692985
30
0
11
-32.500002
21
-32.232202
31
0
12
-32.499998
22
-33.153769
32
0
13
-32.499998
23
-33.153769
33
0
39
0
210
0
220
0
230
1
0
SOLID
5
130
100
AcDbEntity
8
SK2
62
256
6
ByLayer
370
18
48
1
60
0
100
AcDbTrace
10
43
20
-32.692985
30
0
11
39.500002
21
-33.153769
31
0
12
39.499998
22
-32.232202
32
0
13
39.499998
23
-32.232202
33
0
39
0
210
0
220
0
230
1
0
ENDBLK
5
132
100
AcDbEntity
8
0
100
AcDbBlockEnd
0
BLOCK
5
137
100
AcDbEntity
8
0
100
AcDbBlockBegin
2
*D5
70
1
10
0
20
0
30
0
3
*D5
0
LINE
5
139
100
AcDbEntity
8
0
62
256
6
ByLayer
370
-2
48
1
60
0
100
AcDbLine
10
20.34
20
5.1375
30
0
11
20.34
21
17.159119
31
0
39
0
210
0
220
0
230
1
0
LINE
5
13A
100
AcDbEntity
8
0
62
256
6
ByLayer
370
-2
48
1
60
0
100
AcDbLine
10
43
20
1.5875
30
0
11
43
21
17.159119
31
0
39
0
210
0
220
0
230
1
0
LINE
5
13B
100
AcDbEntity
8
0
62
256
6
ByLayer
370
-2
48
1
60
0
100
AcDbLine
10
23.84
20
15.159119
30
0
11
39.5
21
15.159119
31
0
39
0
210
0
220
0
230
1
0
SOLID
5
13C
100
AcDbEntity
8
0
62
256
6
ByLayer
370
-1
48
1
60
0
100
AcDbTrace
10
23.84
20
15.742453
30
0
11
23.84
21
14.575786
31
0
12
20.34
22
15.159119
32
0
13
20.34
23
15.159119
33
0
39
0
210
0
220
0
230
1
0
SOLID
5
13D
100
AcDbEntity
8
0
62
256
6
ByLayer
370
-1
48
1
60
0
100
AcDbTrace
10
39.5
20
14.575786
30
0
11
39.5
21
15.742453
31
0
12
43
22
15.159119
32
0
13
43
23
15.159119
33
0
39
0
210
0
220
0
230
1
0
MTEXT
5
13E
100
AcDbEntity
8
0
62
256
6
ByLayer
370
18
48
1
60
0
100
AcDbMText
10
31.67
20
22.159119
30
0
210
0
220
0
230
1
1
\A1;22.66
40
3.5
41
0
44
1
50
0
71
5
72
5
7
iso_b_vert
0
POINT
5
13F
100
AcDbEntity
8
Defpoints
62
0
6
ByLayer
370
-1
48
1
60
0
100
AcDbPoint
10
20.34
20
3.55
30
0
39
0
210
0
220
0
230
1
50
360
0
POINT
5
140
100
AcDbEntity
8
Defpoints
62
0
6
ByLayer
370
-1
48
1
60
0
100
AcDbPoint
10
43
20
0
30
0
39
0
210
0
220
0
230
1
50
360
0
POINT
5
141
100
AcDbEntity
8
Defpoints
62
0
6
ByLayer
370
-1
48
1
60
0
100
AcDbPoint
10
43
20
15.159119
30
0
39
0
210
0
220
0
230
1
50
360
0
ENDBLK
5
138
100
AcDbEntity
8
0
100
AcDbBlockEnd
0
BLOCK
5
149
100
AcDbEntity
8
0
100
AcDbBlockBegin
2
_U2
70
0
10
0
20
0
30
0
3
_U2
0
MTEXT
5
143
100
AcDbEntity
8
SK2
62
256
6
ByLayer
370
13
48
1
60
0
100
AcDbMText
10
26.532701
20
16.191753
30
0
210
0
220
0
230
1
1
\W0.7317;22,66
40
3.5
41
0
44
1.084337
50
0
71
7
72
5
7
iso_b_vert
0
LINE
5
144
100
AcDbEntity
8
SK2
62
256
6
ByLayer
370
13
48
1
60
0
100
AcDbLine
10
20.34
20
5.1375
30
0
11
20.34
21
17.159119
31
0
39
0
210
0
220
0
230
1
0
LINE
5
145
100
AcDbEntity
8
SK2
62
256
6
ByLayer
370
13
48
1
60
0
100
AcDbLine
10
43
20
1.5875
30
0
11
43
21
17.159119
31
0
39
0
210
0
220
0
230
1
0
LINE
5
146
100
AcDbEntity
8
SK2
62
256
6
ByLayer
370
13
48
1
60
0
100
AcDbLine
10
20.34
20
15.159119
30
0
11
43
21
15.159119
31
0
39
0
210
0
220
0
230
1
0
SOLID
5
147
100
AcDbEntity
8
SK2
62
256
6
ByLayer
370
18
48
1
60
0
100
AcDbTrace
10
20.34
20
15.159119
30
0
11
23.839998
21
15.619903
31
0
12
23.840002
22
14.698335
32
0
13
23.840002
23
14.698335
33
0
39
0
210
0
220
0
230
1
0
SOLID
5
148
100
AcDbEntity
8
SK2
62
256
6
ByLayer
370
18
48
1
60
0
100
AcDbTrace
10
43
20
15.159119
30
0
11
39.500002
21
14.698335
31
0
12
39.499998
22
15.619903
32
0
13
39.499998
23
15.619903
33
0
39
0
210
0
220
0
230
1
0
ENDBLK
5
14A
100
AcDbEntity
8
0
100
AcDbBlockEnd
0
BLOCK
5
14F
100
AcDbEntity
8
0
100
AcDbBlockBegin
2
*D7
70
1
10
0
20
0
30
0
3
*D7
0
LINE
5
151
100
AcDbEntity
8
0
62
256
6
ByLayer
370
-2
48
1
60
0
100
AcDbLine
10
43
20
-1.5875
30
0
11
43
21
-18.352503
31
0
39
0
210
0
220
0
230
1
0
LINE
5
152
100
AcDbEntity
8
0
62
256
6
ByLayer
370
-2
48
1
60
0
100
AcDbLine
10
41.6414
20
-5.1375
30
0
11
41.6414
21
-18.352503
31
0
39
0
210
0
220
0
230
1
0
LINE
5
153
100
AcDbEntity
8
0
62
256
6
ByLayer
370
-2
48
1
60
0
100
AcDbLine
10
43
20
-16.352503
30
0
11
70.666667
21
-16.352503
31
0
39
0
210
0
220
0
230
1
0
LINE
5
154
100
AcDbEntity
8
0
62
256
6
ByLayer
370
-2
48
1
60
0
100
AcDbLine
10
46.5
20
-16.352503
30
0
11
50
21
-16.352503
31
0
39
0
210
0
220
0
230
1
0
LINE
5
155
100
AcDbEntity
8
0
62
256
6
ByLayer
370
-2
48
1
60
0
100
AcDbLine
10
38.1414
20
-16.352503
30
0
11
34.6414
21
-16.352503
31
0
39
0
210
0
220
0
230
1
0
SOLID
5
156
100
AcDbEntity
8
0
62
256
6
ByLayer
370
-1
48
1
60
0
100
AcDbTrace
10
46.5
20
-15.76917
30
0
11
46.5
21
-16.935837
31
0
12
43
22
-16.352503
32
0
13
43
23
-16.352503
33
0
39
0
210
0
220
0
230
1
0
SOLID
5
157
100
AcDbEntity
8
0
62
256
6
ByLayer
370
-1
48
1
60
0
100
AcDbTrace
10
38.1414
20
-16.935837
30
0
11
38.1414
21
-15.76917
31
0
12
41.6414
22
-16.352503
32
0
13
41.6414
23
-16.352503
33
0
39
0
210
0
220
0
230
1
0
MTEXT
5
158
100
AcDbEntity
8
0
62
256
6
ByLayer
370
18
48
1
60
0
100
AcDbMText
10
60.333333
20
-9.352503
30
0
210
0
220
0
230
1
1
\A1;1.36
40
3.5
41
0
44
1
50
0
71
5
72
5
7
iso_b_vert
0
POINT
5
159
100
AcDbEntity
8
Defpoints
62
0
6
ByLayer
370
-1
48
1
60
0
100
AcDbPoint
10
43
20
0
30
0
39
0
210
0
220
0
230
1
50
360
0
POINT
5
15A
100
AcDbEntity
8
Defpoints
62
0
6
ByLayer
370
-1
48
1
60
0
100
AcDbPoint
10
41.6414
20
-3.55
30
0
39
0
210
0
220
0
230
1
50
360
0
POINT
5
15B
100
AcDbEntity
8
Defpoints
62
0
6
ByLayer
370
-1
48
1
60
0
100
AcDbPoint
10
41.6414
20
-16.352503
30
0
39
0
210
0
220
0
230
1
50
360
0
ENDBLK
5
150
100
AcDbEntity
8
0
100
AcDbBlockEnd
0
BLOCK
5
163
100
AcDbEntity
8
0
100
AcDbBlockBegin
2
_U3
70
0
10
0
20
0
30
0
3
_U3
0
MTEXT
5
15D
100
AcDbEntity
8
SK2
62
256
6
ByLayer
370
13
48
1
60
0
100
AcDbMText
10
49.589293
20
-15.31987
30
0
210
0
220
0
230
1
1
\W0.6367;1,36
40
3.5
41
0
44
1.084337
50
0
71
7
72
5
7
iso_b_vert
0
LINE
5
15E
100
AcDbEntity
8
SK2
62
256
6
ByLayer
370
13
48
1
60
0
100
AcDbLine
10
43
20
-1.5875
30
0
11
43
21
-18.352503
31
0
39
0
210
0
220
0
230
1
0
LINE
5
15F
100
AcDbEntity
8
SK2
62
256
6
ByLayer
370
13
48
1
60
0
100
AcDbLine
10
41.6414
20
-5.1375
30
0
11
41.6414
21
-18.352503
31
0
39
0
210
0
220
0
230
1
0
LINE
5
160
100
AcDbEntity
8
SK2
62
256
6
ByLayer
370
13
48
1
60
0
100
AcDbLine
10
32.8914
20
-16.352503
30
0
11
56.559058
21
-16.352503
31
0
39
0
210
0
220
0
230
1
0
SOLID
5
161
100
AcDbEntity
8
SK2
62
256
6
ByLayer
370
18
48
1
60
0
100
AcDbTrace
10
43
20
-16.352503
30
0
11
46.499998
21
-15.891719
31
0
12
46.500002
22
-16.813287
32
0
13
46.500002
23
-16.813287
33
0
39
0
210
0
220
0
230
1
0
SOLID
5
162
100
AcDbEntity
8
SK2
62
256
6
ByLayer
370
18
48
1
60
0
100
AcDbTrace
10
41.6414
20
-16.352503
30
0
11
38.141402
21
-16.813287
31
0
12
38.141398
22
-15.891719
32
0
13
38.141398
23
-15.891719
33
0
39
0
210
0
220
0
230
1
0
ENDBLK
5
164
100
AcDbEntity
8
0
100
AcDbBlockEnd
0
BLOCK
5
169
100
AcDbEntity
8
0
100
AcDbBlockBegin
2
*D9
70
1
10
0
20
0
30
0
3
*D9
0
LINE
5
16B
100
AcDbEntity
8
0
62
256
6
ByLayer
370
-2
48
1
60
0
100
AcDbLine
10
-36
20
-5.5875
30
0
11
-36
21
-24.343428
31
0
39
0
210
0
220
0
230
1
0
LINE
5
16C
100
AcDbEntity
8
0
62
256
6
ByLayer
370
-2
48
1
60
0
100
AcDbLine
10
41.6414
20
-5.1375
30
0
11
41.6414
21
-24.343428
31
0
39
0
210
0
220
0
230
1
0
LINE
5
16D
100
AcDbEntity
8
0
62
256
6
ByLayer
370
-2
48
1
60
0
100
AcDbLine
10
-32.5
20
-22.343428
30
0
11
38.1414
21
-22.343428
31
0
39
0
210
0
220
0
230
1
0
SOLID
5
16E
100
AcDbEntity
8
0
62
256
6
ByLayer
370
-1
48
1
60
0
100
AcDbTrace
10
-32.5
20
-21.760095
30
0
11
-32.5
21
-22.926762
31
0
12
-36
22
-22.343428
32
0
13
-36
23
-22.343428
33
0
39
0
210
0
220
0
230
1
0
SOLID
5
16F
100
AcDbEntity
8
0
62
256
6
ByLayer
370
-1
48
1
60
0
100
AcDbTrace
10
38.1414
20
-22.926762
30
0
11
38.1414
21
-21.760095
31
0
12
41.6414
22
-22.343428
32
0
13
41.6414
23
-22.343428
33
0
39
0
210
0
220
0
230
1
0
MTEXT
5
170
100
AcDbEntity
8
0
62
256
6
ByLayer
370
18
48
1
60
0
100
AcDbMText
10
2.8207
20
-15.343428
30
0
210
0
220
0
230
1
1
\A1;77.64
40
3.5
41
0
44
1
50
0
71
5
72
5
7
iso_b_vert
0
POINT
5
171
100
AcDbEntity
8
Defpoints
62
0
6
ByLayer
370
-1
48
1
60
0
100
AcDbPoint
10
-36
20
-4
30
0
39
0
210
0
220
0
230
1
50
360
0
POINT
5
172
100
AcDbEntity
8
Defpoints
62
0
6
ByLayer
370
-1
48
1
60
0
100
AcDbPoint
10
41.6414
20
-3.55
30
0
39
0
210
0
220
0
230
1
50
360
0
POINT
5
173
100
AcDbEntity
8
Defpoints
62
0
6
ByLayer
370
-1
48
1
60
0
100
AcDbPoint
10
41.6414
20
-22.343428
30
0
39
0
210
0
220
0
230
1
50
360
0
ENDBLK
5
16A
100
AcDbEntity
8
0
100
AcDbBlockEnd
0
BLOCK
5
17B
100
AcDbEntity
8
0
100
AcDbBlockBegin
2
_U4
70
0
10
0
20
0
30
0
3
_U4
0
MTEXT
5
175
100
AcDbEntity
8
SK2
62
256
6
ByLayer
370
13
48
1
60
0
100
AcDbMText
10
-2.500865
20
-21.310795
30
0
210
0
220
0
230
1
1
\W0.7495;77,64
40
3.5
41
0
44
1.084337
50
0
71
7
72
5
7
iso_b_vert
0
LINE
5
176
100
AcDbEntity
8
SK2
62
256
6
ByLayer
370
13
48
1
60
0
100
AcDbLine
10
-36
20
-5.5875
30
0
11
-36
21
-24.343428
31
0
39
0
210
0
220
0
230
1
0
LINE
5
177
100
AcDbEntity
8
SK2
62
256
6
ByLayer
370
13
48
1
60
0
100
AcDbLine
10
41.6414
20
-5.1375
30
0
11
41.6414
21
-24.343428
31
0
39
0
210
0
220
0
230
1
0
LINE
5
178
100
AcDbEntity
8
SK2
62
256
6
ByLayer
370
13
48
1
60
0
100
AcDbLine
10
-36
20
-22.343428
30
0
11
41.6414
21
-22.343428
31
0
39
0
210
0
220
0
230
1
0
SOLID
5
179
100
AcDbEntity
8
SK2
62
256
6
ByLayer
370
18
48
1
60
0
100
AcDbTrace
10
-36
20
-22.343428
30
0
11
-32.500002
21
-21.882645
31
0
12
-32.499998
22
-22.804212
32
0
13
-32.499998
23
-22.804212
33
0
39
0
210
0
220
0
230
1
0
SOLID
5
17A
100
AcDbEntity
8
SK2
62
256
6
ByLayer
370
18
48
1
60
0
100
AcDbTrace
10
41.6414
20
-22.343428
30
0
11
38.141402
21
-22.804212
31
0
12
38.141398
22
-21.882645
32
0
13
38.141398
23
-21.882645
33
0
39
0
210
0
220
0
230
1
0
ENDBLK
5
17C
100
AcDbEntity
8
0
100
AcDbBlockEnd
0
ENDSEC
0
SECTION
2
ENTITIES
0
ARC
5
A6
100
AcDbEntity
8
1
62
256
6
ByLayer
370
18
48
1
60
0
100
AcDbCircle
39
0
10
1.226406
20
-4.327254
30
0
40
0.850000000000002
210
0
220
0
230
1
100
AcDbArc
50
89.896868
51
136.171462
0
ARC
5
A7
100
AcDbEntity
8
1
62
256
6
ByLayer
370
18
48
1
60
0
100
AcDbCircle
39
0
10
1.226406
20
4.327254
30
0
40
0.850000000000002
210
0
220
0
230
1
100
AcDbArc
50
223.828538
51
270.103132
0
ARC
5
A8
100
AcDbEntity
8
1
62
256
6
ByLayer
370
18
48
1
60
0
100
AcDbCircle
39
0
10
0
20
-3.15
30
0
40
0.850000000000002
210
0
220
0
230
1
100
AcDbArc
50
270
51
316.171462
0
ARC
5
A9
100
AcDbEntity
8
1
62
256
6
ByLayer
370
18
48
1
60
0
100
AcDbCircle
39
0
10
0
20
3.15
30
0
40
0.850000000000002
210
0
220
0
230
1
100
AcDbArc
50
43.828538
51
90
0
ELLIPSE
5
AA
100
AcDbEntity
8
1
62
256
6
ByLayer
370
13
48
1
60
0
100
AcDbEllipse
10
4.815101
20
2.987805
30
0
11
0.0890756920358962
21
0.286470803203967
31
0
210
0
220
0
230
1
40
0.381785
41
-3.11128350719719
42
-2.45423634232199
0
ELLIPSE
5
AB
100
AcDbEntity
8
1
62
256
6
ByLayer
370
13
48
1
60
0
100
AcDbEllipse
10
87.194174
20
42.329751
30
0
11
-61
21
7.4700987583165E-15
31
0
210
0
220
0
230
1
40
0.99863
41
0.740581477186954
42
0.756823412704309
0
ELLIPSE
5
AC
100
AcDbEntity
8
1
62
256
6
ByLayer
370
13
48
1
60
0
100
AcDbEllipse
10
10.528813
20
-62.348201
30
0
11
-51.217711563209
21
54.0492780303814
31
0
210
0
220
0
230
1
40
0.69781
41
-0.936063917398783
42
-0.831638985339071
0
ELLIPSE
5
AD
100
AcDbEntity
8
1
62
256
6
ByLayer
370
18
48
1
60
0
100
AcDbEllipse
10
4.813827
20
-4.388127
30
0
11
1
21
0
31
0
210
0
220
0
230
1
40
1
41
1.57131686939971
42
2.00572578329063
0
ELLIPSE
5
AE
100
AcDbEntity
8
1
62
256
6
ByLayer
370
18
48
1
60
0
100
AcDbEllipse
10
4.813827
20
4.388127
30
0
11
1
21
0
31
0
210
0
220
0
230
1
40
1
41
-2.00567304162535
42
-1.56766299957489
0
POINT
5
70
100
AcDbEntity
8
80
62
256
6
ByLayer
370
18
48
1
60
0
100
AcDbPoint
10
0
20
0
30
0
39
0
210
0
220
0
230
1
50
360
0
POINT
5
72
100
AcDbEntity
8
81
62
256
6
ByLayer
370
18
48
1
60
0
100
AcDbPoint
10
43
20
0
30
0
39
0
210
0
220
0
230
1
50
360
0
POINT
5
74
100
AcDbEntity
8
1
62
256
6
ByLayer
370
18
48
1
60
1
100
AcDbPoint
10
41.6414
20
-3.55
30
0
39
0
210
0
220
0
230
1
50
360
0
POINT
5
76
100
AcDbEntity
8
1
62
256
6
ByLayer
370
18
48
1
60
1
100
AcDbPoint
10
-36
20
-4
30
0
39
0
210
0
220
0
230
1
50
360
0
POINT
5
77
100
AcDbEntity
8
1
62
256
6
ByLayer
370
18
48
1
60
1
100
AcDbPoint
10
20.34
20
3.55
30
0
39
0
210
0
220
0
230
1
50
360
0
POINT
5
78
100
AcDbEntity
8
1
62
256
6
ByLayer
370
18
48
1
60
1
100
AcDbPoint
10
41.6414
20
-3.55
30
0
39
0
210
0
220
0
230
1
50
360
0
POINT
5
79
100
AcDbEntity
8
1
62
256
6
ByLayer
370
18
48
1
60
1
100
AcDbPoint
10
-36
20
-4
30
0
39
0
210
0
220
0
230
1
50
360
0
POINT
5
7A
100
AcDbEntity
8
1
62
256
6
ByLayer
370
18
48
1
60
1
100
AcDbPoint
10
41.6414
20
-3.55
30
0
39
0
210
0
220
0
230
1
50
360
0
SPLINE
5
AF
100
AcDbEntity
8
1
62
256
6
ByLayer
370
13
48
1
60
0
100
AcDbSpline
70
4
71
3
72
17
73
13
40
0
40
0
40
0
40
0
40
0.181183346054278
40
0.232359386925885
40
0.283535427797493
40
0.385887509540708
40
0.437063550412316
40
0.488239591283923
40
0.59059167302714
40
0.641767713898747
40
0.79529583651357
40
1
40
1
40
1
40
1
41
1
10
12.8950902183926
20
-1.40473101601319
30
0
41
1
10
12.7521878682444
20
-1.41681590757901
30
0
41
1
10
12.5689029341653
20
-1.43119263643499
30
0
41
1
10
12.3452274645757
20
-1.44694006495641
30
0
41
1
10
12.1837778324672
20
-1.45763840474993
30
0
41
1
10
12.0223188429698
20
-1.46746507292264
30
0
41
1
10
11.8608517409085
20
-1.47641884445241
30
0
41
1
10
11.6994025245559
20
-1.48471972108405
30
0
41
1
10
11.5379439095594
20
-1.49213847821076
30
0
41
1
10
11.295773478491
20
-1.50186316222647
30
0
41
1
10
10.9729140040128
20
-1.51225218233645
30
0
41
1
10
10.6903092629365
20
-1.5178904394007
30
0
41
1
10
10.5288133470142
20
-1.51992037298771
30
0
0
SPLINE
5
B0
100
AcDbEntity
8
1
62
256
6
ByLayer
370
13
48
1
60
0
100
AcDbSpline
70
4
71
3
72
24
73
20
40
0
40
0
40
0
40
0
40
0.0250533010998511
40
0.0697138811438873
40
0.114374461187917
40
0.203695621275995
40
0.248356201320035
40
0.293016781364065
40
0.382337941452138
40
0.426998521496167
40
0.471659101540212
40
0.560980261628282
40
0.605640841672314
40
0.650301421716344
40
0.739622581804425
40
0.784283161848459
40
0.828943741892491
40
0.918264901980569
40
1
40
1
40
1
40
1
41
1.00000000000001
10
42.2595301995953
20
1.52126951837175
30
0
41
1.00000000000001
10
42.2368872307833
20
1.5212395679999
30
0
41
1.00000000000001
10
42.1738810266074
20
1.52109076236387
30
0
41
1.00000000000001
10
42.0705141195035
20
1.5205474075671
30
0
41
1.00000000000001
10
41.9090467798504
20
1.51901441461839
30
0
41
1.00000000000001
10
41.7475889217292
20
1.51658602206225
30
0
41
1.00000000000001
10
41.5861392286443
20
1.51325953124759
30
0
41
1.00000000000001
10
41.4246717058393
20
1.50925840700088
30
0
41
1.00000000000001
10
41.2632136318966
20
1.5043636607275
30
0
41
1.00000000000001
10
41.1017637869405
20
1.4985738204408
30
0
41
1.00000000000001
10
40.9402962317943
20
1.49212129474872
30
0
41
1.00000000000001
10
40.7788382949659
20
1.48477967025541
30
0
41
1.00000000000001
10
40.6173887276099
20
1.47654859878642
30
0
41
1.00000000000001
10
40.455921470137
20
1.46767015905566
30
0
41
1.00000000000001
10
40.2944638471046
20
1.45791352984585
30
0
41
1.00000000000001
10
40.1330144259119
20
1.44728321823037
30
0
41
1.00000000000001
10
39.9715469725888
20
1.43602650871167
30
0
41
1.00000000000001
10
39.7765686290735
20
1.42137315465867
30
0
41
1.00000000000001
10
39.6219647871564
20
1.40870586168864
30
0
41
1.00000000000001
10
39.5480879007006
20
1.40240996500565
30
0
0
SPLINE
5
B1
100
AcDbEntity
8
1
62
256
6
ByLayer
370
18
48
1
60
0
100
AcDbSpline
70
4
71
3
72
8
73
4
40
0
40
0
40
0
40
0
40
1
40
1
40
1
40
1
41
1
10
41.7437557189352
20
-3.51798159277129
30
0
41
1
10
41.9036737719333
20
-3.12339406890783
30
0
41
1
10
42.067553542188
20
-2.71489673775409
30
0
41
1
10
42.2288339485282
20
-2.28808030990064
30
0
0
SPLINE
5
B2
100
AcDbEntity
8
1
62
256
6
ByLayer
370
18
48
1
60
0
100
AcDbSpline
70
4
71
3
72
12
73
8
40
0
40
0
40
0
40
0
40
0.0865383711480619
40
0.0865383711480619
40
0.899209552592874
40
0.899209552592874
40
1
40
1
40
1
40
1
41
1
10
22.2126111318888
20
-3.41895043647284
30
0
41
1
10
22.1715414425445
20
-3.41885209845464
30
0
41
1
10
22.1304782370738
20
-3.41857212818189
30
0
41
1
10
21.7038746913514
20
-3.4137680572567
30
0
41
1
10
21.3184897824772
20
-3.39324959505058
30
0
41
1
10
20.8841860193217
20
-3.35250042825413
30
0
41
1
10
20.836297859673
20
-3.34776886391191
30
0
41
1
10
20.7884403522555
20
-3.34280358348056
30
0
0
SPLINE
5
B3
100
AcDbEntity
8
1
62
256
6
ByLayer
370
13
48
1
60
0
100
AcDbSpline
70
4
71
3
72
30
73
26
40
0
40
0
40
0
40
0
40
0.135195989209008
40
0.135195989209008
40
0.27932999100751
40
0.27932999100751
40
0.315363491457134
40
0.315363491457134
40
0.351396991906759
40
0.351396991906759
40
0.423463992806009
40
0.423463992806009
40
0.567597994604508
40
0.567597994604508
40
0.603631495054133
40
0.603631495054133
40
0.639664995503758
40
0.639664995503758
40
0.711731996403006
40
0.711731996403006
40
0.855865998201503
40
0.855865998201503
40
0.927932999100751
40
0.927932999100751
40
1
40
1
40
1
40
1
41
1
10
20.7884403525134
20
-3.34280358350739
30
0
41
1
10
20.0645497806438
20
-3.26769896807173
30
0
41
1
10
19.3476722724482
20
-3.13912138337412
30
0
41
1
10
17.8679045996826
20
-2.77460901534033
30
0
41
1
10
17.1050488224883
20
-2.53294821641165
30
0
41
1
10
16.1421490635214
20
-2.17533005802545
30
0
41
1
10
15.9487470126514
20
-2.10087319636935
30
0
41
1
10
15.5628375042482
20
-1.9475251815154
30
0
41
1
10
15.3703965159284
20
-1.86868838027269
30
0
41
1
10
14.7940745199528
20
-1.62678541505562
30
0
41
1
10
14.4113870235493
20
-1.45803464968716
30
0
41
1
10
13.2648730758072
20
-0.935154971311277
30
0
41
1
10
12.5025628014259
20
-0.5641432928916
30
0
41
1
10
11.5421699580798
20
-0.0929768242279181
30
0
41
1
10
11.3497130310332
20
0.0016276728570688
30
0
41
1
10
10.96374959617
20
0.19101358955885
30
0
41
1
10
10.7701064248533
20
0.285835828734236
30
0
41
1
10
10.1916994594946
20
0.567782779098422
30
0
41
1
10
9.80804855072262
20
0.753257861503471
30
0
41
1
10
8.65940910140543
20
1.29468344373996
30
0
41
1
10
7.89698282561505
20
1.63607431910657
30
0
41
1
10
6.74653061909626
20
2.09697696738988
30
0
41
1
10
6.36191017971402
20
2.24206448403174
30
0
41
1
10
5.58819562188754
20
2.511103697386
30
0
41
1
10
5.20183623570998
20
2.63450830467886
30
0
41
1
10
4.81564667349599
20
2.74480692828365
30
0
0
SPLINE
5
B4
100
AcDbEntity
8
1
62
256
6
ByLayer
370
18
48
1
60
0
100
AcDbSpline
70
4
71
3
72
10
73
6
40
0
40
0
40
0
40
0
40
0.5
40
0.5
40
1
40
1
40
1
40
1
41
1
10
42.259530199466
20
1.52126951837229
30
0
41
1
10
42.2298817024196
20
1.64963404529124
30
0
41
1
10
42.2181321866085
20
1.77758800328311
30
0
41
1
10
42.2119021703567
20
2.03309980056838
30
0
41
1
10
42.2177950718292
20
2.16064907472568
30
0
41
1
10
42.2288339485282
20
2.28808030990058
30
0
0
SPLINE
5
B5
100
AcDbEntity
8
1
62
256
6
ByLayer
370
18
48
1
60
0
100
AcDbSpline
70
4
71
3
72
20
73
16
40
0
40
0
40
0
40
0
40
0.125
40
0.125
40
0.250000000000001
40
0.250000000000001
40
0.375000000000001
40
0.375000000000001
40
0.500000000000001
40
0.500000000000001
40
0.625000000000001
40
0.625000000000001
40
0.750000000000002
40
0.750000000000002
40
1
40
1
40
1
40
1
41
1
10
42.4183654493274
20
-0.939117514609194
30
0
41
1
10
42.3713055307047
20
-0.950357658751244
30
0
41
1
10
42.3262976898411
20
-0.948525390462976
30
0
41
1
10
42.23968505895
20
-0.923182297184383
30
0
41
1
10
42.1977229327492
20
-0.899174246208247
30
0
41
1
10
42.1198317749197
20
-0.83371577358335
30
0
41
1
10
42.0836004974816
20
-0.792367070196207
30
0
41
1
10
42.0158134745036
20
-0.694822162658937
30
0
41
1
10
41.9847085644727
20
-0.639154452636916
30
0
41
1
10
41.9281733725526
20
-0.518006924851221
30
0
41
1
10
41.9025646425967
20
-0.452237873500252
30
0
41
1
10
41.8561282747749
20
-0.311357762689312
30
0
41
1
10
41.8352186554878
20
-0.235760056661064
30
0
41
1
10
41.7805707685637
20
-0.0009503944850451
30
0
41
1
10
41.7542885272934
20
0.167021560061784
30
0
41
1
10
41.7372060426305
20
0.345355736534884
30
0
0
SPLINE
5
B6
100
AcDbEntity
8
1
62
256
6
ByLayer
370
13
48
1
60
0
100
AcDbSpline
70
4
71
3
72
16
73
12
40
0
40
0
40
0
40
0
40
0.297538449512104
40
0.297538449512104
40
0.446307674268156
40
0.446307674268156
40
0.595076899024208
40
0.595076899024208
40
0.892615348536311
40
0.892615348536311
40
1
40
1
40
1
40
1
41
1
10
4.81564667349613
20
2.7448069282836
30
0
41
1
10
4.81558705442683
20
2.86921825866398
30
0
41
1
10
4.81552754425178
20
2.97619220969463
30
0
41
1
10
4.81544154227737
20
3.11092236089831
30
0
41
1
10
4.81541329678001
20
3.15165658231391
30
0
41
1
10
4.81535918606181
20
3.22319574740811
30
0
41
1
10
4.81533326851496
20
3.25411622278261
30
0
41
1
10
4.81525937926995
20
3.33268132898425
30
0
41
1
10
4.81521527575873
20
3.36625246648421
30
0
41
1
10
4.81516373441085
20
3.38558991182177
30
0
41
1
10
4.81515091436515
20
3.3881384149777
30
0
41
1
10
4.81513906489218
20
3.38812321584854
30
0
0
SPLINE
5
B7
100
AcDbEntity
8
1
62
256
6
ByLayer
370
18
48
1
60
0
100
AcDbSpline
70
4
71
3
72
22
73
18
40
0
40
0
40
0
40
0
40
0.214570537791643
40
0.214570537791643
40
0.429141075583287
40
0.429141075583287
40
0.536426344479107
40
0.536426344479107
40
0.590068978927018
40
0.590068978927018
40
0.643711613374928
40
0.643711613374928
40
0.750996882270751
40
0.750996882270751
40
0.858282151166573
40
0.858282151166573
40
1
40
1
40
1
40
1
41
1
10
12.3445021723728
20
-1.14375742807584
30
0
41
1
10
12.9630240427664
20
-1.44067529028013
30
0
41
1
10
13.576681245458
20
-1.71847989783359
30
0
41
1
10
14.7983523053094
20
-2.23062276067333
30
0
41
1
10
15.4077861632001
20
-2.46234599085108
30
0
41
1
10
16.325544280836
20
-2.76487137155093
30
0
41
1
10
16.6319090050916
20
-2.85838359477833
30
0
41
1
10
17.0934278401728
20
-2.98584462065469
30
0
41
1
10
17.2474041903336
20
-3.02641484368522
30
0
41
1
10
17.5562524851398
20
-3.10297107688135
30
0
41
1
10
17.7110750678085
20
-3.13894427879581
30
0
41
1
10
18.1737684880274
20
-3.23942105030562
30
0
41
1
10
18.4807517265561
20
-3.29682961511904
30
0
41
1
10
19.0931652458436
20
-3.39176363108328
30
0
41
1
10
19.3983081826804
20
-3.42942672771306
30
0
41
1
10
20.1067349876873
20
-3.49310204748448
30
0
41
1
10
20.5093786158173
20
-3.51182073801314
30
0
41
1
10
20.9127157964883
20
-3.51268015789381
30
0
0
SPLINE
5
B8
100
AcDbEntity
8
1
62
256
6
ByLayer
370
18
48
1
60
0
100
AcDbSpline
70
4
71
3
72
16
73
12
40
0
40
0
40
0
40
0
40
0.0295019095073532
40
0.0295019095073532
40
0.223601527605881
40
0.223601527605881
40
0.417701145704409
40
0.417701145704409
40
0.611800763802936
40
0.611800763802936
40
1
40
1
40
1
40
1
41
1
10
37.0062117422012
20
2.41941378633487
30
0
41
1
10
37.0526179788531
20
2.43680171174688
30
0
41
1
10
37.0990398370117
20
2.45403483450812
30
0
41
1
10
37.4510134547389
20
2.58345236615102
30
0
41
1
10
37.757129956763
20
2.68918705390615
30
0
41
1
10
38.3726621840125
20
2.88427133376319
30
0
41
1
10
38.6819528709584
20
2.97402127342721
30
0
41
1
10
39.2963730722878
20
3.13478130377118
30
0
41
1
10
39.6025247537069
20
3.20599232640294
30
0
41
1
10
40.5203780026569
20
3.39027096009912
30
0
41
1
10
41.1306276029432
20
3.47468960266386
30
0
41
1
10
41.7437557189352
20
3.51798159277129
30
0
0
SPLINE
5
B9
100
AcDbEntity
8
1
62
256
6
ByLayer
370
18
48
1
60
0
100
AcDbSpline
70
4
71
3
72
8
73
4
40
0
40
0
40
0
40
0
40
1
40
1
40
1
40
1
41
1
10
42.8459069078356
20
0.503607680225542
30
0
41
1
10
42.6383286293502
20
1.09778058175857
30
0
41
1
10
42.4326335008272
20
1.69260336220748
30
0
41
1
10
42.2288339485282
20
2.28808030990058
30
0
0
SPLINE
5
BA
100
AcDbEntity
8
1
62
256
6
ByLayer
370
18
48
1
60
0
100
AcDbSpline
70
4
71
3
72
8
73
4
40
0
40
0
40
0
40
0
40
1
40
1
40
1
40
1
41
1
10
41.3839190813007
20
0.524569699532577
30
0
41
1
10
41.5010190457087
20
0.461742952161558
30
0
41
1
10
41.6187648420429
20
0.401927907746483
30
0
41
1
10
41.7372060426301
20
0.34535573653173
30
0
0
SPLINE
5
BB
100
AcDbEntity
8
1
62
256
6
ByLayer
370
18
48
1
60
0
100
AcDbSpline
70
4
71
3
72
8
73
4
40
0
40
0
40
0
40
0
40
1
40
1
40
1
40
1
41
1
10
42.9997798385359
20
0.074579580841089
30
0
41
1
10
42.9474442384904
20
0.216662051303189
30
0
41
1
10
42.8961904196974
20
0.35967595307082
30
0
41
1
10
42.8459069078305
20
0.503607680240094
30
0
0
SPLINE
5
BC
100
AcDbEntity
8
1
62
256
6
ByLayer
370
18
48
1
60
0
100
AcDbSpline
70
4
71
3
72
12
73
8
40
0
40
0
40
0
40
0
40
0.25
40
0.25
40
0.499999999999999
40
0.499999999999999
40
1
40
1
40
1
40
1
41
1
10
41.695576506135
20
-3.39071263313227
30
0
41
1
10
41.6946160078312
20
-3.37498661367766
30
0
41
1
10
41.6925471404591
20
-3.36036424941992
30
0
41
1
10
41.6868000998327
20
-3.33409100387814
30
0
41
1
10
41.683143079581
20
-3.32238162533795
30
0
41
1
10
41.6703390961586
20
-3.29059239017329
30
0
41
1
10
41.6593346797453
20
-3.27387231506177
30
0
41
1
10
41.6468667271956
20
-3.26100972253161
30
0
0
SPLINE
5
BD
100
AcDbEntity
8
1
62
256
6
ByLayer
370
18
48
1
60
0
100
AcDbSpline
70
4
71
3
72
17
73
13
40
0
40
0
40
0
40
0
40
0.0173865837208591
40
0.0173865837208591
40
0.181155486434049
40
0.181155486434049
40
0.344924389147239
40
0.50869329186043
40
0.50869329186043
40
0.67246219457362
40
0.67246219457362
40
1
40
1
40
1
40
1
41
1
10
4.38880441213306
20
3.4829452559957
30
0
41
1
10
4.3888029008362
20
3.48293310242266
30
0
41
1
10
4.38880140844628
20
3.48286109096156
30
0
41
1
10
4.38878603849454
20
3.48148603621547
30
0
41
1
10
4.38877368570559
20
3.47484633221612
30
0
41
1
10
4.38874860021321
20
3.45119773919956
30
0
41
1
10
4.38872302119614
20
3.41717708405415
30
0
41
1
10
4.38868834555942
20
3.36265663588742
30
0
41
1
10
4.38864466508011
20
3.29772766538372
30
0
41
1
10
4.38861815083601
20
3.25983674131078
30
0
41
1
10
4.38851898896803
20
3.13171130935882
30
0
41
1
10
4.3884271951062
20
3.02759228490478
30
0
41
1
10
4.38829268406866
20
2.90491158035729
30
0
0
SPLINE
5
BE
100
AcDbEntity
8
1
62
256
6
ByLayer
370
18
48
1
60
0
100
AcDbSpline
70
4
71
3
72
12
73
8
40
0
40
0
40
0
40
0
40
0.5
40
0.5
40
0.75
40
0.75
40
1
40
1
40
1
40
1
41
1
10
4.81509939804269
20
-2.19998935461143
30
0
41
1
10
4.75204616694964
20
-2.15435804369653
30
0
41
1
10
4.68633314185411
20
-2.11411636348618
30
0
41
1
10
4.57956188542431
20
-2.07025558833507
30
0
41
1
10
4.54301187976841
20
-2.05870767432944
30
0
41
1
10
4.46800265738972
20
-2.04471694305494
30
0
41
1
10
4.4288826495652
20
-2.04235653763905
30
0
41
1
10
4.3903773316228
20
-2.04638776217672
30
0
0
SPLINE
5
BF
100
AcDbEntity
8
1
62
256
6
ByLayer
370
18
48
1
60
0
100
AcDbSpline
70
4
71
3
72
8
73
4
40
0
40
0
40
0
40
0
40
1
40
1
40
1
40
1
41
1
10
42.9997798385359
20
-0.074579580841089
30
0
41
1
10
42.9473746859932
20
-0.216850874792897
30
0
41
1
10
42.8961229117451
20
-0.359869188105733
30
0
41
1
10
42.8459069078304
20
-0.503607680240378
30
0
0
SPLINE
5
C0
100
AcDbEntity
8
1
62
256
6
ByLayer
370
13
48
1
60
0
100
AcDbSpline
70
4
71
3
72
80
73
76
40
0
40
0
40
0
40
0
40
0.0086646784281067
40
0.0264774266090546
40
0.0442901747900015
40
0.0621029229709493
40
0.0977284193328436
40
0.106634793423317
40
0.115541167513791
40
0.133353915694738
40
0.142260289785212
40
0.151166663875685
40
0.168979412056633
40
0.177885786147106
40
0.18679216023758
40
0.204604908418527
40
0.213511282509001
40
0.222417656599474
40
0.240230404780422
40
0.249136778870895
40
0.258043152961369
40
0.275855901142316
40
0.28476227523279
40
0.293668649323263
40
0.311481397504211
40
0.320387771594685
40
0.329294145685159
40
0.347106893866105
40
0.356013267956579
40
0.364919642047053
40
0.382732390228
40
0.400545138408947
40
0.418357886589894
40
0.453983382951789
40
0.462889757042262
40
0.471796131132736
40
0.489608879313684
40
0.498515253404157
40
0.507421627494632
40
0.525234375675578
40
0.543047123856526
40
0.560859872037472
40
0.596485368399367
40
0.605391742489841
40
0.614298116580314
40
0.632110864761261
40
0.641017238851735
40
0.649923612942209
40
0.667736361123156
40
0.67664273521363
40
0.685549109304104
40
0.70336185748505
40
0.712268231575524
40
0.721174605665998
40
0.738987353846945
40
0.747893727937418
40
0.756800102027893
40
0.774612850208839
40
0.783519224299313
40
0.792425598389787
40
0.810238346570734
40
0.819144720661208
40
0.828051094751681
40
0.845863842932629
40
0.854770217023102
40
0.863676591113576
40
0.881489339294523
40
0.89930208747547
40
0.917114835656417
40
0.952740332018312
40
0.961646706108786
40
0.970553080199259
40
0.988365828380206
40
0.99727220247068
40
1
40
1
40
1
40
1
41
1.00000000000001
10
31.410976351235
20
0.0038507323792203
30
0
41
1.00000000000001
10
31.3717069566958
20
0.0124796515789
30
0
41
1.00000000000001
10
31.2517016615727
20
0.03881448204757
30
0
41
1.00000000000001
10
31.0509618674076
20
0.0828424661905554
30
0
41
1.00000000000001
10
30.8087720054058
20
0.135936630545586
30
0
41
1.00000000000001
10
30.4858176150184
20
0.20630378325012
30
0
41
1.00000000000001
10
30.2032841303794
20
0.26772311758691
30
0
41
1.00000000000001
10
29.9611395926108
20
0.320076431929577
30
0
41
1.00000000000001
10
29.7996724063326
20
0.354642465088799
30
0
41
1.00000000000001
10
29.6382144054972
20
0.389047683794812
30
0
41
1.00000000000001
10
29.4767644881027
20
0.423264196300207
30
0
41
1.00000000000001
10
29.3152968591206
20
0.457199858997197
30
0
41
1.00000000000001
10
29.1538388227526
20
0.490914222860735
30
0
41
1.00000000000001
10
28.9923891301921
20
0.52438005123926
30
0
41
1.00000000000001
10
28.8309217324427
20
0.55752185080905
30
0
41
1.00000000000001
10
28.6694639438216
20
0.590382484115875
30
0
41
1.00000000000001
10
28.5080144138641
20
0.622934095077678
30
0
41
1.00000000000001
10
28.3465470640126
20
0.655119195406737
30
0
41
1.00000000000001
10
28.1850891681094
20
0.68696393579938
30
0
41
1.00000000000001
10
28.0236394266344
20
0.718441158296084
30
0
41
1.00000000000001
10
27.8621718683025
20
0.749511430955774
30
0
41
1.00000000000001
10
27.7007137761075
20
0.780184202525699
30
0
41
1.00000000000001
10
27.5392639343652
20
0.810433145643596
30
0
41
1.00000000000001
10
27.3777963948848
20
0.840236913101701
30
0
41
1.00000000000001
10
27.2163384904649
20
0.869588255006046
30
0
41
1.00000000000001
10
27.0548889515976
20
0.898461743330268
30
0
41
1.00000000000001
10
26.8934216977059
20
0.926854070268741
30
0
41
1.00000000000001
10
26.7319640446281
20
0.954741101105407
30
0
41
1.00000000000001
10
26.5705145691161
20
0.982097983939491
30
0
41
1.00000000000001
10
26.4090470633743
20
1.00893978740148
30
0
41
1.00000000000001
10
26.2072119021454
20
1.04172618881855
30
0
41
1.00000000000001
10
25.9650219701145
20
1.07988132743309
30
0
41
1.00000000000001
10
25.642067391036
20
1.12876686460586
30
0
41
1.00000000000001
10
25.3595337269109
20
1.16944432071747
30
0
41
1.00000000000001
10
25.1173892306347
20
1.20265769414589
30
0
41
1.00000000000001
10
24.9559221569132
20
1.22408674167982
30
0
41
1.00000000000001
10
24.7944643765964
20
1.24482462638041
30
0
41
1.00000000000001
10
24.6330146670592
20
1.26485193916306
30
0
41
1.00000000000001
10
24.4715470312663
20
1.28425529448105
30
0
41
1.00000000000001
10
24.2697118566667
20
1.30753219632117
30
0
41
1.00000000000001
10
24.0275220341282
20
1.33394523510881
30
0
41
1.00000000000001
10
23.7045675898713
20
1.36678330157829
30
0
41
1.00000000000001
10
23.4220340192098
20
1.39287907638455
30
0
41
1.00000000000001
10
23.1798894871673
20
1.41324130725666
30
0
41
1.00000000000001
10
23.0184223090168
20
1.42604104864295
30
0
41
1.00000000000001
10
22.8569643156187
20
1.43801913291767
30
0
41
1.00000000000001
10
22.6955144054287
20
1.44916265981211
30
0
41
1.00000000000001
10
22.5340467993381
20
1.45962266368942
30
0
41
1.00000000000001
10
22.3725887882141
20
1.4692390365626
30
0
41
1.00000000000001
10
22.2111390826857
20
1.47799995940351
30
0
41
1.00000000000001
10
22.0496716426577
20
1.48607073315789
30
0
41
1.00000000000001
10
21.8882137848863
20
1.49327886756884
30
0
41
1.00000000000001
10
21.726764187376
20
1.49961374857886
30
0
41
1.00000000000001
10
21.5652967815631
20
1.50525441096129
30
0
41
1.00000000000001
10
21.4038388623207
20
1.510016419798
30
0
41
1.00000000000001
10
21.2423891630922
20
1.513890352357
30
0
41
1.00000000000001
10
21.0809216824665
20
1.51706935504804
30
0
41
1.00000000000001
10
20.9194637036894
20
1.51935925265885
30
0
41
1.00000000000001
10
20.758013975313
20
1.52075448398724
30
0
41
1.00000000000001
10
20.5965465349768
20
1.52145915711005
30
0
41
1.00000000000001
10
20.4350886914411
20
1.52126976513704
30
0
41
1.00000000000001
10
20.2736391420246
20
1.52018190630087
30
0
41
1.00000000000001
10
20.112171845833
20
1.51841022429209
30
0
41
1.00000000000001
10
19.9507141221617
20
1.51574235010462
30
0
41
1.00000000000001
10
19.7892645789547
20
1.51217506919678
30
0
41
1.00000000000001
10
19.6277970048276
20
1.50793292670047
30
0
41
1.00000000000001
10
19.4259617767877
20
1.50147611995384
30
0
41
1.00000000000001
10
19.1837718836235
20
1.49192378247945
30
0
41
1.00000000000001
10
18.8608174713873
20
1.47666234228321
30
0
41
1.00000000000001
10
18.5782839845362
20
1.46026493956312
30
0
41
1.00000000000001
10
18.3361395097276
20
1.44403842819306
30
0
41
1.00000000000001
10
18.174672433513
20
1.43255398977831
30
0
41
1.00000000000001
10
18.0132146386288
20
1.42021077828056
30
0
41
1.00000000000001
10
17.879765348372
20
1.40930270699439
30
0
41
1.00000000000001
10
17.8270370935521
20
1.40486475033824
30
0
41
1.00000000000001
10
17.8146740546317
20
1.40381727283803
30
0
0
SPLINE
5
C1
100
AcDbEntity
8
1
62
256
6
ByLayer
370
18
48
1
60
0
100
AcDbSpline
70
4
71
3
72
20
73
16
40
0
40
0
40
0
40
0
40
0.25
40
0.25
40
0.375
40
0.375
40
0.5
40
0.5
40
0.625
40
0.625
40
0.75
40
0.75
40
0.875
40
0.875
40
1
40
1
40
1
40
1
41
1
10
9.89472053928415
20
-3.39598098482494
30
0
41
1
10
9.44450041819618
20
-3.39749815859827
30
0
41
1
10
8.99828720734823
20
-3.38180855218096
30
0
41
1
10
8.33647051589082
20
-3.32388355796851
30
0
41
1
10
8.11707469268597
20
-3.29909789708054
30
0
41
1
10
7.68069700787049
20
-3.2387164138473
30
0
41
1
10
7.4637655031014
20
-3.20280849274352
30
0
41
1
10
7.03291358010367
20
-3.11661709945463
30
0
41
1
10
6.81895571472515
20
-3.06656414128759
30
0
41
1
10
6.39450735193583
20
-2.94940627954625
30
0
41
1
10
6.1833213015708
20
-2.88175003061369
30
0
41
1
10
5.77228872936303
20
-2.7268634874093
30
0
41
1
10
5.57166419167095
20
-2.63988178582267
30
0
41
1
10
5.18274496729347
20
-2.44134696255568
30
0
41
1
10
4.99445400620607
20
-2.32978739582646
30
0
41
1
10
4.81509939804701
20
-2.19998935459748
30
0
0
SPLINE
5
C2
100
AcDbEntity
8
1
62
256
6
ByLayer
370
18
48
1
60
0
100
AcDbSpline
70
4
71
3
72
28
73
24
40
0
40
0
40
0
40
0
40
0.0312499999999993
40
0.0312499999999993
40
0.0624999999999985
40
0.0624999999999985
40
0.124999999999997
40
0.124999999999997
40
0.187499999999996
40
0.187499999999996
40
0.249999999999994
40
0.249999999999994
40
0.312499999999993
40
0.312499999999993
40
0.374999999999991
40
0.374999999999991
40
0.499999999999993
40
0.499999999999993
40
0.624999999999995
40
0.624999999999995
40
0.749999999999996
40
0.749999999999996
40
1
40
1
40
1
40
1
41
1
10
3.89879660749062
20
0.476251876100974
30
0
41
1
10
3.92037215633144
20
0.516140506585259
30
0
41
1
10
3.94592713252558
20
0.552857302511569
30
0
41
1
10
4.00302478989943
20
0.62154430435038
30
0
41
1
10
4.03480859333587
20
0.653687682643664
30
0
41
1
10
4.13576731937726
20
0.742956562741114
30
0
41
1
10
4.20959805763454
20
0.792755082771521
30
0
41
1
10
4.36523264327846
20
0.88064745853768
30
0
41
1
10
4.44729593484482
20
0.918550511400895
30
0
41
1
10
4.61324046968474
20
0.984199020440343
30
0
41
1
10
4.69773171643055
20
1.01223617896025
30
0
41
1
10
4.86904210184318
20
1.0610871418136
30
0
41
1
10
4.9558699831617
20
1.08187217879856
30
0
41
1
10
5.13150573665547
20
1.11737921843317
30
0
41
1
10
5.22049704828999
20
1.13209758121406
30
0
41
1
10
5.48671175100051
20
1.16772815083121
30
0
41
1
10
5.66427352567524
20
1.18050588687024
30
0
41
1
10
6.01954111828542
20
1.18759169901429
30
0
41
1
10
6.19724748198678
20
1.181828622251
30
0
41
1
10
6.55280278169752
20
1.15199033852085
30
0
41
1
10
6.73158211653947
20
1.12764940367455
30
0
41
1
10
7.25685221326441
20
1.02715487503716
30
0
41
1
10
7.59483415716639
20
0.924069773497905
30
0
41
1
10
7.91981820596638
20
0.779638065938684
30
0
0
SPLINE
5
C3
100
AcDbEntity
8
1
62
256
6
ByLayer
370
18
48
1
60
0
100
AcDbSpline
70
4
71
3
72
17
73
13
40
0
40
0
40
0
40
0
40
0.0142017418528842
40
0.137426524121281
40
0.137426524121281
40
0.260651306389678
40
0.260651306389678
40
0.507100870926452
40
0.507100870926452
40
0.753550435463226
40
0.753550435463226
40
1
40
1
40
1
40
1
41
1
10
41.4595476747903
20
0.469553996238915
30
0
41
1
10
41.4625160272791
20
0.471929809041313
30
0
41
1
10
41.4913057088266
20
0.49516089790481
30
0
41
1
10
41.5207392249321
20
0.52070966032079
30
0
41
1
10
41.5747003961074
20
0.570156570849264
30
0
41
1
10
41.6024261447847
20
0.59685665511077
30
0
41
1
10
41.6863151029474
20
0.681017250520426
30
0
41
1
10
41.7430431816691
20
0.742333302909685
30
0
41
1
10
41.8595982044464
20
0.873633201732645
30
0
41
1
10
41.9197474408098
20
0.944178746240596
30
0
41
1
10
42.0417258665976
20
1.08634307562733
30
0
41
1
10
42.1036234383747
20
1.15883525251022
30
0
41
1
10
42.171516421106
20
1.2284073547338
30
0
0
SPLINE
5
C4
100
AcDbEntity
8
1
62
256
6
ByLayer
370
18
48
1
60
0
100
AcDbSpline
70
4
71
3
72
20
73
16
40
0
40
0
40
0
40
0
40
0.202110904314231
40
0.202110904314231
40
0.303166356471346
40
0.303166356471346
40
0.404221808628461
40
0.404221808628461
40
0.606332712942692
40
0.606332712942692
40
0.707388165099808
40
0.707388165099808
40
0.808443617256923
40
0.808443617256923
40
1
40
1
40
1
40
1
41
1
10
4.39037733161541
20
-2.04638776217584
30
0
41
1
10
4.39021885303109
20
-2.22628604343754
30
0
41
1
10
4.39005429614213
20
-2.39161819213064
30
0
41
1
10
4.38981809400048
20
-2.61815761032491
30
0
41
1
10
4.38974105051887
20
-2.69007029148781
30
0
41
1
10
4.38959281780208
20
-2.8264595091643
30
0
41
1
10
4.38952243687694
20
-2.89019790126164
30
0
41
1
10
4.38932625452344
20
-3.06679939238347
30
0
41
1
10
4.38921487114345
20
-3.16592216288015
30
0
41
1
10
4.38907875981431
20
-3.28648221626213
30
0
41
1
10
4.38903831264054
20
-3.32209283857785
30
0
41
1
10
4.38896817414059
20
-3.38246920418351
30
0
41
1
10
4.38893836100684
20
-3.40734492342528
30
0
41
1
10
4.38886430316964
20
-3.46436519687231
30
0
41
1
10
4.38883131148614
20
-3.48319629670135
30
0
41
1
10
4.38880433858731
20
-3.48294461716668
30
0
0
SPLINE
5
C5
100
AcDbEntity
8
1
62
256
6
ByLayer
370
18
48
1
60
0
100
AcDbSpline
70
4
71
1
72
4
73
2
40
0
40
0
40
1
40
1
41
1
10
41.6955765061336
20
-3.39071263313181
30
0
41
1
10
42.4147273660206
20
-0.962900017834386
30
0
0
SPLINE
5
C6
100
AcDbEntity
8
1
62
256
6
ByLayer
370
18
48
1
60
0
100
AcDbSpline
70
4
71
3
72
62
73
58
40
0
40
0
40
0
40
0
40
0.0277936381131631
40
0.0277936381131631
40
0.0625152938948337
40
0.0625152938948337
40
0.0798761217856693
40
0.0798761217856693
40
0.0972369496765049
40
0.0972369496765049
40
0.131958605458177
40
0.131958605458177
40
0.166680261239849
40
0.166680261239849
40
0.236123572803192
40
0.236123572803192
40
0.270845228584863
40
0.270845228584863
40
0.288206056475699
40
0.288206056475699
40
0.305566884366535
40
0.305566884366535
40
0.340288540148208
40
0.340288540148208
40
0.375010195929881
40
0.375010195929881
40
0.409731851711554
40
0.409731851711554
40
0.444453507493226
40
0.444453507493226
40
0.479175163274899
40
0.479175163274899
40
0.513896819056572
40
0.513896819056572
40
0.548618474838245
40
0.548618474838245
40
0.583340130619918
40
0.583340130619918
40
0.652783442183265
40
0.652783442183265
40
0.670144270074101
40
0.670144270074101
40
0.687505097964938
40
0.687505097964938
40
0.722226753746611
40
0.722226753746611
40
0.791670065309958
40
0.791670065309958
40
0.826391721091632
40
0.826391721091632
40
0.861113376873305
40
0.861113376873305
40
0.895835032654979
40
0.895835032654979
40
0.930556688436652
40
0.930556688436652
40
1
40
1
40
1
40
1
41
1
10
15.2851281991496
20
2.40751118322848
30
0
41
1
10
15.5294161327651
20
2.49747720033128
30
0
41
1
10
15.7738448782286
20
2.58299892748124
30
0
41
1
10
16.324496400445
20
2.76454201309372
30
0
41
1
10
16.630778849222
20
2.85804793713154
30
0
41
1
10
17.0921708965246
20
2.98550917891069
30
0
41
1
10
17.2461060493058
20
3.02607933996779
30
0
41
1
10
17.5548681797901
20
3.10264154646322
30
0
41
1
10
17.709651920941
20
3.13862064693322
30
0
41
1
10
18.1722307415704
20
3.2391160858939
30
0
41
1
10
18.4791376210381
20
3.29654272564341
30
0
41
1
10
19.0913944890841
20
3.39152560986341
30
0
41
1
10
19.3964597038183
20
3.4292181000672
30
0
41
1
10
20.3119174916721
20
3.51162896799445
30
0
41
1
10
20.9209590905577
20
3.52642526346221
30
0
41
1
10
21.8390901771817
20
3.48664606376795
30
0
41
1
10
22.1461057828966
20
3.46313585816824
30
0
41
1
10
22.6084246820675
20
3.4122534215187
30
0
41
1
10
22.7631857762737
20
3.39269788225352
30
0
41
1
10
23.0716995965425
20
3.34859870044607
30
0
41
1
10
23.2256289290157
20
3.32411176534956
30
0
41
1
10
23.6864490197554
20
3.24343477936526
30
0
41
1
10
23.9923337703559
20
3.17996712628033
30
0
41
1
10
24.6031069594969
20
3.03533947412876
30
0
41
1
10
24.9080141264144
20
2.95423380179588
30
0
41
1
10
25.5175217738346
20
2.7752904399257
30
0
41
1
10
25.8219545534371
20
2.67722050551424
30
0
41
1
10
26.4318284271633
20
2.4658157316849
30
0
41
1
10
26.7374372583358
20
2.35275660499605
30
0
41
1
10
27.3504598899519
20
2.11246197522976
30
0
41
1
10
27.6578252926818
20
1.98511173693325
30
0
41
1
10
28.2757496760415
20
1.71806186558237
30
0
41
1
10
28.5832022021493
20
1.5796838272424
30
0
41
1
10
29.1959422002746
20
1.29510940961097
30
0
41
1
10
29.5013960986938
20
1.14919490440877
30
0
41
1
10
30.1111255429616
20
0.851408482150504
30
0
41
1
10
30.4157828553873
20
0.700283791967934
30
0
41
1
10
31.32871523186
20
0.239378206343076
30
0
41
1
10
31.9384420544348
20
-0.0729938689133007
30
0
41
1
10
32.7057453610852
20
-0.46236563745677
30
0
41
1
10
32.8593408102684
20
-0.540445374134663
30
0
41
1
10
33.1675444838516
20
-0.69547130406562
30
0
41
1
10
33.3221798149916
20
-0.772539577870077
30
0
41
1
10
33.7840808237414
20
-1.0014153582168
30
0
41
1
10
34.0905451818423
20
-1.15100332541587
30
0
41
1
10
35.0076521328932
20
-1.5869447676217
30
0
41
1
10
35.6154688400765
20
-1.86147955493766
30
0
41
1
10
36.5288265875767
20
-2.23707739434278
30
0
41
1
10
36.8335256490527
20
-2.3562996850649
30
0
41
1
10
37.4444057015804
20
-2.58112844832263
30
0
41
1
10
37.7504299609185
20
-2.68693644716546
30
0
41
1
10
38.3657543379201
20
-2.88220634665711
30
0
41
1
10
38.6749735888495
20
-2.97205904191537
30
0
41
1
10
39.2897432906897
20
-3.13317980645658
30
0
41
1
10
39.5962632396227
20
-3.2046119373519
30
0
41
1
10
40.5157820277849
20
-3.3895913224255
30
0
41
1
10
41.1279198668263
20
-3.47449841377178
30
0
41
1
10
41.7437557189352
20
-3.51798159277129
30
0
0
SPLINE
5
C7
100
AcDbEntity
8
1
62
256
6
ByLayer
370
18
48
1
60
0
100
AcDbSpline
70
4
71
3
72
18
73
14
40
0
40
0
40
0
40
0
40
0.249999999999997
40
0.249999999999997
40
0.374999999999997
40
0.374999999999997
40
0.499999999999998
40
0.499999999999998
40
0.749999999999999
40
0.749999999999999
40
0.874999999999999
40
0.874999999999999
40
1
40
1
40
1
40
1
41
1
10
41.6468667271999
20
-3.26100972253604
30
0
41
1
10
41.5875653742176
20
-3.19983134244799
30
0
41
1
10
41.5347149104829
20
-3.12475693362668
30
0
41
1
10
41.4653644050346
20
-2.99076520948779
30
0
41
1
10
41.4439095310009
20
-2.94252122766724
30
0
41
1
10
41.4044701848007
20
-2.83855758087401
30
0
41
1
10
41.386413023041
20
-2.78251830775673
30
0
41
1
10
41.3385985945897
20
-2.60572544526275
30
0
41
1
10
41.3149184739308
20
-2.47611320087202
30
0
41
1
10
41.2917326582094
20
-2.26401181577356
30
0
41
1
10
41.2860700578316
20
-2.19034945036492
30
0
41
1
10
41.2790159452991
20
-2.03690152386767
30
0
41
1
10
41.2776435156392
20
-1.95694536009893
30
0
41
1
10
41.2784781024302
20
-1.87511142978588
30
0
0
SPLINE
5
C8
100
AcDbEntity
8
1
62
256
6
ByLayer
370
18
48
1
60
0
100
AcDbSpline
70
4
71
3
72
8
73
4
40
0
40
0
40
0
40
0
40
1
40
1
40
1
40
1
41
1
10
42.8459069078352
20
-0.503607680226821
30
0
41
1
10
42.6383276594036
20
-1.09778335813769
30
0
41
1
10
42.4326325464564
20
-1.69260615076024
30
0
41
1
10
42.2288339485282
20
-2.28808030990064
30
0
0
SPLINE
5
C9
100
AcDbEntity
8
1
62
256
6
ByLayer
370
18
48
1
60
0
100
AcDbSpline
70
4
71
3
72
76
73
72
40
0
40
0
40
0
40
0
40
0.0181399433644466
40
0.0181399433644466
40
0.0362798867288933
40
0.0362798867288933
40
0.0725597734577859
40
0.0725597734577859
40
0.108839660186678
40
0.108839660186678
40
0.145119546915571
40
0.145119546915571
40
0.181399433644464
40
0.181399433644464
40
0.19953937700891
40
0.19953937700891
40
0.217679320373356
40
0.217679320373356
40
0.253959207102249
40
0.253959207102249
40
0.290239093831142
40
0.290239093831142
40
0.326518980560034
40
0.326518980560034
40
0.362798867288927
40
0.362798867288927
40
0.39907875401782
40
0.39907875401782
40
0.417218697382266
40
0.417218697382266
40
0.435358640746712
40
0.435358640746712
40
0.471638527475603
40
0.471638527475603
40
0.489778470840049
40
0.489778470840049
40
0.507918414204494
40
0.507918414204494
40
0.544198300933385
40
0.544198300933385
40
0.580478187662276
40
0.580478187662276
40
0.616758074391167
40
0.616758074391167
40
0.634898017755613
40
0.634898017755613
40
0.653037961120059
40
0.653037961120059
40
0.68931784784895
40
0.68931784784895
40
0.707457791213396
40
0.707457791213396
40
0.725597734577841
40
0.725597734577841
40
0.761877621306734
40
0.761877621306734
40
0.798157508035627
40
0.798157508035627
40
0.834437394764519
40
0.834437394764519
40
0.870717281493412
40
0.870717281493412
40
0.888857224857858
40
0.888857224857858
40
0.906997168222303
40
0.906997168222303
40
0.943277054951195
40
0.943277054951195
40
0.979556941680086
40
0.979556941680086
40
1
40
1
40
1
40
1
41
1
10
9.89472053928409
20
3.39598098482512
30
0
41
1
10
10.0596028096443
20
3.39536826555184
30
0
41
1
10
10.2242291942181
20
3.39202972552013
30
0
41
1
10
10.5529049412399
20
3.38017264791944
30
0
41
1
10
10.7169808243878
20
3.37167725336832
30
0
41
1
10
11.2093169573905
20
3.3369390495435
30
0
41
1
10
11.537304212589
20
3.3008402875931
30
0
41
1
10
12.1946980438507
20
3.20728158940054
30
0
41
1
10
12.5239749555372
20
3.1493049446448
30
0
41
1
10
13.1815790624468
20
3.01594391380831
30
0
41
1
10
13.5096506967979
20
2.93764457919863
30
0
41
1
10
14.165892878126
20
2.76082683167493
30
0
41
1
10
14.4939532083295
20
2.66231212717915
30
0
41
1
10
14.9871337435453
20
2.50307493760496
30
0
41
1
10
15.151633217979
20
2.44806662320718
30
0
41
1
10
15.4803983144606
20
2.33387056522142
30
0
41
1
10
15.6446082454918
20
2.27443290130284
30
0
41
1
10
16.1368113317523
20
2.0903304957703
30
0
41
1
10
16.4645547492144
20
1.96039315745938
30
0
41
1
10
17.1206513383825
20
1.68837750381502
30
0
41
1
10
17.4486579377001
20
1.54534630665785
30
0
41
1
10
18.1062583471237
20
1.25001083505211
30
0
41
1
10
18.4344533714382
20
1.09807662519154
30
0
41
1
10
19.0899249617258
20
0.788133215745631
30
0
41
1
10
19.4175835465276
20
0.629557573822126
30
0
41
1
10
20.0737406379604
20
0.308974506436499
30
0
41
1
10
20.402861764859
20
0.146868390051338
30
0
41
1
10
20.8952414832708
20
-0.0963228190689449
30
0
41
1
10
21.0592403525897
20
-0.177352009044597
30
0
41
1
10
21.3869848660363
20
-0.339072759689259
30
0
41
1
10
21.550935827441
20
-0.419294242235793
30
0
41
1
10
22.0426681905672
20
-0.659075396781475
30
0
41
1
10
22.3703695202208
20
-0.817630936697299
30
0
41
1
10
22.8629868338178
20
-1.05124730432709
30
0
41
1
10
23.0274809718819
20
-1.12831511091451
30
0
41
1
10
23.3557107539756
20
-1.28102011147396
30
0
41
1
10
23.519797485234
20
-1.35618317120489
30
0
41
1
10
24.0114859348949
20
-1.57757107715111
30
0
41
1
10
24.3387762572498
20
-1.71969509736277
30
0
41
1
10
24.9942124196285
20
-1.99195320349512
30
0
41
1
10
25.3229000377281
20
-2.12217984000168
30
0
41
1
10
25.9793161805593
20
-2.36909296659039
30
0
41
1
10
26.3069572326398
20
-2.48400824442248
30
0
41
1
10
26.7979804210061
20
-2.64471730479139
30
0
41
1
10
26.9616953811717
20
-2.69615240893106
30
0
41
1
10
27.2891858045208
20
-2.79347302681774
30
0
41
1
10
27.4531119156909
20
-2.83944078977552
30
0
41
1
10
27.9450887418087
20
-2.97076411580275
30
0
41
1
10
28.2741067274711
20
-3.04862298562918
30
0
41
1
10
28.7658691139154
20
-3.15086479031183
30
0
41
1
10
28.9295604882419
20
-3.182691001536
30
0
41
1
10
29.2569271445263
20
-3.24199622759926
30
0
41
1
10
29.4205401689226
20
-3.26859252430765
30
0
41
1
10
29.9117370750593
20
-3.33799477287798
30
0
41
1
10
30.2398210574368
20
-3.37199113834413
30
0
41
1
10
30.8970094336755
20
-3.41884535746911
30
0
41
1
10
31.2246032944775
20
-3.43193114396257
30
0
41
1
10
31.8795403790605
20
-3.43641446427964
30
0
41
1
10
32.2068737676692
20
-3.42492267663917
30
0
41
1
10
32.8625256064038
20
-3.380076839494
30
0
41
1
10
33.191329948584
20
-3.34554801649341
30
0
41
1
10
33.6833309257902
20
-3.27928470662215
30
0
41
1
10
33.8471234449112
20
-3.2546074051273
30
0
41
1
10
34.1746870750783
20
-3.19910436099951
30
0
41
1
10
34.3383624317439
20
-3.1682673765315
30
0
41
1
10
34.8296553841864
20
-3.06788334513038
30
0
41
1
10
35.1574514834097
20
-2.9905069377435
30
0
41
1
10
35.8138442667039
20
-2.81671943423726
30
0
41
1
10
36.1417964626319
20
-2.72097812045072
30
0
41
1
10
36.6538325570283
20
-2.55590553261712
30
0
41
1
10
36.8383390065316
20
-2.49344935809103
30
0
41
1
10
37.0228443047946
20
-2.4283728341141
30
0
0
SPLINE
5
CA
100
AcDbEntity
8
1
62
256
6
ByLayer
370
18
48
1
60
0
100
AcDbSpline
70
4
71
3
72
8
73
4
40
0
40
0
40
0
40
0
40
1
40
1
40
1
40
1
41
1
10
41.7437557189352
20
-3.51798159277129
30
0
41
1
10
41.7226524128198
20
-3.49785593676347
30
0
41
1
10
41.7043584774727
20
-3.46840847782093
30
0
41
1
10
41.6884984676734
20
-3.42941178402833
30
0
0
SPLINE
5
CB
100
AcDbEntity
8
1
62
256
6
ByLayer
370
18
48
1
60
0
100
AcDbSpline
70
4
71
3
72
10
73
6
40
0
40
0
40
0
40
0
40
0.538510940548325
40
0.538510940548325
40
1
40
1
40
1
40
1
41
1
10
10.5288133470141
20
-1.51992037298763
30
0
41
1
10
10.5965993230452
20
-1.3193651890829
30
0
41
1
10
10.6843544501247
20
-1.1245538625156
30
0
41
1
10
10.8681197598836
20
-0.809591914490852
30
0
41
1
10
10.9610523259026
20
-0.682922331830554
30
0
41
1
10
11.0551957543323
20
-0.583997078281016
30
0
0
SPLINE
5
CC
100
AcDbEntity
8
1
62
256
6
ByLayer
370
18
48
1
60
0
100
AcDbSpline
70
4
71
3
72
20
73
16
40
0
40
0
40
0
40
0
40
0.25
40
0.25
40
0.375
40
0.375
40
0.5
40
0.5
40
0.625
40
0.625
40
0.75
40
0.75
40
0.875
40
0.875
40
1
40
1
40
1
40
1
41
1
10
42.4209962029789
20
-0.941736778913281
30
0
41
1
10
42.4637021504251
20
-0.908468941398837
30
0
41
1
10
42.5090747199175
20
-0.858858522719629
30
0
41
1
10
42.5814537430198
20
-0.761653381476179
30
0
41
1
10
42.6063849544105
20
-0.72522859051918
30
0
41
1
10
42.6561998904334
20
-0.647050142336866
30
0
41
1
10
42.6812672544035
20
-0.605068572346738
30
0
41
1
10
42.731711405521
20
-0.515580607649639
30
0
41
1
10
42.7572313906463
20
-0.467786711308889
30
0
41
1
10
42.8078513759304
20
-0.368047469663821
30
0
41
1
10
42.8327993434162
20
-0.316433700397568
30
0
41
1
10
42.8819643765144
20
-0.209937265489742
30
0
41
1
10
42.9061811802403
20
-0.155053283685561
30
0
41
1
10
42.9538248623879
20
-0.042076557865613
30
0
41
1
10
42.9772288634102
20
0.015993200500759
30
0
41
1
10
42.999779838536
20
0.0745795808411742
30
0
0
SPLINE
5
CD
100
AcDbEntity
8
1
62
256
6
ByLayer
370
13
48
1
60
0
100
AcDbSpline
70
4
71
3
72
32
73
28
40
0
40
0
40
0
40
0
40
0.135372574554636
40
0.135372574554636
40
0.203058861831954
40
0.203058861831954
40
0.270745149109271
40
0.270745149109271
40
0.406117723663905
40
0.406117723663905
40
0.473804010941222
40
0.473804010941222
40
0.541490298218539
40
0.541490298218539
40
0.676862872773172
40
0.676862872773172
40
0.710706016411832
40
0.710706016411832
40
0.744549160050491
40
0.744549160050491
40
0.81223544732781
40
0.81223544732781
40
0.947608021882448
40
0.947608021882448
40
0.981451165521107
40
0.981451165521107
40
1
40
1
40
1
40
1
41
1
10
41.6468667271999
20
-3.26100972253604
30
0
41
1
10
40.8779971805538
20
-3.13312735137288
30
0
41
1
10
40.1161512795101
20
-2.94657524067921
30
0
41
1
10
38.9725986157037
20
-2.5924200106395
30
0
41
1
10
38.5912359874665
20
-2.46191766365203
30
0
41
1
10
37.8257885175842
20
-2.17914233232267
30
0
41
1
10
37.4413829954416
20
-2.02656217590982
30
0
41
1
10
36.2846430071974
20
-1.54103063911859
30
0
41
1
10
35.5173712860036
20
-1.18510173788184
30
0
41
1
10
34.360338220317
20
-0.625309578788233
30
0
41
1
10
33.9759256366149
20
-0.435626923298003
30
0
41
1
10
33.2103343544185
20
-0.0563067885097155
30
0
41
1
10
32.8288289950594
20
0.133909545345347
30
0
41
1
10
31.6848313347482
20
0.699297285301839
30
0
41
1
10
30.9230387099028
20
1.06951492166999
30
0
41
1
10
29.9616397721535
20
1.50331959553904
30
0
41
1
10
29.7685493627786
20
1.58878813168931
30
0
41
1
10
29.3830619779519
20
1.75547209941752
30
0
41
1
10
29.1908581412747
20
1.83657034038055
30
0
41
1
10
28.6152940076874
20
2.07248106022959
30
0
41
1
10
28.2331394535781
20
2.22041512905005
30
0
41
1
10
27.0881940665927
20
2.63112596327065
30
0
41
1
10
26.3271269274754
20
2.86074902510333
30
0
41
1
10
25.36798783991
20
3.07876633694954
30
0
41
1
10
25.175782196905
20
3.11897580476057
30
0
41
1
10
24.8774730201162
20
3.17576058850787
30
0
41
1
10
24.7716822810371
20
3.19480166357278
30
0
41
1
10
24.6658725551593
20
3.21272249084038
30
0
0
SPLINE
5
CE
100
AcDbEntity
8
1
62
256
6
ByLayer
370
18
48
1
60
0
100
AcDbSpline
70
4
71
3
72
27
73
23
40
0
40
0
40
0
40
0
40
0.124999999999998
40
0.124999999999998
40
0.249999999999996
40
0.249999999999996
40
0.374999999999994
40
0.374999999999994
40
0.437499999999994
40
0.437499999999994
40
0.499999999999994
40
0.499999999999994
40
0.624999999999995
40
0.624999999999995
40
0.687499999999995
40
0.687499999999995
40
0.749999999999996
40
0.812499999999996
40
0.812499999999996
40
0.874999999999997
40
0.874999999999997
40
1
40
1
40
1
40
1
41
1
10
4.39037733162269
20
-2.0463877621759
30
0
41
1
10
4.30880898748029
20
-1.97334011422376
30
0
41
1
10
4.23090090825224
20
-1.8958622622458
30
0
41
1
10
4.08406069159258
20
-1.7299572680927
30
0
41
1
10
4.01491417060782
20
-1.64108535631121
30
0
41
1
10
3.89120888426802
20
-1.45429377308781
30
0
41
1
10
3.83621542276546
20
-1.35600060269476
30
0
41
1
10
3.76621672164072
20
-1.19959188161673
30
0
41
1
10
3.74497533449778
20
-1.1459538487147
30
0
41
1
10
3.70720681643715
20
-1.03528469092555
30
0
41
1
10
3.69083203445933
20
-0.978593031221266
30
0
41
1
10
3.65040023152139
20
-0.807013154219305
30
0
41
1
10
3.63463069802424
20
-0.689590518681712
30
0
41
1
10
3.62924954980531
20
-0.508476793542059
30
0
41
1
10
3.6305627396643
20
-0.447433318439494
30
0
41
1
10
3.63918145520049
20
-0.326773930413197
30
0
41
1
10
3.65375268474642
20
-0.206778384955868
30
0
41
1
10
3.6796803271391
20
-0.0880486611927154
30
0
41
1
10
3.71107949511222
20
0.030071284358911
30
0
41
1
10
3.72956286737838
20
0.0888565419651854
30
0
41
1
10
3.79143693723978
20
0.260606656858386
30
0
41
1
10
3.84152048159888
20
0.370360422858056
30
0
41
1
10
3.89879660749065
20
0.476251876100918
30
0
0
SPLINE
5
CF
100
AcDbEntity
8
1
62
256
6
ByLayer
370
18
48
1
60
0
100
AcDbSpline
70
4
71
3
72
32
73
28
40
0
40
0
40
0
40
0
40
0.0997754958505132
40
0.0997754958505132
40
0.199550991701026
40
0.199550991701026
40
0.29932648755154
40
0.29932648755154
40
0.349214235476796
40
0.349214235476796
40
0.399101983402053
40
0.399101983402053
40
0.498877479252566
40
0.498877479252566
40
0.598652975103079
40
0.598652975103079
40
0.698428470953593
40
0.698428470953593
40
0.748316218878849
40
0.748316218878849
40
0.798203966804106
40
0.798203966804106
40
0.897979462654619
40
0.897979462654619
40
0.997754958505133
40
0.997754958505133
40
1
40
1
40
1
40
1
41
1
10
41.3839190813006
20
0.524569699532606
30
0
41
1
10
41.0570062590731
20
0.685475258801858
30
0
41
1
10
40.7305381145412
20
0.844366159692271
30
0
41
1
10
40.0769719239551
20
1.15533609866526
30
0
41
1
10
39.7501884248971
20
1.30798098708254
30
0
41
1
10
39.0949195217371
20
1.60374345609676
30
0
41
1
10
38.7667084534053
20
1.74760242452211
30
0
41
1
10
38.2759419857164
20
1.95110390315807
30
0
41
1
10
38.1125953688435
20
2.01699636944647
30
0
41
1
10
37.7856681722242
20
2.14584806203374
30
0
41
1
10
37.6222247549512
20
2.20879945552045
30
0
41
1
10
37.1315989940069
20
2.39224401516378
30
0
41
1
10
36.8037176667908
20
2.5074565925045
30
0
41
1
10
36.1477995403869
20
2.71916859658464
30
0
41
1
10
35.8210413486229
20
2.81464933507004
30
0
41
1
10
35.1670619128305
20
2.98812287882848
30
0
41
1
10
34.8399042032548
20
3.06557041330709
30
0
41
1
10
34.3486362650827
20
3.1662725160549
30
0
41
1
10
34.1847789717994
20
3.19727188891392
30
0
41
1
10
33.8566766748249
20
3.25310404931236
30
0
41
1
10
33.692933881277
20
3.27788761971436
30
0
41
1
10
33.201786557266
20
3.34433809467416
30
0
41
1
10
32.8747862242317
20
3.37893477505412
30
0
41
1
10
32.2204360255992
20
3.42428674768573
30
0
41
1
10
31.8932040399053
20
3.43615577831716
30
0
41
1
10
31.5576694547715
20
3.43421207828618
30
0
41
1
10
31.5502860367978
20
3.43416372183566
30
0
41
1
10
31.5429028958947
20
3.4341097918475
30
0
0
SPLINE
5
D0
100
AcDbEntity
8
1
62
256
6
ByLayer
370
18
48
1
60
0
100
AcDbSpline
70
4
71
3
72
20
73
16
40
0
40
0
40
0
40
0
40
0.0855891305545471
40
0.0855891305545471
40
0.268471304443638
40
0.268471304443638
40
0.451353478332728
40
0.451353478332728
40
0.634235652221819
40
0.634235652221819
40
0.817117826110909
40
0.817117826110909
40
0.908558913055455
40
0.908558913055455
40
1
40
1
40
1
40
1
41
1
10
15.2884674345091
20
-2.40051794637802
30
0
41
1
10
15.1349127797439
20
-2.45363501553013
30
0
41
1
10
14.9813093013635
20
-2.50491771785573
30
0
41
1
10
14.4990729656223
20
-2.66073801349052
30
0
41
1
10
14.1706156966577
20
-2.75948033986128
30
0
41
1
10
13.5119953282833
20
-2.93708602917585
30
0
41
1
10
13.1832599622134
20
-3.01556355534262
30
0
41
1
10
12.526159362265
20
-3.14890119388014
30
0
41
1
10
12.1975643403754
20
-3.20682793849303
30
0
41
1
10
11.5385206697443
20
-3.30071260847049
30
0
41
1
10
11.209926387033
20
-3.33688896252346
30
0
41
1
10
10.717101640702
20
-3.37167226770723
30
0
41
1
10
10.5529285478542
20
-3.38017202916933
30
0
41
1
10
10.224161455216
20
-3.39203193632793
30
0
41
1
10
10.0595412198631
20
-3.39536849442618
30
0
41
1
10
9.89472053928395
20
-3.39598098482557
30
0
0
SPLINE
5
D1
100
AcDbEntity
8
1
62
256
6
ByLayer
370
13
48
1
60
0
100
AcDbSpline
70
4
71
3
72
80
73
76
40
0
40
0
40
0
40
0
40
0.0068871906268352
40
0.0247603566604573
40
0.0336969396772678
40
0.0426335226940785
40
0.0605066887276998
40
0.0694432717445103
40
0.0783798547613211
40
0.0962530207949421
40
0.105189603811753
40
0.114126186828564
40
0.131999352862185
40
0.140935935878996
40
0.149872518895806
40
0.167745684929427
40
0.176682267946238
40
0.185618850963048
40
0.203492016996669
40
0.22136518303029
40
0.239238349063913
40
0.274984681131154
40
0.283921264147965
40
0.292857847164775
40
0.310731013198397
40
0.319667596215207
40
0.328604179232017
40
0.346477345265639
40
0.36435051129926
40
0.382223677332882
40
0.417970009400124
40
0.426906592416935
40
0.435843175433745
40
0.453716341467366
40
0.462652924484177
40
0.471589507500987
40
0.489462673534608
40
0.498399256551419
40
0.50733583956823
40
0.525209005601851
40
0.534145588618662
40
0.543082171635472
40
0.560955337669093
40
0.569891920685904
40
0.578828503702715
40
0.596701669736336
40
0.605638252753146
40
0.614574835769957
40
0.632448001803578
40
0.641384584820389
40
0.650321167837201
40
0.66819433387082
40
0.677130916887631
40
0.686067499904442
40
0.703940665938063
40
0.721813831971684
40
0.739686998005306
40
0.775433330072548
40
0.784369913089358
40
0.793306496106169
40
0.81117966213979
40
0.820116245156601
40
0.829052828173413
40
0.846925994207033
40
0.864799160240655
40
0.882672326274275
40
0.918418658341517
40
0.927355241358328
40
0.936291824375139
40
0.95416499040876
40
0.963101573425571
40
0.972038156442381
40
0.989911322476002
40
0.998847905492813
40
1
40
1
40
1
40
1
41
1
10
34.5987099922495
20
-1.40863943673375
30
0
41
1
10
34.5676027845809
20
-1.41122916371447
30
0
41
1
10
34.4557715372836
20
-1.42037992154786
30
0
41
1
10
34.3035694476893
20
-1.43209452905924
30
0
41
1
10
34.1421023809042
20
-1.44366661065871
30
0
41
1
10
33.9806531291538
20
-1.45460695552614
30
0
41
1
10
33.8191943535342
20
-1.46467841210779
30
0
41
1
10
33.6577273410586
20
-1.47387577539075
30
0
41
1
10
33.4962781519643
20
-1.48242051352852
30
0
41
1
10
33.3348194716994
20
-1.49008231226557
30
0
41
1
10
33.1733525544566
20
-1.49686093720791
30
0
41
1
10
33.0119033850699
20
-1.50297180317267
30
0
41
1
10
32.8504446218558
20
-1.50819195160841
30
0
41
1
10
32.6889775500346
20
-1.51252237109651
30
0
41
1
10
32.5275282270872
20
-1.51617200550308
30
0
41
1
10
32.3660692881556
20
-1.51892576750319
30
0
41
1
10
32.20460213564
20
-1.52078591802768
30
0
41
1
10
32.0431530412897
20
-1.52195453656517
30
0
41
1
10
31.8413424390137
20
-1.52224790533046
30
0
41
1
10
31.5991573362988
20
-1.52078645793165
30
0
41
1
10
31.2762784830556
20
-1.51618851194871
30
0
41
1
10
30.9937078046238
20
-1.50911894368917
30
0
41
1
10
30.7514772296213
20
-1.50089406724686
30
0
41
1
10
30.5900276409105
20
-1.49462970758938
30
0
41
1
10
30.428568738179
20
-1.48749374536251
30
0
41
1
10
30.2671017527563
20
-1.47949718088998
30
0
41
1
10
30.1056527571548
20
-1.47080445910592
30
0
41
1
10
29.9038421904473
20
-1.45881097871361
30
0
41
1
10
29.6616570551201
20
-1.44270391778656
30
0
41
1
10
29.3387781634064
20
-1.41867175597503
30
0
41
1
10
29.056207456675
20
-1.39485150694077
30
0
41
1
10
28.8139769366152
20
-1.37247941060997
30
0
41
1
10
28.6525274683685
20
-1.35680004017553
30
0
41
1
10
28.4910688019351
20
-1.34034061186102
30
0
41
1
10
28.3296020410453
20
-1.32311917356259
30
0
41
1
10
28.1681530158497
20
-1.30524996000727
30
0
41
1
10
28.0066943850313
20
-1.28663255056915
30
0
41
1
10
27.8452273991346
20
-1.26728611840449
30
0
41
1
10
27.6837781425502
20
-1.2473116563813
30
0
41
1
10
27.5223192638146
20
-1.22662510228687
30
0
41
1
10
27.3608521151931
20
-1.20524816412816
30
0
41
1
10
27.1994028106859
20
-1.18326694023275
30
0
41
1
10
27.0379440393268
20
-1.16061399460523
30
0
41
1
10
26.8764771023608
20
-1.13731217143183
30
0
41
1
10
26.7150280064426
20
-1.1134324012236
30
0
41
1
10
26.5535694314778
20
-1.08892410852747
30
0
41
1
10
26.3921025948698
20
-1.06381130600664
30
0
41
1
10
26.2306534801082
20
-1.03814950421514
30
0
41
1
10
26.0691947172475
20
-1.01190510371998
30
0
41
1
10
25.9077275775492
20
-0.985103186038202
30
0
41
1
10
25.746278177016
20
-0.957783922251252
30
0
41
1
10
25.584819162659
20
-0.929931090870951
30
0
41
1
10
25.4233519596032
20
-0.901571232972429
30
0
41
1
10
25.261902811189
20
-0.872728649045399
30
0
41
1
10
25.0600921554339
20
-0.836002666502139
30
0
41
1
10
24.8179070901377
20
-0.790994893613032
30
0
41
1
10
24.4950283871957
20
-0.729468294354405
30
0
41
1
10
24.2124578600727
20
-0.674333959354868
30
0
41
1
10
23.9702272985336
20
-0.626248989571309
30
0
41
1
10
23.8087777176742
20
-0.593715163818729
30
0
41
1
10
23.6473188305886
20
-0.560868891035994
30
0
41
1
10
23.4858518617688
20
-0.527739071602554
30
0
41
1
10
23.3244028435195
20
-0.494285783976636
30
0
41
1
10
23.1225922011486
20
-0.452085579521963
30
0
41
1
10
22.8804070263004
20
-0.400972124350716
30
0
41
1
10
22.5575281885071
20
-0.331961072912662
30
0
41
1
10
22.2749575678815
20
-0.271098397743884
30
0
41
1
10
22.032727042055
20
-0.218702125718039
30
0
41
1
10
21.8712775656502
20
-0.183483868598046
30
0
41
1
10
21.7098188917609
20
-0.148196997095368
30
0
41
1
10
21.5483521236765
20
-0.112870738242094
30
0
41
1
10
21.3869030755901
20
-0.0774046876621242
30
0
41
1
10
21.2254444195263
20
-0.0419315406584815
30
0
41
1
10
21.0991401534613
20
-0.0142009484269181
30
0
41
1
10
21.0535722029323
20
-0.004181118524258
30
0
41
1
10
21.0483685200469
20
-0.0030367304177901
30
0
0
SPLINE
5
D2
100
AcDbEntity
8
1
62
256
6
ByLayer
370
18
48
1
60
0
100
AcDbSpline
70
4
71
3
72
8
73
4
40
0
40
0
40
0
40
0
40
1
40
1
40
1
40
1
41
1
10
42.999779838536
20
0.0745795808410321
30
0
41
1
10
43.0000733871503
20
0.0248598602803156
30
0
41
1
10
43.0000733871503
20
-0.0248598602804009
30
0
41
1
10
42.999779838536
20
-0.0745795808411174
30
0
0
SPLINE
5
D3
100
AcDbEntity
8
1
62
256
6
ByLayer
370
18
48
1
60
0
100
AcDbSpline
70
4
71
4
72
10
73
5
40
0
40
0
40
0
40
0
40
0
40
1
40
1
40
1
40
1
40
1
41
1
10
10.5288133470142
20
-1.51992037298771
30
0
41
1
10
10.3702901450817
20
-1.988935525947
30
0
41
1
10
10.2117669431492
20
-2.45795067890632
30
0
41
1
10
10.0532437412167
20
-2.92696583186563
30
0
41
1
10
9.89472053928415
20
-3.39598098482492
30
0
0
SPLINE
5
D4
100
AcDbEntity
8
1
62
256
6
ByLayer
370
13
48
1
60
0
100
AcDbSpline
70
4
71
3
72
10
73
6
40
0
40
0
40
0
40
0
40
0.5
40
0.5
40
1
40
1
40
1
40
1
41
1
10
4.81564667349613
20
2.7448069282836
30
0
41
1
10
4.74190818962995
20
2.7595111240993
30
0
41
1
10
4.66928113200362
20
2.7800819049001
30
0
41
1
10
4.52650810113241
20
2.83321731166325
30
0
41
1
10
4.45585269971915
20
2.86609817239645
30
0
41
1
10
4.38829268406431
20
2.90491158035908
30
0
0
SPLINE
5
D5
100
AcDbEntity
8
1
62
256
6
ByLayer
370
18
48
1
60
0
100
AcDbSpline
70
4
71
3
72
42
73
38
40
0
40
0
40
0
40
0
40
0.0618945823221452
40
0.0618945823221452
40
0.12378916464429
40
0.12378916464429
40
0.154736455805363
40
0.154736455805363
40
0.185683746966436
40
0.185683746966436
40
0.247578329288582
40
0.247578329288582
40
0.309472911610728
40
0.309472911610728
40
0.371367493932874
40
0.371367493932874
40
0.43326207625502
40
0.43326207625502
40
0.495156658577166
40
0.495156658577166
40
0.557051240899312
40
0.557051240899312
40
0.618945823221458
40
0.618945823221458
40
0.680840405543604
40
0.680840405543604
40
0.74273498786575
40
0.74273498786575
40
0.804629570187897
40
0.804629570187897
40
0.866524152510043
40
0.866524152510043
40
0.928418734832189
40
0.928418734832189
40
0.990313317154335
40
0.990313317154335
40
1
40
1
40
1
40
1
41
1
10
4.71439929923153
20
2.70690374934515
30
0
41
1
10
5.10133357457352
20
2.58487253955846
30
0
41
1
10
5.4881451632304
20
2.44988282708081
30
0
41
1
10
6.2604589134971
20
2.1591782741126
30
0
41
1
10
6.64612487825281
20
2.00308707781667
30
0
41
1
10
7.22560477986724
20
1.75552960979584
30
0
41
1
10
7.41916916119715
20
1.67064451260472
30
0
41
1
10
7.80525339745859
20
1.49750350689462
30
0
41
1
10
7.99784084727509
20
1.40927556718302
30
0
41
1
10
8.57475754511768
20
1.1406312199399
30
0
41
1
10
8.95809503927404
20
0.955979898193078
30
0
41
1
10
9.72407088280346
20
0.579188160163795
30
0
41
1
10
10.1066639121485
20
0.386947612406573
30
0
41
1
10
10.8739392328123
20
0.0005054670740492
30
0
41
1
10
11.2584785192402
20
-0.193974055791273
30
0
41
1
10
12.0311258210879
20
-0.581958032375127
30
0
41
1
10
12.4171677454542
20
-0.774044376985529
30
0
41
1
10
13.1878182629553
20
-1.14878303065376
30
0
41
1
10
13.5728634630947
20
-1.33175558433061
30
0
41
1
10
14.3446967279602
20
-1.68454525217436
30
0
41
1
10
14.7313919718862
20
-1.85424220426711
30
0
41
1
10
15.5022462522224
20
-2.17390772284938
30
0
41
1
10
15.8871066269745
20
-2.32441446096831
30
0
41
1
10
16.6581336265396
20
-2.60296945165214
30
0
41
1
10
17.0449418213876
20
-2.73120839035312
30
0
41
1
10
17.8160506109508
20
-2.96044246337311
30
0
41
1
10
18.200803969091
20
-3.06177193101163
30
0
41
1
10
18.9711873256355
20
-3.23531503070248
30
0
41
1
10
19.3576643283494
20
-3.30760393499449
30
0
41
1
10
20.1292203169133
20
-3.42074262058716
30
0
41
1
10
20.5139412768288
20
-3.46157136683792
30
0
41
1
10
21.2839833493471
20
-3.51080945930747
30
0
41
1
10
21.6694850042913
20
-3.5192775925108
30
0
41
1
10
22.4417047322329
20
-3.50336543069324
30
0
41
1
10
22.8265583356661
20
-3.47900900193144
30
0
41
1
10
23.2716936363443
20
-3.43241372147904
30
0
41
1
10
23.3319291981111
20
-3.42571720775646
30
0
41
1
10
23.3921669354064
20
-3.41863148741365
30
0
0
SPLINE
5
D6
100
AcDbEntity
8
1
62
256
6
ByLayer
370
18
48
1
60
0
100
AcDbSpline
70
4
71
3
72
8
73
4
40
0
40
0
40
0
40
0
40
1
40
1
40
1
40
1
41
1
10
41.7437557189352
20
3.51798159277129
30
0
41
1
10
41.9036551192133
20
3.12344009329613
30
0
41
1
10
42.0675339085224
20
2.71494869676877
30
0
41
1
10
42.2288339485282
20
2.28808030990055
30
0
0
SPLINE
5
D7
100
AcDbEntity
8
1
62
256
6
ByLayer
370
18
48
1
60
0
100
AcDbSpline
70
4
71
3
72
14
73
10
40
0
40
0
40
0
40
0
40
0.25
40
0.25
40
0.5
40
0.5
40
0.75
40
0.75
40
1
40
1
40
1
40
1
41
1
10
4.38829268406863
20
2.90491158035661
30
0
41
1
10
4.38826766616532
20
2.8820940178791
30
0
41
1
10
4.40602483465625
20
2.86029014615971
30
0
41
1
10
4.45171775170226
20
2.82143176749923
30
0
41
1
10
4.48032147054874
20
2.80403912580741
30
0
41
1
10
4.54132505446398
20
2.77231308707041
30
0
41
1
10
4.57438425246275
20
2.75773851315464
30
0
41
1
10
4.64270095042644
20
2.73078367146229
30
0
41
1
10
4.67804642670649
20
2.71836870682157
30
0
41
1
10
4.71439929924523
20
2.70690374933949
30
0
0
SPLINE
5
D8
100
AcDbEntity
8
1
62
256
6
ByLayer
370
13
48
1
60
0
100
AcDbSpline
70
4
71
3
72
20
73
16
40
0
40
0
40
0
40
0
40
0.0298556758680092
40
0.0298556758680092
40
0.137649489660453
40
0.137649489660453
40
0.353237117245339
40
0.353237117245339
40
0.568824744830226
40
0.568824744830226
40
0.676618558622669
40
0.676618558622669
40
0.784412372415113
40
0.784412372415113
40
1
40
1
40
1
40
1
41
1
10
4.81513900533702
20
-3.38812311785472
30
0
41
1
10
4.81513445981511
20
-3.38811398924645
30
0
41
1
10
4.81513005722454
20
-3.38772740062342
30
0
41
1
10
4.81511044985137
20
-3.38420893485446
30
0
41
1
10
4.81509694818158
20
-3.37659060834454
30
0
41
1
10
4.81506188467608
20
-3.33936201808638
30
0
41
1
10
4.8150457447957
20
-3.29532055197333
30
0
41
1
10
4.81502736966451
20
-3.16806871053339
30
0
41
1
10
4.81502527370645
20
-3.08630383856783
30
0
41
1
10
4.81503052698275
20
-2.93668057308835
30
0
41
1
10
4.81503369934711
20
-2.88210074248568
30
0
41
1
10
4.8150422716889
20
-2.7657814413013
30
0
41
1
10
4.81504767231391
20
-2.70385868129992
30
0
41
1
10
4.81506640193913
20
-2.5070188049086
30
0
41
1
10
4.81508226277427
20
-2.36112807801769
30
0
41
1
10
4.81509939804272
20
-2.1999893546114
30
0
0
SPLINE
5
D9
100
AcDbEntity
8
1
62
256
6
ByLayer
370
18
48
1
60
0
100
AcDbSpline
70
4
71
3
72
14
73
10
40
0
40
0
40
0
40
0
40
0.250000000000002
40
0.250000000000002
40
0.375000000000003
40
0.375000000000003
40
0.500000000000004
40
0.500000000000004
40
1
40
1
40
1
40
1
41
1
10
7.91981820596652
20
0.779638065938798
30
0
41
1
10
8.28645396799067
20
0.616695209645059
30
0
41
1
10
8.65537202894947
20
0.454124818021796
30
0
41
1
10
9.2117072535271
20
0.2103397464777
30
0
41
1
10
9.39780921778953
20
0.129022942530213
30
0
41
1
10
9.76897960438416
20
-0.0327744024348533
30
0
41
1
10
9.954271618516
20
-0.11335317655363
30
0
41
1
10
10.8792465355548
20
-0.514788012834345
30
0
41
1
10
11.6145155987105
20
-0.831474572867336
30
0
41
1
10
12.3445021723728
20
-1.14375742807587
30
0
0
SPLINE
5
DA
100
AcDbEntity
8
1
62
256
6
ByLayer
370
18
48
1
60
0
100
AcDbSpline
70
4
71
3
72
8
73
4
40
0
40
0
40
0
40
0
40
1
40
1
40
1
40
1
41
1
10
42.4183654493274
20
-0.939117514609194
30
0
41
1
10
42.4192423396817
20
-0.939990630366282
30
0
41
1
10
42.4201192575733
20
-0.940863718467995
30
0
41
1
10
42.4209962029994
20
-0.941736778911718
30
0
0
SPLINE
5
DB
100
AcDbEntity
8
1
62
256
6
ByLayer
370
18
48
1
60
0
100
AcDbSpline
70
4
71
3
72
8
73
4
40
0
40
0
40
0
40
0
40
1
40
1
40
1
40
1
41
1
10
41.6884984676756
20
-3.42941178402128
30
0
41
1
10
41.6912569008337
20
-3.41597390753756
30
0
41
1
10
41.6936131382591
20
-3.40308045090393
30
0
41
1
10
41.6955765061385
20
-3.39071263310993
30
0
0
SPLINE
5
DC
100
AcDbEntity
8
1
62
256
6
ByLayer
370
18
48
1
60
0
100
AcDbSpline
70
4
71
3
72
42
73
38
40
0
40
0
40
0
40
0
40
0.0156960544294457
40
0.0156960544294457
40
0.0735962865218307
40
0.0735962865218307
40
0.131496518614216
40
0.131496518614216
40
0.189396750706601
40
0.189396750706601
40
0.247296982798986
40
0.247296982798986
40
0.305197214891371
40
0.305197214891371
40
0.363097446983756
40
0.363097446983756
40
0.420997679076141
40
0.420997679076141
40
0.478897911168526
40
0.478897911168526
40
0.507848027214718
40
0.507848027214718
40
0.53679814326091
40
0.53679814326091
40
0.652598607445682
40
0.652598607445682
40
0.768399071630454
40
0.768399071630454
40
0.82629930372284
40
0.82629930372284
40
0.884199535815227
40
0.884199535815227
40
0.942099767907613
40
0.942099767907613
40
0.971049883953807
40
0.971049883953807
40
1
40
1
40
1
40
1
41
1
10
21.7411974853978
20
3.51417513251093
30
0
41
1
10
21.8457770810504
20
3.51443084263914
30
0
41
1
10
21.950398972534
20
3.51348508165441
30
0
41
1
10
22.4411650301432
20
3.50339151571555
30
0
41
1
10
22.826007502853
20
3.47905113577053
30
0
41
1
10
23.5957794386781
20
3.39850500210571
30
0
41
1
10
23.9805813376326
20
3.34226745107017
30
0
41
1
10
24.7522210816734
20
3.19882014254569
30
0
41
1
10
25.1378951178517
20
3.111785971877
30
0
41
1
10
25.9076818363787
20
2.9101712093788
30
0
41
1
10
26.292191262334
20
2.79532920827677
30
0
41
1
10
27.0629075595666
20
2.54025564653645
30
0
41
1
10
27.4491186650272
20
2.39985504830491
30
0
41
1
10
28.2189134927009
20
2.09893596592551
30
0
41
1
10
28.6032719067248
20
1.93811692767514
30
0
41
1
10
29.373238102304
20
1.59950183032728
30
0
41
1
10
29.7594756621822
20
1.42121147035107
30
0
41
1
10
30.5295431507563
20
1.05398342363546
30
0
41
1
10
30.913820407162
20
0.864832153287409
30
0
41
1
10
31.4908402651034
20
0.576111884539301
30
0
41
1
10
31.6832772672063
20
0.479033581859
30
0
41
1
10
32.0685799303464
20
0.283647525426062
30
0
41
1
10
32.2616147809832
20
0.185295490606393
30
0
41
1
10
33.2248418227245
20
-0.306100497929833
30
0
41
1
10
33.9920970399453
20
-0.699505457472043
30
0
41
1
10
35.5344236212181
20
-1.45140577335593
30
0
41
1
10
36.3009413164592
20
-1.80528075896791
30
0
41
1
10
37.456775652751
20
-2.2801596553644
30
0
41
1
10
37.8420188458816
20
-2.42849987660534
30
0
41
1
10
38.6109547744497
20
-2.70115046052914
30
0
41
1
10
38.9952197645177
20
-2.8256154663332
30
0
41
1
10
39.7655522886067
20
-3.04792244586133
30
0
41
1
10
40.1508067278912
20
-3.14538764218216
30
0
41
1
10
40.7273952368289
20
-3.26896058959312
30
0
41
1
10
40.91951935488
20
-3.30642787002944
30
0
41
1
10
41.3038634237292
20
-3.37371531049561
30
0
41
1
10
41.4958530082755
20
-3.40365196805061
30
0
41
1
10
41.6884984676725
20
-3.42941178402947
30
0
0
SPLINE
5
DD
100
AcDbEntity
8
1
62
256
6
ByLayer
370
18
48
1
60
0
100
AcDbSpline
70
4
71
3
72
12
73
8
40
0
40
0
40
0
40
0
40
0.499999999999981
40
0.499999999999981
40
0.74999999999999
40
0.74999999999999
40
1
40
1
40
1
40
1
41
1
10
42.1715164211127
20
1.22840735472499
30
0
41
1
10
42.2086526119636
20
1.26646199250976
30
0
41
1
10
42.2394678006768
20
1.31185221690239
30
0
41
1
10
42.2634543727003
20
1.38821064884772
30
0
41
1
10
42.2677286535539
20
1.41500233176285
30
0
41
1
10
42.2687542962257
20
1.4681292694288
30
0
41
1
10
42.265586803187
20
1.49504717548493
30
0
41
1
10
42.2595301995866
20
1.52126951837161
30
0
0
SPLINE
5
DE
100
AcDbEntity
8
1
62
256
6
ByLayer
370
18
48
1
60
0
100
AcDbSpline
70
4
71
1
72
4
73
2
40
0
40
0
40
1
40
1
41
1
10
42.4147273660185
20
-0.962900017833761
30
0
41
1
10
42.4209962029778
20
-0.941736778933404
30
0
0
SPLINE
5
DF
100
AcDbEntity
8
1
62
256
6
ByLayer
370
18
48
1
60
0
100
AcDbSpline
70
4
71
3
72
18
73
14
40
0
40
0
40
0
40
0
40
0.250000000000002
40
0.250000000000002
40
0.375000000000002
40
0.375000000000002
40
0.500000000000001
40
0.500000000000001
40
0.750000000000001
40
0.750000000000001
40
0.875
40
0.875
40
1
40
1
40
1
40
1
41
1
10
41.3839190813006
20
0.524569699532606
30
0
41
1
10
41.336903664792
20
0.320472612013475
30
0
41
1
10
41.2989261256054
20
0.114727705095504
30
0
41
1
10
41.255724359269
20
-0.196399257840397
30
0
41
1
10
41.2436310819781
20
-0.300528923095442
30
0
41
1
10
41.224270840083
20
-0.509668204880199
30
0
41
1
10
41.21707629597
20
-0.614231583860914
30
0
41
1
10
41.2032692336724
20
-0.922128139010738
30
0
41
1
10
41.2041467516776
20
-1.1219404402797
30
0
41
1
10
41.2206706529892
20
-1.41343521094603
30
0
41
1
10
41.2287845407184
20
-1.50960956828536
30
0
41
1
10
41.2499589203927
20
-1.69630384963241
30
0
41
1
10
41.2630053976172
20
-1.78701025692436
30
0
41
1
10
41.2784781024271
20
-1.87511142978585
30
0
0
SPLINE
5
E0
100
AcDbEntity
8
1
62
256
6
ByLayer
370
18
48
1
60
0
100
AcDbSpline
70
4
71
1
72
4
73
2
40
0
40
0
40
1
40
1
41
1
10
41.4009991070301
20
0.516262874828527
30
0
41
1
10
41.3524262518251
20
0.540349978268836
30
0
0
SPLINE
5
E1
100
AcDbEntity
8
1
62
256
6
ByLayer
370
18
48
1
60
0
100
AcDbSpline
70
4
71
2
72
6
73
3
40
0
40
0
40
0
40
1
40
1
40
1
41
1
10
21.0707603574744
20
-0.0079600149310295
30
0
41
1
10
20.4343910562652
20
0.131384799434699
30
0
41
1
10
19.8051703891055
20
0.442716222521938
30
0
0
SPLINE
5
E2
100
AcDbEntity
8
1
62
256
6
ByLayer
370
18
48
1
60
0
100
AcDbSpline
70
4
71
3
72
11
73
7
40
0
40
0
40
0
40
0
40
0.203099371188143
40
0.437306985993409
40
0.702860745702401
40
1
40
1
40
1
40
1
41
1
10
31.3955536726465
20
0.007239095765641
30
0
41
1
10
31.489621901834
20
-0.013473647849878
30
0
41
1
10
31.6916737879262
20
-0.063913482434458
30
0
41
1
10
32.0145406661178
20
-0.165395095742184
30
0
41
1
10
32.3788201620179
20
-0.306176345417441
30
0
41
1
10
32.6347957034853
20
-0.425933265367888
30
0
41
1
10
32.7696053920518
20
-0.494856615452875
30
0
0
SPLINE
5
E3
100
AcDbEntity
8
1
62
256
6
ByLayer
370
18
48
1
60
0
100
AcDbSpline
70
4
71
3
72
29
73
25
40
0
40
0
40
0
40
0
40
0.0743035981792969
40
0.136481358693217
40
0.189058123284797
40
0.23655747869608
40
0.276898081933889
40
0.312627301667759
40
0.368383326008688
40
0.432590886893348
40
0.481176711982548
40
0.526699578177146
40
0.581030680642957
40
0.637282631968527
40
0.690040983292868
40
0.730138860223362
40
0.773678549906303
40
0.820567467903823
40
0.867410410931344
40
0.902974161142203
40
0.916700823772318
40
0.935991127279283
40
0.965583753592248
40
1
40
1
40
1
40
1
41
1
10
22.2200292953044
20
-3.41893918194964
30
0
41
1
10
22.4499938315444
20
-3.41886354929272
30
0
41
1
10
22.8726126134286
20
-3.41911219577966
30
0
41
1
10
23.4602910116841
20
-3.42095797396121
30
0
41
1
10
23.9623603075113
20
-3.42243759249791
30
0
41
1
10
24.3987720810579
20
-3.4227629340163
30
0
41
1
10
24.782392009687
20
-3.4229675086105
30
0
41
1
10
25.1916603321794
20
-3.42317760487774
30
0
41
1
10
25.6752054949142
20
-3.42427087500479
30
0
41
1
10
26.198532390374
20
-3.42566668774947
30
0
41
1
10
26.6901847202411
20
-3.42663740905246
30
0
41
1
10
27.151148245595
20
-3.42811925927936
30
0
41
1
10
27.6359238544361
20
-3.42731960493532
30
0
41
1
10
28.143167956739
20
-3.42733480424045
30
0
41
1
10
28.6062088433035
20
-3.42768183579187
30
0
41
1
10
29.0297777825536
20
-3.42915440697882
30
0
41
1
10
29.4350930906687
20
-3.43237674367032
30
0
41
1
10
29.8613074974669
20
-3.43183275393866
30
0
41
1
10
30.2627002347368
20
-3.43145374372838
30
0
41
1
10
30.5615332842653
20
-3.4313300435829
30
0
41
1
10
30.7735509946265
20
-3.43140552446769
30
0
41
1
10
30.9678001341664
20
-3.43155879468682
30
0
41
1
10
31.226473544688
20
-3.4322496932528
30
0
41
1
10
31.4252304699838
20
-3.43319954680393
30
0
41
1
10
31.5321168425823
20
-3.43383787558761
30
0
0
SPLINE
5
E4
100
AcDbEntity
8
1
62
256
6
ByLayer
370
18
48
1
60
0
100
AcDbSpline
70
4
71
1
72
4
73
2
40
0
40
0
40
1
40
1
41
1
10
9.92109624394499
20
3.39581427210118
30
0
41
1
10
9.83474726712899
20
3.39582941564595
30
0
0
SPLINE
5
E5
100
AcDbEntity
8
1
62
256
6
ByLayer
370
18
48
1
60
0
100
AcDbSpline
70
4
71
3
72
19
73
15
40
0
40
0
40
0
40
0
40
0.0759393234753087
40
0.182154614599943
40
0.256169783060016
40
0.343080767640964
40
0.417082520764926
40
0.508845641880086
40
0.619403999680517
40
0.727041899067793
40
0.789111308247232
40
0.845412220578483
40
0.93025331800108
40
1
40
1
40
1
40
1
41
1
10
9.83474726712899
20
3.39582941564595
30
0
41
1
10
9.70831188596509
20
3.39595264368185
30
0
41
1
10
9.40495545343393
20
3.39610809299899
30
0
41
1
10
8.9778033622853
20
3.3948192730378
30
0
41
1
10
8.53256506607113
20
3.39481841414226
30
0
41
1
10
8.13916924215835
20
3.39314883019989
30
0
41
1
10
7.71570438677568
20
3.39267995975325
30
0
41
1
10
7.25269586636784
20
3.39234741827911
30
0
41
1
10
6.73329654653264
20
3.39153750092123
30
0
41
1
10
6.26366065392685
20
3.39086898940201
30
0
41
1
10
5.88494437369542
20
3.38970629811229
30
0
41
1
10
5.54442647492542
20
3.38888151471656
30
0
41
1
10
5.19104516351888
20
3.38858193169992
30
0
41
1
10
4.93200552918586
20
3.38822300632927
30
0
41
1
10
4.81513242866566
20
3.38807497564605
30
0
0
SPLINE
5
E6
100
AcDbEntity
8
1
62
256
6
ByLayer
370
18
48
1
60
0
100
AcDbSpline
70
4
71
3
72
26
73
22
40
0
40
0
40
0
40
0
40
0.0391235974532413
40
0.0889709268596881
40
0.116668711475926
40
0.151722746290674
40
0.195842907309868
40
0.242545851690346
40
0.281630182271354
40
0.312991325186663
40
0.376936327932003
40
0.458350768882563
40
0.538303551052009
40
0.590912083970433
40
0.647716567354265
40
0.722328892842536
40
0.785642941970984
40
0.834598257294186
40
0.892640332508576
40
0.960112977442656
40
1
40
1
40
1
40
1
41
1
10
31.5319451801412
20
3.4338370517992
30
0
41
1
10
31.4251078706467
20
3.43319847141549
30
0
41
1
10
31.182284543863
20
3.432020563799
30
0
41
1
10
30.8634565434061
20
3.43140295002345
30
0
41
1
10
30.557311246709
20
3.43133118176024
30
0
41
1
10
30.2653202210069
20
3.43145756690379
30
0
41
1
10
29.9216951426671
20
3.43179427879116
30
0
41
1
10
29.5670875093237
20
3.43218961369743
30
0
41
1
10
29.2472682409504
20
3.43118363864272
30
0
41
1
10
28.8803521609248
20
3.42814273819306
30
0
41
1
10
28.3978464447665
20
3.42753467302492
30
0
41
1
10
27.7826768002848
20
3.42710366845759
30
0
41
1
10
27.1984526688701
20
3.42824638940215
30
0
41
1
10
26.681430121182
20
3.42660865927022
30
0
41
1
10
26.1789676371337
20
3.42563685926436
30
0
41
1
10
25.6473925298501
20
3.42417462054675
30
0
41
1
10
25.1370636125076
20
3.42310057179816
30
0
41
1
10
24.6722634581728
20
3.42292784413979
30
0
41
1
10
24.1957549779855
20
3.42264179226973
30
0
41
1
10
23.7446568836366
20
3.4219822265944
30
0
41
1
10
23.451903408205
20
3.42096449110383
30
0
41
1
10
23.3431482445896
20
3.42059186603572
30
0
0
SPLINE
5
E7
100
AcDbEntity
8
1
62
256
6
ByLayer
370
18
48
1
60
0
100
AcDbSpline
70
4
71
3
72
20
73
16
40
0
40
0
40
0
40
0
40
0.0712729820410974
40
0.156476796890068
40
0.212903310532555
40
0.27713782604392
40
0.361921994473617
40
0.479512860637773
40
0.576654820095655
40
0.654291476016725
40
0.727778589264526
40
0.788462703697303
40
0.862209214098495
40
0.964727428195776
40
1
40
1
40
1
40
1
41
1
10
4.81513244313857
20
-3.38807402873914
30
0
41
1
10
4.93504281939573
20
-3.38822399113562
30
0
41
1
10
5.1983009716067
20
-3.38858852055617
30
0
41
1
10
5.55649073611752
20
-3.38889790487707
30
0
41
1
10
5.90284063851917
20
-3.38975869953111
30
0
41
1
10
6.2484815794073
20
-3.39081424906229
30
0
41
1
10
6.69703414794751
20
-3.39151461697014
30
0
41
1
10
7.20092224132031
20
-3.39226958745601
30
0
41
1
10
7.69287650392195
20
-3.39267561666043
30
0
41
1
10
8.11036309619334
20
-3.39309021384435
30
0
41
1
10
8.46731873107871
20
-3.39454025513595
30
0
41
1
10
8.81307325879902
20
-3.39480415550014
30
0
41
1
10
9.21485818146502
20
-3.39562901742241
30
0
41
1
10
9.56201587686377
20
-3.39575760424106
30
0
41
1
10
9.79385420673765
20
-3.39587503835173
30
0
41
1
10
9.85325188119111
20
-3.39589771307709
30
0
0
SPLINE
5
E8
100
AcDbEntity
8
1
62
256
6
ByLayer
370
18
48
1
60
0
100
AcDbSpline
70
4
71
1
72
4
73
2
40
0
40
0
40
1
40
1
41
1
10
9.85325188119111
20
-3.39589771307709
30
0
41
1
10
9.92687932220173
20
-3.39593110133723
30
0
0
LINE
5
7B
100
AcDbEntity
8
SK1
62
256
6
ByLayer
370
18
48
1
60
0
100
AcDbLine
10
0
20
-4
30
0
11
0
21
4
31
0
39
0
210
0
220
0
230
1
0
LINE
5
7D
100
AcDbEntity
8
SK1
62
256
6
ByLayer
370
18
48
1
60
0
100
AcDbLine
10
-34.845299
20
4
30
0
11
-34.845299
21
-4
31
0
39
0
210
0
220
0
230
1
0
LINE
5
7E
100
AcDbEntity
8
SK1
62
256
6
ByLayer
370
18
48
1
60
0
100
AcDbLine
10
-36
20
2
30
0
11
-36
21
-2
31
0
39
0
210
0
220
0
230
1
0
LINE
5
7F
100
AcDbEntity
8
1
62
256
6
ByLayer
370
13
48
1
60
0
100
AcDbLine
10
0.613203
20
3.738627
30
0
11
0.613203
21
-3.738627
31
0
39
0
210
0
220
0
230
1
0
LINE
5
80
100
AcDbEntity
8
1
62
256
6
ByLayer
370
13
48
1
60
0
100
AcDbLine
10
1.227936
20
3.477256
30
0
11
1.227936
21
-3.477256
31
0
39
0
210
0
220
0
230
1
0
LINE
5
81
100
AcDbEntity
8
1
62
256
6
ByLayer
370
18
48
1
60
0
100
AcDbLine
10
0
20
-4
30
0
11
0
21
4
31
0
39
0
210
0
220
0
230
1
0
LINE
5
82
100
AcDbEntity
8
1
62
256
6
ByLayer
370
18
48
1
60
0
100
AcDbLine
10
41.278478
20
-1.875111
30
0
11
42.414727
21
-0.9629
31
0
39
0
210
0
220
0
230
1
0
LINE
5
83
100
AcDbEntity
8
1
62
256
6
ByLayer
370
18
48
1
60
0
100
AcDbLine
10
42.414727
20
-0.9629
30
0
11
42.418365
21
-0.939118
31
0
39
0
210
0
220
0
230
1
0
LINE
5
84
100
AcDbEntity
8
80
62
256
6
ByLayer
370
18
48
1
60
0
100
AcDbLine
10
0
20
0
30
0
11
-5
21
0
31
0
39
0
210
0
220
0
230
1
0
LINE
5
85
100
AcDbEntity
8
4
62
256
6
ByLayer
370
18
48
0.05
60
0
100
AcDbLine
10
43
20
0
30
0
11
0
21
0
31
0
39
0
210
0
220
0
230
1
0
LINE
5
87
100
AcDbEntity
8
SK4
62
256
6
ByLayer
370
18
48
0.05
60
0
100
AcDbLine
10
48
20
0
30
0
11
-41
21
0
31
0
39
0
210
0
220
0
230
1
0
LINE
5
89
100
AcDbEntity
8
SK1
62
256
6
ByLayer
370
18
48
1
60
0
100
AcDbLine
10
-36
20
-2
30
0
11
-34.845299
21
-4
31
0
39
0
210
0
220
0
230
1
0
LINE
5
8A
100
AcDbEntity
8
SK1
62
256
6
ByLayer
370
18
48
1
60
0
100
AcDbLine
10
-34.845299
20
4
30
0
11
-36
21
2
31
0
39
0
210
0
220
0
230
1
0
LINE
5
8B
100
AcDbEntity
8
SK1
62
256
6
ByLayer
370
18
48
1
60
0
100
AcDbLine
10
-34.845299
20
-4
30
0
11
0
21
-4
31
0
39
0
210
0
220
0
230
1
0
LINE
5
8C
100
AcDbEntity
8
SK1
62
256
6
ByLayer
370
18
48
1
60
0
100
AcDbLine
10
0
20
4
30
0
11
-34.845299
21
4
31
0
39
0
210
0
220
0
230
1
0
LINE
5
8D
100
AcDbEntity
8
1
62
256
6
ByLayer
370
18
48
1
60
0
100
AcDbLine
10
1.227936
20
-3.477256
30
0
11
4.388796
21
-3.482945
31
0
39
0
210
0
220
0
230
1
0
LINE
5
8E
100
AcDbEntity
8
1
62
256
6
ByLayer
370
18
48
1
60
0
100
AcDbLine
10
20.916666
20
-3.512695
30
0
11
21.750086
21
-3.514196
31
0
39
0
210
0
220
0
230
1
0
LINE
5
8F
100
AcDbEntity
8
1
62
256
6
ByLayer
370
18
48
1
60
0
100
AcDbLine
10
21.750086
20
3.514196
30
0
11
20.916666
21
3.512695
31
0
39
0
210
0
220
0
230
1
0
LINE
5
90
100
AcDbEntity
8
1
62
256
6
ByLayer
370
18
48
1
60
0
100
AcDbLine
10
4.388796
20
3.482945
30
0
11
1.227936
21
3.477256
31
0
39
0
210
0
220
0
230
1
0
LINE
5
91
100
AcDbEntity
8
81
62
256
6
ByLayer
370
18
48
1
60
0
100
AcDbLine
10
43
20
0
30
0
11
48
21
0
31
0
39
0
210
0
220
0
230
1
0
LINE
5
92
100
AcDbEntity
8
SK2
62
256
6
ByLayer
370
13
48
1
60
0
100
AcDbLine
10
-44.625163
20
-4
30
0
11
-44.625163
21
33.117107
31
0
39
0
210
0
220
0
230
1
0
LINE
5
94
100
AcDbEntity
8
SK2
62
256
6
ByLayer
370
13
48
1
60
0
100
AcDbLine
10
-37.5875
20
4
30
0
11
-46.625163
21
4
31
0
39
0
210
0
220
0
230
1
0
LINE
5
95
100
AcDbEntity
8
SK2
62
256
6
ByLayer
370
13
48
1
60
0
100
AcDbLine
10
-37.5875
20
-4
30
0
11
-46.625163
21
-4
31
0
39
0
210
0
220
0
230
1
0
LINE
5
96
100
AcDbEntity
8
1
62
256
6
ByLayer
370
18
48
1
60
1
100
AcDbLine
10
-44.625163
20
4
30
0
11
-44.164379
21
0.500002
31
0
39
0
210
0
220
0
230
1
0
LINE
5
97
100
AcDbEntity
8
1
62
256
6
ByLayer
370
18
48
1
60
1
100
AcDbLine
10
-44.164379
20
0.500002
30
0
11
-45.085946
21
0.499998
31
0
39
0
210
0
220
0
230
1
0
LINE
5
98
100
AcDbEntity
8
1
62
256
6
ByLayer
370
18
48
1
60
1
100
AcDbLine
10
-45.085946
20
0.499998
30
0
11
-44.625163
21
4
31
0
39
0
210
0
220
0
230
1
0
LINE
5
99
100
AcDbEntity
8
1
62
256
6
ByLayer
370
18
48
1
60
1
100
AcDbLine
10
-44.625163
20
-4
30
0
11
-45.085946
21
-0.500002
31
0
39
0
210
0
220
0
230
1
0
LINE
5
9A
100
AcDbEntity
8
1
62
256
6
ByLayer
370
18
48
1
60
1
100
AcDbLine
10
-45.085946
20
-0.500002
30
0
11
-44.164379
21
-0.499998
31
0
39
0
210
0
220
0
230
1
0
LINE
5
9B
100
AcDbEntity
8
1
62
256
6
ByLayer
370
18
48
1
60
1
100
AcDbLine
10
-44.164379
20
-0.499998
30
0
11
-44.625163
21
-4
31
0
39
0
210
0
220
0
230
1
0
LINE
5
9C
100
AcDbEntity
8
2
62
256
6
ByLayer
370
13
48
1
60
0
100
AcDbLine
10
55.083343
20
-3.55
30
0
11
55.083343
21
30.385327
31
0
39
0
210
0
220
0
230
1
0
LINE
5
9E
100
AcDbEntity
8
2
62
256
6
ByLayer
370
13
48
1
60
0
100
AcDbLine
10
43.2289
20
3.55
30
0
11
57.083343
21
3.55
31
0
39
0
210
0
220
0
230
1
0
LINE
5
9F
100
AcDbEntity
8
2
62
256
6
ByLayer
370
13
48
1
60
0
100
AcDbLine
10
43.2289
20
-3.55
30
0
11
57.083343
21
-3.55
31
0
39
0
210
0
220
0
230
1
0
LINE
5
A0
100
AcDbEntity
8
1
62
256
6
ByLayer
370
18
48
1
60
1
100
AcDbLine
10
55.083343
20
3.55
30
0
11
55.544126
21
0.050002
31
0
39
0
210
0
220
0
230
1
0
LINE
5
A1
100
AcDbEntity
8
1
62
256
6
ByLayer
370
18
48
1
60
1
100
AcDbLine
10
55.544126
20
0.050002
30
0
11
54.622559
21
0.049998
31
0
39
0
210
0
220
0
230
1
0
LINE
5
A2
100
AcDbEntity
8
1
62
256
6
ByLayer
370
18
48
1
60
1
100
AcDbLine
10
54.622559
20
0.049998
30
0
11
55.083343
21
3.55
31
0
39
0
210
0
220
0
230
1
0
LINE
5
A3
100
AcDbEntity
8
1
62
256
6
ByLayer
370
18
48
1
60
1
100
AcDbLine
10
55.083343
20
-3.55
30
0
11
54.622559
21
-0.050002
31
0
39
0
210
0
220
0
230
1
0
LINE
5
A4
100
AcDbEntity
8
1
62
256
6
ByLayer
370
18
48
1
60
1
100
AcDbLine
10
54.622559
20
-0.050002
30
0
11
55.544126
21
-0.049998
31
0
39
0
210
0
220
0
230
1
0
LINE
5
A5
100
AcDbEntity
8
1
62
256
6
ByLayer
370
18
48
1
60
1
100
AcDbLine
10
55.544126
20
-0.049998
30
0
11
55.083343
21
-3.55
31
0
39
0
210
0
220
0
230
1
0
LINE
5
EF
100
AcDbEntity
8
1
62
256
6
ByLayer
370
18
48
1
60
1
100
AcDbLine
10
-44.625163
20
4
30
0
11
-44.164379
21
0.500002
31
0
39
0
210
0
220
0
230
1
0
LINE
5
F0
100
AcDbEntity
8
1
62
256
6
ByLayer
370
18
48
1
60
1
100
AcDbLine
10
-44.164379
20
0.500002
30
0
11
-45.085946
21
0.499998
31
0
39
0
210
0
220
0
230
1
0
LINE
5
F1
100
AcDbEntity
8
1
62
256
6
ByLayer
370
18
48
1
60
1
100
AcDbLine
10
-45.085946
20
0.499998
30
0
11
-44.625163
21
4
31
0
39
0
210
0
220
0
230
1
0
LINE
5
F3
100
AcDbEntity
8
1
62
256
6
ByLayer
370
18
48
1
60
1
100
AcDbLine
10
-44.625163
20
-4
30
0
11
-45.085946
21
-0.500002
31
0
39
0
210
0
220
0
230
1
0
LINE
5
F4
100
AcDbEntity
8
1
62
256
6
ByLayer
370
18
48
1
60
1
100
AcDbLine
10
-45.085946
20
-0.500002
30
0
11
-44.164379
21
-0.499998
31
0
39
0
210
0
220
0
230
1
0
LINE
5
F5
100
AcDbEntity
8
1
62
256
6
ByLayer
370
18
48
1
60
1
100
AcDbLine
10
-44.164379
20
-0.499998
30
0
11
-44.625163
21
-4
31
0
39
0
210
0
220
0
230
1
0
LINE
5
F9
100
AcDbEntity
8
1
62
256
6
ByLayer
370
18
48
1
60
1
100
AcDbLine
10
55.083343
20
3.55
30
0
11
55.544126
21
0.050002
31
0
39
0
210
0
220
0
230
1
0
LINE
5
FA
100
AcDbEntity
8
1
62
256
6
ByLayer
370
18
48
1
60
1
100
AcDbLine
10
55.544126
20
0.050002
30
0
11
54.622559
21
0.049998
31
0
39
0
210
0
220
0
230
1
0
LINE
5
FB
100
AcDbEntity
8
1
62
256
6
ByLayer
370
18
48
1
60
1
100
AcDbLine
10
54.622559
20
0.049998
30
0
11
55.083343
21
3.55
31
0
39
0
210
0
220
0
230
1
0
LINE
5
FD
100
AcDbEntity
8
1
62
256
6
ByLayer
370
18
48
1
60
1
100
AcDbLine
10
55.083343
20
-3.55
30
0
11
54.622559
21
-0.050002
31
0
39
0
210
0
220
0
230
1
0
LINE
5
FE
100
AcDbEntity
8
1
62
256
6
ByLayer
370
18
48
1
60
1
100
AcDbLine
10
54.622559
20
-0.050002
30
0
11
55.544126
21
-0.049998
31
0
39
0
210
0
220
0
230
1
0
LINE
5
FF
100
AcDbEntity
8
1
62
256
6
ByLayer
370
18
48
1
60
1
100
AcDbLine
10
55.544126
20
-0.049998
30
0
11
55.083343
21
-3.55
31
0
39
0
210
0
220
0
230
1
0
MTEXT
5
E9
100
AcDbEntity
8
SK6
62
256
6
ByLayer
370
13
48
1
60
0
100
AcDbMText
10
-24.609026
20
36.090328
30
0
210
0
220
0
230
1
1
\W0.7386;860.1-0710-028A0-PM P1BM
40
3.5
41
0
44
1.084337
50
0
71
7
72
5
7
iso_b_vert
0
MTEXT
5
ED
100
AcDbEntity
8
SK2
62
256
6
ByLayer
370
18
48
1
60
0
100
AcDbMText
10
-46.189796
20
17.409024
30
0
210
0
220
0
230
1
1
%%c
40
3.5
41
0
44
1.084337
50
90
71
7
72
5
7
iso_b_vert
0
MTEXT
5
EE
100
AcDbEntity
8
SK2
62
256
6
ByLayer
370
18
48
1
60
0
100
AcDbMText
10
-46.189796
20
22.63168
30
0
210
0
220
0
230
1
1
\W0.7317;8,000
40
3.5
41
0
44
1.084337
50
90
71
7
72
5
7
iso_b_vert
0
MTEXT
5
F7
100
AcDbEntity
8
2
62
256
6
ByLayer
370
18
48
1
60
0
100
AcDbMText
10
53.518709
20
15.55211
30
0
210
0
220
0
230
1
1
%%c
40
3.5
41
0
44
1.084337
50
90
71
7
72
5
7
iso_b_vert
0
MTEXT
5
F8
100
AcDbEntity
8
2
62
256
6
ByLayer
370
18
48
1
60
0
100
AcDbMText
10
53.518709
20
20.774766
30
0
210
0
220
0
230
1
1
\W0.6713;7,100
40
3.5
41
0
44
1.084337
50
90
71
7
72
5
7
iso_b_vert
0
HATCH
5
F2
100
AcDbEntity
8
SK2
62
256
6
ByLayer
370
13
48
1
60
0
100
AcDbHatch
10
0
20
0
30
0
210
0
220
0
230
1
2
ANSI31
70
0
71
0
91
1
92
5
93
3
72
1
10
-44.6251625675374
20
4
11
-44.1643788259847
21
0.500001692553184
72
1
10
-44.1643788259847
20
0.500001692553184
11
-45.0859463090902
21
0.499998307446816
72
1
10
-45.0859463090902
20
0.499998307446816
11
-44.6251625675374
21
4
97
0
75
0
76
1
52
0
41
0.0062
77
0
78
1
53
45
43
0
44
0
45
-0.0139193969876572
46
0.0139193969876572
79
0
47
0
98
1
10
0
20
0
0
HATCH
5
F6
100
AcDbEntity
8
SK2
62
256
6
ByLayer
370
13
48
1
60
0
100
AcDbHatch
10
0
20
0
30
0
210
0
220
0
230
1
2
ANSI31
70
0
71
0
91
1
92
5
93
3
72
1
10
-44.6251625675374
20
-4
11
-45.0859463090902
21
-0.500001692553184
72
1
10
-45.0859463090902
20
-0.500001692553184
11
-44.1643788259847
21
-0.499998307446816
72
1
10
-44.1643788259847
20
-0.499998307446816
11
-44.6251625675374
21
-4
97
0
75
0
76
1
52
0
41
0.0062
77
0
78
1
53
45
43
0
44
0
45
-0.0139193969876572
46
0.0139193969876572
79
0
47
0
98
1
10
0
20
0
0
HATCH
5
FC
100
AcDbEntity
8
2
62
256
6
ByLayer
370
13
48
1
60
0
100
AcDbHatch
10
0
20
0
30
0
210
0
220
0
230
1
2
ANSI31
70
0
71
0
91
1
92
5
93
3
72
1
10
55.083342615295
20
3.55000000000001
11
55.5441263568478
21
0.0500016925531952
72
1
10
55.5441263568478
20
0.0500016925531952
11
54.6225588737423
21
0.0499983074468275
72
1
10
54.6225588737423
20
0.0499983074468275
11
55.083342615295
21
3.55000000000001
97
0
75
0
76
1
52
0
41
0.0062
77
0
78
1
53
45
43
0
44
0
45
-0.0139193969876572
46
0.0139193969876572
79
0
47
0
98
1
10
0
20
0
0
HATCH
5
100
100
AcDbEntity
8
2
62
256
6
ByLayer
370
13
48
1
60
0
100
AcDbHatch
10
0
20
0
30
0
210
0
220
0
230
1
2
ANSI31
70
0
71
0
91
1
92
5
93
3
72
1
10
55.083342615295
20
-3.54999999999998
11
54.6225588737423
21
-0.0500016925531668
72
1
10
54.6225588737423
20
-0.0500016925531668
11
55.5441263568478
21
-0.0499983074467991
72
1
10
55.5441263568478
20
-0.0499983074467991
11
55.083342615295
21
-3.54999999999998
97
0
75
0
76
1
52
0
41
0.0062
77
0
78
1
53
45
43
0
44
0
45
-0.0139193969876572
46
0.0139193969876572
79
0
47
0
98
1
10
0
20
0
0
DIMENSION
5
102
100
AcDbEntity
8
2
62
256
6
ByLayer
370
13
48
1
60
0
100
AcDbDimension
2
_U0
10
41.6414
20
-13.763398
30
0
11
20.8207
21
-13.763398
31
0
70
32
71
1
72
1
41
1
210
0
220
0
230
1
3
Standard
100
AcDbAlignedDimension
13
0
23
0
33
0
14
41.6414
24
-3.55
34
0
50
0
100
AcDbRotatedDimension
1001
ACAD
1000
DSTYLE
1002
{
1070
   371
1070
    13
1070
   372
1070
    13
1070
   170
1070
     0
1070
   144
1040
1.0
1070
   277
1070
     2
1070
   278
1070
    44
1070
   146
1040
1.0
1070
   345
1005
16
1070
   347
1005
16
1070
   346
1005
16
1070
   344
1005
0
1070
   343
1005
0
1070
   172
1070
     1
1070
    76
1070
     0
1070
    75
1070
     0
1070
   282
1070
     0
1070
   281
1070
     0
1070
    71
1070
     0
1070
    74
1070
     0
1070
   279
1070
     0
1070
   173
1070
     1
1070
   340
1005
EA
1070
   271
1070
     2
1070
   272
1070
     2
1070
    77
1070
     1
1070
    73
1070
     1
1070
   171
1070
     3
1070
   274
1070
     4
1070
   177
1070
    35
1070
   176
1070
    35
1070
   178
1070
    35
1070
    48
1040
-0.1
1070
    41
1040
3.5
1070
   147
1040
1.75
1070
    42
1040
1.5875
1070
    44
1040
2.0
1070
   140
1040
3.5
1002
}
1001
ACAD_DSTYLE_DIM_LINETYPE
1070
   380
1005
16
1001
ACAD_DSTYLE_DIM_EXT1_LINETYPE
1070
   381
1005
16
1001
ACAD_DSTYLE_DIM_EXT2_LINETYPE
1070
   382
1005
16
0
DIMENSION
5
11B
100
AcDbEntity
8
SK2
62
256
6
ByLayer
370
13
48
1
60
0
100
AcDbDimension
2
_U1
10
43
20
-32.692985
30
0
11
3.5
21
-32.692985
31
0
70
32
71
1
72
1
41
1
210
0
220
0
230
1
3
Standard
100
AcDbAlignedDimension
13
-36
23
-4
33
0
14
43
24
0
34
0
50
0
100
AcDbRotatedDimension
1001
ACAD
1000
DSTYLE
1002
{
1070
   371
1070
    13
1070
   372
1070
    13
1070
   170
1070
     0
1070
   144
1040
1.0
1070
   277
1070
     2
1070
   278
1070
    44
1070
   146
1040
1.0
1070
   345
1005
16
1070
   347
1005
16
1070
   346
1005
16
1070
   344
1005
0
1070
   343
1005
0
1070
   172
1070
     1
1070
    76
1070
     0
1070
    75
1070
     0
1070
   282
1070
     0
1070
   281
1070
     0
1070
    71
1070
     0
1070
    74
1070
     0
1070
   279
1070
     0
1070
   173
1070
     1
1070
   340
1005
EA
1070
   271
1070
     2
1070
   272
1070
     2
1070
    77
1070
     1
1070
    73
1070
     1
1070
   171
1070
     3
1070
   274
1070
     4
1070
   177
1070
    35
1070
   176
1070
    35
1070
   178
1070
    35
1070
    48
1040
-0.1
1070
    41
1040
3.5
1070
   147
1040
1.75
1070
    42
1040
1.5875
1070
    44
1040
2.0
1070
   140
1040
3.5
1002
}
1001
ACAD_DSTYLE_DIM_LINETYPE
1070
   380
1005
16
1001
ACAD_DSTYLE_DIM_EXT1_LINETYPE
1070
   381
1005
16
1001
ACAD_DSTYLE_DIM_EXT2_LINETYPE
1070
   382
1005
16
0
DIMENSION
5
133
100
AcDbEntity
8
SK2
62
256
6
ByLayer
370
13
48
1
60
0
100
AcDbDimension
2
_U2
10
43
20
15.159119
30
0
11
31.67
21
15.159119
31
0
70
32
71
1
72
1
41
1
210
0
220
0
230
1
3
Standard
100
AcDbAlignedDimension
13
20.34
23
3.55
33
0
14
43
24
0
34
0
50
0
100
AcDbRotatedDimension
1001
ACAD
1000
DSTYLE
1002
{
1070
   371
1070
    13
1070
   372
1070
    13
1070
   170
1070
     0
1070
   144
1040
1.0
1070
   277
1070
     2
1070
   278
1070
    44
1070
   146
1040
1.0
1070
   345
1005
16
1070
   347
1005
16
1070
   346
1005
16
1070
   344
1005
0
1070
   343
1005
0
1070
   172
1070
     1
1070
    76
1070
     0
1070
    75
1070
     0
1070
   282
1070
     0
1070
   281
1070
     0
1070
    71
1070
     0
1070
    74
1070
     0
1070
   279
1070
     0
1070
   173
1070
     1
1070
   340
1005
EA
1070
   271
1070
     2
1070
   272
1070
     2
1070
    77
1070
     1
1070
    73
1070
     1
1070
   171
1070
     3
1070
   274
1070
     4
1070
   177
1070
    35
1070
   176
1070
    35
1070
   178
1070
    35
1070
    48
1040
-0.1
1070
    41
1040
3.5
1070
   147
1040
1.75
1070
    42
1040
1.5875
1070
    44
1040
2.0
1070
   140
1040
3.5
1002
}
1001
ACAD_DSTYLE_DIM_LINETYPE
1070
   380
1005
16
1001
ACAD_DSTYLE_DIM_EXT1_LINETYPE
1070
   381
1005
16
1001
ACAD_DSTYLE_DIM_EXT2_LINETYPE
1070
   382
1005
16
0
DIMENSION
5
14B
100
AcDbEntity
8
SK2
62
256
6
ByLayer
370
13
48
1
60
0
100
AcDbDimension
2
_U3
10
41.6414
20
-16.352503
30
0
11
60.333333
21
-16.352503
31
0
70
32
71
1
72
1
41
1
210
0
220
0
230
1
3
Standard
100
AcDbAlignedDimension
13
43
23
0
33
0
14
41.6414
24
-3.55
34
0
50
0
100
AcDbRotatedDimension
1001
ACAD
1000
DSTYLE
1002
{
1070
   371
1070
    13
1070
   372
1070
    13
1070
   170
1070
     0
1070
   144
1040
1.0
1070
   277
1070
     2
1070
   278
1070
    44
1070
   146
1040
1.0
1070
   345
1005
16
1070
   347
1005
16
1070
   346
1005
16
1070
   344
1005
0
1070
   343
1005
0
1070
   172
1070
     1
1070
    76
1070
     0
1070
    75
1070
     0
1070
   282
1070
     0
1070
   281
1070
     0
1070
    71
1070
     0
1070
    74
1070
     0
1070
   279
1070
     0
1070
   173
1070
     1
1070
   340
1005
EA
1070
   271
1070
     2
1070
   272
1070
     2
1070
    77
1070
     1
1070
    73
1070
     1
1070
   171
1070
     3
1070
   274
1070
     4
1070
   177
1070
    35
1070
   176
1070
    35
1070
   178
1070
    35
1070
    48
1040
-0.1
1070
    41
1040
3.5
1070
   147
1040
1.75
1070
    42
1040
1.5875
1070
    44
1040
2.0
1070
   140
1040
3.5
1002
}
1001
ACAD_DSTYLE_DIM_LINETYPE
1070
   380
1005
16
1001
ACAD_DSTYLE_DIM_EXT1_LINETYPE
1070
   381
1005
16
1001
ACAD_DSTYLE_DIM_EXT2_LINETYPE
1070
   382
1005
16
0
DIMENSION
5
165
100
AcDbEntity
8
SK2
62
256
6
ByLayer
370
13
48
1
60
0
100
AcDbDimension
2
_U4
10
41.6414
20
-22.343428
30
0
11
2.8207
21
-22.343428
31
0
70
32
71
1
72
1
41
1
210
0
220
0
230
1
3
Standard
100
AcDbAlignedDimension
13
-36
23
-4
33
0
14
41.6414
24
-3.55
34
0
50
0
100
AcDbRotatedDimension
1001
ACAD
1000
DSTYLE
1002
{
1070
   371
1070
    13
1070
   372
1070
    13
1070
   170
1070
     0
1070
   144
1040
1.0
1070
   277
1070
     2
1070
   278
1070
    44
1070
   146
1040
1.0
1070
   345
1005
16
1070
   347
1005
16
1070
   346
1005
16
1070
   344
1005
0
1070
   343
1005
0
1070
   172
1070
     1
1070
    76
1070
     0
1070
    75
1070
     0
1070
   282
1070
     0
1070
   281
1070
     0
1070
    71
1070
     0
1070
    74
1070
     0
1070
   279
1070
     0
1070
   173
1070
     1
1070
   340
1005
EA
1070
   271
1070
     2
1070
   272
1070
     2
1070
    77
1070
     1
1070
    73
1070
     1
1070
   171
1070
     3
1070
   274
1070
     4
1070
   177
1070
    35
1070
   176
1070
    35
1070
   178
1070
    35
1070
    48
1040
-0.1
1070
    41
1040
3.5
1070
   147
1040
1.75
1070
    42
1040
1.5875
1070
    44
1040
2.0
1070
   140
1040
3.5
1002
}
1001
ACAD_DSTYLE_DIM_LINETYPE
1070
   380
1005
16
1001
ACAD_DSTYLE_DIM_EXT1_LINETYPE
1070
   381
1005
16
1001
ACAD_DSTYLE_DIM_EXT2_LINETYPE
1070
   382
1005
16
0
ENDSEC
0
SECTION
2
OBJECTS
0
DICTIONARY
5
1ed
330
0
100
AcDbDictionary
280
0
281
1
3
ACAD_GROUP
350
1ee
3
ACAD_MLINESTYLE
350
1ef
0
DICTIONARY
5
1ee
330
0
100
AcDbDictionary
280
0
281
1
0
DICTIONARY
5
1ef
330
0
100
AcDbDictionary
280
0
281
1
3
Standard
350
18
0
MLINESTYLE
5
18
330
1ef
100
AcDbMlineStyle
2
Standard
70
0
3

62
256
51
90
52
90
71
2
49
-0.5
62
256
6
ByLayer
49
0.5
62
256
6
ByLayer
0
RASTERVARIABLES
5
1db
330

100
AcDbRasterVariables
90
0
70
1
71
1
72
1
0
ENDSEC
0
EOF
