0
SECTION
2
HEADER
9
$ACADVER
1
AC1015
9
$DWGCODEPAGE
3
ANSI_1252
9
$HANDSEED
5
20f
9
$ANGBASE
50
0
9
$ANGDIR
70
0
9
$ATTMODE
70
1
9
$AUNITS
70
0
9
$AUPREC
70
0
9
$CECOLOR
62
256
9
$CELTSCALE
40
1
9
$CELTYPE
6
ByLayer
9
$CELWEIGHT
370
18
9
$CLAYER
8
0
9
$CMLJUST
70
0
9
$CMLSCALE
40
1
9
$CMLSTYLE
2
Standard
9
$DIMSTYLE
2
Standard
9
$TEXTSIZE
40
0.2
9
$TEXTSTYLE
7
Standard
9
$LUNITS
70
2
9
$LUPREC
70
4
9
$EXTNAMES
290
1
9
$INSUNITS
70
4
9
$LTSCALE
40
1
9
$LWDISPLAY
290
1
9
$PDMODE
70
0
9
$PDSIZE
40
0
9
$PLINEGEN
70
0
0
ENDSEC
0
SECTION
2
CLASSES
0
CLASS
1
RASTERVARIABLES
2
AcDbRasterVariables
3
ISM
90
0
280
0
281
0
0
ENDSEC
0
SECTION
2
TABLES
0
TABLE
2
VPORT
5
205
100
AcDbSymbolTable
0
VPORT
5
1
100
AcDbSymbolTableRecord
100
AcDbViewportTableRecord
2
*Active
70
0
10
0
20
0
11
1
21
1
12
-1
22
1
13
0
23
0
14
0.5
24
0.5
15
10
25
10
16
0
26
0
36
1
17
0
27
0
37
0
0
ENDTAB
0
TABLE
2
LTYPE
5
206
100
AcDbSymbolTable
0
LTYPE
5
14
100
AcDbSymbolTableRecord
100
AcDbLinetypeTableRecord
70
0
2
ByBlock
3

72
65
73
0
40
0
0
LTYPE
5
15
100
AcDbSymbolTableRecord
100
AcDbLinetypeTableRecord
70
0
2
ByLayer
3

72
65
73
0
40
0
0
LTYPE
5
16
100
AcDbSymbolTableRecord
100
AcDbLinetypeTableRecord
70
0
2
Continuous
3
Solid line
72
65
73
0
40
0
0
LTYPE
5
6E
100
AcDbSymbolTableRecord
100
AcDbLinetypeTableRecord
70
0
2
CENTER
3
____ _ ____ _ ____ _ ____
72
65
73
4
40
47.5
49
22
74
0
49
-8.5
74
0
49
8.5
74
0
49
-8.5
74
0
0
LTYPE
5
6F
100
AcDbSymbolTableRecord
100
AcDbLinetypeTableRecord
70
0
2
DASHED
3
__ __ __ __ __ __ __ __ __
72
65
73
2
40
25.72
49
12.86
74
0
49
-12.86
74
0
0
ENDTAB
0
TABLE
2
LAYER
5
207
100
AcDbSymbolTable
0
LAYER
5
10
100
AcDbSymbolTableRecord
100
AcDbLayerTableRecord
2
0
70
0
62
7
6
Continuous
290
1
370
-3
390
0
0
LAYER
5
71
100
AcDbSymbolTableRecord
100
AcDbLayerTableRecord
2
80
70
0
62
-6
6
Continuous
290
1
370
-3
390
0
0
LAYER
5
73
100
AcDbSymbolTableRecord
100
AcDbLayerTableRecord
2
81
70
0
62
-3
6
Continuous
290
1
370
-3
390
0
0
LAYER
5
75
100
AcDbSymbolTableRecord
100
AcDbLayerTableRecord
2
1
70
0
62
4
6
Continuous
290
1
370
-3
390
0
0
LAYER
5
86
100
AcDbSymbolTableRecord
100
AcDbLayerTableRecord
2
4
70
0
62
-2
6
CENTER
290
1
370
-3
390
0
0
LAYER
5
A1
100
AcDbSymbolTableRecord
100
AcDbLayerTableRecord
2
2
70
0
62
7
6
Continuous
290
1
370
-3
390
0
0
LAYER
5
11A
100
AcDbSymbolTableRecord
100
AcDbLayerTableRecord
2
Defpoints
70
0
62
7
6
Continuous
290
0
370
-3
390
0
0
LAYER
5
1f1
100
AcDbSymbolTableRecord
100
AcDbLayerTableRecord
2
SK1
70
0
62
4
6
Continuous
290
1
370
-3
390
0
0
LAYER
5
1f2
100
AcDbSymbolTableRecord
100
AcDbLayerTableRecord
2
SK4
70
0
62
2
6
CENTER
290
1
370
-3
390
0
0
LAYER
5
1f3
100
AcDbSymbolTableRecord
100
AcDbLayerTableRecord
2
SK2
70
0
62
7
6
Continuous
290
1
370
-3
390
0
0
LAYER
5
1f4
100
AcDbSymbolTableRecord
100
AcDbLayerTableRecord
2
SK6
70
0
62
5
6
Continuous
290
1
370
-3
390
0
0
ENDTAB
0
TABLE
2
STYLE
5
208
100
AcDbSymbolTable
0
STYLE
5
11
100
AcDbSymbolTableRecord
100
AcDbTextStyleTableRecord
2
Standard
3
txt
70
0
71
0
40
0
41
1
42
0
50
0
0
STYLE
5
FF
100
AcDbSymbolTableRecord
100
AcDbTextStyleTableRecord
2
iso_b_vert
3
simplex.shx
70
0
71
0
40
0
41
1
42
0
50
0
0
STYLE
5
100
100
AcDbSymbolTableRecord
100
AcDbTextStyleTableRecord
2
DWGDirectTextStyle
3
simplex
70
0
71
0
40
0
41
1
42
0
50
0
0
ENDTAB
0
TABLE
2
DIMSTYLE
5
209
100
AcDbSymbolTable
100
AcDbDimStyleTable
0
DIMSTYLE
105
27
100
AcDbSymbolTableRecord
100
AcDbDimStyleTableRecord
2
Standard
70
0
3
<>
41
0.18
42
0.0625
44
0.18
140
0.18
147
0.09
73
0
74
0
77
1
271
2
275
0
278
52
280
0
340
11
0
ENDTAB
0
TABLE
2
VIEW
5
20a
100
AcDbSymbolTable
0
ENDTAB
0
TABLE
2
UCS
5
20b
100
AcDbSymbolTable
0
ENDTAB
0
TABLE
2
APPID
5
20c
100
AcDbSymbolTable
0
APPID
5
12
100
AcDbSymbolTableRecord
100
AcDbRegAppTableRecord
2
ACAD
70
0
0
APPID
5
116
100
AcDbSymbolTableRecord
100
AcDbRegAppTableRecord
2
ACAD_DSTYLE_DIMBREAK
70
0
0
APPID
5
1B0
100
AcDbSymbolTableRecord
100
AcDbRegAppTableRecord
2
ACAD_DSTYLE_DIM_LINETYPE
70
0
0
APPID
5
1B1
100
AcDbSymbolTableRecord
100
AcDbRegAppTableRecord
2
ACAD_DSTYLE_DIM_EXT1_LINETYPE
70
0
0
APPID
5
1B2
100
AcDbSymbolTableRecord
100
AcDbRegAppTableRecord
2
ACAD_DSTYLE_DIM_EXT2_LINETYPE
70
0
0
APPID
5
1ED
100
AcDbSymbolTableRecord
100
AcDbRegAppTableRecord
2
ACAD_MLEADERVER
70
0
0
ENDTAB
0
TABLE
2
BLOCK_RECORD
5
20d
100
AcDbSymbolTable
0
BLOCK_RECORD
5
1F
100
AcDbSymbolTableRecord
100
AcDbBlockTableRecord
2
*Model_Space
340
0
70
0
0
BLOCK_RECORD
5
1B
100
AcDbSymbolTableRecord
100
AcDbBlockTableRecord
2
*Paper_Space
340
0
70
0
0
BLOCK_RECORD
5
23
100
AcDbSymbolTableRecord
100
AcDbBlockTableRecord
2
*Paper_Space0
340
0
70
0
0
BLOCK_RECORD
5
11B
100
AcDbSymbolTableRecord
100
AcDbBlockTableRecord
2
*D1
340
0
70
0
0
BLOCK_RECORD
5
127
100
AcDbSymbolTableRecord
100
AcDbBlockTableRecord
2
_U0
340
0
70
0
0
BLOCK_RECORD
5
133
100
AcDbSymbolTableRecord
100
AcDbBlockTableRecord
2
*D3
340
0
70
0
0
BLOCK_RECORD
5
13F
100
AcDbSymbolTableRecord
100
AcDbBlockTableRecord
2
_U1
340
0
70
0
0
BLOCK_RECORD
5
14B
100
AcDbSymbolTableRecord
100
AcDbBlockTableRecord
2
*D5
340
0
70
0
0
BLOCK_RECORD
5
157
100
AcDbSymbolTableRecord
100
AcDbBlockTableRecord
2
_U2
340
0
70
0
0
BLOCK_RECORD
5
163
100
AcDbSymbolTableRecord
100
AcDbBlockTableRecord
2
*D7
340
0
70
0
0
BLOCK_RECORD
5
171
100
AcDbSymbolTableRecord
100
AcDbBlockTableRecord
2
_U3
340
0
70
0
0
BLOCK_RECORD
5
17D
100
AcDbSymbolTableRecord
100
AcDbBlockTableRecord
2
*D9
340
0
70
0
0
BLOCK_RECORD
5
189
100
AcDbSymbolTableRecord
100
AcDbBlockTableRecord
2
_U4
340
0
70
0
0
ENDTAB
0
ENDSEC
0
SECTION
2
BLOCKS
0
BLOCK
5
20
100
AcDbEntity
8
0
100
AcDbBlockBegin
2
*Model_Space
70
0
10
0
20
0
30
0
3
*Model_Space
0
ENDBLK
5
21
100
AcDbEntity
8
0
100
AcDbBlockEnd
0
BLOCK
5
1C
100
AcDbEntity
8
0
100
AcDbBlockBegin
2
*Paper_Space
70
0
10
0
20
0
30
0
3
*Paper_Space
0
ENDBLK
5
1D
100
AcDbEntity
8
0
100
AcDbBlockEnd
0
BLOCK
5
24
100
AcDbEntity
8
0
100
AcDbBlockBegin
2
*Paper_Space0
70
0
10
0
20
0
30
0
3
*Paper_Space0
0
ENDBLK
5
25
100
AcDbEntity
8
0
100
AcDbBlockEnd
0
BLOCK
5
11C
100
AcDbEntity
8
0
100
AcDbBlockBegin
2
*D1
70
1
10
0
20
0
30
0
3
*D1
0
LINE
5
11E
100
AcDbEntity
8
0
62
256
6
ByLayer
370
-2
48
1
60
0
100
AcDbLine
10
0
20
-1.5875
30
0
11
0
21
-15.763398
31
0
39
0
210
0
220
0
230
1
0
LINE
5
11F
100
AcDbEntity
8
0
62
256
6
ByLayer
370
-2
48
1
60
0
100
AcDbLine
10
78.6414
20
-5.1375
30
0
11
78.6414
21
-15.763398
31
0
39
0
210
0
220
0
230
1
0
LINE
5
120
100
AcDbEntity
8
0
62
256
6
ByLayer
370
-2
48
1
60
0
100
AcDbLine
10
3.5
20
-13.763398
30
0
11
75.1414
21
-13.763398
31
0
39
0
210
0
220
0
230
1
0
SOLID
5
121
100
AcDbEntity
8
0
62
256
6
ByLayer
370
-1
48
1
60
0
100
AcDbTrace
10
3.5
20
-13.180065
30
0
11
3.5
21
-14.346732
31
0
12
0
22
-13.763398
32
0
13
0
23
-13.763398
33
0
39
0
210
0
220
0
230
1
0
SOLID
5
122
100
AcDbEntity
8
0
62
256
6
ByLayer
370
-1
48
1
60
0
100
AcDbTrace
10
75.1414
20
-14.346732
30
0
11
75.1414
21
-13.180065
31
0
12
78.6414
22
-13.763398
32
0
13
78.6414
23
-13.763398
33
0
39
0
210
0
220
0
230
1
0
MTEXT
5
123
100
AcDbEntity
8
0
62
256
6
ByLayer
370
18
48
1
60
0
100
AcDbMText
10
39.3207
20
-6.763398
30
0
210
0
220
0
230
1
1
\A1;78.64
40
3.5
41
0
44
1
50
0
71
5
72
5
7
iso_b_vert
0
POINT
5
124
100
AcDbEntity
8
Defpoints
62
0
6
ByLayer
370
-1
48
1
60
0
100
AcDbPoint
10
0
20
0
30
0
39
0
210
0
220
0
230
1
50
360
0
POINT
5
125
100
AcDbEntity
8
Defpoints
62
0
6
ByLayer
370
-1
48
1
60
0
100
AcDbPoint
10
78.6414
20
-3.55
30
0
39
0
210
0
220
0
230
1
50
360
0
POINT
5
126
100
AcDbEntity
8
Defpoints
62
0
6
ByLayer
370
-1
48
1
60
0
100
AcDbPoint
10
78.6414
20
-13.763398
30
0
39
0
210
0
220
0
230
1
50
360
0
ENDBLK
5
11D
100
AcDbEntity
8
0
100
AcDbBlockEnd
0
BLOCK
5
12E
100
AcDbEntity
8
0
100
AcDbBlockBegin
2
_U0
70
0
10
0
20
0
30
0
3
_U0
0
MTEXT
5
128
100
AcDbEntity
8
2
62
256
6
ByLayer
370
13
48
1
60
0
100
AcDbMText
10
33.999135
20
-12.730765
30
0
210
0
220
0
230
1
1
\W0.7495;78,64
40
3.5
41
0
44
1.084337
50
0
71
7
72
5
7
iso_b_vert
0
LINE
5
129
100
AcDbEntity
8
2
62
256
6
ByLayer
370
13
48
1
60
0
100
AcDbLine
10
0
20
-1.5875
30
0
11
0
21
-15.763398
31
0
39
0
210
0
220
0
230
1
0
LINE
5
12A
100
AcDbEntity
8
2
62
256
6
ByLayer
370
13
48
1
60
0
100
AcDbLine
10
78.6414
20
-5.1375
30
0
11
78.6414
21
-15.763398
31
0
39
0
210
0
220
0
230
1
0
LINE
5
12B
100
AcDbEntity
8
2
62
256
6
ByLayer
370
13
48
1
60
0
100
AcDbLine
10
0
20
-13.763398
30
0
11
78.6414
21
-13.763398
31
0
39
0
210
0
220
0
230
1
0
SOLID
5
12C
100
AcDbEntity
8
2
62
256
6
ByLayer
370
18
48
1
60
0
100
AcDbTrace
10
0
20
-13.763398
30
0
11
3.499998
21
-13.302615
31
0
12
3.500002
22
-14.224182
32
0
13
3.500002
23
-14.224182
33
0
39
0
210
0
220
0
230
1
0
SOLID
5
12D
100
AcDbEntity
8
2
62
256
6
ByLayer
370
18
48
1
60
0
100
AcDbTrace
10
78.6414
20
-13.763398
30
0
11
75.141402
21
-14.224182
31
0
12
75.141398
22
-13.302615
32
0
13
75.141398
23
-13.302615
33
0
39
0
210
0
220
0
230
1
0
ENDBLK
5
12F
100
AcDbEntity
8
0
100
AcDbBlockEnd
0
BLOCK
5
134
100
AcDbEntity
8
0
100
AcDbBlockBegin
2
*D3
70
1
10
0
20
0
30
0
3
*D3
0
LINE
5
136
100
AcDbEntity
8
0
62
256
6
ByLayer
370
-2
48
1
60
0
100
AcDbLine
10
-36
20
-5.5875
30
0
11
-36
21
-34.692985
31
0
39
0
210
0
220
0
230
1
0
LINE
5
137
100
AcDbEntity
8
0
62
256
6
ByLayer
370
-2
48
1
60
0
100
AcDbLine
10
80
20
-1.5875
30
0
11
80
21
-34.692985
31
0
39
0
210
0
220
0
230
1
0
LINE
5
138
100
AcDbEntity
8
0
62
256
6
ByLayer
370
-2
48
1
60
0
100
AcDbLine
10
-32.5
20
-32.692985
30
0
11
76.5
21
-32.692985
31
0
39
0
210
0
220
0
230
1
0
SOLID
5
139
100
AcDbEntity
8
0
62
256
6
ByLayer
370
-1
48
1
60
0
100
AcDbTrace
10
-32.5
20
-32.109652
30
0
11
-32.5
21
-33.276319
31
0
12
-36
22
-32.692985
32
0
13
-36
23
-32.692985
33
0
39
0
210
0
220
0
230
1
0
SOLID
5
13A
100
AcDbEntity
8
0
62
256
6
ByLayer
370
-1
48
1
60
0
100
AcDbTrace
10
76.5
20
-33.276319
30
0
11
76.5
21
-32.109652
31
0
12
80
22
-32.692985
32
0
13
80
23
-32.692985
33
0
39
0
210
0
220
0
230
1
0
MTEXT
5
13B
100
AcDbEntity
8
0
62
256
6
ByLayer
370
18
48
1
60
0
100
AcDbMText
10
22
20
-25.692985
30
0
210
0
220
0
230
1
1
\A1;116.00
40
3.5
41
0
44
1
50
0
71
5
72
5
7
iso_b_vert
0
POINT
5
13C
100
AcDbEntity
8
Defpoints
62
0
6
ByLayer
370
-1
48
1
60
0
100
AcDbPoint
10
-36
20
-4
30
0
39
0
210
0
220
0
230
1
50
360
0
POINT
5
13D
100
AcDbEntity
8
Defpoints
62
0
6
ByLayer
370
-1
48
1
60
0
100
AcDbPoint
10
80
20
0
30
0
39
0
210
0
220
0
230
1
50
360
0
POINT
5
13E
100
AcDbEntity
8
Defpoints
62
0
6
ByLayer
370
-1
48
1
60
0
100
AcDbPoint
10
80
20
-32.692985
30
0
39
0
210
0
220
0
230
1
50
360
0
ENDBLK
5
135
100
AcDbEntity
8
0
100
AcDbBlockEnd
0
BLOCK
5
146
100
AcDbEntity
8
0
100
AcDbBlockBegin
2
_U1
70
0
10
0
20
0
30
0
3
_U1
0
MTEXT
5
140
100
AcDbEntity
8
SK2
62
256
6
ByLayer
370
13
48
1
60
0
100
AcDbMText
10
16.429835
20
-31.660352
30
0
210
0
220
0
230
1
1
\W0.6440;116,00
40
3.5
41
0
44
1.084337
50
0
71
7
72
5
7
iso_b_vert
0
LINE
5
141
100
AcDbEntity
8
SK2
62
256
6
ByLayer
370
13
48
1
60
0
100
AcDbLine
10
-36
20
-5.5875
30
0
11
-36
21
-34.692985
31
0
39
0
210
0
220
0
230
1
0
LINE
5
142
100
AcDbEntity
8
SK2
62
256
6
ByLayer
370
13
48
1
60
0
100
AcDbLine
10
80
20
-1.5875
30
0
11
80
21
-34.692985
31
0
39
0
210
0
220
0
230
1
0
LINE
5
143
100
AcDbEntity
8
SK2
62
256
6
ByLayer
370
13
48
1
60
0
100
AcDbLine
10
-36
20
-32.692985
30
0
11
80
21
-32.692985
31
0
39
0
210
0
220
0
230
1
0
SOLID
5
144
100
AcDbEntity
8
SK2
62
256
6
ByLayer
370
18
48
1
60
0
100
AcDbTrace
10
-36
20
-32.692985
30
0
11
-32.500002
21
-32.232202
31
0
12
-32.499998
22
-33.153769
32
0
13
-32.499998
23
-33.153769
33
0
39
0
210
0
220
0
230
1
0
SOLID
5
145
100
AcDbEntity
8
SK2
62
256
6
ByLayer
370
18
48
1
60
0
100
AcDbTrace
10
80
20
-32.692985
30
0
11
76.500002
21
-33.153769
31
0
12
76.499998
22
-32.232202
32
0
13
76.499998
23
-32.232202
33
0
39
0
210
0
220
0
230
1
0
ENDBLK
5
147
100
AcDbEntity
8
0
100
AcDbBlockEnd
0
BLOCK
5
14C
100
AcDbEntity
8
0
100
AcDbBlockBegin
2
*D5
70
1
10
0
20
0
30
0
3
*D5
0
LINE
5
14E
100
AcDbEntity
8
0
62
256
6
ByLayer
370
-2
48
1
60
0
100
AcDbLine
10
21.84
20
5.1375
30
0
11
21.84
21
17.159119
31
0
39
0
210
0
220
0
230
1
0
LINE
5
14F
100
AcDbEntity
8
0
62
256
6
ByLayer
370
-2
48
1
60
0
100
AcDbLine
10
80
20
1.5875
30
0
11
80
21
17.159119
31
0
39
0
210
0
220
0
230
1
0
LINE
5
150
100
AcDbEntity
8
0
62
256
6
ByLayer
370
-2
48
1
60
0
100
AcDbLine
10
25.34
20
15.159119
30
0
11
76.5
21
15.159119
31
0
39
0
210
0
220
0
230
1
0
SOLID
5
151
100
AcDbEntity
8
0
62
256
6
ByLayer
370
-1
48
1
60
0
100
AcDbTrace
10
25.34
20
15.742453
30
0
11
25.34
21
14.575786
31
0
12
21.84
22
15.159119
32
0
13
21.84
23
15.159119
33
0
39
0
210
0
220
0
230
1
0
SOLID
5
152
100
AcDbEntity
8
0
62
256
6
ByLayer
370
-1
48
1
60
0
100
AcDbTrace
10
76.5
20
14.575786
30
0
11
76.5
21
15.742453
31
0
12
80
22
15.159119
32
0
13
80
23
15.159119
33
0
39
0
210
0
220
0
230
1
0
MTEXT
5
153
100
AcDbEntity
8
0
62
256
6
ByLayer
370
18
48
1
60
0
100
AcDbMText
10
50.92
20
22.159119
30
0
210
0
220
0
230
1
1
\A1;58.16
40
3.5
41
0
44
1
50
0
71
5
72
5
7
iso_b_vert
0
POINT
5
154
100
AcDbEntity
8
Defpoints
62
0
6
ByLayer
370
-1
48
1
60
0
100
AcDbPoint
10
21.84
20
3.55
30
0
39
0
210
0
220
0
230
1
50
360
0
POINT
5
155
100
AcDbEntity
8
Defpoints
62
0
6
ByLayer
370
-1
48
1
60
0
100
AcDbPoint
10
80
20
0
30
0
39
0
210
0
220
0
230
1
50
360
0
POINT
5
156
100
AcDbEntity
8
Defpoints
62
0
6
ByLayer
370
-1
48
1
60
0
100
AcDbPoint
10
80
20
15.159119
30
0
39
0
210
0
220
0
230
1
50
360
0
ENDBLK
5
14D
100
AcDbEntity
8
0
100
AcDbBlockEnd
0
BLOCK
5
15E
100
AcDbEntity
8
0
100
AcDbBlockBegin
2
_U2
70
0
10
0
20
0
30
0
3
_U2
0
MTEXT
5
158
100
AcDbEntity
8
SK2
62
256
6
ByLayer
370
13
48
1
60
0
100
AcDbMText
10
46.220135
20
16.191753
30
0
210
0
220
0
230
1
1
\W0.6713;58,16
40
3.5
41
0
44
1.084337
50
0
71
7
72
5
7
iso_b_vert
0
LINE
5
159
100
AcDbEntity
8
SK2
62
256
6
ByLayer
370
13
48
1
60
0
100
AcDbLine
10
21.84
20
5.1375
30
0
11
21.84
21
17.159119
31
0
39
0
210
0
220
0
230
1
0
LINE
5
15A
100
AcDbEntity
8
SK2
62
256
6
ByLayer
370
13
48
1
60
0
100
AcDbLine
10
80
20
1.5875
30
0
11
80
21
17.159119
31
0
39
0
210
0
220
0
230
1
0
LINE
5
15B
100
AcDbEntity
8
SK2
62
256
6
ByLayer
370
13
48
1
60
0
100
AcDbLine
10
21.84
20
15.159119
30
0
11
80
21
15.159119
31
0
39
0
210
0
220
0
230
1
0
SOLID
5
15C
100
AcDbEntity
8
SK2
62
256
6
ByLayer
370
18
48
1
60
0
100
AcDbTrace
10
21.84
20
15.159119
30
0
11
25.339998
21
15.619903
31
0
12
25.340002
22
14.698335
32
0
13
25.340002
23
14.698335
33
0
39
0
210
0
220
0
230
1
0
SOLID
5
15D
100
AcDbEntity
8
SK2
62
256
6
ByLayer
370
18
48
1
60
0
100
AcDbTrace
10
80
20
15.159119
30
0
11
76.500002
21
14.698335
31
0
12
76.499998
22
15.619903
32
0
13
76.499998
23
15.619903
33
0
39
0
210
0
220
0
230
1
0
ENDBLK
5
15F
100
AcDbEntity
8
0
100
AcDbBlockEnd
0
BLOCK
5
164
100
AcDbEntity
8
0
100
AcDbBlockBegin
2
*D7
70
1
10
0
20
0
30
0
3
*D7
0
LINE
5
166
100
AcDbEntity
8
0
62
256
6
ByLayer
370
-2
48
1
60
0
100
AcDbLine
10
80
20
-1.5875
30
0
11
80
21
-18.352503
31
0
39
0
210
0
220
0
230
1
0
LINE
5
167
100
AcDbEntity
8
0
62
256
6
ByLayer
370
-2
48
1
60
0
100
AcDbLine
10
78.6414
20
-5.1375
30
0
11
78.6414
21
-18.352503
31
0
39
0
210
0
220
0
230
1
0
LINE
5
168
100
AcDbEntity
8
0
62
256
6
ByLayer
370
-2
48
1
60
0
100
AcDbLine
10
80
20
-16.352503
30
0
11
107.666667
21
-16.352503
31
0
39
0
210
0
220
0
230
1
0
LINE
5
169
100
AcDbEntity
8
0
62
256
6
ByLayer
370
-2
48
1
60
0
100
AcDbLine
10
83.5
20
-16.352503
30
0
11
87
21
-16.352503
31
0
39
0
210
0
220
0
230
1
0
LINE
5
16A
100
AcDbEntity
8
0
62
256
6
ByLayer
370
-2
48
1
60
0
100
AcDbLine
10
75.1414
20
-16.352503
30
0
11
71.6414
21
-16.352503
31
0
39
0
210
0
220
0
230
1
0
SOLID
5
16B
100
AcDbEntity
8
0
62
256
6
ByLayer
370
-1
48
1
60
0
100
AcDbTrace
10
83.5
20
-15.76917
30
0
11
83.5
21
-16.935837
31
0
12
80
22
-16.352503
32
0
13
80
23
-16.352503
33
0
39
0
210
0
220
0
230
1
0
SOLID
5
16C
100
AcDbEntity
8
0
62
256
6
ByLayer
370
-1
48
1
60
0
100
AcDbTrace
10
75.1414
20
-16.935837
30
0
11
75.1414
21
-15.76917
31
0
12
78.6414
22
-16.352503
32
0
13
78.6414
23
-16.352503
33
0
39
0
210
0
220
0
230
1
0
MTEXT
5
16D
100
AcDbEntity
8
0
62
256
6
ByLayer
370
18
48
1
60
0
100
AcDbMText
10
97.333333
20
-9.352503
30
0
210
0
220
0
230
1
1
\A1;1.36
40
3.5
41
0
44
1
50
0
71
5
72
5
7
iso_b_vert
0
POINT
5
16E
100
AcDbEntity
8
Defpoints
62
0
6
ByLayer
370
-1
48
1
60
0
100
AcDbPoint
10
80
20
0
30
0
39
0
210
0
220
0
230
1
50
360
0
POINT
5
16F
100
AcDbEntity
8
Defpoints
62
0
6
ByLayer
370
-1
48
1
60
0
100
AcDbPoint
10
78.6414
20
-3.55
30
0
39
0
210
0
220
0
230
1
50
360
0
POINT
5
170
100
AcDbEntity
8
Defpoints
62
0
6
ByLayer
370
-1
48
1
60
0
100
AcDbPoint
10
78.6414
20
-16.352503
30
0
39
0
210
0
220
0
230
1
50
360
0
ENDBLK
5
165
100
AcDbEntity
8
0
100
AcDbBlockEnd
0
BLOCK
5
178
100
AcDbEntity
8
0
100
AcDbBlockBegin
2
_U3
70
0
10
0
20
0
30
0
3
_U3
0
MTEXT
5
172
100
AcDbEntity
8
SK2
62
256
6
ByLayer
370
13
48
1
60
0
100
AcDbMText
10
86.589293
20
-15.31987
30
0
210
0
220
0
230
1
1
\W0.6367;1,36
40
3.5
41
0
44
1.084337
50
0
71
7
72
5
7
iso_b_vert
0
LINE
5
173
100
AcDbEntity
8
SK2
62
256
6
ByLayer
370
13
48
1
60
0
100
AcDbLine
10
80
20
-1.5875
30
0
11
80
21
-18.352503
31
0
39
0
210
0
220
0
230
1
0
LINE
5
174
100
AcDbEntity
8
SK2
62
256
6
ByLayer
370
13
48
1
60
0
100
AcDbLine
10
78.6414
20
-5.1375
30
0
11
78.6414
21
-18.352503
31
0
39
0
210
0
220
0
230
1
0
LINE
5
175
100
AcDbEntity
8
SK2
62
256
6
ByLayer
370
13
48
1
60
0
100
AcDbLine
10
69.8914
20
-16.352503
30
0
11
93.559058
21
-16.352503
31
0
39
0
210
0
220
0
230
1
0
SOLID
5
176
100
AcDbEntity
8
SK2
62
256
6
ByLayer
370
18
48
1
60
0
100
AcDbTrace
10
80
20
-16.352503
30
0
11
83.499998
21
-15.891719
31
0
12
83.500002
22
-16.813287
32
0
13
83.500002
23
-16.813287
33
0
39
0
210
0
220
0
230
1
0
SOLID
5
177
100
AcDbEntity
8
SK2
62
256
6
ByLayer
370
18
48
1
60
0
100
AcDbTrace
10
78.6414
20
-16.352503
30
0
11
75.141402
21
-16.813287
31
0
12
75.141398
22
-15.891719
32
0
13
75.141398
23
-15.891719
33
0
39
0
210
0
220
0
230
1
0
ENDBLK
5
179
100
AcDbEntity
8
0
100
AcDbBlockEnd
0
BLOCK
5
17E
100
AcDbEntity
8
0
100
AcDbBlockBegin
2
*D9
70
1
10
0
20
0
30
0
3
*D9
0
LINE
5
180
100
AcDbEntity
8
0
62
256
6
ByLayer
370
-2
48
1
60
0
100
AcDbLine
10
-36
20
-5.5875
30
0
11
-36
21
-24.343428
31
0
39
0
210
0
220
0
230
1
0
LINE
5
181
100
AcDbEntity
8
0
62
256
6
ByLayer
370
-2
48
1
60
0
100
AcDbLine
10
78.6414
20
-5.1375
30
0
11
78.6414
21
-24.343428
31
0
39
0
210
0
220
0
230
1
0
LINE
5
182
100
AcDbEntity
8
0
62
256
6
ByLayer
370
-2
48
1
60
0
100
AcDbLine
10
-32.5
20
-22.343428
30
0
11
75.1414
21
-22.343428
31
0
39
0
210
0
220
0
230
1
0
SOLID
5
183
100
AcDbEntity
8
0
62
256
6
ByLayer
370
-1
48
1
60
0
100
AcDbTrace
10
-32.5
20
-21.760095
30
0
11
-32.5
21
-22.926762
31
0
12
-36
22
-22.343428
32
0
13
-36
23
-22.343428
33
0
39
0
210
0
220
0
230
1
0
SOLID
5
184
100
AcDbEntity
8
0
62
256
6
ByLayer
370
-1
48
1
60
0
100
AcDbTrace
10
75.1414
20
-22.926762
30
0
11
75.1414
21
-21.760095
31
0
12
78.6414
22
-22.343428
32
0
13
78.6414
23
-22.343428
33
0
39
0
210
0
220
0
230
1
0
MTEXT
5
185
100
AcDbEntity
8
0
62
256
6
ByLayer
370
18
48
1
60
0
100
AcDbMText
10
21.3207
20
-15.343428
30
0
210
0
220
0
230
1
1
\A1;114.64
40
3.5
41
0
44
1
50
0
71
5
72
5
7
iso_b_vert
0
POINT
5
186
100
AcDbEntity
8
Defpoints
62
0
6
ByLayer
370
-1
48
1
60
0
100
AcDbPoint
10
-36
20
-4
30
0
39
0
210
0
220
0
230
1
50
360
0
POINT
5
187
100
AcDbEntity
8
Defpoints
62
0
6
ByLayer
370
-1
48
1
60
0
100
AcDbPoint
10
78.6414
20
-3.55
30
0
39
0
210
0
220
0
230
1
50
360
0
POINT
5
188
100
AcDbEntity
8
Defpoints
62
0
6
ByLayer
370
-1
48
1
60
0
100
AcDbPoint
10
78.6414
20
-22.343428
30
0
39
0
210
0
220
0
230
1
50
360
0
ENDBLK
5
17F
100
AcDbEntity
8
0
100
AcDbBlockEnd
0
BLOCK
5
190
100
AcDbEntity
8
0
100
AcDbBlockBegin
2
_U4
70
0
10
0
20
0
30
0
3
_U4
0
MTEXT
5
18A
100
AcDbEntity
8
SK2
62
256
6
ByLayer
370
13
48
1
60
0
100
AcDbMText
10
15.382001
20
-21.310795
30
0
210
0
220
0
230
1
1
\W0.6775;114,64
40
3.5
41
0
44
1.084337
50
0
71
7
72
5
7
iso_b_vert
0
LINE
5
18B
100
AcDbEntity
8
SK2
62
256
6
ByLayer
370
13
48
1
60
0
100
AcDbLine
10
-36
20
-5.5875
30
0
11
-36
21
-24.343428
31
0
39
0
210
0
220
0
230
1
0
LINE
5
18C
100
AcDbEntity
8
SK2
62
256
6
ByLayer
370
13
48
1
60
0
100
AcDbLine
10
78.6414
20
-5.1375
30
0
11
78.6414
21
-24.343428
31
0
39
0
210
0
220
0
230
1
0
LINE
5
18D
100
AcDbEntity
8
SK2
62
256
6
ByLayer
370
13
48
1
60
0
100
AcDbLine
10
-36
20
-22.343428
30
0
11
78.6414
21
-22.343428
31
0
39
0
210
0
220
0
230
1
0
SOLID
5
18E
100
AcDbEntity
8
SK2
62
256
6
ByLayer
370
18
48
1
60
0
100
AcDbTrace
10
-36
20
-22.343428
30
0
11
-32.500002
21
-21.882645
31
0
12
-32.499998
22
-22.804212
32
0
13
-32.499998
23
-22.804212
33
0
39
0
210
0
220
0
230
1
0
SOLID
5
18F
100
AcDbEntity
8
SK2
62
256
6
ByLayer
370
18
48
1
60
0
100
AcDbTrace
10
78.6414
20
-22.343428
30
0
11
75.141402
21
-22.804212
31
0
12
75.141398
22
-21.882645
32
0
13
75.141398
23
-21.882645
33
0
39
0
210
0
220
0
230
1
0
ENDBLK
5
191
100
AcDbEntity
8
0
100
AcDbBlockEnd
0
ENDSEC
0
SECTION
2
ENTITIES
0
ARC
5
AA
100
AcDbEntity
8
1
62
256
6
ByLayer
370
18
48
1
60
0
100
AcDbCircle
39
0
10
1.286936
20
-4.260763
30
0
40
0.850000000000002
210
0
220
0
230
1
100
AcDbArc
50
89.896868
51
139.202301
0
ARC
5
AB
100
AcDbEntity
8
1
62
256
6
ByLayer
370
18
48
1
60
0
100
AcDbCircle
39
0
10
1.286936
20
4.260763
30
0
40
0.850000000000002
210
0
220
0
230
1
100
AcDbArc
50
220.797699
51
270.103132
0
ARC
5
AC
100
AcDbEntity
8
1
62
256
6
ByLayer
370
18
48
1
60
0
100
AcDbCircle
39
0
10
0
20
-3.15
30
0
40
0.849999999999996
210
0
220
0
230
1
100
AcDbArc
50
270
51
319.202301
0
ARC
5
AD
100
AcDbEntity
8
1
62
256
6
ByLayer
370
18
48
1
60
0
100
AcDbCircle
39
0
10
0
20
3.15
30
0
40
0.849999999999996
210
0
220
0
230
1
100
AcDbArc
50
40.797699
51
90
0
ELLIPSE
5
AE
100
AcDbEntity
8
1
62
256
6
ByLayer
370
13
48
1
60
0
100
AcDbEllipse
10
12.675991
20
67.929617
30
0
11
-44.3657286609169
21
59.801844066579
31
0
210
0
220
0
230
1
40
0.762166
41
2.31232323716044
42
2.36968226434418
0
ELLIPSE
5
AF
100
AcDbEntity
8
1
62
256
6
ByLayer
370
13
48
1
60
0
100
AcDbEllipse
10
11.528813
20
-67.07855
30
0
11
44.3657286609171
21
59.801844066579
31
0
210
0
220
0
230
1
40
0.762166
41
0.856602381425486
42
0.874621826509985
0
ELLIPSE
5
B0
100
AcDbEntity
8
1
62
256
6
ByLayer
370
13
48
1
60
0
100
AcDbEllipse
10
124.194174
20
42.329751
30
0
11
-60.9999999999999
21
7.47009875831649E-15
31
0
210
0
220
0
230
1
40
0.99863
41
0.740584083392704
42
0.756823412703921
0
ELLIPSE
5
B1
100
AcDbEntity
8
1
62
256
6
ByLayer
370
13
48
1
60
0
100
AcDbEllipse
10
5.815118
20
-0.49675
30
0
11
0.13809624176972
21
0.266325792984981
31
0
210
0
220
0
230
1
40
0.062059
41
1.44769928041891
42
2.24629125499963
0
POINT
5
70
100
AcDbEntity
8
80
62
256
6
ByLayer
370
18
48
1
60
0
100
AcDbPoint
10
0
20
0
30
0
39
0
210
0
220
0
230
1
50
360
0
POINT
5
72
100
AcDbEntity
8
81
62
256
6
ByLayer
370
18
48
1
60
0
100
AcDbPoint
10
80
20
0
30
0
39
0
210
0
220
0
230
1
50
360
0
POINT
5
74
100
AcDbEntity
8
1
62
256
6
ByLayer
370
18
48
1
60
1
100
AcDbPoint
10
78.6414
20
-3.55
30
0
39
0
210
0
220
0
230
1
50
360
0
POINT
5
76
100
AcDbEntity
8
1
62
256
6
ByLayer
370
18
48
1
60
1
100
AcDbPoint
10
-36
20
-4
30
0
39
0
210
0
220
0
230
1
50
360
0
POINT
5
77
100
AcDbEntity
8
1
62
256
6
ByLayer
370
18
48
1
60
1
100
AcDbPoint
10
21.84
20
3.55
30
0
39
0
210
0
220
0
230
1
50
360
0
POINT
5
78
100
AcDbEntity
8
1
62
256
6
ByLayer
370
18
48
1
60
1
100
AcDbPoint
10
78.6414
20
-3.55
30
0
39
0
210
0
220
0
230
1
50
360
0
POINT
5
79
100
AcDbEntity
8
1
62
256
6
ByLayer
370
18
48
1
60
1
100
AcDbPoint
10
-36
20
-4
30
0
39
0
210
0
220
0
230
1
50
360
0
POINT
5
7A
100
AcDbEntity
8
1
62
256
6
ByLayer
370
18
48
1
60
1
100
AcDbPoint
10
78.6414
20
-3.55
30
0
39
0
210
0
220
0
230
1
50
360
0
SPLINE
5
B2
100
AcDbEntity
8
1
62
256
6
ByLayer
370
18
48
1
60
0
100
AcDbSpline
70
4
71
3
72
24
73
20
40
0
40
0
40
0
40
0
40
0.0624999999999999
40
0.0624999999999999
40
0.125
40
0.125
40
0.25
40
0.25
40
0.375
40
0.375
40
0.5
40
0.5
40
0.625
40
0.625
40
0.75
40
0.75
40
0.875
40
0.875
40
1
40
1
40
1
40
1
41
1
10
5.81560350917417
20
3.26546690812881
30
0
41
1
10
5.90284960219054
20
3.24930005318967
30
0
41
1
10
5.99331791204577
20
3.23030285516109
30
0
41
1
10
6.17969793129151
20
3.18763774306936
30
0
41
1
10
6.27592474121769
20
3.16388318246109
30
0
41
1
10
6.5693046228476
20
3.08733784084092
30
0
41
1
10
6.77012010577502
20
3.02969162202268
30
0
41
1
10
7.17945692320663
20
2.90528953059453
30
0
41
1
10
7.38808068045807
20
2.83838140451448
30
0
41
1
10
7.81171179996437
20
2.69743699598058
30
0
41
1
10
8.02663978238741
20
2.62351810995321
30
0
41
1
10
8.46190804848544
20
2.47000077592557
30
0
41
1
10
8.68193066119477
20
2.39038844410581
30
0
41
1
10
9.12337738085296
20
2.22740797346796
30
0
41
1
10
9.34523048065174
20
2.1439191029782
30
0
41
1
10
9.79089346783513
20
1.97382014984132
30
0
41
1
10
10.0147026088503
20
1.8872128014653
30
0
41
1
10
10.4640603327618
20
1.71148911413317
30
0
41
1
10
10.6896417138704
20
1.62226511172358
30
0
41
1
10
10.9161812043696
20
1.5314355677975
30
0
0
SPLINE
5
B3
100
AcDbEntity
8
1
62
256
6
ByLayer
370
18
48
1
60
0
100
AcDbSpline
70
4
71
3
72
20
73
16
40
0
40
0
40
0
40
0
40
0.25
40
0.25
40
0.375
40
0.375
40
0.5
40
0.5
40
0.625
40
0.625
40
0.75
40
0.75
40
0.875
40
0.875
40
1
40
1
40
1
40
1
41
1
10
79.420996202931
20
-0.941736778937639
30
0
41
1
10
79.4637021503746
20
-0.90846894143445
30
0
41
1
10
79.5090747199089
20
-0.858858522713774
30
0
41
1
10
79.5814537430114
20
-0.761653381469813
30
0
41
1
10
79.6063849544016
20
-0.72522859051324
30
0
41
1
10
79.6561998904236
20
-0.647050142331977
30
0
41
1
10
79.6812672543936
20
-0.605068572342162
30
0
41
1
10
79.7317114055109
20
-0.515580607645148
30
0
41
1
10
79.7572313906364
20
-0.467786711303603
30
0
41
1
10
79.8078513759194
20
-0.368047469660155
30
0
41
1
10
79.8327993434049
20
-0.316433700394498
30
0
41
1
10
79.8819643765025
20
-0.209937265487298
30
0
41
1
10
79.9061811802284
20
-0.155053283683174
30
0
41
1
10
79.9538248623759
20
-0.0420765578626288
30
0
41
1
10
79.9772288633978
20
0.0159932005030043
30
0
41
1
10
79.9997798385233
20
0.0745795808428511
30
0
0
SPLINE
5
B4
100
AcDbEntity
8
1
62
256
6
ByLayer
370
18
48
1
60
0
100
AcDbSpline
70
4
71
3
72
8
73
4
40
0
40
0
40
0
40
0
40
1
40
1
40
1
40
1
41
1
10
79.8459069078177
20
-0.50360768024558
30
0
41
1
10
79.6383272598808
20
-1.09778450170785
30
0
41
1
10
79.4326317546808
20
-1.69260844037268
30
0
41
1
10
79.2288327718238
20
-2.28808374807082
30
0
0
SPLINE
5
B5
100
AcDbEntity
8
1
62
256
6
ByLayer
370
18
48
1
60
0
100
AcDbSpline
70
4
71
3
72
8
73
4
40
0
40
0
40
0
40
0
40
1
40
1
40
1
40
1
41
1
10
78.7437560956594
20
3.51798195204214
30
0
41
1
10
78.9036664283972
20
3.12350349106114
30
0
41
1
10
79.0675273592442
20
2.7149446900178
30
0
41
1
10
79.2288327718239
20
2.28808374807065
30
0
0
SPLINE
5
B6
100
AcDbEntity
8
1
62
256
6
ByLayer
370
18
48
1
60
0
100
AcDbSpline
70
4
71
3
72
34
73
30
40
0
40
0
40
0
40
0
40
0.107619616399528
40
0.107619616399528
40
0.16142942459929
40
0.16142942459929
40
0.215239232799053
40
0.215239232799053
40
0.322858849198581
40
0.322858849198581
40
0.430478465598109
40
0.430478465598109
40
0.538098081997637
40
0.538098081997637
40
0.645717698397165
40
0.645717698397165
40
0.699527506596929
40
0.699527506596929
40
0.753337314796693
40
0.753337314796693
40
0.807147122996457
40
0.807147122996457
40
0.860956931196221
40
0.860956931196221
40
0.914766739395985
40
0.914766739395985
40
0.968576547595749
40
0.968576547595749
40
1
40
1
40
1
40
1
41
1
10
78.383330795341
20
0.525040141281437
30
0
41
1
10
78.031667252546
20
0.698184823040748
30
0
41
1
10
77.6803010902208
20
0.869076538718673
30
0
41
1
10
77.1527036689531
20
1.12005137893692
30
0
41
1
10
76.9766951652694
20
1.20269857552788
30
0
41
1
10
76.624199176805
20
1.36543996236333
30
0
41
1
10
76.4476250146649
20
1.4458756858306
30
0
41
1
10
75.9193700956114
20
1.68152450927562
30
0
41
1
10
75.5689761008468
20
1.8320616039172
30
0
41
1
10
74.870186087408
20
2.11623254966517
30
0
41
1
10
74.5217293082993
20
2.25077559877224
30
0
41
1
10
73.8254006628978
20
2.50135905805408
30
0
41
1
10
73.4773774197001
20
2.61765369447266
30
0
41
1
10
72.7800932537922
20
2.82795455778262
30
0
41
1
10
72.4308554639956
20
2.92282460909669
30
0
41
1
10
71.9051087299072
20
3.04971548190122
30
0
41
1
10
71.7295737825408
20
3.08934779834064
30
0
41
1
10
71.3775044642626
20
3.1626170878053
30
0
41
1
10
71.2008368488746
20
3.19636211075323
30
0
41
1
10
70.8481988240922
20
3.2563966855538
30
0
41
1
10
70.6720047158328
20
3.28295864966523
30
0
41
1
10
70.3199589010179
20
3.33033444825483
30
0
41
1
10
70.1440249924829
20
3.35094520907416
30
0
41
1
10
69.7920941668182
20
3.38482485191889
30
0
41
1
10
69.6162174769749
20
3.39834566182859
30
0
41
1
10
69.2641242107868
20
3.41940838939362
30
0
41
1
10
69.0879025603083
20
3.42688071552214
30
0
41
1
10
68.8086287627246
20
3.43360611682914
30
0
41
1
10
68.7055389311524
20
3.43497612779097
30
0
41
1
10
68.6024512067468
20
3.43521306935818
30
0
0
SPLINE
5
B7
100
AcDbEntity
8
1
62
256
6
ByLayer
370
18
48
1
60
0
100
AcDbSpline
70
4
71
3
72
88
73
84
40
0
40
0
40
0
40
0
40
0.0068592043170531
40
0.0068592043170531
40
0.0262360708152241
40
0.0262360708152241
40
0.045612937313395
40
0.045612937313395
40
0.0843666703097369
40
0.0843666703097369
40
0.103743536807909
40
0.103743536807909
40
0.12312040330608
40
0.12312040330608
40
0.161874136302422
40
0.161874136302422
40
0.181251002800593
40
0.181251002800593
40
0.200627869298764
40
0.200627869298764
40
0.239381602295106
40
0.239381602295106
40
0.258758468793277
40
0.258758468793277
40
0.278135335291448
40
0.278135335291448
40
0.297512201789619
40
0.297512201789619
40
0.31688906828779
40
0.31688906828779
40
0.355642801284132
40
0.355642801284132
40
0.375019667782303
40
0.375019667782303
40
0.394396534280474
40
0.394396534280474
40
0.413773400778644
40
0.413773400778644
40
0.433150267276815
40
0.433150267276815
40
0.452527133774986
40
0.452527133774986
40
0.471904000273157
40
0.471904000273157
40
0.5106577332695
40
0.5106577332695
40
0.549411466265843
40
0.549411466265843
40
0.588165199262186
40
0.588165199262186
40
0.607542065760358
40
0.607542065760358
40
0.626918932258529
40
0.626918932258529
40
0.646295798756701
40
0.646295798756701
40
0.665672665254873
40
0.665672665254873
40
0.704426398251215
40
0.704426398251215
40
0.723803264749388
40
0.723803264749388
40
0.74318013124756
40
0.74318013124756
40
0.762556997745732
40
0.762556997745732
40
0.781933864243904
40
0.781933864243904
40
0.820687597240248
40
0.820687597240248
40
0.84006446373842
40
0.84006446373842
40
0.859441330236592
40
0.859441330236592
40
0.898195063232937
40
0.898195063232937
40
0.936948796229281
40
0.936948796229281
40
0.956325662727452
40
0.956325662727452
40
0.975702529225624
40
0.975702529225624
40
1
40
1
40
1
40
1
41
1
10
52.2626347441186
20
-2.40990448279658
30
0
41
1
10
52.2003026755298
20
-2.43150226668976
30
0
41
1
10
52.1379978721416
20
-2.4527704767807
30
0
41
1
10
51.8998012325584
20
-2.53282826339924
30
0
41
1
10
51.723966422274
20
-2.58909493145239
30
0
41
1
10
51.3721708398504
20
-2.69694921158413
30
0
41
1
10
51.1963539426636
20
-2.74869773365691
30
0
41
1
10
50.6683679385936
20
-2.89596864658907
30
0
41
1
10
50.315494216259
20
-2.98415613134819
30
0
41
1
10
49.7864757064968
20
-3.09676569244903
30
0
41
1
10
49.610465641098
20
-3.1309768094778
30
0
41
1
10
49.2583740091232
20
-3.19338364629789
30
0
41
1
10
49.0823931440774
20
-3.22181906289978
30
0
41
1
10
48.5545485650368
20
-3.29838816591709
30
0
41
1
10
48.2026173055993
20
-3.33750904446828
30
0
41
1
10
47.6734863085608
20
-3.37468968618913
30
0
41
1
10
47.4968633753911
20
-3.38321235455067
30
0
41
1
10
47.1442946435212
20
-3.39313306477464
30
0
41
1
10
46.9679891705499
20
-3.39558713348583
30
0
41
1
10
46.4396431013497
20
-3.39294527553241
30
0
41
1
10
46.0876110600158
20
-3.37910739803618
30
0
41
1
10
45.5590079151946
20
-3.33841395636895
30
0
41
1
10
45.3826290425966
20
-3.3214794971154
30
0
41
1
10
45.0296311982185
20
-3.28036063569522
30
0
41
1
10
44.8529585780923
20
-3.25633272610511
30
0
41
1
10
44.5007558654643
20
-3.20272611858476
30
0
41
1
10
44.3251319033017
20
-3.17293355292537
30
0
41
1
10
43.9744881904314
20
-3.10650865662709
30
0
41
1
10
43.7994367262014
20
-3.07020287832063
30
0
41
1
10
43.2748523681701
20
-2.95470697409624
30
0
41
1
10
42.9258113075945
20
-2.86723608840165
30
0
41
1
10
42.4024631561185
20
-2.71984425740305
30
0
41
1
10
42.2280409352194
20
-2.66799648945144
30
0
41
1
10
41.8791820145163
20
-2.55848571128951
30
0
41
1
10
41.704605859038
20
-2.50075482307111
30
0
41
1
10
41.3551338684052
20
-2.38133518810398
30
0
41
1
10
41.1803059201303
20
-2.31942902740684
30
0
41
1
10
40.8299076127189
20
-2.19082333642027
30
0
41
1
10
40.6544364032968
20
-2.12404006533234
30
0
41
1
10
40.3028227498808
20
-1.98649172255145
30
0
41
1
10
40.1265689305383
20
-1.91601688554968
30
0
41
1
10
39.7734018836189
20
-1.77152337966075
30
0
41
1
10
39.5967857350248
20
-1.69754985243199
30
0
41
1
10
39.0687921871485
20
-1.4717990009714
30
0
41
1
10
38.7187318334591
20
-1.31505768948048
30
0
41
1
10
38.0207368032175
20
-0.992312534398934
30
0
41
1
10
37.6722689062667
20
-0.827996295752229
30
0
41
1
10
36.9757147265977
20
-0.494402214284094
30
0
41
1
10
36.6275697772173
20
-0.325286865735734
30
0
41
1
10
36.1043469061078
20
-0.0704182635912503
30
0
41
1
10
35.9298776973865
20
0.0149593476246537
30
0
41
1
10
35.5803078448455
20
0.185442367225448
30
0
41
1
10
35.4052380058354
20
0.270568233509323
30
0
41
1
10
35.0544358171893
20
0.440869242898287
30
0
41
1
10
34.8785781367467
20
0.525674683815851
30
0
41
1
10
34.5260725658613
20
0.694355435498665
30
0
41
1
10
34.34930923476
20
0.778608405774179
30
0
41
1
10
33.8197039491126
20
1.02793907996437
30
0
41
1
10
33.4674655534899
20
1.19073235132805
30
0
41
1
10
32.9392317453891
20
1.42644399149364
30
0
41
1
10
32.7632861663866
20
1.5034818284889
30
0
41
1
10
32.4109206584996
20
1.6544601194264
30
0
41
1
10
32.2346380220076
20
1.72861867172284
30
0
41
1
10
31.8817437298718
20
1.87361799029935
30
0
41
1
10
31.7048641783983
20
1.94398153743069
30
0
41
1
10
31.3517644053627
20
2.08079644094448
30
0
41
1
10
31.1753555807221
20
2.14756018740721
30
0
41
1
10
30.646168757916
20
2.34145423357711
30
0
41
1
10
30.2938219332804
20
2.46274191808948
30
0
41
1
10
29.7649705346154
20
2.62837124561901
30
0
41
1
10
29.5886020265692
20
2.6808329580202
30
0
41
1
10
29.235305890368
20
2.7792028497214
30
0
41
1
10
29.058339194281
20
2.82594394133824
30
0
41
1
10
28.5286879671804
20
2.9588108071737
30
0
41
1
10
28.1770327126241
20
3.03726245979709
30
0
41
1
10
27.4758094163428
20
3.1689184219114
30
0
41
1
10
27.1264443494985
20
3.22111931196187
30
0
41
1
10
26.6026487026599
20
3.28139843868641
30
0
41
1
10
26.4280433706211
20
3.29831580426284
30
0
41
1
10
26.0787770926479
20
3.32503181114259
30
0
41
1
10
25.9041845573207
20
3.33503387209876
30
0
41
1
10
25.5101057090222
20
3.35150363986011
30
0
41
1
10
25.2906702779539
20
3.3563151330317
30
0
41
1
10
25.0708572742171
20
3.35623000789397
30
0
0
SPLINE
5
B8
100
AcDbEntity
8
1
62
256
6
ByLayer
370
18
48
1
60
0
100
AcDbSpline
70
4
71
3
72
8
73
4
40
0
40
0
40
0
40
0
40
1
40
1
40
1
40
1
41
1
10
79.4183654493272
20
-0.939117514608824
30
0
41
1
10
79.4192423396785
20
-0.939990630362871
30
0
41
1
10
79.4201192575669
20
-0.940863718461515
30
0
41
1
10
79.42099620299
20
-0.941736778902168
30
0
0
SPLINE
5
B9
100
AcDbEntity
8
1
62
256
6
ByLayer
370
18
48
1
60
0
100
AcDbSpline
70
4
71
3
72
20
73
16
40
0
40
0
40
0
40
0
40
0.125
40
0.125
40
0.249999999999999
40
0.249999999999999
40
0.374999999999999
40
0.374999999999999
40
0.499999999999998
40
0.499999999999998
40
0.624999999999998
40
0.624999999999998
40
0.749999999999997
40
0.749999999999997
40
1
40
1
40
1
40
1
41
1
10
79.4183654493272
20
-0.939117514608824
30
0
41
1
10
79.371302292673
20
-0.950358432146629
30
0
41
1
10
79.326291492764
20
-0.948525160018676
30
0
41
1
10
79.2396733775213
20
-0.923177296001512
30
0
41
1
10
79.1977087794548
20
-0.899165382994113
30
0
41
1
10
79.1198137719844
20
-0.833697611968887
30
0
41
1
10
79.0835808655384
20
-0.792343320007234
30
0
41
1
10
79.0157911293171
20
-0.694785505353536
30
0
41
1
10
78.9846856955966
20
-0.63911148598973
30
0
41
1
10
78.9281495627333
20
-0.517949860167249
30
0
41
1
10
78.9025406202705
20
-0.45217325574788
30
0
41
1
10
78.8561043719023
20
-0.311276974938721
30
0
41
1
10
78.8351952084184
20
-0.235670913463537
30
0
41
1
10
78.7805499842721
20
-0.0008378603406243
30
0
41
1
10
78.7542704246177
20
0.167150709136848
30
0
41
1
10
78.7371919401205
20
0.345502985699937
30
0
0
SPLINE
5
BA
100
AcDbEntity
8
1
62
256
6
ByLayer
370
18
48
1
60
0
100
AcDbSpline
70
4
71
3
72
52
73
48
40
0
40
0
40
0
40
0
40
0.0448652736575267
40
0.0448652736575267
40
0.0897305473150533
40
0.0897305473150533
40
0.13459582097258
40
0.13459582097258
40
0.179461094630107
40
0.179461094630107
40
0.224326368287633
40
0.224326368287633
40
0.26919164194516
40
0.26919164194516
40
0.314056915602687
40
0.314056915602687
40
0.358922189260213
40
0.358922189260213
40
0.448652736575267
40
0.448652736575267
40
0.493518010232795
40
0.493518010232795
40
0.538383283890322
40
0.538383283890322
40
0.583248557547849
40
0.583248557547849
40
0.628113831205376
40
0.628113831205376
40
0.672979104862903
40
0.672979104862903
40
0.71784437852043
40
0.71784437852043
40
0.762709652177957
40
0.762709652177957
40
0.78514228900672
40
0.78514228900672
40
0.807574925835484
40
0.807574925835484
40
0.897305473150535
40
0.897305473150535
40
0.919738109979297
40
0.919738109979297
40
0.94217074680806
40
0.94217074680806
40
0.987036020465585
40
0.987036020465585
40
1
40
1
40
1
40
1
41
1
10
13.3225795653414
20
3.39127828799298
30
0
41
1
10
13.6649836139347
20
3.41818565644516
30
0
41
1
10
14.0069258188656
20
3.43241944923244
30
0
41
1
10
14.6898320639171
20
3.43596515861503
30
0
41
1
10
15.0311288247956
20
3.42519626411681
30
0
41
1
10
15.7148616226686
20
3.37876560508585
30
0
41
1
10
16.0577123993346
20
3.34296401031096
30
0
41
1
10
16.7413515090617
20
3.24730891503063
30
0
41
1
10
17.0826359868119
20
3.18754425278135
30
0
41
1
10
17.7653180716025
20
3.04505806828797
30
0
41
1
10
18.1067976543717
20
2.96238807289697
30
0
41
1
10
18.7916313255451
20
2.77562144092585
30
0
41
1
10
19.1334757712483
20
2.67173658261015
30
0
41
1
10
19.816081871895
20
2.4453586238543
30
0
41
1
10
20.157204045865
20
2.32298642834815
30
0
41
1
10
20.8402627041049
20
2.06154793080788
30
0
41
1
10
21.1828800088965
20
1.92232768257705
30
0
41
1
10
22.2083388405043
20
1.48641552450979
30
0
41
1
10
22.8891070378427
20
1.17021560419349
30
0
41
1
10
23.9152464671734
20
0.674584566612594
30
0
41
1
10
24.2571361309873
20
0.506318549141469
30
0
41
1
10
24.9396867257994
20
0.168187594416082
30
0
41
1
10
25.2805934646779
20
-0.0021615018751788
30
0
41
1
10
25.9631266634855
20
-0.342495623629645
30
0
41
1
10
26.3055368233443
20
-0.512462716589368
30
0
41
1
10
26.9887737852458
20
-0.847117833884909
30
0
41
1
10
27.3297023647786
20
-1.01168456049862
30
0
41
1
10
28.0118175489609
20
-1.33217614059868
30
0
41
1
10
28.3528554188626
20
-1.48838581485299
30
0
41
1
10
29.0363514518469
20
-1.789926944379
30
0
41
1
10
29.378289571255
20
-1.93463058700149
30
0
41
1
10
30.0603568449488
20
-2.20858594155689
30
0
41
1
10
30.4010459377955
20
-2.3379458363417
30
0
41
1
10
30.9128008240091
20
-2.51869499356863
30
0
41
1
10
31.083399985221
20
-2.57687820046104
30
0
41
1
10
31.4250625748861
20
-2.68847641804137
30
0
41
1
10
31.5962404397388
20
-2.74185384664497
30
0
41
1
10
32.4499153224911
20
-2.99624068282995
30
0
41
1
10
33.1300154243541
20
-3.158083406565
30
0
41
1
10
33.984066095854
20
-3.30135788574881
30
0
41
1
10
34.15507077186
20
-3.32713141296409
30
0
41
1
10
34.4965256497592
20
-3.37241714876947
30
0
41
1
10
34.6671534260598
20
-3.39194970977218
30
0
41
1
10
35.1784219886077
20
-3.44138446014748
30
0
41
1
10
35.5190016071732
20
-3.46188893804515
30
0
41
1
10
35.958377477962
20
-3.47210443901068
30
0
41
1
10
36.0569536971939
20
-3.47333833736229
30
0
41
1
10
36.1555772429734
20
-3.47351698064014
30
0
0
SPLINE
5
BB
100
AcDbEntity
8
1
62
256
6
ByLayer
370
18
48
1
60
0
100
AcDbSpline
70
4
71
3
72
56
73
52
40
0
40
0
40
0
40
0
40
0.0747523219190057
40
0.0747523219190057
40
0.113304308505712
40
0.113304308505712
40
0.151856295092417
40
0.151856295092417
40
0.190408281679123
40
0.190408281679123
40
0.228960268265829
40
0.228960268265829
40
0.267512254852535
40
0.267512254852535
40
0.306064241439241
40
0.306064241439241
40
0.344616228025947
40
0.344616228025947
40
0.363892221319299
40
0.363892221319299
40
0.383168214612652
40
0.383168214612652
40
0.460272187786067
40
0.460272187786067
40
0.479548181079422
40
0.479548181079422
40
0.498824174372776
40
0.498824174372776
40
0.537376160959485
40
0.537376160959485
40
0.575928147546195
40
0.575928147546195
40
0.614480134132904
40
0.614480134132904
40
0.653032120719614
40
0.653032120719614
40
0.691584107306323
40
0.691584107306323
40
0.730136093893033
40
0.730136093893033
40
0.768688080479742
40
0.768688080479742
40
0.845792053653162
40
0.845792053653162
40
0.884344040239871
40
0.884344040239871
40
0.922896026826581
40
0.922896026826581
40
0.96144801341329
40
0.96144801341329
40
1
40
1
40
1
40
1
41
1
10
52.2814364488731
20
2.40583303435622
30
0
41
1
10
52.9425225589847
20
2.64937768177333
30
0
41
1
10
53.6004294151155
20
2.859567264145
30
0
41
1
10
54.6016812057657
20
3.11641057203164
30
0
41
1
10
54.9429889182496
20
3.19296540715425
30
0
41
1
10
55.6236360047129
20
3.32190926043188
30
0
41
1
10
55.9634505200627
20
3.37459701946847
30
0
41
1
10
56.643539201592
20
3.45540779194778
30
0
41
1
10
56.9844795412666
20
3.48347929745853
30
0
41
1
10
57.6660908245887
20
3.51418201597619
30
0
41
1
10
58.0060413484657
20
3.51678521264418
30
0
41
1
10
58.685969902569
20
3.49667773033499
30
0
41
1
10
59.0257952455434
20
3.47395977399401
30
0
41
1
10
59.7066656164262
20
3.40331517714134
30
0
41
1
10
60.047877513573
20
3.35542386326569
30
0
41
1
10
60.728021710277
20
3.23594760182021
30
0
41
1
10
61.0676172440692
20
3.16430933983119
30
0
41
1
10
61.5775942646063
20
3.04011330306409
30
0
41
1
10
61.7475665905365
20
2.99580880071173
30
0
41
1
10
62.0879631609644
20
2.90184855047298
30
0
41
1
10
62.2585713802559
20
2.85218695085857
30
0
41
1
10
63.1099854793885
20
2.59076939266586
30
0
41
1
10
63.787942554232
20
2.34190339685003
30
0
41
1
10
64.6389112470343
20
1.99195200116293
30
0
41
1
10
64.809338396833
20
1.91978448474668
30
0
41
1
10
65.1498593143107
20
1.77242445850263
30
0
41
1
10
65.3199980573482
20
1.69729102991886
30
0
41
1
10
65.8297453014405
20
1.46701603453991
30
0
41
1
10
66.1692467474935
20
1.30797991010746
30
0
41
1
10
66.8487266789137
20
0.980950572882762
30
0
41
1
10
67.1892451152698
20
0.812781289960299
30
0
41
1
10
67.8702354839083
20
0.472039084140533
30
0
41
1
10
68.2098417248131
20
0.299544373845634
30
0
41
1
10
68.8887781118764
20
-0.046737222581072
30
0
41
1
10
69.2282943614133
20
-0.220156800346245
30
0
41
1
10
69.9085818050268
20
-0.565268219096282
30
0
41
1
10
70.2493354830474
20
-0.736801009461516
30
0
41
1
10
70.928886909107
20
-1.07208490709124
30
0
41
1
10
71.2681583447524
20
-1.23645733639839
30
0
41
1
10
71.9471725865633
20
-1.55586446870612
30
0
41
1
10
72.2876209951914
20
-1.71079322319991
30
0
41
1
10
73.3082521673959
20
-2.15564140114319
30
0
41
1
10
73.9856805021293
20
-2.42374298729547
30
0
41
1
10
75.0054977108636
20
-2.77079794212881
30
0
41
1
10
75.3461026455713
20
-2.87695296282942
30
0
41
1
10
76.0254895178887
20
-3.06748993933942
30
0
41
1
10
76.364910776071
20
-3.1519851360899
30
0
41
1
10
77.0449087501172
20
-3.29782201720821
30
0
41
1
10
77.3854785547098
20
-3.35927793201279
30
0
41
1
10
78.064703868489
20
-3.45732860812868
30
0
41
1
10
78.4040627978698
20
-3.4939702159711
30
0
41
1
10
78.7437560956594
20
-3.51798195204214
30
0
0
SPLINE
5
BC
100
AcDbEntity
8
1
62
256
6
ByLayer
370
18
48
1
60
0
100
AcDbSpline
70
4
71
3
72
10
73
6
40
0
40
0
40
0
40
0
40
0.955108159421581
40
0.955108159421581
40
1
40
1
40
1
40
1
41
1
10
13.3225795653414
20
-3.39127828799298
30
0
41
1
10
13.6649927681632
20
-3.41818637581807
30
0
41
1
10
14.0069440723783
20
-3.43242021456024
30
0
41
1
10
14.3644556819913
20
-3.43427574423174
30
0
41
1
10
14.3805046907096
20
-3.43433133400259
30
0
41
1
10
14.3965534293577
20
-3.43435922530017
30
0
0
SPLINE
5
BD
100
AcDbEntity
8
1
62
256
6
ByLayer
370
18
48
1
60
0
100
AcDbSpline
70
4
71
3
72
64
73
60
40
0
40
0
40
0
40
0
40
0.0075799349798752
40
0.0075799349798752
40
0.026249867120505
40
0.026249867120505
40
0.0449197992611347
40
0.0449197992611347
40
0.119599527823652
40
0.119599527823652
40
0.138269459964282
40
0.138269459964282
40
0.156939392104911
40
0.156939392104911
40
0.19427925638617
40
0.19427925638617
40
0.231619120667429
40
0.231619120667429
40
0.268958984948688
40
0.268958984948688
40
0.306298849229947
40
0.306298849229947
40
0.343638713511206
40
0.343638713511206
40
0.380978577792464
40
0.380978577792464
40
0.418318442073723
40
0.418318442073723
40
0.492998170636242
40
0.492998170636242
40
0.530338034917501
40
0.530338034917501
40
0.56767789919876
40
0.56767789919876
40
0.586347831339389
40
0.586347831339389
40
0.605017763480019
40
0.605017763480019
40
0.642357627761276
40
0.642357627761276
40
0.679697492042534
40
0.679697492042534
40
0.698367424183164
40
0.698367424183164
40
0.717037356323793
40
0.717037356323793
40
0.754377220605053
40
0.754377220605053
40
0.791717084886313
40
0.791717084886313
40
0.866396813448832
40
0.866396813448832
40
0.903736677730092
40
0.903736677730092
40
0.941076542011351
40
0.941076542011351
40
0.978416406292611
40
0.978416406292611
40
1
40
1
40
1
40
1
41
1
10
30.5349569537371
20
2.38414372571086
30
0
41
1
10
30.6041830912346
20
2.40932390917249
30
0
41
1
10
30.6734221525508
20
2.43414932370197
30
0
41
1
10
30.9132707437914
20
2.51885693633443
30
0
41
1
10
31.0838745159665
20
2.57703782759558
30
0
41
1
10
31.4255471580037
20
2.68863005596509
30
0
41
1
10
31.5967292921294
20
2.74200427147196
30
0
41
1
10
32.4504248086984
20
2.99637346421196
30
0
41
1
10
33.1305435864669
20
3.15819740064094
30
0
41
1
10
33.9846190516632
20
3.30144428863147
30
0
41
1
10
34.1556279192977
20
3.32721205899551
30
0
41
1
10
34.4970913502032
20
3.37248539912224
30
0
41
1
10
34.6677232492678
20
3.39201171254672
30
0
41
1
10
35.1790046157111
20
3.44142694692076
30
0
41
1
10
35.5195932948657
20
3.4619175387559
30
0
41
1
10
36.201368841807
20
3.47773912466909
30
0
41
1
10
36.5431953588184
20
3.47299935744525
30
0
41
1
10
37.2261503254064
20
3.43829609391463
30
0
41
1
10
37.566803475203
20
3.40838156545374
30
0
41
1
10
38.247938194376
20
3.32398136681854
30
0
41
1
10
38.5886002294672
20
3.26960303205206
30
0
41
1
10
39.2712482379745
20
3.1370808139614
30
0
41
1
10
39.6129867690069
20
3.05895487019964
30
0
41
1
10
40.294631560616
20
2.8816593708757
30
0
41
1
10
40.634988375797
20
2.78223568401827
30
0
41
1
10
41.3162491649793
20
2.56345186122195
30
0
41
1
10
41.6578904865984
20
2.44412428048278
30
0
41
1
10
42.6817295318227
20
2.06062405844489
30
0
41
1
10
43.361300990884
20
1.7724085436958
30
0
41
1
10
44.3844126344691
20
1.30487393821534
30
0
41
1
10
44.7260967260588
20
1.14357406710974
30
0
41
1
10
45.4072815994888
20
0.814486409092581
30
0
41
1
10
45.7474355571693
20
0.646482924874164
30
0
41
1
10
46.2582823457551
20
0.39178258995392
30
0
41
1
10
46.4285497897923
20
0.306199585149841
30
0
41
1
10
46.769544261541
20
0.134634714325244
30
0
41
1
10
46.9404453662527
20
0.0486242377419615
30
0
41
1
10
47.4520521087435
20
-0.209653343112422
30
0
41
1
10
47.7924208115137
20
-0.381165278000736
30
0
41
1
10
48.4729441698302
20
-0.720504751604096
30
0
41
1
10
48.813134150743
20
-0.888258655037333
30
0
41
1
10
49.3245883542832
20
-1.13452062078778
30
0
41
1
10
49.4953043384621
20
-1.21601027479483
30
0
41
1
10
49.8363636962617
20
-1.37622138660527
30
0
41
1
10
50.0067670260016
20
-1.45493231654402
30
0
41
1
10
50.517315129941
20
-1.68741131732901
30
0
41
1
10
50.8573470748282
20
-1.83652776482273
30
0
41
1
10
51.5379320515272
20
-2.12100067960873
30
0
41
1
10
51.8790193149
20
-2.25646784649479
30
0
41
1
10
52.9021847892652
20
-2.6364696583459
30
0
41
1
10
53.580719069981
20
-2.85455923373982
30
0
41
1
10
54.602785255915
20
-3.11666967217189
30
0
41
1
10
54.9441000634355
20
-3.19320147926922
30
0
41
1
10
55.6247631128945
20
-3.32209712560481
30
0
41
1
10
55.9645863545377
20
-3.37475960054061
30
0
41
1
10
56.6446943366054
20
-3.45551733956776
30
0
41
1
10
56.9856471771068
20
-3.48356115795883
30
0
41
1
10
57.5234612167637
20
-3.50774036599014
30
0
41
1
10
57.7201761943653
20
-3.51233762342451
30
0
41
1
10
57.9167734591157
20
-3.51269290006388
30
0
0
SPLINE
5
BE
100
AcDbEntity
8
1
62
256
6
ByLayer
370
18
48
1
60
0
100
AcDbSpline
70
4
71
3
72
18
73
14
40
0
40
0
40
0
40
0
40
0.134579004969521
40
0.134579004969521
40
0.350934253727142
40
0.350934253727142
40
0.567289502484765
40
0.567289502484765
40
0.675467126863572
40
0.675467126863572
40
0.783644751242379
40
0.783644751242379
40
1
40
1
40
1
40
1
41
1
10
74.0333680984228
20
2.42942738311646
30
0
41
1
10
74.2445153859595
20
2.50822945053846
30
0
41
1
10
74.4557362774798
20
2.58372646853914
30
0
41
1
10
75.0071443443967
20
2.77132861119662
30
0
41
1
10
75.3477458604377
20
2.8774457553709
30
0
41
1
10
76.0268180857412
20
3.06783045596743
30
0
41
1
10
76.3659644457257
20
3.15222608558088
30
0
41
1
10
76.8753725250692
20
3.26145464446253
30
0
41
1
10
77.0451814711817
20
3.29505607704567
30
0
41
1
10
77.3852515036575
20
3.35626152269046
30
0
41
1
10
77.5556129666084
20
3.38384316293784
30
0
41
1
10
78.0653585824324
20
3.45741269858871
30
0
41
1
10
78.4045722105638
20
3.49400622458018
30
0
41
1
10
78.7437560956594
20
3.51798195204214
30
0
0
SPLINE
5
BF
100
AcDbEntity
8
1
62
256
6
ByLayer
370
18
48
1
60
0
100
AcDbSpline
70
4
71
3
72
17
73
13
40
0
40
0
40
0
40
0
40
0.0140187963743214
40
0.137266446827539
40
0.137266446827539
40
0.260514097280756
40
0.260514097280756
40
0.507009398187171
40
0.507009398187171
40
0.753504699093586
40
0.753504699093586
40
1
40
1
40
1
40
1
41
1
10
78.4596309352225
20
0.469681392667042
30
0
41
1
10
78.4625609495114
20
0.472026413787347
30
0
41
1
10
78.491315233315
20
0.495225423688055
30
0
41
1
10
78.5207113895073
20
0.520736014364758
30
0
41
1
10
78.5746765669869
20
0.570176460179255
30
0
41
1
10
78.6024041608491
20
0.596873329580433
30
0
41
1
10
78.6862995839147
20
0.681025279955918
30
0
41
1
10
78.7430316710021
20
0.742335816249039
30
0
41
1
10
78.8596002557281
20
0.873619320138914
30
0
41
1
10
78.9197598058249
20
0.944153886671529
30
0
41
1
10
79.0417755859826
20
1.0862822952987
30
0
41
1
10
79.1037043166399
20
1.15874560756038
30
0
41
1
10
79.1716236868216
20
1.22829017737305
30
0
0
SPLINE
5
C0
100
AcDbEntity
8
1
62
256
6
ByLayer
370
18
48
1
60
0
100
AcDbSpline
70
4
71
3
72
12
73
8
40
0
40
0
40
0
40
0
40
0.249999999999999
40
0.249999999999999
40
0.499999999999998
40
0.499999999999998
40
1
40
1
40
1
40
1
41
1
10
9.02959646301505
20
2.60278987350239
30
0
41
1
10
9.3837741863116
20
2.70831685585193
30
0
41
1
10
9.73996165284345
20
2.80326976056094
30
0
41
1
10
10.4558027037345
20
2.97390083474079
30
0
41
1
10
10.8159113767692
20
3.04961357024266
30
0
41
1
10
11.8929140725619
20
3.24698818085972
30
0
41
1
10
12.608931315838
20
3.34020864694131
30
0
41
1
10
13.3225795653414
20
3.39127828799303
30
0
0
SPLINE
5
C1
100
AcDbEntity
8
1
62
256
6
ByLayer
370
18
48
1
60
0
100
AcDbSpline
70
4
71
3
72
18
73
14
40
0
40
0
40
0
40
0
40
0.0706298916701113
40
0.0706298916701113
40
0.302972418752582
40
0.302972418752582
40
0.535314945835053
40
0.535314945835053
40
0.767657472917524
40
0.767657472917524
40
0.883828736458762
40
0.883828736458762
40
1
40
1
40
1
40
1
41
1
10
8.45180555946922
20
-2.47297048683814
30
0
41
1
10
8.38570046231146
20
-2.49665910298938
30
0
41
1
10
8.31973558261416
20
-2.52012566780374
30
0
41
1
10
8.03739910211075
20
-2.61977954332932
30
0
41
1
10
7.82240187981452
20
-2.69380555720002
30
0
41
1
10
7.39596801522674
20
-2.8358288429794
30
0
41
1
10
7.18425796735545
20
-2.90379048148694
30
0
41
1
10
6.77222244581463
20
-3.02909199039649
30
0
41
1
10
6.57103844093857
20
-3.0868392118407
30
0
41
1
10
6.27882878596944
20
-3.16314817751385
30
0
41
1
10
6.18304185804428
20
-3.18683831537814
30
0
41
1
10
5.99537881697392
20
-3.22986407325917
30
0
41
1
10
5.9035876389475
20
-3.2491632936767
30
0
41
1
10
5.81560350917411
20
-3.26546690812884
30
0
0
SPLINE
5
C2
100
AcDbEntity
8
1
62
256
6
ByLayer
370
18
48
1
60
0
100
AcDbSpline
70
4
71
3
72
8
73
4
40
0
40
0
40
0
40
0
40
1
40
1
40
1
40
1
41
1
10
79.9997798385232
20
-0.0745795808427374
30
0
41
1
10
79.9473746859788
20
-0.216850874800144
30
0
41
1
10
79.8961229117292
20
-0.359869188118665
30
0
41
1
10
79.8459069078129
20
-0.503607680259108
30
0
0
SPLINE
5
C3
100
AcDbEntity
8
1
62
256
6
ByLayer
370
18
48
1
60
0
100
AcDbSpline
70
4
71
3
72
12
73
8
40
0
40
0
40
0
40
0
40
0.500000000000001
40
0.500000000000001
40
0.75
40
0.75
40
1
40
1
40
1
40
1
41
1
10
79.1716236868284
20
1.22829017736421
30
0
41
1
10
79.20880162416
20
1.26635772203119
30
0
41
1
10
79.2396495018955
20
1.31176609518582
30
0
41
1
10
79.2636847097429
20
1.38816628893974
30
0
41
1
10
79.2679739804669
20
1.41497112603162
30
0
41
1
10
79.269019931912
20
1.46813049455625
30
0
41
1
10
79.2658565409216
20
1.49506789278894
30
0
41
1
10
79.2597924261034
20
1.52130665962199
30
0
0
SPLINE
5
C4
100
AcDbEntity
8
1
62
256
6
ByLayer
370
18
48
1
60
0
100
AcDbSpline
70
4
71
3
72
60
73
56
40
0
40
0
40
0
40
0
40
0.0538705636093325
40
0.0538705636093325
40
0.107741127218665
40
0.107741127218665
40
0.161611690827998
40
0.161611690827998
40
0.188546972632664
40
0.188546972632664
40
0.215482254437331
40
0.215482254437331
40
0.269352818046664
40
0.269352818046664
40
0.296288099851331
40
0.296288099851331
40
0.323223381655998
40
0.323223381655998
40
0.350158663460664
40
0.350158663460664
40
0.377093945265331
40
0.377093945265331
40
0.430964508874665
40
0.430964508874665
40
0.484835072484
40
0.484835072484
40
0.511770354288667
40
0.511770354288667
40
0.538705636093334
40
0.538705636093334
40
0.592576199702668
40
0.592576199702668
40
0.619511481507335
40
0.619511481507335
40
0.646446763312002
40
0.646446763312002
40
0.673382045116669
40
0.673382045116669
40
0.700317326921337
40
0.700317326921337
40
0.754187890530672
40
0.754187890530672
40
0.781123172335339
40
0.781123172335339
40
0.808058454140007
40
0.808058454140007
40
0.86192901774934
40
0.86192901774934
40
0.915799581358674
40
0.915799581358674
40
0.94273486316334
40
0.94273486316334
40
0.969670144968007
40
0.969670144968007
40
1
40
1
40
1
40
1
41
1
10
10.9161812043695
20
1.53143556779762
30
0
41
1
10
11.2698186209402
20
1.38106328812663
30
0
41
1
10
11.622014779212
20
1.22396920629245
30
0
41
1
10
12.3265003597354
20
0.902748594595948
30
0
41
1
10
12.6784657787171
20
0.738126072714778
30
0
41
1
10
13.3833065396125
20
0.403305043633537
30
0
41
1
10
13.7369699057282
20
0.233115057867508
30
0
41
1
10
14.2659263221563
20
-0.0216263848365372
30
0
41
1
10
14.4420595291775
20
-0.10662534090028
30
0
41
1
10
14.7941282311387
20
-0.276528981375634
30
0
41
1
10
14.970162437285
20
-0.361230594110992
30
0
41
1
10
15.4982283342815
20
-0.614288925939064
30
0
41
1
10
15.8506477956828
20
-0.780804199127516
30
0
41
1
10
16.3806029103178
20
-1.02615089783257
30
0
41
1
10
16.5571459464529
20
-1.10677477460152
30
0
41
1
10
16.9096971676401
20
-1.26634586995598
30
0
41
1
10
17.0858183261357
20
-1.34522588404005
30
0
41
1
10
17.437978794509
20
-1.4999548569092
30
0
41
1
10
17.6139259671728
20
-1.57580122156077
30
0
41
1
10
17.9660563439823
20
-1.72407290336105
30
0
41
1
10
18.1422108557644
20
-1.79659772194145
30
0
41
1
10
18.6708837607388
20
-2.00911791437147
30
0
41
1
10
19.0244872230857
20
-2.14370528761748
30
0
41
1
10
19.7296921370482
20
-2.39484801741318
30
0
41
1
10
20.081701546306
20
-2.51093239687216
30
0
41
1
10
20.6097264641844
20
-2.67306695396431
30
0
41
1
10
20.7856919433958
20
-2.72449488201101
30
0
41
1
10
21.1382376859268
20
-2.82059155402612
30
0
41
1
10
21.3146556119296
20
-2.86575495466295
30
0
41
1
10
21.8445760970972
20
-2.99301043369619
30
0
41
1
10
22.197017956929
20
-3.06592538236714
30
0
41
1
10
22.7253729407952
20
-3.15939865446345
30
0
41
1
10
22.9013570801884
20
-3.18777512111004
30
0
41
1
10
23.2534757450458
20
-3.23755662490464
30
0
41
1
10
23.4296860830108
20
-3.25917826187896
30
0
41
1
10
23.7821217080432
20
-3.29690718993635
30
0
41
1
10
23.9584852717482
20
-3.31278075442447
30
0
41
1
10
24.3117748409355
20
-3.33693185634527
30
0
41
1
10
24.4880846336127
20
-3.34531874151764
30
0
41
1
10
25.0167958404012
20
-3.3604886754249
30
0
41
1
10
25.3687840949604
20
-3.35722797916006
30
0
41
1
10
25.8969627292458
20
-3.33542342586151
30
0
41
1
10
26.0729233014995
20
-3.32542333800367
30
0
41
1
10
26.4253222583774
20
-3.29857883463373
30
0
41
1
10
26.6017575458364
20
-3.28151325268232
30
0
41
1
10
27.1313020435872
20
-3.2205356578331
30
0
41
1
10
27.4833737648351
20
-3.16770846857585
30
0
41
1
10
28.1874338376522
20
-3.03509392814763
30
0
41
1
10
28.5393163137292
20
-2.95633116583375
30
0
41
1
10
29.0678178139346
20
-2.82346890981671
30
0
41
1
10
29.2440749735506
20
-2.77685526962861
30
0
41
1
10
29.5968354362789
20
-2.67844181944338
30
0
41
1
10
29.7728870658365
20
-2.62596648873878
30
0
41
1
10
30.1469206038033
20
-2.50866200410101
30
0
41
1
10
30.3448988705231
20
-2.44312510953776
30
0
41
1
10
30.5428761203585
20
-2.37469601460305
30
0
0
SPLINE
5
C5
100
AcDbEntity
8
1
62
256
6
ByLayer
370
18
48
1
60
0
100
AcDbSpline
70
4
71
3
72
84
73
80
40
0
40
0
40
0
40
0
40
0.0011585170172804
40
0.0011585170172804
40
0.0204680083948508
40
0.0204680083948508
40
0.0397774997724213
40
0.0397774997724213
40
0.0783964825275621
40
0.0783964825275621
40
0.0977059739051325
40
0.0977059739051325
40
0.117015465282703
40
0.117015465282703
40
0.155634448037843
40
0.155634448037843
40
0.174943939415414
40
0.174943939415414
40
0.194253430792984
40
0.194253430792984
40
0.213562922170555
40
0.213562922170555
40
0.232872413548125
40
0.232872413548125
40
0.252181904925696
40
0.252181904925696
40
0.271491396303266
40
0.271491396303266
40
0.310110379058408
40
0.310110379058408
40
0.34872936181355
40
0.34872936181355
40
0.368038853191122
40
0.368038853191122
40
0.387348344568693
40
0.387348344568693
40
0.406657835946264
40
0.406657835946264
40
0.425967327323835
40
0.425967327323835
40
0.464586310078977
40
0.464586310078977
40
0.483895801456549
40
0.483895801456549
40
0.503205292834121
40
0.503205292834121
40
0.541824275589265
40
0.541824275589265
40
0.561133766966838
40
0.561133766966838
40
0.580443258344411
40
0.580443258344411
40
0.619062241099558
40
0.619062241099558
40
0.657681223854705
40
0.657681223854705
40
0.696300206609852
40
0.696300206609852
40
0.734919189365
40
0.734919189365
40
0.754228680742573
40
0.754228680742573
40
0.773538172120147
40
0.773538172120147
40
0.812157154875294
40
0.812157154875294
40
0.831466646252868
40
0.831466646252868
40
0.850776137630441
40
0.850776137630441
40
0.870085629008015
40
0.870085629008015
40
0.889395120385589
40
0.889395120385589
40
0.928014103140735
40
0.928014103140735
40
0.966633085895881
40
0.966633085895881
40
1
40
1
40
1
40
1
41
1
10
46.801292318005
20
3.39475189262424
30
0
41
1
10
46.8118414042201
20
3.39479707501826
30
0
41
1
10
46.8223909058455
20
3.39483135338335
30
0
41
1
10
47.008781000447
20
3.39524478933254
30
0
41
1
10
47.1849516247495
20
3.3923991554816
30
0
41
1
10
47.5369033881703
20
3.38157201839752
30
0
41
1
10
47.7126468888311
20
3.37240857484576
30
0
41
1
10
48.2395796258953
20
3.33379693275663
30
0
41
1
10
48.5903859245271
20
3.29394200240924
30
0
41
1
10
49.1169196480905
20
3.21637519377703
30
0
41
1
10
49.2925468869892
20
3.18766758469559
30
0
41
1
10
49.6440156212884
20
3.12461675824039
30
0
41
1
10
49.819965515405
20
3.08999255259016
30
0
41
1
10
50.3475680968226
20
2.97650698099363
30
0
41
1
10
50.6984014094002
20
2.88814561888589
30
0
41
1
10
51.2246429054527
20
2.74049433389232
30
0
41
1
10
51.3999670814526
20
2.68864602511658
30
0
41
1
10
51.7508955545007
20
2.58058340456401
30
0
41
1
10
51.9263540706843
20
2.52415055569509
30
0
41
1
10
52.2776668212288
20
2.40554115914023
30
0
41
1
10
52.4538036132198
20
2.34348400922434
30
0
41
1
10
52.8053044023897
20
2.21477754272553
30
0
41
1
10
52.9808331961985
20
2.14817329709314
30
0
41
1
10
53.3318646251214
20
2.01139782335568
30
0
41
1
10
53.507229990249
20
1.94099862288857
30
0
41
1
10
53.8579387962715
20
1.79693544311883
30
0
41
1
10
54.033345153873
20
1.72351317015611
30
0
41
1
10
54.5595301073178
20
1.49745566980192
30
0
41
1
10
54.9115074545635
20
1.33919342120487
30
0
41
1
10
55.614149826945
20
1.01436396757663
30
0
41
1
10
55.9648110632133
20
0.847561186040821
30
0
41
1
10
56.4909316590094
20
0.593686735195803
30
0
41
1
10
56.6662109318347
20
0.508196280970367
30
0
41
1
10
57.0171906157103
20
0.33657591905947
30
0
41
1
10
57.192820890774
20
0.250345654570708
30
0
41
1
10
57.5441224620982
20
0.0768855717537349
30
0
41
1
10
57.7198853907473
20
-0.0099627897477887
30
0
41
1
10
58.0707747229439
20
-0.183010055146383
30
0
41
1
10
58.2459744131302
20
-0.26951986732135
30
0
41
1
10
58.7717473586174
20
-0.527232615947383
30
0
41
1
10
59.1220273959222
20
-0.697548046443842
30
0
41
1
10
59.6479394110446
20
-0.949581346625706
30
0
41
1
10
59.8231671313027
20
-1.03340543573242
30
0
41
1
10
60.1745388002723
20
-1.19785382097092
30
0
41
1
10
60.350048843588
20
-1.27878553205818
30
0
41
1
10
60.8759221482779
20
-1.51760970535651
30
0
41
1
10
61.2260372160176
20
-1.67088986167778
30
0
41
1
10
61.7515016198679
20
-1.89141886458472
30
0
41
1
10
61.9265780229457
20
-1.96379780160092
30
0
41
1
10
62.2770610280619
20
-2.10443249565924
30
0
41
1
10
62.4526969644706
20
-2.17232213477928
30
0
41
1
10
62.9794942487491
20
-2.36986100053238
30
0
41
1
10
63.3298474114512
20
-2.49202329212397
30
0
41
1
10
64.0302294548778
20
-2.71794459912476
30
0
41
1
10
64.3802183892382
20
-2.82181182166096
30
0
41
1
10
65.0816210937526
20
-3.00642554473902
30
0
41
1
10
65.4329685735389
20
-3.08840468439379
30
0
41
1
10
66.1333725650399
20
-3.22435439959193
30
0
41
1
10
66.4832174284211
20
-3.27986065908931
30
0
41
1
10
67.0085242031397
20
-3.34518169243103
30
0
41
1
10
67.1836841790515
20
-3.36399493953755
30
0
41
1
10
67.5341383235195
20
-3.39608218703196
30
0
41
1
10
67.7097367151334
20
-3.40925394222128
30
0
41
1
10
68.2354772697479
20
-3.4360616734391
30
0
41
1
10
68.58521029466
20
-3.43953357507158
30
0
41
1
10
69.1097332295298
20
-3.42605311698847
30
0
41
1
10
69.284678970502
20
-3.41839101936705
30
0
41
1
10
69.6345540466047
20
-3.39701150635207
30
0
41
1
10
69.8095116574385
20
-3.38335818590363
30
0
41
1
10
70.1599985187785
20
-3.34917640094571
30
0
41
1
10
70.335453972163
20
-3.32840880376349
30
0
41
1
10
70.6856728828066
20
-3.28094583498546
30
0
41
1
10
70.860688683953
20
-3.25440887664649
30
0
41
1
10
71.3851778147534
20
-3.16468860594407
30
0
41
1
10
71.7346375209216
20
-3.09094318508053
30
0
41
1
10
72.4344148759042
20
-2.92188066543116
30
0
41
1
10
72.7853159374362
20
-2.82652062516092
30
0
41
1
10
73.4377230923652
20
-2.62948891686946
30
0
41
1
10
73.7395958255506
20
-2.52981248054292
30
0
41
1
10
74.0414426214786
20
-2.42318122436436
30
0
0
SPLINE
5
C6
100
AcDbEntity
8
1
62
256
6
ByLayer
370
18
48
1
60
0
100
AcDbSpline
70
4
71
3
72
14
73
10
40
0
40
0
40
0
40
0
40
0.25
40
0.25
40
0.5
40
0.5
40
0.75
40
0.75
40
1
40
1
40
1
40
1
41
1
10
5.38812657303151
20
-0.326458853243707
30
0
41
1
10
5.38810684831594
20
-0.367614913847291
30
0
41
1
10
5.40598088613621
20
-0.405754073635109
30
0
41
1
10
5.45198981431696
20
-0.472277126602023
30
0
41
1
10
5.48074329509453
20
-0.501250743248022
30
0
41
1
10
5.54208309558666
20
-0.55331868381802
30
0
41
1
10
5.57531944714987
20
-0.576771313672879
30
0
41
1
10
5.64391181263778
20
-0.619525725980736
30
0
41
1
10
5.67938969292624
20
-0.63890200187538
30
0
41
1
10
5.71587068923935
20
-0.656590812776102
30
0
0
SPLINE
5
C7
100
AcDbEntity
8
1
62
256
6
ByLayer
370
18
48
1
60
0
100
AcDbSpline
70
4
71
3
72
12
73
8
40
0
40
0
40
0
40
0
40
0.25
40
0.25
40
0.5
40
0.5
40
1
40
1
40
1
40
1
41
1
10
5.38941840970656
20
3.40015809620351
30
0
41
1
10
5.42905204238679
20
3.38083822337927
30
0
41
1
10
5.46826166331923
20
3.36418646907367
30
0
41
1
10
5.54464433458443
20
3.33528608696557
30
0
41
1
10
5.58105126186791
20
3.32328260988268
30
0
41
1
10
5.68693116003516
20
3.29188793198705
30
0
41
1
10
5.75300661446607
20
3.27706622313997
30
0
41
1
10
5.815603509174
20
3.26546690812884
30
0
0
SPLINE
5
C8
100
AcDbEntity
8
1
62
256
6
ByLayer
370
18
48
1
60
0
100
AcDbSpline
70
4
71
3
72
8
73
4
40
0
40
0
40
0
40
0
40
1
40
1
40
1
40
1
41
1
10
78.7437560956594
20
-3.51798195204214
30
0
41
1
10
78.903685243113
20
-3.12345707754923
30
0
41
1
10
79.0675470865315
20
-2.71489248588966
30
0
41
1
10
79.2288327718238
20
-2.28808374807082
30
0
0
SPLINE
5
C9
100
AcDbEntity
8
1
62
256
6
ByLayer
370
18
48
1
60
0
100
AcDbSpline
70
4
71
3
72
10
73
6
40
0
40
0
40
0
40
0
40
0.141528004786883
40
0.141528004786883
40
1
40
1
40
1
40
1
41
1
10
12.3716933296297
20
0.87417476307192
30
0
41
1
10
12.3885601355847
20
0.898190756853467
30
0
41
1
10
12.4051754180467
20
0.923106098476353
30
0
41
1
10
12.5204495683396
20
1.10511002436405
30
0
41
1
10
12.608204695419
20
1.29216470949694
30
0
41
1
10
12.6759906714502
20
1.4913464958525
30
0
0
SPLINE
5
CA
100
AcDbEntity
8
1
62
256
6
ByLayer
370
18
48
1
60
0
100
AcDbSpline
70
4
71
3
72
8
73
4
40
0
40
0
40
0
40
0
40
1
40
1
40
1
40
1
41
1
10
79.9997798385232
20
0.0745795808427658
30
0
41
1
10
79.9474442384762
20
0.216662051309868
30
0
41
1
10
79.8961904196813
20
0.359675953084292
30
0
41
1
10
79.845906907813
20
0.503607680258767
30
0
0
SPLINE
5
CB
100
AcDbEntity
8
1
62
256
6
ByLayer
370
18
48
1
60
0
100
AcDbSpline
70
4
71
3
72
26
73
22
40
0
40
0
40
0
40
0
40
0.0312499999999991
40
0.0312499999999991
40
0.0624999999999983
40
0.0624999999999983
40
0.124999999999997
40
0.124999999999997
40
0.187499999999995
40
0.187499999999995
40
0.249999999999994
40
0.249999999999994
40
0.374999999999996
40
0.374999999999996
40
0.499999999999997
40
0.499999999999997
40
0.624999999999999
40
0.624999999999999
40
0.750000000000001
40
0.750000000000001
40
1
40
1
40
1
40
1
41
1
10
5.00720162118205
20
-2.78283126571895
30
0
41
1
10
5.02836381037147
20
-2.75953708300756
30
0
41
1
10
5.05409440994208
20
-2.73701075694552
30
0
41
1
10
5.11096825629539
20
-2.69467301620995
30
0
41
1
10
5.14235152840462
20
-2.67460849431092
30
0
41
1
10
5.24345935028455
20
-2.61719358668938
30
0
41
1
10
5.31770568371979
20
-2.58382602134105
30
0
41
1
10
5.47313148717166
20
-2.52412371661396
30
0
41
1
10
5.555194415789
20
-2.49760034490376
30
0
41
1
10
5.72191369236802
20
-2.45080756029719
30
0
41
1
10
5.80661779797839
20
-2.43048703149066
30
0
41
1
10
6.06377878227923
20
-2.37693389861164
30
0
41
1
10
6.23923555637725
20
-2.35101687813022
30
0
41
1
10
6.59616697748248
20
-2.31520082046026
30
0
41
1
10
6.77452102226377
20
-2.30570672795335
30
0
41
1
10
7.13026780121717
20
-2.30137703546612
30
0
41
1
10
7.30780073372816
20
-2.3065762330894
30
0
41
1
10
7.66221007845746
20
-2.33095873204823
30
0
41
1
10
7.83936021103125
20
-2.35020413017679
30
0
41
1
10
8.3680690604665
20
-2.42841975699551
30
0
41
1
10
8.70618695380617
20
-2.50643025705762
30
0
41
1
10
9.02959646302534
20
-2.60278987350546
30
0
0
SPLINE
5
CC
100
AcDbEntity
8
1
62
256
6
ByLayer
370
18
48
1
60
0
100
AcDbSpline
70
4
71
3
72
8
73
4
40
0
40
0
40
0
40
0
40
1
40
1
40
1
40
1
41
1
10
79.8459069078187
20
0.503607680242567
30
0
41
1
10
79.6383282298316
20
1.09778172531688
30
0
41
1
10
79.4326327090555
20
1.69260565180852
30
0
41
1
10
79.2288327718239
20
2.28808374807065
30
0
0
SPLINE
5
CD
100
AcDbEntity
8
1
62
256
6
ByLayer
370
18
48
1
60
0
100
AcDbSpline
70
4
71
3
72
8
73
4
40
0
40
0
40
0
40
0
40
1
40
1
40
1
40
1
41
1
10
78.7437560956594
20
-3.51798195204214
30
0
41
1
10
78.7226552397885
20
-3.49785877613951
30
0
41
1
10
78.7043630989065
20
-3.46841598288322
30
0
41
1
10
78.6885043509914
20
-3.42942624925465
30
0
0
SPLINE
5
CE
100
AcDbEntity
8
1
62
256
6
ByLayer
370
18
48
1
60
0
100
AcDbSpline
70
4
71
3
72
8
73
4
40
0
40
0
40
0
40
0
40
1
40
1
40
1
40
1
41
1
10
78.6885043509891
20
-3.4294262492617
30
0
41
1
10
78.6912688884238
20
-3.41595964093952
30
0
41
1
10
78.693629499155
20
-3.40303997180766
30
0
41
1
10
78.6955955384722
20
-3.39064838099321
30
0
0
SPLINE
5
CF
100
AcDbEntity
8
1
62
256
6
ByLayer
370
18
48
1
60
0
100
AcDbSpline
70
4
71
4
72
10
73
5
40
0
40
0
40
0
40
0
40
0
40
1
40
1
40
1
40
1
40
1
41
1
10
13.3225795653413
20
3.39127828799298
30
0
41
1
10
13.1609323418685
20
2.91629533995786
30
0
41
1
10
12.9992851183958
20
2.44131239192274
30
0
41
1
10
12.837637894923
20
1.96632944388762
30
0
41
1
10
12.6759906714502
20
1.49134649585253
30
0
0
SPLINE
5
D0
100
AcDbEntity
8
1
62
256
6
ByLayer
370
18
48
1
60
0
100
AcDbSpline
70
4
71
3
72
26
73
22
40
0
40
0
40
0
40
0
40
0.101605413221615
40
0.101605413221615
40
0.203210826443229
40
0.203210826443229
40
0.304816239664844
40
0.304816239664844
40
0.406421652886458
40
0.406421652886458
40
0.609632479329687
40
0.609632479329687
40
0.660435185940494
40
0.660435185940494
40
0.7112378925513
40
0.7112378925513
40
0.812843305772912
40
0.812843305772912
40
0.914448718994523
40
0.914448718994523
40
1
40
1
40
1
40
1
41
1
10
5.71587068924077
20
-0.656590812773345
30
0
41
1
10
6.09834807152563
20
-0.842045454169892
30
0
41
1
10
6.48074712469446
20
-1.02473729333312
30
0
41
1
10
7.24405182891991
20
-1.37848825718737
30
0
41
1
10
7.62521096825287
20
-1.54986848575962
30
0
41
1
10
8.38892491674986
20
-1.87725660013206
30
0
41
1
10
8.77149820499864
20
-2.03343465698532
30
0
41
1
10
9.53197967361422
20
-2.32468642250211
30
0
41
1
10
9.91081157950103
20
-2.46020857325695
30
0
41
1
10
11.0469193754669
20
-2.83119825079652
30
0
41
1
10
11.8032237927496
20
-3.03191771004421
30
0
41
1
10
12.7570936002954
20
-3.21229642110211
30
0
41
1
10
12.9483318142393
20
-3.2448360644091
30
0
41
1
10
13.329856108854
20
-3.30231076037174
30
0
41
1
10
13.5204051364031
20
-3.32729460394538
30
0
41
1
10
14.0917643028468
20
-3.390839533036
30
0
41
1
10
14.4722879181676
20
-3.41797466674419
30
0
41
1
10
15.2348060290499
20
-3.44105939561174
30
0
41
1
10
15.6172467013136
20
-3.43695203865261
30
0
41
1
10
16.3192356590578
20
-3.40067370879106
30
0
41
1
10
16.6396502703443
20
-3.37307307830102
30
0
41
1
10
16.960259080335
20
-3.33472316542884
30
0
0
SPLINE
5
D1
100
AcDbEntity
8
1
62
256
6
ByLayer
370
18
48
1
60
0
100
AcDbSpline
70
4
71
3
72
48
73
44
40
0
40
0
40
0
40
0
40
0.0300582003149054
40
0.0300582003149054
40
0.078383733413472
40
0.078383733413472
40
0.126709266512039
40
0.126709266512039
40
0.175034799610605
40
0.175034799610605
40
0.223360332709172
40
0.223360332709172
40
0.271685865807739
40
0.271685865807739
40
0.320011398906305
40
0.320011398906305
40
0.368336932004872
40
0.368336932004872
40
0.416662465103439
40
0.416662465103439
40
0.464987998202006
40
0.464987998202006
40
0.513313531300573
40
0.513313531300573
40
0.609964597497705
40
0.609964597497705
40
0.658290130596272
40
0.658290130596272
40
0.706615663694838
40
0.706615663694838
40
0.754941196793405
40
0.754941196793405
40
0.803266729891972
40
0.803266729891972
40
0.851592262990539
40
0.851592262990539
40
0.899917796089105
40
0.899917796089105
40
0.948243329187672
40
0.948243329187672
40
0.996568862286239
40
0.996568862286239
40
1
40
1
40
1
40
1
41
1
10
36.9913433156424
20
3.47502601906976
30
0
41
1
10
37.2277149631011
20
3.47559345074421
30
0
41
1
10
37.4639402354302
20
3.47008481954373
30
0
41
1
10
38.0802255026293
20
3.43990573289071
30
0
41
1
10
38.4612646640745
20
3.4056285473572
30
0
41
1
10
39.2228474612682
20
3.30634732338274
30
0
41
1
10
39.6024909118215
20
3.24147497331074
30
0
41
1
10
40.362073125154
20
3.08320812991579
30
0
41
1
10
40.7419798552181
20
2.98983096323516
30
0
41
1
10
41.5037396820026
20
2.77599095302261
30
0
41
1
10
41.884153561459
20
2.65616305763132
30
0
41
1
10
42.6436681943606
20
2.39370615429854
30
0
41
1
10
43.0230873599397
20
2.25092957800925
30
0
41
1
10
43.7837012530235
20
1.94580105026824
30
0
41
1
10
44.1649555763157
20
1.78352083364342
30
0
41
1
10
44.9246269754835
20
1.4447602331133
30
0
41
1
10
45.3040005770268
20
1.26828184065269
30
0
41
1
10
46.0636721584108
20
0.904488665483711
30
0
41
1
10
46.4447677760265
20
0.716913211905194
30
0
41
1
10
47.2048820540043
20
0.338050057946191
30
0
41
1
10
47.5842518459406
20
0.146643606802172
30
0
41
1
10
48.3433707469417
20
-0.236628797932895
30
0
41
1
10
48.7237729621412
20
-0.428657272226275
30
0
41
1
10
49.865044764265
20
-0.99618113556204
30
0
41
1
10
50.6216652586104
20
-1.36201477180282
30
0
41
1
10
51.7630874440614
20
-1.86776994450267
30
0
41
1
10
52.1430064589283
20
-2.02842836359193
30
0
41
1
10
52.9016683063164
20
-2.3299044639615
30
0
41
1
10
53.2807803961089
20
-2.47079390328577
30
0
41
1
10
54.0406977711432
20
-2.72968871904035
30
0
41
1
10
54.4213904338883
20
-2.84770166646956
30
0
41
1
10
55.1801786304642
20
-3.0564528678629
30
0
41
1
10
55.5591728908967
20
-3.14735906086293
30
0
41
1
10
56.3182098248008
20
-3.30049836233107
30
0
41
1
10
56.6989348017731
20
-3.36279291039568
30
0
41
1
10
57.4580628611268
20
-3.45617976703804
30
0
41
1
10
57.8370694897584
20
-3.48735026642376
30
0
41
1
10
58.5955059098565
20
-3.51830332374667
30
0
41
1
10
58.9755651895624
20
-3.518010652572
30
0
41
1
10
59.7353113091366
20
-3.48558492299731
30
0
41
1
10
60.114366329488
20
-3.45361933693914
30
0
41
1
10
60.5202800422227
20
-3.40291720756358
30
0
41
1
10
60.5471894594683
20
-3.39947833925447
30
0
41
1
10
60.5740992232426
20
-3.39596204698401
30
0
0
SPLINE
5
D2
100
AcDbEntity
8
1
62
256
6
ByLayer
370
18
48
1
60
0
100
AcDbSpline
70
4
71
3
72
12
73
8
40
0
40
0
40
0
40
0
40
0.25
40
0.25
40
0.5
40
0.5
40
1
40
1
40
1
40
1
41
1
10
9.029596463015
20
-2.60278987350236
30
0
41
1
10
9.38377418631154
20
-2.70831685585193
30
0
41
1
10
9.73996165284342
20
-2.80326976056094
30
0
41
1
10
10.4558027037345
20
-2.97390083474079
30
0
41
1
10
10.8159113767692
20
-3.04961357024266
30
0
41
1
10
11.8929140725618
20
-3.24698818085972
30
0
41
1
10
12.608931315838
20
-3.34020864694131
30
0
41
1
10
13.3225795653414
20
-3.39127828799303
30
0
0
SPLINE
5
D3
100
AcDbEntity
8
1
62
256
6
ByLayer
370
18
48
1
60
0
100
AcDbSpline
70
4
71
3
72
12
73
8
40
0
40
0
40
0
40
0
40
0.249999999999992
40
0.249999999999992
40
0.499999999999983
40
0.499999999999983
40
1
40
1
40
1
40
1
41
1
10
78.695595538458
20
-3.39064838108266
30
0
41
1
10
78.6946328212652
20
-3.37493458611257
30
0
41
1
10
78.6925629698984
20
-3.36032310015244
30
0
41
1
10
78.686815948609
20
-3.33407110020832
30
0
41
1
10
78.6831597149206
20
-3.32237085907357
30
0
41
1
10
78.6703591639659
20
-3.29060691767666
30
0
41
1
10
78.6593587661546
20
-3.27390152410118
30
0
41
1
10
78.6468956469751
20
-3.26105214388204
30
0
0
SPLINE
5
D4
100
AcDbEntity
8
1
62
256
6
ByLayer
370
18
48
1
60
0
100
AcDbSpline
70
4
71
3
72
10
73
6
40
0
40
0
40
0
40
0
40
0.769171187349006
40
0.769171187349006
40
1
40
1
40
1
40
1
41
1
10
5.38941840970645
20
3.40015809620348
30
0
41
1
10
5.3179226334064
20
3.40877490563241
30
0
41
1
10
5.24938757188355
20
3.41455420359321
30
0
41
1
10
5.16711461254079
20
3.41736635250774
30
0
41
1
10
5.14857376779082
20
3.41769507197273
30
0
41
1
10
5.1305093728545
20
3.41768292154728
30
0
0
SPLINE
5
D5
100
AcDbEntity
8
1
62
256
6
ByLayer
370
13
48
1
60
0
100
AcDbSpline
70
4
71
3
72
79
73
75
40
0
40
0
40
0
40
0
40
0.0028425262755472
40
0.0168952790127911
40
0.0379744081186567
40
0.0450007844872784
40
0.0590535372245224
40
0.0731062899617663
40
0.0941854190676319
40
0.101211795436254
40
0.115264548173498
40
0.129317300910742
40
0.150396430016607
40
0.157422806385229
40
0.171475559122473
40
0.185528311859717
40
0.206607440965582
40
0.213633817334204
40
0.227686570071448
40
0.241739322808692
40
0.262818451914557
40
0.269844828283179
40
0.283897581020423
40
0.297950333757667
40
0.319029462863533
40
0.326055839232154
40
0.340108591969398
40
0.354161344706642
40
0.375240473812508
40
0.38226685018113
40
0.396319602918373
40
0.410372355655617
40
0.431451484761483
40
0.438477861130105
40
0.452530613867349
40
0.466583366604592
40
0.487662495710458
40
0.49468887207908
40
0.50874162481632
40
0.522794377553568
40
0.543873506659434
40
0.550899883028055
40
0.564952635765299
40
0.579005388502541
40
0.600084517608412
40
0.60711089397703
40
0.621163646714274
40
0.635216399451517
40
0.656295528557384
40
0.663321904926006
40
0.677374657663248
40
0.691427410400492
40
0.712506539506358
40
0.719532915874981
40
0.733585668612224
40
0.747638421349465
40
0.768717550455336
40
0.775743926823955
40
0.789796679561199
40
0.803849432298442
40
0.824928561404309
40
0.831954937772931
40
0.846007690510175
40
0.860060443247417
40
0.881139572353284
40
0.888165948721906
40
0.90221870145915
40
0.916271454196395
40
0.937350583302259
40
0.944376959670881
40
0.958429712408123
40
0.972482465145367
40
0.993561594251232
40
1
40
1
40
1
40
1
41
1
10
68.4139088722634
20
0.003223913942918
30
0
41
1
10
68.4010026610491
20
0.0060572424227132
30
0
41
1
10
68.3242911991936
20
0.0228966233223389
30
0
41
1
10
68.1518733158242
20
0.0607370136502254
30
0
41
1
10
67.9604778073033
20
0.102782558965202
30
0
41
1
10
67.7690787832794
20
0.144750038478349
30
0
41
1
10
67.6095649391243
20
0.179582779642715
30
0
41
1
10
67.3862487008755
20
0.228182514874589
30
0
41
1
10
67.1948533928265
20
0.269720885608507
30
0
41
1
10
67.0034544977229
20
0.311049715126387
30
0
41
1
10
66.8439406870401
20
0.345263677657016
30
0
41
1
10
66.6206243726917
20
0.392846816508211
30
0
41
1
10
66.4292289007705
20
0.433358732303929
30
0
41
1
10
66.237829800841
20
0.473533867197346
30
0
41
1
10
66.0783157945305
20
0.506704328301111
30
0
41
1
10
65.8549991789959
20
0.552683118973021
30
0
41
1
10
65.6636034492965
20
0.591671136586
30
0
41
1
10
65.4722041258377
20
0.630201401976591
30
0
41
1
10
65.3126899666014
20
0.66192410972556
30
0
41
1
10
65.0893732357104
20
0.705740440773808
30
0
41
1
10
64.8979775458207
20
0.742733535504612
30
0
41
1
10
64.7065784136333
20
0.779155030803508
30
0
41
1
10
64.5470645151042
20
0.809049030861444
30
0
41
1
10
64.3237482416028
20
0.850177248772723
30
0
41
1
10
64.1323529412853
20
0.884730785480342
30
0
41
1
10
63.9409540746051
20
0.918603409834105
30
0
41
1
10
63.7814402909373
20
0.946305657637537
30
0
41
1
10
63.5581240092533
20
0.984243749719865
30
0
41
1
10
63.3667285569985
20
1.01593418805498
30
0
41
1
10
63.1753294645581
20
1.04684247576463
30
0
41
1
10
63.0158154620225
20
1.07201324977544
30
0
41
1
10
62.7924988573687
20
1.10629588994973
30
0
41
1
10
62.6011031459378
20
1.13473424405876
30
0
41
1
10
62.4097038525704
20
1.16229831616942
30
0
41
1
10
62.2501897247375
20
1.18462788718889
30
0
41
1
10
62.0268730402624
20
1.21483232905422
30
0
41
1
10
61.8354773853394
20
1.23966671347696
30
0
41
1
10
61.6440782748066
20
1.26354421168921
30
0
41
1
10
61.4845643849316
20
1.28275432718769
30
0
41
1
10
61.2612481102946
20
1.30850449368887
30
0
41
1
10
61.0698527981575
20
1.32942821294705
30
0
41
1
10
60.8784539144206
20
1.34932893803344
30
0
41
1
10
60.7189401225698
20
1.36518970541246
30
0
41
1
10
60.4956238500096
20
1.38618193690823
30
0
41
1
10
60.3042284268743
20
1.40295069834835
30
0
41
1
10
60.1128293817337
20
1.41864136634569
30
0
41
1
10
59.9533154241298
20
1.43096565593129
30
0
41
1
10
59.7299988801176
20
1.44694970621316
30
0
41
1
10
59.5386032124241
20
1.45936048288479
30
0
41
1
10
59.3472039479893
20
1.47064821918363
30
0
41
1
10
59.1876898351781
20
1.47928254183935
30
0
41
1
10
58.9643731624676
20
1.49005527733052
30
0
41
1
10
58.7729775134673
20
1.49794553215895
30
0
41
1
10
58.5815784118719
20
1.50467799873561
30
0
41
1
10
58.4220645424248
20
1.50950260613902
30
0
41
1
10
58.1987483250164
20
1.5149131553139
30
0
41
1
10
58.0073530852047
20
1.51817595704389
30
0
41
1
10
57.8159542860339
20
1.52027139875272
30
0
41
1
10
57.6564405625464
20
1.52123595775268
30
0
41
1
10
57.4331243689359
20
1.52124039407687
30
0
41
1
10
57.2417289924084
20
1.51986018510004
30
0
41
1
10
57.0503299713899
20
1.51731489783131
30
0
41
1
10
56.8908160243055
20
1.5144229747238
30
0
41
1
10
56.6674994853396
20
1.50903722825527
30
0
41
1
10
56.476103813478
20
1.50303857348274
30
0
41
1
10
56.2847045415832
20
1.49588643477907
30
0
41
1
10
56.1251904193792
20
1.48917258389556
30
0
41
1
10
55.9018737160608
20
1.47845547191366
30
0
41
1
10
55.7104780124794
20
1.46789922469773
30
0
41
1
10
55.5190788245674
20
1.45620985563423
30
0
41
1
10
55.3595648327826
20
1.44573794832914
30
0
41
1
10
55.1362483491986
20
1.42979361882914
30
0
41
1
10
54.9475221599171
20
1.41499880879604
30
0
41
1
10
54.8225921965709
20
1.40450901372932
30
0
41
1
10
54.7933609859709
20
1.40201599529359
30
0
0
SPLINE
5
D6
100
AcDbEntity
8
1
62
256
6
ByLayer
370
13
48
1
60
0
100
AcDbSpline
70
4
71
3
72
70
73
66
40
0
40
0
40
0
40
0
40
0.0144839240387939
40
0.0301270363556374
40
0.0535917048309036
40
0.0614132609893262
40
0.0770563733061709
40
0.0926994856230157
40
0.116164154098282
40
0.123985710256705
40
0.139628822573549
40
0.155271934890393
40
0.178736603365661
40
0.186558159524083
40
0.202201271840928
40
0.217844384157772
40
0.241309052633039
40
0.249130608791461
40
0.264773721108306
40
0.28041683342515
40
0.303881501900417
40
0.311703058058839
40
0.327346170375684
40
0.342989282692528
40
0.366453951167795
40
0.374275507326218
40
0.389918619643062
40
0.405561731959907
40
0.429026400435173
40
0.436847956593596
40
0.45249106891044
40
0.468134181227285
40
0.491598849702552
40
0.499420405860974
40
0.515063518177819
40
0.530706630494663
40
0.55417129896993
40
0.561992855128353
40
0.577635967445197
40
0.593279079762041
40
0.616743748237308
40
0.62456530439573
40
0.640208416712575
40
0.65585152902942
40
0.679316197504687
40
0.687137753663109
40
0.702780865979953
40
0.718423978296798
40
0.741888646772065
40
0.749710202930487
40
0.765353315247332
40
0.780996427564176
40
0.804461096039443
40
0.812282652197865
40
0.82792576451471
40
0.843568876831555
40
0.867033545306821
40
0.874855101465243
40
0.890498213782088
40
0.906141326098933
40
0.931561383613805
40
0.937427550732622
40
0.943293717851439
40
0.968713775366311
40
1
40
1
40
1
40
1
41
1
10
24.9117943692239
20
0.0037295302654741
30
0
41
1
10
24.8527200352543
20
0.0167135662495639
30
0
41
1
10
24.7298370572719
20
0.0436879160924661
30
0
41
1
10
24.5112486073221
20
0.0916260366036283
30
0
41
1
10
24.3198529898905
20
0.133609045159204
30
0
41
1
10
24.128453784446
20
0.17548692879069
30
0
41
1
10
23.9689397272432
20
0.210227165147017
30
0
41
1
10
23.7456231339573
20
0.258668287011829
30
0
41
1
10
23.5542275391266
20
0.300042836843374
30
0
41
1
10
23.3628284645464
20
0.341187465715649
30
0
41
1
10
23.203314575673
20
0.375235179107022
30
0
41
1
10
22.9799982489619
20
0.42256304686515
30
0
41
1
10
22.7886028505105
20
0.46283232220864
30
0
41
1
10
22.5972038642637
20
0.502744466161345
30
0
41
1
10
22.4376899751515
20
0.535682527723935
30
0
41
1
10
22.2143735586451
20
0.581312234404919
30
0
41
1
10
22.0229780256177
20
0.619975735135341
30
0
41
1
10
21.8315789044673
20
0.658160196843596
30
0
41
1
10
21.6720649341592
20
0.689581115420537
30
0
41
1
10
21.4487484688741
20
0.732950231735656
30
0
41
1
10
21.25735294342
20
0.769533487586499
30
0
41
1
10
21.0659538515655
20
0.805523168900322
30
0
41
1
10
20.9064398905311
20
0.835043514072424
30
0
41
1
10
20.6831234093687
20
0.87562435688892
30
0
41
1
10
20.4917278701905
20
0.909683674294683
30
0
41
1
10
20.3003287987207
20
0.943042943141619
30
0
41
1
10
20.1408148662337
20
0.970305880950405
30
0
41
1
10
19.9174984129179
20
1.00760785751157
30
0
41
1
10
19.7261028693231
20
1.03873036496679
30
0
41
1
10
19.53470374701
20
1.06905268471658
30
0
41
1
10
19.3751897617219
20
1.09372431828208
30
0
41
1
10
19.1518732636826
20
1.12728797979781
30
0
41
1
10
18.9604777357948
20
1.1550881096519
30
0
41
1
10
18.7690787027963
20
1.18199670258704
30
0
41
1
10
18.609564856163
20
1.20376988777704
30
0
41
1
10
18.3862486192151
20
1.23317798516135
30
0
41
1
10
18.1948533152619
20
1.25731259198829
30
0
41
1
10
18.0034544237169
20
1.28047947194068
30
0
41
1
10
17.8439406147649
20
1.29909195866097
30
0
41
1
10
17.6206243012019
20
1.32399427869385
30
0
41
1
10
17.4292288292435
20
1.34417818890785
30
0
41
1
10
17.2378297297784
20
1.36332892458316
30
0
41
1
10
17.0783157257292
20
1.37855926790135
30
0
41
1
10
16.8549991171388
20
1.39865742340993
30
0
41
1
10
16.6636033960757
20
1.41464619839658
30
0
41
1
10
16.472204082161
20
1.42954643330532
30
0
41
1
10
16.3126899292009
20
1.44120659519103
30
0
41
1
10
16.0893732008622
20
1.45624907673158
30
0
41
1
10
15.8979775056308
20
1.4678386667247
30
0
41
1
10
15.7065783605217
20
1.47829458815872
30
0
41
1
10
15.5470644481777
20
1.48623035638715
30
0
41
1
10
15.3237481546381
20
1.49601732712304
30
0
41
1
10
15.1323528392004
20
1.50305711816824
30
0
41
1
10
14.9409539627647
20
1.50894092999235
30
0
41
1
10
14.7814401750488
20
1.51306198293702
30
0
41
1
10
14.5581238945851
20
1.51749124666617
30
0
41
1
10
14.3667284500604
20
1.51991411292201
30
0
41
1
10
14.1753293698111
20
1.52117039734716
30
0
41
1
10
14.0158153803788
20
1.52143742765233
30
0
41
1
10
13.7845204755993
20
1.52042109686249
30
0
41
1
10
13.5931270846147
20
1.51813614535493
30
0
41
1
10
13.4416134405854
20
1.51543162884937
30
0
41
1
10
13.2900635720588
20
1.51226777102821
30
0
41
1
10
13.0348172625675
20
1.50538634003476
30
0
41
1
10
12.8035723571852
20
1.49683100594822
30
0
41
1
10
12.6759906714502
20
1.49134649585252
30
0
0
SPLINE
5
D7
100
AcDbEntity
8
1
62
256
6
ByLayer
370
18
48
1
60
0
100
AcDbSpline
70
4
71
3
72
26
73
22
40
0
40
0
40
0
40
0
40
0.125
40
0.125
40
0.250000000000001
40
0.250000000000001
40
0.375000000000001
40
0.375000000000001
40
0.500000000000002
40
0.500000000000002
40
0.562500000000001
40
0.562500000000001
40
0.625000000000001
40
0.625000000000001
40
0.75
40
0.75
40
0.8125
40
0.8125
40
0.875
40
0.875
40
1
40
1
40
1
40
1
41
1
10
5.38941840970978
20
-3.40015809620309
30
0
41
1
10
5.31792263340947
20
-3.4087749056321
30
0
41
1
10
5.24938757188636
20
-3.41455420359301
30
0
41
1
10
5.12282359223707
20
-3.41888025143237
30
0
41
1
10
5.06453963278113
20
-3.41748560272126
30
0
41
1
10
4.95991581560085
20
-3.40606660696574
30
0
41
1
10
4.91351090743811
20
-3.39604310534764
30
0
41
1
10
4.8358459505003
20
-3.365106548347
30
0
41
1
10
4.80573255979846
20
-3.34462093064897
30
0
41
1
10
4.77490469614855
20
-3.30555578531801
30
0
41
1
10
4.76702496342745
20
-3.29114132410751
30
0
41
1
10
4.75635575391141
20
-3.25934247870788
30
0
41
1
10
4.7536101651003
20
-3.24193683363697
30
0
41
1
10
4.7533098859455
20
-3.1864591782749
30
0
41
1
10
4.7634948526875
20
-3.14476366539543
30
0
41
1
10
4.79353003813014
20
-3.07550067467289
30
0
41
1
10
4.80608779489069
20
-3.05116182650406
30
0
41
1
10
4.83562353734078
20
-3.00098556837716
30
0
41
1
10
4.85255221469404
20
-2.97519084634774
30
0
41
1
10
4.90923558100815
20
-2.8958800954386
30
0
41
1
10
4.95489804906083
20
-2.84040418289422
30
0
41
1
10
5.00720162118205
20
-2.78283126571893
30
0
0
SPLINE
5
D8
100
AcDbEntity
8
1
62
256
6
ByLayer
370
18
48
1
60
0
100
AcDbSpline
70
4
71
3
72
18
73
14
40
0
40
0
40
0
40
0
40
0.25
40
0.25
40
0.375
40
0.375
40
0.5
40
0.5
40
0.75
40
0.75
40
0.875
40
0.875
40
1
40
1
40
1
40
1
41
1
10
78.6468956469794
20
-3.26105214388647
30
0
41
1
10
78.5875423948368
20
-3.19985939645295
30
0
41
1
10
78.5346488858843
20
-3.12479334279317
30
0
41
1
10
78.4652394823398
20
-2.99086619148025
30
0
41
1
10
78.4437658906221
20
-2.94265252180927
30
0
41
1
10
78.4042892415924
20
-2.83877166842416
30
0
41
1
10
78.3862087622283
20
-2.78277764647879
30
0
41
1
10
78.3382858040878
20
-2.60596677212405
30
0
41
1
10
78.314549934886
20
-2.47636697062421
30
0
41
1
10
78.2912905226096
20
-2.26434240776484
30
0
41
1
10
78.2856050983142
20
-2.19071534999256
30
0
41
1
10
78.2785064058453
20
-2.03736160969154
30
0
41
1
10
78.2771100949229
20
-1.95741158222953
30
0
41
1
10
78.2779260634557
20
-1.87555462149209
30
0
0
SPLINE
5
D9
100
AcDbEntity
8
1
62
256
6
ByLayer
370
13
48
1
60
0
100
AcDbSpline
70
4
71
3
72
32
73
28
40
0
40
0
40
0
40
0
40
0.0673990776115663
40
0.0673990776115663
40
0.101098616417349
40
0.101098616417349
40
0.134798155223132
40
0.134798155223132
40
0.269596310446265
40
0.269596310446265
40
0.404394465669398
40
0.404394465669398
40
0.471793543280965
40
0.471793543280965
40
0.539192620892532
40
0.539192620892532
40
0.673990776115666
40
0.673990776115666
40
0.741389853727233
40
0.741389853727233
40
0.775089392533017
40
0.775089392533017
40
0.808788931338801
40
0.808788931338801
40
0.943587086561941
40
0.943587086561941
40
1
40
1
40
1
40
1
41
1
10
78.6468956469794
20
-3.26105214388647
30
0
41
1
10
78.2666102009243
20
-3.19784645259031
30
0
41
1
10
77.8869474290672
20
-3.12008585672021
30
0
41
1
10
77.3170602112999
20
-2.98288167030404
30
0
41
1
10
77.1270334761542
20
-2.93371865985904
30
0
41
1
10
76.746569211839
20
-2.82876944191295
30
0
41
1
10
76.5559811678614
20
-2.77293338542609
30
0
41
1
10
75.6068615374072
20
-2.47968066930025
30
0
41
1
10
74.8557178758516
20
-2.19892015675569
30
0
41
1
10
73.3540701858336
20
-1.57162101351068
30
0
41
1
10
72.6035079717533
20
-1.2251291009587
30
0
41
1
10
71.4664101809817
20
-0.677273198688539
30
0
41
1
10
71.084426297699
20
-0.48932622375952
30
0
41
1
10
70.3265434259674
20
-0.114006486037567
30
0
41
1
10
69.9494205705738
20
0.0740054338382947
30
0
41
1
10
68.8203482753154
20
0.632770403659578
30
0
41
1
10
68.0710003607252
20
0.998897110458699
30
0
41
1
10
66.9401026417517
20
1.51415271345263
30
0
41
1
10
66.5620756200567
20
1.68050866216635
30
0
41
1
10
65.9918056242766
20
1.91860956385952
30
0
41
1
10
65.800896253793
20
1.99619153067019
30
0
41
1
10
65.4206425741305
20
2.14602220400047
30
0
41
1
10
65.2309836742794
20
2.21833536747013
30
0
41
1
10
64.2844428027874
20
2.56643072034439
30
0
41
1
10
63.5327716839094
20
2.80148004843846
30
0
41
1
10
62.463298243806
20
3.05981492095421
30
0
41
1
10
62.147367183203
20
3.12658551645612
30
0
41
1
10
61.8304753726894
20
3.18357190346521
30
0
0
SPLINE
5
DA
100
AcDbEntity
8
1
62
256
6
ByLayer
370
18
48
1
60
0
100
AcDbSpline
70
4
71
3
72
8
73
4
40
0
40
0
40
0
40
0
40
1
40
1
40
1
40
1
41
1
10
37.478731698998
20
-3.37913464919146
30
0
41
1
10
37.0063396403987
20
-3.3782194707623
30
0
41
1
10
36.5339027480607
20
-3.3537861202351
30
0
41
1
10
36.0595777446544
20
-3.30581024956308
30
0
0
SPLINE
5
DB
100
AcDbEntity
8
1
62
256
6
ByLayer
370
13
48
1
60
0
100
AcDbSpline
70
4
71
3
72
38
73
34
40
0
40
0
40
0
40
0
40
0.0331041597292198
40
0.0331041597292198
40
0.0970140810491571
40
0.0970140810491571
40
0.160924002369094
40
0.160924002369094
40
0.288743845008967
40
0.288743845008967
40
0.320698805668936
40
0.320698805668936
40
0.352653766328905
40
0.352653766328905
40
0.416563687648842
40
0.416563687648842
40
0.544383530288716
40
0.544383530288716
40
0.608293451608652
40
0.608293451608652
40
0.64024841226862
40
0.64024841226862
40
0.672203372928589
40
0.672203372928589
40
0.800023215568461
40
0.800023215568461
40
0.863933136888397
40
0.863933136888397
40
0.895888097548365
40
0.895888097548365
40
0.927843058208332
40
0.927843058208332
40
1
40
1
40
1
40
1
41
1
10
36.0595767500439
20
-3.30581014896262
30
0
41
1
10
35.8631834252336
20
-3.28594582155986
30
0
41
1
10
35.6664664104568
20
-3.26204546444984
30
0
41
1
10
35.0886412536012
20
-3.18017084248686
30
0
41
1
10
34.7053513140099
20
-3.11099572591363
30
0
41
1
10
33.9445529572492
20
-2.94654760794407
30
0
41
1
10
33.5657699179425
20
-2.85107294060887
30
0
41
1
10
32.4311068509126
20
-2.52828073450471
30
0
41
1
10
31.6770043933498
20
-2.26440682967873
30
0
41
1
10
30.7279179610052
20
-1.88843479931634
30
0
41
1
10
30.537777745124
20
-1.81093245010123
30
0
41
1
10
30.156584955117
20
-1.6516662581632
30
0
41
1
10
29.9651846433605
20
-1.56972626147893
30
0
41
1
10
29.3921798009005
20
-1.3191368929576
30
0
41
1
10
29.0120716008574
20
-1.14642441603931
30
0
41
1
10
27.8748507705072
20
-0.616835842179199
30
0
41
1
10
27.1208788168754
20
-0.248338930480372
30
0
41
1
10
25.9843292069396
20
0.302864374786765
30
0
41
1
10
25.6044638095957
20
0.486151614064994
30
0
41
1
10
25.0320379076168
20
0.758054739040972
30
0
41
1
10
24.8404373727299
20
0.848314583698738
30
0
41
1
10
24.4585005266895
20
1.02608948875837
30
0
41
1
10
24.2680167998877
20
1.11366057086158
30
0
41
1
10
23.3173199900146
20
1.54354860928592
30
0
41
1
10
22.5623889135128
20
1.86214387600413
30
0
41
1
10
21.427205440682
20
2.28360389701439
30
0
41
1
10
21.0484316054499
20
2.41474841093486
30
0
41
1
10
20.4779295960763
20
2.59434149848562
30
0
41
1
10
20.2873575232206
20
2.65134459967766
30
0
41
1
10
19.9053532583321
20
2.75963237315139
30
0
41
1
10
19.7136392697441
20
2.810866233648
30
0
41
1
10
19.0914607268931
20
2.96642949178136
30
0
41
1
10
18.6626137675596
20
3.05698971528176
30
0
41
1
10
18.2347369844168
20
3.12935128044234
30
0
0
SPLINE
5
DC
100
AcDbEntity
8
1
62
256
6
ByLayer
370
18
48
1
60
0
100
AcDbSpline
70
4
71
3
72
29
73
25
40
0
40
0
40
0
40
0
40
0.0625000000000001
40
0.0625000000000001
40
0.125
40
0.1875
40
0.1875
40
0.25
40
0.25
40
0.375000000000001
40
0.375000000000001
40
0.437500000000001
40
0.437500000000001
40
0.500000000000001
40
0.500000000000001
40
0.625000000000001
40
0.625000000000001
40
0.687500000000001
40
0.687500000000001
40
0.75
40
0.75
40
0.875
40
0.875
40
1
40
1
40
1
40
1
41
1
10
5.38941840970659
20
3.40015809620351
30
0
41
1
10
5.38936209686773
20
3.38868439624127
30
0
41
1
10
5.38930387952129
20
3.37165763477364
30
0
41
1
10
5.38918880089838
20
3.32728489842722
30
0
41
1
10
5.38907451909807
20
3.27249431982841
30
0
41
1
10
5.3889670094554
20
3.19712988065768
30
0
41
1
10
5.38886498405978
20
3.11131403231914
30
0
41
1
10
5.38881647709175
20
3.06286524798998
30
0
41
1
10
5.38868383774528
20
2.90389684940933
30
0
41
1
10
5.38861264804356
20
2.78019233854059
30
0
41
1
10
5.38853265368721
20
2.56864583299705
30
0
41
1
10
5.38851039319738
20
2.49376806525984
30
0
41
1
10
5.388474080013
20
2.33500686621372
30
0
41
1
10
5.38846021741151
20
2.25182740397298
30
0
41
1
10
5.38842925820165
20
1.99385503900814
30
0
41
1
10
5.38842276737094
20
1.80964175572879
30
0
41
1
10
5.38841929219009
20
1.51481690855343
30
0
41
1
10
5.38841911778709
20
1.41288167322171
30
0
41
1
10
5.38841745517942
20
1.20658331595791
30
0
41
1
10
5.38841595748522
20
1.10198711786614
30
0
41
1
10
5.38840416656563
20
0.783956216654019
30
0
41
1
10
5.38838682274218
20
0.566320410846316
30
0
41
1
10
5.38830091797436
20
0.119360016153451
30
0
41
1
10
5.38823321991171
20
-0.103937750448921
30
0
41
1
10
5.38812657303154
20
-0.326458853243594
30
0
0
SPLINE
5
DD
100
AcDbEntity
8
1
62
256
6
ByLayer
370
18
48
1
60
0
100
AcDbSpline
70
4
71
3
72
10
73
6
40
0
40
0
40
0
40
0
40
0.5
40
0.5
40
1
40
1
40
1
40
1
41
1
10
79.2597924260924
20
1.52130665962204
30
0
41
1
10
79.2301287778608
20
1.64965804687651
30
0
41
1
10
79.2182178047337
20
1.77760719338158
30
0
41
1
10
79.2118734240368
20
2.03310947908415
30
0
41
1
10
79.2177835471595
20
2.16065483455094
30
0
41
1
10
79.2288327718238
20
2.28808374807065
30
0
0
SPLINE
5
DE
100
AcDbEntity
8
1
62
256
6
ByLayer
370
18
48
1
60
0
100
AcDbSpline
70
4
71
3
72
12
73
8
40
0
40
0
40
0
40
0
40
0.5
40
0.5
40
0.75
40
0.75
40
1
40
1
40
1
40
1
41
1
10
5.81560350917414
20
-3.2654669081289
30
0
41
1
10
5.75300890207893
20
-3.27706579924134
30
0
41
1
10
5.68773327242434
20
-3.29165835788555
30
0
41
1
10
5.58091083599354
20
-3.3233201319737
30
0
41
1
10
5.54425880986955
20
-3.33542801805373
30
0
41
1
10
5.4683963644452
20
-3.3641394534076
30
0
41
1
10
5.42866845856341
20
-3.38102520575208
30
0
41
1
10
5.38941840970685
20
-3.40015809620343
30
0
0
SPLINE
5
DF
100
AcDbEntity
8
1
62
256
6
ByLayer
370
18
48
1
60
0
100
AcDbSpline
70
4
71
1
72
4
73
2
40
0
40
0
40
1
40
1
41
1
10
79.4147273659923
20
-0.962900017839559
30
0
41
1
10
79.4209962029508
20
-0.941736778941731
30
0
0
SPLINE
5
E0
100
AcDbEntity
8
1
62
256
6
ByLayer
370
18
48
1
60
0
100
AcDbSpline
70
4
71
3
72
8
73
4
40
0
40
0
40
0
40
0
40
1
40
1
40
1
40
1
41
1
10
79.9997798385232
20
0.0745795808426806
30
0
41
1
10
80.0000733871376
20
0.024859860280884
30
0
41
1
10
80.0000733871377
20
-0.0248598602809409
30
0
41
1
10
79.9997798385232
20
-0.0745795808427658
30
0
0
SPLINE
5
E1
100
AcDbEntity
8
1
62
256
6
ByLayer
370
18
48
1
60
0
100
AcDbSpline
70
4
71
1
72
4
73
2
40
0
40
0
40
1
40
1
41
1
10
78.695595538452
20
-3.39064838108087
30
0
41
1
10
79.4147273660013
20
-0.962900017842202
30
0
0
SPLINE
5
E2
100
AcDbEntity
8
1
62
256
6
ByLayer
370
18
48
1
60
0
100
AcDbSpline
70
4
71
3
72
12
73
8
40
0
40
0
40
0
40
0
40
0.322847158676646
40
0.322847158676646
40
0.736753378346435
40
0.736753378346435
40
1
40
1
40
1
40
1
41
1
10
59.2367536297499
20
-3.4183939324198
30
0
41
1
10
59.0883655131035
20
-3.418271912151
30
0
41
1
10
58.9399187392123
20
-3.41582225618686
30
0
41
1
10
58.600854283599
20
-3.4048375521877
30
0
41
1
10
58.4098982002682
20
-3.3947705889363
30
0
41
1
10
58.0984488564696
20
-3.37202811051063
30
0
41
1
10
57.9775691225597
20
-3.36163426472822
30
0
41
1
10
57.8568543026534
20
-3.34971969313335
30
0
0
SPLINE
5
E3
100
AcDbEntity
8
1
62
256
6
ByLayer
370
13
48
1
60
0
100
AcDbSpline
70
4
71
3
72
34
73
30
40
0
40
0
40
0
40
0
40
0.106752644616334
40
0.106752644616334
40
0.233688219320842
40
0.233688219320842
40
0.26542211299697
40
0.26542211299697
40
0.297156006673098
40
0.297156006673098
40
0.360623794025357
40
0.360623794025357
40
0.487559368729872
40
0.487559368729872
40
0.55102715608213
40
0.55102715608213
40
0.614494943434387
40
0.614494943434387
40
0.741430518138903
40
0.741430518138903
40
0.804898305491161
40
0.804898305491161
40
0.86836609284342
40
0.86836609284342
40
0.931833880195678
40
0.931833880195678
40
0.995301667547937
40
0.995301667547937
40
1
40
1
40
1
40
1
41
1
10
57.8568543029784
20
-3.34971969316544
30
0
41
1
10
57.2183629540243
20
-3.28670049722933
30
0
41
1
10
56.584485273589
20
-3.18113715918585
30
0
41
1
10
55.1963385350101
20
-2.86724256394606
30
0
41
1
10
54.4422976302809
20
-2.64231441292253
30
0
41
1
10
53.4895249696442
20
-2.30418452520695
30
0
41
1
10
53.2985352005573
20
-2.23374032518257
30
0
41
1
10
52.918158313235
20
-2.08860622596964
30
0
41
1
10
52.7284188132742
20
-2.01379217532988
30
0
41
1
10
52.1602000288907
20
-1.78319635876977
30
0
41
1
10
51.7827018438105
20
-1.62120454045507
30
0
41
1
10
50.6510184047813
20
-1.11700729890424
30
0
41
1
10
49.8979099071844
20
-0.755848394226263
30
0
41
1
10
48.7583642407424
20
-0.199573126589769
30
0
41
1
10
48.3756857015592
20
-0.0110213561678734
30
0
41
1
10
47.6153890021979
20
0.36181534685727
30
0
41
1
10
47.2369359097257
20
0.546366033518495
30
0
41
1
10
46.1035759089701
20
1.08901761349699
30
0
41
1
10
45.3508548369629
20
1.43622284288904
30
0
41
1
10
44.2144654229574
20
1.91198691078912
30
0
41
1
10
43.8341254783023
20
2.06290944885035
30
0
41
1
10
43.0701041078451
20
2.34634338249668
30
0
41
1
10
42.6887190473036
20
2.47787628207394
30
0
41
1
10
41.9250162320896
20
2.71698189261062
30
0
41
1
10
41.5429165059965
20
2.82438609649864
30
0
41
1
10
40.7801167860648
20
3.01235222295571
30
0
41
1
10
40.3987389731231
20
3.09275886249264
30
0
41
1
10
39.9883183932653
20
3.164007555252
30
0
41
1
10
39.9600400631758
20
3.16883856292608
30
0
41
1
10
39.9317713346918
20
3.17358945792381
30
0
0
SPLINE
5
E4
100
AcDbEntity
8
1
62
256
6
ByLayer
370
18
48
1
60
0
100
AcDbSpline
70
4
71
3
72
12
73
8
40
0
40
0
40
0
40
0
40
0.559240239982048
40
0.559240239982048
40
0.965096488381866
40
0.965096488381866
40
1
40
1
40
1
40
1
41
1
10
15.7549650841116
20
-3.34045120463318
30
0
41
1
10
15.4930359965008
20
-3.34037436425714
30
0
41
1
10
15.2304774723639
20
-3.33309509878407
30
0
41
1
10
14.7757342245084
20
-3.30779219899057
30
0
41
1
10
14.5839646100632
20
-3.29332482539485
30
0
41
1
10
14.3762105028701
20
-3.27363648711614
30
0
41
1
10
14.3597599445221
20
-3.27205001098542
30
0
41
1
10
14.3433106725023
20
-3.27043619642674
30
0
0
SPLINE
5
E5
100
AcDbEntity
8
1
62
256
6
ByLayer
370
13
48
1
60
0
100
AcDbSpline
70
4
71
3
72
24
73
20
40
0
40
0
40
0
40
0
40
0.0612847184218832
40
0.0612847184218832
40
0.195386901504473
40
0.195386901504473
40
0.262437993045767
40
0.262437993045767
40
0.329489084587061
40
0.329489084587061
40
0.463591267669649
40
0.463591267669649
40
0.731795633834824
40
0.731795633834824
40
0.798846725376118
40
0.798846725376118
40
0.865897816917412
40
0.865897816917412
40
1
40
1
40
1
40
1
41
1
10
14.3433106723231
20
-3.27043619640924
30
0
41
1
10
14.1684886504453
20
-3.25328465780143
30
0
41
1
10
13.9938119235844
20
-3.23304515362
30
0
41
1
10
13.4370543687742
20
-3.15878593138763
30
0
41
1
10
13.0551677061412
20
-3.09311953422588
30
0
41
1
10
12.4811818908812
20
-2.97371328455529
30
0
41
1
10
12.2894159357792
20
-2.93037508153961
30
0
41
1
10
11.9067298806265
20
-2.83732130772421
30
0
41
1
10
11.7158729465299
20
-2.78763704650871
30
0
41
1
10
11.1443869749972
20
-2.62961915269705
30
0
41
1
10
10.7648496183775
20
-2.51223365904781
30
0
41
1
10
9.62780422993328
20
-2.12849819943014
30
0
41
1
10
8.87190892475741
20
-1.83105047139222
30
0
41
1
10
7.91994184473123
20
-1.4222384092123
30
0
41
1
10
7.72922284508815
20
-1.33861937026793
30
0
41
1
10
7.34687702273274
20
-1.16812296447091
30
0
41
1
10
7.15500941191644
20
-1.08114653597153
30
0
41
1
10
6.58042861076027
20
-0.81739611597726
30
0
41
1
10
6.19816470988013
20
-0.63747752894534
30
0
41
1
10
5.8156718579263
20
-0.455543304821447
30
0
0
SPLINE
5
E6
100
AcDbEntity
8
1
62
256
6
ByLayer
370
18
48
1
60
0
100
AcDbSpline
70
4
71
3
72
8
73
4
40
0
40
0
40
0
40
0
40
1
40
1
40
1
40
1
41
1
10
8.46149970056854
20
2.45712125521965
30
0
41
1
10
8.65561327984477
20
2.49876754947439
30
0
41
1
10
8.84500079203329
20
2.54778973421549
30
0
41
1
10
9.02959646302796
20
2.60278987350623
30
0
0
SPLINE
5
E7
100
AcDbEntity
8
1
62
256
6
ByLayer
370
13
48
1
60
0
100
AcDbSpline
70
4
71
3
72
78
73
74
40
0
40
0
40
0
40
0
40
0.0189101931434612
40
0.0259884681066218
40
0.0401450180329442
40
0.0543015679592661
40
0.0755363928487497
40
0.0826146678119103
40
0.0967712177382327
40
0.110927767664555
40
0.132162592554038
40
0.139240867517199
40
0.153397417443521
40
0.167553967369843
40
0.188788792259326
40
0.195867067222487
40
0.210023617148809
40
0.224180167075131
40
0.245414991964614
40
0.252493266927776
40
0.266649816854098
40
0.28080636678042
40
0.302041191669903
40
0.309119466633064
40
0.323276016559386
40
0.337432566485708
40
0.358667391375191
40
0.365745666338352
40
0.379902216264675
40
0.394058766190996
40
0.415293591080479
40
0.422371866043641
40
0.436528415969963
40
0.450684965896285
40
0.471919790785768
40
0.478998065748929
40
0.493154615675251
40
0.507311165601573
40
0.528545990491056
40
0.535624265454217
40
0.549780815380539
40
0.563937365306862
40
0.585172190196345
40
0.592250465159506
40
0.606407015085828
40
0.62056356501215
40
0.641798389901633
40
0.648876664864794
40
0.663033214791116
40
0.677189764717438
40
0.698424589606921
40
0.705502864570082
40
0.719659414496405
40
0.733815964422727
40
0.75505078931221
40
0.762129064275371
40
0.776285614201693
40
0.790442164128015
40
0.811676989017498
40
0.818755263980659
40
0.832911813906977
40
0.847068363833304
40
0.868303188722787
40
0.875381463685948
40
0.88953801361227
40
0.90369456353859
40
0.924929388428079
40
0.932007663391236
40
0.946164213317558
40
0.960320763243879
40
0.981555588133364
40
0.988633863096524
40
1
40
1
40
1
40
1
41
1
10
71.5989703391514
20
-1.40864211080606
30
0
41
1
10
71.5137433030183
20
-1.41573949334247
30
0
41
1
10
71.3966096567992
20
-1.42506194132068
30
0
41
1
10
71.2156734908856
20
-1.43852167822527
30
0
41
1
10
71.0561769775771
20
-1.44966665494749
30
0
41
1
10
70.8328787345816
20
-1.46396205364908
30
0
41
1
10
70.6414616185307
20
-1.4748571003565
30
0
41
1
10
70.4500480953385
20
-1.48463427263417
30
0
41
1
10
70.2905515780667
20
-1.49203314355134
30
0
41
1
10
70.0672534182305
20
-1.50105162707538
30
0
41
1
10
69.8758364306699
20
-1.50740187237233
30
0
41
1
10
69.6844230359226
20
-1.51261120037071
30
0
41
1
10
69.5249265989776
20
-1.51618147076482
30
0
41
1
10
69.3016284979591
20
-1.51981925028301
30
0
41
1
10
69.1102115205625
20
-1.52154941854261
30
0
41
1
10
68.9187981191739
20
-1.52212922728708
30
0
41
1
10
68.7593016912904
20
-1.52182918056846
30
0
41
1
10
68.5360036244277
20
-1.52004347005331
30
0
41
1
10
68.3445866656299
20
-1.51713114647225
30
0
41
1
10
68.1531732362787
20
-1.5130689705725
30
0
41
1
10
67.9936767628869
20
-1.50889481296079
30
0
41
1
10
67.7703786290297
20
-1.50169451797623
30
0
41
1
10
67.5789616319193
20
-1.49416488252427
30
0
41
1
10
67.3875482112287
20
-1.48550445714957
30
0
41
1
10
67.2280517635671
20
-1.47750590799296
30
0
41
1
10
67.0047536576554
20
-1.46498113086011
30
0
41
1
10
66.8133366519459
20
-1.4529291564414
30
0
41
1
10
66.6219231664721
20
-1.43977652741447
30
0
41
1
10
66.4624266055737
20
-1.42804902443834
30
0
41
1
10
66.2391282725853
20
-1.41034783019703
30
0
41
1
10
66.047711066252
20
-1.39391771770542
30
0
41
1
10
65.8562974517431
20
-1.37643519973526
30
0
41
1
10
65.6968008573274
20
-1.36112708389399
30
0
41
1
10
65.4735026004636
20
-1.33847723681237
30
0
41
1
10
65.2820855580932
20
-1.31788159906856
30
0
41
1
10
65.0906721485283
20
-1.2962930295152
30
0
41
1
10
64.931175749858
20
-1.27759816185821
30
0
41
1
10
64.7078777943663
20
-1.2502829436319
30
0
41
1
10
64.5164610099293
20
-1.22577598956437
30
0
41
1
10
64.3250478240155
20
-1.20034550368806
30
0
41
1
10
64.1655515783409
20
-1.17849126481468
30
0
41
1
10
63.9422537382302
20
-1.14684066456488
30
0
41
1
10
63.7508369139183
20
-1.11871635975947
30
0
41
1
10
63.559423536588
20
-1.08974766799074
30
0
41
1
10
63.3999270300367
20
-1.06499433763025
30
0
41
1
10
63.1766287322619
20
-1.02938526617683
30
0
41
1
10
62.9852115181544
20
-0.997979850922974
30
0
41
1
10
62.7937978751665
20
-0.965822010419089
30
0
41
1
10
62.6343012536894
20
-0.938469870849559
30
0
41
1
10
62.4110029641047
20
-0.899337020315159
30
0
41
1
10
62.2195859020266
20
-0.86503569895757
30
0
41
1
10
62.0281724849369
20
-0.830083355422204
30
0
41
1
10
61.8686760824582
20
-0.800467942210105
30
0
41
1
10
61.6453781160322
20
-0.758291317882112
30
0
41
1
10
61.4539613132847
20
-0.721514999965166
30
0
41
1
10
61.2625480972521
20
-0.684197432782128
30
0
41
1
10
61.1030518201652
20
-0.652682767042563
30
0
41
1
10
60.8797539336467
20
-0.607981532456733
30
0
41
1
10
60.6883370743858
20
-0.569183909164593
30
0
41
1
10
60.4969236754147
20
-0.529962514137594
30
0
41
1
10
60.3374271602144
20
-0.496938916547776
30
0
41
1
10
60.1141288635761
20
-0.450266038036006
30
0
41
1
10
59.9227116612895
20
-0.409924269366286
30
0
41
1
10
59.7312980353695
20
-0.369276718644585
30
0
41
1
10
59.571801422083
20
-0.335142948312921
30
0
41
1
10
59.3485031233745
20
-0.287057939017444
30
0
41
1
10
59.1570860321698
20
-0.245653778939953
30
0
41
1
10
58.9656725677709
20
-0.204066986374869
30
0
41
1
10
58.8061761203592
20
-0.169233508109443
30
0
41
1
10
58.5828780933023
20
-0.120317671222693
30
0
41
1
10
58.3914612468306
20
-0.078355099426858
30
0
41
1
10
58.2126245598202
20
-0.0390988985868717
30
0
41
1
10
58.1295011700961
20
-0.0208100453195641
30
0
41
1
10
58.078277697531
20
-0.0095370875878018
30
0
0
SPLINE
5
E8
100
AcDbEntity
8
1
62
256
6
ByLayer
370
13
48
1
60
0
100
AcDbSpline
70
4
71
3
72
79
73
75
40
0
40
0
40
0
40
0
40
0.0119084046521589
40
0.0330216374442249
40
0.0400593817082475
40
0.0541348702362921
40
0.0682103587643372
40
0.0893235915564043
40
0.0963613358204268
40
0.110436824348471
40
0.124512312876517
40
0.145625545668584
40
0.152663289932606
40
0.166738778460651
40
0.180814266988696
40
0.201927499780763
40
0.208965244044786
40
0.22304073257283
40
0.237116221100875
40
0.258229453892942
40
0.265267198156965
40
0.279342686685009
40
0.293418175213054
40
0.314531408005121
40
0.321569152269144
40
0.335644640797189
40
0.349720129325233
40
0.3708333621173
40
0.377871106381323
40
0.391946594909368
40
0.406022083437413
40
0.42713531622948
40
0.434173060493502
40
0.448248549021547
40
0.462324037549591
40
0.483437270341659
40
0.490475014605681
40
0.504550503133726
40
0.518625991661771
40
0.539739224453838
40
0.54677696871786
40
0.560852457245905
40
0.57492794577395
40
0.596041178566017
40
0.60307892283004
40
0.617154411358085
40
0.631229899886129
40
0.652343132678197
40
0.659380876942219
40
0.673456365470264
40
0.687531853998309
40
0.708645086790376
40
0.715682831054398
40
0.729758319582443
40
0.743833808110488
40
0.764947040902555
40
0.771984785166578
40
0.786060273694622
40
0.800135762222667
40
0.821248995014734
40
0.828286739278757
40
0.842362227806802
40
0.856437716334846
40
0.877550949126914
40
0.884588693390936
40
0.898664181918981
40
0.912739670447026
40
0.933852903239093
40
0.940890647503115
40
0.95496613603116
40
0.969041624559205
40
0.990154857351272
40
0.997192601615295
40
1
40
1
40
1
40
1
41
1
10
28.151708689959
20
-1.4042184731087
30
0
41
1
10
28.0977320971576
20
-1.40879003401585
30
0
41
1
10
27.9480551610702
20
-1.42110975530542
30
0
41
1
10
27.7664616927398
20
-1.43487676262961
30
0
41
1
10
27.5750481723803
20
-1.44830132930326
30
0
41
1
10
27.4155516451903
20
-1.45876519505737
30
0
41
1
10
27.1922534519716
20
-1.47210485757546
30
0
41
1
10
27.0008364163438
20
-1.48217916744429
30
0
41
1
10
26.8094229573101
20
-1.49113135694301
30
0
41
1
10
26.6499264835439
20
-1.49783823026965
30
0
41
1
10
26.4266283793888
20
-1.50588316826725
30
0
41
1
10
26.2352114357734
20
-1.51139633166983
30
0
41
1
10
26.0437980837244
20
-1.51576569589847
30
0
41
1
10
25.8843017042783
20
-1.51863291359348
30
0
41
1
10
25.661003709005
20
-1.52128256992285
30
0
41
1
10
25.4695868046513
20
-1.52216224582267
30
0
41
1
10
25.2781734136384
20
-1.52188595160342
30
0
41
1
10
25.1186769341289
20
-1.52086738571765
30
0
41
1
10
24.8953787201165
20
-1.51807231586199
30
0
41
1
10
24.7039616093478
20
-1.51429628683158
30
0
41
1
10
24.512548072723
20
-1.50937454042233
30
0
41
1
10
24.3530515314647
20
-1.50448639679024
30
0
41
1
10
24.1297533241837
20
-1.49629373278177
30
0
41
1
10
23.9383362922235
20
-1.48792297715238
30
0
41
1
10
23.7469228616768
20
-1.47842826567714
30
0
41
1
10
23.5874264203613
20
-1.46973786287822
30
0
41
1
10
23.3641283661583
20
-1.45625422257172
30
0
41
1
10
23.1727114693597
20
-1.44339319256466
30
0
41
1
10
22.9812981653408
20
-1.4294421690067
30
0
41
1
10
22.8218018175586
20
-1.41705551508761
30
0
41
1
10
22.5985038397458
20
-1.39844346717791
30
0
41
1
10
22.4070869203081
20
-1.38124471108645
30
0
41
1
10
22.2156734853254
20
-1.36300027947698
30
0
41
1
10
22.0561769691084
20
-1.34706041859195
30
0
41
1
10
21.8328787245816
20
-1.32353484170207
30
0
41
1
10
21.6414616086819
20
-1.3021998106756
30
0
41
1
10
21.4500480853515
20
-1.27988147302094
30
0
41
1
10
21.2905515693983
20
-1.26058435925114
30
0
41
1
10
21.0672534147441
20
-1.2324394411132
30
0
41
1
10
20.8758364335215
20
-1.20723739228021
30
0
41
1
10
20.6844230452107
20
-1.18112549141571
30
0
41
1
10
20.5249266105311
20
-1.15871202935909
30
0
41
1
10
20.3016285047064
20
-1.12629661756898
30
0
41
1
10
20.1102115158989
20
-1.09753750048904
30
0
41
1
10
19.9187980982377
20
-1.06795148278337
30
0
41
1
10
19.7593016542417
20
-1.04269491328557
30
0
41
1
10
19.5360035642507
20
-1.00640270868516
30
0
41
1
10
19.344586589123
20
-0.974434533989779
30
0
41
1
10
19.1531731510019
20
-0.941731739726407
30
0
41
1
10
18.9936766783906
20
-0.913936772664357
30
0
41
1
10
18.7703785604912
20
-0.874205979841577
30
0
41
1
10
18.5789615897837
20
-0.839416170593239
30
0
41
1
10
18.3875482025861
20
-0.803995337167947
30
0
41
1
10
18.2280517828706
20
-0.774002590959697
30
0
41
1
10
18.0047537098224
20
-0.731322604492732
30
0
41
1
10
17.8133367234849
20
-0.694141671186486
30
0
41
1
10
17.6219232469867
20
-0.65644185620269
30
0
41
1
10
17.4624266885679
20
-0.624623384297365
30
0
41
1
10
17.2391283542821
20
-0.579522600797844
30
0
41
1
10
17.0477111438547
20
-0.540408073902398
30
0
41
1
10
16.8562975257851
20
-0.500888940834898
30
0
41
1
10
16.6968009296339
20
-0.467629659997584
30
0
41
1
10
16.4735026719759
20
-0.420650051267387
30
0
41
1
10
16.2820856296352
20
-0.380070228552086
30
0
41
1
10
16.0906722196024
20
-0.339206108774647
30
0
41
1
10
15.9311758186695
20
-0.304906496564087
30
0
41
1
10
15.7078778562324
20
-0.256616255724367
30
0
41
1
10
15.5164610631583
20
-0.215064765955731
30
0
41
1
10
15.3250478676988
20
-0.17335522791339
30
0
41
1
10
15.165551615748
20
-0.138436185334029
30
0
41
1
10
14.9422537730896
20
-0.0894310302334134
30
0
41
1
10
14.7508369541268
20
-0.0474240197268614
30
0
41
1
10
14.6105020547341
20
-0.0166069197184981
30
0
41
1
10
14.5658757480694
20
-0.0067973057873871
30
0
41
1
10
14.5531504238275
20
-0.0039994664284393
30
0
0
SPLINE
5
E9
100
AcDbEntity
8
1
62
256
6
ByLayer
370
13
48
1
60
0
100
AcDbSpline
70
4
71
3
72
10
73
6
40
0
40
0
40
0
40
0
40
0.5
40
0.5
40
1
40
1
40
1
40
1
41
1
10
5.81567185792636
20
-0.455543304821447
30
0
41
1
10
5.74189139217134
20
-0.430976101842646
30
0
41
1
10
5.66922751549052
20
-0.408231315598755
30
0
41
1
10
5.52638587239511
20
-0.365394335591788
30
0
41
1
10
5.45569475591498
20
-0.345167393500077
30
0
41
1
10
5.38812657303112
20
-0.326458853243594
30
0
0
SPLINE
5
EA
100
AcDbEntity
8
1
62
256
6
ByLayer
370
18
48
1
60
0
100
AcDbSpline
70
4
71
3
72
8
73
4
40
0
40
0
40
0
40
0
40
1
40
1
40
1
40
1
41
1
10
78.383330795341
20
0.525040141281465
30
0
41
1
10
78.5006196443227
20
0.462094088811455
30
0
41
1
10
78.6185569958507
20
0.402172066180611
30
0
41
1
10
78.7371919401201
20
0.345502985696726
30
0
0
SPLINE
5
EB
100
AcDbEntity
8
1
62
256
6
ByLayer
370
13
48
1
60
0
100
AcDbSpline
70
4
71
3
72
32
73
28
40
0
40
0
40
0
40
0
40
0.0625
40
0.0625
40
0.125
40
0.125
40
0.25
40
0.25
40
0.3125
40
0.3125
40
0.375
40
0.375
40
0.5
40
0.5
40
0.5625
40
0.5625
40
0.625
40
0.625
40
0.75
40
0.75
40
0.8125
40
0.8125
40
0.875
40
0.875
40
0.9375
40
0.9375
40
1
40
1
40
1
40
1
41
1
10
5.81567185792636
20
-0.455543304821475
30
0
41
1
10
5.81566573393496
20
-0.350398546086012
30
0
41
1
10
5.81565931093917
20
-0.244926315096365
30
0
41
1
10
5.81564622803597
20
-0.0333318046734803
30
0
41
1
10
5.81563954651119
20
0.0731355237946332
30
0
41
1
10
5.81561991847872
20
0.389048636323622
30
0
41
1
10
5.81560734146888
20
0.596106901596727
30
0
41
1
10
5.81559077163539
20
0.901459370879707
30
0
41
1
10
5.81558562601253
20
1.00236525043874
30
0
41
1
10
5.8155762992501
20
1.20236304865082
30
0
41
1
10
5.81557217262286
20
1.30035611792803
30
0
41
1
10
5.81556162827599
20
1.58621606835817
30
0
41
1
10
5.81555701503157
20
1.76703492552176
30
0
41
1
10
5.81555384494635
20
2.02352925336049
30
0
41
1
10
5.81555341243998
20
2.1069760921315
30
0
41
1
10
5.81555374157108
20
2.26602846491122
30
0
41
1
10
5.81555449386832
20
2.34173956340334
30
0
41
1
10
5.81555824988018
20
2.55770989240477
30
0
41
1
10
5.81556277144389
20
2.68690691291894
30
0
41
1
10
5.81557125647805
20
2.85782338297963
30
0
41
1
10
5.81557435210254
20
2.91066044503612
30
0
41
1
10
5.81558068697515
20
3.00673551077358
30
0
41
1
10
5.81558393766787
20
3.05020499449338
30
0
41
1
10
5.81559027246416
20
3.12801195942183
30
0
41
1
10
5.81559336673848
20
3.16244949405507
30
0
41
1
10
5.81559897894917
20
3.2214796451961
30
0
41
1
10
5.8156014801167
20
3.24593030808734
30
0
41
1
10
5.81560350917417
20
3.2654669081289
30
0
0
SPLINE
5
EC
100
AcDbEntity
8
1
62
256
6
ByLayer
370
18
48
1
60
0
100
AcDbSpline
70
4
71
3
72
18
73
14
40
0
40
0
40
0
40
0
40
0.249999999999999
40
0.249999999999999
40
0.374999999999999
40
0.374999999999999
40
0.5
40
0.5
40
0.75
40
0.75
40
0.875
40
0.875
40
1
40
1
40
1
40
1
41
1
10
78.383330795341
20
0.525040141281437
30
0
41
1
10
78.3362151396552
20
0.320878457909572
30
0
41
1
10
78.2981627336418
20
0.115050268326399
30
0
41
1
10
78.2548878399071
20
-0.196230175990394
30
0
41
1
10
78.2427767810352
20
-0.30041579380844
30
0
41
1
10
78.2233952097644
20
-0.509677085556319
30
0
41
1
10
78.2161992779162
20
-0.614280098369449
30
0
41
1
10
78.2024057372424
20
-0.922306162174721
30
0
41
1
10
78.2033177830102
20
-1.12220207842523
30
0
41
1
10
78.2199288594381
20
-1.41381983547933
30
0
41
1
10
78.2280780293473
20
-1.51002905212675
30
0
41
1
10
78.2493251247614
20
-1.69674017396622
30
0
41
1
10
78.2624112101836
20
-1.78745142257333
30
0
41
1
10
78.2779260634524
20
-1.87555462149203
30
0
0
SPLINE
5
ED
100
AcDbEntity
8
1
62
256
6
ByLayer
370
13
48
1
60
0
100
AcDbSpline
70
4
71
3
72
79
73
75
40
0
40
0
40
0
40
0
40
0.0044258996691141
40
0.0185304626220178
40
0.0326350255749188
40
0.0537918700042744
40
0.0608441514807279
40
0.0749487144336311
40
0.0890532773865348
40
0.110210121815888
40
0.117262403292342
40
0.131366966245245
40
0.145471529198149
40
0.166628373627505
40
0.173680655103956
40
0.187785218056859
40
0.201889781009764
40
0.223046625439117
40
0.230098906915569
40
0.244203469868474
40
0.258308032821377
40
0.279464877250731
40
0.286517158727184
40
0.300621721680087
40
0.31472628463299
40
0.335883129062346
40
0.342935410538797
40
0.3570399734917
40
0.371144536444604
40
0.392301380873961
40
0.399353662350411
40
0.413458225303315
40
0.427562788256218
40
0.448719632685574
40
0.455771914162025
40
0.469876477114929
40
0.483981040067831
40
0.505137884497188
40
0.512190165973639
40
0.526294728926543
40
0.540399291879445
40
0.561556136308801
40
0.568608417785253
40
0.582712980738156
40
0.596817543691059
40
0.617974388120415
40
0.625026669596866
40
0.639131232549769
40
0.653235795502673
40
0.674392639932029
40
0.68144492140848
40
0.695549484361384
40
0.709654047314288
40
0.730810891743643
40
0.737863173220095
40
0.751967736172998
40
0.766072299125901
40
0.787229143555255
40
0.794281425031708
40
0.808385987984612
40
0.822490550937515
40
0.84364739536687
40
0.850699676843322
40
0.864804239796225
40
0.878908802749129
40
0.900065647178484
40
0.907117928654936
40
0.921222491607839
40
0.935327054560743
40
0.956483898990098
40
0.96353618046655
40
0.977640743419453
40
0.991745306372357
40
1
40
1
40
1
40
1
41
1
10
49.870139779194
20
-1.40690030187321
30
0
41
1
10
49.8501184957068
20
-1.4085815817653
30
0
41
1
10
49.7662936593738
20
-1.41554596706405
30
0
41
1
10
49.618676987743
20
-1.42723923085887
30
0
41
1
10
49.3953787701002
20
-1.44363951738291
30
0
41
1
10
49.2039616492138
20
-1.45635406598498
30
0
41
1
10
49.0125480976268
20
-1.46796482730514
30
0
41
1
10
48.8530515429474
20
-1.47690367781254
30
0
41
1
10
48.6297533180178
20
-1.48809208896114
30
0
41
1
10
48.4383362728743
20
-1.49631145444491
30
0
41
1
10
48.2469228318365
20
-1.50339883540144
30
0
41
1
10
48.0874263843019
20
-1.50854264439195
30
0
41
1
10
47.8641283256339
20
-1.51439065045452
30
0
41
1
10
47.6727114283039
20
-1.5180170957519
30
0
41
1
10
47.481298125019
20
-1.52049538648743
30
0
41
1
10
47.321801778225
20
-1.52178125831969
30
0
41
1
10
47.0985038026803
20
-1.52221478714168
30
0
41
1
10
46.9070868864802
20
-1.52119785713739
30
0
41
1
10
46.7156734562199
20
-1.5190261130704
30
0
41
1
10
46.5561769443772
20
-1.51642633944084
30
0
41
1
10
46.3328787063702
20
-1.51142185636843
30
0
41
1
10
46.1414615967625
20
-1.50576147206337
30
0
41
1
10
45.950048080588
20
-1.49896183756277
30
0
41
1
10
45.7905515702657
20
-1.4925107591616
30
0
41
1
10
45.5672534220397
20
-1.48214057157045
30
0
41
1
10
45.3758364450379
20
-1.4719191832948
30
0
41
1
10
45.184423059944
20
-1.46058575451116
30
0
41
1
10
45.0249266287315
20
-1.45036884859854
30
0
41
1
10
44.8016285302755
20
-1.43476530767026
30
0
41
1
10
44.6102115498322
20
-1.42010983143771
30
0
41
1
10
44.4187981416614
20
-1.40438221604302
30
0
41
1
10
44.259301706055
20
-1.39052500457896
30
0
41
1
10
44.0360036265603
20
-1.36987852796361
30
0
41
1
10
43.8445866569584
20
-1.35096575003888
30
0
41
1
10
43.6531732191353
20
-1.33103121023126
30
0
41
1
10
43.4936767416374
20
-1.31369707525619
30
0
41
1
10
43.2703786077606
20
-1.28825037116553
30
0
41
1
10
43.0789616157434
20
-1.26530418499161
30
0
41
1
10
42.887548203355
20
-1.24140271958169
30
0
41
1
10
42.7280517625536
20
-1.22080331361883
30
0
41
1
10
42.5047536636011
20
-1.19087051205074
30
0
41
1
10
42.3133366606502
20
-1.16417570796153
30
0
41
1
10
42.1219231744806
20
-1.13660273249536
30
0
41
1
10
41.9624266119516
20
-1.11299141255444
30
0
41
1
10
41.7391282768139
20
-1.07893914218229
30
0
41
1
10
41.547711069392
20
-1.04882188414109
30
0
41
1
10
41.3562974553453
20
-1.017914587348
30
0
41
1
10
41.1968008625846
20
-0.991580479671796
30
0
41
1
10
40.9735026095595
20
-0.953826132153438
30
0
41
1
10
40.7820855710804
20
-0.920655682578229
30
0
41
1
10
40.5906721647345
20
-0.886792695922338
30
0
41
1
10
40.4311757673259
20
-0.858058124706673
30
0
41
1
10
40.207877810493
20
-0.817063476368077
30
0
41
1
10
40.0164610220243
20
-0.781245404626361
30
0
41
1
10
39.8250478300915
20
-0.744840896943174
30
0
41
1
10
39.665551579142
20
-0.714057431923209
30
0
41
1
10
39.4422537322877
20
-0.67032449828838
30
0
41
1
10
39.2508369029295
20
-0.632298129144658
30
0
41
1
10
39.0594235213335
20
-0.593799442902366
30
0
41
1
10
38.8999270118436
20
-0.561345920156072
30
0
41
1
10
38.676628710733
20
-0.5154124833727
30
0
41
1
10
38.4852114940939
20
-0.475643409539373
30
0
41
1
10
38.2937978482204
20
-0.435518421822792
30
0
41
1
10
38.1343012241667
20
-0.401786694379041
30
0
41
1
10
37.9110029317596
20
-0.35420445663047
30
0
41
1
10
37.7195858690552
20
-0.31316919846131
30
0
41
1
10
37.5281724538378
20
-0.271900168511337
30
0
41
1
10
37.36867605581
20
-0.237297071383693
30
0
41
1
10
37.1453781015309
20
-0.188642681170848
30
0
41
1
10
36.953961314739
20
-0.14684166350591
30
0
41
1
10
36.7625481185052
20
-0.104934577980231
30
0
41
1
10
36.6030518583305
20
-0.0698861055772966
30
0
41
1
10
36.4381144939039
20
-0.0336009156000046
30
0
41
1
10
36.3369702625825
20
-0.0113716495250742
30
0
41
1
10
36.2996289250158
20
-0.0031672319651079
30
0
0
SPLINE
5
EE
100
AcDbEntity
8
1
62
256
6
ByLayer
370
18
48
1
60
0
100
AcDbSpline
70
4
71
3
72
44
73
40
40
0
40
0
40
0
40
0
40
0.0324473330175544
40
0.0324473330175544
40
0.0813114304239968
40
0.0813114304239968
40
0.130175527830439
40
0.130175527830439
40
0.179039625236882
40
0.179039625236882
40
0.227903722643324
40
0.227903722643324
40
0.276767820049767
40
0.276767820049767
40
0.325631917456209
40
0.325631917456209
40
0.374496014862651
40
0.374496014862651
40
0.423360112269093
40
0.423360112269093
40
0.472224209675536
40
0.472224209675536
40
0.521088307081978
40
0.521088307081978
40
0.569952404488419
40
0.569952404488419
40
0.667680599301303
40
0.667680599301303
40
0.765408794114186
40
0.765408794114186
40
0.814272891520628
40
0.814272891520628
40
0.863136988927071
40
0.863136988927071
40
0.912001086333513
40
0.912001086333513
40
0.960865183739956
40
0.960865183739956
40
1
40
1
40
1
40
1
41
1
10
15.2380040396987
20
3.43585328288253
30
0
41
1
10
15.4915074796236
20
3.43654189493728
30
0
41
1
10
15.7451587187374
20
3.43033929371026
30
0
41
1
10
16.3793177726283
20
3.39757222029959
30
0
41
1
10
16.7597498748783
20
3.36234083702868
30
0
41
1
10
17.5215143346212
20
3.26169644501852
30
0
41
1
10
17.9034820847966
20
3.19606007779271
30
0
41
1
10
18.6663190854832
20
3.03640103243649
30
0
41
1
10
19.0468337707446
20
2.94252825020618
30
0
41
1
10
19.8080801885055
20
2.72886367264613
30
0
41
1
10
20.1888147861744
20
2.60907260032235
30
0
41
1
10
20.9525931027808
20
2.34597462883102
30
0
41
1
10
21.3332147207855
20
2.203264216224
30
0
41
1
10
22.0942594677401
20
1.89943795869306
30
0
41
1
10
22.474706678743
20
1.7383462039839
30
0
41
1
10
23.2372422755148
20
1.40078411848032
30
0
41
1
10
23.6189849346124
20
1.22436680035474
30
0
41
1
10
24.3801315516758
20
0.862969848876389
30
0
41
1
10
24.7602140664659
20
0.67752596158391
30
0
41
1
10
25.5217048813475
20
0.301666754965083
30
0
41
1
10
25.9037697621364
20
0.110927936974008
30
0
41
1
10
26.6653189784375
20
-0.269228979966442
30
0
41
1
10
27.0453446629908
20
-0.458789219013681
30
0
41
1
10
27.8061146118639
20
-0.832438797378245
30
0
41
1
10
28.1874484781678
20
-1.01697385885518
30
0
41
1
10
29.3308663097392
20
-1.55384279089626
30
0
41
1
10
30.0891835766577
20
-1.88862692605582
30
0
41
1
10
31.6144675128648
20
-2.48261822330932
30
0
41
1
10
32.3732322106237
20
-2.73836273272943
30
0
41
1
10
33.5155147721088
20
-3.04316863031116
30
0
41
1
10
33.8969226001961
20
-3.131678903466
30
0
41
1
10
34.6574153894089
20
-3.27895899404473
30
0
41
1
10
35.0372044654093
20
-3.33803525069359
30
0
41
1
10
35.7977975056605
20
-3.42579163325621
30
0
41
1
10
36.1793327033046
20
-3.45444020232847
30
0
41
1
10
36.9402389785188
20
-3.48004669945516
30
0
41
1
10
37.3199190858975
20
-3.47712643437759
30
0
41
1
10
38.0041681562216
20
-3.44363901614725
30
0
41
1
10
38.3091613173054
20
-3.41869497454925
30
0
41
1
10
38.6141666735365
20
-3.38385721359228
30
0
0
SPLINE
5
EF
100
AcDbEntity
8
1
62
256
6
ByLayer
370
18
48
1
60
0
100
AcDbSpline
70
4
71
3
72
40
73
36
40
0
40
0
40
0
40
0
40
0.0306299631625853
40
0.0306299631625853
40
0.0876517300353742
40
0.0876517300353742
40
0.144673496908163
40
0.144673496908163
40
0.201695263780952
40
0.201695263780952
40
0.258717030653741
40
0.258717030653741
40
0.31573879752653
40
0.31573879752653
40
0.372760564399319
40
0.372760564399319
40
0.429782331272107
40
0.429782331272107
40
0.486804098144896
40
0.486804098144896
40
0.543825865017685
40
0.543825865017685
40
0.657869398763264
40
0.657869398763264
40
0.771912932508844
40
0.771912932508844
40
0.828934699381634
40
0.828934699381634
40
0.885956466254423
40
0.885956466254423
40
0.942978233127213
40
0.942978233127213
40
0.971489116563606
40
0.971489116563606
40
1
40
1
40
1
40
1
41
1
10
58.742610597501
20
3.5141655440587
30
0
41
1
10
58.9466094603281
20
3.51463049251265
30
0
41
1
10
59.1507139530771
20
3.51052530535091
30
0
41
1
10
59.7346348981237
20
3.48563245804911
30
0
41
1
10
60.1136856796248
20
3.45368581209473
30
0
41
1
10
60.8716845722153
20
3.35904225639899
30
0
41
1
10
61.2506680783568
20
3.29631915735939
30
0
41
1
10
62.0109707363897
20
3.14127677720967
30
0
41
1
10
62.3903940881929
20
3.04940615250393
30
0
41
1
10
63.1482858776393
20
2.83911924292994
30
0
41
1
10
63.5269813243781
20
2.72067123238293
30
0
41
1
10
64.2860914846625
20
2.45965478612007
30
0
41
1
10
64.6662520937416
20
2.31712407160688
30
0
41
1
10
65.4242030132359
20
2.01334535645853
30
0
41
1
10
65.80278361471
20
1.85188734452001
30
0
41
1
10
66.5610903382518
20
1.51298859617086
30
0
41
1
10
66.9413952831771
20
1.335123084683
30
0
41
1
10
67.6997113784342
20
0.9702223538402
30
0
41
1
10
68.0782131304195
20
0.782876692127104
30
0
41
1
10
68.8358194894739
20
0.402055307964332
30
0
41
1
10
69.2156400056292
20
0.208164106408106
30
0
41
1
10
70.3539961509038
20
-0.372639212049705
30
0
41
1
10
71.1092621123232
20
-0.758758659651107
30
0
41
1
10
72.6286253805592
20
-1.49534812152891
30
0
41
1
10
73.3834414331835
20
-1.84160293036638
30
0
41
1
10
74.5212810290616
20
-2.30547221517836
30
0
41
1
10
74.9008910622252
20
-2.45051485628818
30
0
41
1
10
75.6581344850472
20
-2.71685950116159
30
0
41
1
10
76.0364811082001
20
-2.83837543020925
30
0
41
1
10
76.7946695823098
20
-3.05547885876308
30
0
41
1
10
77.174391480317
20
-3.15096473531159
30
0
41
1
10
77.7422863451094
20
-3.27200835108889
30
0
41
1
10
77.9314833169678
20
-3.30872197936415
30
0
41
1
10
78.3099040490547
20
-3.37470763611407
30
0
41
1
10
78.49890274208
20
-3.40409386049671
30
0
41
1
10
78.6885043509924
20
-3.42942624925342
30
0
0
SPLINE
5
F0
100
AcDbEntity
8
1
62
256
6
ByLayer
370
13
48
1
60
0
100
AcDbSpline
70
4
71
3
72
22
73
18
40
0
40
0
40
0
40
0
40
0.0610767849975458
40
0.131566695388102
40
0.23730156097394
40
0.27254651616922
40
0.343036426559777
40
0.413526336950336
40
0.519261202536173
40
0.554506157731454
40
0.624996068122011
40
0.69548597851257
40
0.801220844098407
40
0.836465799293685
40
0.906955709684245
40
0.977445620074804
40
1
40
1
40
1
40
1
41
1
10
79.2597924261128
20
1.52130665962201
30
0
41
1
10
79.2045099049697
20
1.52122967904501
30
0
41
1
10
79.0854193415789
20
1.52073046275592
30
0
41
1
10
78.8706232318471
20
1.51861856811581
30
0
41
1
10
78.679227668899
20
1.51534453426274
30
0
41
1
10
78.4878285575471
20
1.51090196674954
30
0
41
1
10
78.3283146210588
20
1.50643055124863
30
0
41
1
10
78.1049982354289
20
1.49883414700937
30
0
41
1
10
77.9136027961326
20
1.49094078651885
30
0
41
1
10
77.7222037841595
20
1.48190180949629
30
0
41
1
10
77.5626898866653
20
1.47362536972571
30
0
41
1
10
77.3393734860369
20
1.46073608433858
30
0
41
1
10
77.1479779973242
20
1.44833374615041
30
0
41
1
10
76.9565789501813
20
1.43481882960327
30
0
41
1
10
76.797065026448
20
1.42284344879243
30
0
41
1
10
76.6490402835271
20
1.4108973051259
30
0
41
1
10
76.5648245497948
20
1.40379532692879
30
0
41
1
10
76.5444104401654
20
1.40205578763269
30
0
0
SPLINE
5
F1
100
AcDbEntity
8
1
62
256
6
ByLayer
370
13
48
1
60
0
100
AcDbSpline
70
4
71
3
72
79
73
75
40
0
40
0
40
0
40
0
40
0.0152472215153249
40
0.0222682354971937
40
0.0363102634609307
40
0.0503522914246694
40
0.0714153333702773
40
0.0784363473521456
40
0.0924783753158831
40
0.106520403279622
40
0.127583445225229
40
0.134604459207097
40
0.148646487170836
40
0.162688515134573
40
0.183751557080181
40
0.190772571062049
40
0.204814599025787
40
0.218856626989524
40
0.239919668935132
40
0.246940682917
40
0.260982710880738
40
0.275024738844476
40
0.296087780790084
40
0.303108794771952
40
0.317150822735689
40
0.331192850699428
40
0.352255892645035
40
0.359276906626904
40
0.373318934590642
40
0.38736096255438
40
0.408424004499987
40
0.415445018481856
40
0.429487046445594
40
0.443529074409332
40
0.464592116354938
40
0.471613130336808
40
0.485655158300545
40
0.499697186264283
40
0.52076022820989
40
0.527781242191759
40
0.541823270155498
40
0.555865298119235
40
0.576928340064842
40
0.583949354046711
40
0.597991382010449
40
0.612033409974187
40
0.633096451919794
40
0.640117465901663
40
0.654159493865401
40
0.668201521829139
40
0.689264563774746
40
0.696285577756615
40
0.710327605720353
40
0.724369633684092
40
0.745432675629697
40
0.752453689611566
40
0.766495717575304
40
0.780537745539041
40
0.801600787484649
40
0.808621801466518
40
0.822663829430255
40
0.836705857393994
40
0.857768899339602
40
0.86478991332147
40
0.878831941285207
40
0.892873969248945
40
0.913937011194552
40
0.920958025176421
40
0.935000053140159
40
0.949042081103898
40
0.970105123049505
40
0.977126137031374
40
0.99116816499511
40
1
40
1
40
1
40
1
41
1
10
46.6670041398688
20
0.0025214390014696
30
0
41
1
10
46.5977277703031
20
0.0177501755999003
30
0
41
1
10
46.4965539358357
20
0.0400051016399061
30
0
41
1
10
46.3315788897356
20
0.0762741995217197
30
0
41
1
10
46.1720649159626
20
0.111232039577771
30
0
41
1
10
45.9487484433156
20
0.160064445611624
30
0
41
1
10
45.7573529095047
20
0.201862734522564
30
0
41
1
10
45.565953808166
20
0.243503356691747
30
0
41
1
10
45.4064398387455
20
0.278011330694937
30
0
41
1
10
45.1831233470892
20
0.3260669054917
30
0
41
1
10
44.9917278023855
20
0.367048156037356
30
0
41
1
10
44.8003287306172
20
0.407747136553808
30
0
41
1
10
44.6408148030149
20
0.441389509009496
30
0
41
1
10
44.4174983656694
20
0.488090656858815
30
0
41
1
10
44.226102843374
20
0.52776143549795
30
0
41
1
10
44.0347037462385
20
0.567025289303074
30
0
41
1
10
43.8751897820257
20
0.599391379230837
30
0
41
1
10
43.6518733098792
20
0.644164587417492
30
0
41
1
10
43.4604777985978
20
0.682035949783028
30
0
41
1
10
43.2690787752666
20
0.719381612887133
30
0
41
1
10
43.1095649327407
20
0.750074238869984
30
0
41
1
10
42.8862486966415
20
0.792371357082885
30
0
41
1
10
42.6948533896817
20
0.827980355390081
30
0
41
1
10
42.5034544941154
20
0.862951045693989
30
0
41
1
10
42.3439406817759
20
0.891594477142433
30
0
41
1
10
42.1206243635856
20
0.930897393860305
30
0
41
1
10
41.9292288877707
20
0.963807779350105
30
0
41
1
10
41.7378297846216
20
0.995975358591067
30
0
41
1
10
41.5783157770499
20
1.02221917019935
30
0
41
1
10
41.3549991628568
20
1.05804731489786
30
0
41
1
10
41.1636034371884
20
1.08785674654612
30
0
41
1
10
40.9722041197461
20
1.1168277403759
30
0
41
1
10
40.8126899657822
20
1.14035071816971
30
0
41
1
10
40.5893732416319
20
1.17226501350944
30
0
41
1
10
40.3979775567856
20
1.19860738290092
30
0
41
1
10
40.2065784288601
20
1.22402509872333
30
0
41
1
10
40.0470645332659
20
1.244537010551
30
0
41
1
10
39.8237482630951
20
1.27214401591021
30
0
41
1
10
39.6323529653064
20
1.29469652898226
30
0
41
1
10
39.4409541015115
20
1.31625302568048
30
0
41
1
10
39.2814403204223
20
1.33350804809712
30
0
41
1
10
39.058124041567
20
1.35648016914808
30
0
41
1
10
38.8667285899457
20
1.37497680757136
30
0
41
1
10
38.6753294956402
20
1.39241679693802
30
0
41
1
10
38.5158154886604
20
1.40620944306522
30
0
41
1
10
38.2924988718723
20
1.42427068647382
30
0
41
1
10
38.1011031445006
20
1.43848631212612
30
0
41
1
10
37.9097038313538
20
1.45159483490295
30
0
41
1
10
37.7501896866257
20
1.46175327862659
30
0
41
1
10
37.5268729803229
20
1.47467489885977
30
0
41
1
10
37.3354773090452
20
1.48442500584212
30
0
41
1
10
37.1440781844373
20
1.4930277078773
30
0
41
1
10
36.9845642884034
20
1.49941384477123
30
0
41
1
10
36.7612480175455
20
1.50701904194852
30
0
41
1
10
36.5698527189984
20
1.51217401497638
30
0
41
1
10
36.3784538543194
20
1.51616591435089
30
0
41
1
10
36.2189400812271
20
1.51870970570675
30
0
41
1
10
35.995623839023
20
1.52092646789077
30
0
41
1
10
35.8042284449066
20
1.52144633301523
30
0
41
1
10
35.6128294294456
20
1.52079934030522
30
0
41
1
10
35.4533154974225
20
1.51948416081981
30
0
41
1
10
35.2299989886007
20
1.51630032981592
30
0
41
1
10
35.0386033471893
20
1.51218570570123
30
0
41
1
10
34.8472041023279
20
1.50690987379085
30
0
41
1
10
34.6876899998546
20
1.50175053240832
30
0
41
1
10
34.464373326167
20
1.49319746860325
30
0
41
1
10
34.2729776566956
20
1.48448589274321
30
0
41
1
10
34.0815785170994
20
1.47462782963112
30
0
41
1
10
33.9220645838998
20
1.46566927760526
30
0
41
1
10
33.6987482142675
20
1.45182535865791
30
0
41
1
10
33.5073527992018
20
1.43860555754585
30
0
41
1
10
33.315953812551
20
1.42427838613449
30
0
41
1
10
33.1801145192262
20
1.41350880291239
30
0
41
1
10
33.0761791519725
20
1.40479517746533
30
0
41
1
10
33.0360493105609
20
1.40136124527913
30
0
0
SPLINE
5
F2
100
AcDbEntity
8
1
62
256
6
ByLayer
370
18
48
1
60
0
100
AcDbSpline
70
4
71
3
72
11
73
7
40
0
40
0
40
0
40
0
40
0.220855697372587
40
0.473332760824156
40
0.757662050670523
40
1
40
1
40
1
40
1
41
1
10
14.571998511278
20
-0.0081430184968383
30
0
41
1
10
14.4784308652527
20
0.0125416065747572
30
0
41
1
10
14.2798177187359
20
0.0619680716586686
30
0
41
1
10
13.9695707008733
20
0.159300008799619
30
0
41
1
10
13.6558219374893
20
0.27817386471807
30
0
41
1
10
13.446981341208
20
0.373639703085132
30
0
41
1
10
13.3515926066064
20
0.420569344080093
30
0
0
SPLINE
5
F3
100
AcDbEntity
8
1
62
256
6
ByLayer
370
18
48
1
60
0
100
AcDbSpline
70
4
71
3
72
11
73
7
40
0
40
0
40
0
40
0
40
0.209482951477624
40
0.451490430853982
40
0.726263817417023
40
1
40
1
40
1
40
1
41
1
10
58.0718800408349
20
-0.008129115997491
30
0
41
1
10
57.9832046887113
20
0.0113875193082436
30
0
41
1
10
57.7922183533695
20
0.0587649500874363
30
0
41
1
10
57.4854322446438
20
0.153706594770711
30
0
41
1
10
57.1521343815425
20
0.279286302207197
30
0
41
1
10
56.9215125103811
20
0.384358505605746
30
0
41
1
10
56.8065645082459
20
0.44113300755447
30
0
0
SPLINE
5
F4
100
AcDbEntity
8
1
62
256
6
ByLayer
370
18
48
1
60
0
100
AcDbSpline
70
4
71
3
72
11
73
7
40
0
40
0
40
0
40
0
40
0.202693162395731
40
0.436744735759379
40
0.702395131157657
40
1
40
1
40
1
40
1
41
1
10
68.3960870394059
20
0.0071362562011927
30
0
41
1
10
68.4893934030435
20
-0.0133755586976747
30
0
41
1
10
68.690209861566
20
-0.0634615146880719
30
0
41
1
10
69.0123520152952
20
-0.164538493747727
30
0
41
1
10
69.3770267072489
20
-0.305488847029835
30
0
41
1
10
69.6337665611865
20
-0.425324467481943
30
0
41
1
10
69.7691804799119
20
-0.4943528556079
30
0
0
SPLINE
5
F5
100
AcDbEntity
8
1
62
256
6
ByLayer
370
18
48
1
60
0
100
AcDbSpline
70
4
71
3
72
11
73
7
40
0
40
0
40
0
40
0
40
0.214186263725138
40
0.461606586295738
40
0.742529501714364
40
1
40
1
40
1
40
1
41
1
10
24.8954485186382
20
0.0073217968831614
30
0
41
1
10
24.9887444657624
20
-0.0131929133883943
30
0
41
1
10
25.1896445559442
20
-0.0632708999261808
30
0
41
1
10
25.5122350648018
20
-0.164674145869554
30
0
41
1
10
25.852902755122
20
-0.295454869126843
30
0
41
1
10
26.0855680083778
20
-0.404276497196321
30
0
41
1
10
26.1966821104788
20
-0.460490024652586
30
0
0
SPLINE
5
F6
100
AcDbEntity
8
1
62
256
6
ByLayer
370
18
48
1
60
0
100
AcDbSpline
70
4
71
2
72
6
73
3
40
0
40
0
40
0
40
1
40
1
40
1
41
1
10
46.6457658525325
20
0.0071904537118144
30
0
41
1
10
47.3120667525381
20
-0.138281051244718
30
0
41
1
10
47.9705299081539
20
-0.473366507666952
30
0
0
SPLINE
5
F7
100
AcDbEntity
8
1
62
256
6
ByLayer
370
18
48
1
60
0
100
AcDbSpline
70
4
71
3
72
11
73
7
40
0
40
0
40
0
40
0
40
0.215288781727148
40
0.463105629894825
40
0.74363905445655
40
1
40
1
40
1
40
1
41
1
10
36.3212107976304
20
-0.0079093427795556
30
0
41
1
10
36.2309397444285
20
0.0119897969454144
30
0
41
1
10
36.0375173348971
20
0.0600150065361333
30
0
41
1
10
35.7299443944648
20
0.155590893379582
30
0
41
1
10
35.407645686511
20
0.27719398802833
30
0
41
1
10
35.188658708449
20
0.37713756423625
30
0
41
1
10
35.0844467464757
20
0.42849555355113
30
0
0
SPLINE
5
F8
100
AcDbEntity
8
1
62
256
6
ByLayer
370
18
48
1
60
0
100
AcDbSpline
70
4
71
3
72
28
73
24
40
0
40
0
40
0
40
0
40
0.003126846519618
40
0.0531574414484254
40
0.0797502643560542
40
0.110722270301921
40
0.1497638653354
40
0.194488501794095
40
0.233745484034883
40
0.266127664831296
40
0.324469545539041
40
0.409527092883935
40
0.479060561938865
40
0.535455731102886
40
0.594225455696264
40
0.671413768169946
40
0.756966858158715
40
0.830387121656846
40
0.88816629768566
40
0.904424904118321
40
0.9296590246638
40
0.966617671064932
40
1
40
1
40
1
40
1
41
1
10
46.7851277412543
20
3.39470765933143
30
0
41
1
10
46.7766239497193
20
3.39467517614321
30
0
41
1
10
46.6320589094436
20
3.39413874852678
30
0
41
1
10
46.4150797249416
20
3.39405772179669
30
0
41
1
10
46.1227665567518
20
3.39406901947893
30
0
41
1
10
45.8600521171323
20
3.39420418918164
30
0
41
1
10
45.5480077569932
20
3.39428948997974
30
0
41
1
10
45.2134187697427
20
3.39389061732487
30
0
41
1
10
44.8969465362411
20
3.39286215318887
30
0
41
1
10
44.5434378693438
20
3.39209371478611
30
0
41
1
10
44.0653663929383
20
3.39092069291991
30
0
41
1
10
43.486258241049
20
3.38851677163606
30
0
41
1
10
42.9124385359308
20
3.38892841411604
30
0
41
1
10
42.4101136138994
20
3.38917742064848
30
0
41
1
10
41.8869757715666
20
3.38835436727101
30
0
41
1
10
41.2845551211161
20
3.38610590244221
30
0
41
1
10
40.6422267652644
20
3.3844741743508
30
0
41
1
10
40.0528469330246
20
3.38294286080895
30
0
41
1
10
39.6515505804064
20
3.38309891044213
30
0
41
1
10
39.3821087259474
20
3.38289158704498
30
0
41
1
10
39.168797458333
20
3.38267575129615
30
0
41
1
10
38.9088909345155
20
3.38231249906539
30
0
41
1
10
38.7175746118757
20
3.38182722987267
30
0
41
1
10
38.6267817552853
20
3.38158152038167
30
0
0
SPLINE
5
F9
100
AcDbEntity
8
1
62
256
6
ByLayer
370
18
48
1
60
0
100
AcDbSpline
70
4
71
3
72
30
73
26
40
0
40
0
40
0
40
0
40
0.0648267336466859
40
0.118047532786352
40
0.152401313723273
40
0.183290101919991
40
0.221304061881427
40
0.277484097513423
40
0.326377260770796
40
0.366694198369958
40
0.410587866762358
40
0.446732778127238
40
0.484949764053777
40
0.541308776934057
40
0.59457778037438
40
0.635035357390148
40
0.67539251751703
40
0.730990183443444
40
0.784310826721471
40
0.822370994266211
40
0.854854902159641
40
0.882924301161194
40
0.917545058385095
40
0.9711339481334
40
1
40
1
40
1
40
1
41
1
10
15.7342811596373
20
-3.34044532428547
30
0
41
1
10
15.9360385287385
20
-3.34074440284272
30
0
41
1
10
16.3034337974015
20
-3.34135214123233
30
0
41
1
10
16.7777303415324
20
-3.3418853116078
30
0
41
1
10
17.1464333230207
20
-3.3428967375441
30
0
41
1
10
17.4677356677859
20
-3.34388940972644
30
0
41
1
10
17.8570164025977
20
-3.34460650871478
30
0
41
1
10
18.3023459238264
20
-3.34542075007693
30
0
41
1
10
18.7548318581152
20
-3.34586182425045
30
0
41
1
10
19.1690768076218
20
-3.34642885525864
30
0
41
1
10
19.5436512547166
20
-3.34705340560066
30
0
41
1
10
19.9116784883059
20
-3.34765525168012
30
0
41
1
10
20.3185201498976
20
-3.34824005727023
30
0
41
1
10
20.7786421383022
20
-3.35122232705063
30
0
41
1
10
21.2457497630213
20
-3.35116723447274
30
0
41
1
10
21.6630537210301
20
-3.35117514025757
30
0
41
1
10
22.0876056440996
20
-3.35096841401946
30
0
41
1
10
22.5521895702379
20
-3.35169870079426
30
0
41
1
10
23.0096220303238
20
-3.35363587306875
30
0
41
1
10
23.3951220435059
20
-3.35414318800855
30
0
41
1
10
23.7020311923573
20
-3.35527172183771
30
0
41
1
10
23.9982358933684
20
-3.35651386884436
30
0
41
1
10
24.3601103895476
20
-3.35710282597
30
0
41
1
10
24.7244642774202
20
-3.3564993550296
30
0
41
1
10
24.9810855476564
20
-3.35642900616267
30
0
41
1
10
25.0709250762113
20
-3.35639269686129
30
0
0
SPLINE
5
FA
100
AcDbEntity
8
1
62
256
6
ByLayer
370
18
48
1
60
0
100
AcDbSpline
70
4
71
3
72
30
73
26
40
0
40
0
40
0
40
0
40
0.0665734086229589
40
0.119978757608395
40
0.154199496457365
40
0.184868200530925
40
0.222869648406675
40
0.27925302948917
40
0.327926629694335
40
0.367538982451379
40
0.410293110641686
40
0.445700859756013
40
0.483500301031493
40
0.539252565846135
40
0.591543652791253
40
0.631171768193645
40
0.673135688797808
40
0.733522047487323
40
0.78652905970954
40
0.820021817511738
40
0.852464006904238
40
0.886577547652601
40
0.925521018298783
40
0.980806179741982
40
1
40
1
40
1
40
1
41
1
10
59.2294494104435
20
-3.41842581171713
30
0
41
1
10
59.4357589828159
20
-3.41880013482992
30
0
41
1
10
59.8075711847183
20
-3.41947944883879
30
0
41
1
10
60.2854034867206
20
-3.42071874347528
30
0
41
1
10
60.652014060939
20
-3.42122833320951
30
0
41
1
10
60.9708068623693
20
-3.42159569452801
30
0
41
1
10
61.3583347295262
20
-3.4219241518779
30
0
41
1
10
61.8016735464087
20
-3.42253304692889
30
0
41
1
10
62.2499865773512
20
-3.42441144980859
30
0
41
1
10
62.6560658402927
20
-3.42482938469507
30
0
41
1
10
63.02103814724
20
-3.42500504058356
30
0
41
1
10
63.3803913172094
20
-3.4250910616129
30
0
41
1
10
63.7800346359135
20
-3.42544398232565
30
0
41
1
10
64.231994619177
20
-3.42657005415316
30
0
41
1
10
64.6896211744066
20
-3.42817785254982
30
0
41
1
10
65.10451955904
20
-3.42900151054053
30
0
41
1
10
65.5445030988435
20
-3.43084366107789
30
0
41
1
10
66.0259514681132
20
-3.43041871435077
30
0
41
1
10
66.4811448346696
20
-3.43044527308049
30
0
41
1
10
66.8497452470056
20
-3.43078006413336
30
0
41
1
10
67.1597802042451
20
-3.43137439529312
30
0
41
1
10
67.4865453307384
20
-3.43296631132137
30
0
41
1
10
67.8842504812479
20
-3.43541204526178
30
0
41
1
10
68.2357424371857
20
-3.43503672905169
30
0
41
1
10
68.4665468508819
20
-3.43518854309428
30
0
41
1
10
68.526027136789
20
-3.43520559427989
30
0
0
SPLINE
5
FB
100
AcDbEntity
8
1
62
256
6
ByLayer
370
18
48
1
60
0
100
AcDbSpline
70
4
71
3
72
28
73
24
40
0
40
0
40
0
40
0
40
0.0047446786843161
40
0.054387666121874
40
0.0809070313026611
40
0.111935149237674
40
0.151049629549411
40
0.195770396175359
40
0.234948460876157
40
0.267237501459471
40
0.325615159032665
40
0.410122774003516
40
0.479539165757776
40
0.535500603963554
40
0.592855788816281
40
0.670138711993439
40
0.75670925438921
40
0.830378745981082
40
0.888214334300785
40
0.904505514114436
40
0.929392107941649
40
0.965707382346827
40
1
40
1
40
1
40
1
41
1
10
25.0517150556972
20
3.35625743748165
30
0
41
1
10
25.0387278167451
20
3.35625508141331
30
0
41
1
10
24.889864024493
20
3.35623717245406
30
0
41
1
10
24.6682786270031
20
3.35671478718103
30
0
41
1
10
24.375470662807
20
3.35692580024761
30
0
41
1
10
24.1108781329539
20
3.35680132586796
30
0
41
1
10
23.7964763895375
20
3.35570432508382
30
0
41
1
10
23.459791146333
20
3.35429388728127
30
0
41
1
10
23.1417712003852
20
3.35378668809204
30
0
41
1
10
22.7863656400956
20
3.35286242067667
30
0
41
1
10
22.3068818753053
20
3.35084833874561
30
0
41
1
10
21.725772046322
20
3.35114876258629
30
0
41
1
10
21.1512758811718
20
3.3513033252984
30
0
41
1
10
20.6510994697815
20
3.35057643805502
30
0
41
1
10
20.1294030642041
20
3.34749454787862
30
0
41
1
10
19.5239351033409
20
3.34719306660162
30
0
41
1
10
18.8736806404155
20
3.34593155137392
30
0
41
1
10
18.2771404854518
20
3.34537494604876
30
0
41
1
10
17.8717561248511
20
3.34473595649686
30
0
41
1
10
17.6035094124414
20
3.34380632772704
30
0
41
1
10
17.3913040940388
20
3.34315184679676
30
0
41
1
10
17.129994486043
20
3.34226634605966
30
0
41
1
10
16.9367324897261
20
3.34188228004098
30
0
41
1
10
16.8428788023416
20
3.3417295269889
30
0
0
SPLINE
5
FC
100
AcDbEntity
8
1
62
256
6
ByLayer
370
18
48
1
60
0
100
AcDbSpline
70
4
71
3
72
30
73
26
40
0
40
0
40
0
40
0
40
0.0670332306998034
40
0.120654475544351
40
0.154206594049508
40
0.184049945632953
40
0.221582932171176
40
0.27792446396967
40
0.327299125558723
40
0.368331614398255
40
0.413073969693375
40
0.449484191452043
40
0.487403303385515
40
0.543338474821419
40
0.596415516869158
40
0.636755414774369
40
0.676741526700277
40
0.731890766490606
40
0.785089242255013
40
0.823237668015052
40
0.85589374081809
40
0.884179407169476
40
0.91890291088254
40
0.972534156374816
40
1
40
1
40
1
40
1
41
1
10
37.4826432152738
20
-3.37915771919225
30
0
41
1
10
37.6910172695712
20
-3.37942894236664
30
0
41
1
10
38.0660764580567
20
-3.38006170999756
30
0
41
1
10
38.5454196440171
20
-3.3816346115911
30
0
41
1
10
38.9091876021524
20
-3.38247814999886
30
0
41
1
10
39.2228974178362
20
-3.38287302926415
30
0
41
1
10
39.6074713483218
20
-3.38308878961513
30
0
41
1
10
40.0527773606702
20
-3.38299118857279
30
0
41
1
10
40.5089542266609
20
-3.38398926054492
30
0
41
1
10
40.929052462989
20
-3.38547632303263
30
0
41
1
10
41.3089024987531
20
-3.38628168094129
30
0
41
1
10
41.6788164052654
20
-3.38723870009653
30
0
41
1
10
42.0837013311
20
-3.38887947656715
30
0
41
1
10
42.540434064707
20
-3.38912461316838
30
0
41
1
10
43.0045988972313
20
-3.3888151497074
30
0
41
1
10
43.419294602286
20
-3.38891968115396
30
0
41
1
10
43.8404311099006
20
-3.38919913725758
30
0
41
1
10
44.3015312922537
20
-3.39201704116633
30
0
41
1
10
44.756926784868
20
-3.39236881523132
30
0
41
1
10
45.1423984853595
20
-3.39369946665156
30
0
41
1
10
45.4504275264144
20
-3.39421579284664
30
0
41
1
10
45.7478119182992
20
-3.39425437542028
30
0
41
1
10
46.1103718724215
20
-3.39408022041775
30
0
41
1
10
46.4703924075243
20
-3.39396257119617
30
0
41
1
10
46.722488676204
20
-3.39468766055845
30
0
41
1
10
46.8078693206978
20
-3.39499060518082
30
0
0
SPLINE
5
FD
100
AcDbEntity
8
1
62
256
6
ByLayer
370
18
48
1
60
0
100
AcDbSpline
70
4
71
3
72
27
73
23
40
0
40
0
40
0
40
0
40
0.0099437579860439
40
0.0577850545225909
40
0.109871895016851
40
0.173564966291158
40
0.241020038733595
40
0.29724623779611
40
0.353209379480231
40
0.421943087974387
40
0.482702467176505
40
0.530288018765143
40
0.572304819230903
40
0.622872382142458
40
0.689852594276888
40
0.75943023643035
40
0.832936200375831
40
0.889998705831742
40
0.906027493632942
40
0.930568970235158
40
0.966500474694531
40
1
40
1
40
1
40
1
41
1
10
68.6165730883322
20
3.4351968689908
30
0
41
1
10
68.589183652664
20
3.43517920322225
30
0
41
1
10
68.4300248547347
20
3.435080589678
30
0
41
1
10
68.1275478883908
20
3.43522451492225
30
0
41
1
10
67.6770463894183
20
3.43466208541241
30
0
41
1
10
67.1723053608592
20
3.43097211252271
30
0
41
1
10
66.6561921151448
20
3.43058070011711
30
0
41
1
10
66.1613597239224
20
3.43034715057098
30
0
41
1
10
65.6630047950449
20
3.43092859181687
30
0
41
1
10
65.1521665617558
20
3.42917412494077
30
0
41
1
10
64.6644029300747
20
3.42809852166823
30
0
41
1
10
64.2502310972475
20
3.42666166746153
30
0
41
1
10
63.8641371964827
20
3.4256288255867
30
0
41
1
10
63.4246173651068
20
3.42505808749368
30
0
41
1
10
62.9092009583771
20
3.42496117587194
30
0
41
1
10
62.3304724059515
20
3.42477422652948
30
0
41
1
10
61.7795822565585
20
3.42236708790099
30
0
41
1
10
61.3748174600069
20
3.42206880805264
30
0
41
1
10
61.1086982484356
20
3.4213957109439
30
0
41
1
10
60.8979175584535
20
3.42099302161205
30
0
41
1
10
60.6391432371915
20
3.42063708399388
30
0
41
1
10
60.4478986096908
20
3.42036271374403
30
0
41
1
10
60.3556336683745
20
3.42022737525855
30
0
0
LINE
5
7B
100
AcDbEntity
8
SK1
62
256
6
ByLayer
370
18
48
1
60
0
100
AcDbLine
10
0
20
-4
30
0
11
0
21
4
31
0
39
0
210
0
220
0
230
1
0
LINE
5
7D
100
AcDbEntity
8
SK1
62
256
6
ByLayer
370
18
48
1
60
0
100
AcDbLine
10
-36
20
2
30
0
11
-36
21
-2
31
0
39
0
210
0
220
0
230
1
0
LINE
5
7E
100
AcDbEntity
8
SK1
62
256
6
ByLayer
370
18
48
1
60
0
100
AcDbLine
10
-34.845299
20
4
30
0
11
-34.845299
21
-4
31
0
39
0
210
0
220
0
230
1
0
LINE
5
7F
100
AcDbEntity
8
1
62
256
6
ByLayer
370
13
48
1
60
0
100
AcDbLine
10
1.288466
20
3.410765
30
0
11
1.288466
21
-3.410765
31
0
39
0
210
0
220
0
230
1
0
LINE
5
80
100
AcDbEntity
8
1
62
256
6
ByLayer
370
13
48
1
60
0
100
AcDbLine
10
0.643468
20
3.705382
30
0
11
0.643468
21
-3.705382
31
0
39
0
210
0
220
0
230
1
0
LINE
5
81
100
AcDbEntity
8
1
62
256
6
ByLayer
370
18
48
1
60
0
100
AcDbLine
10
78.277926
20
-1.875555
30
0
11
79.414727
21
-0.9629
31
0
39
0
210
0
220
0
230
1
0
LINE
5
82
100
AcDbEntity
8
1
62
256
6
ByLayer
370
18
48
1
60
0
100
AcDbLine
10
0
20
-4
30
0
11
0
21
4
31
0
39
0
210
0
220
0
230
1
0
LINE
5
83
100
AcDbEntity
8
1
62
256
6
ByLayer
370
18
48
1
60
0
100
AcDbLine
10
79.414727
20
-0.9629
30
0
11
79.418365
21
-0.939118
31
0
39
0
210
0
220
0
230
1
0
LINE
5
84
100
AcDbEntity
8
80
62
256
6
ByLayer
370
18
48
1
60
0
100
AcDbLine
10
0
20
0
30
0
11
-5
21
0
31
0
39
0
210
0
220
0
230
1
0
LINE
5
85
100
AcDbEntity
8
4
62
256
6
ByLayer
370
18
48
0.05
60
0
100
AcDbLine
10
80
20
0
30
0
11
0
21
0
31
0
39
0
210
0
220
0
230
1
0
LINE
5
87
100
AcDbEntity
8
SK4
62
256
6
ByLayer
370
18
48
0.05
60
0
100
AcDbLine
10
85
20
0
30
0
11
-41
21
0
31
0
39
0
210
0
220
0
230
1
0
LINE
5
89
100
AcDbEntity
8
SK1
62
256
6
ByLayer
370
18
48
1
60
0
100
AcDbLine
10
-34.845299
20
-4
30
0
11
0
21
-4
31
0
39
0
210
0
220
0
230
1
0
LINE
5
8A
100
AcDbEntity
8
SK1
62
256
6
ByLayer
370
18
48
1
60
0
100
AcDbLine
10
0
20
4
30
0
11
-34.845299
21
4
31
0
39
0
210
0
220
0
230
1
0
LINE
5
8B
100
AcDbEntity
8
SK1
62
256
6
ByLayer
370
18
48
1
60
0
100
AcDbLine
10
-36
20
-2
30
0
11
-34.845299
21
-4
31
0
39
0
210
0
220
0
230
1
0
LINE
5
8C
100
AcDbEntity
8
SK1
62
256
6
ByLayer
370
18
48
1
60
0
100
AcDbLine
10
-34.845299
20
4
30
0
11
-36
21
2
31
0
39
0
210
0
220
0
230
1
0
LINE
5
8D
100
AcDbEntity
8
1
62
256
6
ByLayer
370
18
48
1
60
0
100
AcDbLine
10
1.288466
20
-3.410765
30
0
11
5.136083
21
-3.41769
31
0
39
0
210
0
220
0
230
1
0
LINE
5
8E
100
AcDbEntity
8
1
62
256
6
ByLayer
370
18
48
1
60
0
100
AcDbLine
10
14.396111
20
-3.434358
30
0
11
15.251536
21
-3.435898
31
0
39
0
210
0
220
0
230
1
0
LINE
5
8F
100
AcDbEntity
8
1
62
256
6
ByLayer
370
18
48
1
60
0
100
AcDbLine
10
36.156301
20
-3.473527
30
0
11
36.999742
21
-3.475045
31
0
39
0
210
0
220
0
230
1
0
LINE
5
90
100
AcDbEntity
8
1
62
256
6
ByLayer
370
18
48
1
60
0
100
AcDbLine
10
57.916975
20
-3.512696
30
0
11
58.749195
21
-3.514194
31
0
39
0
210
0
220
0
230
1
0
LINE
5
91
100
AcDbEntity
8
1
62
256
6
ByLayer
370
18
48
1
60
0
100
AcDbLine
10
58.749195
20
3.514194
30
0
11
57.916975
21
3.512696
31
0
39
0
210
0
220
0
230
1
0
LINE
5
92
100
AcDbEntity
8
1
62
256
6
ByLayer
370
18
48
1
60
0
100
AcDbLine
10
36.999742
20
3.475045
30
0
11
36.156301
21
3.473527
31
0
39
0
210
0
220
0
230
1
0
LINE
5
93
100
AcDbEntity
8
1
62
256
6
ByLayer
370
18
48
1
60
0
100
AcDbLine
10
15.251536
20
3.435898
30
0
11
14.396111
21
3.434358
31
0
39
0
210
0
220
0
230
1
0
LINE
5
94
100
AcDbEntity
8
1
62
256
6
ByLayer
370
18
48
1
60
0
100
AcDbLine
10
5.136083
20
3.41769
30
0
11
1.288466
21
3.410765
31
0
39
0
210
0
220
0
230
1
0
LINE
5
95
100
AcDbEntity
8
81
62
256
6
ByLayer
370
18
48
1
60
0
100
AcDbLine
10
80
20
0
30
0
11
85
21
0
31
0
39
0
210
0
220
0
230
1
0
LINE
5
96
100
AcDbEntity
8
SK2
62
256
6
ByLayer
370
13
48
1
60
0
100
AcDbLine
10
-44.625163
20
-4
30
0
11
-44.625163
21
33.117107
31
0
39
0
210
0
220
0
230
1
0
LINE
5
98
100
AcDbEntity
8
SK2
62
256
6
ByLayer
370
13
48
1
60
0
100
AcDbLine
10
-37.5875
20
4
30
0
11
-46.625163
21
4
31
0
39
0
210
0
220
0
230
1
0
LINE
5
99
100
AcDbEntity
8
SK2
62
256
6
ByLayer
370
13
48
1
60
0
100
AcDbLine
10
-37.5875
20
-4
30
0
11
-46.625163
21
-4
31
0
39
0
210
0
220
0
230
1
0
LINE
5
9A
100
AcDbEntity
8
1
62
256
6
ByLayer
370
18
48
1
60
1
100
AcDbLine
10
-44.625163
20
4
30
0
11
-44.164379
21
0.500002
31
0
39
0
210
0
220
0
230
1
0
LINE
5
9B
100
AcDbEntity
8
1
62
256
6
ByLayer
370
18
48
1
60
1
100
AcDbLine
10
-44.164379
20
0.500002
30
0
11
-45.085946
21
0.499998
31
0
39
0
210
0
220
0
230
1
0
LINE
5
9C
100
AcDbEntity
8
1
62
256
6
ByLayer
370
18
48
1
60
1
100
AcDbLine
10
-45.085946
20
0.499998
30
0
11
-44.625163
21
4
31
0
39
0
210
0
220
0
230
1
0
LINE
5
9D
100
AcDbEntity
8
1
62
256
6
ByLayer
370
18
48
1
60
1
100
AcDbLine
10
-44.625163
20
-4
30
0
11
-45.085946
21
-0.500002
31
0
39
0
210
0
220
0
230
1
0
LINE
5
9E
100
AcDbEntity
8
1
62
256
6
ByLayer
370
18
48
1
60
1
100
AcDbLine
10
-45.085946
20
-0.500002
30
0
11
-44.164379
21
-0.499998
31
0
39
0
210
0
220
0
230
1
0
LINE
5
9F
100
AcDbEntity
8
1
62
256
6
ByLayer
370
18
48
1
60
1
100
AcDbLine
10
-44.164379
20
-0.499998
30
0
11
-44.625163
21
-4
31
0
39
0
210
0
220
0
230
1
0
LINE
5
A0
100
AcDbEntity
8
2
62
256
6
ByLayer
370
13
48
1
60
0
100
AcDbLine
10
92.083343
20
-3.55
30
0
11
92.083343
21
30.385327
31
0
39
0
210
0
220
0
230
1
0
LINE
5
A2
100
AcDbEntity
8
2
62
256
6
ByLayer
370
13
48
1
60
0
100
AcDbLine
10
80.2289
20
3.55
30
0
11
94.083343
21
3.55
31
0
39
0
210
0
220
0
230
1
0
LINE
5
A3
100
AcDbEntity
8
2
62
256
6
ByLayer
370
13
48
1
60
0
100
AcDbLine
10
80.2289
20
-3.55
30
0
11
94.083343
21
-3.55
31
0
39
0
210
0
220
0
230
1
0
LINE
5
A4
100
AcDbEntity
8
1
62
256
6
ByLayer
370
18
48
1
60
1
100
AcDbLine
10
92.083343
20
3.55
30
0
11
92.544126
21
0.050002
31
0
39
0
210
0
220
0
230
1
0
LINE
5
A5
100
AcDbEntity
8
1
62
256
6
ByLayer
370
18
48
1
60
1
100
AcDbLine
10
92.544126
20
0.050002
30
0
11
91.622559
21
0.049998
31
0
39
0
210
0
220
0
230
1
0
LINE
5
A6
100
AcDbEntity
8
1
62
256
6
ByLayer
370
18
48
1
60
1
100
AcDbLine
10
91.622559
20
0.049998
30
0
11
92.083343
21
3.55
31
0
39
0
210
0
220
0
230
1
0
LINE
5
A7
100
AcDbEntity
8
1
62
256
6
ByLayer
370
18
48
1
60
1
100
AcDbLine
10
92.083343
20
-3.55
30
0
11
91.622559
21
-0.050002
31
0
39
0
210
0
220
0
230
1
0
LINE
5
A8
100
AcDbEntity
8
1
62
256
6
ByLayer
370
18
48
1
60
1
100
AcDbLine
10
91.622559
20
-0.050002
30
0
11
92.544126
21
-0.049998
31
0
39
0
210
0
220
0
230
1
0
LINE
5
A9
100
AcDbEntity
8
1
62
256
6
ByLayer
370
18
48
1
60
1
100
AcDbLine
10
92.544126
20
-0.049998
30
0
11
92.083343
21
-3.55
31
0
39
0
210
0
220
0
230
1
0
LINE
5
104
100
AcDbEntity
8
1
62
256
6
ByLayer
370
18
48
1
60
1
100
AcDbLine
10
-44.625163
20
4
30
0
11
-44.164379
21
0.500002
31
0
39
0
210
0
220
0
230
1
0
LINE
5
105
100
AcDbEntity
8
1
62
256
6
ByLayer
370
18
48
1
60
1
100
AcDbLine
10
-44.164379
20
0.500002
30
0
11
-45.085946
21
0.499998
31
0
39
0
210
0
220
0
230
1
0
LINE
5
106
100
AcDbEntity
8
1
62
256
6
ByLayer
370
18
48
1
60
1
100
AcDbLine
10
-45.085946
20
0.499998
30
0
11
-44.625163
21
4
31
0
39
0
210
0
220
0
230
1
0
LINE
5
108
100
AcDbEntity
8
1
62
256
6
ByLayer
370
18
48
1
60
1
100
AcDbLine
10
-44.625163
20
-4
30
0
11
-45.085946
21
-0.500002
31
0
39
0
210
0
220
0
230
1
0
LINE
5
109
100
AcDbEntity
8
1
62
256
6
ByLayer
370
18
48
1
60
1
100
AcDbLine
10
-45.085946
20
-0.500002
30
0
11
-44.164379
21
-0.499998
31
0
39
0
210
0
220
0
230
1
0
LINE
5
10A
100
AcDbEntity
8
1
62
256
6
ByLayer
370
18
48
1
60
1
100
AcDbLine
10
-44.164379
20
-0.499998
30
0
11
-44.625163
21
-4
31
0
39
0
210
0
220
0
230
1
0
LINE
5
10E
100
AcDbEntity
8
1
62
256
6
ByLayer
370
18
48
1
60
1
100
AcDbLine
10
92.083343
20
3.55
30
0
11
92.544126
21
0.050002
31
0
39
0
210
0
220
0
230
1
0
LINE
5
10F
100
AcDbEntity
8
1
62
256
6
ByLayer
370
18
48
1
60
1
100
AcDbLine
10
92.544126
20
0.050002
30
0
11
91.622559
21
0.049998
31
0
39
0
210
0
220
0
230
1
0
LINE
5
110
100
AcDbEntity
8
1
62
256
6
ByLayer
370
18
48
1
60
1
100
AcDbLine
10
91.622559
20
0.049998
30
0
11
92.083343
21
3.55
31
0
39
0
210
0
220
0
230
1
0
LINE
5
112
100
AcDbEntity
8
1
62
256
6
ByLayer
370
18
48
1
60
1
100
AcDbLine
10
92.083343
20
-3.55
30
0
11
91.622559
21
-0.050002
31
0
39
0
210
0
220
0
230
1
0
LINE
5
113
100
AcDbEntity
8
1
62
256
6
ByLayer
370
18
48
1
60
1
100
AcDbLine
10
91.622559
20
-0.050002
30
0
11
92.544126
21
-0.049998
31
0
39
0
210
0
220
0
230
1
0
LINE
5
114
100
AcDbEntity
8
1
62
256
6
ByLayer
370
18
48
1
60
1
100
AcDbLine
10
92.544126
20
-0.049998
30
0
11
92.083343
21
-3.55
31
0
39
0
210
0
220
0
230
1
0
MTEXT
5
FE
100
AcDbEntity
8
SK6
62
256
6
ByLayer
370
13
48
1
60
0
100
AcDbMText
10
-5.85586
20
36.090328
30
0
210
0
220
0
230
1
1
\W0.7326;860.1-0710-064A1-PM P1BM
40
3.5
41
0
44
1.084337
50
0
71
7
72
5
7
iso_b_vert
0
MTEXT
5
102
100
AcDbEntity
8
SK2
62
256
6
ByLayer
370
18
48
1
60
0
100
AcDbMText
10
-46.189796
20
17.409024
30
0
210
0
220
0
230
1
1
%%c
40
3.5
41
0
44
1.084337
50
90
71
7
72
5
7
iso_b_vert
0
MTEXT
5
103
100
AcDbEntity
8
SK2
62
256
6
ByLayer
370
18
48
1
60
0
100
AcDbMText
10
-46.189796
20
22.63168
30
0
210
0
220
0
230
1
1
\W0.7317;8,000
40
3.5
41
0
44
1.084337
50
90
71
7
72
5
7
iso_b_vert
0
MTEXT
5
10C
100
AcDbEntity
8
2
62
256
6
ByLayer
370
18
48
1
60
0
100
AcDbMText
10
90.518709
20
15.55211
30
0
210
0
220
0
230
1
1
%%c
40
3.5
41
0
44
1.084337
50
90
71
7
72
5
7
iso_b_vert
0
MTEXT
5
10D
100
AcDbEntity
8
2
62
256
6
ByLayer
370
18
48
1
60
0
100
AcDbMText
10
90.518709
20
20.774766
30
0
210
0
220
0
230
1
1
\W0.6713;7,100
40
3.5
41
0
44
1.084337
50
90
71
7
72
5
7
iso_b_vert
0
HATCH
5
107
100
AcDbEntity
8
SK2
62
256
6
ByLayer
370
13
48
1
60
0
100
AcDbHatch
10
0
20
0
30
0
210
0
220
0
230
1
2
ANSI31
70
0
71
0
91
1
92
5
93
3
72
1
10
-44.6251625675374
20
4
11
-44.1643788259847
21
0.500001692553184
72
1
10
-44.1643788259847
20
0.500001692553184
11
-45.0859463090902
21
0.499998307446816
72
1
10
-45.0859463090902
20
0.499998307446816
11
-44.6251625675374
21
4
97
0
75
0
76
1
52
0
41
0.0062
77
0
78
1
53
45
43
0
44
0
45
-0.0139193969876572
46
0.0139193969876572
79
0
47
0
98
1
10
0
20
0
0
HATCH
5
10B
100
AcDbEntity
8
SK2
62
256
6
ByLayer
370
13
48
1
60
0
100
AcDbHatch
10
0
20
0
30
0
210
0
220
0
230
1
2
ANSI31
70
0
71
0
91
1
92
5
93
3
72
1
10
-44.6251625675374
20
-4
11
-45.0859463090902
21
-0.500001692553184
72
1
10
-45.0859463090902
20
-0.500001692553184
11
-44.1643788259847
21
-0.499998307446816
72
1
10
-44.1643788259847
20
-0.499998307446816
11
-44.6251625675374
21
-4
97
0
75
0
76
1
52
0
41
0.0062
77
0
78
1
53
45
43
0
44
0
45
-0.0139193969876572
46
0.0139193969876572
79
0
47
0
98
1
10
0
20
0
0
HATCH
5
111
100
AcDbEntity
8
2
62
256
6
ByLayer
370
13
48
1
60
0
100
AcDbHatch
10
0
20
0
30
0
210
0
220
0
230
1
2
ANSI31
70
0
71
0
91
1
92
5
93
3
72
1
10
92.083342615295
20
3.55000000000001
11
92.5441263568478
21
0.0500016925531952
72
1
10
92.5441263568478
20
0.0500016925531952
11
91.6225588737423
21
0.0499983074468275
72
1
10
91.6225588737423
20
0.0499983074468275
11
92.083342615295
21
3.55000000000001
97
0
75
0
76
1
52
0
41
0.0062
77
0
78
1
53
45
43
0
44
0
45
-0.0139193969876572
46
0.0139193969876572
79
0
47
0
98
1
10
0
20
0
0
HATCH
5
115
100
AcDbEntity
8
2
62
256
6
ByLayer
370
13
48
1
60
0
100
AcDbHatch
10
0
20
0
30
0
210
0
220
0
230
1
2
ANSI31
70
0
71
0
91
1
92
5
93
3
72
1
10
92.083342615295
20
-3.54999999999998
11
91.6225588737423
21
-0.0500016925531668
72
1
10
91.6225588737423
20
-0.0500016925531668
11
92.5441263568478
21
-0.0499983074467991
72
1
10
92.5441263568478
20
-0.0499983074467991
11
92.083342615295
21
-3.54999999999998
97
0
75
0
76
1
52
0
41
0.0062
77
0
78
1
53
45
43
0
44
0
45
-0.0139193969876572
46
0.0139193969876572
79
0
47
0
98
1
10
0
20
0
0
DIMENSION
5
117
100
AcDbEntity
8
2
62
256
6
ByLayer
370
13
48
1
60
0
100
AcDbDimension
2
_U0
10
78.6414
20
-13.763398
30
0
11
39.3207
21
-13.763398
31
0
70
32
71
1
72
1
41
1
210
0
220
0
230
1
3
Standard
100
AcDbAlignedDimension
13
0
23
0
33
0
14
78.6414
24
-3.55
34
0
50
0
100
AcDbRotatedDimension
1001
ACAD
1000
DSTYLE
1002
{
1070
   371
1070
    13
1070
   372
1070
    13
1070
   170
1070
     0
1070
   144
1040
1.0
1070
   277
1070
     2
1070
   278
1070
    44
1070
   146
1040
1.0
1070
   345
1005
16
1070
   347
1005
16
1070
   346
1005
16
1070
   344
1005
0
1070
   343
1005
0
1070
   172
1070
     1
1070
    76
1070
     0
1070
    75
1070
     0
1070
   282
1070
     0
1070
   281
1070
     0
1070
    71
1070
     0
1070
    74
1070
     0
1070
   279
1070
     0
1070
   173
1070
     1
1070
   340
1005
FF
1070
   271
1070
     2
1070
   272
1070
     2
1070
    77
1070
     1
1070
    73
1070
     1
1070
   171
1070
     3
1070
   274
1070
     4
1070
   177
1070
    35
1070
   176
1070
    35
1070
   178
1070
    35
1070
    48
1040
-0.1
1070
    41
1040
3.5
1070
   147
1040
1.75
1070
    42
1040
1.5875
1070
    44
1040
2.0
1070
   140
1040
3.5
1002
}
1001
ACAD_DSTYLE_DIM_LINETYPE
1070
   380
1005
16
1001
ACAD_DSTYLE_DIM_EXT1_LINETYPE
1070
   381
1005
16
1001
ACAD_DSTYLE_DIM_EXT2_LINETYPE
1070
   382
1005
16
0
DIMENSION
5
130
100
AcDbEntity
8
SK2
62
256
6
ByLayer
370
13
48
1
60
0
100
AcDbDimension
2
_U1
10
80
20
-32.692985
30
0
11
22
21
-32.692985
31
0
70
32
71
1
72
1
41
1
210
0
220
0
230
1
3
Standard
100
AcDbAlignedDimension
13
-36
23
-4
33
0
14
80
24
0
34
0
50
0
100
AcDbRotatedDimension
1001
ACAD
1000
DSTYLE
1002
{
1070
   371
1070
    13
1070
   372
1070
    13
1070
   170
1070
     0
1070
   144
1040
1.0
1070
   277
1070
     2
1070
   278
1070
    44
1070
   146
1040
1.0
1070
   345
1005
16
1070
   347
1005
16
1070
   346
1005
16
1070
   344
1005
0
1070
   343
1005
0
1070
   172
1070
     1
1070
    76
1070
     0
1070
    75
1070
     0
1070
   282
1070
     0
1070
   281
1070
     0
1070
    71
1070
     0
1070
    74
1070
     0
1070
   279
1070
     0
1070
   173
1070
     1
1070
   340
1005
FF
1070
   271
1070
     2
1070
   272
1070
     2
1070
    77
1070
     1
1070
    73
1070
     1
1070
   171
1070
     3
1070
   274
1070
     4
1070
   177
1070
    35
1070
   176
1070
    35
1070
   178
1070
    35
1070
    48
1040
-0.1
1070
    41
1040
3.5
1070
   147
1040
1.75
1070
    42
1040
1.5875
1070
    44
1040
2.0
1070
   140
1040
3.5
1002
}
1001
ACAD_DSTYLE_DIM_LINETYPE
1070
   380
1005
16
1001
ACAD_DSTYLE_DIM_EXT1_LINETYPE
1070
   381
1005
16
1001
ACAD_DSTYLE_DIM_EXT2_LINETYPE
1070
   382
1005
16
0
DIMENSION
5
148
100
AcDbEntity
8
SK2
62
256
6
ByLayer
370
13
48
1
60
0
100
AcDbDimension
2
_U2
10
80
20
15.159119
30
0
11
50.92
21
15.159119
31
0
70
32
71
1
72
1
41
1
210
0
220
0
230
1
3
Standard
100
AcDbAlignedDimension
13
21.84
23
3.55
33
0
14
80
24
0
34
0
50
0
100
AcDbRotatedDimension
1001
ACAD
1000
DSTYLE
1002
{
1070
   371
1070
    13
1070
   372
1070
    13
1070
   170
1070
     0
1070
   144
1040
1.0
1070
   277
1070
     2
1070
   278
1070
    44
1070
   146
1040
1.0
1070
   345
1005
16
1070
   347
1005
16
1070
   346
1005
16
1070
   344
1005
0
1070
   343
1005
0
1070
   172
1070
     1
1070
    76
1070
     0
1070
    75
1070
     0
1070
   282
1070
     0
1070
   281
1070
     0
1070
    71
1070
     0
1070
    74
1070
     0
1070
   279
1070
     0
1070
   173
1070
     1
1070
   340
1005
FF
1070
   271
1070
     2
1070
   272
1070
     2
1070
    77
1070
     1
1070
    73
1070
     1
1070
   171
1070
     3
1070
   274
1070
     4
1070
   177
1070
    35
1070
   176
1070
    35
1070
   178
1070
    35
1070
    48
1040
-0.1
1070
    41
1040
3.5
1070
   147
1040
1.75
1070
    42
1040
1.5875
1070
    44
1040
2.0
1070
   140
1040
3.5
1002
}
1001
ACAD_DSTYLE_DIM_LINETYPE
1070
   380
1005
16
1001
ACAD_DSTYLE_DIM_EXT1_LINETYPE
1070
   381
1005
16
1001
ACAD_DSTYLE_DIM_EXT2_LINETYPE
1070
   382
1005
16
0
DIMENSION
5
160
100
AcDbEntity
8
SK2
62
256
6
ByLayer
370
13
48
1
60
0
100
AcDbDimension
2
_U3
10
78.6414
20
-16.352503
30
0
11
97.333333
21
-16.352503
31
0
70
32
71
1
72
1
41
1
210
0
220
0
230
1
3
Standard
100
AcDbAlignedDimension
13
80
23
0
33
0
14
78.6414
24
-3.55
34
0
50
0
100
AcDbRotatedDimension
1001
ACAD
1000
DSTYLE
1002
{
1070
   371
1070
    13
1070
   372
1070
    13
1070
   170
1070
     0
1070
   144
1040
1.0
1070
   277
1070
     2
1070
   278
1070
    44
1070
   146
1040
1.0
1070
   345
1005
16
1070
   347
1005
16
1070
   346
1005
16
1070
   344
1005
0
1070
   343
1005
0
1070
   172
1070
     1
1070
    76
1070
     0
1070
    75
1070
     0
1070
   282
1070
     0
1070
   281
1070
     0
1070
    71
1070
     0
1070
    74
1070
     0
1070
   279
1070
     0
1070
   173
1070
     1
1070
   340
1005
FF
1070
   271
1070
     2
1070
   272
1070
     2
1070
    77
1070
     1
1070
    73
1070
     1
1070
   171
1070
     3
1070
   274
1070
     4
1070
   177
1070
    35
1070
   176
1070
    35
1070
   178
1070
    35
1070
    48
1040
-0.1
1070
    41
1040
3.5
1070
   147
1040
1.75
1070
    42
1040
1.5875
1070
    44
1040
2.0
1070
   140
1040
3.5
1002
}
1001
ACAD_DSTYLE_DIM_LINETYPE
1070
   380
1005
16
1001
ACAD_DSTYLE_DIM_EXT1_LINETYPE
1070
   381
1005
16
1001
ACAD_DSTYLE_DIM_EXT2_LINETYPE
1070
   382
1005
16
0
DIMENSION
5
17A
100
AcDbEntity
8
SK2
62
256
6
ByLayer
370
13
48
1
60
0
100
AcDbDimension
2
_U4
10
78.6414
20
-22.343428
30
0
11
21.3207
21
-22.343428
31
0
70
32
71
1
72
1
41
1
210
0
220
0
230
1
3
Standard
100
AcDbAlignedDimension
13
-36
23
-4
33
0
14
78.6414
24
-3.55
34
0
50
0
100
AcDbRotatedDimension
1001
ACAD
1000
DSTYLE
1002
{
1070
   371
1070
    13
1070
   372
1070
    13
1070
   170
1070
     0
1070
   144
1040
1.0
1070
   277
1070
     2
1070
   278
1070
    44
1070
   146
1040
1.0
1070
   345
1005
16
1070
   347
1005
16
1070
   346
1005
16
1070
   344
1005
0
1070
   343
1005
0
1070
   172
1070
     1
1070
    76
1070
     0
1070
    75
1070
     0
1070
   282
1070
     0
1070
   281
1070
     0
1070
    71
1070
     0
1070
    74
1070
     0
1070
   279
1070
     0
1070
   173
1070
     1
1070
   340
1005
FF
1070
   271
1070
     2
1070
   272
1070
     2
1070
    77
1070
     1
1070
    73
1070
     1
1070
   171
1070
     3
1070
   274
1070
     4
1070
   177
1070
    35
1070
   176
1070
    35
1070
   178
1070
    35
1070
    48
1040
-0.1
1070
    41
1040
3.5
1070
   147
1040
1.75
1070
    42
1040
1.5875
1070
    44
1040
2.0
1070
   140
1040
3.5
1002
}
1001
ACAD_DSTYLE_DIM_LINETYPE
1070
   380
1005
16
1001
ACAD_DSTYLE_DIM_EXT1_LINETYPE
1070
   381
1005
16
1001
ACAD_DSTYLE_DIM_EXT2_LINETYPE
1070
   382
1005
16
0
ENDSEC
0
SECTION
2
OBJECTS
0
DICTIONARY
5
202
330
0
100
AcDbDictionary
280
0
281
1
3
ACAD_GROUP
350
203
3
ACAD_MLINESTYLE
350
204
0
DICTIONARY
5
203
330
0
100
AcDbDictionary
280
0
281
1
0
DICTIONARY
5
204
330
0
100
AcDbDictionary
280
0
281
1
3
Standard
350
18
0
MLINESTYLE
5
18
330
204
100
AcDbMlineStyle
2
Standard
70
0
3

62
256
51
90
52
90
71
2
49
-0.5
62
256
6
ByLayer
49
0.5
62
256
6
ByLayer
0
RASTERVARIABLES
5
1f0
330

100
AcDbRasterVariables
90
0
70
1
71
1
72
1
0
ENDSEC
0
EOF
