0
SECTION
2
HEADER
9
$ACADVER
1
AC1015
9
$DWGCODEPAGE
3
ANSI_1252
9
$HANDSEED
5
207
9
$ANGBASE
50
0
9
$ANGDIR
70
0
9
$ATTMODE
70
1
9
$AUNITS
70
0
9
$AUPREC
70
0
9
$CECOLOR
62
256
9
$CELTSCALE
40
1
9
$CELTYPE
6
ByLayer
9
$CELWEIGHT
370
18
9
$CLAYER
8
0
9
$CMLJUST
70
0
9
$CMLSCALE
40
1
9
$CMLSTYLE
2
Standard
9
$DIMSTYLE
2
Standard
9
$TEXTSIZE
40
0.2
9
$TEXTSTYLE
7
Standard
9
$LUNITS
70
2
9
$LUPREC
70
4
9
$EXTNAMES
290
1
9
$INSUNITS
70
4
9
$LTSCALE
40
1
9
$LWDISPLAY
290
1
9
$PDMODE
70
0
9
$PDSIZE
40
0
9
$PLINEGEN
70
0
0
ENDSEC
0
SECTION
2
CLASSES
0
CLASS
1
RASTERVARIABLES
2
AcDbRasterVariables
3
ISM
90
0
280
0
281
0
0
ENDSEC
0
SECTION
2
TABLES
0
TABLE
2
VPORT
5
1fd
100
AcDbSymbolTable
0
VPORT
5
1
100
AcDbSymbolTableRecord
100
AcDbViewportTableRecord
2
*Active
70
0
10
0
20
0
11
1
21
1
12
-1
22
1
13
0
23
0
14
0.5
24
0.5
15
10
25
10
16
0
26
0
36
1
17
0
27
0
37
0
0
ENDTAB
0
TABLE
2
LTYPE
5
1fe
100
AcDbSymbolTable
0
LTYPE
5
14
100
AcDbSymbolTableRecord
100
AcDbLinetypeTableRecord
70
0
2
ByBlock
3

72
65
73
0
40
0
0
LTYPE
5
15
100
AcDbSymbolTableRecord
100
AcDbLinetypeTableRecord
70
0
2
ByLayer
3

72
65
73
0
40
0
0
LTYPE
5
16
100
AcDbSymbolTableRecord
100
AcDbLinetypeTableRecord
70
0
2
Continuous
3
Solid line
72
65
73
0
40
0
0
LTYPE
5
6E
100
AcDbSymbolTableRecord
100
AcDbLinetypeTableRecord
70
0
2
CENTER
3
____ _ ____ _ ____ _ ____
72
65
73
4
40
47.5
49
22
74
0
49
-8.5
74
0
49
8.5
74
0
49
-8.5
74
0
0
LTYPE
5
6F
100
AcDbSymbolTableRecord
100
AcDbLinetypeTableRecord
70
0
2
DASHED
3
__ __ __ __ __ __ __ __ __
72
65
73
2
40
25.72
49
12.86
74
0
49
-12.86
74
0
0
ENDTAB
0
TABLE
2
LAYER
5
1ff
100
AcDbSymbolTable
0
LAYER
5
10
100
AcDbSymbolTableRecord
100
AcDbLayerTableRecord
2
0
70
0
62
7
6
Continuous
290
1
370
-3
390
0
0
LAYER
5
71
100
AcDbSymbolTableRecord
100
AcDbLayerTableRecord
2
80
70
0
62
-6
6
Continuous
290
1
370
-3
390
0
0
LAYER
5
73
100
AcDbSymbolTableRecord
100
AcDbLayerTableRecord
2
81
70
0
62
-3
6
Continuous
290
1
370
-3
390
0
0
LAYER
5
75
100
AcDbSymbolTableRecord
100
AcDbLayerTableRecord
2
1
70
0
62
4
6
Continuous
290
1
370
-3
390
0
0
LAYER
5
86
100
AcDbSymbolTableRecord
100
AcDbLayerTableRecord
2
4
70
0
62
-2
6
CENTER
290
1
370
-3
390
0
0
LAYER
5
9F
100
AcDbSymbolTableRecord
100
AcDbLayerTableRecord
2
2
70
0
62
7
6
Continuous
290
1
370
-3
390
0
0
LAYER
5
112
100
AcDbSymbolTableRecord
100
AcDbLayerTableRecord
2
Defpoints
70
0
62
7
6
Continuous
290
0
370
-3
390
0
0
LAYER
5
1e9
100
AcDbSymbolTableRecord
100
AcDbLayerTableRecord
2
SK1
70
0
62
4
6
Continuous
290
1
370
-3
390
0
0
LAYER
5
1ea
100
AcDbSymbolTableRecord
100
AcDbLayerTableRecord
2
SK4
70
0
62
2
6
CENTER
290
1
370
-3
390
0
0
LAYER
5
1eb
100
AcDbSymbolTableRecord
100
AcDbLayerTableRecord
2
SK2
70
0
62
7
6
Continuous
290
1
370
-3
390
0
0
LAYER
5
1ec
100
AcDbSymbolTableRecord
100
AcDbLayerTableRecord
2
SK6
70
0
62
5
6
Continuous
290
1
370
-3
390
0
0
ENDTAB
0
TABLE
2
STYLE
5
200
100
AcDbSymbolTable
0
STYLE
5
11
100
AcDbSymbolTableRecord
100
AcDbTextStyleTableRecord
2
Standard
3
txt
70
0
71
0
40
0
41
1
42
0
50
0
0
STYLE
5
F7
100
AcDbSymbolTableRecord
100
AcDbTextStyleTableRecord
2
iso_b_vert
3
simplex.shx
70
0
71
0
40
0
41
1
42
0
50
0
0
STYLE
5
F8
100
AcDbSymbolTableRecord
100
AcDbTextStyleTableRecord
2
DWGDirectTextStyle
3
simplex
70
0
71
0
40
0
41
1
42
0
50
0
0
ENDTAB
0
TABLE
2
DIMSTYLE
5
201
100
AcDbSymbolTable
100
AcDbDimStyleTable
0
DIMSTYLE
105
27
100
AcDbSymbolTableRecord
100
AcDbDimStyleTableRecord
2
Standard
70
0
3
<>
41
0.18
42
0.0625
44
0.18
140
0.18
147
0.09
73
0
74
0
77
1
271
2
275
0
278
52
280
0
340
11
0
ENDTAB
0
TABLE
2
VIEW
5
202
100
AcDbSymbolTable
0
ENDTAB
0
TABLE
2
UCS
5
203
100
AcDbSymbolTable
0
ENDTAB
0
TABLE
2
APPID
5
204
100
AcDbSymbolTable
0
APPID
5
12
100
AcDbSymbolTableRecord
100
AcDbRegAppTableRecord
2
ACAD
70
0
0
APPID
5
10E
100
AcDbSymbolTableRecord
100
AcDbRegAppTableRecord
2
ACAD_DSTYLE_DIMBREAK
70
0
0
APPID
5
1A8
100
AcDbSymbolTableRecord
100
AcDbRegAppTableRecord
2
ACAD_DSTYLE_DIM_LINETYPE
70
0
0
APPID
5
1A9
100
AcDbSymbolTableRecord
100
AcDbRegAppTableRecord
2
ACAD_DSTYLE_DIM_EXT1_LINETYPE
70
0
0
APPID
5
1AA
100
AcDbSymbolTableRecord
100
AcDbRegAppTableRecord
2
ACAD_DSTYLE_DIM_EXT2_LINETYPE
70
0
0
APPID
5
1E5
100
AcDbSymbolTableRecord
100
AcDbRegAppTableRecord
2
ACAD_MLEADERVER
70
0
0
ENDTAB
0
TABLE
2
BLOCK_RECORD
5
205
100
AcDbSymbolTable
0
BLOCK_RECORD
5
1F
100
AcDbSymbolTableRecord
100
AcDbBlockTableRecord
2
*Model_Space
340
0
70
0
0
BLOCK_RECORD
5
1B
100
AcDbSymbolTableRecord
100
AcDbBlockTableRecord
2
*Paper_Space
340
0
70
0
0
BLOCK_RECORD
5
23
100
AcDbSymbolTableRecord
100
AcDbBlockTableRecord
2
*Paper_Space0
340
0
70
0
0
BLOCK_RECORD
5
113
100
AcDbSymbolTableRecord
100
AcDbBlockTableRecord
2
*D1
340
0
70
0
0
BLOCK_RECORD
5
11F
100
AcDbSymbolTableRecord
100
AcDbBlockTableRecord
2
_U0
340
0
70
0
0
BLOCK_RECORD
5
12B
100
AcDbSymbolTableRecord
100
AcDbBlockTableRecord
2
*D3
340
0
70
0
0
BLOCK_RECORD
5
137
100
AcDbSymbolTableRecord
100
AcDbBlockTableRecord
2
_U1
340
0
70
0
0
BLOCK_RECORD
5
143
100
AcDbSymbolTableRecord
100
AcDbBlockTableRecord
2
*D5
340
0
70
0
0
BLOCK_RECORD
5
14F
100
AcDbSymbolTableRecord
100
AcDbBlockTableRecord
2
_U2
340
0
70
0
0
BLOCK_RECORD
5
15B
100
AcDbSymbolTableRecord
100
AcDbBlockTableRecord
2
*D7
340
0
70
0
0
BLOCK_RECORD
5
169
100
AcDbSymbolTableRecord
100
AcDbBlockTableRecord
2
_U3
340
0
70
0
0
BLOCK_RECORD
5
175
100
AcDbSymbolTableRecord
100
AcDbBlockTableRecord
2
*D9
340
0
70
0
0
BLOCK_RECORD
5
181
100
AcDbSymbolTableRecord
100
AcDbBlockTableRecord
2
_U4
340
0
70
0
0
ENDTAB
0
ENDSEC
0
SECTION
2
BLOCKS
0
BLOCK
5
20
100
AcDbEntity
8
0
100
AcDbBlockBegin
2
*Model_Space
70
0
10
0
20
0
30
0
3
*Model_Space
0
ENDBLK
5
21
100
AcDbEntity
8
0
100
AcDbBlockEnd
0
BLOCK
5
1C
100
AcDbEntity
8
0
100
AcDbBlockBegin
2
*Paper_Space
70
0
10
0
20
0
30
0
3
*Paper_Space
0
ENDBLK
5
1D
100
AcDbEntity
8
0
100
AcDbBlockEnd
0
BLOCK
5
24
100
AcDbEntity
8
0
100
AcDbBlockBegin
2
*Paper_Space0
70
0
10
0
20
0
30
0
3
*Paper_Space0
0
ENDBLK
5
25
100
AcDbEntity
8
0
100
AcDbBlockEnd
0
BLOCK
5
114
100
AcDbEntity
8
0
100
AcDbBlockBegin
2
*D1
70
1
10
0
20
0
30
0
3
*D1
0
LINE
5
116
100
AcDbEntity
8
0
62
256
6
ByLayer
370
-2
48
1
60
0
100
AcDbLine
10
0
20
-1.5875
30
0
11
0
21
-15.713398
31
0
39
0
210
0
220
0
230
1
0
LINE
5
117
100
AcDbEntity
8
0
62
256
6
ByLayer
370
-2
48
1
60
0
100
AcDbLine
10
68.6588
20
-5.0875
30
0
11
68.6588
21
-15.713398
31
0
39
0
210
0
220
0
230
1
0
LINE
5
118
100
AcDbEntity
8
0
62
256
6
ByLayer
370
-2
48
1
60
0
100
AcDbLine
10
3.5
20
-13.713398
30
0
11
65.1588
21
-13.713398
31
0
39
0
210
0
220
0
230
1
0
SOLID
5
119
100
AcDbEntity
8
0
62
256
6
ByLayer
370
-1
48
1
60
0
100
AcDbTrace
10
3.5
20
-13.130065
30
0
11
3.5
21
-14.296732
31
0
12
0
22
-13.713398
32
0
13
0
23
-13.713398
33
0
39
0
210
0
220
0
230
1
0
SOLID
5
11A
100
AcDbEntity
8
0
62
256
6
ByLayer
370
-1
48
1
60
0
100
AcDbTrace
10
65.1588
20
-14.296732
30
0
11
65.1588
21
-13.130065
31
0
12
68.6588
22
-13.713398
32
0
13
68.6588
23
-13.713398
33
0
39
0
210
0
220
0
230
1
0
MTEXT
5
11B
100
AcDbEntity
8
0
62
256
6
ByLayer
370
18
48
1
60
0
100
AcDbMText
10
34.3294
20
-6.713398
30
0
210
0
220
0
230
1
1
\A1;68.66
40
3.5
41
0
44
1
50
0
71
5
72
5
7
iso_b_vert
0
POINT
5
11C
100
AcDbEntity
8
Defpoints
62
0
6
ByLayer
370
-1
48
1
60
0
100
AcDbPoint
10
0
20
0
30
0
39
0
210
0
220
0
230
1
50
360
0
POINT
5
11D
100
AcDbEntity
8
Defpoints
62
0
6
ByLayer
370
-1
48
1
60
0
100
AcDbPoint
10
68.6588
20
-3.5
30
0
39
0
210
0
220
0
230
1
50
360
0
POINT
5
11E
100
AcDbEntity
8
Defpoints
62
0
6
ByLayer
370
-1
48
1
60
0
100
AcDbPoint
10
68.6588
20
-13.713398
30
0
39
0
210
0
220
0
230
1
50
360
0
ENDBLK
5
115
100
AcDbEntity
8
0
100
AcDbBlockEnd
0
BLOCK
5
126
100
AcDbEntity
8
0
100
AcDbBlockBegin
2
_U0
70
0
10
0
20
0
30
0
3
_U0
0
MTEXT
5
120
100
AcDbEntity
8
2
62
256
6
ByLayer
370
13
48
1
60
0
100
AcDbMText
10
29.192101
20
-12.680765
30
0
210
0
220
0
230
1
1
\W0.7317;68,66
40
3.5
41
0
44
1.084337
50
0
71
7
72
5
7
iso_b_vert
0
LINE
5
121
100
AcDbEntity
8
2
62
256
6
ByLayer
370
13
48
1
60
0
100
AcDbLine
10
0
20
-1.5875
30
0
11
0
21
-15.713398
31
0
39
0
210
0
220
0
230
1
0
LINE
5
122
100
AcDbEntity
8
2
62
256
6
ByLayer
370
13
48
1
60
0
100
AcDbLine
10
68.6588
20
-5.0875
30
0
11
68.6588
21
-15.713398
31
0
39
0
210
0
220
0
230
1
0
LINE
5
123
100
AcDbEntity
8
2
62
256
6
ByLayer
370
13
48
1
60
0
100
AcDbLine
10
0
20
-13.713398
30
0
11
68.6588
21
-13.713398
31
0
39
0
210
0
220
0
230
1
0
SOLID
5
124
100
AcDbEntity
8
2
62
256
6
ByLayer
370
18
48
1
60
0
100
AcDbTrace
10
0
20
-13.713398
30
0
11
3.499998
21
-13.252615
31
0
12
3.500002
22
-14.174182
32
0
13
3.500002
23
-14.174182
33
0
39
0
210
0
220
0
230
1
0
SOLID
5
125
100
AcDbEntity
8
2
62
256
6
ByLayer
370
18
48
1
60
0
100
AcDbTrace
10
68.6588
20
-13.713398
30
0
11
65.158802
21
-14.174182
31
0
12
65.158798
22
-13.252615
32
0
13
65.158798
23
-13.252615
33
0
39
0
210
0
220
0
230
1
0
ENDBLK
5
127
100
AcDbEntity
8
0
100
AcDbBlockEnd
0
BLOCK
5
12C
100
AcDbEntity
8
0
100
AcDbBlockBegin
2
*D3
70
1
10
0
20
0
30
0
3
*D3
0
LINE
5
12E
100
AcDbEntity
8
0
62
256
6
ByLayer
370
-2
48
1
60
0
100
AcDbLine
10
-36
20
-5.5875
30
0
11
-36
21
-34.692985
31
0
39
0
210
0
220
0
230
1
0
LINE
5
12F
100
AcDbEntity
8
0
62
256
6
ByLayer
370
-2
48
1
60
0
100
AcDbLine
10
70
20
-1.5875
30
0
11
70
21
-34.692985
31
0
39
0
210
0
220
0
230
1
0
LINE
5
130
100
AcDbEntity
8
0
62
256
6
ByLayer
370
-2
48
1
60
0
100
AcDbLine
10
-32.5
20
-32.692985
30
0
11
66.5
21
-32.692985
31
0
39
0
210
0
220
0
230
1
0
SOLID
5
131
100
AcDbEntity
8
0
62
256
6
ByLayer
370
-1
48
1
60
0
100
AcDbTrace
10
-32.5
20
-32.109652
30
0
11
-32.5
21
-33.276319
31
0
12
-36
22
-32.692985
32
0
13
-36
23
-32.692985
33
0
39
0
210
0
220
0
230
1
0
SOLID
5
132
100
AcDbEntity
8
0
62
256
6
ByLayer
370
-1
48
1
60
0
100
AcDbTrace
10
66.5
20
-33.276319
30
0
11
66.5
21
-32.109652
31
0
12
70
22
-32.692985
32
0
13
70
23
-32.692985
33
0
39
0
210
0
220
0
230
1
0
MTEXT
5
133
100
AcDbEntity
8
0
62
256
6
ByLayer
370
18
48
1
60
0
100
AcDbMText
10
17
20
-25.692985
30
0
210
0
220
0
230
1
1
\A1;106.00
40
3.5
41
0
44
1
50
0
71
5
72
5
7
iso_b_vert
0
POINT
5
134
100
AcDbEntity
8
Defpoints
62
0
6
ByLayer
370
-1
48
1
60
0
100
AcDbPoint
10
-36
20
-4
30
0
39
0
210
0
220
0
230
1
50
360
0
POINT
5
135
100
AcDbEntity
8
Defpoints
62
0
6
ByLayer
370
-1
48
1
60
0
100
AcDbPoint
10
70
20
0
30
0
39
0
210
0
220
0
230
1
50
360
0
POINT
5
136
100
AcDbEntity
8
Defpoints
62
0
6
ByLayer
370
-1
48
1
60
0
100
AcDbPoint
10
70
20
-32.692985
30
0
39
0
210
0
220
0
230
1
50
360
0
ENDBLK
5
12D
100
AcDbEntity
8
0
100
AcDbBlockEnd
0
BLOCK
5
13E
100
AcDbEntity
8
0
100
AcDbBlockBegin
2
_U1
70
0
10
0
20
0
30
0
3
_U1
0
MTEXT
5
138
100
AcDbEntity
8
SK2
62
256
6
ByLayer
370
13
48
1
60
0
100
AcDbMText
10
10.992401
20
-31.660352
30
0
210
0
220
0
230
1
1
\W0.6930;106,00
40
3.5
41
0
44
1.084337
50
0
71
7
72
5
7
iso_b_vert
0
LINE
5
139
100
AcDbEntity
8
SK2
62
256
6
ByLayer
370
13
48
1
60
0
100
AcDbLine
10
-36
20
-5.5875
30
0
11
-36
21
-34.692985
31
0
39
0
210
0
220
0
230
1
0
LINE
5
13A
100
AcDbEntity
8
SK2
62
256
6
ByLayer
370
13
48
1
60
0
100
AcDbLine
10
70
20
-1.5875
30
0
11
70
21
-34.692985
31
0
39
0
210
0
220
0
230
1
0
LINE
5
13B
100
AcDbEntity
8
SK2
62
256
6
ByLayer
370
13
48
1
60
0
100
AcDbLine
10
-36
20
-32.692985
30
0
11
70
21
-32.692985
31
0
39
0
210
0
220
0
230
1
0
SOLID
5
13C
100
AcDbEntity
8
SK2
62
256
6
ByLayer
370
18
48
1
60
0
100
AcDbTrace
10
-36
20
-32.692985
30
0
11
-32.500002
21
-32.232202
31
0
12
-32.499998
22
-33.153769
32
0
13
-32.499998
23
-33.153769
33
0
39
0
210
0
220
0
230
1
0
SOLID
5
13D
100
AcDbEntity
8
SK2
62
256
6
ByLayer
370
18
48
1
60
0
100
AcDbTrace
10
70
20
-32.692985
30
0
11
66.500002
21
-33.153769
31
0
12
66.499998
22
-32.232202
32
0
13
66.499998
23
-32.232202
33
0
39
0
210
0
220
0
230
1
0
ENDBLK
5
13F
100
AcDbEntity
8
0
100
AcDbBlockEnd
0
BLOCK
5
144
100
AcDbEntity
8
0
100
AcDbBlockBegin
2
*D5
70
1
10
0
20
0
30
0
3
*D5
0
LINE
5
146
100
AcDbEntity
8
0
62
256
6
ByLayer
370
-2
48
1
60
0
100
AcDbLine
10
12.66
20
5.0875
30
0
11
12.66
21
17.109119
31
0
39
0
210
0
220
0
230
1
0
LINE
5
147
100
AcDbEntity
8
0
62
256
6
ByLayer
370
-2
48
1
60
0
100
AcDbLine
10
70
20
1.5875
30
0
11
70
21
17.109119
31
0
39
0
210
0
220
0
230
1
0
LINE
5
148
100
AcDbEntity
8
0
62
256
6
ByLayer
370
-2
48
1
60
0
100
AcDbLine
10
16.16
20
15.109119
30
0
11
66.5
21
15.109119
31
0
39
0
210
0
220
0
230
1
0
SOLID
5
149
100
AcDbEntity
8
0
62
256
6
ByLayer
370
-1
48
1
60
0
100
AcDbTrace
10
16.16
20
15.692453
30
0
11
16.16
21
14.525786
31
0
12
12.66
22
15.109119
32
0
13
12.66
23
15.109119
33
0
39
0
210
0
220
0
230
1
0
SOLID
5
14A
100
AcDbEntity
8
0
62
256
6
ByLayer
370
-1
48
1
60
0
100
AcDbTrace
10
66.5
20
14.525786
30
0
11
66.5
21
15.692453
31
0
12
70
22
15.109119
32
0
13
70
23
15.109119
33
0
39
0
210
0
220
0
230
1
0
MTEXT
5
14B
100
AcDbEntity
8
0
62
256
6
ByLayer
370
18
48
1
60
0
100
AcDbMText
10
41.33
20
22.109119
30
0
210
0
220
0
230
1
1
\A1;57.34
40
3.5
41
0
44
1
50
0
71
5
72
5
7
iso_b_vert
0
POINT
5
14C
100
AcDbEntity
8
Defpoints
62
0
6
ByLayer
370
-1
48
1
60
0
100
AcDbPoint
10
12.66
20
3.5
30
0
39
0
210
0
220
0
230
1
50
360
0
POINT
5
14D
100
AcDbEntity
8
Defpoints
62
0
6
ByLayer
370
-1
48
1
60
0
100
AcDbPoint
10
70
20
0
30
0
39
0
210
0
220
0
230
1
50
360
0
POINT
5
14E
100
AcDbEntity
8
Defpoints
62
0
6
ByLayer
370
-1
48
1
60
0
100
AcDbPoint
10
70
20
15.109119
30
0
39
0
210
0
220
0
230
1
50
360
0
ENDBLK
5
145
100
AcDbEntity
8
0
100
AcDbBlockEnd
0
BLOCK
5
156
100
AcDbEntity
8
0
100
AcDbBlockBegin
2
_U2
70
0
10
0
20
0
30
0
3
_U2
0
MTEXT
5
150
100
AcDbEntity
8
SK2
62
256
6
ByLayer
370
13
48
1
60
0
100
AcDbMText
10
36.008435
20
16.141753
30
0
210
0
220
0
230
1
1
\W0.7495;57,34
40
3.5
41
0
44
1.084337
50
0
71
7
72
5
7
iso_b_vert
0
LINE
5
151
100
AcDbEntity
8
SK2
62
256
6
ByLayer
370
13
48
1
60
0
100
AcDbLine
10
12.66
20
5.0875
30
0
11
12.66
21
17.109119
31
0
39
0
210
0
220
0
230
1
0
LINE
5
152
100
AcDbEntity
8
SK2
62
256
6
ByLayer
370
13
48
1
60
0
100
AcDbLine
10
70
20
1.5875
30
0
11
70
21
17.109119
31
0
39
0
210
0
220
0
230
1
0
LINE
5
153
100
AcDbEntity
8
SK2
62
256
6
ByLayer
370
13
48
1
60
0
100
AcDbLine
10
12.66
20
15.109119
30
0
11
70
21
15.109119
31
0
39
0
210
0
220
0
230
1
0
SOLID
5
154
100
AcDbEntity
8
SK2
62
256
6
ByLayer
370
18
48
1
60
0
100
AcDbTrace
10
12.66
20
15.109119
30
0
11
16.159998
21
15.569903
31
0
12
16.160002
22
14.648335
32
0
13
16.160002
23
14.648335
33
0
39
0
210
0
220
0
230
1
0
SOLID
5
155
100
AcDbEntity
8
SK2
62
256
6
ByLayer
370
18
48
1
60
0
100
AcDbTrace
10
70
20
15.109119
30
0
11
66.500002
21
14.648335
31
0
12
66.499998
22
15.569903
32
0
13
66.499998
23
15.569903
33
0
39
0
210
0
220
0
230
1
0
ENDBLK
5
157
100
AcDbEntity
8
0
100
AcDbBlockEnd
0
BLOCK
5
15C
100
AcDbEntity
8
0
100
AcDbBlockBegin
2
*D7
70
1
10
0
20
0
30
0
3
*D7
0
LINE
5
15E
100
AcDbEntity
8
0
62
256
6
ByLayer
370
-2
48
1
60
0
100
AcDbLine
10
70
20
-1.5875
30
0
11
70
21
-18.302503
31
0
39
0
210
0
220
0
230
1
0
LINE
5
15F
100
AcDbEntity
8
0
62
256
6
ByLayer
370
-2
48
1
60
0
100
AcDbLine
10
68.6588
20
-5.0875
30
0
11
68.6588
21
-18.302503
31
0
39
0
210
0
220
0
230
1
0
LINE
5
160
100
AcDbEntity
8
0
62
256
6
ByLayer
370
-2
48
1
60
0
100
AcDbLine
10
70
20
-16.302503
30
0
11
97.833333
21
-16.302503
31
0
39
0
210
0
220
0
230
1
0
LINE
5
161
100
AcDbEntity
8
0
62
256
6
ByLayer
370
-2
48
1
60
0
100
AcDbLine
10
73.5
20
-16.302503
30
0
11
77
21
-16.302503
31
0
39
0
210
0
220
0
230
1
0
LINE
5
162
100
AcDbEntity
8
0
62
256
6
ByLayer
370
-2
48
1
60
0
100
AcDbLine
10
65.1588
20
-16.302503
30
0
11
61.6588
21
-16.302503
31
0
39
0
210
0
220
0
230
1
0
SOLID
5
163
100
AcDbEntity
8
0
62
256
6
ByLayer
370
-1
48
1
60
0
100
AcDbTrace
10
73.5
20
-15.71917
30
0
11
73.5
21
-16.885837
31
0
12
70
22
-16.302503
32
0
13
70
23
-16.302503
33
0
39
0
210
0
220
0
230
1
0
SOLID
5
164
100
AcDbEntity
8
0
62
256
6
ByLayer
370
-1
48
1
60
0
100
AcDbTrace
10
65.1588
20
-16.885837
30
0
11
65.1588
21
-15.71917
31
0
12
68.6588
22
-16.302503
32
0
13
68.6588
23
-16.302503
33
0
39
0
210
0
220
0
230
1
0
MTEXT
5
165
100
AcDbEntity
8
0
62
256
6
ByLayer
370
18
48
1
60
0
100
AcDbMText
10
87.416667
20
-9.302503
30
0
210
0
220
0
230
1
1
\A1;1.34
40
3.5
41
0
44
1
50
0
71
5
72
5
7
iso_b_vert
0
POINT
5
166
100
AcDbEntity
8
Defpoints
62
0
6
ByLayer
370
-1
48
1
60
0
100
AcDbPoint
10
70
20
0
30
0
39
0
210
0
220
0
230
1
50
360
0
POINT
5
167
100
AcDbEntity
8
Defpoints
62
0
6
ByLayer
370
-1
48
1
60
0
100
AcDbPoint
10
68.6588
20
-3.5
30
0
39
0
210
0
220
0
230
1
50
360
0
POINT
5
168
100
AcDbEntity
8
Defpoints
62
0
6
ByLayer
370
-1
48
1
60
0
100
AcDbPoint
10
68.6588
20
-16.302503
30
0
39
0
210
0
220
0
230
1
50
360
0
ENDBLK
5
15D
100
AcDbEntity
8
0
100
AcDbBlockEnd
0
BLOCK
5
170
100
AcDbEntity
8
0
100
AcDbBlockBegin
2
_U3
70
0
10
0
20
0
30
0
3
_U3
0
MTEXT
5
16A
100
AcDbEntity
8
SK2
62
256
6
ByLayer
370
13
48
1
60
0
100
AcDbMText
10
76.405026
20
-15.26987
30
0
210
0
220
0
230
1
1
\W0.6611;1,34
40
3.5
41
0
44
1.084337
50
0
71
7
72
5
7
iso_b_vert
0
LINE
5
16B
100
AcDbEntity
8
SK2
62
256
6
ByLayer
370
13
48
1
60
0
100
AcDbLine
10
70
20
-1.5875
30
0
11
70
21
-18.302503
31
0
39
0
210
0
220
0
230
1
0
LINE
5
16C
100
AcDbEntity
8
SK2
62
256
6
ByLayer
370
13
48
1
60
0
100
AcDbLine
10
68.6588
20
-5.0875
30
0
11
68.6588
21
-18.302503
31
0
39
0
210
0
220
0
230
1
0
LINE
5
16D
100
AcDbEntity
8
SK2
62
256
6
ByLayer
370
13
48
1
60
0
100
AcDbLine
10
59.9088
20
-16.302503
30
0
11
83.743324
21
-16.302503
31
0
39
0
210
0
220
0
230
1
0
SOLID
5
16E
100
AcDbEntity
8
SK2
62
256
6
ByLayer
370
18
48
1
60
0
100
AcDbTrace
10
70
20
-16.302503
30
0
11
73.499998
21
-15.841719
31
0
12
73.500002
22
-16.763287
32
0
13
73.500002
23
-16.763287
33
0
39
0
210
0
220
0
230
1
0
SOLID
5
16F
100
AcDbEntity
8
SK2
62
256
6
ByLayer
370
18
48
1
60
0
100
AcDbTrace
10
68.6588
20
-16.302503
30
0
11
65.158802
21
-16.763287
31
0
12
65.158798
22
-15.841719
32
0
13
65.158798
23
-15.841719
33
0
39
0
210
0
220
0
230
1
0
ENDBLK
5
171
100
AcDbEntity
8
0
100
AcDbBlockEnd
0
BLOCK
5
176
100
AcDbEntity
8
0
100
AcDbBlockBegin
2
*D9
70
1
10
0
20
0
30
0
3
*D9
0
LINE
5
178
100
AcDbEntity
8
0
62
256
6
ByLayer
370
-2
48
1
60
0
100
AcDbLine
10
-36
20
-5.5875
30
0
11
-36
21
-24.343428
31
0
39
0
210
0
220
0
230
1
0
LINE
5
179
100
AcDbEntity
8
0
62
256
6
ByLayer
370
-2
48
1
60
0
100
AcDbLine
10
68.6588
20
-5.0875
30
0
11
68.6588
21
-24.343428
31
0
39
0
210
0
220
0
230
1
0
LINE
5
17A
100
AcDbEntity
8
0
62
256
6
ByLayer
370
-2
48
1
60
0
100
AcDbLine
10
-32.5
20
-22.343428
30
0
11
65.1588
21
-22.343428
31
0
39
0
210
0
220
0
230
1
0
SOLID
5
17B
100
AcDbEntity
8
0
62
256
6
ByLayer
370
-1
48
1
60
0
100
AcDbTrace
10
-32.5
20
-21.760095
30
0
11
-32.5
21
-22.926762
31
0
12
-36
22
-22.343428
32
0
13
-36
23
-22.343428
33
0
39
0
210
0
220
0
230
1
0
SOLID
5
17C
100
AcDbEntity
8
0
62
256
6
ByLayer
370
-1
48
1
60
0
100
AcDbTrace
10
65.1588
20
-22.926762
30
0
11
65.1588
21
-21.760095
31
0
12
68.6588
22
-22.343428
32
0
13
68.6588
23
-22.343428
33
0
39
0
210
0
220
0
230
1
0
MTEXT
5
17D
100
AcDbEntity
8
0
62
256
6
ByLayer
370
18
48
1
60
0
100
AcDbMText
10
16.3294
20
-15.343428
30
0
210
0
220
0
230
1
1
\A1;104.66
40
3.5
41
0
44
1
50
0
71
5
72
5
7
iso_b_vert
0
POINT
5
17E
100
AcDbEntity
8
Defpoints
62
0
6
ByLayer
370
-1
48
1
60
0
100
AcDbPoint
10
-36
20
-4
30
0
39
0
210
0
220
0
230
1
50
360
0
POINT
5
17F
100
AcDbEntity
8
Defpoints
62
0
6
ByLayer
370
-1
48
1
60
0
100
AcDbPoint
10
68.6588
20
-3.5
30
0
39
0
210
0
220
0
230
1
50
360
0
POINT
5
180
100
AcDbEntity
8
Defpoints
62
0
6
ByLayer
370
-1
48
1
60
0
100
AcDbPoint
10
68.6588
20
-22.343428
30
0
39
0
210
0
220
0
230
1
50
360
0
ENDBLK
5
177
100
AcDbEntity
8
0
100
AcDbBlockEnd
0
BLOCK
5
188
100
AcDbEntity
8
0
100
AcDbBlockBegin
2
_U4
70
0
10
0
20
0
30
0
3
_U4
0
MTEXT
5
182
100
AcDbEntity
8
SK2
62
256
6
ByLayer
370
13
48
1
60
0
100
AcDbMText
10
10.137535
20
-21.310795
30
0
210
0
220
0
230
1
1
\W0.7145;104,66
40
3.5
41
0
44
1.084337
50
0
71
7
72
5
7
iso_b_vert
0
LINE
5
183
100
AcDbEntity
8
SK2
62
256
6
ByLayer
370
13
48
1
60
0
100
AcDbLine
10
-36
20
-5.5875
30
0
11
-36
21
-24.343428
31
0
39
0
210
0
220
0
230
1
0
LINE
5
184
100
AcDbEntity
8
SK2
62
256
6
ByLayer
370
13
48
1
60
0
100
AcDbLine
10
68.6588
20
-5.0875
30
0
11
68.6588
21
-24.343428
31
0
39
0
210
0
220
0
230
1
0
LINE
5
185
100
AcDbEntity
8
SK2
62
256
6
ByLayer
370
13
48
1
60
0
100
AcDbLine
10
-36
20
-22.343428
30
0
11
68.6588
21
-22.343428
31
0
39
0
210
0
220
0
230
1
0
SOLID
5
186
100
AcDbEntity
8
SK2
62
256
6
ByLayer
370
18
48
1
60
0
100
AcDbTrace
10
-36
20
-22.343428
30
0
11
-32.500002
21
-21.882645
31
0
12
-32.499998
22
-22.804212
32
0
13
-32.499998
23
-22.804212
33
0
39
0
210
0
220
0
230
1
0
SOLID
5
187
100
AcDbEntity
8
SK2
62
256
6
ByLayer
370
18
48
1
60
0
100
AcDbTrace
10
68.6588
20
-22.343428
30
0
11
65.158802
21
-22.804212
31
0
12
65.158798
22
-21.882645
32
0
13
65.158798
23
-21.882645
33
0
39
0
210
0
220
0
230
1
0
ENDBLK
5
189
100
AcDbEntity
8
0
100
AcDbBlockEnd
0
ENDSEC
0
SECTION
2
ENTITIES
0
ARC
5
A8
100
AcDbEntity
8
1
62
256
6
ByLayer
370
18
48
1
60
0
100
AcDbCircle
39
0
10
1.313862
20
4.22878
30
0
40
0.85
210
0
220
0
230
1
100
AcDbArc
50
219.3886
51
270.103132
0
ARC
5
A9
100
AcDbEntity
8
1
62
256
6
ByLayer
370
18
48
1
60
0
100
AcDbCircle
39
0
10
0
20
-3.15
30
0
40
0.85
210
0
220
0
230
1
100
AcDbArc
50
270
51
320.6114
0
ARC
5
AA
100
AcDbEntity
8
1
62
256
6
ByLayer
370
18
48
1
60
0
100
AcDbCircle
39
0
10
1.313862
20
-4.22878
30
0
40
0.85
210
0
220
0
230
1
100
AcDbArc
50
89.896868
51
140.6114
0
ARC
5
AB
100
AcDbEntity
8
1
62
256
6
ByLayer
370
18
48
1
60
0
100
AcDbCircle
39
0
10
0
20
3.15
30
0
40
0.85
210
0
220
0
230
1
100
AcDbArc
50
39.3886
51
90
0
ELLIPSE
5
AC
100
AcDbEntity
8
1
62
256
6
ByLayer
370
13
48
1
60
0
100
AcDbEllipse
10
4.95184
20
-3.565778
30
0
11
0.0190367708647648
21
0.299395393009048
31
0
210
0
220
0
230
1
40
0.457048
41
0.132144770892286
42
0.923996738682806
0
ELLIPSE
5
AD
100
AcDbEntity
8
1
62
256
6
ByLayer
370
13
48
1
60
0
100
AcDbEllipse
10
114.194174
20
42.489532
30
0
11
-61.2499999999999
21
7.50071391716205E-15
31
0
210
0
220
0
230
1
40
0.99863
41
0.743055886133112
42
0.763781870083219
0
ELLIPSE
5
AE
100
AcDbEntity
8
1
62
256
6
ByLayer
370
13
48
1
60
0
100
AcDbEllipse
10
10.531759
20
-15.490662
30
0
11
-63.4559617893834
21
38.9604844266837
31
0
210
0
220
0
230
1
40
0.164903
41
-1.46989351196221
42
-1.36723379846211
0
ELLIPSE
5
AF
100
AcDbEntity
8
1
62
256
6
ByLayer
370
13
48
1
60
0
100
AcDbEllipse
10
11.670418
20
-13.636099
30
0
11
-63.4559617893834
21
38.9604844266836
31
0
210
0
220
0
230
1
40
0.164903
41
-1.46989351196221
42
-1.41302586073125
0
POINT
5
70
100
AcDbEntity
8
80
62
256
6
ByLayer
370
18
48
1
60
0
100
AcDbPoint
10
0
20
0
30
0
39
0
210
0
220
0
230
1
50
360
0
POINT
5
72
100
AcDbEntity
8
81
62
256
6
ByLayer
370
18
48
1
60
0
100
AcDbPoint
10
70
20
0
30
0
39
0
210
0
220
0
230
1
50
360
0
POINT
5
74
100
AcDbEntity
8
1
62
256
6
ByLayer
370
18
48
1
60
1
100
AcDbPoint
10
68.6588
20
-3.5
30
0
39
0
210
0
220
0
230
1
50
360
0
POINT
5
76
100
AcDbEntity
8
1
62
256
6
ByLayer
370
18
48
1
60
1
100
AcDbPoint
10
-36
20
-4
30
0
39
0
210
0
220
0
230
1
50
360
0
POINT
5
77
100
AcDbEntity
8
1
62
256
6
ByLayer
370
18
48
1
60
1
100
AcDbPoint
10
12.66
20
3.5
30
0
39
0
210
0
220
0
230
1
50
360
0
POINT
5
78
100
AcDbEntity
8
1
62
256
6
ByLayer
370
18
48
1
60
1
100
AcDbPoint
10
68.6588
20
-3.5
30
0
39
0
210
0
220
0
230
1
50
360
0
POINT
5
79
100
AcDbEntity
8
1
62
256
6
ByLayer
370
18
48
1
60
1
100
AcDbPoint
10
-36
20
-4
30
0
39
0
210
0
220
0
230
1
50
360
0
POINT
5
7A
100
AcDbEntity
8
1
62
256
6
ByLayer
370
18
48
1
60
1
100
AcDbPoint
10
68.6588
20
-3.5
30
0
39
0
210
0
220
0
230
1
50
360
0
SPLINE
5
B0
100
AcDbEntity
8
1
62
256
6
ByLayer
370
18
48
1
60
0
100
AcDbSpline
70
4
71
3
72
8
73
4
40
0
40
0
40
0
40
0
40
1
40
1
40
1
40
1
41
1
10
68.759808173926
20
-3.46779013920286
30
0
41
1
10
68.7387757424057
20
-3.44746744933522
30
0
41
1
10
68.7205852032394
20
-3.41769111761846
30
0
41
1
10
68.7048559752808
20
-3.37820839782179
30
0
0
SPLINE
5
B1
100
AcDbEntity
8
1
62
256
6
ByLayer
370
18
48
1
60
0
100
AcDbSpline
70
4
71
1
72
4
73
2
40
0
40
0
40
1
40
1
41
1
10
68.7110284061779
20
-3.34500664273756
30
0
41
1
10
69.4174692946319
20
-0.960102171888593
30
0
0
SPLINE
5
B2
100
AcDbEntity
8
1
62
256
6
ByLayer
370
18
48
1
60
0
100
AcDbSpline
70
4
71
1
72
4
73
2
40
0
40
0
40
1
40
1
41
1
10
69.4174692946276
20
-0.960102171887314
30
0
41
1
10
69.4310216331227
20
-0.914350243883661
30
0
0
SPLINE
5
B3
100
AcDbEntity
8
1
62
256
6
ByLayer
370
18
48
1
60
0
100
AcDbSpline
70
4
71
3
72
8
73
4
40
0
40
0
40
0
40
0
40
1
40
1
40
1
40
1
41
1
10
68.4062764719311
20
0.52014804285011
30
0
41
1
10
68.5749578526991
20
0.428479098092311
30
0
41
1
10
68.745017051992
20
0.343196298721807
30
0
41
1
10
68.9166073594578
20
0.265010137421314
30
0
0
SPLINE
5
B4
100
AcDbEntity
8
1
62
256
6
ByLayer
370
18
48
1
60
0
100
AcDbSpline
70
4
71
3
72
18
73
14
40
0
40
0
40
0
40
0
40
0.25
40
0.25
40
0.375
40
0.375
40
0.5
40
0.5
40
0.749999999999999
40
0.749999999999999
40
0.875
40
0.875
40
1
40
1
40
1
40
1
41
1
10
68.406276471931
20
0.520148042850138
30
0
41
1
10
68.3595654972606
20
0.318133184402626
30
0
41
1
10
68.3218708527932
20
0.114441428624332
30
0
41
1
10
68.2790454311787
20
-0.19364726931488
30
0
41
1
10
68.2670698110157
20
-0.296771177023345
30
0
41
1
10
68.2479293448415
20
-0.503913721687383
30
0
41
1
10
68.2408437982933
20
-0.607391080587121
30
0
41
1
10
68.2273184421571
20
-0.912153937877974
30
0
41
1
10
68.2283359773208
20
-1.10993548231303
30
0
41
1
10
68.245015887418
20
-1.39846245916951
30
0
41
1
10
68.2531729882532
20
-1.49363208340986
30
0
41
1
10
68.2743894859078
20
-1.67819253577594
30
0
41
1
10
68.2874424564881
20
-1.76784421432677
30
0
41
1
10
68.3029080414908
20
-1.85490186682145
30
0
0
SPLINE
5
B5
100
AcDbEntity
8
1
62
256
6
ByLayer
370
13
48
1
60
0
100
AcDbSpline
70
4
71
3
72
28
73
24
40
0
40
0
40
0
40
0
40
0.0625000000000001
40
0.0625000000000001
40
0.125
40
0.125
40
0.25
40
0.25
40
0.3125
40
0.3125
40
0.375
40
0.375
40
0.500000000000001
40
0.500000000000001
40
0.562500000000001
40
0.562500000000001
40
0.625000000000001
40
0.625000000000001
40
0.75
40
0.75
40
0.875
40
0.875
40
1
40
1
40
1
40
1
41
1
10
4.95268081892024
20
-3.26784631231624
30
0
41
1
10
4.9527658562759
20
-3.2557159477343
30
0
41
1
10
4.95284697064963
20
-3.23878270759519
30
0
41
1
10
4.95300309952984
20
-3.19538529763173
30
0
41
1
10
4.9530783538049
20
-3.16879229939309
30
0
41
1
10
4.95329445935761
20
-3.07582079444481
30
0
41
1
10
4.9534265081206
20
-2.9963274109046
30
0
41
1
10
4.95361556475345
20
-2.8513411507252
30
0
41
1
10
4.95367704423492
20
-2.79869357735347
30
0
41
1
10
4.95379805928369
20
-2.68450284704417
30
0
41
1
10
4.95385721782287
20
-2.62327158410008
30
0
41
1
10
4.95402974177438
20
-2.42997974302713
30
0
41
1
10
4.95413934096575
20
-2.28746056172386
30
0
41
1
10
4.95429902552704
20
-2.05318456835451
30
0
41
1
10
4.95435166277147
20
-1.97125891924054
30
0
41
1
10
4.95445419151287
20
-1.80219502800412
30
0
41
1
10
4.95450385519925
20
-1.71548322007411
30
0
41
1
10
4.95464793098444
20
-1.44899411760107
30
0
41
1
10
4.9547376183649
20
-1.26291772923386
30
0
41
1
10
4.95489916659633
20
-0.873570632891443
30
0
41
1
10
4.95497067640309
20
-0.670118466759732
30
0
41
1
10
4.95508032017048
20
-0.26312017796306
30
0
41
1
10
4.95511895098377
20
-0.059206949137149
30
0
41
1
10
4.95513594999846
20
0.145114078191369
30
0
0
SPLINE
5
B6
100
AcDbEntity
8
1
62
256
6
ByLayer
370
18
48
1
60
0
100
AcDbSpline
70
4
71
3
72
8
73
4
40
0
40
0
40
0
40
0
40
1
40
1
40
1
40
1
41
1
10
68.759808173926
20
-3.46779013920289
30
0
41
1
10
68.9288278212488
20
-3.04930085196983
30
0
41
1
10
69.1015240539173
20
-2.61689226511268
30
0
41
1
10
69.2700010490295
20
-2.16626049314289
30
0
0
SPLINE
5
B7
100
AcDbEntity
8
1
62
256
6
ByLayer
370
18
48
1
60
0
100
AcDbSpline
70
4
71
3
72
52
73
48
40
0
40
0
40
0
40
0
40
0.0859321761947463
40
0.0859321761947463
40
0.15039861509027
40
0.15039861509027
40
0.214865053985794
40
0.214865053985794
40
0.279331492881318
40
0.279331492881318
40
0.311564712329081
40
0.311564712329081
40
0.343797931776842
40
0.343797931776842
40
0.408264370672368
40
0.408264370672368
40
0.472730809567893
40
0.472730809567893
40
0.488847419291774
40
0.488847419291774
40
0.504964029015656
40
0.504964029015656
40
0.537197248463418
40
0.537197248463418
40
0.601663687358944
40
0.601663687358944
40
0.666130126254471
40
0.666130126254471
40
0.682246735978352
40
0.682246735978352
40
0.698363345702233
40
0.698363345702233
40
0.730596565149995
40
0.730596565149995
40
0.795063004045518
40
0.795063004045518
40
0.859529442941041
40
0.859529442941041
40
0.875646052664922
40
0.875646052664922
40
0.891762662388803
40
0.891762662388803
40
0.923995881836565
40
0.923995881836565
40
0.98846232073209
40
0.98846232073209
40
1
40
1
40
1
40
1
41
1
10
20.5552296701148
20
2.34769825338782
30
0
41
1
10
21.337232919575
20
2.62836981937628
30
0
41
1
10
22.1202626414052
20
2.86473760656079
30
0
41
1
10
23.5072209760612
20
3.17835786674323
30
0
41
1
10
24.0965712472361
20
3.27787123929332
30
0
41
1
10
25.2710890922524
20
3.40434523650259
30
0
41
1
10
25.8562457394608
20
3.43145666894256
30
0
41
1
10
27.0298483632182
20
3.41171074744469
30
0
41
1
10
27.6183933282841
20
3.36488249481565
30
0
41
1
10
28.5093808441419
20
3.23913495348569
30
0
41
1
10
28.8057704500505
20
3.18820120080704
30
0
41
1
10
29.3956390168193
20
3.06963364892704
30
0
41
1
10
29.6896780013179
20
3.00208184451461
30
0
41
1
10
30.5700838203825
20
2.77592573825976
30
0
41
1
10
31.1550368857334
20
2.59409920378789
30
0
41
1
10
32.3279933036119
20
2.1774749595179
30
0
41
1
10
32.9159277842331
20
1.94252446801528
30
0
41
1
10
33.6576084246608
20
1.62259848328466
30
0
41
1
10
33.8062246976793
20
1.55742216647602
30
0
41
1
10
34.1022321000867
20
1.42517629306022
30
0
41
1
10
34.2499473217773
20
1.35820121867729
30
0
41
1
10
34.6924133284786
20
1.15509945034336
30
0
41
1
10
34.9863250232305
20
1.01647925083231
30
0
41
1
10
35.8663446939569
20
0.59395999170593
30
0
41
1
10
36.4509137344553
20
0.30375546237272
30
0
41
1
10
37.623173402895
20
-0.278650266268187
30
0
41
1
10
38.2107735931663
20
-0.571035961565173
30
0
41
1
10
38.9516265888454
20
-0.928704699416272
30
0
41
1
10
39.100172814628
20
-0.999800090929341
30
0
41
1
10
39.3962298903219
20
-1.13989042976996
30
0
41
1
10
39.5438849376218
20
-1.2091851891511
30
0
41
1
10
39.986134757731
20
-1.41403127738903
30
0
41
1
10
40.2799451709653
20
-1.54668652643969
30
0
41
1
10
41.1598589810287
20
-1.93028411308973
30
0
41
1
10
41.7441704722941
20
-2.16735518764639
30
0
41
1
10
42.9153932409371
20
-2.5921473776688
30
0
41
1
10
43.5025022377584
20
-2.77955945387424
30
0
41
1
10
44.2429884642985
20
-2.9753526934399
30
0
41
1
10
44.3914710679549
20
-3.01266420262812
30
0
41
1
10
44.6873691282811
20
-3.08283022383537
30
0
41
1
10
44.8350638635618
20
-3.11569392741555
30
0
41
1
10
45.277199254024
20
-3.20789383588632
30
0
41
1
10
45.5709383173391
20
-3.26060453669876
30
0
41
1
10
46.4502182604031
20
-3.39201381758366
30
0
41
1
10
47.0341904601877
20
-3.44369437312653
30
0
41
1
10
47.7244455441628
20
-3.46099579344923
30
0
41
1
10
47.8292672303393
20
-3.4624371911242
30
0
41
1
10
47.9341500008203
20
-3.46268873753272
30
0
0
SPLINE
5
B8
100
AcDbEntity
8
1
62
256
6
ByLayer
370
18
48
1
60
0
100
AcDbSpline
70
4
71
3
72
16
73
12
40
0
40
0
40
0
40
0
40
0.252757257258129
40
0.252757257258129
40
0.346162600100862
40
0.346162600100862
40
0.439567942943594
40
0.439567942943594
40
0.62637862862906
40
0.62637862862906
40
1
40
1
40
1
40
1
41
1
10
64.0399051287307
20
2.38820490515525
30
0
41
1
10
64.4361473598246
20
2.53437889160619
30
0
41
1
10
64.8335576765041
20
2.66938458941468
30
0
41
1
10
65.3809672440021
20
2.83637902160393
30
0
41
1
10
65.5291428124191
20
2.87965502991008
30
0
41
1
10
65.8246486515387
20
2.96187958649972
30
0
41
1
10
65.972075421234
20
3.00099546425542
30
0
41
1
10
66.4137659542446
20
3.11197334822393
30
0
41
1
10
66.7073959773655
20
3.17751763738028
30
0
41
1
10
67.5873483911675
20
3.34781466818228
30
0
41
1
10
68.172481442153
20
3.42642398657165
30
0
41
1
10
68.7598081739261
20
3.46779013920289
30
0
0
SPLINE
5
B9
100
AcDbEntity
8
1
62
256
6
ByLayer
370
13
48
1
60
0
100
AcDbSpline
70
4
71
3
72
87
73
83
40
0
40
0
40
0
40
0
40
0.0059677264919295
40
0.0123740755527809
40
0.0251867736744838
40
0.0379994717961867
40
0.0572185189787419
40
0.0636248680395924
40
0.0764375661612953
40
0.0892502642829972
40
0.108469311465553
40
0.114875660526404
40
0.127688358648107
40
0.140501056769809
40
0.159720103952364
40
0.166126453013215
40
0.178939151134917
40
0.191751849256621
40
0.210970896439175
40
0.217377245500027
40
0.23018994362173
40
0.243002641743433
40
0.262221688925987
40
0.268628037986838
40
0.281440736108541
40
0.294253434230244
40
0.313472481412797
40
0.31987883047365
40
0.332691528595352
40
0.345504226717055
40
0.36472327389961
40
0.371129622960461
40
0.383942321082164
40
0.396755019203867
40
0.41597406638642
40
0.422380415447273
40
0.435193113568975
40
0.448005811690678
40
0.467224858873232
40
0.473631207934083
40
0.486443906055786
40
0.499256604177489
40
0.518475651360044
40
0.524882000420895
40
0.537694698542598
40
0.550507396664303
40
0.569726443846855
40
0.576132792907706
40
0.588945491029409
40
0.601758189151111
40
0.620977236333667
40
0.627383585394518
40
0.64019628351622
40
0.653008981637924
40
0.672228028820479
40
0.67863437788133
40
0.691447076003031
40
0.704259774124734
40
0.723478821307289
40
0.729885170368141
40
0.742697868489843
40
0.755510566611547
40
0.774729613794102
40
0.781135962854952
40
0.793948660976654
40
0.80676135909836
40
0.825980406280913
40
0.832386755341764
40
0.845199453463466
40
0.85801215158517
40
0.877231198767724
40
0.883637547828575
40
0.896450245950277
40
0.909262944071981
40
0.928481991254535
40
0.934888340315386
40
0.947701038437089
40
0.960513736558793
40
0.979732783741347
40
0.986139132802198
40
0.9989518309239
40
1
40
1
40
1
40
1
41
1
10
39.9027785691208
20
-1.39829507971518
30
0
41
1
10
39.8757897262733
20
-1.40057919761389
30
0
41
1
10
39.819828246663
20
-1.40524990960625
30
0
41
1
10
39.7059225378886
20
-1.41447843836318
30
0
41
1
10
39.5610729560959
20
-1.42563154620947
30
0
41
1
10
39.3582809413437
20
-1.44018478064743
30
0
41
1
10
39.1844438100375
20
-1.45155432847071
30
0
41
1
10
39.0106096295802
20
-1.46201626678072
30
0
41
1
10
38.8657599820099
20
-1.47012864253424
30
0
41
1
10
38.6629679679574
20
-1.48039752221493
30
0
41
1
10
38.4891309171111
20
-1.48807515818115
30
0
41
1
10
38.3152968578054
20
-1.49482487415622
30
0
41
1
10
38.1704473301403
20
-1.49982502361178
30
0
41
1
10
37.967655497832
20
-1.50571624637792
30
0
41
1
10
37.7938185967186
20
-1.50962907839869
30
0
41
1
10
37.6199846562845
20
-1.51259990728454
30
0
41
1
10
37.47513520859
20
-1.51443667715711
30
0
41
1
10
37.2723434427336
20
-1.51588616133586
30
0
41
1
10
37.0985065322015
20
-1.51598669797437
30
0
41
1
10
36.9246725099701
20
-1.51513728740642
30
0
41
1
10
36.7798229349174
20
-1.51378052358956
30
0
41
1
10
36.5770309235697
20
-1.51075697373983
30
0
41
1
10
36.4031937895522
20
-1.5070333445112
30
0
41
1
10
36.2293596012017
20
-1.50236878505558
30
0
41
1
10
36.0845099514065
20
-1.49783486553318
30
0
41
1
10
35.8817179490749
20
-1.49037956100102
30
0
41
1
10
35.7078809217177
20
-1.48288239351729
30
0
41
1
10
35.5340468959128
20
-1.47446144329081
30
0
41
1
10
35.3891973929349
20
-1.46680406874444
30
0
41
1
10
35.1864055802768
20
-1.45500017290576
30
0
41
1
10
35.0125686821727
20
-1.4438086720518
30
0
41
1
10
34.8387347340955
20
-1.43171746672962
30
0
41
1
10
34.6938852792417
20
-1.421013440716
30
0
41
1
10
34.491093507612
20
-1.40497677909681
30
0
41
1
10
34.3172565955935
20
-1.39019826012674
30
0
41
1
10
34.1434225745464
20
-1.37455098391888
30
0
41
1
10
33.9985729997516
20
-1.36090040115874
30
0
41
1
10
33.7957809852743
20
-1.34078134706203
30
0
41
1
10
33.6219438455199
20
-1.32255715872483
30
0
41
1
10
33.448109649102
20
-1.30350845875287
30
0
41
1
10
33.3032599947004
20
-1.28704981827355
30
0
41
1
10
33.1004679924935
20
-1.26305688309341
30
0
41
1
10
32.9266309706815
20
-1.2415781962934
30
0
41
1
10
32.7527969539082
20
-1.21932699036552
30
0
41
1
10
32.6079474557243
20
-1.20023102360832
30
0
41
1
10
32.4051556412966
20
-1.17261109577083
30
0
41
1
10
32.2313187348757
20
-1.14809693879448
30
0
41
1
10
32.057484774836
20
-1.12286865302661
30
0
41
1
10
31.9126353094617
20
-1.10132796559722
30
0
41
1
10
31.7098435241321
20
-1.07035830160831
30
0
41
1
10
31.5360066019771
20
-1.04305357920836
30
0
41
1
10
31.3621725727261
20
-1.01509959891311
30
0
41
1
10
31.2173229943467
20
-0.991328468865106
30
0
41
1
10
31.0145309820719
20
-0.957317035282927
30
0
41
1
10
30.8406938507762
20
-0.927493788681943
30
0
41
1
10
30.666859667056
20
-0.897093799916149
30
0
41
1
10
30.5220100252587
20
-0.871330965991376
30
0
41
1
10
30.3192180421898
20
-0.834620651052433
30
0
41
1
10
30.145381036471
20
-0.802580520281055
30
0
41
1
10
29.9715470332622
20
-0.770042294525211
30
0
41
1
10
29.8266975434114
20
-0.742548637139208
30
0
41
1
10
29.6239057354866
20
-0.703511094125759
30
0
41
1
10
29.4500688306665
20
-0.669578194871121
30
0
41
1
10
29.2762348709515
20
-0.63523046638042
30
0
41
1
10
29.1313854033128
20
-0.606283481452465
30
0
41
1
10
28.9285936086741
20
-0.565312660460251
30
0
41
1
10
28.7547566731195
20
-0.529829800066437
30
0
41
1
10
28.5809226267031
20
-0.494020385370817
30
0
41
1
10
28.4360730366169
20
-0.463913792250594
30
0
41
1
10
28.2332810171008
20
-0.421425451968418
30
0
41
1
10
28.0594438879656
20
-0.384751623390315
30
0
41
1
10
27.8856097125445
20
-0.347840614056679
30
0
41
1
10
27.7407600780692
20
-0.316875519556788
30
0
41
1
10
27.537968101181
20
-0.273292831846476
30
0
41
1
10
27.364131095384
20
-0.235792758740587
30
0
41
1
10
27.1902970858436
20
-0.198148448213914
30
0
41
1
10
27.0454475882296
20
-0.166634900198375
30
0
41
1
10
26.8426557685714
20
-0.122395783461769
30
0
41
1
10
26.6688188545292
20
-0.0844474199228387
30
0
41
1
10
26.494984889083
20
-0.0464495567773611
30
0
41
1
10
26.4033353212557
20
-0.0263644127828684
30
0
41
1
10
26.3406552226003
20
-0.0126269564119355
30
0
41
1
10
26.3359153036096
20
-0.0115881202943058
30
0
0
SPLINE
5
BA
100
AcDbEntity
8
1
62
256
6
ByLayer
370
18
48
1
60
0
100
AcDbSpline
70
4
71
3
72
8
73
4
40
0
40
0
40
0
40
0
40
1
40
1
40
1
40
1
41
1
10
69.4253395154869
20
-0.908653775310569
30
0
41
1
10
69.4272334240325
20
-0.910552728496469
30
0
41
1
10
69.4291274632591
20
-0.912451551357378
30
0
41
1
10
69.4310216331393
20
-0.914350243867005
30
0
0
SPLINE
5
BB
100
AcDbEntity
8
1
62
256
6
ByLayer
370
18
48
1
60
0
100
AcDbSpline
70
4
71
3
72
16
73
12
40
0
40
0
40
0
40
0
40
0.25
40
0.25
40
0.500000000000001
40
0.500000000000001
40
0.625000000000001
40
0.625000000000001
40
0.750000000000001
40
0.750000000000001
40
1
40
1
40
1
40
1
41
1
10
69.0893941083781
20
1.10815866428422
30
0
41
1
10
69.1261538431104
20
1.12906798207607
30
0
41
1
10
69.1616394373435
20
1.15233635003585
30
0
41
1
10
69.2275168748251
20
1.20651354632636
30
0
41
1
10
69.2573659677722
20
1.23698199461794
30
0
41
1
10
69.2930759042264
20
1.29009820580416
30
0
41
1
10
69.3031894049782
20
1.30868531127703
30
0
41
1
10
69.3192222346899
20
1.34792566650194
30
0
41
1
10
69.3251078685868
20
1.36876803369532
30
0
41
1
10
69.3351021152975
20
1.4313682459339
30
0
41
1
10
69.3317787312268
20
1.47467019418417
30
0
41
1
10
69.3211420742564
20
1.51616219355361
30
0
0
SPLINE
5
BC
100
AcDbEntity
8
1
62
256
6
ByLayer
370
18
48
1
60
0
100
AcDbSpline
70
4
71
3
72
8
73
4
40
0
40
0
40
0
40
0
40
1
40
1
40
1
40
1
41
1
10
69.9998300547986
20
0.0650340363844748
30
0
41
1
10
69.9857478270536
20
0.104456080372273
30
0
41
1
10
69.9717607678276
20
0.143962420730901
30
0
41
1
10
69.9578667231951
20
0.183553432926743
30
0
0
SPLINE
5
BD
100
AcDbEntity
8
1
62
256
6
ByLayer
370
18
48
1
60
0
100
AcDbSpline
70
4
71
3
72
16
73
12
40
0
40
0
40
0
40
0
40
0.125000000000009
40
0.125000000000009
40
0.250000000000018
40
0.250000000000018
40
0.500000000000012
40
0.500000000000012
40
0.750000000000006
40
0.750000000000006
40
1
40
1
40
1
40
1
41
1
10
4.52844125521358
20
-3.34095088628914
30
0
41
1
10
4.52836995801192
20
-3.34423330007436
30
0
41
1
10
4.53290140233742
20
-3.34721188916447
30
0
41
1
10
4.54759530338364
20
-3.35266283020587
30
0
41
1
10
4.5574727407342
20
-3.35502812965802
30
0
41
1
10
4.59177047977911
20
-3.36143381797535
30
0
41
1
10
4.62034073981098
20
-3.3647013659504
30
0
41
1
10
4.68133496462048
20
-3.37009001124423
30
0
41
1
10
4.71439201975778
20
-3.37223539956309
30
0
41
1
10
4.78257345668175
20
-3.37580008629035
30
0
41
1
10
4.81784212573734
20
-3.3772247137934
30
0
41
1
10
4.85411314012904
20
-3.37840825193121
30
0
0
SPLINE
5
BE
100
AcDbEntity
8
1
62
256
6
ByLayer
370
18
48
1
60
0
100
AcDbSpline
70
4
71
3
72
10
73
6
40
0
40
0
40
0
40
0
40
0.5
40
0.5
40
1
40
1
40
1
40
1
41
1
10
69.3211420742517
20
1.51616219355364
30
0
41
1
10
69.293379596301
20
1.62445944529705
30
0
41
1
10
69.2788952045353
20
1.73279290650117
30
0
41
1
10
69.2646335112926
20
1.94949993527709
30
0
41
1
10
69.2650251379498
20
2.05787396351747
30
0
41
1
10
69.2700010490295
20
2.16626049314277
30
0
0
SPLINE
5
BF
100
AcDbEntity
8
1
62
256
6
ByLayer
370
13
48
1
60
0
100
AcDbSpline
70
4
71
3
72
10
73
6
40
0
40
0
40
0
40
0
40
0.5
40
0.5
40
1
40
1
40
1
40
1
41
1
10
4.95268081892024
20
-3.26784631231624
30
0
41
1
10
4.87951004542373
20
-3.26478893077737
30
0
41
1
10
4.80743335086515
20
-3.26944654624717
30
0
41
1
10
4.66571382246894
20
-3.29371380583947
30
0
41
1
10
4.59556211289834
20
-3.31356068659568
30
0
41
1
10
4.52844125521364
20
-3.34095088628911
30
0
0
SPLINE
5
C0
100
AcDbEntity
8
1
62
256
6
ByLayer
370
18
48
1
60
0
100
AcDbSpline
70
4
71
3
72
16
73
12
40
0
40
0
40
0
40
0
40
0.125000000000001
40
0.125000000000001
40
0.250000000000002
40
0.250000000000002
40
0.500000000000002
40
0.500000000000002
40
0.750000000000001
40
0.750000000000001
40
1
40
1
40
1
40
1
41
1
10
4.95513594999846
20
0.145114078191426
30
0
41
1
10
5.13075303516712
20
-0.0173937401656019
30
0
41
1
10
5.31583190565954
20
-0.169186653780258
30
0
41
1
10
5.69983786084876
20
-0.457081871470024
30
0
41
1
10
5.89957140382091
20
-0.593512144622935
30
0
41
1
10
6.50436174655016
20
-0.977180229837387
30
0
41
1
10
6.91820194268422
20
-1.20198363712049
30
0
41
1
10
7.7597751166939
20
-1.61270687330625
30
0
41
1
10
8.18762861446507
20
-1.79905812047875
30
0
41
1
10
9.05558764623891
20
-2.13456385894082
30
0
41
1
10
9.49246779617914
20
-2.28401131991581
30
0
41
1
10
9.93178629777941
20
-2.4189191608113
30
0
0
SPLINE
5
C1
100
AcDbEntity
8
1
62
256
6
ByLayer
370
13
48
1
60
0
100
AcDbSpline
70
4
71
3
72
24
73
20
40
0
40
0
40
0
40
0
40
0.0414797721971941
40
0.104936668362699
40
0.200122012610955
40
0.231850460693708
40
0.295307356859213
40
0.358764253024716
40
0.453949597272972
40
0.485678045355724
40
0.549134941521229
40
0.612591837686732
40
0.70777718193499
40
0.739505630017741
40
0.802962526183246
40
0.866419422348749
40
0.961604766597007
40
0.99333321467976
40
1
40
1
40
1
40
1
41
1
10
69.3211420742564
20
1.51616219355361
30
0
41
1
10
69.2832658285469
20
1.51610689396776
30
0
41
1
10
69.1874432991517
20
1.51578687274195
30
0
41
1
10
69.0047044877346
20
1.51435179140912
30
0
41
1
10
68.8308852945709
20
1.51184734535343
30
0
41
1
10
68.6570630977395
20
1.50838597026293
30
0
41
1
10
68.5121990662787
20
1.5048696498099
30
0
41
1
10
68.3093919134619
20
1.49884923937787
30
0
41
1
10
68.1355725489089
20
1.49255357428262
30
0
41
1
10
67.9617502219195
20
1.48531171985684
30
0
41
1
10
67.8168861031562
20
1.47865913747884
30
0
41
1
10
67.6140788728902
20
1.46826450256895
30
0
41
1
10
67.4402595090599
20
1.45823054803611
30
0
41
1
10
67.2664372559465
20
1.44726709275807
30
0
41
1
10
67.1215732663109
20
1.43753127530993
30
0
41
1
10
66.9187663032968
20
1.42284771770008
30
0
41
1
10
66.7449471963777
20
1.40916481485405
30
0
41
1
10
66.6229785802621
20
1.39893648372157
30
0
41
1
10
66.5879197985378
20
1.39594106039587
30
0
41
1
10
66.5818323088533
20
1.39541928411228
30
0
0
SPLINE
5
C2
100
AcDbEntity
8
1
62
256
6
ByLayer
370
13
48
1
60
0
100
AcDbSpline
70
4
71
3
72
86
73
82
40
0
40
0
40
0
40
0
40
0.0115915706302065
40
0.0243046864832809
40
0.0433743602628932
40
0.0497309181894307
40
0.0624440340425051
40
0.0751571498955796
40
0.0942268236751914
40
0.100583381601729
40
0.113296497454804
40
0.126009613307879
40
0.145079287087491
40
0.151435845014028
40
0.164148960867103
40
0.176862076720177
40
0.19593175049979
40
0.202288308426327
40
0.215001424279402
40
0.227714540132478
40
0.246784213912088
40
0.253140771838625
40
0.2658538876917
40
0.278567003544774
40
0.297636677324387
40
0.303993235250924
40
0.316706351103998
40
0.329419466957074
40
0.348489140736686
40
0.354845698663223
40
0.367558814516297
40
0.380271930369372
40
0.399341604148985
40
0.405698162075522
40
0.418411277928596
40
0.431124393781671
40
0.450194067561284
40
0.45655062548782
40
0.469263741340894
40
0.481976857193972
40
0.501046530973582
40
0.507403088900119
40
0.520116204753194
40
0.53282932060627
40
0.551898994385881
40
0.558255552312418
40
0.570968668165492
40
0.583681784018568
40
0.60275145779818
40
0.609108015724717
40
0.621821131577792
40
0.634534247430867
40
0.653603921210479
40
0.659960479137016
40
0.672673594990091
40
0.685386710843165
40
0.704456384622777
40
0.710812942549314
40
0.723526058402389
40
0.736239174255464
40
0.755308848035076
40
0.761665405961613
40
0.774378521814688
40
0.787091637667762
40
0.806161311447375
40
0.812517869373912
40
0.825230985226987
40
0.837944101080062
40
0.857013774859673
40
0.86337033278621
40
0.876083448639285
40
0.88879656449236
40
0.907866238271972
40
0.91422279619851
40
0.926935912051584
40
0.939649027904659
40
0.958718701684271
40
0.965075259610808
40
0.977788375463883
40
0.990501491316958
40
1
40
1
40
1
40
1
41
1
10
36.6863222852746
20
0.0115185572109055
30
0
41
1
10
36.6334910707619
20
0.023090677245051
30
0
41
1
10
36.5227118321316
20
0.0473267509738377
30
0
41
1
10
36.3250165538323
20
0.0905389729830971
30
0
41
1
10
36.1511972077583
20
0.12853958830442
30
0
41
1
10
35.9773749097121
20
0.166457433088141
30
0
41
1
10
35.8325108181134
20
0.197928740717088
30
0
41
1
10
35.6297036263817
20
0.241836817520578
30
0
41
1
10
35.4558842942233
20
0.279364233944392
30
0
41
1
10
35.2820620691614
20
0.316716047692125
30
0
41
1
10
35.1371980975359
20
0.347654844261342
30
0
41
1
10
34.9343911487271
20
0.390710043365231
30
0
41
1
10
34.7605720443812
20
0.427393503466987
30
0
41
1
10
34.586749994754
20
0.463805765336275
30
0
41
1
10
34.4418861027645
20
0.49389926889313
30
0
41
1
10
34.2390791416779
20
0.5356619861968
30
0
41
1
10
34.0652599193401
20
0.571124439668437
30
0
41
1
10
33.891437689992
20
0.606223445625516
30
0
41
1
10
33.7465736417225
20
0.635163651534128
30
0
41
1
10
33.5437664927925
20
0.675207995359897
30
0
41
1
10
33.3699471550362
20
0.709089441163399
30
0
41
1
10
33.1961248689565
20
0.74252014583925
30
0
41
1
10
33.0512607878827
20
0.770015125495717
30
0
41
1
10
32.8484536098579
20
0.807938536977701
30
0
41
1
10
32.6746342878422
20
0.839899652679974
30
0
41
1
10
32.5008120709893
20
0.871328045514189
30
0
41
1
10
32.3559481029509
20
0.897103528278904
30
0
41
1
10
32.1531411519397
20
0.932527920668945
30
0
41
1
10
31.9793220391321
20
0.962249671623254
30
0
41
1
10
31.8054999768027
20
0.991360984499152
30
0
41
1
10
31.6606360722049
20
1.01515802080402
30
0
41
1
10
31.4578290919741
20
1.04772635175519
30
0
41
1
10
31.2840098535376
20
1.07490827122069
30
0
41
1
10
31.1101876106193
20
1.10140790926846
30
0
41
1
10
30.9653235540125
20
1.12298555268927
30
0
41
1
10
30.7625163985748
20
1.15236796159354
30
0
41
1
10
30.5886970592148
20
1.17673481426087
30
0
41
1
10
30.4148747728086
20
1.20035471327097
30
0
41
1
10
30.2700106939995
20
1.2194949307289
30
0
41
1
10
30.0672035252882
20
1.24539461957582
30
0
41
1
10
29.8933842166795
20
1.26669994975194
30
0
41
1
10
29.7195620170016
20
1.28720043041341
30
0
41
1
10
29.5746980606765
20
1.30370836663403
30
0
41
1
10
29.3718911169101
20
1.32586149939936
30
0
41
1
10
29.1980720019404
20
1.34388922968247
30
0
41
1
10
29.0242499313073
20
1.36106452342656
30
0
41
1
10
28.8793860193837
20
1.37477617075203
30
0
41
1
10
28.6765790329692
20
1.39296462032411
30
0
41
1
10
28.5027597946107
20
1.40753804997246
30
0
41
1
10
28.3289375580262
20
1.4212188690054
30
0
41
1
10
28.1840735091844
20
1.43199811716991
30
0
41
1
10
27.981266365482
20
1.44603987718528
30
0
41
1
10
27.8074470353446
20
1.45701200830282
30
0
41
1
10
27.6336247546683
20
1.46705993591672
30
0
41
1
10
27.4887606821901
20
1.47479758388783
30
0
41
1
10
27.2859535281921
20
1.48454950317301
30
0
41
1
10
27.1121342362247
20
1.49180675275755
30
0
41
1
10
26.9383120551037
20
1.49811540652408
30
0
41
1
10
26.7934481084668
20
1.50272770686689
30
0
41
1
10
26.5906411623623
20
1.50808300896577
30
0
41
1
10
26.4168220312478
20
1.51154706108283
30
0
41
1
10
26.2429999350112
20
1.51405243497257
30
0
41
1
10
26.0981360011815
20
1.51549614954922
30
0
41
1
10
25.8953289903271
20
1.51640955099452
30
0
41
1
10
25.721509739302
20
1.5160546300464
30
0
41
1
10
25.5476874997777
20
1.51473866293242
30
0
41
1
10
25.4028234518371
20
1.51300332588312
30
0
41
1
10
25.2000163104404
20
1.50946857120914
30
0
41
1
10
25.0261969820208
20
1.50529866621017
30
0
41
1
10
24.8523747001196
20
1.50017435420386
30
0
41
1
10
24.707510629691
20
1.49527702920187
30
0
41
1
10
24.5047034882889
20
1.48732785171663
30
0
41
1
10
24.3308842149781
20
1.4793809879458
30
0
41
1
10
24.1570620573381
20
1.47049288416971
30
0
41
1
10
24.0121981257665
20
1.46247484230727
30
0
41
1
10
23.8093911864376
20
1.45017924615368
30
0
41
1
10
23.6355720484735
20
1.4385277887535
30
0
41
1
10
23.4617499367071
20
1.42596406703239
30
0
41
1
10
23.3168859903192
20
1.41490976066399
30
0
41
1
10
23.1577031967515
20
1.40195313778201
30
0
41
1
10
23.0564715092356
20
1.3932742175356
30
0
41
1
10
23.0131815463785
20
1.38948190633809
30
0
0
SPLINE
5
C3
100
AcDbEntity
8
1
62
256
6
ByLayer
370
18
48
1
60
0
100
AcDbSpline
70
4
71
3
72
10
73
6
40
0
40
0
40
0
40
0
40
0.501253236426316
40
0.501253236426316
40
1
40
1
40
1
40
1
41
1
10
4.85411314011407
20
-3.37840825193069
30
0
41
1
10
5.18854349708107
20
-3.38932085221413
30
0
41
1
10
5.52297619168928
20
-3.38839216283893
30
0
41
1
10
6.18890386050063
20
-3.36297397988523
30
0
41
1
10
6.5206179628025
20
-3.33863885885091
30
0
41
1
10
6.85254598042749
20
-3.30284294988269
30
0
0
SPLINE
5
C4
100
AcDbEntity
8
1
62
256
6
ByLayer
370
18
48
1
60
0
100
AcDbSpline
70
4
71
3
72
52
73
48
40
0
40
0
40
0
40
0
40
0.0346804005375588
40
0.0346804005375588
40
0.0774428341141592
40
0.0774428341141592
40
0.162967701267362
40
0.162967701267362
40
0.205730134843963
40
0.205730134843963
40
0.248492568420565
40
0.248492568420565
40
0.291255001997167
40
0.291255001997167
40
0.334017435573769
40
0.334017435573769
40
0.376779869150371
40
0.376779869150371
40
0.419542302726973
40
0.419542302726973
40
0.462304736303575
40
0.462304736303575
40
0.505067169880177
40
0.505067169880177
40
0.547829603456779
40
0.547829603456779
40
0.590592037033381
40
0.590592037033381
40
0.633354470609983
40
0.633354470609983
40
0.676116904186585
40
0.676116904186585
40
0.718879337763187
40
0.718879337763187
40
0.761641771339789
40
0.761641771339789
40
0.804404204916391
40
0.804404204916391
40
0.847166638492993
40
0.847166638492993
40
0.889929072069595
40
0.889929072069595
40
0.932691505646197
40
0.932691505646197
40
0.9754539392228
40
0.9754539392228
40
1
40
1
40
1
40
1
41
1
10
27.0401284373001
20
3.42508685884471
30
0
41
1
10
27.3098097443514
20
3.42553174019162
30
0
41
1
10
27.5794523138848
20
3.4181867570959
30
0
41
1
10
28.1821293998802
20
3.38441138754209
30
0
41
1
10
28.5158082477819
20
3.35378762484009
30
0
41
1
10
29.5148627217183
20
3.22757857560254
30
0
41
1
10
30.1782873758907
20
3.09762022018651
30
0
41
1
10
31.1776967508178
20
2.84026962512459
30
0
41
1
10
31.5112797226491
20
2.74432365207437
30
0
41
1
10
32.1763619720635
20
2.53428896698108
30
0
41
1
10
32.508406694487
20
2.420040982144
30
0
41
1
10
33.1732793246443
20
2.17555870301177
30
0
41
1
10
33.5065882780722
20
2.04525888797522
30
0
41
1
10
34.1729239920617
20
1.77083182928845
30
0
41
1
10
34.5051742492744
20
1.62702816446432
30
0
41
1
10
35.1696517330978
20
1.32950295033601
30
0
41
1
10
35.5019153472605
20
1.17586733938253
30
0
41
1
10
36.1673415815307
20
0.860407660478501
30
0
41
1
10
36.5008127288402
20
0.698366481338098
30
0
41
1
10
37.1658747458742
20
0.371846726253239
30
0
41
1
10
37.4980390984311
20
0.207218672348262
30
0
41
1
10
38.1623835479529
20
-0.123261458549337
30
0
41
1
10
38.4946084865228
20
-0.289025445426262
30
0
41
1
10
39.160951872904
20
-0.617982531910144
30
0
41
1
10
39.4935935831273
20
-0.780408616307994
30
0
41
1
10
40.1578330766665
20
-1.09910608361733
30
0
41
1
10
40.4895875366577
20
-1.2553910832529
30
0
41
1
10
41.1541900931149
20
-1.55834564192637
30
0
41
1
10
41.4876626144792
20
-1.70520544526517
30
0
41
1
10
42.1528053535736
20
-1.98613475487295
30
0
41
1
10
42.4845999553892
20
-2.1201925447092
30
0
41
1
10
43.148476657512
20
-2.37256638965184
30
0
41
1
10
43.4805972721579
20
-2.49085732081019
30
0
41
1
10
44.145955212281
20
-2.71044293172324
30
0
41
1
10
44.4788140882429
20
-2.81148293811441
30
0
41
1
10
45.1429292379117
20
-2.99274402129746
30
0
41
1
10
45.4747716646828
20
-3.07314348271149
30
0
41
1
10
46.1387569017027
20
-3.21275972078459
30
0
41
1
10
46.4713881809705
20
-3.27197010660532
30
0
41
1
10
47.1366738119924
20
-3.36715288757364
30
0
41
1
10
47.4687210904921
20
-3.40307103452008
30
0
41
1
10
48.1323303962643
20
-3.45144657145457
30
0
41
1
10
48.4639285054125
20
-3.46384359239812
30
0
41
1
10
49.1284631563699
20
-3.46464618157489
30
0
41
1
10
49.4617228283557
20
-3.45303662098647
30
0
41
1
10
49.9844035941079
20
-3.41611912765083
30
0
41
1
10
50.1748146814119
20
-3.39874832067088
30
0
41
1
10
50.3651899265987
20
-3.37754193574449
30
0
0
SPLINE
5
C5
100
AcDbEntity
8
1
62
256
6
ByLayer
370
18
48
1
60
0
100
AcDbSpline
70
4
71
3
72
8
73
4
40
0
40
0
40
0
40
0
40
1
40
1
40
1
40
1
41
1
10
69.9578667232021
20
0.183553432907019
30
0
41
1
10
69.7262163822991
20
0.843639945830461
30
0
41
1
10
69.496921978879
20
1.50454028005441
30
0
41
1
10
69.2700010490295
20
2.16626049314277
30
0
0
SPLINE
5
C6
100
AcDbEntity
8
1
62
256
6
ByLayer
370
18
48
1
60
0
100
AcDbSpline
70
4
71
3
72
14
73
10
40
0
40
0
40
0
40
0
40
0.25
40
0.25
40
0.5
40
0.5
40
0.75
40
0.75
40
1
40
1
40
1
40
1
41
1
10
10.5317592943012
20
-1.15524733045103
30
0
41
1
10
10.5990419143642
20
-1.01353569986222
30
0
41
1
10
10.686145401244
20
-0.845354546836262
30
0
41
1
10
10.8825949786681
20
-0.489647783735251
30
0
41
1
10
10.9918035885861
20
-0.302371106690288
30
0
41
1
10
11.2103737696337
20
0.0536198739391693
30
0
41
1
10
11.3195823795517
20
0.222085045590603
30
0
41
1
10
11.5160319569758
20
0.506303430341518
30
0
41
1
10
11.6031354438556
20
0.621857739874741
30
0
41
1
10
11.6704180639186
20
0.699316041622893
30
0
0
SPLINE
5
C7
100
AcDbEntity
8
1
62
256
6
ByLayer
370
18
48
1
60
0
100
AcDbSpline
70
4
71
3
72
48
73
44
40
0
40
0
40
0
40
0
40
0.0240355194343239
40
0.0240355194343239
40
0.0667248993285198
40
0.0667248993285198
40
0.109414279222716
40
0.109414279222716
40
0.152103659116912
40
0.152103659116912
40
0.194793039011107
40
0.194793039011107
40
0.237482418905303
40
0.237482418905303
40
0.322861178693694
40
0.322861178693694
40
0.408239938482086
40
0.408239938482086
40
0.450929318376281
40
0.450929318376281
40
0.493618698270477
40
0.493618698270477
40
0.536308078164672
40
0.536308078164672
40
0.578997458058867
40
0.578997458058867
40
0.621686837953063
40
0.621686837953063
40
0.664376217847258
40
0.664376217847258
40
0.74975497763565
40
0.74975497763565
40
0.792444357529846
40
0.792444357529846
40
0.835133737424042
40
0.835133737424042
40
0.877823117318238
40
0.877823117318238
40
0.920512497212434
40
0.920512497212434
40
0.96320187710663
40
0.96320187710663
40
1
40
1
40
1
40
1
41
1
10
5.29246095468895
20
3.38593307060574
30
0
41
1
10
5.48068644880479
20
3.38625386451201
30
0
41
1
10
5.66882449974119
20
3.38282501951954
30
0
41
1
10
6.19055552033606
20
3.36291124553449
30
0
41
1
10
6.52393021130737
20
3.33839572642046
30
0
41
1
10
7.19111807910215
20
3.26621474396302
30
0
41
1
10
7.52541705633425
20
3.21839700201323
30
0
41
1
10
8.19315273418147
20
3.10100102919316
30
0
41
1
10
8.52633870354589
20
3.03140320687831
30
0
41
1
10
9.19251428362077
20
2.87149825918743
30
0
41
1
10
9.52555570746279
20
2.78123166851978
30
0
41
1
10
10.1929950056762
20
2.58159426945181
30
0
41
1
10
10.527352713653
20
2.47213062795595
30
0
41
1
10
11.5272670008989
20
2.11988468095575
30
0
41
1
10
12.1923935202931
20
1.85250545971559
30
0
41
1
10
13.5285294043494
20
1.27072458758965
30
0
41
1
10
14.1930911013472
20
0.959138514189618
30
0
41
1
10
15.192875586603
20
0.476680838222421
30
0
41
1
10
15.5272040042792
20
0.313156261496374
30
0
41
1
10
16.1940103977273
20
-0.01436620214659
30
0
41
1
10
16.5267436541144
20
-0.178555218588457
30
0
41
1
10
17.1924322229248
20
-0.504597796438674
30
0
41
1
10
17.5254020383801
20
-0.666423576401883
30
0
41
1
10
18.192716655323
20
-0.98539498491013
30
0
41
1
10
18.526439121391
20
-1.14224613775019
30
0
41
1
10
19.1923018598206
20
-1.44617879093849
30
0
41
1
10
19.5249166706768
20
-1.59351029664205
30
0
41
1
10
20.1906793005907
20
-1.8767517155967
30
0
41
1
10
20.5243402390538
20
-2.01279956016174
30
0
41
1
10
21.5249228841873
20
-2.39823317239455
30
0
41
1
10
22.1888573700616
20
-2.62446867241695
30
0
41
1
10
23.1883519476869
20
-2.90628214756245
30
0
41
1
10
23.5224102693602
20
-2.99062775856731
30
0
41
1
10
24.188254307518
20
-3.13770744460493
30
0
41
1
10
24.5206279251135
20
-3.2005629101626
30
0
41
1
10
25.1858616917201
20
-3.30374166321232
30
0
41
1
10
25.5187205199747
20
-3.34409243987005
30
0
41
1
10
26.1859336706623
20
-3.40155112769787
30
0
41
1
10
26.5187229780056
20
-3.41846934321171
30
0
41
1
10
27.1838548194323
20
-3.42853501455628
30
0
41
1
10
27.5162600701746
20
-3.42172105955666
30
0
41
1
10
28.1358993362909
20
-3.38700836527164
30
0
41
1
10
28.4234193296375
20
-3.36204173788218
30
0
41
1
10
28.7106081173014
20
-3.32851627071455
30
0
0
SPLINE
5
C8
100
AcDbEntity
8
1
62
256
6
ByLayer
370
18
48
1
60
0
100
AcDbSpline
70
4
71
3
72
46
73
42
40
0
40
0
40
0
40
0
40
0.0004497934107278
40
0.0004497934107278
40
0.0504273037401913
40
0.0504273037401913
40
0.100404814069655
40
0.100404814069655
40
0.150382324399119
40
0.150382324399119
40
0.200359834728582
40
0.200359834728582
40
0.250337345058046
40
0.250337345058046
40
0.30031485538751
40
0.30031485538751
40
0.400269876046438
40
0.400269876046438
40
0.450247386375902
40
0.450247386375902
40
0.500224896705366
40
0.500224896705366
40
0.55020240703483
40
0.55020240703483
40
0.600179917364293
40
0.600179917364293
40
0.650157427693757
40
0.650157427693757
40
0.700134938023221
40
0.700134938023221
40
0.750112448352684
40
0.750112448352684
40
0.800089958682148
40
0.800089958682148
40
0.900044979341075
40
0.900044979341075
40
0.950022489670539
40
0.950022489670539
40
0.975011244835269
40
0.975011244835269
40
1
40
1
40
1
40
1
41
1
10
48.7866507634514
20
3.46423005970493
30
0
41
1
10
48.7896409872064
20
3.46423573848793
30
0
41
1
10
48.7926312644713
20
3.46424044581451
30
0
41
1
10
49.1278837311627
20
3.46465926547103
30
0
41
1
10
49.461139570641
20
3.45306382172436
30
0
41
1
10
50.1252713137889
20
3.40618346280374
30
0
41
1
10
50.4567294668977
20
3.37088346589556
30
0
41
1
10
51.1201668370993
20
3.27732623318283
30
0
41
1
10
51.4522230094982
20
3.21915657097992
30
0
41
1
10
52.117828088489
20
3.08039096524044
30
0
41
1
10
52.4496359422373
20
3.00013267201135
30
0
41
1
10
53.112895007054
20
2.81968012118665
30
0
41
1
10
53.444455135982
20
2.7196202931805
30
0
41
1
10
54.1083378050046
20
2.50090127992806
30
0
41
1
10
54.4412163326168
20
2.3819760486891
30
0
41
1
10
55.4373625964687
20
2.00263474916804
30
0
41
1
10
56.0990996426562
20
1.71946857335095
30
0
41
1
10
57.0960315538356
20
1.2624374635848
30
0
41
1
10
57.4283979013515
20
1.10511234309402
30
0
41
1
10
58.0915479474336
20
0.784534393427407
30
0
41
1
10
58.4227653909423
20
0.621028178594798
30
0
41
1
10
59.0860756134454
20
0.290701566736203
30
0
41
1
10
59.4186271771501
20
0.123418346681547
30
0
41
1
10
60.082843787736
20
-0.210887772398451
30
0
41
1
10
60.4141945974732
20
-0.377641510790767
30
0
41
1
10
61.0768231691301
20
-0.707493816909818
30
0
41
1
10
61.4080756595093
20
-0.870642612167956
30
0
41
1
10
62.0718491666993
20
-1.1906424997631
30
0
41
1
10
62.4043888133865
20
-1.34743755705833
30
0
41
1
10
63.0674601351478
20
-1.64974203991622
30
0
41
1
10
63.3986151271269
20
-1.79550013777077
30
0
41
1
10
64.0612937204862
20
-2.07427429277476
30
0
41
1
10
64.3930903950119
20
-2.20736133235303
30
0
41
1
10
65.3895040899533
20
-2.58314817803483
30
0
41
1
10
66.051057751417
20
-2.8001790761567
30
0
41
1
10
67.0473555809785
20
-3.06539358353476
30
0
41
1
10
67.3794399905716
20
-3.14353265299516
30
0
41
1
10
67.8765891233995
20
-3.24408112037477
30
0
41
1
10
68.0422340605178
20
-3.27485010805282
30
0
41
1
10
68.3735084049903
20
-3.33077854390237
30
0
41
1
10
68.5389500682389
20
-3.3560350808491
30
0
41
1
10
68.704855975282
20
-3.3782083978202
30
0
0
SPLINE
5
C9
100
AcDbEntity
8
1
62
256
6
ByLayer
370
18
48
1
60
0
100
AcDbSpline
70
4
71
3
72
28
73
24
40
0
40
0
40
0
40
0
40
0.0312499999999994
40
0.0312499999999994
40
0.0624999999999988
40
0.0624999999999988
40
0.0937499999999981
40
0.0937499999999981
40
0.124999999999998
40
0.124999999999998
40
0.1875
40
0.1875
40
0.250000000000003
40
0.250000000000003
40
0.375000000000004
40
0.375000000000004
40
0.500000000000005
40
0.500000000000005
40
0.750000000000003
40
0.750000000000003
40
0.875000000000001
40
0.875000000000001
40
1
40
1
40
1
40
1
41
1
10
3.99557948221536
20
2.63360071939448
30
0
41
1
10
4.01671596113877
20
2.65895125360183
30
0
41
1
10
4.04272285961875
20
2.68248096284174
30
0
41
1
10
4.10013270667983
20
2.72488016795714
30
0
41
1
10
4.1317140267131
20
2.74402317376837
30
0
41
1
10
4.19928185357696
20
2.77927522027474
30
0
41
1
10
4.23541880709223
20
2.79541037061233
30
0
41
1
10
4.30958507112831
20
2.82469414745617
30
0
41
1
10
4.34780952377108
20
2.83795087218152
30
0
41
1
10
4.46517464484128
20
2.8745779170265
30
0
41
1
10
4.54696892857265
20
2.89485670887959
30
0
41
1
10
4.71561750760549
20
2.92999784965627
30
0
41
1
10
4.80122646889697
20
2.94456561060872
30
0
41
1
10
5.06037994644777
20
2.98199012987314
30
0
41
1
10
5.23649716071967
20
2.99875913673569
30
0
41
1
10
5.59364854854218
20
3.02193517817833
30
0
41
1
10
5.77507299447748
20
3.02814787028876
30
0
41
1
10
6.31356600090129
20
3.03334781433946
30
0
41
1
10
6.66935502177179
20
3.01992353816303
30
0
41
1
10
7.1982960737551
20
2.97035014230971
30
0
41
1
10
7.37441912258663
20
2.94854541411092
30
0
41
1
10
7.71620480768379
20
2.8933804224416
30
0
41
1
10
7.88288564777196
20
2.85995942064767
30
0
41
1
10
8.04533270432145
20
2.81936655065485
30
0
0
SPLINE
5
CA
100
AcDbEntity
8
1
62
256
6
ByLayer
370
18
48
1
60
0
100
AcDbSpline
70
4
71
3
72
10
73
6
40
0
40
0
40
0
40
0
40
0.322223200907596
40
0.322223200907596
40
1
40
1
40
1
40
1
41
1
10
49.2735914372356
20
-3.37035006835705
30
0
41
1
10
49.1190762793927
20
-3.37006717542022
30
0
41
1
10
48.9641569531439
20
-3.3672416550929
30
0
41
1
10
48.4842882952842
20
-3.35088075281524
30
0
41
1
10
48.1596784025441
20
-3.3288727108262
30
0
41
1
10
47.8350103230565
20
-3.29590695998866
30
0
0
SPLINE
5
CB
100
AcDbEntity
8
1
62
256
6
ByLayer
370
13
48
1
60
0
100
AcDbSpline
70
4
71
3
72
46
73
42
40
0
40
0
40
0
40
0
40
0.0013437020549775
40
0.0013437020549775
40
0.0573316174287149
40
0.0573316174287149
40
0.113319532802452
40
0.113319532802452
40
0.16930744817619
40
0.16930744817619
40
0.225295363549928
40
0.225295363549928
40
0.281283278923665
40
0.281283278923665
40
0.337271194297403
40
0.337271194297403
40
0.365265151984271
40
0.365265151984271
40
0.39325910967114
40
0.39325910967114
40
0.449247025044878
40
0.449247025044878
40
0.505234940418615
40
0.505234940418615
40
0.561222855792353
40
0.561222855792353
40
0.61721077116609
40
0.61721077116609
40
0.673198686539828
40
0.673198686539828
40
0.729186601913566
40
0.729186601913566
40
0.785174517287303
40
0.785174517287303
40
0.84116243266104
40
0.84116243266104
40
0.897150348034778
40
0.897150348034778
40
0.953138263408516
40
0.953138263408516
40
1
40
1
40
1
40
1
41
1
10
47.8350103248667
20
-3.29590696017252
30
0
41
1
10
47.8270267317598
20
-3.29509633184944
30
0
41
1
10
47.8190431034693
20
-3.29427907774101
30
0
41
1
10
47.4784043969145
20
-3.25912664220232
30
0
41
1
10
47.1456519201453
20
-3.21314021389483
30
0
41
1
10
46.4789699959086
20
-3.09936211317188
30
0
41
1
10
46.1455852542402
20
-3.03160349647359
30
0
41
1
10
45.4823438208079
20
-2.87646105920854
30
0
41
1
10
45.1517564184388
20
-2.78890192360544
30
0
41
1
10
44.491672445573
20
-2.59583252794985
30
0
41
1
10
44.1621379925473
20
-2.49036424659096
30
0
41
1
10
43.5025774274545
20
-2.26326118513185
30
0
41
1
10
43.1725313697237
20
-2.14158356794246
30
0
41
1
10
42.5110308789676
20
-1.88381661941551
30
0
41
1
10
42.1795522709743
20
-1.74778169956895
30
0
41
1
10
41.6800196822186
20
-1.5346438909497
30
0
41
1
10
41.5129552760902
20
-1.46199721011104
30
0
41
1
10
41.179390566283
20
-1.31456668887009
30
0
41
1
10
41.0127654149258
20
-1.23973331648645
30
0
41
1
10
40.5132213605613
20
-1.01224651942735
30
0
41
1
10
40.1805723893538
20
-0.856695167812035
30
0
41
1
10
39.5144384055646
20
-0.540835792239562
30
0
41
1
10
39.180427542427
20
-0.380288757404969
30
0
41
1
10
38.513285251437
20
-0.0577837075072978
30
0
41
1
10
38.1804354685663
20
0.103976503595618
30
0
41
1
10
37.5145734148081
20
0.425131056436669
30
0
41
1
10
37.1815368875548
20
0.584467432325852
30
0
41
1
10
36.5144010754788
20
0.898973341146899
30
0
41
1
10
36.1803503239818
20
1.05396427361498
30
0
41
1
10
35.5134513981338
20
1.35433301010724
30
0
41
1
10
35.1800873962547
20
1.49986225874929
30
0
41
1
10
34.5126570118453
20
1.78035736017822
30
0
41
1
10
34.1785996361824
20
1.91512823283674
30
0
41
1
10
33.5141810562893
20
2.16839398903275
30
0
41
1
10
33.1830448118411
20
2.28711748678106
30
0
41
1
10
32.5220345217763
20
2.50840762640769
30
0
41
1
10
32.1921074190577
20
2.61079734678174
30
0
41
1
10
31.5318849217441
20
2.79663688218903
30
0
41
1
10
31.2015547883985
20
2.88000981721854
30
0
41
1
10
30.5936352621027
20
3.01534425705691
30
0
41
1
10
30.3161995262498
20
3.07012513479708
30
0
41
1
10
30.0378195888284
20
3.11736614981007
30
0
0
SPLINE
5
CC
100
AcDbEntity
8
1
62
256
6
ByLayer
370
18
48
1
60
0
100
AcDbSpline
70
4
71
3
72
8
73
4
40
0
40
0
40
0
40
0
40
1
40
1
40
1
40
1
41
1
10
5.88871986297573
20
-3.29221255070612
30
0
41
1
10
5.83742138825784
20
-3.29253853635322
30
0
41
1
10
5.78611174710079
20
-3.29259235163886
30
0
41
1
10
5.73478867105541
20
-3.29237306087015
30
0
0
SPLINE
5
CD
100
AcDbEntity
8
1
62
256
6
ByLayer
370
13
48
1
60
0
100
AcDbSpline
70
4
71
3
72
8
73
4
40
0
40
0
40
0
40
0
40
1
40
1
40
1
40
1
41
1
10
5.73478867207723
20
-3.2923730608745
30
0
41
1
10
5.4745301327678
20
-3.29126104073458
30
0
41
1
10
5.21392611682364
20
-3.28312612926894
30
0
41
1
10
4.95268081892016
20
-3.26784631231624
30
0
0
SPLINE
5
CE
100
AcDbEntity
8
1
62
256
6
ByLayer
370
18
48
1
60
0
100
AcDbSpline
70
4
71
3
72
8
73
4
40
0
40
0
40
0
40
0
40
1
40
1
40
1
40
1
41
1
10
68.7598081739261
20
3.46779013920289
30
0
41
1
10
68.9288169660687
20
3.04932772918016
30
0
41
1
10
69.1015128911578
20
2.61692212256625
30
0
41
1
10
69.2700010490295
20
2.16626049314277
30
0
0
SPLINE
5
CF
100
AcDbEntity
8
1
62
256
6
ByLayer
370
18
48
1
60
0
100
AcDbSpline
70
4
71
4
72
10
73
5
40
0
40
0
40
0
40
0
40
0
40
1
40
1
40
1
40
1
40
1
41
1
10
12.3021187647016
20
1.42655382531748
30
0
41
1
10
12.1441935895059
20
1.24474437939381
30
0
41
1
10
11.9862684143101
20
1.06293493347016
30
0
41
1
10
11.8283432391144
20
0.881125487546512
30
0
41
1
10
11.6704180639186
20
0.699316041622865
30
0
0
SPLINE
5
D0
100
AcDbEntity
8
1
62
256
6
ByLayer
370
18
48
1
60
0
100
AcDbSpline
70
4
71
3
72
8
73
4
40
0
40
0
40
0
40
0
40
1
40
1
40
1
40
1
41
1
10
69.9578667231867
20
-0.183553432950731
30
0
41
1
10
69.7262151417729
20
-0.843643480704145
30
0
41
1
10
69.4969207606899
20
-1.50454383239449
30
0
41
1
10
69.2700010490295
20
-2.16626049314291
30
0
0
SPLINE
5
D1
100
AcDbEntity
8
1
62
256
6
ByLayer
370
18
48
1
60
0
100
AcDbSpline
70
4
71
3
72
8
73
4
40
0
40
0
40
0
40
0
40
1
40
1
40
1
40
1
41
1
10
68.7048559752778
20
-3.3782083978312
30
0
41
1
10
68.7072011482175
20
-3.36676214300692
30
0
41
1
10
68.7092571022038
20
-3.35569820365132
30
0
41
1
10
68.7110284061885
20
-3.34500664269254
30
0
0
SPLINE
5
D2
100
AcDbEntity
8
1
62
256
6
ByLayer
370
13
48
1
60
0
100
AcDbSpline
70
4
71
3
72
87
73
83
40
0
40
0
40
0
40
0
40
0.0110324898172828
40
0.0173719244139948
40
0.0300507936074198
40
0.0427296628008448
40
0.0617479665909818
40
0.0680874011876943
40
0.0807662703811188
40
0.0934451395745438
40
0.112463443364681
40
0.118802877961393
40
0.131481747154818
40
0.144160616348243
40
0.16317892013838
40
0.169518354735092
40
0.182197223928514
40
0.194876093121943
40
0.21389439691208
40
0.220233831508792
40
0.232912700702216
40
0.24559156989564
40
0.264609873685782
40
0.270949308282491
40
0.283628177475915
40
0.296307046669339
40
0.315325350459478
40
0.32166478505619
40
0.334343654249613
40
0.347022523443039
40
0.366040827233176
40
0.372380261829889
40
0.385059131023313
40
0.397738000216736
40
0.416756304006878
40
0.423095738603588
40
0.435774607797012
40
0.448453476990436
40
0.467471780780575
40
0.473811215377287
40
0.486490084570712
40
0.499168953764135
40
0.518187257554273
40
0.524526692150986
40
0.537205561344411
40
0.549884430537837
40
0.568902734327973
40
0.575242168924685
40
0.587921038118108
40
0.600599907311534
40
0.61961821110167
40
0.625957645698384
40
0.638636514891809
40
0.651315384085235
40
0.670333687875371
40
0.676673122472083
40
0.689351991665508
40
0.702030860858932
40
0.721049164649072
40
0.727388599245782
40
0.740067468439206
40
0.752746337632633
40
0.771764641422768
40
0.778104076019482
40
0.790782945212906
40
0.803461814406331
40
0.822480118196466
40
0.828819552793181
40
0.841498421986606
40
0.854177291180029
40
0.873195594970166
40
0.87953502956688
40
0.892213898760305
40
0.904892767953727
40
0.923911071743865
40
0.930250506340579
40
0.942929375534003
40
0.955608244727429
40
0.974626548517564
40
0.980965983114278
40
0.993644852307703
40
1
40
1
40
1
40
1
41
1
10
58.4945066992273
20
-0.0012752404905996
30
0
41
1
10
58.4440895336105
20
0.0097717907191566
30
0
41
1
10
58.3647030731938
20
0.0271735658200498
30
0
41
1
10
58.2273749319946
20
0.0572689105828203
30
0
41
1
10
58.0825108669735
20
0.088932208664147
30
0
41
1
10
57.8797036894098
20
0.1331885137526
30
0
41
1
10
57.705884338937
20
0.171096059033857
30
0
41
1
10
57.5320620639105
20
0.208895729028199
30
0
41
1
10
57.3871980392797
20
0.240252016696388
30
0
41
1
10
57.1843910113255
20
0.283969118529654
30
0
41
1
10
57.010571838894
20
0.321300466185334
30
0
41
1
10
56.8367497280861
20
0.358427609705131
30
0
41
1
10
56.6918857993125
20
0.389160266549424
30
0
41
1
10
56.4890788273063
20
0.431894368946984
30
0
41
1
10
56.3152596437345
20
0.468269585304256
30
0
41
1
10
56.1414375012049
20
0.504347457329174
30
0
41
1
10
55.9965735311295
20
0.534145704645112
30
0
41
1
10
55.7937664693897
20
0.575465927530359
30
0
41
1
10
55.6199471796459
20
0.61051879446515
30
0
41
1
10
55.4461249111512
20
0.645183635587812
30
0
41
1
10
55.3012608343121
20
0.673746478418053
30
0
41
1
10
55.0984536510475
20
0.713234928910111
30
0
41
1
10
54.9246343082468
20
0.746610955755272
30
0
41
1
10
54.7508120536391
20
0.779512892753331
30
0
41
1
10
54.6059480477088
20
0.80655262322449
30
0
41
1
10
54.4031410400976
20
0.843812314482022
30
0
41
1
10
54.2293218777776
20
0.875176462979112
30
0
41
1
10
54.0554997682429
20
0.905985218685031
30
0
41
1
10
53.9106358398204
20
0.931230338062988
30
0
41
1
10
53.7078288710209
20
0.965887121226756
30
0
41
1
10
53.5340096906402
20
0.994924493281586
30
0
41
1
10
53.3601875500036
20
1.02333089831563
30
0
41
1
10
53.2153235763015
20
1.0465281966878
30
0
41
1
10
53.0125164978855
20
1.07823431477297
30
0
41
1
10
52.8386971844634
20
1.10465295819867
30
0
41
1
10
52.6648748872461
20
1.13037043199986
30
0
41
1
10
52.5200107893065
20
1.15128513389624
30
0
41
1
10
52.317203589257
20
1.17971840324947
30
0
41
1
10
52.1433842468993
20
1.20324861386987
30
0
41
1
10
51.9695620075816
20
1.22601376054561
30
0
41
1
10
51.8246980174941
20
1.244431154294
30
0
41
1
10
51.6218910289904
20
1.26929999345606
30
0
41
1
10
51.4480718787501
20
1.28970216550567
30
0
41
1
10
51.2742497749925
20
1.30928616740061
30
0
41
1
10
51.1293858518493
20
1.32502340346931
30
0
41
1
10
50.9265788946706
20
1.34608377407395
30
0
41
1
10
50.7527597261274
20
1.36315928034938
30
0
41
1
10
50.5789375967622
20
1.37937092701023
30
0
41
1
10
50.4340736286899
20
1.39227363861803
30
0
41
1
10
50.2312665495683
20
1.40931745595384
30
0
41
1
10
50.0574472283903
20
1.42289577126149
30
0
41
1
10
49.8836249192518
20
1.43557150613256
30
0
41
1
10
49.7387608134587
20
1.44550837287852
30
0
41
1
10
49.535953611602
20
1.45835980338441
30
0
41
1
10
49.3621342777893
20
1.46829806359994
30
0
41
1
10
49.1883120566946
20
1.4773019504353
30
0
41
1
10
49.0434480824101
20
1.48416464131807
30
0
41
1
10
48.8406411101945
20
1.49268292697965
30
0
41
1
10
48.6668219673801
20
1.49887450829334
30
0
41
1
10
48.492999864179
20
1.50411539762984
30
0
41
1
10
48.3481359401128
20
1.50783891460713
30
0
41
1
10
48.1453289811545
20
1.51194949670756
30
0
41
1
10
47.9715098087521
20
1.51434438422896
30
0
41
1
10
47.7976876721149
20
1.51578023858826
30
0
41
1
10
47.6528236947275
20
1.51633427008068
30
0
41
1
10
47.4500165976281
20
1.51600261486919
30
0
41
1
10
47.27619725797
20
1.51457922491036
30
0
41
1
10
47.1023749302455
20
1.5121955405707
30
0
41
1
10
46.9575108115231
20
1.50957285901163
30
0
41
1
10
46.7547035994463
20
1.5047967409954
30
0
41
1
10
46.5808842659862
20
1.49956090743265
30
0
41
1
10
46.4070620540225
20
1.49336991332799
30
0
41
1
10
46.2621980898264
20
1.48758502887207
30
0
41
1
10
46.059391131979
20
1.47839593509116
30
0
41
1
10
45.8855720011823
20
1.46939040886667
30
0
41
1
10
45.7117499084545
20
1.45945293450472
30
0
41
1
10
45.566885992349
20
1.45056916355688
30
0
41
1
10
45.3640790420883
20
1.43707444889026
30
0
41
1
10
45.1902598728369
20
1.42440656198107
30
0
41
1
10
45.0164377337137
20
1.41083726854492
30
0
41
1
10
44.9004747362285
20
1.40132465951015
30
0
41
1
10
44.8134853309123
20
1.39386091867541
30
0
41
1
10
44.7844412891806
20
1.39133277092713
30
0
0
SPLINE
5
D3
100
AcDbEntity
8
1
62
256
6
ByLayer
370
13
48
1
60
0
100
AcDbSpline
70
4
71
3
72
25
73
21
40
0
40
0
40
0
40
0
40
0.0420566565010737
40
0.121885268459317
40
0.148494805778732
40
0.20171388041756
40
0.25493295505639
40
0.334761567014633
40
0.361371104334049
40
0.414590178972879
40
0.467809253611707
40
0.547637865569952
40
0.574247402889365
40
0.627466477528195
40
0.680685552167025
40
0.760514164125268
40
0.787123701444683
40
0.813733238764097
40
0.893561850722342
40
1
40
1
40
1
40
1
41
1
10
14.9366753506087
20
0.0114235480843376
30
0
41
1
10
14.890883957402
20
0.0214406861531131
30
0
41
1
10
14.7581762748795
20
0.0504715533203636
30
0
41
1
10
14.5965094914782
20
0.0858732975655129
30
0
41
1
10
14.4226872778666
20
0.123883646563456
30
0
41
1
10
14.2778233209524
20
0.155452097391219
30
0
41
1
10
14.0750163878714
20
0.199529518173477
30
0
41
1
10
13.9011972896649
20
0.237234765553609
30
0
41
1
10
13.7273752339943
20
0.274789370829495
30
0
41
1
10
13.5825113490098
20
0.305913045061828
30
0
41
1
10
13.3797044370128
20
0.349255052231569
30
0
41
1
10
13.205885290687
20
0.386213759604857
30
0
41
1
10
13.0320631608702
20
0.422926144741382
30
0
41
1
10
12.8871991821329
20
0.453285939480366
30
0
41
1
10
12.6843920776577
20
0.495450307493797
30
0
41
1
10
12.5105727257363
20
0.531287568004017
30
0
41
1
10
12.3657271554989
20
0.560905420851213
30
0
41
1
10
12.2208562337467
20
0.590234943011466
30
0
41
1
10
11.9890564282964
20
0.63661157214878
30
0
41
1
10
11.7862848500786
20
0.676680038200089
30
0
41
1
10
11.6704180639186
20
0.699316041622864
30
0
0
SPLINE
5
D4
100
AcDbEntity
8
1
62
256
6
ByLayer
370
18
48
1
60
0
100
AcDbSpline
70
4
71
3
72
18
73
14
40
0
40
0
40
0
40
0
40
0.250000000000002
40
0.250000000000002
40
0.375000000000001
40
0.375000000000001
40
0.5
40
0.5
40
0.75
40
0.75
40
0.875
40
0.875
40
1
40
1
40
1
40
1
41
1
10
68.6629293709104
20
-3.21059890473467
30
0
41
1
10
68.6051683618378
20
-3.15015246330313
30
0
41
1
10
68.5536832093855
20
-3.07629039336717
30
0
41
1
10
68.4861074404844
20
-2.94486470959174
30
0
41
1
10
68.4651981333716
20
-2.89760180332664
30
0
41
1
10
68.4267497966993
20
-2.79587149356965
30
0
41
1
10
68.409133834412
20
-2.74108717636941
30
0
41
1
10
68.362373085161
20
-2.56803488075681
30
0
41
1
10
68.3391792107199
20
-2.4413320732647
30
0
41
1
10
68.3163549865045
20
-2.23428070489322
30
0
41
1
10
68.3107511623097
20
-2.16241677539392
30
0
41
1
10
68.3036771236424
20
-2.01281760059226
30
0
41
1
10
68.3022200459317
20
-1.93481278457816
30
0
41
1
10
68.3029080414943
20
-1.85490186682151
30
0
0
SPLINE
5
D5
100
AcDbEntity
8
1
62
256
6
ByLayer
370
18
48
1
60
0
100
AcDbSpline
70
4
71
3
72
30
73
26
40
0
40
0
40
0
40
0
40
0.086117885212902
40
0.086117885212902
40
0.172235770425804
40
0.172235770425804
40
0.258353655638706
40
0.258353655638706
40
0.344471540851608
40
0.344471540851608
40
0.43058942606451
40
0.43058942606451
40
0.516707311277412
40
0.516707311277412
40
0.602825196490314
40
0.602825196490314
40
0.688943081703216
40
0.688943081703216
40
0.775060966916118
40
0.775060966916118
40
0.86117885212902
40
0.86117885212902
40
0.947296737341922
40
0.947296737341922
40
1
40
1
40
1
40
1
41
1
10
9.93178629777935
20
-2.41891916081121
30
0
41
1
10
10.2381181987084
20
-2.51874946000998
30
0
41
1
10
10.5433261168189
20
-2.61150343387791
30
0
41
1
10
11.1537689574506
20
-2.78012860957952
30
0
41
1
10
11.458710600479
20
-2.8571217700194
30
0
41
1
10
12.0689526580925
20
-2.99476078646066
30
0
41
1
10
12.374661743065
20
-3.05466760701236
30
0
41
1
10
12.9865976003078
20
-3.15554677709918
30
0
41
1
10
13.2919179551883
20
-3.19702111288774
30
0
41
1
10
13.902178351185
20
-3.26303301050797
30
0
41
1
10
14.2070610214381
20
-3.28607415785291
30
0
41
1
10
14.8175135844725
20
-3.31191256627679
30
0
41
1
10
15.1235378210035
20
-3.31495036139771
30
0
41
1
10
15.7350197138163
20
-3.30366466157537
30
0
41
1
10
16.0401069921858
20
-3.28854606790622
30
0
41
1
10
16.6501780480378
20
-3.23739410075402
30
0
41
1
10
16.9550796161905
20
-3.20191439711772
30
0
41
1
10
17.5654826789406
20
-3.11392780130106
30
0
41
1
10
17.8714662920673
20
-3.06162189544321
30
0
41
1
10
18.4824441945954
20
-2.93645919236818
30
0
41
1
10
18.7874275923843
20
-2.86480950562256
30
0
41
1
10
19.3973079820177
20
-2.70681169614394
30
0
41
1
10
19.7019723930125
20
-2.62084456313443
30
0
41
1
10
20.1939441957647
20
-2.46804627404447
30
0
41
1
10
20.3810883677422
20
-2.40694036670251
30
0
41
1
10
20.5681876833071
20
-2.34327712604812
30
0
0
SPLINE
5
D6
100
AcDbEntity
8
1
62
256
6
ByLayer
370
18
48
1
60
0
100
AcDbSpline
70
4
71
3
72
78
73
74
40
0
40
0
40
0
40
0
40
0.0199286301526783
40
0.0199286301526783
40
0.0534766981489874
40
0.0534766981489874
40
0.0870247661452968
40
0.0870247661452968
40
0.120572834141606
40
0.120572834141606
40
0.154120902137916
40
0.154120902137916
40
0.17089493613607
40
0.17089493613607
40
0.187668970134225
40
0.187668970134225
40
0.221217038130535
40
0.221217038130535
40
0.254765106126844
40
0.254765106126844
40
0.288313174123153
40
0.288313174123153
40
0.321861242119463
40
0.321861242119463
40
0.355409310115772
40
0.355409310115772
40
0.388957378112081
40
0.388957378112081
40
0.422505446108391
40
0.422505446108391
40
0.439279480106545
40
0.439279480106545
40
0.456053514104699
40
0.456053514104699
40
0.489601582101006
40
0.489601582101006
40
0.506375616099159
40
0.506375616099159
40
0.523149650097312
40
0.523149650097312
40
0.556697718093619
40
0.556697718093619
40
0.590245786089926
40
0.590245786089926
40
0.60701982008808
40
0.60701982008808
40
0.623793854086233
40
0.623793854086233
40
0.657341922082539
40
0.657341922082539
40
0.674115956080691
40
0.674115956080691
40
0.690889990078844
40
0.690889990078844
40
0.72443805807515
40
0.72443805807515
40
0.757986126071455
40
0.757986126071455
40
0.791534194067761
40
0.791534194067761
40
0.825082262064066
40
0.825082262064066
40
0.858630330060372
40
0.858630330060372
40
0.892178398056678
40
0.892178398056678
40
0.925726466052983
40
0.925726466052983
40
0.959274534049289
40
0.959274534049289
40
0.992822602045594
40
0.992822602045594
40
1
40
1
40
1
40
1
41
1
10
36.8494713714597
20
3.34925988701397
30
0
41
1
10
37.0304462770557
20
3.34966743926916
30
0
41
1
10
37.2112874111436
20
3.34692047620317
30
0
41
1
10
37.6964564019527
20
3.33103101999848
30
0
41
1
10
38.0008593213217
20
3.3102205907137
30
0
41
1
10
38.6106405885425
20
3.24859190244266
30
0
41
1
10
38.916310721309
20
3.2083964657669
30
0
41
1
10
39.52595378993
20
3.11163666509521
30
0
41
1
10
39.8302357875712
20
3.05340784590365
30
0
41
1
10
40.4391049869965
20
2.91896839289578
30
0
41
1
10
40.7436931896377
20
2.84290654844895
30
0
41
1
10
41.2011128508486
20
2.71780821576789
30
0
41
1
10
41.3538664872411
20
2.67420069777751
30
0
41
1
10
41.658809918452
20
2.58271411482627
30
0
41
1
10
41.8110648438454
20
2.53484298277118
30
0
41
1
10
42.2678354893271
20
2.3860401276371
30
0
41
1
10
42.5719760783103
20
2.27932297614069
30
0
41
1
10
43.1805606954718
20
2.05461238822644
30
0
41
1
10
43.4849012621412
20
1.93625930774536
30
0
41
1
10
44.0950824948884
20
1.686634322266
30
0
41
1
10
44.3998498061008
20
1.55652775951071
30
0
41
1
10
45.0086080029054
20
1.289060324389
30
0
41
1
10
45.3125810750457
20
1.15151013928923
30
0
41
1
10
45.9212755079899
20
0.869604803163355
30
0
41
1
10
46.2262151692269
20
0.725238568101389
30
0
41
1
10
46.8362143658382
20
0.432925697774664
30
0
41
1
10
47.1405985176495
20
0.28544092125
30
0
41
1
10
47.7489886543116
20
-0.0104659658012451
30
0
41
1
10
48.0530650705618
20
-0.158743018843808
30
0
41
1
10
48.5098147499328
20
-0.379944367904642
30
0
41
1
10
48.6620918214373
20
-0.453638824872115
30
0
41
1
10
48.9669394672102
20
-0.600450255511362
30
0
41
1
10
49.1195476176274
20
-0.673614147378999
30
0
41
1
10
49.5763856300329
20
-0.891363361728082
30
0
41
1
10
49.8804302945955
20
-1.03347881290887
30
0
41
1
10
50.3364076442993
20
-1.24177813114406
30
0
41
1
10
50.488462858622
20
-1.31022083350533
30
0
41
1
10
50.792483207124
20
-1.4457524216476
30
0
41
1
10
50.9444856673371
20
-1.51289561362259
30
0
41
1
10
51.4008509316737
20
-1.71114329198707
30
0
41
1
10
51.7060999459523
20
-1.83782298869173
30
0
41
1
10
52.3148266374009
20
-2.07956813511638
30
0
41
1
10
52.6188327220212
20
-2.19418070854835
30
0
41
1
10
53.0746139560286
20
-2.35835182249065
30
0
41
1
10
53.226597231292
20
-2.4114315228781
30
0
41
1
10
53.5307099148104
20
-2.51288523450509
30
0
41
1
10
53.6828238957479
20
-2.56180147401537
30
0
41
1
10
54.1397587811697
20
-2.70292627993726
30
0
41
1
10
54.4448275036813
20
-2.78967658142997
30
0
41
1
10
54.9011297302795
20
-2.90964813543533
30
0
41
1
10
55.0530457459828
20
-2.94858882334523
30
0
41
1
10
55.3569552694923
20
-3.02042004678268
30
0
41
1
10
55.5088694528712
20
-3.05347719994208
30
0
41
1
10
55.9646539745057
20
-3.14615944520818
30
0
41
1
10
56.2687282948431
20
-3.1983749357056
30
0
41
1
10
56.8784608348885
20
-3.28329178719491
30
0
41
1
10
57.1832339714131
20
-3.31600025689602
30
0
41
1
10
57.7917398476974
20
-3.36300956954401
30
0
41
1
10
58.0957502915341
20
-3.37731993827916
30
0
41
1
10
58.7038928508168
20
-3.38803761291814
30
0
41
1
10
59.0081344336466
20
-3.38556972454526
30
0
41
1
10
59.6177988582672
20
-3.35718747078008
30
0
41
1
10
59.9218065762317
20
-3.33209563372949
30
0
41
1
10
60.5296192193093
20
-3.26292142945005
30
0
41
1
10
60.8333187909798
20
-3.2190124495439
30
0
41
1
10
61.4412706241608
20
-3.11240019220281
30
0
41
1
10
61.7461048891953
20
-3.04943315778388
30
0
41
1
10
62.3552072870501
20
-2.9070150197515
30
0
41
1
10
62.6591237595713
20
-2.82809289828563
30
0
41
1
10
63.2668258941096
20
-2.65374109376268
30
0
41
1
10
63.5705622132144
20
-2.55819625022426
30
0
41
1
10
63.9397333776531
20
-2.43343563889769
30
0
41
1
10
64.0048444383975
20
-2.41112634614069
30
0
41
1
10
64.0699780667964
20
-2.38850669238695
30
0
0
SPLINE
5
D7
100
AcDbEntity
8
1
62
256
6
ByLayer
370
18
48
1
60
0
100
AcDbSpline
70
4
71
3
72
16
73
12
40
0
40
0
40
0
40
0
40
0.249999999999998
40
0.249999999999998
40
0.375000000000002
40
0.375000000000002
40
0.500000000000006
40
0.500000000000006
40
0.750000000000003
40
0.750000000000003
40
1
40
1
40
1
40
1
41
1
10
69.4310216331152
20
-0.914350243874452
30
0
41
1
10
69.4704005171673
20
-0.897378144580017
30
0
41
1
10
69.5139479163728
20
-0.859520362968283
30
0
41
1
10
69.5856933890195
20
-0.772912317871288
30
0
41
1
10
69.6100523330423
20
-0.739776887783648
30
0
41
1
10
69.6596642792397
20
-0.665595245641924
30
0
41
1
10
69.6850328283399
20
-0.624341135473969
30
0
41
1
10
69.7617433384507
20
-0.49004994693064
30
0
41
1
10
69.8123157426523
20
-0.389161963098275
30
0
41
1
10
69.9107864593794
20
-0.169352379063099
30
0
41
1
10
69.9569051447696
20
-0.0544452424911981
30
0
41
1
10
69.9998300547986
20
0.0650340363844464
30
0
0
SPLINE
5
D8
100
AcDbEntity
8
1
62
256
6
ByLayer
370
18
48
1
60
0
100
AcDbSpline
70
4
71
3
72
10
73
6
40
0
40
0
40
0
40
0
40
0.5
40
0.5
40
1
40
1
40
1
40
1
41
1
10
8.04533270433123
20
2.81936655065238
30
0
41
1
10
8.7515845505759
20
2.64288573292632
30
0
41
1
10
9.46003522074108
20
2.43754830366123
30
0
41
1
10
10.8792874735849
20
1.97382562768897
30
0
41
1
10
11.5901131809063
20
1.71538134958988
30
0
41
1
10
12.3021187647018
20
1.42655382531743
30
0
0
SPLINE
5
D9
100
AcDbEntity
8
1
62
256
6
ByLayer
370
18
48
1
60
0
100
AcDbSpline
70
4
71
3
72
10
73
6
40
0
40
0
40
0
40
0
40
0.5
40
0.5
40
1
40
1
40
1
40
1
41
1
10
68.711028406181
20
-3.34500664273861
30
0
41
1
10
68.7096192955743
20
-3.31236949350992
30
0
41
1
10
68.7035963037388
20
-3.28501791481392
30
0
41
1
10
68.6866557942752
20
-3.24109035983855
30
0
41
1
10
68.6755641793339
20
-3.22382113231498
30
0
41
1
10
68.6629293709104
20
-3.21059890473467
30
0
0
SPLINE
5
DA
100
AcDbEntity
8
1
62
256
6
ByLayer
370
18
48
1
60
0
100
AcDbSpline
70
4
71
3
72
31
73
27
40
0
40
0
40
0
40
0
40
0.0625000000000001
40
0.0625000000000001
40
0.125
40
0.125
40
0.25
40
0.25
40
0.3125
40
0.3125
40
0.375
40
0.375
40
0.5
40
0.5
40
0.5625
40
0.5625
40
0.625000000000001
40
0.625000000000001
40
0.75
40
0.75
40
0.8125
40
0.8125
40
0.875
40
0.9375
40
0.9375
40
1
40
1
40
1
40
1
41
1
10
4.5388518894199
20
0.412847656214069
30
0
41
1
10
4.53881215009298
20
0.305947270236061
30
0
41
1
10
4.53875290469483
20
0.198424417500917
30
0
41
1
10
4.53859978682939
20
-0.0178832092132666
30
0
41
1
10
4.53850527852802
20
-0.127243571696624
30
0
41
1
10
4.53818002607807
20
-0.451950093183683
30
0
41
1
10
4.53790908807204
20
-0.66417877531174
30
0
41
1
10
4.53744138609858
20
-0.976301553268144
30
0
41
1
10
4.53727506731798
20
-1.07929871271119
30
0
41
1
10
4.5369225690356
20
-1.28314193305391
30
0
41
1
10
4.53673744959315
20
-1.3833142963785
30
0
41
1
10
4.53616457282419
20
-1.67451811206391
30
0
41
1
10
4.53575701124183
20
-1.85805211152345
30
0
41
1
10
4.53510061428244
20
-2.11739494364642
30
0
41
1
10
4.53487283875432
20
-2.20159353690747
30
0
41
1
10
4.53440586702692
20
-2.36196173452939
30
0
41
1
10
4.53416700515442
20
-2.4380916941933
30
0
41
1
10
4.53342963254067
20
-2.65463657772997
30
0
41
1
10
4.53291093437596
20
-2.78331480646151
30
0
41
1
10
4.53206403362748
20
-2.95209398457032
30
0
41
1
10
4.53177117245713
20
-3.00399544808096
30
0
41
1
10
4.53116943278911
20
-3.09751948363495
30
0
41
1
10
4.53054894524817
20
-3.18132786754276
30
0
41
1
10
4.52988119339716
20
-3.24596063137571
30
0
41
1
10
4.52918429526713
20
-3.30086918910547
30
0
41
1
10
4.52882004782401
20
-3.32351185561936
30
0
41
1
10
4.52844125521364
20
-3.34095088628911
30
0
0
SPLINE
5
DB
100
AcDbEntity
8
1
62
256
6
ByLayer
370
18
48
1
60
0
100
AcDbSpline
70
4
71
3
72
16
73
12
40
0
40
0
40
0
40
0
40
0.212056882629996
40
0.212056882629996
40
0.474704588419998
40
0.474704588419998
40
0.606028441314998
40
0.606028441314998
40
0.737352294209999
40
0.737352294209999
40
1
40
1
40
1
40
1
41
1
10
68.4471649826228
20
0.485875180365468
30
0
41
1
10
68.4801997752865
20
0.520141530893085
30
0
41
1
10
68.5159272240484
20
0.558833125455379
30
0
41
1
10
68.6002473580836
20
0.65196291676844
30
0
41
1
10
68.6497936828006
20
0.707910542935593
30
0
41
1
10
68.7307299211493
20
0.796481400352661
30
0
41
1
10
68.758891904073
20
0.826824572837609
30
0
41
1
10
68.8169159799862
20
0.887076170046583
30
0
41
1
10
68.8469156638706
20
0.917154260965731
30
0
41
1
10
68.9413666021948
20
1.00571649272868
30
0
41
1
10
69.010856341218
20
1.06348556900303
30
0
41
1
10
69.089394108378
20
1.1081586642843
30
0
0
SPLINE
5
DC
100
AcDbEntity
8
1
62
256
6
ByLayer
370
13
48
1
60
0
100
AcDbSpline
70
4
71
3
72
85
73
81
40
0
40
0
40
0
40
0
40
0.0189589896114461
40
0.0253742823695077
40
0.0382048678856308
40
0.051035453401754
40
0.0702813316759387
40
0.0766966244340002
40
0.0895272099501229
40
0.102357795466246
40
0.121603673740431
40
0.128018966498492
40
0.140849552014615
40
0.153680137530739
40
0.172926015804923
40
0.179341308562985
40
0.192171894079108
40
0.205002479595231
40
0.224248357869415
40
0.230663650627477
40
0.2434942361436
40
0.256324821659723
40
0.275570699933908
40
0.281985992691969
40
0.294816578208092
40
0.307647163724216
40
0.3268930419984
40
0.333308334756462
40
0.346138920272585
40
0.358969505788708
40
0.378215384062893
40
0.384630676820954
40
0.397461262337077
40
0.4102918478532
40
0.429537726127385
40
0.435953018885447
40
0.44878360440157
40
0.461614189917693
40
0.480860068191877
40
0.487275360949939
40
0.500105946466058
40
0.512936531982186
40
0.53218241025637
40
0.538597703014431
40
0.551428288530554
40
0.564258874046676
40
0.583504752320866
40
0.589920045078924
40
0.602750630595046
40
0.615581216111169
40
0.634827094385355
40
0.641242387143416
40
0.654072972659538
40
0.666903558175662
40
0.686149436449846
40
0.692564729207908
40
0.705395314724031
40
0.718225900240152
40
0.737471778514341
40
0.743887071272401
40
0.756717656788523
40
0.769548242304645
40
0.788794120578831
40
0.795209413336893
40
0.808039998853016
40
0.820870584369138
40
0.840116462643324
40
0.846531755401385
40
0.859362340917509
40
0.872192926433633
40
0.891438804707816
40
0.897854097465878
40
0.910684682981999
40
0.923515268498123
40
0.942761146772307
40
0.94917643953037
40
0.962007025046493
40
0.974837610562617
40
0.994083488836801
40
1
40
1
40
1
40
1
41
1
10
61.6333614873147
20
-1.39984245829441
30
0
41
1
10
61.5477430780822
20
-1.40703364411669
30
0
41
1
10
61.4331474769599
20
-1.416239342192
30
0
41
1
10
61.2606091614925
20
-1.42923269980096
30
0
41
1
10
61.1157597225182
20
-1.43955470735722
30
0
41
1
10
60.9129679963253
20
-1.45293884852885
30
0
41
1
10
60.7391311473409
20
-1.46330004330534
30
0
41
1
10
60.565297206964
20
-1.47274359172178
30
0
41
1
10
60.420447719591
20
-1.47999853412756
30
0
41
1
10
60.2176558614916
20
-1.48905531008452
30
0
41
1
10
60.0438188762842
20
-1.49568481619787
30
0
41
1
10
59.8699848335248
20
-1.50137865243298
30
0
41
1
10
59.7251353012774
20
-1.50549262650304
30
0
41
1
10
59.5223434426262
20
-1.51013589402066
30
0
41
1
10
59.3485064990838
20
-1.51297428396734
30
0
41
1
10
59.1746725071342
20
-1.51486636719434
30
0
41
1
10
59.0298229806008
20
-1.51580014509315
30
0
41
1
10
58.8270310478724
20
-1.51598394038382
30
0
41
1
10
58.6531939846757
20
-1.51500286491265
30
0
41
1
10
58.4793598563854
20
-1.51307641813131
30
0
41
1
10
58.3345102472633
20
-1.5108242996007
30
0
41
1
10
58.1317182743526
20
-1.50655363772404
30
0
41
1
10
57.9578812317138
20
-1.50176881786553
30
0
41
1
10
57.7840471431612
20
-1.49604683804145
30
0
41
1
10
57.6391975738917
20
-1.49063262306328
30
0
41
1
10
57.4364056711241
20
-1.48194982836648
30
0
41
1
10
57.2625687060672
20
-1.47340781228289
30
0
41
1
10
57.0887347118659
20
-1.46394707696743
30
0
41
1
10
56.9438852304395
20
-1.45542541972662
30
0
41
1
10
56.7410934446391
20
-1.44241857461026
30
0
41
1
10
56.5672565509192
20
-1.43020525026154
30
0
41
1
10
56.3934225798061
20
-1.41709893957488
30
0
41
1
10
56.2485730579866
20
-1.40555238047054
30
0
41
1
10
56.0457811226139
20
-1.38834668826758
30
0
41
1
10
55.8719440509131
20
-1.37258061580772
30
0
41
1
10
55.6981099156499
20
-1.35595885996648
30
0
41
1
10
55.5532602980203
20
-1.34150421803523
30
0
41
1
10
55.3504683067391
20
-1.32027615448848
30
0
41
1
10
55.1766312461916
20
-1.3011198997412
30
0
41
1
10
55.002797142653
20
-1.28115282641227
30
0
41
1
10
54.8579475663183
20
-1.26393688784131
30
0
41
1
10
54.6551556647424
20
-1.23890070238011
30
0
41
1
10
54.4813187103258
20
-1.2165470654387
30
0
41
1
10
54.3074847327008
20
-1.19343619706535
30
0
41
1
10
54.1626352630864
20
-1.17363324607754
30
0
41
1
10
53.9598434829849
20
-1.14504280738436
30
0
41
1
10
53.7860065815979
20
-1.11971832244569
30
0
41
1
10
53.6121725900773
20
-1.09369707710638
30
0
41
1
10
53.4673230495667
20
-1.07150649868336
30
0
41
1
10
53.2645310938593
20
-1.03964886158204
30
0
41
1
10
53.0906940120492
20
-1.01160730291403
30
0
41
1
10
52.91685987551
20
-0.98293648201178
30
0
41
1
10
52.7720102575266
20
-0.958580815689999
30
0
41
1
10
52.5692182630376
20
-0.923775619850062
30
0
41
1
10
52.3953811992998
20
-0.89329839416817
30
0
41
1
10
52.2215470938699
20
-0.862265644885809
30
0
41
1
10
52.0766975211616
20
-0.835989182469689
30
0
41
1
10
51.8739056362562
20
-0.798585792013853
30
0
41
1
10
51.7000687055087
20
-0.765979495751452
30
0
41
1
10
51.5262347565937
20
-0.732898021986188
30
0
41
1
10
51.3813853080711
20
-0.704966668490584
30
0
41
1
10
51.1785935447487
20
-0.665344724540574
30
0
41
1
10
51.0047566429212
20
-0.630941365790619
30
0
41
1
10
50.83092263612
20
-0.596148657842633
30
0
41
1
10
50.6860730797754
20
-0.566847726615009
30
0
41
1
10
50.4832811049693
20
-0.525411435751181
30
0
41
1
10
50.3094440110828
20
-0.4895601243594
30
0
41
1
10
50.1356098687652
20
-0.453406191182438
30
0
41
1
10
49.9907602455015
20
-0.423028226016896
30
0
41
1
10
49.7879682393927
20
-0.380188630195505
30
0
41
1
10
49.6141311638203
20
-0.343243723914014
30
0
41
1
10
49.4402970471228
20
-0.306086775829328
30
0
41
1
10
49.2954474687868
20
-0.274933708828741
30
0
41
1
10
49.0926555845865
20
-0.231118453311325
30
0
41
1
10
48.918818661591
20
-0.193450823342346
30
0
41
1
10
48.7449847245908
20
-0.15566563998803
30
0
41
1
10
48.6001352839173
20
-0.124052799576305
30
0
41
1
10
48.3973435224008
20
-0.0797075239807725
30
0
41
1
10
48.2257592151659
20
-0.0421951799650913
30
0
41
1
10
48.1121223942389
20
-0.0173384251795881
30
0
41
1
10
48.0854032553784
20
-0.011490648970863
30
0
0
SPLINE
5
DD
100
AcDbEntity
8
1
62
256
6
ByLayer
370
13
48
1
60
0
100
AcDbSpline
70
4
71
3
72
51
73
47
40
0
40
0
40
0
40
0
40
0.0011882084434869
40
0.0238884764334086
40
0.0465887444233277
40
0.080639146408209
40
0.0919892804031702
40
0.114689548393091
40
0.137389816383012
40
0.171440218367892
40
0.182790352362853
40
0.205490620352773
40
0.228190888342694
40
0.262241290327576
40
0.273591424322536
40
0.296291692312457
40
0.318991960302377
40
0.353042362287258
40
0.364392496282219
40
0.387092764272139
40
0.40979303226206
40
0.443843434246941
40
0.455193568241902
40
0.477893836231823
40
0.500594104221743
40
0.534644506206625
40
0.545994640201585
40
0.568694908191506
40
0.591395176181427
40
0.625445578166308
40
0.636795712161268
40
0.659495980151188
40
0.682196248141109
40
0.716246650125991
40
0.727596784120951
40
0.750297052110872
40
0.772997320100793
40
0.807047722085674
40
0.818397856080634
40
0.841098124070555
40
0.863798392060476
40
0.897848794045356
40
0.909198928040317
40
0.920549062035277
40
0.954599464020158
40
1
40
1
40
1
40
1
41
1
10
18.1893063610857
20
-1.39513298239262
30
0
41
1
10
18.1862734075029
20
-1.3953926156978
30
0
41
1
10
18.1252971983566
20
-1.40060410667837
30
0
41
1
10
18.0063847369736
20
-1.41043911396707
30
0
41
1
10
17.8035927591898
20
-1.42616823870714
30
0
41
1
10
17.6297557322338
20
-1.43856054941349
30
0
41
1
10
17.4559216853411
20
-1.45005657860116
30
0
41
1
10
17.3110721730155
20
-1.45903914642079
30
0
41
1
10
17.1082803827576
20
-1.47053651233958
30
0
41
1
10
16.9344435351003
20
-1.47927380107654
30
0
41
1
10
16.760609660231
20
-1.48708784929482
30
0
41
1
10
16.615760258935
20
-1.49297910950324
30
0
41
1
10
16.4129685223095
20
-1.50012006539245
30
0
41
1
10
16.2391315960657
20
-1.50510209072436
30
0
41
1
10
16.0652975178351
20
-1.50913954635453
30
0
41
1
10
15.920447891444
20
-1.51186463518181
30
0
41
1
10
15.7176558259096
20
-1.51455557367748
30
0
41
1
10
15.5438186650883
20
-1.51571821356114
30
0
41
1
10
15.3699844722027
20
-1.51593369074871
30
0
41
1
10
15.2251348146318
20
-1.51546812693894
30
0
41
1
10
15.0223427755149
20
-1.513694819666
30
0
41
1
10
14.8485056932283
20
-1.51104230585281
30
0
41
1
10
14.674671593537
20
-1.50744816584236
30
0
41
1
10
14.529822040698
20
-1.5038067725196
30
0
41
1
10
14.3270302029425
20
-1.49759767305127
30
0
41
1
10
14.1531933262221
20
-1.49116202861234
30
0
41
1
10
13.9793594338865
20
-1.48379686412926
30
0
41
1
10
13.8345100262059
20
-1.47701649049674
30
0
41
1
10
13.6317182977456
20
-1.46643103966517
30
0
41
1
10
13.4578813982941
20
-1.45627094023052
30
0
41
1
10
13.2840473657971
20
-1.44520009883362
30
0
41
1
10
13.1391977762924
20
-1.43534003042629
30
0
41
1
10
12.9364057460837
20
-1.42047185880881
30
0
41
1
10
12.7625686001803
20
-1.40668096889269
30
0
41
1
10
12.5887344097883
20
-1.3920127047364
30
0
41
1
10
12.4438847483743
20
-1.37917363712523
30
0
41
1
10
12.2410926970919
20
-1.36017959231245
30
0
41
1
10
12.0672555993033
20
-1.34290576764394
30
0
41
1
10
11.8934214830531
20
-1.32479588261097
30
0
41
1
10
11.7485719153781
20
-1.30911264573587
30
0
41
1
10
11.5457800565291
20
-1.28618963487852
30
0
41
1
10
11.3719431642786
20
-1.26560949935453
30
0
41
1
10
11.2270752002756
20
-1.24783783012688
30
0
41
1
10
11.0822325710941
20
-1.22959771743339
30
0
41
1
10
10.8504906908933
20
-1.19930998959282
30
0
41
1
10
10.6476633292073
20
-1.17155896250253
30
0
41
1
10
10.5317592943015
20
-1.15524733045106
30
0
0
SPLINE
5
DE
100
AcDbEntity
8
1
62
256
6
ByLayer
370
13
48
1
60
0
100
AcDbSpline
70
4
71
3
72
34
73
30
40
0
40
0
40
0
40
0
40
0.0589622343283326
40
0.0589622343283326
40
0.117924468656665
40
0.117924468656665
40
0.23584893731333
40
0.23584893731333
40
0.353773405969995
40
0.353773405969995
40
0.412735640298328
40
0.412735640298328
40
0.47169787462666
40
0.47169787462666
40
0.530660108954993
40
0.530660108954993
40
0.589622343283326
40
0.589622343283326
40
0.707546811939991
40
0.707546811939991
40
0.825471280596656
40
0.825471280596656
40
0.854952397760821
40
0.854952397760821
40
0.884433514924987
40
0.884433514924987
40
0.943395749253317
40
0.943395749253317
40
1
40
1
40
1
40
1
41
1
10
68.6629293709104
20
-3.21059890473467
30
0
41
1
10
68.3305321615712
20
-3.15549717051738
30
0
41
1
10
67.9983287236382
20
-3.08942638016808
30
0
41
1
10
67.3333545155837
20
-2.93648263405709
30
0
41
1
10
66.9998487790748
20
-2.84936495051326
30
0
41
1
10
66.0047312745122
20
-2.56105932712043
30
0
41
1
10
65.3472674968731
20
-2.332662601224
30
0
41
1
10
64.0335890011038
20
-1.82065870243847
30
0
41
1
10
63.3772745412479
20
-1.53722207749115
30
0
41
1
10
62.386259363358
20
-1.08381759935546
30
0
41
1
10
62.0547175180485
20
-0.927976110013759
30
0
41
1
10
61.3885738524154
20
-0.609643609503763
30
0
41
1
10
61.056318184184
20
-0.448348593518006
30
0
41
1
10
60.3921485469882
20
-0.124145844227172
30
0
41
1
10
60.0602623942923
20
0.0388171786011355
30
0
41
1
10
59.3955451799114
20
0.363724536227238
30
0
41
1
10
59.0618802491435
20
0.526008068941735
30
0
41
1
10
58.065618526432
20
1.0028749513273
30
0
41
1
10
57.4068612675855
20
1.30864099590042
30
0
41
1
10
56.0897782181234
20
1.8758819073631
30
0
41
1
10
55.4315257481964
20
2.13729847405094
30
0
41
1
10
54.6027180181061
20
2.42500700040881
30
0
41
1
10
54.4366756735083
20
2.48066429990331
30
0
41
1
10
54.1038002327738
20
2.58777283970377
30
0
41
1
10
53.9369694605825
20
2.63922879131729
30
0
41
1
10
53.43834130832
20
2.78595938218945
30
0
41
1
10
53.107342217314
20
2.87380753460099
30
0
41
1
10
52.4600304535524
20
3.02622253366559
30
0
41
1
10
52.143644939395
20
3.09137007501545
30
0
41
1
10
51.8273860270824
20
3.14660498663557
30
0
0
SPLINE
5
DF
100
AcDbEntity
8
1
62
256
6
ByLayer
370
18
48
1
60
0
100
AcDbSpline
70
4
71
3
72
10
73
6
40
0
40
0
40
0
40
0
40
0.436429486875392
40
0.436429486875392
40
1
40
1
40
1
40
1
41
1
10
27.4939591401376
20
-3.33049595296509
30
0
41
1
10
27.2920204479251
20
-3.32968900114508
30
0
41
1
10
27.0901955734073
20
-3.32462716367851
30
0
41
1
10
26.6278145887088
20
-3.30348615442128
30
0
41
1
10
26.367274205907
20
-3.28456266009181
30
0
41
1
10
26.1063605741298
20
-3.25864865934577
30
0
0
SPLINE
5
E0
100
AcDbEntity
8
1
62
256
6
ByLayer
370
13
48
1
60
0
100
AcDbSpline
70
4
71
3
72
40
73
36
40
0
40
0
40
0
40
0
40
0.0116168787033675
40
0.0116168787033675
40
0.0666738169582912
40
0.0666738169582912
40
0.121730755213215
40
0.121730755213215
40
0.176787693468139
40
0.176787693468139
40
0.231844631723063
40
0.231844631723063
40
0.286901569977987
40
0.286901569977987
40
0.397015446487833
40
0.397015446487833
40
0.507129322997681
40
0.507129322997681
40
0.562186261252604
40
0.562186261252604
40
0.617243199507528
40
0.617243199507528
40
0.672300137762452
40
0.672300137762452
40
0.727357076017376
40
0.727357076017376
40
0.837470952527224
40
0.837470952527224
40
0.892527890782148
40
0.892527890782148
40
0.92005635990961
40
0.92005635990961
40
0.947584829037071
40
0.947584829037071
40
1
40
1
40
1
40
1
41
1
10
26.1063605730816
20
-3.2586486592416
30
0
41
1
10
26.0365862208415
20
-3.25171865483753
30
0
41
1
10
25.966785175643
20
-3.2442887232807
30
0
41
1
10
25.5659706474247
20
-3.19877819306433
30
0
41
1
10
25.2341887844598
20
-3.14999682841611
30
0
41
1
10
24.5682431215075
20
-3.03063153535413
30
0
41
1
10
24.2334418726257
20
-2.95979266309183
30
0
41
1
10
23.5658545746973
20
-2.79848680528255
30
0
41
1
10
23.2324252420911
20
-2.70800709140872
30
0
41
1
10
22.5654042349389
20
-2.50881656326337
30
0
41
1
10
22.2318069363799
20
-2.40003963226488
30
0
41
1
10
21.562806935099
20
-2.16611117784794
30
0
41
1
10
21.2297267542025
20
-2.04187107869461
30
0
41
1
10
20.2336887292759
20
-1.65047091662274
30
0
41
1
10
19.5734955598811
20
-1.36480006779061
30
0
41
1
10
18.2506530573853
20
-0.764014246034378
30
0
41
1
10
17.5880460475403
20
-0.448644911334611
30
0
41
1
10
16.5847922999867
20
0.0311275208955237
30
0
41
1
10
16.2505347441194
20
0.191495476731063
30
0
41
1
10
15.5830137573886
20
0.50881154629198
30
0
41
1
10
15.2493969294203
20
0.665940206542814
30
0
41
1
10
14.5813898637144
20
0.974986898356804
30
0
41
1
10
14.246194373315
20
1.12713612273279
30
0
41
1
10
13.579052538973
20
1.42079042081184
30
0
41
1
10
13.2467650858678
20
1.56246511471494
30
0
41
1
10
12.2520237598126
20
1.96909199949343
30
0
41
1
10
11.5916439477088
20
2.21518551861334
30
0
41
1
10
10.597739383478
20
2.53512292921161
30
0
41
1
10
10.2658908365795
20
2.63353952246445
30
0
41
1
10
9.76631631466074
20
2.76726742194961
30
0
41
1
10
9.59950209164282
20
2.8095581020315
30
0
41
1
10
9.26513640761013
20
2.88934500568411
30
0
41
1
10
9.09754601918584
20
2.92683228199655
30
0
41
1
10
8.61268306681762
20
3.02771958938948
30
0
41
1
10
8.29609401176864
20
3.08402922301508
30
0
41
1
10
7.98027164125898
20
3.13044787574822
30
0
0
SPLINE
5
E1
100
AcDbEntity
8
1
62
256
6
ByLayer
370
18
48
1
60
0
100
AcDbSpline
70
4
71
3
72
8
73
4
40
0
40
0
40
0
40
0
40
1
40
1
40
1
40
1
41
1
10
69.9998300547986
20
0.0650340363844464
30
0
41
1
10
70.0000566483907
20
0.0216780121315878
30
0
41
1
10
70.0000566483908
20
-0.0216780121212139
30
0
41
1
10
69.9998300547987
20
-0.0650340363740725
30
0
0
SPLINE
5
E2
100
AcDbEntity
8
1
62
256
6
ByLayer
370
18
48
1
60
0
100
AcDbSpline
70
4
71
3
72
10
73
6
40
0
40
0
40
0
40
0
40
0.5
40
0.5
40
1
40
1
40
1
40
1
41
1
10
4.53885188942195
20
0.412847656238341
30
0
41
1
10
4.61466158738696
20
0.39140085884344
30
0
41
1
10
4.68917927330816
20
0.351307145642977
30
0
41
1
10
4.82827169189773
20
0.256731476212934
30
0
41
1
10
4.89294874950983
20
0.202659198425209
30
0
41
1
10
4.95513594999849
20
0.145114078191369
30
0
0
SPLINE
5
E3
100
AcDbEntity
8
1
62
256
6
ByLayer
370
18
48
1
60
0
100
AcDbSpline
70
4
71
3
72
28
73
24
40
0
40
0
40
0
40
0
40
0.0930062044820878
40
0.0930062044820878
40
0.186012408964176
40
0.186012408964176
40
0.279018613446263
40
0.279018613446263
40
0.372024817928351
40
0.372024817928351
40
0.465031022410439
40
0.465031022410439
40
0.558037226892527
40
0.558037226892527
40
0.651043431374615
40
0.651043431374615
40
0.744049635856702
40
0.744049635856702
40
0.83705584033879
40
0.83705584033879
40
0.930062044820878
40
0.930062044820878
40
1
40
1
40
1
40
1
41
1
10
68.4062764719311
20
0.520148042850138
30
0
41
1
10
68.1029616756662
20
0.667379479553176
30
0
41
1
10
67.7999652984786
20
0.812869439573376
30
0
41
1
10
67.1934868102707
20
1.09860771614768
30
0
41
1
10
66.8899057569424
20
1.23863711068069
30
0
41
1
10
66.2814108362543
20
1.51175078327276
30
0
41
1
10
65.9773469441629
20
1.64433766840318
30
0
41
1
10
65.3701672728099
20
1.89875574023884
30
0
41
1
10
65.0669273022914
20
2.02101978543857
30
0
41
1
10
64.4600884459094
20
2.25160251378261
30
0
41
1
10
64.1562308394101
20
2.36062065186127
30
0
41
1
10
63.5474916571254
20
2.56561583643025
30
0
41
1
10
63.2437842732817
20
2.66075994011609
30
0
41
1
10
62.6367063445379
20
2.83408465527378
30
0
41
1
10
62.3333849527501
20
2.91246359905102
30
0
41
1
10
61.7260310621348
20
3.05375590774733
30
0
41
1
10
61.4216729348356
20
3.11623334974837
30
0
41
1
10
60.8132082036057
20
3.22211591923735
30
0
41
1
10
60.5095685978699
20
3.26560485834116
30
0
41
1
10
59.9024578238708
20
3.33386926518617
30
0
41
1
10
59.5991114091112
20
3.35847046300719
30
0
41
1
10
59.0668356134435
20
3.3825047266493
30
0
41
1
10
58.8378865126583
20
3.38628343041845
30
0
41
1
10
58.6090088393435
20
3.38509969503249
30
0
0
SPLINE
5
E4
100
AcDbEntity
8
1
62
256
6
ByLayer
370
18
48
1
60
0
100
AcDbSpline
70
4
71
3
72
80
73
76
40
0
40
0
40
0
40
0
40
0.0134456147973793
40
0.0134456147973793
40
0.0468100892658526
40
0.0468100892658526
40
0.0801745637343258
40
0.0801745637343258
40
0.113539038202799
40
0.113539038202799
40
0.146903512671272
40
0.146903512671272
40
0.180267987139746
40
0.180267987139746
40
0.213632461608219
40
0.213632461608219
40
0.246996936076692
40
0.246996936076692
40
0.263679173310928
40
0.263679173310928
40
0.280361410545164
40
0.280361410545164
40
0.313725885013636
40
0.313725885013636
40
0.330408122247871
40
0.330408122247871
40
0.347090359482107
40
0.347090359482107
40
0.380454833950577
40
0.380454833950577
40
0.413819308419048
40
0.413819308419048
40
0.447183782887518
40
0.447183782887518
40
0.463866020121754
40
0.463866020121754
40
0.480548257355989
40
0.480548257355989
40
0.51391273182446
40
0.51391273182446
40
0.530594969058696
40
0.530594969058696
40
0.547277206292932
40
0.547277206292932
40
0.580641680761403
40
0.580641680761403
40
0.597323917995638
40
0.597323917995638
40
0.614006155229873
40
0.614006155229873
40
0.647370629698344
40
0.647370629698344
40
0.680735104166814
40
0.680735104166814
40
0.714099578635285
40
0.714099578635285
40
0.747464053103756
40
0.747464053103756
40
0.764146290337991
40
0.764146290337991
40
0.780828527572226
40
0.780828527572226
40
0.814193002040697
40
0.814193002040697
40
0.847557476509167
40
0.847557476509167
40
0.880921950977637
40
0.880921950977637
40
0.914286425446107
40
0.914286425446107
40
0.947650899914577
40
0.947650899914577
40
0.981015374383047
40
0.981015374383047
40
1
40
1
40
1
40
1
41
1
10
42.3199029837177
20
-2.36569969710138
30
0
41
1
10
42.1973032765769
20
-2.40791709204888
30
0
41
1
10
42.0747015723463
20
-2.44902649116631
30
0
41
1
10
41.6477490485208
20
-2.58786425077838
30
0
41
1
10
41.3433130084091
20
-2.67908900566468
30
0
41
1
10
40.7330550848262
20
-2.84563929688343
30
0
41
1
10
40.4283123293764
20
-2.92156170507781
30
0
41
1
10
39.819434399098
20
-3.05557494786174
30
0
41
1
10
39.5152747890989
20
-3.11353785392467
30
0
41
1
10
38.9061141483884
20
-3.20980135559805
30
0
41
1
10
38.6008056389006
20
-3.24979235612534
30
0
41
1
10
37.9908292253643
20
-3.31102100398172
30
0
41
1
10
37.6864236508867
20
-3.33158425196083
30
0
41
1
10
37.077870148479
20
-3.351057807405
30
0
41
1
10
36.7735731175188
20
-3.35187896499153
30
0
41
1
10
36.1640129969444
20
-3.33564676515235
30
0
41
1
10
35.858434388071
20
-3.31825071776098
30
0
41
1
10
35.4015134277362
20
-3.27483318151076
30
0
41
1
10
35.2493457031338
20
-3.25754825308832
30
0
41
1
10
34.9449092502692
20
-3.21943249973341
30
0
41
1
10
34.7927554421984
20
-3.1984252075122
30
0
41
1
10
34.3362204438933
20
-3.1289237085137
30
0
41
1
10
34.0318287802952
20
-3.07398189074721
30
0
41
1
10
33.5743459416651
20
-2.9764099385558
30
0
41
1
10
33.4216353068138
20
-2.94096307936246
30
0
41
1
10
33.1165308134852
20
-2.86646969942791
30
0
41
1
10
32.9639855130341
20
-2.8276825114724
30
0
41
1
10
32.5067762609769
20
-2.70553231902053
30
0
41
1
10
32.2022224997946
20
-2.61697275258709
30
0
41
1
10
31.5930592662375
20
-2.42311109496779
30
0
41
1
10
31.2882810461212
20
-2.31711948274994
30
0
41
1
10
30.6772207188803
20
-2.09533666604264
30
0
41
1
10
30.3721112988752
20
-1.97866373358198
30
0
41
1
10
29.9150159632008
20
-1.7953835297879
30
0
41
1
10
29.7627576073727
20
-1.73294289178466
30
0
41
1
10
29.458157189976
20
-1.60480735381199
30
0
41
1
10
29.3058504354262
20
-1.53929263337932
30
0
41
1
10
28.8486955457361
20
-1.34075339739522
30
0
41
1
10
28.543178224366
20
-1.20484260000649
30
0
41
1
10
28.0851229016202
20
-0.996063041694526
30
0
41
1
10
27.9326014866908
20
-0.925727812676286
30
0
41
1
10
27.6278684355755
20
-0.78350175337809
30
0
41
1
10
27.4756073184683
20
-0.7115920712437
30
0
41
1
10
27.0187683004214
20
-0.495012540633439
30
0
41
1
10
26.7141518474361
20
-0.34952724891005
30
0
41
1
10
26.2568086022866
20
-0.129773900264809
30
0
41
1
10
26.1042243809778
20
-0.0564140527457937
30
0
41
1
10
25.798727457619
20
0.0905690009247735
30
0
41
1
10
25.6460941471711
20
0.164241429913261
30
0
41
1
10
25.188541030601
20
0.383806257882441
30
0
41
1
10
24.8838615566959
20
0.529210208396677
30
0
41
1
10
24.2743334511138
20
0.815960116784623
30
0
41
1
10
23.9696355155269
20
0.957599111647255
30
0
41
1
10
23.3592460467445
20
1.23424372340693
30
0
41
1
10
23.053371058958
20
1.36937019151685
30
0
41
1
10
22.4431076223441
20
1.63086146871544
30
0
41
1
10
22.1383601548145
20
1.75744566854678
30
0
41
1
10
21.6809894564414
20
1.93787147794052
30
0
41
1
10
21.528572725488
20
1.99655645555089
30
0
41
1
10
21.2233979753101
20
2.11104798185167
30
0
41
1
10
21.0706509490761
20
2.16690907439099
30
0
41
1
10
20.6121631461855
20
2.33040711340277
30
0
41
1
10
20.3066653574193
20
2.43313741372745
30
0
41
1
10
19.6967766348616
20
2.62235600470038
30
0
41
1
10
19.392133745081
20
2.70823836124737
30
0
41
1
10
18.7819680153002
20
2.86613615913512
30
0
41
1
10
18.4763295006983
20
2.93783522835346
30
0
41
1
10
17.8651491573123
20
3.06279006419746
30
0
41
1
10
17.5602456180989
20
3.11477284573022
30
0
41
1
10
16.9504910283286
20
3.20248420754098
30
0
41
1
10
16.6456785017359
20
3.23787099282956
30
0
41
1
10
16.0352356260036
20
3.28885334749961
30
0
41
1
10
15.7292518153745
20
3.30387570220051
30
0
41
1
10
15.2500339277073
20
3.31255472079337
30
0
41
1
10
15.0763472337555
20
3.31290126434399
30
0
41
1
10
14.9027238691788
20
3.31022111933288
30
0
0
SPLINE
5
E5
100
AcDbEntity
8
1
62
256
6
ByLayer
370
18
48
1
60
0
100
AcDbSpline
70
4
71
3
72
25
73
21
40
0
40
0
40
0
40
0
40
0.125000000000002
40
0.125000000000002
40
0.250000000000004
40
0.250000000000004
40
0.375000000000006
40
0.375000000000006
40
0.437500000000006
40
0.437500000000006
40
0.500000000000005
40
0.562500000000005
40
0.562500000000005
40
0.625000000000004
40
0.625000000000004
40
0.750000000000003
40
0.750000000000003
40
0.875000000000001
40
0.875000000000001
40
1
40
1
40
1
40
1
41
1
10
4.53885188943241
20
0.412847656225722
30
0
41
1
10
4.45717033024414
20
0.499142197919923
30
0
41
1
10
4.37872898842465
20
0.588046036208169
30
0
41
1
10
4.22990977325719
20
0.772328448059255
30
0
41
1
10
4.16036545659205
20
0.866729461062732
30
0
41
1
10
4.03409682571859
20
1.05931616127989
30
0
41
1
10
3.97717172326401
20
1.15771086970793
30
0
41
1
10
3.90345056616749
20
1.30921198637651
30
0
41
1
10
3.88072672397686
20
1.36065186626362
30
0
41
1
10
3.84034811296718
20
1.46350010055849
30
0
41
1
10
3.80507983306575
20
1.56606482310858
30
0
41
1
10
3.78056709980129
20
1.66801568672022
30
0
41
1
10
3.76177438511502
20
1.76963240518987
30
0
41
1
10
3.75522325667032
20
1.82053785748377
30
0
41
1
10
3.74491540250662
20
1.97083139293329
30
0
41
1
10
3.75043912056779
20
2.06627296351039
30
0
41
1
10
3.78481569431864
20
2.24817221480131
30
0
41
1
10
3.81414024211315
20
2.33506688326506
30
0
41
1
10
3.89149811072235
20
2.49369033937862
30
0
41
1
10
3.93968342687964
20
2.56656046789237
30
0
41
1
10
3.99557948221661
20
2.63360071939377
30
0
0
SPLINE
5
E6
100
AcDbEntity
8
1
62
256
6
ByLayer
370
18
48
1
60
0
100
AcDbSpline
70
4
71
3
72
8
73
4
40
0
40
0
40
0
40
0
40
1
40
1
40
1
40
1
41
1
10
69.9998300548009
20
-0.0650340363780515
30
0
41
1
10
69.9857400066803
20
-0.104477972867528
30
0
41
1
10
69.9717530082435
20
-0.14398453162778
30
0
41
1
10
69.9578667231951
20
-0.183553432926885
30
0
0
SPLINE
5
E7
100
AcDbEntity
8
1
62
256
6
ByLayer
370
18
48
1
60
0
100
AcDbSpline
70
4
71
3
72
18
73
14
40
0
40
0
40
0
40
0
40
0.124999999999997
40
0.124999999999997
40
0.249999999999994
40
0.249999999999994
40
0.499999999999996
40
0.499999999999996
40
0.749999999999998
40
0.749999999999998
40
0.874999999999999
40
0.874999999999999
40
1
40
1
40
1
40
1
41
1
10
69.4253395154831
20
-0.908653775305879
30
0
41
1
10
69.388140018183
20
-0.905759881446443
30
0
41
1
10
69.353079164158
20
-0.893397961144132
30
0
41
1
10
69.2864296712564
20
-0.853302213862463
30
0
41
1
10
69.2545871982461
20
-0.825187700097445
30
0
41
1
10
69.1658309295706
20
-0.722285286955383
30
0
41
1
10
69.1159885903989
20
-0.630778466366991
30
0
41
1
10
69.0310891827659
20
-0.413597441879773
30
0
41
1
10
68.9976810947233
20
-0.29195776194581
30
0
41
1
10
68.9586399910258
20
-0.0935201570135575
30
0
41
1
10
68.9474787739666
20
-0.0243736666247969
30
0
41
1
10
68.9290708286943
20
0.118066571783345
30
0
41
1
10
68.9218762378068
20
0.190808928353619
30
0
41
1
10
68.9166073594578
20
0.265010137421314
30
0
0
SPLINE
5
E8
100
AcDbEntity
8
1
62
256
6
ByLayer
370
18
48
1
60
0
100
AcDbSpline
70
4
71
3
72
22
73
18
40
0
40
0
40
0
40
0
40
0.0636942330205952
40
0.0636942330205952
40
0.12738846604119
40
0.12738846604119
40
0.254776932082381
40
0.254776932082381
40
0.382165398123571
40
0.382165398123571
40
0.509553864164762
40
0.509553864164762
40
0.764330796247141
40
0.764330796247141
40
0.891719262288332
40
0.891719262288332
40
1
40
1
40
1
40
1
41
1
10
12.3021187647018
20
1.42655382531748
30
0
41
1
10
12.599554252228
20
1.29384444870837
30
0
41
1
10
12.8959659296511
20
1.15851195406526
30
0
41
1
10
13.4864687255243
20
0.882071913230675
30
0
41
1
10
13.780856869526
20
0.741571809834909
30
0
41
1
10
14.662638013523
20
0.315742820432831
30
0
41
1
10
15.2486464799111
20
0.0260814835127121
30
0
41
1
10
16.423826481285
20
-0.550531580933551
30
0
41
1
10
17.0132206738696
20
-0.837018677179316
30
0
41
1
10
18.2031239051023
20
-1.39064334703019
30
0
41
1
10
18.7926845038579
20
-1.65290845668841
30
0
41
1
10
20.5548613888294
20
-2.37709708465565
30
0
41
1
10
21.7224899084587
20
-2.77468641117406
30
0
41
1
10
23.5057353370186
20
-3.17807507327643
30
0
41
1
10
24.0950317688091
20
-3.27763994482586
30
0
41
1
10
25.181328837425
20
-3.3947352327547
30
0
41
1
10
25.67891901576
20
-3.42244281399229
30
0
41
1
10
26.1772874173183
20
-3.42352924498547
30
0
0
SPLINE
5
E9
100
AcDbEntity
8
1
62
256
6
ByLayer
370
18
48
1
60
0
100
AcDbSpline
70
4
71
3
72
54
73
50
40
0
40
0
40
0
40
0
40
0.0009657248829132
40
0.0009657248829132
40
0.06756800989072
40
0.06756800989072
40
0.0842185811426722
40
0.0842185811426722
40
0.100869152394624
40
0.100869152394624
40
0.134170294898527
40
0.134170294898527
40
0.200772579906333
40
0.200772579906333
40
0.267374864914138
40
0.267374864914138
40
0.284025436166089
40
0.284025436166089
40
0.300676007418041
40
0.300676007418041
40
0.333977149921944
40
0.333977149921944
40
0.467181719937559
40
0.467181719937559
40
0.483832291189511
40
0.483832291189511
40
0.500482862441463
40
0.500482862441463
40
0.533784004945366
40
0.533784004945366
40
0.600386289953171
40
0.600386289953171
40
0.666988574960977
40
0.666988574960977
40
0.683639146212928
40
0.683639146212928
40
0.700289717464879
40
0.700289717464879
40
0.733590859968782
40
0.733590859968782
40
0.866795429984391
40
0.866795429984391
40
0.883446001236343
40
0.883446001236343
40
0.900096572488294
40
0.900096572488294
40
0.933397714992196
40
0.933397714992196
40
1
40
1
40
1
40
1
41
1
10
42.3004082198218
20
2.36907657680186
30
0
41
1
10
42.308897771936
20
2.37216785066633
30
0
41
1
10
42.3173875838207
20
2.37525396047576
30
0
41
1
10
42.9114056056496
20
2.59081445953936
30
0
41
1
10
43.4984231941294
20
2.77832869054456
30
0
41
1
10
44.238781190654
20
2.97427762581296
30
0
41
1
10
44.3872492008056
20
3.01162209471931
30
0
41
1
10
44.6831197307346
20
3.0818623920122
30
0
41
1
10
44.8307994759759
20
3.1147645064373
30
0
41
1
10
45.2728966971529
20
3.20707519613077
30
0
41
1
10
45.5666037294621
20
3.25986743804685
30
0
41
1
10
46.4457838674076
20
3.39152769164059
30
0
41
1
10
47.0296815558668
20
3.44338733026274
30
0
41
1
10
48.2004593264877
20
3.47311971067018
30
0
41
1
10
48.787047672
20
3.45100385653848
30
0
41
1
10
49.5266603985454
20
3.37607098236171
30
0
41
1
10
49.6751186051368
20
3.35873018924536
30
0
41
1
10
49.9709235648937
20
3.31955804509315
30
0
41
1
10
50.1184391731464
20
3.29768600956822
30
0
41
1
10
50.5604090016816
20
3.22566170181838
30
0
41
1
10
50.8539232674192
20
3.16885365268453
30
0
41
1
10
52.318983652081
20
2.84403669840003
30
0
41
1
10
53.4811434263806
20
2.45138306311162
30
0
41
1
10
54.8118866715855
20
1.90215536299931
30
0
41
1
10
54.9601669844405
20
1.83943122282375
30
0
41
1
10
55.2558470718843
20
1.71220664600918
30
0
41
1
10
55.4033867561539
20
1.64755663935068
30
0
41
1
10
55.845028180989
20
1.45036166382715
30
0
41
1
10
56.1384832605814
20
1.31519663578857
30
0
41
1
10
57.0169299685613
20
0.900606299622979
30
0
41
1
10
57.600256832655
20
0.612566128146483
30
0
41
1
10
58.7695376152654
20
0.027649677404554
30
0
41
1
10
59.3554343514191
20
-0.269351130872565
30
0
41
1
10
60.0942916594473
20
-0.636322518997076
30
0
41
1
10
60.2426013988462
20
-0.709494105015239
30
0
41
1
10
60.5380492421844
20
-0.854618520640202
30
0
41
1
10
60.6854696489017
20
-0.926451666466278
30
0
41
1
10
61.1270170501141
20
-1.13942149304165
30
0
41
1
10
61.4202633051916
20
-1.27836450995184
30
0
41
1
10
62.8834280998122
20
-1.95327721985436
30
0
41
1
10
64.0448723853151
20
-2.42832116358107
30
0
41
1
10
65.3739877591377
20
-2.83430638914959
30
0
41
1
10
65.522132871534
20
-2.87764048113837
30
0
41
1
10
65.8177084063943
20
-2.96000954141167
30
0
41
1
10
65.9652143224862
20
-2.99920616204275
30
0
41
1
10
66.4072565211731
20
-3.11046422127646
30
0
41
1
10
66.7012926131312
20
-3.17622502738854
30
0
41
1
10
67.5829640877341
20
-3.347185913159
30
0
41
1
10
68.1699252251659
20
-3.4262439490281
30
0
41
1
10
68.759808173926
20
-3.46779013920286
30
0
0
SPLINE
5
EA
100
AcDbEntity
8
1
62
256
6
ByLayer
370
18
48
1
60
0
100
AcDbSpline
70
4
71
4
72
10
73
5
40
0
40
0
40
0
40
0
40
0
40
1
40
1
40
1
40
1
40
1
41
1
10
10.5317592943015
20
-1.15524733045109
30
0
41
1
10
10.3817660451709
20
-1.47116528804114
30
0
41
1
10
10.2317727960404
20
-1.78708324563115
30
0
41
1
10
10.0817795469099
20
-2.1030012032212
30
0
41
1
10
9.93178629777933
20
-2.41891916081124
30
0
0
SPLINE
5
EB
100
AcDbEntity
8
1
62
256
6
ByLayer
370
18
48
1
60
0
100
AcDbSpline
70
4
71
2
72
6
73
3
40
0
40
0
40
0
40
1
40
1
40
1
41
1
10
26.3494522571571
20
-0.0145549776942175
30
0
41
1
10
25.7441100362683
20
0.116364105969978
30
0
41
1
10
25.1448509506945
20
0.407835012431917
30
0
0
SPLINE
5
EC
100
AcDbEntity
8
1
62
256
6
ByLayer
370
18
48
1
60
0
100
AcDbSpline
70
4
71
3
72
11
73
7
40
0
40
0
40
0
40
0
40
0.209472658294838
40
0.451347123315619
40
0.72585437674785
40
1
40
1
40
1
40
1
41
1
10
48.0993699860961
20
-0.0145471365905792
30
0
41
1
10
48.0131948814342
20
0.004333020962207
30
0
41
1
10
47.8277020636781
20
0.0500646437362207
30
0
41
1
10
47.5300622039745
20
0.141405644449748
30
0
41
1
10
47.2066642095017
20
0.262010455704768
30
0
41
1
10
46.9829120640769
20
0.362630645239761
30
0
41
1
10
46.8712724725619
20
0.417019665103766
30
0
0
SPLINE
5
ED
100
AcDbEntity
8
1
62
256
6
ByLayer
370
18
48
1
60
0
100
AcDbSpline
70
4
71
3
72
11
73
7
40
0
40
0
40
0
40
0
40
0.211299782426001
40
0.4551276923639
40
0.731731207190086
40
1
40
1
40
1
40
1
41
1
10
36.6700861302077
20
0.0150744904558735
30
0
41
1
10
36.7610834296076
20
-0.0048787369774743
30
0
41
1
10
36.9567456417586
20
-0.0534140890808601
30
0
41
1
10
37.2700345092034
20
-0.151090876004446
30
0
41
1
10
37.6065056009097
20
-0.279172759252816
30
0
41
1
10
37.8379897675137
20
-0.386043813596274
30
0
41
1
10
37.9517346353295
20
-0.442964248112077
30
0
0
SPLINE
5
EE
100
AcDbEntity
8
1
62
256
6
ByLayer
370
18
48
1
60
0
100
AcDbSpline
70
4
71
3
72
11
73
7
40
0
40
0
40
0
40
0
40
0.202879009481185
40
0.437013654993964
40
0.702627594855222
40
1
40
1
40
1
40
1
41
1
10
58.4208660201801
20
0.0148628801868824
30
0
41
1
10
58.5117121959085
20
-0.0050799189808117
30
0
41
1
10
58.7070653099395
20
-0.0535904771229525
30
0
41
1
10
59.0199004433345
20
-0.150927276821164
30
0
41
1
10
59.3735246919532
20
-0.28603196320924
30
0
41
1
10
59.6222984740058
20
-0.40077655062808
30
0
41
1
10
59.7534246755142
20
-0.466804362175878
30
0
0
SPLINE
5
EF
100
AcDbEntity
8
1
62
256
6
ByLayer
370
18
48
1
60
0
100
AcDbSpline
70
4
71
3
72
11
73
7
40
0
40
0
40
0
40
0
40
0.214806402624299
40
0.462599335613238
40
0.743604762122328
40
1
40
1
40
1
40
1
41
1
10
14.9200454213388
20
0.0150614537028275
30
0
41
1
10
15.011127719492
20
-0.0048909414440175
30
0
41
1
10
15.2068846709606
20
-0.0534039147324563
30
0
41
1
10
15.520033219197
20
-0.15104507036699
30
0
41
1
10
15.8493955255115
20
-0.276262405702056
30
0
41
1
10
16.0737844534555
20
-0.3798937635448
30
0
41
1
10
16.1806159651715
20
-0.433218831714271
30
0
0
SPLINE
5
F0
100
AcDbEntity
8
1
62
256
6
ByLayer
370
18
48
1
60
0
100
AcDbSpline
70
4
71
3
72
29
73
25
40
0
40
0
40
0
40
0
40
0.0753548146129212
40
0.135890622481511
40
0.181651548840286
40
0.217421999223031
40
0.249714430014213
40
0.283039787990809
40
0.320164905246469
40
0.367542694755758
40
0.419841584438354
40
0.463217659222399
40
0.495012900276757
40
0.532427854495327
40
0.598369599595569
40
0.646099939236635
40
0.688639759248969
40
0.735782157424585
40
0.798876776133496
40
0.849436654830912
40
0.889225424382997
40
0.914537414359886
40
0.957486516772874
40
1
40
1
40
1
40
1
41
1
10
49.2591275657115
20
-3.37028649604795
30
0
41
1
10
49.4920246814273
20
-3.37078786535406
30
0
41
1
10
49.9120508480327
20
-3.37164094283784
30
0
41
1
10
50.474628827112
20
-3.37233581683518
30
0
41
1
10
50.9132469278324
20
-3.37324668558958
30
0
41
1
10
51.2656444996743
20
-3.37474791952343
30
0
41
1
10
51.5793587702044
20
-3.37529888015891
30
0
41
1
10
51.8973152446575
20
-3.37566916269532
30
0
41
1
10
52.2619537146699
20
-3.37594327779459
30
0
41
1
10
52.6853064997632
20
-3.37591127945461
30
0
41
1
10
53.1279917658962
20
-3.37799508884132
30
0
41
1
10
53.5224710307214
20
-3.37810877975409
30
0
41
1
10
53.8708866309286
20
-3.3779833265283
30
0
41
1
10
54.2891359617699
20
-3.37805174065392
30
0
41
1
10
54.7567046696042
20
-3.37844085383097
30
0
41
1
10
55.2401032472164
20
-3.38349937542498
30
0
41
1
10
55.6653517952931
20
-3.38402318752026
30
0
41
1
10
56.1381385454604
20
-3.38459364114939
30
0
41
1
10
56.6357735213067
20
-3.38410200165984
30
0
41
1
10
57.1105574356648
20
-3.38326640658525
30
0
41
1
10
57.4686627240149
20
-3.38286430728863
30
0
41
1
10
57.8023566865466
20
-3.38276463193836
30
0
41
1
10
58.1452913845758
20
-3.38295675045325
30
0
41
1
10
58.4097096056085
20
-3.3841558382637
30
0
41
1
10
58.5412851726882
20
-3.38494892422096
30
0
0
SPLINE
5
F1
100
AcDbEntity
8
1
62
256
6
ByLayer
370
18
48
1
60
0
100
AcDbSpline
70
4
71
3
72
26
73
22
40
0
40
0
40
0
40
0
40
0.0186339236991527
40
0.0733252779409616
40
0.111809616600455
40
0.160259278912521
40
0.207990042878143
40
0.243593578543618
40
0.281440030239758
40
0.345112539456337
40
0.414707950572141
40
0.471173828465089
40
0.521982418732777
40
0.602362175014467
40
0.678535344734812
40
0.751209501442298
40
0.835624806838644
40
0.895494659519985
40
0.943583373063233
40
0.98242617004622
40
1
40
1
40
1
40
1
41
1
10
36.8397208389427
20
3.34933374111412
30
0
41
1
10
36.7886812523631
20
3.34918381689715
30
0
41
1
10
36.5878391024511
20
3.34869179784468
30
0
41
1
10
36.2815938751692
20
3.34919125799794
30
0
41
1
10
35.8936846742058
20
3.34934112212005
30
0
41
1
10
35.524828497837
20
3.34868402311156
30
0
41
1
10
35.1638732263891
20
3.34603885116866
30
0
41
1
10
34.8319511242188
20
3.34530102895948
30
0
41
1
10
34.4563637705975
20
3.34519021447258
30
0
41
1
10
33.9876706316509
20
3.34570473137976
30
0
41
1
10
33.4679789140924
20
3.34399609397374
30
0
41
1
10
32.9835269192855
20
3.3414956733296
30
0
41
1
10
32.4695289423448
20
3.34120858029709
30
0
41
1
10
31.9015514943329
20
3.34170178540347
30
0
41
1
10
31.2736910837079
20
3.3383807759883
30
0
41
1
10
30.6347675667343
20
3.33716532644206
30
0
41
1
10
30.0405165019225
20
3.33672355895436
30
0
41
1
10
29.5135904529653
20
3.33507233778281
30
0
41
1
10
29.1115011084557
20
3.33363112128953
30
0
41
1
10
28.8252672461373
20
3.33318322089372
30
0
41
1
10
28.6707409214507
20
3.33295206410938
30
0
41
1
10
28.6226055684866
20
3.33287929203337
30
0
0
SPLINE
5
F2
100
AcDbEntity
8
1
62
256
6
ByLayer
370
18
48
1
60
0
100
AcDbSpline
70
4
71
3
72
27
73
23
40
0
40
0
40
0
40
0
40
0.0144249826234944
40
0.0608092523215804
40
0.0942789645185766
40
0.175457375367529
40
0.249558945752837
40
0.336006041444664
40
0.428293240503188
40
0.491433180606999
40
0.544161217081247
40
0.602197824205226
40
0.640256301693809
40
0.671152484596373
40
0.706270597391252
40
0.746612357595557
40
0.797656500025917
40
0.860254315800061
40
0.917372416682514
40
0.945597468143297
40
0.983886205072794
40
1
40
1
40
1
40
1
41
1
10
58.6054302818044
20
3.38516523165171
30
0
41
1
10
58.5658057870196
20
3.38487980954233
30
0
41
1
10
58.3987672288758
20
3.38378707046988
30
0
41
1
10
58.1397599993024
20
3.38329831306331
30
0
41
1
10
57.6974704373409
20
3.38266152835237
30
0
41
1
10
57.178930829871
20
3.38311095623141
30
0
41
1
10
56.5149068397994
20
3.38433606597579
30
0
41
1
10
55.8203541903332
20
3.38464870403971
30
0
41
1
10
55.155915697012
20
3.38269937953592
30
0
41
1
10
54.5841166860282
20
3.37805330927532
30
0
41
1
10
54.1063967036768
20
3.37803148326006
30
0
41
1
10
53.6975692325358
20
3.37798154263984
30
0
41
1
10
53.3487243192266
20
3.37822825738493
30
0
41
1
10
53.0628313685047
20
3.37746694546871
30
0
41
1
10
52.7706702696335
20
3.3762339992156
30
0
41
1
10
52.4231634050078
20
3.3759966723745
30
0
41
1
10
52.0001690805379
20
3.37573499343338
30
0
41
1
10
51.5311009349488
20
3.37536244618894
30
0
41
1
10
51.1246388268987
20
3.37415206063324
30
0
41
1
10
50.7851559185713
20
3.37290294270596
30
0
41
1
10
50.5582249435927
20
3.37255318281061
30
0
41
1
10
50.408781923097
20
3.37235105849427
30
0
41
1
10
50.3645162396178
20
3.37229193447797
30
0
0
SPLINE
5
F3
100
AcDbEntity
8
1
62
256
6
ByLayer
370
18
48
1
60
0
100
AcDbSpline
70
4
71
3
72
29
73
25
40
0
40
0
40
0
40
0
40
0.0759489580155479
40
0.144140662683361
40
0.193092488389051
40
0.23140030036028
40
0.281535581549589
40
0.330029970144227
40
0.386680420310387
40
0.441463035555906
40
0.480484500427776
40
0.528050426682596
40
0.593199734821805
40
0.649853517236889
40
0.696775526743869
40
0.732896704951894
40
0.768889867810021
40
0.812651295184507
40
0.857420282425234
40
0.888162248023203
40
0.897471848969472
40
0.912011520153328
40
0.958683143826947
40
1
40
1
40
1
40
1
41
1
10
27.4535352444231
20
-3.3303923053771
30
0
41
1
10
27.6906183709511
20
-3.33081198991823
30
0
41
1
10
28.140185751836
20
-3.33153434577255
30
0
41
1
10
28.7361661913088
20
-3.33325513346739
30
0
41
1
10
29.2226441747377
20
-3.33321488683845
30
0
41
1
10
29.6480139164471
20
-3.33591197399645
30
0
41
1
10
30.0765689311529
20
-3.33652641357634
30
0
41
1
10
30.5610876047116
20
-3.33723156564369
30
0
41
1
10
31.0605095134209
20
-3.33766351953486
30
0
41
1
10
31.5302174697391
20
-3.34005741545207
30
0
41
1
10
31.9716103336894
20
-3.34134349235953
30
0
41
1
10
32.445359206826
20
-3.34127884238436
30
0
41
1
10
32.9741691768239
20
-3.34117981332966
30
0
41
1
10
33.5009544417843
20
-3.34437830004165
30
0
41
1
10
33.9371175855944
20
-3.34545814190108
30
0
41
1
10
34.3087665041636
20
-3.34531708516678
30
0
41
1
10
34.6705503284968
20
-3.34520440348075
30
0
41
1
10
35.0593460129077
20
-3.3454907138576
30
0
41
1
10
35.4317145681976
20
-3.3479998135299
30
0
41
1
10
35.6965751159362
20
-3.34904966325587
30
0
41
1
10
35.866718727456
20
-3.34916747681069
30
0
41
1
10
36.0868922289152
20
-3.34921055626288
30
0
41
1
10
36.4069921455242
20
-3.34878229923854
30
0
41
1
10
36.6817036523663
20
-3.34910686885107
30
0
41
1
10
36.8107007153915
20
-3.34931271296466
30
0
0
SPLINE
5
F4
100
AcDbEntity
8
1
62
256
6
ByLayer
370
18
48
1
60
0
100
AcDbSpline
70
4
71
3
72
25
73
21
40
0
40
0
40
0
40
0
40
0.0841747441785022
40
0.152369458855584
40
0.201984771501126
40
0.238397790112931
40
0.281689409862641
40
0.330611466277775
40
0.378668169504699
40
0.417670803530927
40
0.451755123262256
40
0.502473395981775
40
0.564288152091442
40
0.634308292508306
40
0.69595186226626
40
0.761007376017538
40
0.825560754869909
40
0.882284085247612
40
0.948364124251355
40
1
40
1
40
1
40
1
41
1
10
5.68004797558541
20
-3.29224472633666
30
0
41
1
10
5.94735419043678
20
-3.29216329901538
30
0
41
1
10
6.43139603944002
20
-3.29241890726067
30
0
41
1
10
7.074945140658
20
-3.29479679271609
30
0
41
1
10
7.56463021306962
20
-3.29576927626914
30
0
41
1
10
7.97762806678889
20
-3.29732716516315
30
0
41
1
10
8.38787062066623
20
-3.29882372007242
30
0
41
1
10
8.83542661491643
20
-3.29978231442522
30
0
41
1
10
9.26924545316538
20
-3.30058701444958
30
0
41
1
10
9.65574481409999
20
-3.30121002769482
30
0
41
1
10
10.050719869189
20
-3.3022698378569
30
0
41
1
10
10.5184465158956
20
-3.30346873287581
30
0
41
1
10
11.1008662333334
20
-3.30370493790821
30
0
41
1
10
11.7181074502987
20
-3.30557882818121
30
0
41
1
10
12.3456925590302
20
-3.30750698013642
30
0
41
1
10
12.9558126001767
20
-3.30722388399627
30
0
41
1
10
13.5505016585298
20
-3.30907016589464
30
0
41
1
10
14.1472527108512
20
-3.31111597002115
30
0
41
1
10
14.7026227339068
20
-3.31172744756725
30
0
41
1
10
15.0761199567524
20
-3.31181703005368
30
0
41
1
10
15.2397854579394
20
-3.31175864065068
30
0
0
SPLINE
5
F5
100
AcDbEntity
8
1
62
256
6
ByLayer
370
18
48
1
60
0
100
AcDbSpline
70
4
71
3
72
21
73
17
40
0
40
0
40
0
40
0
40
0.0842459357006109
40
0.163704638520756
40
0.241683237536758
40
0.327208447155263
40
0.408432316190427
40
0.497778544771215
40
0.604636028783444
40
0.671552166073651
40
0.75107002340669
40
0.834132226492712
40
0.878248424988393
40
0.917811032143031
40
0.974033827439376
40
1
40
1
40
1
40
1
41
1
10
15.2591833029418
20
3.31151757811389
30
0
41
1
10
15.0252595786406
20
3.31175295886339
30
0
41
1
10
14.5694616834308
20
3.31170907532336
30
0
41
1
10
13.8899613988207
20
3.31072067414445
30
0
41
1
10
13.2094379365124
20
3.30731209052962
30
0
41
1
10
12.5224164482407
20
3.30767702268861
30
0
41
1
10
11.8039562450385
20
3.30595744646683
30
0
41
1
10
11.0255482963641
20
3.30346452352728
30
0
41
1
10
10.2872915587065
20
3.30314154674485
30
0
41
1
10
9.57661470913123
20
3.3009231734155
30
0
41
1
10
8.93269908157006
20
3.300047618154
30
0
41
1
10
8.35266371827123
20
3.29879170364904
30
0
41
1
10
7.88497323966496
20
3.29692165191514
30
0
41
1
10
7.49192487475429
20
3.2956317573904
30
0
41
1
10
7.1525565725207
20
3.2948632804306
30
0
41
1
10
6.92245148232794
20
3.2941785626343
30
0
41
1
10
6.84970929829694
20
3.29396268554956
30
0
0
LINE
5
7B
100
AcDbEntity
8
SK1
62
256
6
ByLayer
370
18
48
1
60
0
100
AcDbLine
10
0
20
-4
30
0
11
0
21
4
31
0
39
0
210
0
220
0
230
1
0
LINE
5
7D
100
AcDbEntity
8
SK1
62
256
6
ByLayer
370
18
48
1
60
0
100
AcDbLine
10
-34.845299
20
4
30
0
11
-34.845299
21
-4
31
0
39
0
210
0
220
0
230
1
0
LINE
5
7E
100
AcDbEntity
8
SK1
62
256
6
ByLayer
370
18
48
1
60
0
100
AcDbLine
10
-36
20
2
30
0
11
-36
21
-2
31
0
39
0
210
0
220
0
230
1
0
LINE
5
7F
100
AcDbEntity
8
1
62
256
6
ByLayer
370
18
48
1
60
0
100
AcDbLine
10
68.302908
20
-1.854902
30
0
11
69.417469
21
-0.960102
31
0
39
0
210
0
220
0
230
1
0
LINE
5
80
100
AcDbEntity
8
1
62
256
6
ByLayer
370
13
48
1
60
0
100
AcDbLine
10
0.656931
20
3.68939
30
0
11
0.656931
21
-3.68939
31
0
39
0
210
0
220
0
230
1
0
LINE
5
81
100
AcDbEntity
8
1
62
256
6
ByLayer
370
18
48
1
60
0
100
AcDbLine
10
0
20
-4
30
0
11
0
21
4
31
0
39
0
210
0
220
0
230
1
0
LINE
5
82
100
AcDbEntity
8
1
62
256
6
ByLayer
370
18
48
1
60
0
100
AcDbLine
10
69.417469
20
-0.960102
30
0
11
69.42534
21
-0.908654
31
0
39
0
210
0
220
0
230
1
0
LINE
5
83
100
AcDbEntity
8
1
62
256
6
ByLayer
370
13
48
1
60
0
100
AcDbLine
10
1.315392
20
3.378782
30
0
11
1.315392
21
-3.378782
31
0
39
0
210
0
220
0
230
1
0
LINE
5
84
100
AcDbEntity
8
80
62
256
6
ByLayer
370
18
48
1
60
0
100
AcDbLine
10
0
20
0
30
0
11
-5
21
0
31
0
39
0
210
0
220
0
230
1
0
LINE
5
85
100
AcDbEntity
8
4
62
256
6
ByLayer
370
18
48
0.05
60
0
100
AcDbLine
10
70
20
0
30
0
11
0
21
0
31
0
39
0
210
0
220
0
230
1
0
LINE
5
87
100
AcDbEntity
8
SK4
62
256
6
ByLayer
370
18
48
0.05
60
0
100
AcDbLine
10
75
20
0
30
0
11
-41
21
0
31
0
39
0
210
0
220
0
230
1
0
LINE
5
89
100
AcDbEntity
8
SK1
62
256
6
ByLayer
370
18
48
1
60
0
100
AcDbLine
10
-36
20
-2
30
0
11
-34.845299
21
-4
31
0
39
0
210
0
220
0
230
1
0
LINE
5
8A
100
AcDbEntity
8
SK1
62
256
6
ByLayer
370
18
48
1
60
0
100
AcDbLine
10
-34.845299
20
4
30
0
11
-36
21
2
31
0
39
0
210
0
220
0
230
1
0
LINE
5
8B
100
AcDbEntity
8
SK1
62
256
6
ByLayer
370
18
48
1
60
0
100
AcDbLine
10
-34.845299
20
-4
30
0
11
0
21
-4
31
0
39
0
210
0
220
0
230
1
0
LINE
5
8C
100
AcDbEntity
8
SK1
62
256
6
ByLayer
370
18
48
1
60
0
100
AcDbLine
10
0
20
4
30
0
11
-34.845299
21
4
31
0
39
0
210
0
220
0
230
1
0
LINE
5
8D
100
AcDbEntity
8
1
62
256
6
ByLayer
370
18
48
1
60
0
100
AcDbLine
10
1.315392
20
-3.378782
30
0
11
5.291193
21
-3.385938
31
0
39
0
210
0
220
0
230
1
0
LINE
5
8E
100
AcDbEntity
8
1
62
256
6
ByLayer
370
18
48
1
60
0
100
AcDbLine
10
26.181958
20
-3.423542
30
0
11
27.038245
21
-3.425083
31
0
39
0
210
0
220
0
230
1
0
LINE
5
8F
100
AcDbEntity
8
1
62
256
6
ByLayer
370
18
48
1
60
0
100
AcDbLine
10
47.942685
20
-3.462711
30
0
11
48.788413
21
-3.464233
31
0
39
0
210
0
220
0
230
1
0
LINE
5
90
100
AcDbEntity
8
1
62
256
6
ByLayer
370
18
48
1
60
0
100
AcDbLine
10
48.788413
20
3.464233
30
0
11
47.942685
21
3.462711
31
0
39
0
210
0
220
0
230
1
0
LINE
5
91
100
AcDbEntity
8
1
62
256
6
ByLayer
370
18
48
1
60
0
100
AcDbLine
10
27.038245
20
3.425083
30
0
11
26.181958
21
3.423542
31
0
39
0
210
0
220
0
230
1
0
LINE
5
92
100
AcDbEntity
8
1
62
256
6
ByLayer
370
18
48
1
60
0
100
AcDbLine
10
5.291193
20
3.385938
30
0
11
1.315392
21
3.378782
31
0
39
0
210
0
220
0
230
1
0
LINE
5
93
100
AcDbEntity
8
81
62
256
6
ByLayer
370
18
48
1
60
0
100
AcDbLine
10
70
20
0
30
0
11
75
21
0
31
0
39
0
210
0
220
0
230
1
0
LINE
5
94
100
AcDbEntity
8
SK2
62
256
6
ByLayer
370
13
48
1
60
0
100
AcDbLine
10
-44.625163
20
-4
30
0
11
-44.625163
21
33.117107
31
0
39
0
210
0
220
0
230
1
0
LINE
5
96
100
AcDbEntity
8
SK2
62
256
6
ByLayer
370
13
48
1
60
0
100
AcDbLine
10
-37.5875
20
4
30
0
11
-46.625163
21
4
31
0
39
0
210
0
220
0
230
1
0
LINE
5
97
100
AcDbEntity
8
SK2
62
256
6
ByLayer
370
13
48
1
60
0
100
AcDbLine
10
-37.5875
20
-4
30
0
11
-46.625163
21
-4
31
0
39
0
210
0
220
0
230
1
0
LINE
5
98
100
AcDbEntity
8
1
62
256
6
ByLayer
370
18
48
1
60
1
100
AcDbLine
10
-44.625163
20
4
30
0
11
-44.164379
21
0.500002
31
0
39
0
210
0
220
0
230
1
0
LINE
5
99
100
AcDbEntity
8
1
62
256
6
ByLayer
370
18
48
1
60
1
100
AcDbLine
10
-44.164379
20
0.500002
30
0
11
-45.085946
21
0.499998
31
0
39
0
210
0
220
0
230
1
0
LINE
5
9A
100
AcDbEntity
8
1
62
256
6
ByLayer
370
18
48
1
60
1
100
AcDbLine
10
-45.085946
20
0.499998
30
0
11
-44.625163
21
4
31
0
39
0
210
0
220
0
230
1
0
LINE
5
9B
100
AcDbEntity
8
1
62
256
6
ByLayer
370
18
48
1
60
1
100
AcDbLine
10
-44.625163
20
-4
30
0
11
-45.085946
21
-0.500002
31
0
39
0
210
0
220
0
230
1
0
LINE
5
9C
100
AcDbEntity
8
1
62
256
6
ByLayer
370
18
48
1
60
1
100
AcDbLine
10
-45.085946
20
-0.500002
30
0
11
-44.164379
21
-0.499998
31
0
39
0
210
0
220
0
230
1
0
LINE
5
9D
100
AcDbEntity
8
1
62
256
6
ByLayer
370
18
48
1
60
1
100
AcDbLine
10
-44.164379
20
-0.499998
30
0
11
-44.625163
21
-4
31
0
39
0
210
0
220
0
230
1
0
LINE
5
9E
100
AcDbEntity
8
2
62
256
6
ByLayer
370
13
48
1
60
0
100
AcDbLine
10
82.083343
20
31.210193
30
0
11
82.083343
21
-12.25
31
0
39
0
210
0
220
0
230
1
0
LINE
5
A0
100
AcDbEntity
8
2
62
256
6
ByLayer
370
13
48
1
60
0
100
AcDbLine
10
70.2463
20
3.5
30
0
11
84.083343
21
3.5
31
0
39
0
210
0
220
0
230
1
0
LINE
5
A1
100
AcDbEntity
8
2
62
256
6
ByLayer
370
13
48
1
60
0
100
AcDbLine
10
70.2463
20
-3.5
30
0
11
84.083343
21
-3.5
31
0
39
0
210
0
220
0
230
1
0
LINE
5
A2
100
AcDbEntity
8
1
62
256
6
ByLayer
370
18
48
1
60
1
100
AcDbLine
10
82.083343
20
3.5
30
0
11
81.622559
21
6.999998
31
0
39
0
210
0
220
0
230
1
0
LINE
5
A3
100
AcDbEntity
8
1
62
256
6
ByLayer
370
18
48
1
60
1
100
AcDbLine
10
81.622559
20
6.999998
30
0
11
82.544126
21
7.000002
31
0
39
0
210
0
220
0
230
1
0
LINE
5
A4
100
AcDbEntity
8
1
62
256
6
ByLayer
370
18
48
1
60
1
100
AcDbLine
10
82.544126
20
7.000002
30
0
11
82.083343
21
3.5
31
0
39
0
210
0
220
0
230
1
0
LINE
5
A5
100
AcDbEntity
8
1
62
256
6
ByLayer
370
18
48
1
60
1
100
AcDbLine
10
82.083343
20
-3.5
30
0
11
82.544126
21
-6.999998
31
0
39
0
210
0
220
0
230
1
0
LINE
5
A6
100
AcDbEntity
8
1
62
256
6
ByLayer
370
18
48
1
60
1
100
AcDbLine
10
82.544126
20
-6.999998
30
0
11
81.622559
21
-7.000002
31
0
39
0
210
0
220
0
230
1
0
LINE
5
A7
100
AcDbEntity
8
1
62
256
6
ByLayer
370
18
48
1
60
1
100
AcDbLine
10
81.622559
20
-7.000002
30
0
11
82.083343
21
-3.5
31
0
39
0
210
0
220
0
230
1
0
LINE
5
FC
100
AcDbEntity
8
1
62
256
6
ByLayer
370
18
48
1
60
1
100
AcDbLine
10
-44.625163
20
4
30
0
11
-44.164379
21
0.500002
31
0
39
0
210
0
220
0
230
1
0
LINE
5
FD
100
AcDbEntity
8
1
62
256
6
ByLayer
370
18
48
1
60
1
100
AcDbLine
10
-44.164379
20
0.500002
30
0
11
-45.085946
21
0.499998
31
0
39
0
210
0
220
0
230
1
0
LINE
5
FE
100
AcDbEntity
8
1
62
256
6
ByLayer
370
18
48
1
60
1
100
AcDbLine
10
-45.085946
20
0.499998
30
0
11
-44.625163
21
4
31
0
39
0
210
0
220
0
230
1
0
LINE
5
100
100
AcDbEntity
8
1
62
256
6
ByLayer
370
18
48
1
60
1
100
AcDbLine
10
-44.625163
20
-4
30
0
11
-45.085946
21
-0.500002
31
0
39
0
210
0
220
0
230
1
0
LINE
5
101
100
AcDbEntity
8
1
62
256
6
ByLayer
370
18
48
1
60
1
100
AcDbLine
10
-45.085946
20
-0.500002
30
0
11
-44.164379
21
-0.499998
31
0
39
0
210
0
220
0
230
1
0
LINE
5
102
100
AcDbEntity
8
1
62
256
6
ByLayer
370
18
48
1
60
1
100
AcDbLine
10
-44.164379
20
-0.499998
30
0
11
-44.625163
21
-4
31
0
39
0
210
0
220
0
230
1
0
LINE
5
106
100
AcDbEntity
8
1
62
256
6
ByLayer
370
18
48
1
60
1
100
AcDbLine
10
82.083343
20
3.5
30
0
11
81.622559
21
6.999998
31
0
39
0
210
0
220
0
230
1
0
LINE
5
107
100
AcDbEntity
8
1
62
256
6
ByLayer
370
18
48
1
60
1
100
AcDbLine
10
81.622559
20
6.999998
30
0
11
82.544126
21
7.000002
31
0
39
0
210
0
220
0
230
1
0
LINE
5
108
100
AcDbEntity
8
1
62
256
6
ByLayer
370
18
48
1
60
1
100
AcDbLine
10
82.544126
20
7.000002
30
0
11
82.083343
21
3.5
31
0
39
0
210
0
220
0
230
1
0
LINE
5
10A
100
AcDbEntity
8
1
62
256
6
ByLayer
370
18
48
1
60
1
100
AcDbLine
10
82.083343
20
-3.5
30
0
11
82.544126
21
-6.999998
31
0
39
0
210
0
220
0
230
1
0
LINE
5
10B
100
AcDbEntity
8
1
62
256
6
ByLayer
370
18
48
1
60
1
100
AcDbLine
10
82.544126
20
-6.999998
30
0
11
81.622559
21
-7.000002
31
0
39
0
210
0
220
0
230
1
0
LINE
5
10C
100
AcDbEntity
8
1
62
256
6
ByLayer
370
18
48
1
60
1
100
AcDbLine
10
81.622559
20
-7.000002
30
0
11
82.083343
21
-3.5
31
0
39
0
210
0
220
0
230
1
0
MTEXT
5
F6
100
AcDbEntity
8
SK6
62
256
6
ByLayer
370
13
48
1
60
0
100
AcDbMText
10
-11.109026
20
36.040328
30
0
210
0
220
0
230
1
1
\W0.7386;860.1-0700-055A1-PM P1BM
40
3.5
41
0
44
1.084337
50
0
71
7
72
5
7
iso_b_vert
0
MTEXT
5
FA
100
AcDbEntity
8
SK2
62
256
6
ByLayer
370
18
48
1
60
0
100
AcDbMText
10
-46.189796
20
17.409024
30
0
210
0
220
0
230
1
1
%%c
40
3.5
41
0
44
1.084337
50
90
71
7
72
5
7
iso_b_vert
0
MTEXT
5
FB
100
AcDbEntity
8
SK2
62
256
6
ByLayer
370
18
48
1
60
0
100
AcDbMText
10
-46.189796
20
22.63168
30
0
210
0
220
0
230
1
1
\W0.7317;8,000
40
3.5
41
0
44
1.084337
50
90
71
7
72
5
7
iso_b_vert
0
MTEXT
5
104
100
AcDbEntity
8
2
62
256
6
ByLayer
370
18
48
1
60
0
100
AcDbMText
10
80.518709
20
15.50211
30
0
210
0
220
0
230
1
1
%%c
40
3.5
41
0
44
1.084337
50
90
71
7
72
5
7
iso_b_vert
0
MTEXT
5
105
100
AcDbEntity
8
2
62
256
6
ByLayer
370
18
48
1
60
0
100
AcDbMText
10
80.518709
20
20.724766
30
0
210
0
220
0
230
1
1
\W0.7317;7,000
40
3.5
41
0
44
1.084337
50
90
71
7
72
5
7
iso_b_vert
0
HATCH
5
FF
100
AcDbEntity
8
SK2
62
256
6
ByLayer
370
13
48
1
60
0
100
AcDbHatch
10
0
20
0
30
0
210
0
220
0
230
1
2
ANSI31
70
0
71
0
91
1
92
5
93
3
72
1
10
-44.6251625675374
20
4
11
-44.1643788259847
21
0.500001692553184
72
1
10
-44.1643788259847
20
0.500001692553184
11
-45.0859463090902
21
0.499998307446816
72
1
10
-45.0859463090902
20
0.499998307446816
11
-44.6251625675374
21
4
97
0
75
0
76
1
52
0
41
0.0062
77
0
78
1
53
45
43
0
44
0
45
-0.0139193969876572
46
0.0139193969876572
79
0
47
0
98
1
10
0
20
0
0
HATCH
5
103
100
AcDbEntity
8
SK2
62
256
6
ByLayer
370
13
48
1
60
0
100
AcDbHatch
10
0
20
0
30
0
210
0
220
0
230
1
2
ANSI31
70
0
71
0
91
1
92
5
93
3
72
1
10
-44.6251625675374
20
-4
11
-45.0859463090902
21
-0.500001692553184
72
1
10
-45.0859463090902
20
-0.500001692553184
11
-44.1643788259847
21
-0.499998307446816
72
1
10
-44.1643788259847
20
-0.499998307446816
11
-44.6251625675374
21
-4
97
0
75
0
76
1
52
0
41
0.0062
77
0
78
1
53
45
43
0
44
0
45
-0.0139193969876572
46
0.0139193969876572
79
0
47
0
98
1
10
0
20
0
0
HATCH
5
109
100
AcDbEntity
8
2
62
256
6
ByLayer
370
13
48
1
60
0
100
AcDbHatch
10
0
20
0
30
0
210
0
220
0
230
1
2
ANSI31
70
0
71
0
91
1
92
5
93
3
72
1
10
82.083342615295
20
3.5
11
81.6225588737422
21
6.99999830744682
72
1
10
81.6225588737422
20
6.99999830744682
11
82.5441263568477
21
7.00000169255318
72
1
10
82.5441263568477
20
7.00000169255318
11
82.083342615295
21
3.5
97
0
75
0
76
1
52
0
41
0.0062
77
0
78
1
53
45
43
0
44
0
45
-0.0139193969876572
46
0.0139193969876572
79
0
47
0
98
1
10
0
20
0
0
HATCH
5
10D
100
AcDbEntity
8
2
62
256
6
ByLayer
370
13
48
1
60
0
100
AcDbHatch
10
0
20
0
30
0
210
0
220
0
230
1
2
ANSI31
70
0
71
0
91
1
92
5
93
3
72
1
10
82.083342615295
20
-3.5
11
82.5441263568477
21
-6.99999830744682
72
1
10
82.5441263568477
20
-6.99999830744682
11
81.6225588737422
21
-7.00000169255318
72
1
10
81.6225588737422
20
-7.00000169255318
11
82.083342615295
21
-3.5
97
0
75
0
76
1
52
0
41
0.0062
77
0
78
1
53
45
43
0
44
0
45
-0.0139193969876572
46
0.0139193969876572
79
0
47
0
98
1
10
0
20
0
0
DIMENSION
5
10F
100
AcDbEntity
8
2
62
256
6
ByLayer
370
13
48
1
60
0
100
AcDbDimension
2
_U0
10
68.6588
20
-13.713398
30
0
11
34.3294
21
-13.713398
31
0
70
32
71
1
72
1
41
1
210
0
220
0
230
1
3
Standard
100
AcDbAlignedDimension
13
0
23
0
33
0
14
68.6588
24
-3.5
34
0
50
0
100
AcDbRotatedDimension
1001
ACAD
1000
DSTYLE
1002
{
1070
   371
1070
    13
1070
   372
1070
    13
1070
   170
1070
     0
1070
   144
1040
1.0
1070
   277
1070
     2
1070
   278
1070
    44
1070
   146
1040
1.0
1070
   345
1005
16
1070
   347
1005
16
1070
   346
1005
16
1070
   344
1005
0
1070
   343
1005
0
1070
   172
1070
     1
1070
    76
1070
     0
1070
    75
1070
     0
1070
   282
1070
     0
1070
   281
1070
     0
1070
    71
1070
     0
1070
    74
1070
     0
1070
   279
1070
     0
1070
   173
1070
     1
1070
   340
1005
F7
1070
   271
1070
     2
1070
   272
1070
     2
1070
    77
1070
     1
1070
    73
1070
     1
1070
   171
1070
     3
1070
   274
1070
     4
1070
   177
1070
    35
1070
   176
1070
    35
1070
   178
1070
    35
1070
    48
1040
-0.1
1070
    41
1040
3.5
1070
   147
1040
1.75
1070
    42
1040
1.5875
1070
    44
1040
2.0
1070
   140
1040
3.5
1002
}
1001
ACAD_DSTYLE_DIM_LINETYPE
1070
   380
1005
16
1001
ACAD_DSTYLE_DIM_EXT1_LINETYPE
1070
   381
1005
16
1001
ACAD_DSTYLE_DIM_EXT2_LINETYPE
1070
   382
1005
16
0
DIMENSION
5
128
100
AcDbEntity
8
SK2
62
256
6
ByLayer
370
13
48
1
60
0
100
AcDbDimension
2
_U1
10
70
20
-32.692985
30
0
11
17
21
-32.692985
31
0
70
32
71
1
72
1
41
1
210
0
220
0
230
1
3
Standard
100
AcDbAlignedDimension
13
-36
23
-4
33
0
14
70
24
0
34
0
50
0
100
AcDbRotatedDimension
1001
ACAD
1000
DSTYLE
1002
{
1070
   371
1070
    13
1070
   372
1070
    13
1070
   170
1070
     0
1070
   144
1040
1.0
1070
   277
1070
     2
1070
   278
1070
    44
1070
   146
1040
1.0
1070
   345
1005
16
1070
   347
1005
16
1070
   346
1005
16
1070
   344
1005
0
1070
   343
1005
0
1070
   172
1070
     1
1070
    76
1070
     0
1070
    75
1070
     0
1070
   282
1070
     0
1070
   281
1070
     0
1070
    71
1070
     0
1070
    74
1070
     0
1070
   279
1070
     0
1070
   173
1070
     1
1070
   340
1005
F7
1070
   271
1070
     2
1070
   272
1070
     2
1070
    77
1070
     1
1070
    73
1070
     1
1070
   171
1070
     3
1070
   274
1070
     4
1070
   177
1070
    35
1070
   176
1070
    35
1070
   178
1070
    35
1070
    48
1040
-0.1
1070
    41
1040
3.5
1070
   147
1040
1.75
1070
    42
1040
1.5875
1070
    44
1040
2.0
1070
   140
1040
3.5
1002
}
1001
ACAD_DSTYLE_DIM_LINETYPE
1070
   380
1005
16
1001
ACAD_DSTYLE_DIM_EXT1_LINETYPE
1070
   381
1005
16
1001
ACAD_DSTYLE_DIM_EXT2_LINETYPE
1070
   382
1005
16
0
DIMENSION
5
140
100
AcDbEntity
8
SK2
62
256
6
ByLayer
370
13
48
1
60
0
100
AcDbDimension
2
_U2
10
70
20
15.109119
30
0
11
41.33
21
15.109119
31
0
70
32
71
1
72
1
41
1
210
0
220
0
230
1
3
Standard
100
AcDbAlignedDimension
13
12.66
23
3.5
33
0
14
70
24
0
34
0
50
0
100
AcDbRotatedDimension
1001
ACAD
1000
DSTYLE
1002
{
1070
   371
1070
    13
1070
   372
1070
    13
1070
   170
1070
     0
1070
   144
1040
1.0
1070
   277
1070
     2
1070
   278
1070
    44
1070
   146
1040
1.0
1070
   345
1005
16
1070
   347
1005
16
1070
   346
1005
16
1070
   344
1005
0
1070
   343
1005
0
1070
   172
1070
     1
1070
    76
1070
     0
1070
    75
1070
     0
1070
   282
1070
     0
1070
   281
1070
     0
1070
    71
1070
     0
1070
    74
1070
     0
1070
   279
1070
     0
1070
   173
1070
     1
1070
   340
1005
F7
1070
   271
1070
     2
1070
   272
1070
     2
1070
    77
1070
     1
1070
    73
1070
     1
1070
   171
1070
     3
1070
   274
1070
     4
1070
   177
1070
    35
1070
   176
1070
    35
1070
   178
1070
    35
1070
    48
1040
-0.1
1070
    41
1040
3.5
1070
   147
1040
1.75
1070
    42
1040
1.5875
1070
    44
1040
2.0
1070
   140
1040
3.5
1002
}
1001
ACAD_DSTYLE_DIM_LINETYPE
1070
   380
1005
16
1001
ACAD_DSTYLE_DIM_EXT1_LINETYPE
1070
   381
1005
16
1001
ACAD_DSTYLE_DIM_EXT2_LINETYPE
1070
   382
1005
16
0
DIMENSION
5
158
100
AcDbEntity
8
SK2
62
256
6
ByLayer
370
13
48
1
60
0
100
AcDbDimension
2
_U3
10
68.6588
20
-16.302503
30
0
11
87.416667
21
-16.302503
31
0
70
32
71
1
72
1
41
1
210
0
220
0
230
1
3
Standard
100
AcDbAlignedDimension
13
70
23
0
33
0
14
68.6588
24
-3.5
34
0
50
0
100
AcDbRotatedDimension
1001
ACAD
1000
DSTYLE
1002
{
1070
   371
1070
    13
1070
   372
1070
    13
1070
   170
1070
     0
1070
   144
1040
1.0
1070
   277
1070
     2
1070
   278
1070
    44
1070
   146
1040
1.0
1070
   345
1005
16
1070
   347
1005
16
1070
   346
1005
16
1070
   344
1005
0
1070
   343
1005
0
1070
   172
1070
     1
1070
    76
1070
     0
1070
    75
1070
     0
1070
   282
1070
     0
1070
   281
1070
     0
1070
    71
1070
     0
1070
    74
1070
     0
1070
   279
1070
     0
1070
   173
1070
     1
1070
   340
1005
F7
1070
   271
1070
     2
1070
   272
1070
     2
1070
    77
1070
     1
1070
    73
1070
     1
1070
   171
1070
     3
1070
   274
1070
     4
1070
   177
1070
    35
1070
   176
1070
    35
1070
   178
1070
    35
1070
    48
1040
-0.1
1070
    41
1040
3.5
1070
   147
1040
1.75
1070
    42
1040
1.5875
1070
    44
1040
2.0
1070
   140
1040
3.5
1002
}
1001
ACAD_DSTYLE_DIM_LINETYPE
1070
   380
1005
16
1001
ACAD_DSTYLE_DIM_EXT1_LINETYPE
1070
   381
1005
16
1001
ACAD_DSTYLE_DIM_EXT2_LINETYPE
1070
   382
1005
16
0
DIMENSION
5
172
100
AcDbEntity
8
SK2
62
256
6
ByLayer
370
13
48
1
60
0
100
AcDbDimension
2
_U4
10
68.6588
20
-22.343428
30
0
11
16.3294
21
-22.343428
31
0
70
32
71
1
72
1
41
1
210
0
220
0
230
1
3
Standard
100
AcDbAlignedDimension
13
-36
23
-4
33
0
14
68.6588
24
-3.5
34
0
50
0
100
AcDbRotatedDimension
1001
ACAD
1000
DSTYLE
1002
{
1070
   371
1070
    13
1070
   372
1070
    13
1070
   170
1070
     0
1070
   144
1040
1.0
1070
   277
1070
     2
1070
   278
1070
    44
1070
   146
1040
1.0
1070
   345
1005
16
1070
   347
1005
16
1070
   346
1005
16
1070
   344
1005
0
1070
   343
1005
0
1070
   172
1070
     1
1070
    76
1070
     0
1070
    75
1070
     0
1070
   282
1070
     0
1070
   281
1070
     0
1070
    71
1070
     0
1070
    74
1070
     0
1070
   279
1070
     0
1070
   173
1070
     1
1070
   340
1005
F7
1070
   271
1070
     2
1070
   272
1070
     2
1070
    77
1070
     1
1070
    73
1070
     1
1070
   171
1070
     3
1070
   274
1070
     4
1070
   177
1070
    35
1070
   176
1070
    35
1070
   178
1070
    35
1070
    48
1040
-0.1
1070
    41
1040
3.5
1070
   147
1040
1.75
1070
    42
1040
1.5875
1070
    44
1040
2.0
1070
   140
1040
3.5
1002
}
1001
ACAD_DSTYLE_DIM_LINETYPE
1070
   380
1005
16
1001
ACAD_DSTYLE_DIM_EXT1_LINETYPE
1070
   381
1005
16
1001
ACAD_DSTYLE_DIM_EXT2_LINETYPE
1070
   382
1005
16
0
ENDSEC
0
SECTION
2
OBJECTS
0
DICTIONARY
5
1fa
330
0
100
AcDbDictionary
280
0
281
1
3
ACAD_GROUP
350
1fb
3
ACAD_MLINESTYLE
350
1fc
0
DICTIONARY
5
1fb
330
0
100
AcDbDictionary
280
0
281
1
0
DICTIONARY
5
1fc
330
0
100
AcDbDictionary
280
0
281
1
3
Standard
350
18
0
MLINESTYLE
5
18
330
1fc
100
AcDbMlineStyle
2
Standard
70
0
3

62
256
51
90
52
90
71
2
49
-0.5
62
256
6
ByLayer
49
0.5
62
256
6
ByLayer
0
RASTERVARIABLES
5
1e8
330

100
AcDbRasterVariables
90
0
70
1
71
1
72
1
0
ENDSEC
0
EOF
