0
SECTION
2
HEADER
9
$ACADVER
1
AC1015
9
$DWGCODEPAGE
3
ANSI_1252
9
$HANDSEED
5
200
9
$ANGBASE
50
0
9
$ANGDIR
70
0
9
$ATTMODE
70
1
9
$AUNITS
70
0
9
$AUPREC
70
0
9
$CECOLOR
62
256
9
$CELTSCALE
40
1
9
$CELTYPE
6
ByLayer
9
$CELWEIGHT
370
18
9
$CLAYER
8
0
9
$CMLJUST
70
0
9
$CMLSCALE
40
1
9
$CMLSTYLE
2
Standard
9
$DIMSTYLE
2
Standard
9
$TEXTSIZE
40
0.2
9
$TEXTSTYLE
7
Standard
9
$LUNITS
70
2
9
$LUPREC
70
4
9
$EXTNAMES
290
1
9
$INSUNITS
70
4
9
$LTSCALE
40
1
9
$LWDISPLAY
290
1
9
$PDMODE
70
0
9
$PDSIZE
40
0
9
$PLINEGEN
70
0
0
ENDSEC
0
SECTION
2
CLASSES
0
CLASS
1
RASTERVARIABLES
2
AcDbRasterVariables
3
ISM
90
0
280
0
281
0
0
ENDSEC
0
SECTION
2
TABLES
0
TABLE
2
VPORT
5
1f6
100
AcDbSymbolTable
0
VPORT
5
1
100
AcDbSymbolTableRecord
100
AcDbViewportTableRecord
2
*Active
70
0
10
0
20
0
11
1
21
1
12
-1
22
1
13
0
23
0
14
0.5
24
0.5
15
10
25
10
16
0
26
0
36
1
17
0
27
0
37
0
0
ENDTAB
0
TABLE
2
LTYPE
5
1f7
100
AcDbSymbolTable
0
LTYPE
5
14
100
AcDbSymbolTableRecord
100
AcDbLinetypeTableRecord
70
0
2
ByBlock
3

72
65
73
0
40
0
0
LTYPE
5
15
100
AcDbSymbolTableRecord
100
AcDbLinetypeTableRecord
70
0
2
ByLayer
3

72
65
73
0
40
0
0
LTYPE
5
16
100
AcDbSymbolTableRecord
100
AcDbLinetypeTableRecord
70
0
2
Continuous
3
Solid line
72
65
73
0
40
0
0
LTYPE
5
6E
100
AcDbSymbolTableRecord
100
AcDbLinetypeTableRecord
70
0
2
CENTER
3
____ _ ____ _ ____ _ ____
72
65
73
4
40
47.5
49
22
74
0
49
-8.5
74
0
49
8.5
74
0
49
-8.5
74
0
0
LTYPE
5
6F
100
AcDbSymbolTableRecord
100
AcDbLinetypeTableRecord
70
0
2
DASHED
3
__ __ __ __ __ __ __ __ __
72
65
73
2
40
25.72
49
12.86
74
0
49
-12.86
74
0
0
ENDTAB
0
TABLE
2
LAYER
5
1f8
100
AcDbSymbolTable
0
LAYER
5
10
100
AcDbSymbolTableRecord
100
AcDbLayerTableRecord
2
0
70
0
62
7
6
Continuous
290
1
370
-3
390
0
0
LAYER
5
71
100
AcDbSymbolTableRecord
100
AcDbLayerTableRecord
2
80
70
0
62
-6
6
Continuous
290
1
370
-3
390
0
0
LAYER
5
73
100
AcDbSymbolTableRecord
100
AcDbLayerTableRecord
2
81
70
0
62
-3
6
Continuous
290
1
370
-3
390
0
0
LAYER
5
75
100
AcDbSymbolTableRecord
100
AcDbLayerTableRecord
2
1
70
0
62
4
6
Continuous
290
1
370
-3
390
0
0
LAYER
5
86
100
AcDbSymbolTableRecord
100
AcDbLayerTableRecord
2
4
70
0
62
-2
6
CENTER
290
1
370
-3
390
0
0
LAYER
5
9F
100
AcDbSymbolTableRecord
100
AcDbLayerTableRecord
2
2
70
0
62
7
6
Continuous
290
1
370
-3
390
0
0
LAYER
5
10B
100
AcDbSymbolTableRecord
100
AcDbLayerTableRecord
2
Defpoints
70
0
62
7
6
Continuous
290
0
370
-3
390
0
0
LAYER
5
1e2
100
AcDbSymbolTableRecord
100
AcDbLayerTableRecord
2
SK1
70
0
62
4
6
Continuous
290
1
370
-3
390
0
0
LAYER
5
1e3
100
AcDbSymbolTableRecord
100
AcDbLayerTableRecord
2
SK4
70
0
62
2
6
CENTER
290
1
370
-3
390
0
0
LAYER
5
1e4
100
AcDbSymbolTableRecord
100
AcDbLayerTableRecord
2
SK2
70
0
62
7
6
Continuous
290
1
370
-3
390
0
0
LAYER
5
1e5
100
AcDbSymbolTableRecord
100
AcDbLayerTableRecord
2
SK6
70
0
62
5
6
Continuous
290
1
370
-3
390
0
0
ENDTAB
0
TABLE
2
STYLE
5
1f9
100
AcDbSymbolTable
0
STYLE
5
11
100
AcDbSymbolTableRecord
100
AcDbTextStyleTableRecord
2
Standard
3
txt
70
0
71
0
40
0
41
1
42
0
50
0
0
STYLE
5
F0
100
AcDbSymbolTableRecord
100
AcDbTextStyleTableRecord
2
iso_b_vert
3
simplex.shx
70
0
71
0
40
0
41
1
42
0
50
0
0
STYLE
5
F1
100
AcDbSymbolTableRecord
100
AcDbTextStyleTableRecord
2
DWGDirectTextStyle
3
simplex
70
0
71
0
40
0
41
1
42
0
50
0
0
ENDTAB
0
TABLE
2
DIMSTYLE
5
1fa
100
AcDbSymbolTable
100
AcDbDimStyleTable
0
DIMSTYLE
105
27
100
AcDbSymbolTableRecord
100
AcDbDimStyleTableRecord
2
Standard
70
0
3
<>
41
0.18
42
0.0625
44
0.18
140
0.18
147
0.09
73
0
74
0
77
1
271
2
275
0
278
52
280
0
340
11
0
ENDTAB
0
TABLE
2
VIEW
5
1fb
100
AcDbSymbolTable
0
ENDTAB
0
TABLE
2
UCS
5
1fc
100
AcDbSymbolTable
0
ENDTAB
0
TABLE
2
APPID
5
1fd
100
AcDbSymbolTable
0
APPID
5
12
100
AcDbSymbolTableRecord
100
AcDbRegAppTableRecord
2
ACAD
70
0
0
APPID
5
107
100
AcDbSymbolTableRecord
100
AcDbRegAppTableRecord
2
ACAD_DSTYLE_DIMBREAK
70
0
0
APPID
5
1A1
100
AcDbSymbolTableRecord
100
AcDbRegAppTableRecord
2
ACAD_DSTYLE_DIM_LINETYPE
70
0
0
APPID
5
1A2
100
AcDbSymbolTableRecord
100
AcDbRegAppTableRecord
2
ACAD_DSTYLE_DIM_EXT1_LINETYPE
70
0
0
APPID
5
1A3
100
AcDbSymbolTableRecord
100
AcDbRegAppTableRecord
2
ACAD_DSTYLE_DIM_EXT2_LINETYPE
70
0
0
APPID
5
1DE
100
AcDbSymbolTableRecord
100
AcDbRegAppTableRecord
2
ACAD_MLEADERVER
70
0
0
ENDTAB
0
TABLE
2
BLOCK_RECORD
5
1fe
100
AcDbSymbolTable
0
BLOCK_RECORD
5
1F
100
AcDbSymbolTableRecord
100
AcDbBlockTableRecord
2
*Model_Space
340
0
70
0
0
BLOCK_RECORD
5
1B
100
AcDbSymbolTableRecord
100
AcDbBlockTableRecord
2
*Paper_Space
340
0
70
0
0
BLOCK_RECORD
5
23
100
AcDbSymbolTableRecord
100
AcDbBlockTableRecord
2
*Paper_Space0
340
0
70
0
0
BLOCK_RECORD
5
10C
100
AcDbSymbolTableRecord
100
AcDbBlockTableRecord
2
*D1
340
0
70
0
0
BLOCK_RECORD
5
118
100
AcDbSymbolTableRecord
100
AcDbBlockTableRecord
2
_U0
340
0
70
0
0
BLOCK_RECORD
5
124
100
AcDbSymbolTableRecord
100
AcDbBlockTableRecord
2
*D3
340
0
70
0
0
BLOCK_RECORD
5
130
100
AcDbSymbolTableRecord
100
AcDbBlockTableRecord
2
_U1
340
0
70
0
0
BLOCK_RECORD
5
13C
100
AcDbSymbolTableRecord
100
AcDbBlockTableRecord
2
*D5
340
0
70
0
0
BLOCK_RECORD
5
148
100
AcDbSymbolTableRecord
100
AcDbBlockTableRecord
2
_U2
340
0
70
0
0
BLOCK_RECORD
5
154
100
AcDbSymbolTableRecord
100
AcDbBlockTableRecord
2
*D7
340
0
70
0
0
BLOCK_RECORD
5
162
100
AcDbSymbolTableRecord
100
AcDbBlockTableRecord
2
_U3
340
0
70
0
0
BLOCK_RECORD
5
16E
100
AcDbSymbolTableRecord
100
AcDbBlockTableRecord
2
*D9
340
0
70
0
0
BLOCK_RECORD
5
17A
100
AcDbSymbolTableRecord
100
AcDbBlockTableRecord
2
_U4
340
0
70
0
0
ENDTAB
0
ENDSEC
0
SECTION
2
BLOCKS
0
BLOCK
5
20
100
AcDbEntity
8
0
100
AcDbBlockBegin
2
*Model_Space
70
0
10
0
20
0
30
0
3
*Model_Space
0
ENDBLK
5
21
100
AcDbEntity
8
0
100
AcDbBlockEnd
0
BLOCK
5
1C
100
AcDbEntity
8
0
100
AcDbBlockBegin
2
*Paper_Space
70
0
10
0
20
0
30
0
3
*Paper_Space
0
ENDBLK
5
1D
100
AcDbEntity
8
0
100
AcDbBlockEnd
0
BLOCK
5
24
100
AcDbEntity
8
0
100
AcDbBlockBegin
2
*Paper_Space0
70
0
10
0
20
0
30
0
3
*Paper_Space0
0
ENDBLK
5
25
100
AcDbEntity
8
0
100
AcDbBlockEnd
0
BLOCK
5
10D
100
AcDbEntity
8
0
100
AcDbBlockBegin
2
*D1
70
1
10
0
20
0
30
0
3
*D1
0
LINE
5
10F
100
AcDbEntity
8
0
62
256
6
ByLayer
370
-2
48
1
60
0
100
AcDbLine
10
0
20
-1.5875
30
0
11
0
21
-15.463398
31
0
39
0
210
0
220
0
230
1
0
LINE
5
110
100
AcDbEntity
8
0
62
256
6
ByLayer
370
-2
48
1
60
0
100
AcDbLine
10
53.7456
20
-4.8375
30
0
11
53.7456
21
-15.463398
31
0
39
0
210
0
220
0
230
1
0
LINE
5
111
100
AcDbEntity
8
0
62
256
6
ByLayer
370
-2
48
1
60
0
100
AcDbLine
10
3.5
20
-13.463398
30
0
11
50.2456
21
-13.463398
31
0
39
0
210
0
220
0
230
1
0
SOLID
5
112
100
AcDbEntity
8
0
62
256
6
ByLayer
370
-1
48
1
60
0
100
AcDbTrace
10
3.5
20
-12.880065
30
0
11
3.5
21
-14.046732
31
0
12
0
22
-13.463398
32
0
13
0
23
-13.463398
33
0
39
0
210
0
220
0
230
1
0
SOLID
5
113
100
AcDbEntity
8
0
62
256
6
ByLayer
370
-1
48
1
60
0
100
AcDbTrace
10
50.2456
20
-14.046732
30
0
11
50.2456
21
-12.880065
31
0
12
53.7456
22
-13.463398
32
0
13
53.7456
23
-13.463398
33
0
39
0
210
0
220
0
230
1
0
MTEXT
5
114
100
AcDbEntity
8
0
62
256
6
ByLayer
370
18
48
1
60
0
100
AcDbMText
10
26.8728
20
-6.463398
30
0
210
0
220
0
230
1
1
\A1;53.75
40
3.5
41
0
44
1
50
0
71
5
72
5
7
iso_b_vert
0
POINT
5
115
100
AcDbEntity
8
Defpoints
62
0
6
ByLayer
370
-1
48
1
60
0
100
AcDbPoint
10
0
20
0
30
0
39
0
210
0
220
0
230
1
50
360
0
POINT
5
116
100
AcDbEntity
8
Defpoints
62
0
6
ByLayer
370
-1
48
1
60
0
100
AcDbPoint
10
53.7456
20
-3.25
30
0
39
0
210
0
220
0
230
1
50
360
0
POINT
5
117
100
AcDbEntity
8
Defpoints
62
0
6
ByLayer
370
-1
48
1
60
0
100
AcDbPoint
10
53.7456
20
-13.463398
30
0
39
0
210
0
220
0
230
1
50
360
0
ENDBLK
5
10E
100
AcDbEntity
8
0
100
AcDbBlockEnd
0
BLOCK
5
11F
100
AcDbEntity
8
0
100
AcDbBlockBegin
2
_U0
70
0
10
0
20
0
30
0
3
_U0
0
MTEXT
5
119
100
AcDbEntity
8
2
62
256
6
ByLayer
370
13
48
1
60
0
100
AcDbMText
10
21.735501
20
-12.430765
30
0
210
0
220
0
230
1
1
\W0.7317;53,75
40
3.5
41
0
44
1.084337
50
0
71
7
72
5
7
iso_b_vert
0
LINE
5
11A
100
AcDbEntity
8
2
62
256
6
ByLayer
370
13
48
1
60
0
100
AcDbLine
10
0
20
-1.5875
30
0
11
0
21
-15.463398
31
0
39
0
210
0
220
0
230
1
0
LINE
5
11B
100
AcDbEntity
8
2
62
256
6
ByLayer
370
13
48
1
60
0
100
AcDbLine
10
53.7456
20
-4.8375
30
0
11
53.7456
21
-15.463398
31
0
39
0
210
0
220
0
230
1
0
LINE
5
11C
100
AcDbEntity
8
2
62
256
6
ByLayer
370
13
48
1
60
0
100
AcDbLine
10
0
20
-13.463398
30
0
11
53.7456
21
-13.463398
31
0
39
0
210
0
220
0
230
1
0
SOLID
5
11D
100
AcDbEntity
8
2
62
256
6
ByLayer
370
18
48
1
60
0
100
AcDbTrace
10
0
20
-13.463398
30
0
11
3.499998
21
-13.002615
31
0
12
3.500002
22
-13.924182
32
0
13
3.500002
23
-13.924182
33
0
39
0
210
0
220
0
230
1
0
SOLID
5
11E
100
AcDbEntity
8
2
62
256
6
ByLayer
370
18
48
1
60
0
100
AcDbTrace
10
53.7456
20
-13.463398
30
0
11
50.245602
21
-13.924182
31
0
12
50.245598
22
-13.002615
32
0
13
50.245598
23
-13.002615
33
0
39
0
210
0
220
0
230
1
0
ENDBLK
5
120
100
AcDbEntity
8
0
100
AcDbBlockEnd
0
BLOCK
5
125
100
AcDbEntity
8
0
100
AcDbBlockBegin
2
*D3
70
1
10
0
20
0
30
0
3
*D3
0
LINE
5
127
100
AcDbEntity
8
0
62
256
6
ByLayer
370
-2
48
1
60
0
100
AcDbLine
10
-36
20
-5.5875
30
0
11
-36
21
-34.692985
31
0
39
0
210
0
220
0
230
1
0
LINE
5
128
100
AcDbEntity
8
0
62
256
6
ByLayer
370
-2
48
1
60
0
100
AcDbLine
10
55
20
-1.5875
30
0
11
55
21
-34.692985
31
0
39
0
210
0
220
0
230
1
0
LINE
5
129
100
AcDbEntity
8
0
62
256
6
ByLayer
370
-2
48
1
60
0
100
AcDbLine
10
-32.5
20
-32.692985
30
0
11
51.5
21
-32.692985
31
0
39
0
210
0
220
0
230
1
0
SOLID
5
12A
100
AcDbEntity
8
0
62
256
6
ByLayer
370
-1
48
1
60
0
100
AcDbTrace
10
-32.5
20
-32.109652
30
0
11
-32.5
21
-33.276319
31
0
12
-36
22
-32.692985
32
0
13
-36
23
-32.692985
33
0
39
0
210
0
220
0
230
1
0
SOLID
5
12B
100
AcDbEntity
8
0
62
256
6
ByLayer
370
-1
48
1
60
0
100
AcDbTrace
10
51.5
20
-33.276319
30
0
11
51.5
21
-32.109652
31
0
12
55
22
-32.692985
32
0
13
55
23
-32.692985
33
0
39
0
210
0
220
0
230
1
0
MTEXT
5
12C
100
AcDbEntity
8
0
62
256
6
ByLayer
370
18
48
1
60
0
100
AcDbMText
10
9.5
20
-25.692985
30
0
210
0
220
0
230
1
1
\A1;91.00
40
3.5
41
0
44
1
50
0
71
5
72
5
7
iso_b_vert
0
POINT
5
12D
100
AcDbEntity
8
Defpoints
62
0
6
ByLayer
370
-1
48
1
60
0
100
AcDbPoint
10
-36
20
-4
30
0
39
0
210
0
220
0
230
1
50
360
0
POINT
5
12E
100
AcDbEntity
8
Defpoints
62
0
6
ByLayer
370
-1
48
1
60
0
100
AcDbPoint
10
55
20
0
30
0
39
0
210
0
220
0
230
1
50
360
0
POINT
5
12F
100
AcDbEntity
8
Defpoints
62
0
6
ByLayer
370
-1
48
1
60
0
100
AcDbPoint
10
55
20
-32.692985
30
0
39
0
210
0
220
0
230
1
50
360
0
ENDBLK
5
126
100
AcDbEntity
8
0
100
AcDbBlockEnd
0
BLOCK
5
137
100
AcDbEntity
8
0
100
AcDbBlockBegin
2
_U1
70
0
10
0
20
0
30
0
3
_U1
0
MTEXT
5
131
100
AcDbEntity
8
SK2
62
256
6
ByLayer
370
13
48
1
60
0
100
AcDbMText
10
4.800135
20
-31.660352
30
0
210
0
220
0
230
1
1
\W0.6713;91,00
40
3.5
41
0
44
1.084337
50
0
71
7
72
5
7
iso_b_vert
0
LINE
5
132
100
AcDbEntity
8
SK2
62
256
6
ByLayer
370
13
48
1
60
0
100
AcDbLine
10
-36
20
-5.5875
30
0
11
-36
21
-34.692985
31
0
39
0
210
0
220
0
230
1
0
LINE
5
133
100
AcDbEntity
8
SK2
62
256
6
ByLayer
370
13
48
1
60
0
100
AcDbLine
10
55
20
-1.5875
30
0
11
55
21
-34.692985
31
0
39
0
210
0
220
0
230
1
0
LINE
5
134
100
AcDbEntity
8
SK2
62
256
6
ByLayer
370
13
48
1
60
0
100
AcDbLine
10
-36
20
-32.692985
30
0
11
55
21
-32.692985
31
0
39
0
210
0
220
0
230
1
0
SOLID
5
135
100
AcDbEntity
8
SK2
62
256
6
ByLayer
370
18
48
1
60
0
100
AcDbTrace
10
-36
20
-32.692985
30
0
11
-32.500002
21
-32.232202
31
0
12
-32.499998
22
-33.153769
32
0
13
-32.499998
23
-33.153769
33
0
39
0
210
0
220
0
230
1
0
SOLID
5
136
100
AcDbEntity
8
SK2
62
256
6
ByLayer
370
18
48
1
60
0
100
AcDbTrace
10
55
20
-32.692985
30
0
11
51.500002
21
-33.153769
31
0
12
51.499998
22
-32.232202
32
0
13
51.499998
23
-32.232202
33
0
39
0
210
0
220
0
230
1
0
ENDBLK
5
138
100
AcDbEntity
8
0
100
AcDbBlockEnd
0
BLOCK
5
13D
100
AcDbEntity
8
0
100
AcDbBlockBegin
2
*D5
70
1
10
0
20
0
30
0
3
*D5
0
LINE
5
13F
100
AcDbEntity
8
0
62
256
6
ByLayer
370
-2
48
1
60
0
100
AcDbLine
10
21.25
20
4.8375
30
0
11
21.25
21
16.859119
31
0
39
0
210
0
220
0
230
1
0
LINE
5
140
100
AcDbEntity
8
0
62
256
6
ByLayer
370
-2
48
1
60
0
100
AcDbLine
10
55
20
1.5875
30
0
11
55
21
16.859119
31
0
39
0
210
0
220
0
230
1
0
LINE
5
141
100
AcDbEntity
8
0
62
256
6
ByLayer
370
-2
48
1
60
0
100
AcDbLine
10
24.75
20
14.859119
30
0
11
51.5
21
14.859119
31
0
39
0
210
0
220
0
230
1
0
SOLID
5
142
100
AcDbEntity
8
0
62
256
6
ByLayer
370
-1
48
1
60
0
100
AcDbTrace
10
24.75
20
15.442453
30
0
11
24.75
21
14.275786
31
0
12
21.25
22
14.859119
32
0
13
21.25
23
14.859119
33
0
39
0
210
0
220
0
230
1
0
SOLID
5
143
100
AcDbEntity
8
0
62
256
6
ByLayer
370
-1
48
1
60
0
100
AcDbTrace
10
51.5
20
14.275786
30
0
11
51.5
21
15.442453
31
0
12
55
22
14.859119
32
0
13
55
23
14.859119
33
0
39
0
210
0
220
0
230
1
0
MTEXT
5
144
100
AcDbEntity
8
0
62
256
6
ByLayer
370
18
48
1
60
0
100
AcDbMText
10
38.125
20
21.859119
30
0
210
0
220
0
230
1
1
\A1;33.75
40
3.5
41
0
44
1
50
0
71
5
72
5
7
iso_b_vert
0
POINT
5
145
100
AcDbEntity
8
Defpoints
62
0
6
ByLayer
370
-1
48
1
60
0
100
AcDbPoint
10
21.25
20
3.25
30
0
39
0
210
0
220
0
230
1
50
360
0
POINT
5
146
100
AcDbEntity
8
Defpoints
62
0
6
ByLayer
370
-1
48
1
60
0
100
AcDbPoint
10
55
20
0
30
0
39
0
210
0
220
0
230
1
50
360
0
POINT
5
147
100
AcDbEntity
8
Defpoints
62
0
6
ByLayer
370
-1
48
1
60
0
100
AcDbPoint
10
55
20
14.859119
30
0
39
0
210
0
220
0
230
1
50
360
0
ENDBLK
5
13E
100
AcDbEntity
8
0
100
AcDbBlockEnd
0
BLOCK
5
14F
100
AcDbEntity
8
0
100
AcDbBlockBegin
2
_U2
70
0
10
0
20
0
30
0
3
_U2
0
MTEXT
5
149
100
AcDbEntity
8
SK2
62
256
6
ByLayer
370
13
48
1
60
0
100
AcDbMText
10
32.987701
20
15.891753
30
0
210
0
220
0
230
1
1
\W0.7317;33,75
40
3.5
41
0
44
1.084337
50
0
71
7
72
5
7
iso_b_vert
0
LINE
5
14A
100
AcDbEntity
8
SK2
62
256
6
ByLayer
370
13
48
1
60
0
100
AcDbLine
10
21.25
20
4.8375
30
0
11
21.25
21
16.859119
31
0
39
0
210
0
220
0
230
1
0
LINE
5
14B
100
AcDbEntity
8
SK2
62
256
6
ByLayer
370
13
48
1
60
0
100
AcDbLine
10
55
20
1.5875
30
0
11
55
21
16.859119
31
0
39
0
210
0
220
0
230
1
0
LINE
5
14C
100
AcDbEntity
8
SK2
62
256
6
ByLayer
370
13
48
1
60
0
100
AcDbLine
10
21.25
20
14.859119
30
0
11
55
21
14.859119
31
0
39
0
210
0
220
0
230
1
0
SOLID
5
14D
100
AcDbEntity
8
SK2
62
256
6
ByLayer
370
18
48
1
60
0
100
AcDbTrace
10
21.25
20
14.859119
30
0
11
24.749998
21
15.319903
31
0
12
24.750002
22
14.398335
32
0
13
24.750002
23
14.398335
33
0
39
0
210
0
220
0
230
1
0
SOLID
5
14E
100
AcDbEntity
8
SK2
62
256
6
ByLayer
370
18
48
1
60
0
100
AcDbTrace
10
55
20
14.859119
30
0
11
51.500002
21
14.398335
31
0
12
51.499998
22
15.319903
32
0
13
51.499998
23
15.319903
33
0
39
0
210
0
220
0
230
1
0
ENDBLK
5
150
100
AcDbEntity
8
0
100
AcDbBlockEnd
0
BLOCK
5
155
100
AcDbEntity
8
0
100
AcDbBlockBegin
2
*D7
70
1
10
0
20
0
30
0
3
*D7
0
LINE
5
157
100
AcDbEntity
8
0
62
256
6
ByLayer
370
-2
48
1
60
0
100
AcDbLine
10
55
20
-1.5875
30
0
11
55
21
-18.052503
31
0
39
0
210
0
220
0
230
1
0
LINE
5
158
100
AcDbEntity
8
0
62
256
6
ByLayer
370
-2
48
1
60
0
100
AcDbLine
10
53.7456
20
-4.8375
30
0
11
53.7456
21
-18.052503
31
0
39
0
210
0
220
0
230
1
0
LINE
5
159
100
AcDbEntity
8
0
62
256
6
ByLayer
370
-2
48
1
60
0
100
AcDbLine
10
55
20
-16.052503
30
0
11
82.666667
21
-16.052503
31
0
39
0
210
0
220
0
230
1
0
LINE
5
15A
100
AcDbEntity
8
0
62
256
6
ByLayer
370
-2
48
1
60
0
100
AcDbLine
10
58.5
20
-16.052503
30
0
11
62
21
-16.052503
31
0
39
0
210
0
220
0
230
1
0
LINE
5
15B
100
AcDbEntity
8
0
62
256
6
ByLayer
370
-2
48
1
60
0
100
AcDbLine
10
50.2456
20
-16.052503
30
0
11
46.7456
21
-16.052503
31
0
39
0
210
0
220
0
230
1
0
SOLID
5
15C
100
AcDbEntity
8
0
62
256
6
ByLayer
370
-1
48
1
60
0
100
AcDbTrace
10
58.5
20
-15.46917
30
0
11
58.5
21
-16.635837
31
0
12
55
22
-16.052503
32
0
13
55
23
-16.052503
33
0
39
0
210
0
220
0
230
1
0
SOLID
5
15D
100
AcDbEntity
8
0
62
256
6
ByLayer
370
-1
48
1
60
0
100
AcDbTrace
10
50.2456
20
-16.635837
30
0
11
50.2456
21
-15.46917
31
0
12
53.7456
22
-16.052503
32
0
13
53.7456
23
-16.052503
33
0
39
0
210
0
220
0
230
1
0
MTEXT
5
15E
100
AcDbEntity
8
0
62
256
6
ByLayer
370
18
48
1
60
0
100
AcDbMText
10
72.333333
20
-9.052503
30
0
210
0
220
0
230
1
1
\A1;1.25
40
3.5
41
0
44
1
50
0
71
5
72
5
7
iso_b_vert
0
POINT
5
15F
100
AcDbEntity
8
Defpoints
62
0
6
ByLayer
370
-1
48
1
60
0
100
AcDbPoint
10
55
20
0
30
0
39
0
210
0
220
0
230
1
50
360
0
POINT
5
160
100
AcDbEntity
8
Defpoints
62
0
6
ByLayer
370
-1
48
1
60
0
100
AcDbPoint
10
53.7456
20
-3.25
30
0
39
0
210
0
220
0
230
1
50
360
0
POINT
5
161
100
AcDbEntity
8
Defpoints
62
0
6
ByLayer
370
-1
48
1
60
0
100
AcDbPoint
10
53.7456
20
-16.052503
30
0
39
0
210
0
220
0
230
1
50
360
0
ENDBLK
5
156
100
AcDbEntity
8
0
100
AcDbBlockEnd
0
BLOCK
5
169
100
AcDbEntity
8
0
100
AcDbBlockBegin
2
_U3
70
0
10
0
20
0
30
0
3
_U3
0
MTEXT
5
163
100
AcDbEntity
8
SK2
62
256
6
ByLayer
370
13
48
1
60
0
100
AcDbMText
10
61.589293
20
-15.01987
30
0
210
0
220
0
230
1
1
\W0.6367;1,25
40
3.5
41
0
44
1.084337
50
0
71
7
72
5
7
iso_b_vert
0
LINE
5
164
100
AcDbEntity
8
SK2
62
256
6
ByLayer
370
13
48
1
60
0
100
AcDbLine
10
55
20
-1.5875
30
0
11
55
21
-18.052503
31
0
39
0
210
0
220
0
230
1
0
LINE
5
165
100
AcDbEntity
8
SK2
62
256
6
ByLayer
370
13
48
1
60
0
100
AcDbLine
10
53.7456
20
-4.8375
30
0
11
53.7456
21
-18.052503
31
0
39
0
210
0
220
0
230
1
0
LINE
5
166
100
AcDbEntity
8
SK2
62
256
6
ByLayer
370
13
48
1
60
0
100
AcDbLine
10
44.9956
20
-16.052503
30
0
11
68.559058
21
-16.052503
31
0
39
0
210
0
220
0
230
1
0
SOLID
5
167
100
AcDbEntity
8
SK2
62
256
6
ByLayer
370
18
48
1
60
0
100
AcDbTrace
10
55
20
-16.052503
30
0
11
58.499998
21
-15.591719
31
0
12
58.500002
22
-16.513287
32
0
13
58.500002
23
-16.513287
33
0
39
0
210
0
220
0
230
1
0
SOLID
5
168
100
AcDbEntity
8
SK2
62
256
6
ByLayer
370
18
48
1
60
0
100
AcDbTrace
10
53.7456
20
-16.052503
30
0
11
50.245602
21
-16.513287
31
0
12
50.245598
22
-15.591719
32
0
13
50.245598
23
-15.591719
33
0
39
0
210
0
220
0
230
1
0
ENDBLK
5
16A
100
AcDbEntity
8
0
100
AcDbBlockEnd
0
BLOCK
5
16F
100
AcDbEntity
8
0
100
AcDbBlockBegin
2
*D9
70
1
10
0
20
0
30
0
3
*D9
0
LINE
5
171
100
AcDbEntity
8
0
62
256
6
ByLayer
370
-2
48
1
60
0
100
AcDbLine
10
-36
20
-5.5875
30
0
11
-36
21
-24.343428
31
0
39
0
210
0
220
0
230
1
0
LINE
5
172
100
AcDbEntity
8
0
62
256
6
ByLayer
370
-2
48
1
60
0
100
AcDbLine
10
53.7456
20
-4.8375
30
0
11
53.7456
21
-24.343428
31
0
39
0
210
0
220
0
230
1
0
LINE
5
173
100
AcDbEntity
8
0
62
256
6
ByLayer
370
-2
48
1
60
0
100
AcDbLine
10
-32.5
20
-22.343428
30
0
11
50.2456
21
-22.343428
31
0
39
0
210
0
220
0
230
1
0
SOLID
5
174
100
AcDbEntity
8
0
62
256
6
ByLayer
370
-1
48
1
60
0
100
AcDbTrace
10
-32.5
20
-21.760095
30
0
11
-32.5
21
-22.926762
31
0
12
-36
22
-22.343428
32
0
13
-36
23
-22.343428
33
0
39
0
210
0
220
0
230
1
0
SOLID
5
175
100
AcDbEntity
8
0
62
256
6
ByLayer
370
-1
48
1
60
0
100
AcDbTrace
10
50.2456
20
-22.926762
30
0
11
50.2456
21
-21.760095
31
0
12
53.7456
22
-22.343428
32
0
13
53.7456
23
-22.343428
33
0
39
0
210
0
220
0
230
1
0
MTEXT
5
176
100
AcDbEntity
8
0
62
256
6
ByLayer
370
18
48
1
60
0
100
AcDbMText
10
8.8728
20
-15.343428
30
0
210
0
220
0
230
1
1
\A1;89.75
40
3.5
41
0
44
1
50
0
71
5
72
5
7
iso_b_vert
0
POINT
5
177
100
AcDbEntity
8
Defpoints
62
0
6
ByLayer
370
-1
48
1
60
0
100
AcDbPoint
10
-36
20
-4
30
0
39
0
210
0
220
0
230
1
50
360
0
POINT
5
178
100
AcDbEntity
8
Defpoints
62
0
6
ByLayer
370
-1
48
1
60
0
100
AcDbPoint
10
53.7456
20
-3.25
30
0
39
0
210
0
220
0
230
1
50
360
0
POINT
5
179
100
AcDbEntity
8
Defpoints
62
0
6
ByLayer
370
-1
48
1
60
0
100
AcDbPoint
10
53.7456
20
-22.343428
30
0
39
0
210
0
220
0
230
1
50
360
0
ENDBLK
5
170
100
AcDbEntity
8
0
100
AcDbBlockEnd
0
BLOCK
5
181
100
AcDbEntity
8
0
100
AcDbBlockBegin
2
_U4
70
0
10
0
20
0
30
0
3
_U4
0
MTEXT
5
17B
100
AcDbEntity
8
SK2
62
256
6
ByLayer
370
13
48
1
60
0
100
AcDbMText
10
3.735501
20
-21.310795
30
0
210
0
220
0
230
1
1
\W0.7317;89,75
40
3.5
41
0
44
1.084337
50
0
71
7
72
5
7
iso_b_vert
0
LINE
5
17C
100
AcDbEntity
8
SK2
62
256
6
ByLayer
370
13
48
1
60
0
100
AcDbLine
10
-36
20
-5.5875
30
0
11
-36
21
-24.343428
31
0
39
0
210
0
220
0
230
1
0
LINE
5
17D
100
AcDbEntity
8
SK2
62
256
6
ByLayer
370
13
48
1
60
0
100
AcDbLine
10
53.7456
20
-4.8375
30
0
11
53.7456
21
-24.343428
31
0
39
0
210
0
220
0
230
1
0
LINE
5
17E
100
AcDbEntity
8
SK2
62
256
6
ByLayer
370
13
48
1
60
0
100
AcDbLine
10
-36
20
-22.343428
30
0
11
53.7456
21
-22.343428
31
0
39
0
210
0
220
0
230
1
0
SOLID
5
17F
100
AcDbEntity
8
SK2
62
256
6
ByLayer
370
18
48
1
60
0
100
AcDbTrace
10
-36
20
-22.343428
30
0
11
-32.500002
21
-21.882645
31
0
12
-32.499998
22
-22.804212
32
0
13
-32.499998
23
-22.804212
33
0
39
0
210
0
220
0
230
1
0
SOLID
5
180
100
AcDbEntity
8
SK2
62
256
6
ByLayer
370
18
48
1
60
0
100
AcDbTrace
10
53.7456
20
-22.343428
30
0
11
50.245602
21
-22.804212
31
0
12
50.245598
22
-21.882645
32
0
13
50.245598
23
-21.882645
33
0
39
0
210
0
220
0
230
1
0
ENDBLK
5
182
100
AcDbEntity
8
0
100
AcDbBlockEnd
0
ENDSEC
0
SECTION
2
ENTITIES
0
ARC
5
A8
100
AcDbEntity
8
1
62
256
6
ByLayer
370
18
48
1
60
0
100
AcDbCircle
39
0
10
1.468819
20
-4.005903
30
0
40
0.850000000000002
210
0
220
0
230
1
100
AcDbArc
50
89.896868
51
149.769997
0
ARC
5
A9
100
AcDbEntity
8
1
62
256
6
ByLayer
370
18
48
1
60
0
100
AcDbCircle
39
0
10
1.468819
20
4.005903
30
0
40
0.850000000000002
210
0
220
0
230
1
100
AcDbArc
50
210.230003
51
270.103132
0
ARC
5
AA
100
AcDbEntity
8
1
62
256
6
ByLayer
370
18
48
1
60
0
100
AcDbCircle
39
0
10
0
20
-3.15
30
0
40
0.850000000000002
210
0
220
0
230
1
100
AcDbArc
50
270
51
329.769997
0
ARC
5
AB
100
AcDbEntity
8
1
62
256
6
ByLayer
370
18
48
1
60
0
100
AcDbCircle
39
0
10
0
20
3.15
30
0
40
0.850000000000002
210
0
220
0
230
1
100
AcDbArc
50
30.230003
51
90
0
ELLIPSE
5
AC
100
AcDbEntity
8
1
62
256
6
ByLayer
370
13
48
1
60
0
100
AcDbEllipse
10
11.642441
20
54.967275
30
0
11
-57.5129742732145
21
47.2952029663274
31
0
210
0
220
0
230
1
40
0.623417
41
1.99160902535934
42
2.04452115332548
0
ELLIPSE
5
AD
100
AcDbEntity
8
1
62
256
6
ByLayer
370
13
48
1
60
0
100
AcDbEllipse
10
99.194174
20
42.489532
30
0
11
-61.2499999999999
21
7.50071391716205E-15
31
0
210
0
220
0
230
1
40
0.99863
41
0.746148927800183
42
0.763770173186341
0
ELLIPSE
5
AE
100
AcDbEntity
8
1
62
256
6
ByLayer
370
13
48
1
60
0
100
AcDbEllipse
10
5.671742
20
-1.779312
30
0
11
0.114997928461653
21
0.277083879808134
31
0
210
0
220
0
230
1
40
0.229764
41
1.06005537438283
42
1.82831537267563
0
POINT
5
70
100
AcDbEntity
8
80
62
256
6
ByLayer
370
18
48
1
60
0
100
AcDbPoint
10
0
20
0
30
0
39
0
210
0
220
0
230
1
50
360
0
POINT
5
72
100
AcDbEntity
8
81
62
256
6
ByLayer
370
18
48
1
60
0
100
AcDbPoint
10
55
20
0
30
0
39
0
210
0
220
0
230
1
50
360
0
POINT
5
74
100
AcDbEntity
8
1
62
256
6
ByLayer
370
18
48
1
60
1
100
AcDbPoint
10
53.7456
20
-3.25
30
0
39
0
210
0
220
0
230
1
50
360
0
POINT
5
76
100
AcDbEntity
8
1
62
256
6
ByLayer
370
18
48
1
60
1
100
AcDbPoint
10
-36
20
-4
30
0
39
0
210
0
220
0
230
1
50
360
0
POINT
5
77
100
AcDbEntity
8
1
62
256
6
ByLayer
370
18
48
1
60
1
100
AcDbPoint
10
21.25
20
3.25
30
0
39
0
210
0
220
0
230
1
50
360
0
POINT
5
78
100
AcDbEntity
8
1
62
256
6
ByLayer
370
18
48
1
60
1
100
AcDbPoint
10
53.7456
20
-3.25
30
0
39
0
210
0
220
0
230
1
50
360
0
POINT
5
79
100
AcDbEntity
8
1
62
256
6
ByLayer
370
18
48
1
60
1
100
AcDbPoint
10
-36
20
-4
30
0
39
0
210
0
220
0
230
1
50
360
0
POINT
5
7A
100
AcDbEntity
8
1
62
256
6
ByLayer
370
18
48
1
60
1
100
AcDbPoint
10
53.7456
20
-3.25
30
0
39
0
210
0
220
0
230
1
50
360
0
SPLINE
5
AF
100
AcDbEntity
8
1
62
256
6
ByLayer
370
18
48
1
60
0
100
AcDbSpline
70
4
71
4
72
10
73
5
40
0
40
0
40
0
40
0
40
0
40
1
40
1
40
1
40
1
40
1
41
1
10
12.1854174541059
20
3.15031504130772
30
0
41
1
10
12.0496734454541
20
2.73396392062352
30
0
41
1
10
11.9139294368023
20
2.31761279993933
30
0
41
1
10
11.7781854281506
20
1.90126167925513
30
0
41
1
10
11.6424414194988
20
1.48491055857096
30
0
0
SPLINE
5
B0
100
AcDbEntity
8
1
62
256
6
ByLayer
370
18
48
1
60
0
100
AcDbSpline
70
4
71
3
72
8
73
4
40
0
40
0
40
0
40
0
40
1
40
1
40
1
40
1
41
1
10
53.52196208871
20
0.488284769174271
30
0
41
1
10
53.6513141374231
20
0.413623056460381
30
0
41
1
10
53.7815908864345
20
0.343118130121752
30
0
41
1
10
53.9128741535764
20
0.277137784190501
30
0
0
SPLINE
5
B1
100
AcDbEntity
8
1
62
256
6
ByLayer
370
13
48
1
60
0
100
AcDbSpline
70
4
71
3
72
79
73
75
40
0
40
0
40
0
40
0
40
0.0131325556095044
40
0.0236498315798102
40
0.034167107550118
40
0.0552016594907313
40
0.0657189354610378
40
0.076236211431345
40
0.0972707633719579
40
0.107788039342265
40
0.118305315312572
40
0.139339867253185
40
0.149857143223491
40
0.160374419193798
40
0.181408971134411
40
0.191926247104718
40
0.202443523075025
40
0.223478075015638
40
0.233995350985945
40
0.244512626956252
40
0.265547178896865
40
0.276064454867171
40
0.286581730837478
40
0.307616282778092
40
0.318133558748398
40
0.328650834718705
40
0.349685386659318
40
0.360202662629625
40
0.370719938599932
40
0.391754490540545
40
0.402271766510853
40
0.412789042481158
40
0.433823594421772
40
0.444340870392078
40
0.454858146362385
40
0.475892698302999
40
0.486409974273305
40
0.496927250243612
40
0.517961802184225
40
0.528479078154532
40
0.538996354124839
40
0.560030906065452
40
0.570548182035759
40
0.581065458006065
40
0.602100009946679
40
0.612617285916986
40
0.623134561887292
40
0.644169113827906
40
0.654686389798212
40
0.665203665768519
40
0.686238217709132
40
0.696755493679439
40
0.707272769649745
40
0.728307321590359
40
0.738824597560666
40
0.749341873530972
40
0.770376425471586
40
0.780893701441892
40
0.791410977412199
40
0.812445529352812
40
0.822962805323119
40
0.833480081293426
40
0.854514633234039
40
0.865031909204346
40
0.875549185174652
40
0.896583737115266
40
0.907101013085572
40
0.917618289055879
40
0.938652840996493
40
0.949170116966799
40
0.959687392937106
40
0.980721944877719
40
0.991239220848026
40
1
40
1
40
1
40
1
41
1
10
25.180293526041
20
-1.34600248157875
30
0
41
1
10
25.1201370962502
20
-1.35151240523712
30
0
41
1
10
25.011800985778
20
-1.36116632093302
30
0
41
1
10
24.8552796116667
20
-1.374408881866
30
0
41
1
10
24.6625846796189
20
-1.3898596675771
30
0
41
1
10
24.4698757568687
20
-1.40412728861421
30
0
41
1
10
24.2771547722119
20
-1.41719937048762
30
0
41
1
10
24.0844596799028
20
-1.42937728698607
30
0
41
1
10
23.8917505962977
20
-1.44034312026881
30
0
41
1
10
23.6990295275869
20
-1.45009371212885
30
0
41
1
10
23.5063344024952
20
-1.45892120262829
30
0
41
1
10
23.3136253491431
20
-1.46651958521531
30
0
41
1
10
23.1209043539445
20
-1.47288818856285
30
0
41
1
10
22.928209329768
20
-1.47830900612809
30
0
41
1
10
22.7355004071044
20
-1.48248902038222
30
0
41
1
10
22.5427795445591
20
-1.48543011691598
30
0
41
1
10
22.3500846286143
20
-1.4874032916079
30
0
41
1
10
22.1573757554942
20
-1.48812961525758
30
0
41
1
10
21.9646548239104
20
-1.48761368717828
30
0
41
1
10
21.7719597799332
20
-1.48611643990932
30
0
41
1
10
21.5792507452916
20
-1.48337780996647
30
0
41
1
10
21.3865297254753
20
-1.47941076293088
30
0
41
1
10
21.1938346373884
20
-1.47445967188784
30
0
41
1
10
21.0011256110972
20
-1.46828429102439
30
0
41
1
10
20.8084046345692
20
-1.46090029887938
30
0
41
1
10
20.6157096085357
20
-1.45253473266743
30
0
41
1
10
20.4230006474763
20
-1.44296809057281
30
0
41
1
10
20.2302796933866
20
-1.4322188280417
30
0
41
1
10
20.0375846564247
20
-1.4204958084961
30
0
41
1
10
19.844875628224
20
-1.40760106829882
30
0
41
1
10
19.6521545385111
20
-1.39355573365037
30
0
41
1
10
19.4594593497359
20
-1.37855104346215
30
0
41
1
10
19.2667501888473
20
-1.36241376084709
30
0
41
1
10
19.0740290802247
20
-1.34517135113981
30
0
41
1
10
18.8813339428409
20
-1.32699314541364
30
0
41
1
10
18.6886249141394
20
-1.30773134335334
30
0
41
1
10
18.4959039638048
20
-1.28741608857376
30
0
41
1
10
18.3032089837334
20
-1.26619413043511
30
0
41
1
10
18.1105001051861
20
-1.2439436741987
30
0
41
1
10
17.9177792720172
20
-1.22069739719109
30
0
41
1
10
17.7250843656411
20
-1.19657896728628
30
0
41
1
10
17.5323754820777
20
-1.17149310649611
30
0
41
1
10
17.3396545403649
20
-1.14547499009473
30
0
41
1
10
17.1469594923819
20
-1.11862520727891
30
0
41
1
10
16.9542504548266
20
-1.09087636559497
30
0
41
1
10
16.7615294272771
20
-1.06226744640347
30
0
41
1
10
16.5688343358379
20
-1.03287411448142
30
0
41
1
10
16.3761253108589
20
-1.00265716558215
30
0
41
1
10
16.183404338276
20
-0.971657804766693
30
0
41
1
10
15.9907093165593
20
-0.939926482188127
30
0
41
1
10
15.7980003621375
20
-0.907452425167094
30
0
41
1
10
15.6052794276426
20
-0.874278993234356
30
0
41
1
10
15.4125844257324
20
-0.840431149029797
30
0
41
1
10
15.2198754476844
20
-0.805926691794866
30
0
41
1
10
15.0271544134577
20
-0.770810960298093
30
0
41
1
10
14.834459287575
20
-0.735082887104369
30
0
41
1
10
14.6417502031202
20
-0.698788188313472
30
0
41
1
10
14.4490291765193
20
-0.661972971583708
30
0
41
1
10
14.2563341073862
20
-0.624611077451448
30
0
41
1
10
14.0636251312717
20
-0.586776082787509
30
0
41
1
10
13.8709042156267
20
-0.54851575264243
30
0
41
1
10
13.6782092511588
20
-0.509778797491919
30
0
41
1
10
13.485500357823
20
-0.470666489615638
30
0
41
1
10
13.2927794804537
20
-0.431228035877922
30
0
41
1
10
13.1000845229344
20
-0.391387077571721
30
0
41
1
10
12.907375581578
20
-0.351272320414381
30
0
41
1
10
12.7146545915052
20
-0.310934213517441
30
0
41
1
10
12.5219595046525
20
-0.270270549042152
30
0
41
1
10
12.3292504378913
20
-0.229435274816467
30
0
41
1
10
12.1365293895034
20
-0.188477121059208
30
0
41
1
10
11.94383428414
20
-0.147270994616065
30
0
41
1
10
11.7511252459944
20
-0.105995640256594
30
0
41
1
10
11.5664508718984
20
-0.0664247927305155
30
0
41
1
10
11.4781433902429
20
-0.0474514855689563
30
0
41
1
10
11.4380124175623
20
-0.0388281245200517
30
0
0
SPLINE
5
B2
100
AcDbEntity
8
1
62
256
6
ByLayer
370
18
48
1
60
0
100
AcDbSpline
70
4
71
3
72
8
73
4
40
0
40
0
40
0
40
0
40
1
40
1
40
1
40
1
41
1
10
54.4943992045736
20
-1.48811252101871
30
0
41
1
10
54.5267255295481
20
-1.39543961040854
30
0
41
1
10
54.5604218604304
20
-1.30508346678977
30
0
41
1
10
54.5955265896986
20
-1.21682618156706
30
0
0
SPLINE
5
B3
100
AcDbEntity
8
1
62
256
6
ByLayer
370
13
48
1
60
0
100
AcDbSpline
70
4
71
3
72
10
73
6
40
0
40
0
40
0
40
0
40
0.5
40
0.5
40
1
40
1
40
1
40
1
41
1
10
5.25850758554432
20
-1.55784063726298
30
0
41
1
10
5.32428347128371
20
-1.56016693949653
30
0
41
1
10
5.39254987345566
20
-1.56659628759218
30
0
41
1
10
5.53068846835964
20
-1.58744808617681
30
0
41
1
10
5.600985467805
20
-1.60187993015589
30
0
41
1
10
5.6724164005349
20
-1.620816236058
30
0
0
SPLINE
5
B4
100
AcDbEntity
8
1
62
256
6
ByLayer
370
13
48
1
60
0
100
AcDbSpline
70
4
71
3
72
30
73
26
40
0
40
0
40
0
40
0
40
0.0887229972795058
40
0.0887229972795058
40
0.133084495919259
40
0.133084495919259
40
0.177445994559012
40
0.177445994559012
40
0.354891989118025
40
0.354891989118025
40
0.443614986397533
40
0.443614986397533
40
0.487976485037287
40
0.487976485037287
40
0.532337983677041
40
0.532337983677041
40
0.709783978236058
40
0.709783978236058
40
0.798506975515566
40
0.798506975515566
40
0.84286847415532
40
0.84286847415532
40
0.887229972795074
40
0.887229972795074
40
1
40
1
40
1
40
1
41
1
10
53.7511025762821
20
-2.96597462798383
30
0
41
1
10
53.2481445712829
20
-2.8857698857521
30
0
41
1
10
52.7462163255863
20
-2.7824982743048
30
0
41
1
10
51.9922573016415
20
-2.59584093808257
30
0
41
1
10
51.7404496095137
20
-2.52825881778591
30
0
41
1
10
51.2372318774611
20
-2.38352821439361
30
0
41
1
10
50.9865264198776
20
-2.30655170059867
30
0
41
1
10
49.7361688092008
20
-1.90114702049823
30
0
41
1
10
48.7461198352251
20
-1.51085663815425
30
0
41
1
10
47.2531513438249
20
-0.872395673576449
30
0
41
1
10
46.754251253156
20
-0.650578212489222
30
0
41
1
10
46.0008384537735
20
-0.31103127273775
30
0
41
1
10
45.7484228750606
20
-0.1965246095221
30
0
41
1
10
45.2461646200671
20
0.0315928248083708
30
0
41
1
10
44.9958293414536
20
0.145410339736571
30
0
41
1
10
43.7468998732084
20
0.710522572892899
30
0
41
1
10
42.756633008648
20
1.14960717834555
30
0
41
1
10
41.2610596114332
20
1.73887905016073
30
0
41
1
10
40.760882825179
20
1.9238648218066
30
0
41
1
10
40.0050982860657
20
2.17782775931732
30
0
41
1
10
39.7533244289788
20
2.25830635853097
30
0
41
1
10
39.2517198476762
20
2.40931830693282
30
0
41
1
10
39.0015510955931
20
2.47990996232352
30
0
41
1
10
38.1168371908264
20
2.71199330426165
30
0
41
1
10
37.4845058204983
20
2.84551923589302
30
0
41
1
10
36.8507027440464
20
2.94218049386745
30
0
0
SPLINE
5
B5
100
AcDbEntity
8
1
62
256
6
ByLayer
370
18
48
1
60
0
100
AcDbSpline
70
4
71
3
72
10
73
6
40
0
40
0
40
0
40
0
40
0.684889923074294
40
0.684889923074294
40
1
40
1
40
1
40
1
41
1
10
12.6598102490929
20
-3.08560314661912
30
0
41
1
10
12.3396618397119
20
-3.08425071435022
30
0
41
1
10
12.0188095549568
20
-3.07300931677511
30
0
41
1
10
11.548588949663
20
-3.0419516739311
30
0
41
1
10
11.4000132920338
20
-3.03004240186021
30
0
41
1
10
11.2514971810969
20
-3.01606074298962
30
0
0
SPLINE
5
B6
100
AcDbEntity
8
1
62
256
6
ByLayer
370
13
48
1
60
0
100
AcDbSpline
70
4
71
3
72
18
73
14
40
0
40
0
40
0
40
0
40
0.0555823532198122
40
0.0555823532198122
40
0.190499159902698
40
0.190499159902698
40
0.460332773268465
40
0.460332773268465
40
0.730166386634233
40
0.730166386634233
40
0.865083193317116
40
0.865083193317116
40
1
40
1
40
1
40
1
41
1
10
11.2514961859849
20
-3.01606064930741
30
0
41
1
10
11.147444377487
20
-3.00626495880664
30
0
41
1
10
11.043421798216
20
-2.99545202948713
30
0
41
1
10
10.6875489331478
20
-2.95496541616058
30
0
41
1
10
10.4362207912559
20
-2.92041643747092
30
0
41
1
10
9.68371655093543
20
-2.80015547314193
30
0
41
1
10
9.18399692731211
20
-2.69768120714161
30
0
41
1
10
8.1847124121897
20
-2.45254309024315
30
0
41
1
10
7.68515986280374
20
-2.30980349856898
30
0
41
1
10
6.93305605503139
20
-2.06972940429941
30
0
41
1
10
6.68189345779655
20
-1.98541292153939
30
0
41
1
10
6.17816419566736
20
-1.80884872489062
30
0
41
1
10
5.92524403295158
20
-1.71645222853528
30
0
41
1
10
5.6724164005349
20
-1.620816236058
30
0
0
SPLINE
5
B7
100
AcDbEntity
8
1
62
256
6
ByLayer
370
18
48
1
60
0
100
AcDbSpline
70
4
71
3
72
18
73
14
40
0
40
0
40
0
40
0
40
0.25
40
0.25
40
0.375000000000001
40
0.375000000000001
40
0.500000000000001
40
0.500000000000001
40
0.750000000000001
40
0.750000000000001
40
0.875
40
0.875
40
1
40
1
40
1
40
1
41
1
10
53.5219620887099
20
0.488284769174271
30
0
41
1
10
53.4777332384994
20
0.297652304608221
30
0
41
1
10
53.4421267279379
20
0.105365919141434
30
0
41
1
10
53.4018755793071
20
-0.185587720150465
30
0
41
1
10
53.3906648035459
20
-0.282995469849396
30
0
41
1
10
53.372871241789
20
-0.478698701500349
30
0
41
1
10
53.3663856366269
20
-0.576170288444843
30
0
41
1
10
53.354306929633
20
-0.863473619485148
30
0
41
1
10
53.3558721061144
20
-1.04988762853742
30
0
41
1
10
53.372818676668
20
-1.32173455409432
30
0
41
1
10
53.3809645909988
20
-1.41125498575803
30
0
41
1
10
53.401908014948
20
-1.58443026475814
30
0
41
1
10
53.414716457557
20
-1.66847911929571
30
0
41
1
10
53.4298328335874
20
-1.75002047614476
30
0
0
SPLINE
5
B8
100
AcDbEntity
8
1
62
256
6
ByLayer
370
18
48
1
60
0
100
AcDbSpline
70
4
71
3
72
20
73
16
40
0
40
0
40
0
40
0
40
0.173600047111261
40
0.173600047111261
40
0.347200094222523
40
0.347200094222523
40
0.520800141333784
40
0.520800141333784
40
0.694400188445045
40
0.694400188445045
40
0.868000235556307
40
0.868000235556307
40
0.954800259111939
40
0.954800259111939
40
1
40
1
40
1
40
1
41
1
10
5.26542096524886
20
2.55839293648049
30
0
41
1
10
5.14996702438989
20
2.60970396507958
30
0
41
1
10
5.0360812808824
20
2.6602785459354
30
0
41
1
10
4.81519645918664
20
2.75809115611637
30
0
41
1
10
4.70848014989988
20
2.80520609921908
30
0
41
1
10
4.50448277041508
20
2.89467920240668
30
0
41
1
10
4.40660598052648
20
2.93729498935514
30
0
41
1
10
4.22758781365187
20
3.01411659430036
30
0
41
1
10
4.14616470645848
20
3.04845636990066
30
0
41
1
10
4.00486457079569
20
3.105971068298
30
0
41
1
10
3.94473231517634
20
3.12919449402736
30
0
41
1
10
3.88130794068962
20
3.15058027160296
30
0
41
1
10
3.86440349278402
20
3.15556291606671
30
0
41
1
10
3.84586466213702
20
3.15948432112168
30
0
41
1
10
3.84083413973909
20
3.16015779229451
30
0
41
1
10
3.83716402739427
20
3.16015511898522
30
0
0
SPLINE
5
B9
100
AcDbEntity
8
1
62
256
6
ByLayer
370
18
48
1
60
0
100
AcDbSpline
70
4
71
3
72
8
73
4
40
0
40
0
40
0
40
0
40
1
40
1
40
1
40
1
41
1
10
54.4943992045737
20
1.48811252101871
30
0
41
1
10
54.5267255295479
20
1.395439610409
30
0
41
1
10
54.5604218604301
20
1.30508346679065
30
0
41
1
10
54.5955265896981
20
1.21682618156834
30
0
0
SPLINE
5
BA
100
AcDbEntity
8
1
62
256
6
ByLayer
370
18
48
1
60
0
100
AcDbSpline
70
4
71
3
72
24
73
20
40
0
40
0
40
0
40
0
40
0.143092221634257
40
0.143092221634257
40
0.286184443268514
40
0.286184443268514
40
0.429276664902771
40
0.429276664902771
40
0.500822775719902
40
0.500822775719902
40
0.572368886537032
40
0.572368886537032
40
0.715461108171293
40
0.715461108171293
40
0.787007218988423
40
0.787007218988423
40
0.858553329805553
40
0.858553329805553
40
1
40
1
40
1
40
1
41
1
10
53.52196208871
20
0.488284769174271
30
0
41
1
10
53.0703035535679
20
0.691703409687307
30
0
41
1
10
52.6205273186951
20
0.890904629089249
30
0
41
1
10
51.7220098905627
20
1.27490525503626
30
0
41
1
10
51.2735548251028
20
1.46042643575134
30
0
41
1
10
50.3753717846213
20
1.80922443748744
30
0
41
1
10
49.9253746347881
20
1.97364532280557
30
0
41
1
10
49.2471137121751
20
2.20039802950109
30
0
41
1
10
49.020492786635
20
2.27284294625903
30
0
41
1
10
48.5657837285182
20
2.41085600171627
30
0
41
1
10
48.3383946315155
20
2.47627910290765
30
0
41
1
10
47.657393226496
20
2.65886870188498
30
0
41
1
10
47.2043784333332
20
2.76454843655162
30
0
41
1
10
46.5240354795789
20
2.89338189370383
30
0
41
1
10
46.2969829171295
20
2.93116430119324
30
0
41
1
10
45.8422953710161
20
2.99825831543652
30
0
41
1
10
45.6147014574308
20
3.02754489714556
30
0
41
1
10
44.938476543195
20
3.1006414801146
30
0
41
1
10
44.4904144360698
20
3.13095291118782
30
0
41
1
10
44.0418268161816
20
3.13974914140061
30
0
0
SPLINE
5
BB
100
AcDbEntity
8
1
62
256
6
ByLayer
370
18
48
1
60
0
100
AcDbSpline
70
4
71
3
72
54
73
50
40
0
40
0
40
0
40
0
40
0.0618024859825893
40
0.0618024859825893
40
0.100894049066648
40
0.100894049066648
40
0.139985612150707
40
0.139985612150707
40
0.179077175234766
40
0.179077175234766
40
0.218168738318824
40
0.218168738318824
40
0.257260301402883
40
0.257260301402883
40
0.296351864486942
40
0.296351864486942
40
0.335443427571
40
0.335443427571
40
0.374534990655059
40
0.374534990655059
40
0.413626553739118
40
0.413626553739118
40
0.452718116823177
40
0.452718116823177
40
0.491809679907235
40
0.491809679907235
40
0.530901242991294
40
0.530901242991294
40
0.569992806075353
40
0.569992806075353
40
0.609084369159412
40
0.609084369159412
40
0.64817593224347
40
0.64817593224347
40
0.687267495327529
40
0.687267495327529
40
0.726359058411588
40
0.726359058411588
40
0.765450621495647
40
0.765450621495647
40
0.804542184579705
40
0.804542184579705
40
0.843633747663764
40
0.843633747663764
40
0.921816873831881
40
0.921816873831881
40
0.960908436915941
40
0.960908436915941
40
1
40
1
40
1
40
1
41
1
10
27.4428137338107
20
-2.19376544662697
30
0
41
1
10
27.0857646305855
20
-2.30724633390722
30
0
41
1
10
26.7276330729603
20
-2.41160033998298
30
0
41
1
10
26.1404503326337
20
-2.56782272475911
30
0
41
1
10
25.9120497024466
20
-2.62445943961126
30
0
41
1
10
25.4564947574263
20
-2.72756497194169
30
0
41
1
10
25.2290655045254
20
-2.77457333803542
30
0
41
1
10
24.7741298588635
20
-2.86042055227793
30
0
41
1
10
24.5468093042116
20
-2.89946041809037
30
0
41
1
10
24.0920336035635
20
-2.96589959110608
30
0
41
1
10
23.864489444569
20
-2.99362964271452
30
0
41
1
10
23.4090026900935
20
-3.04150924993999
30
0
41
1
10
23.1806488810866
20
-3.06125518985402
30
0
41
1
10
22.7248969579546
20
-3.08981193831514
30
0
41
1
10
22.4974558995916
20
-3.09733531548966
30
0
41
1
10
22.0425792240468
20
-3.10450104263043
30
0
41
1
10
21.8152621280753
20
-3.10378183358185
30
0
41
1
10
21.3603984079919
20
-3.09249563491829
30
0
41
1
10
21.1330189285094
20
-3.08082638324089
30
0
41
1
10
20.6775594881368
20
-3.04728589161252
30
0
41
1
10
20.449263582669
20
-3.02629758669394
30
0
41
1
10
19.993702342433
20
-2.974910959363
30
0
41
1
10
19.7665574860549
20
-2.94448605801009
30
0
41
1
10
19.3136975267301
20
-2.87247724106973
30
0
41
1
10
19.0876459805684
20
-2.83233077502413
30
0
41
1
10
18.6361936618079
20
-2.74407214384692
30
0
41
1
10
18.4107902587517
20
-2.69593154312369
30
0
41
1
10
17.9603861354088
20
-2.58969292517486
30
0
41
1
10
17.7354167440695
20
-2.53196220098815
30
0
41
1
10
17.2851871249902
20
-2.41045279016495
30
0
41
1
10
17.0601346441705
20
-2.34602605754444
30
0
41
1
10
16.6095771523891
20
-2.20928342068933
30
0
41
1
10
16.3840793020039
20
-2.13655289454482
30
0
41
1
10
15.9324786041874
20
-1.98523565258694
30
0
41
1
10
15.7062461130104
20
-1.90660581873919
30
0
41
1
10
15.2527907847997
20
-1.74228843306341
30
0
41
1
10
15.0254445928436
20
-1.65695334858495
30
0
41
1
10
14.5694082815203
20
-1.48112582973508
30
0
41
1
10
14.3413564822865
20
-1.39082420238219
30
0
41
1
10
13.8867189426222
20
-1.2065584513858
30
0
41
1
10
13.6599728758536
20
-1.11221237842162
30
0
41
1
10
13.2068013027443
20
-0.921105186805761
30
0
41
1
10
12.9805141229599
20
-0.824070178981628
30
0
41
1
10
12.301980901183
20
-0.529539808802753
30
0
41
1
10
11.8499540242792
20
-0.328739846294241
30
0
41
1
10
11.1704418491086
20
-0.0259689467802389
30
0
41
1
10
10.9436301779222
20
0.0751491165061964
30
0
41
1
10
10.489123425594
20
0.277224031030869
30
0
41
1
10
10.2615388343687
20
0.378399384587112
30
0
41
1
10
10.033154973844
20
0.478543946160755
30
0
0
SPLINE
5
BC
100
AcDbEntity
8
1
62
256
6
ByLayer
370
18
48
1
60
0
100
AcDbSpline
70
4
71
1
72
4
73
2
40
0
40
0
40
1
40
1
41
1
10
53.7952691479407
20
-3.09290841434134
30
0
41
1
10
54.4311789377249
20
-0.946112942142065
30
0
0
SPLINE
5
BD
100
AcDbEntity
8
1
62
256
6
ByLayer
370
18
48
1
60
0
100
AcDbSpline
70
4
71
3
72
8
73
4
40
0
40
0
40
0
40
0
40
1
40
1
40
1
40
1
41
1
10
54.9573711984587
20
0.184070154208058
30
0
41
1
10
54.8360669942717
20
0.528082787275196
30
0
41
1
10
54.7154511646886
20
0.872334463035571
30
0
41
1
10
54.5955265896924
20
1.21682618158266
30
0
0
SPLINE
5
BE
100
AcDbEntity
8
1
62
256
6
ByLayer
370
18
48
1
60
0
100
AcDbSpline
70
4
71
3
72
14
73
10
40
0
40
0
40
0
40
0
40
0.0053468128929338
40
0.0053468128929338
40
0.336897875261956
40
0.336897875261956
40
0.668448937630978
40
0.668448937630978
40
1
40
1
40
1
40
1
41
1
10
10.7852049006996
20
0.161020513704045
30
0
41
1
10
10.7867236688037
20
0.161775783703263
30
0
41
1
10
10.7882452553804
20
0.162542630270053
30
0
41
1
10
10.88429443519
20
0.21159027311424
30
0
41
1
10
10.9893893223798
20
0.304299266577516
30
0
41
1
10
11.199726296154
20
0.560077954534393
30
0
41
1
10
11.3048211833437
20
0.722968648316083
30
0
41
1
10
11.4938708030886
20
1.08621492955646
30
0
41
1
10
11.5776932337041
20
1.28631630763024
30
0
41
1
10
11.6424414194988
20
1.48491055857096
30
0
0
SPLINE
5
BF
100
AcDbEntity
8
1
62
256
6
ByLayer
370
18
48
1
60
0
100
AcDbSpline
70
4
71
3
72
8
73
4
40
0
40
0
40
0
40
0
40
1
40
1
40
1
40
1
41
1
10
54.4373042951772
20
-0.906070886770152
30
0
41
1
10
54.4387791087385
20
-0.907546210171745
30
0
41
1
10
54.4402540013628
20
-0.909021454541801
30
0
41
1
10
54.4417289730372
20
-0.910496619867814
30
0
0
SPLINE
5
C0
100
AcDbEntity
8
1
62
256
6
ByLayer
370
13
48
1
60
0
100
AcDbSpline
70
4
71
3
72
28
73
24
40
0
40
0
40
0
40
0
40
0.125
40
0.125
40
0.1875
40
0.1875
40
0.25
40
0.25
40
0.375
40
0.375
40
0.4375
40
0.4375
40
0.5
40
0.5
40
0.625
40
0.625
40
0.6875
40
0.6875
40
0.75
40
0.75
40
0.875
40
0.875
40
1
40
1
40
1
40
1
41
1
10
5.6724164005349
20
-1.620816236058
30
0
41
1
10
5.67243785675555
20
-1.46340274541336
30
0
41
1
10
5.67245323660603
20
-1.29899388274808
30
0
41
1
10
5.6724716111172
20
-1.04209687878316
30
0
41
1
10
5.67247695876182
20
-0.954419114045606
30
0
41
1
10
5.67248661793312
20
-0.77705230840445
30
0
41
1
10
5.67249091322282
20
-0.687804094211572
30
0
41
1
10
5.67250312265219
20
-0.418413595059917
30
0
41
1
10
5.67251040038707
20
-0.236638347885219
30
0
41
1
10
5.67252280978798
20
0.039344301609276
30
0
41
1
10
5.67252720883829
20
0.13233626642176
30
0
41
1
10
5.67253665278955
20
0.316194482917552
30
0
41
1
10
5.67254170471671
20
0.40728335478903
30
0
41
1
10
5.6725581123994
20
0.678087087648862
30
0
41
1
10
5.67257077008321
20
0.855358778906066
30
0
41
1
10
5.67259244310753
20
1.11624157192739
30
0
41
1
10
5.67260010830427
20
1.20236598314168
30
0
41
1
10
5.67261587412574
20
1.36997734873285
30
0
41
1
10
5.67262400494482
20
1.45184402047781
30
0
41
1
10
5.67264868937525
20
1.69164385946613
30
0
41
1
10
5.67266565391918
20
1.8443782213549
30
0
41
1
10
5.67269574334114
20
2.12450216464953
30
0
41
1
10
5.67270901149473
20
2.25322594180724
30
0
41
1
10
5.6727180516464
20
2.37048891934583
30
0
0
SPLINE
5
C1
100
AcDbEntity
8
1
62
256
6
ByLayer
370
18
48
1
60
0
100
AcDbSpline
70
4
71
3
72
10
73
6
40
0
40
0
40
0
40
0
40
0.5
40
0.5
40
1
40
1
40
1
40
1
41
1
10
53.7952691479427
20
-3.09290841434205
30
0
41
1
10
53.793765750033
20
-3.06267845699534
30
0
41
1
10
53.7882823970487
20
-3.03696179760408
30
0
41
1
10
53.7728332859789
20
-2.9953599324908
30
0
41
1
10
53.7627089308628
20
-2.97878492676108
30
0
41
1
10
53.7511025762821
20
-2.96597462798383
30
0
0
SPLINE
5
C2
100
AcDbEntity
8
1
62
256
6
ByLayer
370
18
48
1
60
0
100
AcDbSpline
70
4
71
3
72
8
73
4
40
0
40
0
40
0
40
0
40
1
40
1
40
1
40
1
41
1
10
54.9998176969245
20
0.0647582163864797
30
0
41
1
10
55.0000607676853
20
0.0215860721285708
30
0
41
1
10
55.0000607676853
20
-0.0215860721293097
30
0
41
1
10
54.9998176969245
20
-0.0647582163872187
30
0
0
SPLINE
5
C3
100
AcDbEntity
8
1
62
256
6
ByLayer
370
18
48
1
60
0
100
AcDbSpline
70
4
71
3
72
42
73
38
40
0
40
0
40
0
40
0
40
0.0623752470969124
40
0.0623752470969124
40
0.124750494193825
40
0.124750494193825
40
0.24950098838765
40
0.24950098838765
40
0.280688611936106
40
0.280688611936106
40
0.311876235484562
40
0.311876235484562
40
0.374251482581476
40
0.374251482581476
40
0.43662672967839
40
0.43662672967839
40
0.499001976775303
40
0.499001976775303
40
0.53018960032376
40
0.53018960032376
40
0.561377223872216
40
0.561377223872216
40
0.623752470969129
40
0.623752470969129
40
0.686127718066042
40
0.686127718066042
40
0.748502965162954
40
0.748502965162954
40
0.810878212259866
40
0.810878212259866
40
0.873253459356778
40
0.873253459356778
40
0.93562870645369
40
0.93562870645369
40
0.998003953550602
40
0.998003953550602
40
1
40
1
40
1
40
1
41
1
10
12.185417454106
20
3.15031504130778
30
0
41
1
10
12.6239574111429
20
3.12590120879
30
0
41
1
10
13.0599987213667
20
3.08273519336757
30
0
41
1
10
13.9287667401657
20
2.96099902573636
30
0
41
1
10
14.3615507297842
20
2.8823752207131
30
0
41
1
10
15.6596932819089
20
2.59796350435471
30
0
41
1
10
16.5239925462442
20
2.34262263355871
30
0
41
1
10
17.6161484620852
20
1.95713798666748
30
0
41
1
10
17.8357166983613
20
1.87672652294563
30
0
41
1
10
18.2731523564049
20
1.71081362176068
30
0
41
1
10
18.4912421063526
20
1.62543720445532
30
0
41
1
10
19.144042073712
20
1.36293347265894
30
0
41
1
10
19.5772291259983
20
1.17930953631452
30
0
41
1
10
20.4426665942167
20
0.801401511972387
30
0
41
1
10
20.8746198994318
20
0.606486921445992
30
0
41
1
10
21.7399465878098
20
0.211109665907287
30
0
41
1
10
22.1733660636378
20
0.0107627230963203
30
0
41
1
10
22.8262672085373
20
-0.290168097869184
30
0
41
1
10
23.0444735726655
20
-0.390288219689637
30
0
41
1
10
23.4821076298482
20
-0.590005986259428
30
0
41
1
10
23.701264118671
20
-0.689250386855065
30
0
41
1
10
24.3556540572056
20
-0.982193746227011
30
0
41
1
10
24.7894457091325
20
-1.17204565105072
30
0
41
1
10
25.6552352722821
20
-1.53459472100838
30
0
41
1
10
26.0869433437175
20
-1.70788984668923
30
0
41
1
10
26.9508989223401
20
-2.03292398868905
30
0
41
1
10
27.3832089753113
20
-2.18457991760664
30
0
41
1
10
28.2506478095808
20
-2.46218476431358
30
0
41
1
10
28.6864002003698
20
-2.58779745058916
30
0
41
1
10
29.5621581261648
20
-2.80801375106674
30
0
41
1
10
29.9970772565142
20
-2.90136925261118
30
0
41
1
10
30.8642087272572
20
-3.05235071606401
30
0
41
1
10
31.2961354864471
20
-3.11023802791041
30
0
41
1
10
32.1595829280195
20
-3.18921350207484
30
0
41
1
10
32.591189861047
20
-3.21031483901055
30
0
41
1
10
33.0375957252101
20
-3.21268260089968
30
0
41
1
10
33.0514392762489
20
-3.21273674892603
30
0
41
1
10
33.0652841150225
20
-3.21277161702849
30
0
0
SPLINE
5
C4
100
AcDbEntity
8
1
62
256
6
ByLayer
370
18
48
1
60
0
100
AcDbSpline
70
4
71
3
72
16
73
12
40
0
40
0
40
0
40
0
40
0.162943282142574
40
0.162943282142574
40
0.441962188095047
40
0.441962188095047
40
0.581471641071284
40
0.581471641071284
40
0.72098109404752
40
0.72098109404752
40
1
40
1
40
1
40
1
41
1
10
49.1698473902048
20
2.21664785152902
30
0
41
1
10
49.4216114221729
20
2.3029379298813
30
0
41
1
10
49.6735145765593
20
2.38487798595781
30
0
41
1
10
50.3577407522319
20
2.59435134064529
30
0
41
1
10
50.7907626352933
20
2.71273380719086
30
0
41
1
10
51.4442045650885
20
2.86600601205063
30
0
41
1
10
51.6628999489742
20
2.91325307550747
30
0
41
1
10
52.0994281641214
20
2.99851745377086
30
0
41
1
10
52.3172595083558
20
3.03675902781157
30
0
41
1
10
52.9702827481695
20
3.13769942536021
30
0
41
1
10
53.4049388017994
20
3.18669908632333
30
0
41
1
10
53.8401048248753
20
3.21672496804797
30
0
0
SPLINE
5
C5
100
AcDbEntity
8
1
62
256
6
ByLayer
370
18
48
1
60
0
100
AcDbSpline
70
4
71
3
72
18
73
14
40
0
40
0
40
0
40
0
40
0.0129721013293328
40
0.0129721013293328
40
0.153976086853739
40
0.153976086853739
40
0.435984057902524
40
0.435984057902524
40
0.576988043426902
40
0.576988043426902
40
0.71799202895128
40
0.71799202895128
40
1
40
1
40
1
40
1
41
1
10
53.5398911554345
20
0.468809345701516
30
0
41
1
10
53.5420654360259
20
0.470712928516917
30
0
41
1
10
53.5442494696294
20
0.472628936116138
30
0
41
1
10
53.570290428507
20
0.495518261159304
30
0
41
1
10
53.5953906679311
20
0.518025455133937
30
0
41
1
10
53.6729190633916
20
0.587949550981762
30
0
41
1
10
53.7279594647445
20
0.638264602978495
30
0
41
1
10
53.8183712234499
20
0.716244291500374
30
0
41
1
10
53.8500396451664
20
0.742794459541443
30
0
41
1
10
53.9155155935414
20
0.794734362806935
30
0
41
1
10
53.94939488212
20
0.820202561399555
30
0
41
1
10
54.0557327902468
20
0.893267248501587
30
0
41
1
10
54.1337704129198
20
0.937813319391466
30
0
41
1
10
54.2177796249929
20
0.969037064021137
30
0
0
SPLINE
5
C6
100
AcDbEntity
8
1
62
256
6
ByLayer
370
18
48
1
60
0
100
AcDbSpline
70
4
71
3
72
82
73
78
40
0
40
0
40
0
40
0
40
0.0044754133275426
40
0.0044754133275426
40
0.0296155546682093
40
0.0296155546682093
40
0.0547556960088758
40
0.0547556960088758
40
0.0798958373495424
40
0.0798958373495424
40
0.105035978690209
40
0.105035978690209
40
0.130176120030876
40
0.130176120030876
40
0.155316261371542
40
0.155316261371542
40
0.180456402712209
40
0.180456402712209
40
0.205596544052875
40
0.205596544052875
40
0.230736685393542
40
0.230736685393542
40
0.255876826734208
40
0.255876826734208
40
0.281016968074875
40
0.281016968074875
40
0.306157109415541
40
0.306157109415541
40
0.331297250756208
40
0.331297250756208
40
0.356437392096874
40
0.356437392096874
40
0.381577533437541
40
0.381577533437541
40
0.406717674778208
40
0.406717674778208
40
0.45699795745954
40
0.45699795745954
40
0.482138098800206
40
0.482138098800206
40
0.507278240140872
40
0.507278240140872
40
0.532418381481538
40
0.532418381481538
40
0.557558522822204
40
0.557558522822204
40
0.582698664162869
40
0.582698664162869
40
0.607838805503535
40
0.607838805503535
40
0.632978946844201
40
0.632978946844201
40
0.658119088184867
40
0.658119088184867
40
0.683259229525533
40
0.683259229525533
40
0.708399370866199
40
0.708399370866199
40
0.758679653547531
40
0.758679653547531
40
0.783819794888197
40
0.783819794888197
40
0.808959936228863
40
0.808959936228863
40
0.834100077569529
40
0.834100077569529
40
0.859240218910195
40
0.859240218910195
40
0.884380360250861
40
0.884380360250861
40
0.909520501591527
40
0.909520501591527
40
0.934660642932193
40
0.934660642932193
40
0.959800784272859
40
0.959800784272859
40
1
40
1
40
1
40
1
41
1
10
22.1465767420015
20
3.10243657769658
30
0
41
1
10
22.1866958940465
20
3.10208279776538
30
0
41
1
10
22.2268202475437
20
3.10159157092033
30
0
41
1
10
22.4923812309609
20
3.0974534154154
30
0
41
1
10
22.7178856386071
20
3.09009651997044
30
0
41
1
10
23.1700004497542
20
3.06207122087616
30
0
41
1
10
23.3965900973508
20
3.04263887447644
30
0
41
1
10
23.8505691331347
20
2.99525820395641
30
0
41
1
10
24.0781548387712
20
2.96770040976091
30
0
41
1
10
24.5343547799691
20
2.90149395327495
30
0
41
1
10
24.7620331308551
20
2.86255554579532
30
0
41
1
10
25.2171592795607
20
2.77696015355761
30
0
41
1
10
25.4444306862948
20
2.73011782641936
30
0
41
1
10
25.8990593279115
20
2.62756761581139
30
0
41
1
10
26.1263205303786
20
2.57140525476277
30
0
41
1
10
26.5812712797563
20
2.45070660172118
30
0
41
1
10
26.8089058212022
20
2.38666497003342
30
0
41
1
10
27.2646919909854
20
2.2509616892375
30
0
41
1
10
27.4925139396289
20
2.17920726997184
30
0
41
1
10
27.9461353168765
20
2.02875366692464
30
0
41
1
10
28.1724131610536
20
1.95044854338005
30
0
41
1
10
28.6241706826698
20
1.78891416765768
30
0
41
1
10
28.8495286796343
20
1.70500692797239
30
0
41
1
10
29.2999025235514
20
1.53199685077203
30
0
41
1
10
29.5247718775329
20
1.44276403855349
30
0
41
1
10
29.9744691109301
20
1.2608209091608
30
0
41
1
10
30.1991864220006
20
1.16777441313067
30
0
41
1
10
30.648878521725
20
0.977724136007168
30
0
41
1
10
30.8739150018147
20
0.88084219343159
30
0
41
1
10
31.324353773073
20
0.684308755581128
30
0
41
1
10
31.5498333161974
20
0.584962212583946
30
0
41
1
10
32.0016812783801
20
0.383595188689242
30
0
41
1
10
32.2281628042434
20
0.281963577980719
30
0
41
1
10
32.6824243632557
20
0.0776109036603145
30
0
41
1
10
32.9103828166581
20
-0.0254879209821581
30
0
41
1
10
33.5930521098616
20
-0.333122203854003
30
0
41
1
10
34.0467898322544
20
-0.536771501731948
30
0
41
1
10
34.7276112136663
20
-0.836396188652827
30
0
41
1
10
34.9546769537101
20
-0.934870162223007
30
0
41
1
10
35.4091762976686
20
-1.12889945525507
30
0
41
1
10
35.6369814844454
20
-1.22418461480996
30
0
41
1
10
36.0920875946179
20
-1.41153500291438
30
0
41
1
10
36.3192742439342
20
-1.50295698372201
30
0
41
1
10
36.7734619469918
20
-1.6797086142802
30
0
41
1
10
37.0003357741804
20
-1.76538098319696
30
0
41
1
10
37.4542539349883
20
-1.9314776163549
30
0
41
1
10
37.6811335957458
20
-2.01221496804368
30
0
41
1
10
38.1354765117442
20
-2.16580006855946
30
0
41
1
10
38.3631812887131
20
-2.23899412907645
30
0
41
1
10
38.8181175976869
20
-2.37839941657674
30
0
41
1
10
39.0450302851854
20
-2.44491328847096
30
0
41
1
10
39.4974595023528
20
-2.56884267107219
30
0
41
1
10
39.7231549279727
20
-2.62609460146587
30
0
41
1
10
40.1738461318652
20
-2.7322192685285
30
0
41
1
10
40.3988019384412
20
-2.78156581770034
30
0
41
1
10
40.8484587270939
20
-2.87135275735611
30
0
41
1
10
41.0730046744753
20
-2.91114048987316
30
0
41
1
10
41.7469058012986
20
-3.01608142893295
30
0
41
1
10
42.196086699385
20
-3.06857637270488
30
0
41
1
10
42.8719464890964
20
-3.11669151099943
30
0
41
1
10
43.0976628636096
20
-3.12791863677452
30
0
41
1
10
43.5497260426559
20
-3.14199206335664
30
0
41
1
10
43.7762631710502
20
-3.14428009101866
30
0
41
1
10
44.2311157074891
20
-3.1366095405233
30
0
41
1
10
44.4587481689022
20
-3.12709966466602
30
0
41
1
10
44.9131441904622
20
-3.09813172436355
30
0
41
1
10
45.1400417062849
20
-3.07855383050321
30
0
41
1
10
45.5938729030443
20
-3.0300698213679
30
0
41
1
10
45.8207326506129
20
-3.00114201085924
30
0
41
1
10
46.2745982207371
20
-2.93473795838526
30
0
41
1
10
46.5016514629115
20
-2.89727206586656
30
0
41
1
10
46.9562782864042
20
-2.81184668642672
30
0
41
1
10
47.1840117168491
20
-2.76393850019196
30
0
41
1
10
47.6382663113869
20
-2.65941345182409
30
0
41
1
10
47.8651443573132
20
-2.60292387892034
30
0
41
1
10
48.454737161367
20
-2.44544763404292
30
0
41
1
10
48.8172565984755
20
-2.337649915968
30
0
41
1
10
49.1803062133001
20
-2.22088283468858
30
0
0
SPLINE
5
C7
100
AcDbEntity
8
1
62
256
6
ByLayer
370
18
48
1
60
0
100
AcDbSpline
70
4
71
3
72
18
73
14
40
0
40
0
40
0
40
0
40
0.250000000000003
40
0.250000000000003
40
0.375000000000003
40
0.375000000000003
40
0.500000000000002
40
0.500000000000002
40
0.750000000000001
40
0.750000000000001
40
0.875000000000001
40
0.875000000000001
40
1
40
1
40
1
40
1
41
1
10
53.7511025762822
20
-2.96597462798383
30
0
41
1
10
53.7002601059162
20
-2.90985819353864
30
0
41
1
10
53.6549074856653
20
-2.84218167565152
30
0
41
1
10
53.5952893057019
20
-2.72295621919537
30
0
41
1
10
53.5768243922115
20
-2.68024994100062
30
0
41
1
10
53.5428197846093
20
-2.5886776936552
30
0
41
1
10
53.5272202782576
20
-2.53957936644008
30
0
41
1
10
53.4855135145771
20
-2.38421385495664
30
0
41
1
10
53.4646458344372
20
-2.27094585779568
30
0
41
1
10
53.4436685516139
20
-2.0866205460915
30
0
41
1
10
53.4384048270002
20
-2.02276371777603
30
0
41
1
10
53.431421164957
20
-1.89009926813691
30
0
41
1
10
53.429703368919
20
-1.821058787478
30
0
41
1
10
53.4298328335903
20
-1.75002047614478
30
0
0
SPLINE
5
C8
100
AcDbEntity
8
1
62
256
6
ByLayer
370
18
48
1
60
0
100
AcDbSpline
70
4
71
3
72
8
73
4
40
0
40
0
40
0
40
0
40
1
40
1
40
1
40
1
41
1
10
54.9998176969245
20
0.0647582163864797
30
0
41
1
10
54.9855727250427
20
0.104444466550234
30
0
41
1
10
54.9714247317249
20
0.144215039414576
30
0
41
1
10
54.957371198454
20
0.184070154221331
30
0
0
SPLINE
5
C9
100
AcDbEntity
8
1
62
256
6
ByLayer
370
18
48
1
60
0
100
AcDbSpline
70
4
71
3
72
18
73
14
40
0
40
0
40
0
40
0
40
0.25
40
0.25
40
0.5
40
0.5
40
0.625
40
0.625
40
0.75
40
0.75
40
0.875
40
0.875
40
1
40
1
40
1
40
1
41
1
10
10.0331549738441
20
0.47854394616067
30
0
41
1
10
9.65610716944934
20
0.637527781800429
30
0
41
1
10
9.2816734278961
20
0.7966171869368
30
0
41
1
10
8.53855972250111
20
1.11477427170627
30
0
41
1
10
8.16964898180663
20
1.27404396342368
30
0
41
1
10
7.62168125405898
20
1.51215835298439
30
0
41
1
10
7.439872153522
20
1.59144532358306
30
0
41
1
10
7.07795137369209
20
1.74987718464527
30
0
41
1
10
6.89790395851455
20
1.82896594786379
30
0
41
1
10
6.5400032300692
20
1.98660538708199
30
0
41
1
10
6.36211051109476
20
2.06517961403614
30
0
41
1
10
6.01281905589363
20
2.219733617207
30
0
41
1
10
5.84098142394748
20
2.2959070365975
30
0
41
1
10
5.67271805164643
20
2.3704889193605
30
0
0
SPLINE
5
CA
100
AcDbEntity
8
1
62
256
6
ByLayer
370
18
48
1
60
0
100
AcDbSpline
70
4
71
3
72
16
73
12
40
0
40
0
40
0
40
0
40
0.125
40
0.125
40
0.249999999999999
40
0.249999999999999
40
0.499999999999999
40
0.499999999999999
40
0.75
40
0.75
40
1
40
1
40
1
40
1
41
1
10
5.25850758554427
20
-1.55784063726298
30
0
41
1
10
5.25845660383226
20
-1.57522933057265
30
0
41
1
10
5.26298423880417
20
-1.59186331410189
30
0
41
1
10
5.27761742588058
20
-1.62361518501544
30
0
41
1
10
5.2874469004791
20
-1.6381490677507
30
0
41
1
10
5.32158879299934
20
-1.67925484515726
30
0
41
1
10
5.34987120465442
20
-1.70262256559767
30
0
41
1
10
5.41032710552167
20
-1.74431588345385
30
0
41
1
10
5.44304245089864
20
-1.76281589045303
30
0
41
1
10
5.51033730124254
20
-1.79607635813323
30
0
41
1
10
5.54512538953043
20
-1.81093980850849
30
0
41
1
10
5.5808894647665
20
-1.82432908289547
30
0
0
SPLINE
5
CB
100
AcDbEntity
8
1
62
256
6
ByLayer
370
18
48
1
60
0
100
AcDbSpline
70
4
71
3
72
20
73
16
40
0
40
0
40
0
40
0
40
0.125
40
0.125
40
0.250000000000001
40
0.250000000000001
40
0.375000000000001
40
0.375000000000001
40
0.500000000000002
40
0.500000000000002
40
0.750000000000002
40
0.750000000000002
40
0.875000000000001
40
0.875000000000001
40
1
40
1
40
1
40
1
41
1
10
54.4373042951717
20
-0.9060708867637
30
0
41
1
10
54.3989296714532
20
-0.905799166579783
30
0
41
1
10
54.3626924184521
20
-0.895383085856537
30
0
41
1
10
54.2936900011931
20
-0.858071742886409
30
0
41
1
10
54.2606252675364
20
-0.83072804298024
30
0
41
1
10
54.1994731497078
20
-0.763093711229374
30
0
41
1
10
54.1713614456508
20
-0.723032021404777
30
0
41
1
10
54.1192914008458
20
-0.632384274058239
30
0
41
1
10
54.0952011062335
20
-0.581402077882586
30
0
41
1
10
54.0297656620098
20
-0.416641599022256
30
0
41
1
10
53.9953982129585
20
-0.292741128389252
30
0
41
1
10
53.9553414548685
20
-0.0894303887772878
30
0
41
1
10
53.9439176582712
20
-0.0183204702772173
30
0
41
1
10
53.9253313067378
20
0.126870781613945
30
0
41
1
10
53.9181020717809
20
0.201175611332161
30
0
41
1
10
53.9128741535763
20
0.277137784190501
30
0
0
SPLINE
5
CC
100
AcDbEntity
8
1
62
256
6
ByLayer
370
13
48
1
60
0
100
AcDbSpline
70
4
71
3
72
23
73
19
40
0
40
0
40
0
40
0
40
0.0240082509721421
40
0.0730671910026304
40
0.122126131033117
40
0.220244011094092
40
0.269302951124579
40
0.318361891155067
40
0.416479771216042
40
0.465538711246529
40
0.514597651277017
40
0.612715531337991
40
0.661774471368479
40
0.710833411398966
40
0.808951291459941
40
0.858010231490429
40
0.907069171520916
40
1
40
1
40
1
40
1
41
1
10
54.4943992045737
20
1.48811252101871
30
0
41
1
10
54.4708230842318
20
1.48799683352496
30
0
41
1
10
54.3990718027853
20
1.48756905073384
30
0
41
1
10
54.2791488017612
20
1.48646850992779
30
0
41
1
10
54.0864271017132
20
1.48374119486209
30
0
41
1
10
53.8937193270992
20
1.47977050335848
30
0
41
1
10
53.7010235322257
20
1.47455256983028
30
0
41
1
10
53.5083017870488
20
1.46839290666176
30
0
41
1
10
53.3155940424579
20
1.46099370102945
30
0
41
1
10
53.1228983733293
20
1.45235349664441
30
0
41
1
10
52.9301767824398
20
1.44279542645072
30
0
41
1
10
52.7374691987253
20
1.43201358190729
30
0
41
1
10
52.5447736181856
20
1.42001522581003
30
0
41
1
10
52.352052070384
20
1.40713348444871
30
0
41
1
10
52.1593444693378
20
1.3930553380288
30
0
41
1
10
51.9666488248512
20
1.37779020387328
30
0
41
1
10
51.7790213577251
20
1.36210587005726
30
0
41
1
10
51.6395840281756
20
1.34963645134778
30
0
41
1
10
51.548327357297
20
1.34113052202795
30
0
0
SPLINE
5
CD
100
AcDbEntity
8
1
62
256
6
ByLayer
370
13
48
1
60
0
100
AcDbSpline
70
4
71
3
72
61
73
57
40
0
40
0
40
0
40
0
40
0.0048634305822584
40
0.0332959039941934
40
0.0475121407001614
40
0.061728377406129
40
0.0901608508180645
40
0.104377087524034
40
0.118593324230001
40
0.147025797641936
40
0.161242034347903
40
0.175458271053871
40
0.203890744465807
40
0.218106981171774
40
0.232323217877742
40
0.260755691289677
40
0.274971927995646
40
0.289188164701613
40
0.317620638113548
40
0.331836874819516
40
0.346053111525484
40
0.37448558493742
40
0.388701821643388
40
0.402918058349355
40
0.43135053176129
40
0.445566768467258
40
0.459783005173226
40
0.488215478585161
40
0.502431715291129
40
0.516647951997097
40
0.545080425409032
40
0.559296662115
40
0.573512898820967
40
0.601945372232903
40
0.616161608938871
40
0.630377845644839
40
0.658810319056774
40
0.673026555762742
40
0.687242792468709
40
0.715675265880645
40
0.729891502586613
40
0.744107739292581
40
0.772540212704516
40
0.786756449410484
40
0.800972686116452
40
0.829405159528387
40
0.843621396234355
40
0.857837632940323
40
0.886270106352258
40
0.900486343058226
40
0.914702579764194
40
0.932472875646653
40
0.943135053176129
40
0.953797230705605
40
0.971567526588064
40
1
40
1
40
1
40
1
41
1
10
21.8090555582323
20
0.0475339473720453
30
0
41
1
10
21.7925731509817
20
0.0510716095959367
30
0
41
1
10
21.6797314050319
20
0.0752864988320994
30
0
41
1
10
21.5187191101324
20
0.109849062609982
30
0
41
1
10
21.3260234119593
20
0.151182381502537
30
0
41
1
10
21.1333017670575
20
0.192285996187138
30
0
41
1
10
20.9405941293292
20
0.233300973436201
30
0
41
1
10
20.7478985668336
20
0.274181823980086
30
0
41
1
10
20.5551770738233
20
0.314755555884148
30
0
41
1
10
20.3624695688729
20
0.355137600983568
30
0
41
1
10
20.1697740253341
20
0.395279868067746
30
0
41
1
10
19.9770524809411
20
0.435037330085237
30
0
41
1
10
19.7843448437536
20
0.47449951057618
30
0
41
1
10
19.5916491418225
20
0.513619523800287
30
0
41
1
10
19.3989274400014
20
0.552280721352759
30
0
41
1
10
19.2062196525417
20
0.590546512994393
30
0
41
1
10
19.0135238333687
20
0.628371387011953
30
0
41
1
10
18.8208020578178
20
0.66566742752471
30
0
41
1
10
18.6280942754039
20
0.702471825328331
30
0
41
1
10
18.4353985648689
20
0.738740644229722
30
0
41
1
10
18.2426769310303
20
0.774414481208396
30
0
41
1
10
18.0499693027029
20
0.809503382695084
30
0
41
1
10
17.8572736780255
20
0.84396377947823
30
0
41
1
10
17.6645520876287
20
0.877766252016926
30
0
41
1
10
17.4718444466805
20
0.910893755101114
30
0
41
1
10
17.2791487670078
20
0.943304570505603
30
0
41
1
10
17.0864271068709
20
0.974999309392899
30
0
41
1
10
16.8937193953642
20
1.00593400320292
30
0
41
1
10
16.7010236776079
20
1.03606897781154
30
0
41
1
10
16.5083019976643
20
1.06543476738605
30
0
41
1
10
16.3155943097872
20
1.09396072551624
30
0
41
1
10
16.1228986917912
20
1.1216093172788
30
0
41
1
10
15.9301771358614
20
1.14844113403373
30
0
41
1
10
15.7374695544329
20
1.17435986539746
30
0
41
1
10
15.5447739288284
20
1.19933125097847
30
0
41
1
10
15.352052316159
20
1.22344461832807
30
0
41
1
10
15.1593446263805
20
1.24657842577122
30
0
41
1
10
14.9666488897787
20
1.26870080568094
30
0
41
1
10
14.7739271723891
20
1.28992937463599
30
0
41
1
10
14.5812193997687
20
1.31011784245265
30
0
41
1
10
14.3885236248415
20
1.32923675770968
30
0
41
1
10
14.1958019004702
20
1.34743151807635
30
0
41
1
10
14.0030941758818
20
1.36453162981945
30
0
41
1
10
13.8103985137454
20
1.38051009628299
30
0
41
1
10
13.6176769188158
20
1.39554046871851
30
0
41
1
10
13.4249693197385
20
1.4094305843623
30
0
41
1
10
13.2322737159486
20
1.42215881849182
30
0
41
1
10
13.0395521395196
20
1.43392331689387
30
0
41
1
10
12.8468445117719
20
1.44451093463096
30
0
41
1
10
12.6541488466771
20
1.45390257457495
30
0
41
1
10
12.4975712253708
20
1.46078124495284
30
0
41
1
10
12.3530435032594
20
1.46643915773333
30
0
41
1
10
12.22056054651
20
1.47104772125874
30
0
41
1
10
12.0880676434509
20
1.47517209190047
30
0
41
1
10
11.8953424999717
20
1.48027222107066
30
0
41
1
10
11.7387824092182
20
1.48340049107668
30
0
41
1
10
11.6424414194988
20
1.48491055857096
30
0
0
SPLINE
5
CE
100
AcDbEntity
8
1
62
256
6
ByLayer
370
18
48
1
60
0
100
AcDbSpline
70
4
71
3
72
8
73
4
40
0
40
0
40
0
40
0
40
1
40
1
40
1
40
1
41
1
10
54.9998176969244
20
-0.0647582163869629
30
0
41
1
10
54.985565164325
20
-0.104465530581734
30
0
41
1
10
54.9714172308204
20
-0.144236311603294
30
0
41
1
10
54.9573711984539
20
-0.184070154221501
30
0
0
SPLINE
5
CF
100
AcDbEntity
8
1
62
256
6
ByLayer
370
18
48
1
60
0
100
AcDbSpline
70
4
71
3
72
8
73
4
40
0
40
0
40
0
40
0
40
1
40
1
40
1
40
1
41
1
10
54.9573711984598
20
-0.184070154204903
30
0
41
1
10
54.8360666181848
20
-0.52808385383878
30
0
41
1
10
54.7154507923632
20
-0.872335532566353
30
0
41
1
10
54.5955265896924
20
-1.21682618158272
30
0
0
SPLINE
5
D0
100
AcDbEntity
8
1
62
256
6
ByLayer
370
18
48
1
60
0
100
AcDbSpline
70
4
71
3
72
14
73
10
40
0
40
0
40
0
40
0
40
0.25
40
0.25
40
0.5
40
0.5
40
0.75
40
0.75
40
1
40
1
40
1
40
1
41
1
10
54.4417289730123
20
-0.910496619868354
30
0
41
1
10
54.4808598483302
20
-0.890090666224864
30
0
41
1
10
54.5237051259385
20
-0.850034645760644
30
0
41
1
10
54.6177477738132
20
-0.732078651689108
30
0
41
1
10
54.6663268662152
20
-0.657464656648699
30
0
41
1
10
54.7665516428197
20
-0.47976115423532
30
0
41
1
10
54.8157916251831
20
-0.380897832418157
30
0
41
1
10
54.912190024353
20
-0.16525856903462
30
0
41
1
10
54.9576421280527
20
-0.0521778308308001
30
0
41
1
10
54.9998176969245
20
0.0647582163865081
30
0
0
SPLINE
5
D1
100
AcDbEntity
8
1
62
256
6
ByLayer
370
18
48
1
60
0
100
AcDbSpline
70
4
71
3
72
10
73
6
40
0
40
0
40
0
40
0
40
0.5
40
0.5
40
1
40
1
40
1
40
1
41
1
10
53.8401048248753
20
3.21672496804797
30
0
41
1
10
53.94926536728
20
2.94150641700764
30
0
41
1
10
54.0598939161094
20
2.66060235801478
30
0
41
1
10
54.2796638022273
20
2.08534127842466
30
0
41
1
10
54.3887827035786
20
1.79089325973339
30
0
41
1
10
54.4943992045736
20
1.48811252101871
30
0
0
SPLINE
5
D2
100
AcDbEntity
8
1
62
256
6
ByLayer
370
18
48
1
60
0
100
AcDbSpline
70
4
71
3
72
12
73
8
40
0
40
0
40
0
40
0
40
0.656786481924164
40
0.656786481924164
40
0.985179722886246
40
0.985179722886246
40
1
40
1
40
1
40
1
41
1
10
8.22430578280313
20
-2.92054469580424
30
0
41
1
10
8.87847156180936
20
-3.03138067672455
30
0
41
1
10
9.53655277300118
20
-3.10385105982306
30
0
41
1
10
10.5280572926435
20
-3.16135395670005
30
0
41
1
10
10.8593126207623
20
-3.17183229981489
30
0
41
1
10
11.2062989233882
20
-3.1734021300409
30
0
41
1
10
11.221282263521
20
-3.17345155280338
30
0
41
1
10
11.236265558606
20
-3.17348256788549
30
0
0
SPLINE
5
D3
100
AcDbEntity
8
1
62
256
6
ByLayer
370
18
48
1
60
0
100
AcDbSpline
70
4
71
3
72
48
73
44
40
0
40
0
40
0
40
0
40
0.0398141463465556
40
0.0398141463465556
40
0.104501440120265
40
0.104501440120265
40
0.169188733893974
40
0.169188733893974
40
0.201532380780829
40
0.201532380780829
40
0.233876027667684
40
0.233876027667684
40
0.298563321441392
40
0.298563321441392
40
0.330906968328247
40
0.330906968328247
40
0.363250615215102
40
0.363250615215102
40
0.427937908988811
40
0.427937908988811
40
0.49262520276252
40
0.49262520276252
40
0.524968849649376
40
0.524968849649376
40
0.55731249653623
40
0.55731249653623
40
0.621999790309941
40
0.621999790309941
40
0.654343437196797
40
0.654343437196797
40
0.686687084083654
40
0.686687084083654
40
0.751374377857367
40
0.751374377857367
40
0.81606167163108
40
0.81606167163108
40
0.880748965404792
40
0.880748965404792
40
0.913092612291648
40
0.913092612291648
40
0.945436259178504
40
0.945436259178504
40
1
40
1
40
1
40
1
41
1
10
12.2021503135657
20
3.17522118528473
30
0
41
1
10
12.5114278902707
20
3.17570045701828
30
0
41
1
10
12.8205565306988
20
3.16667675149193
30
0
41
1
10
13.6326920749881
20
3.11812394836315
30
0
41
1
10
14.1371126651072
20
3.06278293385168
30
0
41
1
10
15.1422758459342
20
2.90490269074914
30
0
41
1
10
15.6441003487405
20
2.80251861155938
30
0
41
1
10
16.3984533620365
20
2.61633521802312
30
0
41
1
10
16.6505118598851
20
2.54876481337135
30
0
41
1
10
17.1538307670656
20
2.40401269653267
30
0
41
1
10
17.4051014510833
20
2.32681669670032
30
0
41
1
10
18.158493185807
20
2.08193145048512
30
0
41
1
10
18.6602068564727
20
1.90094559211334
30
0
41
1
10
19.4150891721355
20
1.60802913987371
30
0
41
1
10
19.6670418572205
20
1.50677453893266
30
0
41
1
10
20.1697534368697
20
1.29922021539713
30
0
41
1
10
20.4208131255271
20
1.19277155992796
30
0
41
1
10
21.1738210891353
20
0.866875254244547
30
0
41
1
10
21.6756918947328
20
0.640840176796985
30
0
41
1
10
22.6829430780071
20
0.180429077513281
30
0
41
1
10
23.1845974643348
20
-0.0524713717246641
30
0
41
1
10
23.9373406387146
20
-0.398838990543595
30
0
41
1
10
24.1883157165771
20
-0.51376111793985
30
0
41
1
10
24.6908970582354
20
-0.741431376326148
30
0
41
1
10
24.9427938527218
20
-0.85436875046932
30
0
41
1
10
25.697117545793
20
-1.18703121922633
30
0
41
1
10
26.1984632805494
20
-1.40060871756313
30
0
41
1
10
26.9512571248943
20
-1.70260550317141
30
0
41
1
10
27.2023211757802
20
-1.8002051156794
30
0
41
1
10
27.705221990663
20
-1.98829858534717
30
0
41
1
10
27.9569543370455
20
-2.07877074308044
30
0
41
1
10
28.7104080493752
20
-2.33665937597652
30
0
41
1
10
29.2114989541485
20
-2.49123814562947
30
0
41
1
10
30.2154523213337
20
-2.75965339412352
30
0
41
1
10
30.7191094712509
20
-2.87358132765809
30
0
41
1
10
31.7227309845747
20
-3.05374708437938
30
0
41
1
10
32.2236071119102
20
-3.12044527764274
30
0
41
1
10
32.9769355688703
20
-3.18314395498749
30
0
41
1
10
33.2286538517652
20
-3.1978445571707
30
0
41
1
10
33.7310313821573
20
-3.21450806133777
30
0
41
1
10
33.9818356648051
20
-3.21649277679199
30
0
41
1
10
34.6555177261082
20
-3.20485169426425
30
0
41
1
10
35.0780810756862
20
-3.17952065987927
30
0
41
1
10
35.5016209927093
20
-3.1364762446895
30
0
0
SPLINE
5
D4
100
AcDbEntity
8
1
62
256
6
ByLayer
370
18
48
1
60
0
100
AcDbSpline
70
4
71
3
72
30
73
26
40
0
40
0
40
0
40
0
40
0.0625
40
0.0625
40
0.125
40
0.125
40
0.25
40
0.25
40
0.3125
40
0.3125
40
0.375000000000001
40
0.375000000000001
40
0.5
40
0.5
40
0.5625
40
0.5625
40
0.625
40
0.625
40
0.75
40
0.75
40
0.8125
40
0.8125
40
0.875
40
0.875
40
1
40
1
40
1
40
1
41
1
10
5.26542096524864
20
2.55839293648054
30
0
41
1
10
5.26538798863041
20
2.50217936659703
30
0
41
1
10
5.26534473295072
20
2.44244329715036
30
0
41
1
10
5.2652392430177
20
2.31582098413767
30
0
41
1
10
5.26517663935107
20
2.24858020757068
30
0
41
1
10
5.26496451779491
20
2.03849985501262
30
0
41
1
10
5.26479223051876
20
1.88820916175465
30
0
41
1
10
5.26449447547756
20
1.64786304559925
30
0
41
1
10
5.26438856963009
20
1.56524706256349
30
0
41
1
10
5.26416344295683
20
1.39489937192849
30
0
41
1
10
5.26404380900763
20
1.30689300533913
30
0
41
1
10
5.2636716910589
20
1.04041017512543
30
0
41
1
10
5.2634043383122
20
0.857941750156186
30
0
41
1
10
5.26296993929935
20
0.577124032722509
30
0
41
1
10
5.26281949787807
20
0.482325047437485
30
0
41
1
10
5.26250553604791
20
0.290267806090725
30
0
41
1
10
5.26234314885235
20
0.193730330603103
30
0
41
1
10
5.2618430752517
20
-0.0940739178278136
30
0
41
1
10
5.26149049737703
20
-0.284907089911258
30
0
41
1
10
5.26092012314814
20
-0.569602085506403
30
0
41
1
10
5.26072226332386
20
-0.664585868743984
30
0
41
1
10
5.26031310701279
20
-0.852423273358681
30
0
41
1
10
5.26010333530701
20
-0.944603178149293
30
0
41
1
10
5.25945535013358
20
-1.21608258725297
30
0
41
1
10
5.25899861234393
20
-1.39036264291957
30
0
41
1
10
5.25850758551837
20
-1.55784063725983
30
0
0
SPLINE
5
D5
100
AcDbEntity
8
1
62
256
6
ByLayer
370
13
48
1
60
0
100
AcDbSpline
70
4
71
3
72
80
73
76
40
0
40
0
40
0
40
0
40
0.0089923360770352
40
0.0194877577543899
40
0.0299831794317464
40
0.0509740227864559
40
0.0614694444638116
40
0.071964866141166
40
0.0929557094958769
40
0.103451131173232
40
0.113946552850588
40
0.134937396205298
40
0.145432817882653
40
0.155928239560008
40
0.176919082914719
40
0.187414504592075
40
0.197909926269429
40
0.21890076962414
40
0.229396191301495
40
0.239891612978849
40
0.260882456333561
40
0.271377878010916
40
0.281873299688271
40
0.302864143042982
40
0.313359564720337
40
0.323854986397692
40
0.344845829752403
40
0.355341251429757
40
0.365836673107114
40
0.386827516461824
40
0.39732293813918
40
0.407818359816534
40
0.428809203171244
40
0.4393046248486
40
0.449800046525955
40
0.470790889880665
40
0.48128631155802
40
0.491781733235376
40
0.512772576590086
40
0.523267998267442
40
0.533763419944797
40
0.554754263299508
40
0.565249684976863
40
0.575745106654218
40
0.596735950008928
40
0.607231371686284
40
0.617726793363638
40
0.63871763671835
40
0.649213058395705
40
0.65970848007306
40
0.680699323427771
40
0.691194745105125
40
0.701690166782481
40
0.722681010137191
40
0.733176431814547
40
0.743671853491902
40
0.764662696846612
40
0.775158118523968
40
0.785653540201323
40
0.806644383556033
40
0.817139805233388
40
0.827635226910744
40
0.848626070265454
40
0.85912149194281
40
0.869616913620165
40
0.890607756974875
40
0.901103178652231
40
0.911598600329586
40
0.932589443684296
40
0.943084865361652
40
0.953580287039007
40
0.974571130393717
40
0.985066552071073
40
0.995561973748429
40
1
40
1
40
1
40
1
41
1
10
43.5631255996535
20
0.0466299606747498
30
0
41
1
10
43.5218484792826
20
0.0555017001563556
30
0
41
1
10
43.432396392359
20
0.0747317984570657
30
0
41
1
10
43.2947738414896
20
0.104321742160778
30
0
41
1
10
43.102052241069
20
0.145553023568993
30
0
41
1
10
42.9093445525951
20
0.186733596384897
30
0
41
1
10
42.7166488084383
20
0.227816031439858
30
0
41
1
10
42.5239270735241
20
0.268619144623273
30
0
41
1
10
42.3312192671211
20
0.309267862503333
30
0
41
1
10
42.1385234452352
20
0.349715686756326
30
0
41
1
10
41.9458016777324
20
0.389807857521475
30
0
41
1
10
41.7530939190066
20
0.429644818260442
30
0
41
1
10
41.5603982442322
20
0.469181210368902
30
0
41
1
10
41.3676766500958
20
0.508288215909346
30
0
41
1
10
41.1749690667511
20
0.547039637515837
30
0
41
1
10
40.9822734892359
20
0.585388537837446
30
0
41
1
10
40.7895519465048
20
0.623235302054354
30
0
41
1
10
40.5968443528086
20
0.660626942620752
30
0
41
1
10
40.4041487169622
20
0.697518003911568
30
0
41
1
10
40.2114270964929
20
0.73383836556323
30
0
41
1
10
40.0187194165533
20
0.769608203716984
30
0
41
1
10
39.8260237176164
20
0.804783745567477
30
0
41
1
10
39.6333020469526
20
0.839324522168084
30
0
41
1
10
39.4405943537734
20
0.873223911143072
30
0
41
1
10
39.2478987152634
20
0.906439959495003
30
0
41
1
10
39.0551771304068
20
0.938961734749597
30
0
41
1
10
38.862469509532
20
0.970755620832279
30
0
41
1
10
38.6697738398525
20
1.00178114754667
30
0
41
1
10
38.4770521825797
20
1.03205735791966
30
0
41
1
10
38.2843444481148
20
1.06152386779527
30
0
41
1
10
38.091648668183
20
1.09014233861043
30
0
41
1
10
37.8989269086215
20
1.11796160740027
30
0
41
1
10
37.7062190983721
20
1.14489481484566
30
0
41
1
10
37.51352329514
20
1.17090583369665
30
0
41
1
10
37.3208015490324
20
1.1960730220874
30
0
41
1
10
37.1280938141724
20
1.2202834056626
30
0
41
1
10
36.9353981629307
20
1.2435031375428
30
0
41
1
10
36.7426765979619
20
1.26584044858583
30
0
41
1
10
36.549969050291
20
1.28715809534168
30
0
41
1
10
36.3572735081318
20
1.30742671323941
30
0
41
1
10
36.1645519957358
20
1.32678185071256
30
0
41
1
10
35.9718444312245
20
1.34506252012204
30
0
41
1
10
35.7791488239565
20
1.36224179910712
30
0
41
1
10
35.5864272162319
20
1.37848198678475
30
0
41
1
10
35.3937195216869
20
1.39359894134091
30
0
41
1
10
35.2010237771604
20
1.40756821692338
30
0
41
1
10
35.008302054246
20
1.42057824574235
30
0
41
1
10
34.8155942997419
20
1.43242245853614
30
0
41
1
10
34.6228986101557
20
1.44307903121927
30
0
41
1
10
34.4301769987752
20
1.45276308241034
30
0
41
1
10
34.2374693876383
20
1.46124910648885
30
0
41
1
10
34.0447737693462
20
1.46852195530474
30
0
41
1
10
33.8520521849638
20
1.47481847070861
30
0
41
1
10
33.6593445478936
20
1.47989499201813
30
0
41
1
10
33.4666488679555
20
1.4837389043025
30
0
41
1
10
33.2739272033062
20
1.4866078940623
30
0
41
1
10
33.0812194830407
20
1.48824104011391
30
0
41
1
10
32.8885237631478
20
1.48862831957413
30
0
41
1
10
32.6958020922265
20
1.48804720729748
30
0
41
1
10
32.5030944227491
20
1.48622040645185
30
0
41
1
10
32.3103988220849
20
1.48314035418642
30
0
41
1
10
32.1176772849024
20
1.47910520096312
30
0
41
1
10
31.9249697285134
20
1.47382602619547
30
0
41
1
10
31.7322741290773
20
1.46730341451581
30
0
41
1
10
31.5395525275187
20
1.45984937205625
30
0
41
1
10
31.3468448327551
20
1.45116436755245
30
0
41
1
10
31.1541490769985
20
1.44125140332042
30
0
41
1
10
30.9614273260536
20
1.4304351170268
30
0
41
1
10
30.7687194978781
20
1.41840635755079
30
0
41
1
10
30.5760236496656
20
1.40517037102401
30
0
41
1
10
30.3833018532982
20
1.39106326048878
30
0
41
1
10
30.1905940629429
20
1.37576729276208
30
0
41
1
10
29.9978983576183
20
1.35928990760161
30
0
41
1
10
29.8811642916371
20
1.34880493848064
30
0
41
1
10
29.8126129955282
20
1.34245293206325
30
0
41
1
10
29.7922406455583
20
1.34054806661811
30
0
0
SPLINE
5
D6
100
AcDbEntity
8
1
62
256
6
ByLayer
370
18
48
1
60
0
100
AcDbSpline
70
4
71
1
72
4
73
2
40
0
40
0
40
1
40
1
41
1
10
54.4311789377219
20
-0.946112942141184
30
0
41
1
10
54.4417289730128
20
-0.910496619892285
30
0
0
SPLINE
5
D7
100
AcDbEntity
8
1
62
256
6
ByLayer
370
18
48
1
60
0
100
AcDbSpline
70
4
71
3
72
24
73
20
40
0
40
0
40
0
40
0
40
0.150482487842564
40
0.150482487842564
40
0.320385990274051
40
0.320385990274051
40
0.490289492705538
40
0.490289492705538
40
0.575241243921282
40
0.575241243921282
40
0.660192995137025
40
0.660192995137025
40
0.745144746352769
40
0.745144746352769
40
0.830096497568513
40
0.830096497568513
40
0.915048248784256
40
0.915048248784256
40
1
40
1
40
1
40
1
41
1
10
4.57167213883235
20
-2.86519739735948
30
0
41
1
10
4.48221626468421
20
-2.9043667532658
30
0
41
1
10
4.39637454215253
20
-2.94168558015664
30
0
41
1
10
4.22758781365474
20
-3.01411659429917
30
0
41
1
10
4.14616470646092
20
-3.04845636989964
30
0
41
1
10
4.00486457079737
20
-3.10597106829735
30
0
41
1
10
3.94473231517762
20
-3.12919449402688
30
0
41
1
10
3.88130794069039
20
-3.15058027160274
30
0
41
1
10
3.86440349278465
20
-3.15556291606654
30
0
41
1
10
3.84002207144417
20
-3.16072016846903
30
0
41
1
10
3.83269040200062
20
-3.16083051932796
30
0
41
1
10
3.82835153554683
20
-3.15601783485289
30
0
41
1
10
3.83121504279225
20
-3.15112840257046
30
0
41
1
10
3.84684425461146
20
-3.13644969123703
30
0
41
1
10
3.85977928562417
20
-3.12654935974271
30
0
41
1
10
3.89454632763079
20
-3.10251474777729
30
0
41
1
10
3.91629203853711
20
-3.08841748346831
30
0
41
1
10
3.96750524899323
20
-3.05654504908068
30
0
41
1
10
3.99712314267083
20
-3.03868206015221
30
0
41
1
10
4.02989751256155
20
-3.01935878931357
30
0
0
SPLINE
5
D8
100
AcDbEntity
8
1
62
256
6
ByLayer
370
18
48
1
60
0
100
AcDbSpline
70
4
71
3
72
54
73
50
40
0
40
0
40
0
40
0
40
0.0149487856645484
40
0.0149487856645484
40
0.0642013463813232
40
0.0642013463813232
40
0.113453907098098
40
0.113453907098098
40
0.162706467814873
40
0.162706467814873
40
0.211959028531647
40
0.211959028531647
40
0.261211589248422
40
0.261211589248422
40
0.285837869606809
40
0.285837869606809
40
0.310464149965195
40
0.310464149965195
40
0.359716710681968
40
0.359716710681968
40
0.40896927139874
40
0.40896927139874
40
0.458221832115512
40
0.458221832115512
40
0.482848112473897
40
0.482848112473897
40
0.507474392832283
40
0.507474392832283
40
0.556726953549055
40
0.556726953549055
40
0.605979514265827
40
0.605979514265827
40
0.655232074982599
40
0.655232074982599
40
0.704484635699371
40
0.704484635699371
40
0.753737196416143
40
0.753737196416143
40
0.802989757132915
40
0.802989757132915
40
0.852242317849687
40
0.852242317849687
40
0.901494878566459
40
0.901494878566459
40
0.926121158924845
40
0.926121158924845
40
0.95074743928323
40
0.95074743928323
40
1
40
1
40
1
40
1
41
1
10
27.4213567363998
20
2.19315709475546
30
0
41
1
10
27.5527571743056
20
2.23760096107404
30
0
41
1
10
27.6842571695632
20
2.28091686592634
30
0
41
1
10
28.2495743287035
20
2.46186399722956
30
0
41
1
10
28.6852858779703
20
2.5874884099926
30
0
41
1
10
29.5609941909976
20
2.80774983074369
30
0
41
1
10
29.9958889205218
20
2.9011295394528
30
0
41
1
10
30.8629677277756
20
3.052167351273
30
0
41
1
10
31.2948661996767
20
3.11008609127595
30
0
41
1
10
32.1582604148688
20
3.18912827153022
30
0
41
1
10
32.5898368443122
20
3.21026738889043
30
0
41
1
10
33.4549000558498
20
3.21493615150595
30
0
41
1
10
33.8886525543045
20
3.19845369991765
30
0
41
1
10
34.5428451268774
20
3.1451553260043
30
0
41
1
10
34.7619671322918
20
3.12254492242798
30
0
41
1
10
35.1987613865744
20
3.06826180582453
30
0
41
1
10
35.416417099767
20
3.03652078418028
30
0
41
1
10
36.0681884086358
20
2.92845626367983
30
0
41
1
10
36.5005942906575
20
2.838879645079
30
0
41
1
10
37.3641175009257
20
2.62797696252881
30
0
41
1
10
37.7953244610836
20
2.50680061270867
30
0
41
1
10
38.6587509120386
20
2.23573613894052
30
0
41
1
10
39.0912391090498
20
2.08624443972207
30
0
41
1
10
39.7428577270937
20
1.84353993711909
30
0
41
1
10
39.960538812603
20
1.75954248734092
30
0
41
1
10
40.3973163447903
20
1.58613473118371
30
0
41
1
10
40.6161861787728
20
1.49652307752632
30
0
41
1
10
41.2698093168514
20
1.22323023901487
30
0
41
1
10
41.7029912406292
20
1.03331529648051
30
0
41
1
10
42.5672228585494
20
0.644513508207837
30
0
41
1
10
42.9983452902498
20
0.445790101729329
30
0
41
1
10
43.8607213622712
20
0.0443152577365993
30
0
41
1
10
44.2922615620947
20
-0.157807128491783
30
0
41
1
10
45.1583185745851
20
-0.559822105697208
30
0
41
1
10
45.5931192634486
20
-0.759877681291499
30
0
41
1
10
46.4675967710008
20
-1.15032022498249
30
0
41
1
10
46.901821393292
20
-1.33894991765558
30
0
41
1
10
47.7672989183444
20
-1.69718573779883
30
0
41
1
10
48.198584526063
20
-1.8667643121901
30
0
41
1
10
49.0604535907895
20
-2.182954063983
30
0
41
1
10
49.4913391865891
20
-2.32904791546463
30
0
41
1
10
50.3551994673805
20
-2.59363073894761
30
0
41
1
10
50.788187777821
20
-2.71206128391373
30
0
41
1
10
51.4415691967948
20
-2.86542182941261
30
0
41
1
10
51.6602218069325
20
-2.91269540918785
30
0
41
1
10
52.0968606304256
20
-2.99805010179838
30
0
41
1
10
52.3148222457827
20
-3.03635281369011
30
0
41
1
10
52.9684853922952
20
-3.13748010533436
30
0
41
1
10
53.4038753986906
20
-3.18662571291117
30
0
41
1
10
53.8401048248754
20
-3.21672496804797
30
0
0
SPLINE
5
D9
100
AcDbEntity
8
1
62
256
6
ByLayer
370
18
48
1
60
0
100
AcDbSpline
70
4
71
3
72
8
73
4
40
0
40
0
40
0
40
0
40
1
40
1
40
1
40
1
41
1
10
53.8401048248753
20
-3.21672496804794
30
0
41
1
10
53.8204349304627
20
-3.19633762945401
30
0
41
1
10
53.8035029599215
20
-3.16670864215726
30
0
41
1
10
53.7889552958736
20
-3.1274877393295
30
0
0
SPLINE
5
DA
100
AcDbEntity
8
1
62
256
6
ByLayer
370
18
48
1
60
0
100
AcDbSpline
70
4
71
3
72
12
73
8
40
0
40
0
40
0
40
0
40
0.499999999999961
40
0.499999999999961
40
0.749999999999981
40
0.749999999999981
40
1
40
1
40
1
40
1
41
1
10
54.217779624993
20
0.969037064021052
30
0
41
1
10
54.2893609643758
20
0.995641735175354
30
0
41
1
10
54.3598583327598
20
1.02650465230505
30
0
41
1
10
54.458014125447
20
1.08502263884512
30
0
41
1
10
54.4897560797428
20
1.10682058697725
30
0
41
1
10
54.5479634542595
20
1.15665503523459
30
0
41
1
10
54.5745112439664
20
1.1848065205649
30
0
41
1
10
54.5955265896925
20
1.21682618158266
30
0
0
SPLINE
5
DB
100
AcDbEntity
8
1
62
256
6
ByLayer
370
18
48
1
60
0
100
AcDbSpline
70
4
71
3
72
10
73
6
40
0
40
0
40
0
40
0
40
0.133148171860087
40
0.133148171860087
40
1
40
1
40
1
40
1
41
1
10
34.4317520755569
20
-3.12522731649139
30
0
41
1
10
34.3708990294408
20
-3.12506716303622
30
0
41
1
10
34.3100934490628
20
-3.12454510866027
30
0
41
1
10
33.853939498733
20
-3.11791668211211
30
0
41
1
10
33.4602704427924
20
-3.09692097566696
30
0
41
1
10
33.0672911585638
20
-3.06120090972951
30
0
0
SPLINE
5
DC
100
AcDbEntity
8
1
62
256
6
ByLayer
370
13
48
1
60
0
100
AcDbSpline
70
4
71
3
72
34
73
30
40
0
40
0
40
0
40
0
40
0.017844475142012
40
0.017844475142012
40
0.185784601307704
40
0.185784601307704
40
0.227769632849126
40
0.227769632849126
40
0.269754664390548
40
0.269754664390548
40
0.31173969593197
40
0.31173969593197
40
0.353724727473392
40
0.353724727473392
40
0.521664853639074
40
0.521664853639074
40
0.605634916721916
40
0.605634916721916
40
0.647619948263337
40
0.647619948263337
40
0.689604979804758
40
0.689604979804758
40
0.857545105970437
40
0.857545105970437
40
0.899530137511857
40
0.899530137511857
40
0.941515169053276
40
0.941515169053276
40
1
40
1
40
1
40
1
41
1
10
33.0672921544621
20
-3.06120100025225
30
0
41
1
10
32.9612439001608
20
-3.05156169319747
30
0
41
1
10
32.8552458770733
20
-3.04085011614203
30
0
41
1
10
31.7519724698995
20
-2.91827218809303
30
0
41
1
10
30.7579445994817
20
-2.71310637071019
30
0
41
1
10
29.4996648397723
20
-2.35594714256735
30
0
41
1
10
29.2470291209201
20
-2.27940853512993
30
0
41
1
10
28.7428504568467
20
-2.11792501941565
30
0
41
1
10
28.4909210629729
20
-2.03291043738687
30
0
41
1
10
27.9869599697935
20
-1.85521781427593
30
0
41
1
10
27.7349540572672
20
-1.76250786276176
30
0
41
1
10
27.2302810369201
20
-1.57028564085795
30
0
41
1
10
26.9781793638834
20
-1.47102042928248
30
0
41
1
10
25.7222802302548
20
-0.963254090843293
30
0
41
1
10
24.7278313174331
20
-0.518589126299503
30
0
41
1
10
23.2284311737991
20
0.154084765783722
30
0
41
1
10
22.7273965286344
20
0.379371333812912
30
0
41
1
10
21.9708559921683
20
0.71169496207699
30
0
41
1
10
21.7182351980953
20
0.821465738803482
30
0
41
1
10
21.2154299972182
20
1.03624867319564
30
0
41
1
10
20.9646704390176
20
1.14139012972754
30
0
41
1
10
19.7129719819451
20
1.6538318787878
30
0
41
1
10
18.7185452505609
20
2.02117752317392
30
0
41
1
10
17.4646649048637
20
2.39098913925636
30
0
41
1
10
17.2133718826725
20
2.4605604223413
30
0
41
1
10
16.7092380736471
20
2.58996275016281
30
0
41
1
10
16.456243105941
20
2.64977830466933
30
0
41
1
10
15.8538297231482
20
2.77936180987666
30
0
41
1
10
15.5044872121684
20
2.84397994745251
30
0
41
1
10
15.1558664659403
20
2.89747365244901
30
0
0
SPLINE
5
DD
100
AcDbEntity
8
1
62
256
6
ByLayer
370
18
48
1
60
0
100
AcDbSpline
70
4
71
3
72
22
73
18
40
0
40
0
40
0
40
0
40
0.182264993055865
40
0.182264993055865
40
0.273397489583799
40
0.273397489583799
40
0.364529986111732
40
0.364529986111732
40
0.546794979167599
40
0.546794979167599
40
0.637927475695533
40
0.637927475695533
40
0.729059972223466
40
0.729059972223466
40
0.911324965279331
40
0.911324965279331
40
1
40
1
40
1
40
1
41
1
10
5.58088946476656
20
-1.82432908289542
30
0
41
1
10
6.0853395308207
20
-2.01318396882087
30
0
41
1
10
6.58941751720127
20
-2.18756512521003
30
0
41
1
10
7.34437446087327
20
-2.42080464174038
30
0
41
1
10
7.5960075611564
20
-2.49387491013047
30
0
41
1
10
8.09962010827158
20
-2.63010198498623
30
0
41
1
10
8.35188060521389
20
-2.69330578774159
30
0
41
1
10
9.10736366958926
20
-2.86612326428016
30
0
41
1
10
9.60949883537546
20
-2.95918577285121
30
0
41
1
10
10.3634192919252
20
-3.0630482966464
30
0
41
1
10
10.6148671291659
20
-3.0917065778375
30
0
41
1
10
11.1184724078921
20
-3.13676777403936
30
0
41
1
10
11.3705872712107
20
-3.15313945707879
30
0
41
1
10
12.1251830980333
20
-3.18327641387779
30
0
41
1
10
12.6271332172611
20
-3.17823610065687
30
0
41
1
10
13.3744203881285
20
-3.13356657940335
30
0
41
1
10
13.6194002785963
20
-3.11296178461873
30
0
41
1
10
13.864375252687
20
-3.08656619611051
30
0
0
SPLINE
5
DE
100
AcDbEntity
8
1
62
256
6
ByLayer
370
18
48
1
60
0
100
AcDbSpline
70
4
71
3
72
46
73
42
40
0
40
0
40
0
40
0
40
0.0143301760676777
40
0.0143301760676777
40
0.0901509317547835
40
0.0901509317547835
40
0.128061309598335
40
0.128061309598335
40
0.165971687441887
40
0.165971687441887
40
0.241792443128989
40
0.241792443128989
40
0.317613198816092
40
0.317613198816092
40
0.355523576659643
40
0.355523576659643
40
0.393433954503194
40
0.393433954503194
40
0.469254710190294
40
0.469254710190294
40
0.545075465877394
40
0.545075465877394
40
0.620896221564494
40
0.620896221564494
40
0.658806599408045
40
0.658806599408045
40
0.696716977251596
40
0.696716977251596
40
0.772537732938699
40
0.772537732938699
40
0.810448110782249
40
0.810448110782249
40
0.848358488625799
40
0.848358488625799
40
0.886268866469349
40
0.886268866469349
40
0.9241792443129
40
0.9241792443129
40
0.96208962215645
40
0.96208962215645
40
1
40
1
40
1
40
1
41
1
10
33.9476981152026
20
3.21436298573772
30
0
41
1
10
34.0425092471735
20
3.21453529256303
30
0
41
1
10
34.1372920106948
20
3.21380339238382
30
0
41
1
10
34.7334922299732
20
3.20352083106502
30
0
41
1
10
35.2343595718526
20
3.16954328320361
30
0
41
1
10
35.9882564088891
20
3.08135453149231
30
0
41
1
10
36.239729116179
20
3.04575929333643
30
0
41
1
10
36.7414708149192
20
2.96280011070496
30
0
41
1
10
36.9920488365724
20
2.91541621945351
30
0
41
1
10
37.7438308801464
20
2.7564442847048
30
0
41
1
10
38.2453149462162
20
2.62766910855333
30
0
41
1
10
39.2505259787221
20
2.33003522080088
30
0
41
1
10
39.7512743086281
20
2.16195003326419
30
0
41
1
10
40.5028907516221
20
1.88618549808507
30
0
41
1
10
40.7535071666696
20
1.79032341881569
30
0
41
1
10
41.2553721934208
20
1.59151336116946
30
0
41
1
10
41.5068769647573
20
1.48847421581777
30
0
41
1
10
42.2596754243236
20
1.17186076154124
30
0
41
1
10
42.7601211969843
20
0.950315943541369
30
0
41
1
10
43.7623747315116
20
0.494894002783468
30
0
41
1
10
44.265331730847
20
0.260423864224151
30
0
41
1
10
45.2679112739106
20
-0.207761952739702
30
0
41
1
10
45.7681884671115
20
-0.441712330001025
30
0
41
1
10
46.5200681170019
20
-0.786017570149454
30
0
41
1
10
46.7712320954021
20
-0.899806745950031
30
0
41
1
10
47.2731678234969
20
-1.12324328141571
30
0
41
1
10
47.5237163386573
20
-1.23280612753223
30
0
41
1
10
48.2748706838887
20
-1.55353748756855
30
0
41
1
10
48.7750447401252
20
-1.75662366315302
30
0
41
1
10
49.5275228417606
20
-2.03929420323809
30
0
41
1
10
49.7787948623611
20
-2.12990455788594
30
0
41
1
10
50.2802388945829
20
-2.30212858445722
30
0
41
1
10
50.5307114093765
20
-2.38382841949724
30
0
41
1
10
51.0317184906033
20
-2.5375920726643
30
0
41
1
10
51.2822690594619
20
-2.60963718366463
30
0
41
1
10
51.7839006659586
20
-2.74344274340348
30
0
41
1
10
52.0350933723745
20
-2.80520183670973
30
0
41
1
10
52.5364960958216
20
-2.91720123893614
30
0
41
1
10
52.7869581639929
20
-2.96752466817324
30
0
41
1
10
53.287853671041
20
-3.05642685434935
30
0
41
1
10
53.538036648035
20
-3.09515121047389
30
0
41
1
10
53.7889552958746
20
-3.12748773932799
30
0
0
SPLINE
5
DF
100
AcDbEntity
8
1
62
256
6
ByLayer
370
18
48
1
60
0
100
AcDbSpline
70
4
71
3
72
8
73
4
40
0
40
0
40
0
40
0
40
1
40
1
40
1
40
1
41
1
10
53.7889552958709
20
-3.12748773933816
30
0
41
1
10
53.791376762731
20
-3.11553177357263
30
0
41
1
10
53.7934798076516
20
-3.10400902595623
30
0
41
1
10
53.795269147948
20
-3.09290841430916
30
0
0
SPLINE
5
E0
100
AcDbEntity
8
1
62
256
6
ByLayer
370
18
48
1
60
0
100
AcDbSpline
70
4
71
3
72
22
73
18
40
0
40
0
40
0
40
0
40
0.0314928064986905
40
0.0314928064986905
40
0.105993359844946
40
0.105993359844946
40
0.254994466537451
40
0.254994466537451
40
0.329495019883707
40
0.329495019883707
40
0.403995573229962
40
0.403995573229962
40
0.701997786614978
40
0.701997786614978
40
0.850998893307489
40
0.850998893307489
40
1
40
1
40
1
40
1
41
1
10
4.58084849962196
20
2.85671772668471
30
0
41
1
10
4.61695676280414
20
2.84982484455887
30
0
41
1
10
4.65357699858274
20
2.84323601552836
30
0
41
1
10
4.77813867451374
20
2.82203723206436
30
0
41
1
10
4.86682188722563
20
2.80893984140261
30
0
41
1
10
5.13538020629073
20
2.7742236935058
30
0
41
1
10
5.31772394158003
20
2.75714111017425
30
0
41
1
10
5.5948596401569
20
2.73947886223951
30
0
41
1
10
5.68812438546175
20
2.73492910798495
30
0
41
1
10
5.87435411785685
20
2.72851250452175
30
0
41
1
10
5.96724960942538
20
2.72663880351783
30
0
41
1
10
6.43070674269921
20
2.7235989436887
30
0
41
1
10
6.79829085909194
20
2.74146185989986
30
0
41
1
10
7.34496685640772
20
2.79361756993799
30
0
41
1
10
7.52728015453488
20
2.8153800628242
30
0
41
1
10
7.88201935592684
20
2.86449901795578
30
0
41
1
10
8.05522679125124
20
2.89189746832295
30
0
41
1
10
8.22430578280313
20
2.92054469580424
30
0
0
SPLINE
5
E1
100
AcDbEntity
8
1
62
256
6
ByLayer
370
18
48
1
60
0
100
AcDbSpline
70
4
71
3
72
10
73
6
40
0
40
0
40
0
40
0
40
0.5
40
0.5
40
1
40
1
40
1
40
1
41
1
10
53.8401048248753
20
-3.21672496804794
30
0
41
1
10
53.9492739108998
20
-2.94148487659905
30
0
41
1
10
54.05990702422
20
-2.66056876648347
30
0
41
1
10
54.2796770112654
20
-2.08530598312785
30
0
41
1
10
54.3887913621352
20
-1.79086843743633
30
0
41
1
10
54.4943992045736
20
-1.48811252101871
30
0
0
SPLINE
5
E2
100
AcDbEntity
8
1
62
256
6
ByLayer
370
18
48
1
60
0
100
AcDbSpline
70
4
71
3
72
12
73
8
40
0
40
0
40
0
40
0
40
0.499999999999981
40
0.499999999999981
40
0.749999999999991
40
0.749999999999991
40
1
40
1
40
1
40
1
41
1
10
5.6727180516464
20
2.37048891934583
30
0
41
1
10
5.60875140375779
20
2.39884181022359
30
0
41
1
10
5.54296668486236
20
2.42848020363272
30
0
41
1
10
5.44014184482035
20
2.47580251906268
30
0
41
1
10
5.40505622484557
20
2.49211541873842
30
0
41
1
10
5.33528613137372
20
2.5249355199559
30
0
41
1
10
5.30037210826055
20
2.54154709175205
30
0
41
1
10
5.26542096524895
20
2.55839293648046
30
0
0
SPLINE
5
E3
100
AcDbEntity
8
1
62
256
6
ByLayer
370
13
48
1
60
0
100
AcDbSpline
70
4
71
3
72
79
73
75
40
0
40
0
40
0
40
0
40
0.0060767612614567
40
0.0166396088370317
40
0.0377653039881845
40
0.0483281515637602
40
0.0588909991393359
40
0.0800166942904883
40
0.0905795418660634
40
0.101142389441639
40
0.122268084592792
40
0.132830932168367
40
0.143393779743941
40
0.164519474895095
40
0.175082322470671
40
0.185645170046246
40
0.206770865197399
40
0.217333712772975
40
0.22789656034855
40
0.249022255499703
40
0.259585103075279
40
0.270147950650856
40
0.291273645802006
40
0.301836493377581
40
0.312399340953157
40
0.33352503610431
40
0.344087883679886
40
0.354650731255463
40
0.375776426406614
40
0.38633927398219
40
0.396902121557765
40
0.418027816708917
40
0.428590664284493
40
0.43915351186007
40
0.460279207011221
40
0.470842054586797
40
0.481404902162373
40
0.502530597313525
40
0.513093444889101
40
0.523656292464676
40
0.544781987615828
40
0.555344835191404
40
0.565907682766978
40
0.587033377918132
40
0.597596225493707
40
0.608159073069284
40
0.629284768220435
40
0.639847615796011
40
0.650410463371587
40
0.671536158522739
40
0.682099006098315
40
0.692661853673892
40
0.713787548825043
40
0.724350396400619
40
0.734913243976195
40
0.756038939127346
40
0.766601786702923
40
0.777164634278498
40
0.79829032942965
40
0.808853177005225
40
0.819416024580802
40
0.840541719731954
40
0.851104567307529
40
0.861667414883106
40
0.882793110034257
40
0.893355957609833
40
0.903918805185409
40
0.925044500336561
40
0.935607347912137
40
0.946170195487712
40
0.967295890638865
40
0.977858738214441
40
0.988421585790016
40
1
40
1
40
1
40
1
41
1
10
46.9071831066656
20
-1.3480997031443
30
0
41
1
10
46.8794657214658
20
-1.35062163142248
30
0
41
1
10
46.8035696960277
20
-1.35743731631109
30
0
41
1
10
46.6313341243069
20
-1.37231661587523
30
0
41
1
10
46.4386250100092
20
-1.38779670894834
30
0
41
1
10
46.2459039587104
20
-1.40209985640189
30
0
41
1
10
46.0532088829415
20
-1.41552612676145
30
0
41
1
10
45.8604999171599
20
-1.42775411222976
30
0
41
1
10
45.6677790221374
20
-1.43877589810964
30
0
41
1
10
45.4750840799055
20
-1.44888525288042
30
0
41
1
10
45.2823751917935
20
-1.4577697622363
30
0
41
1
10
45.089654260693
20
-1.46542404368245
30
0
41
1
10
44.8969592272295
20
-1.47213661749615
30
0
41
1
10
44.7042502156037
20
-1.47760927395825
30
0
41
1
10
44.5115292281946
20
-1.48184536203351
30
0
41
1
10
44.3188341797555
20
-1.48512108545347
30
0
41
1
10
44.1261252023167
20
-1.48715350513049
30
0
41
1
10
43.933404281202
20
-1.48794858406745
30
0
41
1
10
43.7407093137528
20
-1.48776935914981
30
0
41
1
10
43.5480004145134
20
-1.48634922293627
30
0
41
1
10
43.35527952299
20
-1.48369686974687
30
0
41
1
10
43.1625845485816
20
-1.48006123599802
30
0
41
1
10
42.969875580591
20
-1.47519298746275
30
0
41
1
10
42.7771545473229
20
-1.46910348709275
30
0
41
1
10
42.5844594161912
20
-1.46202842808185
30
0
41
1
10
42.3917503139617
20
-1.45373993319021
30
0
41
1
10
42.1990292639308
20
-1.44425699229058
30
0
41
1
10
42.0063341825664
20
-1.43379640933028
30
0
41
1
10
41.8136252051473
20
-1.42215265813459
30
0
41
1
10
41.620904297039
20
-1.40934750620605
30
0
41
1
10
41.4282093500662
20
-1.39557805199345
30
0
41
1
10
41.2355004904744
20
-1.38066187350174
30
0
41
1
10
41.0427796600361
20
-1.36462340059026
30
0
41
1
10
40.850084745634
20
-1.34763938736447
30
0
41
1
10
40.6573758384135
20
-1.32955122357748
30
0
41
1
10
40.4646548609805
20
-1.31038600571435
30
0
41
1
10
40.2719597733377
20
-1.29030051449118
30
0
41
1
10
40.0792506908444
20
-1.26916255815954
30
0
41
1
10
39.8865296161765
20
-1.24700479914762
30
0
41
1
10
39.6938344771137
20
-1.22396049119126
30
0
41
1
10
39.5011254049214
20
-1.19992437574294
30
0
41
1
10
39.3084043885447
20
-1.17493159094965
30
0
41
1
10
39.1157093271885
20
-1.14909141530381
30
0
41
1
10
38.9230003412218
20
-1.12232599046806
30
0
41
1
10
38.7302793879246
20
-1.09467290497207
30
0
41
1
10
38.537584376747
20
-1.06621701506572
30
0
41
1
10
38.344875404005
20
-1.03690823205139
30
0
41
1
10
38.1521543902851
20
-1.00678645951856
30
0
41
1
10
37.9594592933151
20
-0.975911906160945
30
0
41
1
10
37.7667502482819
20
-0.944262831991978
30
0
41
1
10
37.5740292657222
20
-0.911881782557828
30
0
41
1
10
37.381334241156
20
-0.878803574524852
30
0
41
1
10
37.1886253096891
20
-0.845034998055212
30
0
41
1
10
36.9959044373367
20
-0.810620661815761
30
0
41
1
10
36.8032095150029
20
-0.775569762935845
30
0
41
1
10
36.6105006592585
20
-0.739917690071877
30
0
41
1
10
36.4177798101566
20
-0.703710924103348
30
0
41
1
10
36.225084874336
20
-0.666932908475388
30
0
41
1
10
36.0323759432147
20
-0.629647594238975
30
0
41
1
10
35.8396549422203
20
-0.591903146081904
30
0
41
1
10
35.6469598253932
20
-0.553656551705728
30
0
41
1
10
35.4542507072281
20
-0.514998874378762
30
0
41
1
10
35.2615295972235
20
-0.475977814725809
30
0
41
1
10
35.0688344278446
20
-0.4365259202944
30
0
41
1
10
34.8761253264821
20
-0.396761144475164
30
0
41
1
10
34.6834042815169
20
-0.356732507456854
30
0
41
1
10
34.4907092073838
20
-0.316348216081167
30
0
41
1
10
34.2980002359695
20
-0.275752795395959
30
0
41
1
10
34.1052793282171
20
-0.234996377297279
30
0
41
1
10
33.9125843692585
20
-0.193963007947588
30
0
41
1
10
33.7198754578194
20
-0.152823380368972
30
0
41
1
10
33.5271544951606
20
-0.11162855059564
30
0
41
1
10
33.3780015178945
20
-0.0795902078388053
30
0
41
1
10
33.277017187855
20
-0.0578986476746479
30
0
41
1
10
33.2242077780066
20
-0.0465577281642027
30
0
0
SPLINE
5
E4
100
AcDbEntity
8
1
62
256
6
ByLayer
370
18
48
1
60
0
100
AcDbSpline
70
4
71
3
72
12
73
8
40
0
40
0
40
0
40
0
40
0.5
40
0.5
40
0.75
40
0.75
40
1
40
1
40
1
40
1
41
1
10
8.22430578280313
20
2.92054469580424
30
0
41
1
10
8.87847156180936
20
3.03138067672455
30
0
41
1
10
9.53655277300118
20
3.10385105982309
30
0
41
1
10
10.5280572926435
20
3.16135395670005
30
0
41
1
10
10.8593126207623
20
3.17183229981489
30
0
41
1
10
11.5233188471347
20
3.17483638682501
30
0
41
1
10
11.8553959496802
20
3.16732184551333
30
0
41
1
10
12.185417454106
20
3.15031504130775
30
0
0
SPLINE
5
E5
100
AcDbEntity
8
1
62
256
6
ByLayer
370
18
48
1
60
0
100
AcDbSpline
70
4
71
3
72
30
73
26
40
0
40
0
40
0
40
0
40
0.0312500000000017
40
0.0312500000000017
40
0.0625000000000035
40
0.0625000000000035
40
0.0937500000000052
40
0.0937500000000052
40
0.125000000000007
40
0.125000000000007
40
0.187500000000006
40
0.187500000000006
40
0.250000000000006
40
0.250000000000006
40
0.375
40
0.375
40
0.4375
40
0.4375
40
0.499999999999999
40
0.499999999999999
40
0.749999999999997
40
0.749999999999997
40
0.874999999999999
40
0.874999999999999
40
1
40
1
40
1
40
1
41
1
10
4.02989751256217
20
-3.01935878931329
30
0
41
1
10
4.05092488148881
20
-3.00696137187555
30
0
41
1
10
4.07755015048016
20
-2.99442925886183
30
0
41
1
10
4.13696064930366
20
-2.97044745708243
30
0
41
1
10
4.16985053096602
20
-2.95889264429005
30
0
41
1
10
4.24034811695037
20
-2.93658202336303
30
0
41
1
10
4.27807713974442
20
-2.92581041668632
30
0
41
1
10
4.35543907379838
20
-2.90548715339952
30
0
41
1
10
4.39530664325557
20
-2.89585937947035
30
0
41
1
10
4.51766344200769
20
-2.86836202143198
30
0
41
1
10
4.60303499261948
20
-2.85183761013798
30
0
41
1
10
4.77813867451371
20
-2.82203723206436
30
0
41
1
10
4.86682188722563
20
-2.80893984140261
30
0
41
1
10
5.13538020629073
20
-2.7742236935058
30
0
41
1
10
5.31772394158003
20
-2.75714111017425
30
0
41
1
10
5.59485964015693
20
-2.73947886223951
30
0
41
1
10
5.68812438546175
20
-2.73492910798495
30
0
41
1
10
5.87435411785685
20
-2.72851250452175
30
0
41
1
10
5.96724960942535
20
-2.7266388035178
30
0
41
1
10
6.43070674269919
20
-2.7235989436887
30
0
41
1
10
6.79829085909191
20
-2.74146185989986
30
0
41
1
10
7.34496685640772
20
-2.79361756993799
30
0
41
1
10
7.52728015453491
20
-2.8153800628242
30
0
41
1
10
7.88201935592687
20
-2.86449901795578
30
0
41
1
10
8.05522679125127
20
-2.89189746832295
30
0
41
1
10
8.22430578280313
20
-2.92054469580424
30
0
0
SPLINE
5
E6
100
AcDbEntity
8
1
62
256
6
ByLayer
370
18
48
1
60
0
100
AcDbSpline
70
4
71
3
72
11
73
7
40
0
40
0
40
0
40
0
40
0.20297955191075
40
0.437190053189625
40
0.702785987559014
40
1
40
1
40
1
40
1
41
1
10
43.5435732303919
20
0.0508325091483357
30
0
41
1
10
43.6211904552349
20
0.0341237471814395
30
0
41
1
10
43.7880995879524
20
-0.0061057008690852
30
0
41
1
10
44.0553869471182
20
-0.0854824486907262
30
0
41
1
10
44.3575382484588
20
-0.194483681715298
30
0
41
1
10
44.570170308877
20
-0.286250737112255
30
0
41
1
10
44.6822514153245
20
-0.338864914027681
30
0
0
SPLINE
5
E7
100
AcDbEntity
8
1
62
256
6
ByLayer
370
18
48
1
60
0
100
AcDbSpline
70
4
71
2
72
6
73
3
40
0
40
0
40
0
40
1
40
1
40
1
41
1
10
11.4517521863289
20
-0.0417804779918356
30
0
41
1
10
11.0166410122137
20
0.0550238467679662
30
0
41
1
10
10.5829117462065
20
0.237975066605912
30
0
0
SPLINE
5
E8
100
AcDbEntity
8
1
62
256
6
ByLayer
370
18
48
1
60
0
100
AcDbSpline
70
4
71
2
72
6
73
3
40
0
40
0
40
0
40
1
40
1
40
1
41
1
10
33.2414765250287
20
-0.0502663134668921
30
0
41
1
10
32.7319965726784
20
0.0565329721731302
30
0
41
1
10
32.2044591220425
20
0.29464077719976
30
0
0
SPLINE
5
E9
100
AcDbEntity
8
1
62
256
6
ByLayer
370
18
48
1
60
0
100
AcDbSpline
70
4
71
3
72
20
73
16
40
0
40
0
40
0
40
0
40
0.0965972859246978
40
0.18037592290902
40
0.25361730031258
40
0.314529179331088
40
0.373831265668305
40
0.445808280509363
40
0.526522945440439
40
0.606012736913153
40
0.669423969986721
40
0.742440257216702
40
0.831806085337803
40
0.939310865809159
40
1
40
1
40
1
40
1
41
1
10
34.3889985749289
20
-3.12515925348154
30
0
41
1
10
34.6868634563119
20
-3.12326425539146
30
0
41
1
10
35.2454542971349
20
-3.12156740274145
30
0
41
1
10
36.0536990070376
20
-3.12498624753874
30
0
41
1
10
36.7262262270874
20
-3.12997983657621
30
0
41
1
10
37.3386734887303
20
-3.12966622100583
30
0
41
1
10
37.9449673287803
20
-3.13206348139224
30
0
41
1
10
38.6145054048386
20
-3.13157366590798
30
0
41
1
10
39.3475171858141
20
-3.13446379921822
30
0
41
1
10
40.0536932980471
20
-3.13414707570405
30
0
41
1
10
40.7322568557518
20
-3.13548299199019
30
0
41
1
10
41.4473972271458
20
-3.13707257133447
30
0
41
1
10
42.2871728532831
20
-3.13780169531978
30
0
41
1
10
43.1047113545939
20
-3.13787100341691
30
0
41
1
10
43.633722842537
20
-3.13993211449446
30
0
41
1
10
43.8246753771269
20
-3.14081819261713
30
0
0
SPLINE
5
EA
100
AcDbEntity
8
1
62
256
6
ByLayer
370
18
48
1
60
0
100
AcDbSpline
70
4
71
3
72
20
73
16
40
0
40
0
40
0
40
0
40
0.0541957862434497
40
0.163721776664341
40
0.263622808732411
40
0.34422101721334
40
0.406284051659298
40
0.470566020877545
40
0.552312361358595
40
0.645227685700158
40
0.712387861617277
40
0.763584265638956
40
0.836430192795957
40
0.931243595369186
40
1
40
1
40
1
40
1
41
1
10
22.1605174738616
20
3.10226882445218
30
0
41
1
10
22.0123452101503
20
3.1012534750634
30
0
41
1
10
21.5638334877763
20
3.09879860302638
30
0
41
1
10
20.8272023957153
20
3.09461721544395
30
0
41
1
10
20.0319209997191
20
3.100956946217
30
0
41
1
10
19.3623093283266
20
3.09827975975944
30
0
41
1
10
18.7877341523768
20
3.09729694504705
30
0
41
1
10
18.2107968516342
20
3.09756493456999
30
0
41
1
10
17.5480460553732
20
3.09421124967031
30
0
41
1
10
16.8772194627792
20
3.09480334528669
30
0
41
1
10
16.2915765119368
20
3.09252914924426
30
0
41
1
10
15.7610526014634
20
3.0914435374882
30
0
41
1
10
15.1559312206262
20
3.09097350594769
30
0
41
1
10
14.5069397028905
20
3.08712399084453
30
0
41
1
10
14.0524600026485
20
3.08637088345205
30
0
41
1
10
13.861550802184
20
3.08617745209446
30
0
0
SPLINE
5
EB
100
AcDbEntity
8
1
62
256
6
ByLayer
370
18
48
1
60
0
100
AcDbSpline
70
4
71
2
72
6
73
3
40
0
40
0
40
0
40
1
40
1
40
1
41
1
10
21.7926871814667
20
0.0510469429306113
30
0
41
1
10
22.3378655122983
20
-0.064940905302052
30
0
41
1
10
22.8778845555967
20
-0.316629441169852
30
0
0
SPLINE
5
EC
100
AcDbEntity
8
1
62
256
6
ByLayer
370
18
48
1
60
0
100
AcDbSpline
70
4
71
3
72
21
73
17
40
0
40
0
40
0
40
0
40
0.102527151396698
40
0.197084179006624
40
0.283234219144447
40
0.349424012761496
40
0.395942459960697
40
0.456966025130768
40
0.541391419686792
40
0.615668371282562
40
0.674076719448456
40
0.730468883040147
40
0.803702610627412
40
0.894475409502834
40
0.993993707705505
40
1
40
1
40
1
40
1
41
1
10
12.6340080409606
20
-3.08572847205235
30
0
41
1
10
12.9443302749891
20
-3.08557757956928
30
0
41
1
10
13.5416583477042
20
-3.08589969850382
30
0
41
1
10
14.4100108615853
20
-3.08654905414912
30
0
41
1
10
15.1559312206251
20
-3.09097350594774
30
0
41
1
10
15.7610526014661
20
-3.09144353748809
30
0
41
1
10
16.2915765119293
20
-3.09252914924471
30
0
41
1
10
16.8772194628245
20
-3.0948033452843
30
0
41
1
10
17.5480460551457
20
-3.0942112496825
30
0
41
1
10
18.210796852298
20
-3.09756493453449
30
0
41
1
10
18.7877341505022
20
-3.09729694514735
30
0
41
1
10
19.3623093359606
20
-3.09827975935096
30
0
41
1
10
20.031920957567
20
-3.1009569484726
30
0
41
1
10
20.827202601796
20
-3.09461720441684
30
0
41
1
10
21.4308666653145
20
-3.09804386463708
30
0
41
1
10
21.7508689949706
20
-3.09981446958
30
0
41
1
10
21.7690696468218
20
-3.09991541387365
30
0
0
SPLINE
5
ED
100
AcDbEntity
8
1
62
256
6
ByLayer
370
18
48
1
60
0
100
AcDbSpline
70
4
71
3
72
8
73
4
40
0
40
0
40
0
40
0
40
1
40
1
40
1
40
1
41
1
10
21.8555156959516
20
-3.10039820572283
30
0
41
1
10
21.9575455593587
20
-3.10097381813466
30
0
41
1
10
22.0592156709257
20
-3.10157441696711
30
0
41
1
10
22.1607469366713
20
-3.1022701907354
30
0
0
SPLINE
5
EE
100
AcDbEntity
8
1
62
256
6
ByLayer
370
18
48
1
60
0
100
AcDbSpline
70
4
71
3
72
20
73
16
40
0
40
0
40
0
40
0
40
0.0241204892050777
40
0.0911681820865578
40
0.187868560152869
40
0.286895898230955
40
0.387432997910028
40
0.482606876473053
40
0.571249274931949
40
0.653894733715177
40
0.748629445124391
40
0.81552966686832
40
0.896639009802465
40
0.99962418053392
40
1
40
1
40
1
40
1
41
1
10
44.0400697865525
20
3.13799876483742
30
0
41
1
10
43.9755977286424
20
3.13718217346457
30
0
41
1
10
43.7294661925935
20
3.1344077496895
30
0
41
1
10
43.1775333472448
20
3.1242494324176
30
0
41
1
10
42.4453794948956
20
3.1396202218917
30
0
41
1
10
41.5962113899966
20
3.13643572105406
30
0
41
1
10
40.750415678439
20
3.13712423761098
30
0
41
1
10
39.9340696593478
20
3.13408305320692
30
0
41
1
10
39.1691710719849
20
3.13375727488099
30
0
41
1
10
38.4055910786312
20
3.13161805836791
30
0
41
1
10
37.7041461891384
20
3.1314253550465
30
0
41
1
10
37.00838919904
20
3.12912979568378
30
0
41
1
10
36.287793649577
20
3.1284315075151
30
0
41
1
10
35.7583711583901
20
3.12739061132089
30
0
41
1
10
35.4617424784757
20
3.12687031867796
30
0
41
1
10
35.4606639399115
20
3.1268684277286
30
0
0
LINE
5
7B
100
AcDbEntity
8
SK1
62
256
6
ByLayer
370
18
48
1
60
0
100
AcDbLine
10
-36
20
2
30
0
11
-36
21
-2
31
0
39
0
210
0
220
0
230
1
0
LINE
5
7D
100
AcDbEntity
8
SK1
62
256
6
ByLayer
370
18
48
1
60
0
100
AcDbLine
10
-34.845299
20
4
30
0
11
-34.845299
21
-4
31
0
39
0
210
0
220
0
230
1
0
LINE
5
7E
100
AcDbEntity
8
SK1
62
256
6
ByLayer
370
18
48
1
60
0
100
AcDbLine
10
0
20
-4
30
0
11
0
21
4
31
0
39
0
210
0
220
0
230
1
0
LINE
5
7F
100
AcDbEntity
8
1
62
256
6
ByLayer
370
18
48
1
60
0
100
AcDbLine
10
54.431179
20
-0.946113
30
0
11
54.437304
21
-0.906071
31
0
39
0
210
0
220
0
230
1
0
LINE
5
80
100
AcDbEntity
8
1
62
256
6
ByLayer
370
18
48
1
60
0
100
AcDbLine
10
53.429833
20
-1.75002
30
0
11
54.431179
21
-0.946113
31
0
39
0
210
0
220
0
230
1
0
LINE
5
81
100
AcDbEntity
8
1
62
256
6
ByLayer
370
13
48
1
60
0
100
AcDbLine
10
0.73441
20
3.577952
30
0
11
0.73441
21
-3.577952
31
0
39
0
210
0
220
0
230
1
0
LINE
5
82
100
AcDbEntity
8
1
62
256
6
ByLayer
370
13
48
1
60
0
100
AcDbLine
10
1.470349
20
3.155905
30
0
11
1.470349
21
-3.155905
31
0
39
0
210
0
220
0
230
1
0
LINE
5
83
100
AcDbEntity
8
1
62
256
6
ByLayer
370
18
48
1
60
0
100
AcDbLine
10
0
20
-4
30
0
11
0
21
4
31
0
39
0
210
0
220
0
230
1
0
LINE
5
84
100
AcDbEntity
8
80
62
256
6
ByLayer
370
18
48
1
60
0
100
AcDbLine
10
0
20
0
30
0
11
-5
21
0
31
0
39
0
210
0
220
0
230
1
0
LINE
5
85
100
AcDbEntity
8
4
62
256
6
ByLayer
370
18
48
0.05
60
0
100
AcDbLine
10
55
20
0
30
0
11
0
21
0
31
0
39
0
210
0
220
0
230
1
0
LINE
5
87
100
AcDbEntity
8
SK4
62
256
6
ByLayer
370
18
48
0.05
60
0
100
AcDbLine
10
60
20
0
30
0
11
-41
21
0
31
0
39
0
210
0
220
0
230
1
0
LINE
5
89
100
AcDbEntity
8
SK1
62
256
6
ByLayer
370
18
48
1
60
0
100
AcDbLine
10
-36
20
-2
30
0
11
-34.845299
21
-4
31
0
39
0
210
0
220
0
230
1
0
LINE
5
8A
100
AcDbEntity
8
SK1
62
256
6
ByLayer
370
18
48
1
60
0
100
AcDbLine
10
-34.845299
20
4
30
0
11
-36
21
2
31
0
39
0
210
0
220
0
230
1
0
LINE
5
8B
100
AcDbEntity
8
SK1
62
256
6
ByLayer
370
18
48
1
60
0
100
AcDbLine
10
-34.845299
20
-4
30
0
11
0
21
-4
31
0
39
0
210
0
220
0
230
1
0
LINE
5
8C
100
AcDbEntity
8
SK1
62
256
6
ByLayer
370
18
48
1
60
0
100
AcDbLine
10
0
20
4
30
0
11
-34.845299
21
4
31
0
39
0
210
0
220
0
230
1
0
LINE
5
8D
100
AcDbEntity
8
1
62
256
6
ByLayer
370
18
48
1
60
0
100
AcDbLine
10
1.470349
20
-3.155905
30
0
11
3.844629
21
-3.160178
31
0
39
0
210
0
220
0
230
1
0
LINE
5
8E
100
AcDbEntity
8
1
62
256
6
ByLayer
370
18
48
1
60
0
100
AcDbLine
10
11.240572
20
-3.173491
30
0
11
12.19888
21
-3.175216
31
0
39
0
210
0
220
0
230
1
0
LINE
5
8F
100
AcDbEntity
8
1
62
256
6
ByLayer
370
18
48
1
60
0
100
AcDbLine
10
33.076333
20
-3.212795
30
0
11
33.947925
21
-3.214364
31
0
39
0
210
0
220
0
230
1
0
LINE
5
90
100
AcDbEntity
8
1
62
256
6
ByLayer
370
18
48
1
60
0
100
AcDbLine
10
33.947925
20
3.214364
30
0
11
33.076333
21
3.212795
31
0
39
0
210
0
220
0
230
1
0
LINE
5
91
100
AcDbEntity
8
1
62
256
6
ByLayer
370
18
48
1
60
0
100
AcDbLine
10
12.19888
20
3.175216
30
0
11
11.240572
21
3.173491
31
0
39
0
210
0
220
0
230
1
0
LINE
5
92
100
AcDbEntity
8
1
62
256
6
ByLayer
370
18
48
1
60
0
100
AcDbLine
10
3.844629
20
3.160178
30
0
11
1.470349
21
3.155905
31
0
39
0
210
0
220
0
230
1
0
LINE
5
93
100
AcDbEntity
8
81
62
256
6
ByLayer
370
18
48
1
60
0
100
AcDbLine
10
55
20
0
30
0
11
60
21
0
31
0
39
0
210
0
220
0
230
1
0
LINE
5
94
100
AcDbEntity
8
SK2
62
256
6
ByLayer
370
13
48
1
60
0
100
AcDbLine
10
-44.625163
20
-4
30
0
11
-44.625163
21
33.117107
31
0
39
0
210
0
220
0
230
1
0
LINE
5
96
100
AcDbEntity
8
SK2
62
256
6
ByLayer
370
13
48
1
60
0
100
AcDbLine
10
-37.5875
20
4
30
0
11
-46.625163
21
4
31
0
39
0
210
0
220
0
230
1
0
LINE
5
97
100
AcDbEntity
8
SK2
62
256
6
ByLayer
370
13
48
1
60
0
100
AcDbLine
10
-37.5875
20
-4
30
0
11
-46.625163
21
-4
31
0
39
0
210
0
220
0
230
1
0
LINE
5
98
100
AcDbEntity
8
1
62
256
6
ByLayer
370
18
48
1
60
1
100
AcDbLine
10
-44.625163
20
4
30
0
11
-44.164379
21
0.500002
31
0
39
0
210
0
220
0
230
1
0
LINE
5
99
100
AcDbEntity
8
1
62
256
6
ByLayer
370
18
48
1
60
1
100
AcDbLine
10
-44.164379
20
0.500002
30
0
11
-45.085946
21
0.499998
31
0
39
0
210
0
220
0
230
1
0
LINE
5
9A
100
AcDbEntity
8
1
62
256
6
ByLayer
370
18
48
1
60
1
100
AcDbLine
10
-45.085946
20
0.499998
30
0
11
-44.625163
21
4
31
0
39
0
210
0
220
0
230
1
0
LINE
5
9B
100
AcDbEntity
8
1
62
256
6
ByLayer
370
18
48
1
60
1
100
AcDbLine
10
-44.625163
20
-4
30
0
11
-45.085946
21
-0.500002
31
0
39
0
210
0
220
0
230
1
0
LINE
5
9C
100
AcDbEntity
8
1
62
256
6
ByLayer
370
18
48
1
60
1
100
AcDbLine
10
-45.085946
20
-0.500002
30
0
11
-44.164379
21
-0.499998
31
0
39
0
210
0
220
0
230
1
0
LINE
5
9D
100
AcDbEntity
8
1
62
256
6
ByLayer
370
18
48
1
60
1
100
AcDbLine
10
-44.164379
20
-0.499998
30
0
11
-44.625163
21
-4
31
0
39
0
210
0
220
0
230
1
0
LINE
5
9E
100
AcDbEntity
8
2
62
256
6
ByLayer
370
13
48
1
60
0
100
AcDbLine
10
67.083343
20
30.960193
30
0
11
67.083343
21
-12
31
0
39
0
210
0
220
0
230
1
0
LINE
5
A0
100
AcDbEntity
8
2
62
256
6
ByLayer
370
13
48
1
60
0
100
AcDbLine
10
55.3331
20
3.25
30
0
11
69.083343
21
3.25
31
0
39
0
210
0
220
0
230
1
0
LINE
5
A1
100
AcDbEntity
8
2
62
256
6
ByLayer
370
13
48
1
60
0
100
AcDbLine
10
55.3331
20
-3.25
30
0
11
69.083343
21
-3.25
31
0
39
0
210
0
220
0
230
1
0
LINE
5
A2
100
AcDbEntity
8
1
62
256
6
ByLayer
370
18
48
1
60
1
100
AcDbLine
10
67.083343
20
3.25
30
0
11
66.622559
21
6.749998
31
0
39
0
210
0
220
0
230
1
0
LINE
5
A3
100
AcDbEntity
8
1
62
256
6
ByLayer
370
18
48
1
60
1
100
AcDbLine
10
66.622559
20
6.749998
30
0
11
67.544126
21
6.750002
31
0
39
0
210
0
220
0
230
1
0
LINE
5
A4
100
AcDbEntity
8
1
62
256
6
ByLayer
370
18
48
1
60
1
100
AcDbLine
10
67.544126
20
6.750002
30
0
11
67.083343
21
3.25
31
0
39
0
210
0
220
0
230
1
0
LINE
5
A5
100
AcDbEntity
8
1
62
256
6
ByLayer
370
18
48
1
60
1
100
AcDbLine
10
67.083343
20
-3.25
30
0
11
67.544126
21
-6.749998
31
0
39
0
210
0
220
0
230
1
0
LINE
5
A6
100
AcDbEntity
8
1
62
256
6
ByLayer
370
18
48
1
60
1
100
AcDbLine
10
67.544126
20
-6.749998
30
0
11
66.622559
21
-6.750002
31
0
39
0
210
0
220
0
230
1
0
LINE
5
A7
100
AcDbEntity
8
1
62
256
6
ByLayer
370
18
48
1
60
1
100
AcDbLine
10
66.622559
20
-6.750002
30
0
11
67.083343
21
-3.25
31
0
39
0
210
0
220
0
230
1
0
LINE
5
F5
100
AcDbEntity
8
1
62
256
6
ByLayer
370
18
48
1
60
1
100
AcDbLine
10
-44.625163
20
4
30
0
11
-44.164379
21
0.500002
31
0
39
0
210
0
220
0
230
1
0
LINE
5
F6
100
AcDbEntity
8
1
62
256
6
ByLayer
370
18
48
1
60
1
100
AcDbLine
10
-44.164379
20
0.500002
30
0
11
-45.085946
21
0.499998
31
0
39
0
210
0
220
0
230
1
0
LINE
5
F7
100
AcDbEntity
8
1
62
256
6
ByLayer
370
18
48
1
60
1
100
AcDbLine
10
-45.085946
20
0.499998
30
0
11
-44.625163
21
4
31
0
39
0
210
0
220
0
230
1
0
LINE
5
F9
100
AcDbEntity
8
1
62
256
6
ByLayer
370
18
48
1
60
1
100
AcDbLine
10
-44.625163
20
-4
30
0
11
-45.085946
21
-0.500002
31
0
39
0
210
0
220
0
230
1
0
LINE
5
FA
100
AcDbEntity
8
1
62
256
6
ByLayer
370
18
48
1
60
1
100
AcDbLine
10
-45.085946
20
-0.500002
30
0
11
-44.164379
21
-0.499998
31
0
39
0
210
0
220
0
230
1
0
LINE
5
FB
100
AcDbEntity
8
1
62
256
6
ByLayer
370
18
48
1
60
1
100
AcDbLine
10
-44.164379
20
-0.499998
30
0
11
-44.625163
21
-4
31
0
39
0
210
0
220
0
230
1
0
LINE
5
FF
100
AcDbEntity
8
1
62
256
6
ByLayer
370
18
48
1
60
1
100
AcDbLine
10
67.083343
20
3.25
30
0
11
66.622559
21
6.749998
31
0
39
0
210
0
220
0
230
1
0
LINE
5
100
100
AcDbEntity
8
1
62
256
6
ByLayer
370
18
48
1
60
1
100
AcDbLine
10
66.622559
20
6.749998
30
0
11
67.544126
21
6.750002
31
0
39
0
210
0
220
0
230
1
0
LINE
5
101
100
AcDbEntity
8
1
62
256
6
ByLayer
370
18
48
1
60
1
100
AcDbLine
10
67.544126
20
6.750002
30
0
11
67.083343
21
3.25
31
0
39
0
210
0
220
0
230
1
0
LINE
5
103
100
AcDbEntity
8
1
62
256
6
ByLayer
370
18
48
1
60
1
100
AcDbLine
10
67.083343
20
-3.25
30
0
11
67.544126
21
-6.749998
31
0
39
0
210
0
220
0
230
1
0
LINE
5
104
100
AcDbEntity
8
1
62
256
6
ByLayer
370
18
48
1
60
1
100
AcDbLine
10
67.544126
20
-6.749998
30
0
11
66.622559
21
-6.750002
31
0
39
0
210
0
220
0
230
1
0
LINE
5
105
100
AcDbEntity
8
1
62
256
6
ByLayer
370
18
48
1
60
1
100
AcDbLine
10
66.622559
20
-6.750002
30
0
11
67.083343
21
-3.25
31
0
39
0
210
0
220
0
230
1
0
MTEXT
5
EF
100
AcDbEntity
8
SK6
62
256
6
ByLayer
370
13
48
1
60
0
100
AcDbMText
10
-19.230726
20
35.790328
30
0
210
0
220
0
230
1
1
\W0.7539;860.1-0650-040A0-PM P1BM
40
3.5
41
0
44
1.084337
50
0
71
7
72
5
7
iso_b_vert
0
MTEXT
5
F3
100
AcDbEntity
8
SK2
62
256
6
ByLayer
370
18
48
1
60
0
100
AcDbMText
10
-46.189796
20
17.409024
30
0
210
0
220
0
230
1
1
%%c
40
3.5
41
0
44
1.084337
50
90
71
7
72
5
7
iso_b_vert
0
MTEXT
5
F4
100
AcDbEntity
8
SK2
62
256
6
ByLayer
370
18
48
1
60
0
100
AcDbMText
10
-46.189796
20
22.63168
30
0
210
0
220
0
230
1
1
\W0.7317;8,000
40
3.5
41
0
44
1.084337
50
90
71
7
72
5
7
iso_b_vert
0
MTEXT
5
FD
100
AcDbEntity
8
2
62
256
6
ByLayer
370
18
48
1
60
0
100
AcDbMText
10
65.518709
20
15.25211
30
0
210
0
220
0
230
1
1
%%c
40
3.5
41
0
44
1.084337
50
90
71
7
72
5
7
iso_b_vert
0
MTEXT
5
FE
100
AcDbEntity
8
2
62
256
6
ByLayer
370
18
48
1
60
0
100
AcDbMText
10
65.518709
20
20.474766
30
0
210
0
220
0
230
1
1
\W0.7317;6,500
40
3.5
41
0
44
1.084337
50
90
71
7
72
5
7
iso_b_vert
0
HATCH
5
F8
100
AcDbEntity
8
SK2
62
256
6
ByLayer
370
13
48
1
60
0
100
AcDbHatch
10
0
20
0
30
0
210
0
220
0
230
1
2
ANSI31
70
0
71
0
91
1
92
5
93
3
72
1
10
-44.6251625675374
20
4
11
-44.1643788259847
21
0.500001692553184
72
1
10
-44.1643788259847
20
0.500001692553184
11
-45.0859463090902
21
0.499998307446816
72
1
10
-45.0859463090902
20
0.499998307446816
11
-44.6251625675374
21
4
97
0
75
0
76
1
52
0
41
0.0062
77
0
78
1
53
45
43
0
44
0
45
-0.0139193969876572
46
0.0139193969876572
79
0
47
0
98
1
10
0
20
0
0
HATCH
5
FC
100
AcDbEntity
8
SK2
62
256
6
ByLayer
370
13
48
1
60
0
100
AcDbHatch
10
0
20
0
30
0
210
0
220
0
230
1
2
ANSI31
70
0
71
0
91
1
92
5
93
3
72
1
10
-44.6251625675374
20
-4
11
-45.0859463090902
21
-0.500001692553184
72
1
10
-45.0859463090902
20
-0.500001692553184
11
-44.1643788259847
21
-0.499998307446816
72
1
10
-44.1643788259847
20
-0.499998307446816
11
-44.6251625675374
21
-4
97
0
75
0
76
1
52
0
41
0.0062
77
0
78
1
53
45
43
0
44
0
45
-0.0139193969876572
46
0.0139193969876572
79
0
47
0
98
1
10
0
20
0
0
HATCH
5
102
100
AcDbEntity
8
2
62
256
6
ByLayer
370
13
48
1
60
0
100
AcDbHatch
10
0
20
0
30
0
210
0
220
0
230
1
2
ANSI31
70
0
71
0
91
1
92
5
93
3
72
1
10
67.083342615295
20
3.25
11
66.6225588737423
21
6.74999830744682
72
1
10
66.6225588737423
20
6.74999830744682
11
67.5441263568478
21
6.75000169255318
72
1
10
67.5441263568478
20
6.75000169255318
11
67.083342615295
21
3.25
97
0
75
0
76
1
52
0
41
0.0062
77
0
78
1
53
45
43
0
44
0
45
-0.0139193969876572
46
0.0139193969876572
79
0
47
0
98
1
10
0
20
0
0
HATCH
5
106
100
AcDbEntity
8
2
62
256
6
ByLayer
370
13
48
1
60
0
100
AcDbHatch
10
0
20
0
30
0
210
0
220
0
230
1
2
ANSI31
70
0
71
0
91
1
92
5
93
3
72
1
10
67.083342615295
20
-3.25
11
67.5441263568478
21
-6.74999830744682
72
1
10
67.5441263568478
20
-6.74999830744682
11
66.6225588737423
21
-6.75000169255318
72
1
10
66.6225588737423
20
-6.75000169255318
11
67.083342615295
21
-3.25
97
0
75
0
76
1
52
0
41
0.0062
77
0
78
1
53
45
43
0
44
0
45
-0.0139193969876572
46
0.0139193969876572
79
0
47
0
98
1
10
0
20
0
0
DIMENSION
5
108
100
AcDbEntity
8
2
62
256
6
ByLayer
370
13
48
1
60
0
100
AcDbDimension
2
_U0
10
53.7456
20
-13.463398
30
0
11
26.8728
21
-13.463398
31
0
70
32
71
1
72
1
41
1
210
0
220
0
230
1
3
Standard
100
AcDbAlignedDimension
13
0
23
0
33
0
14
53.7456
24
-3.25
34
0
50
0
100
AcDbRotatedDimension
1001
ACAD
1000
DSTYLE
1002
{
1070
   371
1070
    13
1070
   372
1070
    13
1070
   170
1070
     0
1070
   144
1040
1.0
1070
   277
1070
     2
1070
   278
1070
    44
1070
   146
1040
1.0
1070
   345
1005
16
1070
   347
1005
16
1070
   346
1005
16
1070
   344
1005
0
1070
   343
1005
0
1070
   172
1070
     1
1070
    76
1070
     0
1070
    75
1070
     0
1070
   282
1070
     0
1070
   281
1070
     0
1070
    71
1070
     0
1070
    74
1070
     0
1070
   279
1070
     0
1070
   173
1070
     1
1070
   340
1005
F0
1070
   271
1070
     2
1070
   272
1070
     2
1070
    77
1070
     1
1070
    73
1070
     1
1070
   171
1070
     3
1070
   274
1070
     4
1070
   177
1070
    35
1070
   176
1070
    35
1070
   178
1070
    35
1070
    48
1040
-0.1
1070
    41
1040
3.5
1070
   147
1040
1.75
1070
    42
1040
1.5875
1070
    44
1040
2.0
1070
   140
1040
3.5
1002
}
1001
ACAD_DSTYLE_DIM_LINETYPE
1070
   380
1005
16
1001
ACAD_DSTYLE_DIM_EXT1_LINETYPE
1070
   381
1005
16
1001
ACAD_DSTYLE_DIM_EXT2_LINETYPE
1070
   382
1005
16
0
DIMENSION
5
121
100
AcDbEntity
8
SK2
62
256
6
ByLayer
370
13
48
1
60
0
100
AcDbDimension
2
_U1
10
55
20
-32.692985
30
0
11
9.5
21
-32.692985
31
0
70
32
71
1
72
1
41
1
210
0
220
0
230
1
3
Standard
100
AcDbAlignedDimension
13
-36
23
-4
33
0
14
55
24
0
34
0
50
0
100
AcDbRotatedDimension
1001
ACAD
1000
DSTYLE
1002
{
1070
   371
1070
    13
1070
   372
1070
    13
1070
   170
1070
     0
1070
   144
1040
1.0
1070
   277
1070
     2
1070
   278
1070
    44
1070
   146
1040
1.0
1070
   345
1005
16
1070
   347
1005
16
1070
   346
1005
16
1070
   344
1005
0
1070
   343
1005
0
1070
   172
1070
     1
1070
    76
1070
     0
1070
    75
1070
     0
1070
   282
1070
     0
1070
   281
1070
     0
1070
    71
1070
     0
1070
    74
1070
     0
1070
   279
1070
     0
1070
   173
1070
     1
1070
   340
1005
F0
1070
   271
1070
     2
1070
   272
1070
     2
1070
    77
1070
     1
1070
    73
1070
     1
1070
   171
1070
     3
1070
   274
1070
     4
1070
   177
1070
    35
1070
   176
1070
    35
1070
   178
1070
    35
1070
    48
1040
-0.1
1070
    41
1040
3.5
1070
   147
1040
1.75
1070
    42
1040
1.5875
1070
    44
1040
2.0
1070
   140
1040
3.5
1002
}
1001
ACAD_DSTYLE_DIM_LINETYPE
1070
   380
1005
16
1001
ACAD_DSTYLE_DIM_EXT1_LINETYPE
1070
   381
1005
16
1001
ACAD_DSTYLE_DIM_EXT2_LINETYPE
1070
   382
1005
16
0
DIMENSION
5
139
100
AcDbEntity
8
SK2
62
256
6
ByLayer
370
13
48
1
60
0
100
AcDbDimension
2
_U2
10
55
20
14.859119
30
0
11
38.125
21
14.859119
31
0
70
32
71
1
72
1
41
1
210
0
220
0
230
1
3
Standard
100
AcDbAlignedDimension
13
21.25
23
3.25
33
0
14
55
24
0
34
0
50
0
100
AcDbRotatedDimension
1001
ACAD
1000
DSTYLE
1002
{
1070
   371
1070
    13
1070
   372
1070
    13
1070
   170
1070
     0
1070
   144
1040
1.0
1070
   277
1070
     2
1070
   278
1070
    44
1070
   146
1040
1.0
1070
   345
1005
16
1070
   347
1005
16
1070
   346
1005
16
1070
   344
1005
0
1070
   343
1005
0
1070
   172
1070
     1
1070
    76
1070
     0
1070
    75
1070
     0
1070
   282
1070
     0
1070
   281
1070
     0
1070
    71
1070
     0
1070
    74
1070
     0
1070
   279
1070
     0
1070
   173
1070
     1
1070
   340
1005
F0
1070
   271
1070
     2
1070
   272
1070
     2
1070
    77
1070
     1
1070
    73
1070
     1
1070
   171
1070
     3
1070
   274
1070
     4
1070
   177
1070
    35
1070
   176
1070
    35
1070
   178
1070
    35
1070
    48
1040
-0.1
1070
    41
1040
3.5
1070
   147
1040
1.75
1070
    42
1040
1.5875
1070
    44
1040
2.0
1070
   140
1040
3.5
1002
}
1001
ACAD_DSTYLE_DIM_LINETYPE
1070
   380
1005
16
1001
ACAD_DSTYLE_DIM_EXT1_LINETYPE
1070
   381
1005
16
1001
ACAD_DSTYLE_DIM_EXT2_LINETYPE
1070
   382
1005
16
0
DIMENSION
5
151
100
AcDbEntity
8
SK2
62
256
6
ByLayer
370
13
48
1
60
0
100
AcDbDimension
2
_U3
10
53.7456
20
-16.052503
30
0
11
72.333333
21
-16.052503
31
0
70
32
71
1
72
1
41
1
210
0
220
0
230
1
3
Standard
100
AcDbAlignedDimension
13
55
23
0
33
0
14
53.7456
24
-3.25
34
0
50
0
100
AcDbRotatedDimension
1001
ACAD
1000
DSTYLE
1002
{
1070
   371
1070
    13
1070
   372
1070
    13
1070
   170
1070
     0
1070
   144
1040
1.0
1070
   277
1070
     2
1070
   278
1070
    44
1070
   146
1040
1.0
1070
   345
1005
16
1070
   347
1005
16
1070
   346
1005
16
1070
   344
1005
0
1070
   343
1005
0
1070
   172
1070
     1
1070
    76
1070
     0
1070
    75
1070
     0
1070
   282
1070
     0
1070
   281
1070
     0
1070
    71
1070
     0
1070
    74
1070
     0
1070
   279
1070
     0
1070
   173
1070
     1
1070
   340
1005
F0
1070
   271
1070
     2
1070
   272
1070
     2
1070
    77
1070
     1
1070
    73
1070
     1
1070
   171
1070
     3
1070
   274
1070
     4
1070
   177
1070
    35
1070
   176
1070
    35
1070
   178
1070
    35
1070
    48
1040
-0.1
1070
    41
1040
3.5
1070
   147
1040
1.75
1070
    42
1040
1.5875
1070
    44
1040
2.0
1070
   140
1040
3.5
1002
}
1001
ACAD_DSTYLE_DIM_LINETYPE
1070
   380
1005
16
1001
ACAD_DSTYLE_DIM_EXT1_LINETYPE
1070
   381
1005
16
1001
ACAD_DSTYLE_DIM_EXT2_LINETYPE
1070
   382
1005
16
0
DIMENSION
5
16B
100
AcDbEntity
8
SK2
62
256
6
ByLayer
370
13
48
1
60
0
100
AcDbDimension
2
_U4
10
53.7456
20
-22.343428
30
0
11
8.8728
21
-22.343428
31
0
70
32
71
1
72
1
41
1
210
0
220
0
230
1
3
Standard
100
AcDbAlignedDimension
13
-36
23
-4
33
0
14
53.7456
24
-3.25
34
0
50
0
100
AcDbRotatedDimension
1001
ACAD
1000
DSTYLE
1002
{
1070
   371
1070
    13
1070
   372
1070
    13
1070
   170
1070
     0
1070
   144
1040
1.0
1070
   277
1070
     2
1070
   278
1070
    44
1070
   146
1040
1.0
1070
   345
1005
16
1070
   347
1005
16
1070
   346
1005
16
1070
   344
1005
0
1070
   343
1005
0
1070
   172
1070
     1
1070
    76
1070
     0
1070
    75
1070
     0
1070
   282
1070
     0
1070
   281
1070
     0
1070
    71
1070
     0
1070
    74
1070
     0
1070
   279
1070
     0
1070
   173
1070
     1
1070
   340
1005
F0
1070
   271
1070
     2
1070
   272
1070
     2
1070
    77
1070
     1
1070
    73
1070
     1
1070
   171
1070
     3
1070
   274
1070
     4
1070
   177
1070
    35
1070
   176
1070
    35
1070
   178
1070
    35
1070
    48
1040
-0.1
1070
    41
1040
3.5
1070
   147
1040
1.75
1070
    42
1040
1.5875
1070
    44
1040
2.0
1070
   140
1040
3.5
1002
}
1001
ACAD_DSTYLE_DIM_LINETYPE
1070
   380
1005
16
1001
ACAD_DSTYLE_DIM_EXT1_LINETYPE
1070
   381
1005
16
1001
ACAD_DSTYLE_DIM_EXT2_LINETYPE
1070
   382
1005
16
0
ENDSEC
0
SECTION
2
OBJECTS
0
DICTIONARY
5
1f3
330
0
100
AcDbDictionary
280
0
281
1
3
ACAD_GROUP
350
1f4
3
ACAD_MLINESTYLE
350
1f5
0
DICTIONARY
5
1f4
330
0
100
AcDbDictionary
280
0
281
1
0
DICTIONARY
5
1f5
330
0
100
AcDbDictionary
280
0
281
1
3
Standard
350
18
0
MLINESTYLE
5
18
330
1f5
100
AcDbMlineStyle
2
Standard
70
0
3

62
256
51
90
52
90
71
2
49
-0.5
62
256
6
ByLayer
49
0.5
62
256
6
ByLayer
0
RASTERVARIABLES
5
1e1
330

100
AcDbRasterVariables
90
0
70
1
71
1
72
1
0
ENDSEC
0
EOF
