0
SECTION
2
HEADER
9
$ACADVER
1
AC1015
9
$DWGCODEPAGE
3
ANSI_1252
9
$HANDSEED
5
1fa
9
$ANGBASE
50
0
9
$ANGDIR
70
0
9
$ATTMODE
70
1
9
$AUNITS
70
0
9
$AUPREC
70
0
9
$CECOLOR
62
256
9
$CELTSCALE
40
1
9
$CELTYPE
6
ByLayer
9
$CELWEIGHT
370
18
9
$CLAYER
8
0
9
$CMLJUST
70
0
9
$CMLSCALE
40
1
9
$CMLSTYLE
2
Standard
9
$DIMSTYLE
2
Standard
9
$TEXTSIZE
40
0.2
9
$TEXTSTYLE
7
Standard
9
$LUNITS
70
2
9
$LUPREC
70
4
9
$EXTNAMES
290
1
9
$INSUNITS
70
4
9
$LTSCALE
40
1
9
$LWDISPLAY
290
1
9
$PDMODE
70
0
9
$PDSIZE
40
0
9
$PLINEGEN
70
0
0
ENDSEC
0
SECTION
2
CLASSES
0
CLASS
1
RASTERVARIABLES
2
AcDbRasterVariables
3
ISM
90
0
280
0
281
0
0
ENDSEC
0
SECTION
2
TABLES
0
TABLE
2
VPORT
5
1f0
100
AcDbSymbolTable
0
VPORT
5
1
100
AcDbSymbolTableRecord
100
AcDbViewportTableRecord
2
*Active
70
0
10
0
20
0
11
1
21
1
12
-1
22
1
13
0
23
0
14
0.5
24
0.5
15
10
25
10
16
0
26
0
36
1
17
0
27
0
37
0
0
ENDTAB
0
TABLE
2
LTYPE
5
1f1
100
AcDbSymbolTable
0
LTYPE
5
14
100
AcDbSymbolTableRecord
100
AcDbLinetypeTableRecord
70
0
2
ByBlock
3

72
65
73
0
40
0
0
LTYPE
5
15
100
AcDbSymbolTableRecord
100
AcDbLinetypeTableRecord
70
0
2
ByLayer
3

72
65
73
0
40
0
0
LTYPE
5
16
100
AcDbSymbolTableRecord
100
AcDbLinetypeTableRecord
70
0
2
Continuous
3
Solid line
72
65
73
0
40
0
0
LTYPE
5
6E
100
AcDbSymbolTableRecord
100
AcDbLinetypeTableRecord
70
0
2
CENTER
3
____ _ ____ _ ____ _ ____
72
65
73
4
40
47.5
49
22
74
0
49
-8.5
74
0
49
8.5
74
0
49
-8.5
74
0
0
LTYPE
5
6F
100
AcDbSymbolTableRecord
100
AcDbLinetypeTableRecord
70
0
2
DASHED
3
__ __ __ __ __ __ __ __ __
72
65
73
2
40
25.72
49
12.86
74
0
49
-12.86
74
0
0
ENDTAB
0
TABLE
2
LAYER
5
1f2
100
AcDbSymbolTable
0
LAYER
5
10
100
AcDbSymbolTableRecord
100
AcDbLayerTableRecord
2
0
70
0
62
7
6
Continuous
290
1
370
-3
390
0
0
LAYER
5
71
100
AcDbSymbolTableRecord
100
AcDbLayerTableRecord
2
80
70
0
62
-6
6
Continuous
290
1
370
-3
390
0
0
LAYER
5
73
100
AcDbSymbolTableRecord
100
AcDbLayerTableRecord
2
81
70
0
62
-3
6
Continuous
290
1
370
-3
390
0
0
LAYER
5
75
100
AcDbSymbolTableRecord
100
AcDbLayerTableRecord
2
1
70
0
62
4
6
Continuous
290
1
370
-3
390
0
0
LAYER
5
87
100
AcDbSymbolTableRecord
100
AcDbLayerTableRecord
2
4
70
0
62
-2
6
CENTER
290
1
370
-3
390
0
0
LAYER
5
9E
100
AcDbSymbolTableRecord
100
AcDbLayerTableRecord
2
2
70
0
62
7
6
Continuous
290
1
370
-3
390
0
0
LAYER
5
105
100
AcDbSymbolTableRecord
100
AcDbLayerTableRecord
2
Defpoints
70
0
62
7
6
Continuous
290
0
370
-3
390
0
0
LAYER
5
1dc
100
AcDbSymbolTableRecord
100
AcDbLayerTableRecord
2
SK1
70
0
62
4
6
Continuous
290
1
370
-3
390
0
0
LAYER
5
1dd
100
AcDbSymbolTableRecord
100
AcDbLayerTableRecord
2
SK4
70
0
62
2
6
CENTER
290
1
370
-3
390
0
0
LAYER
5
1de
100
AcDbSymbolTableRecord
100
AcDbLayerTableRecord
2
SK2
70
0
62
7
6
Continuous
290
1
370
-3
390
0
0
LAYER
5
1df
100
AcDbSymbolTableRecord
100
AcDbLayerTableRecord
2
SK6
70
0
62
5
6
Continuous
290
1
370
-3
390
0
0
ENDTAB
0
TABLE
2
STYLE
5
1f3
100
AcDbSymbolTable
0
STYLE
5
11
100
AcDbSymbolTableRecord
100
AcDbTextStyleTableRecord
2
Standard
3
txt
70
0
71
0
40
0
41
1
42
0
50
0
0
STYLE
5
EA
100
AcDbSymbolTableRecord
100
AcDbTextStyleTableRecord
2
iso_b_vert
3
simplex.shx
70
0
71
0
40
0
41
1
42
0
50
0
0
STYLE
5
EB
100
AcDbSymbolTableRecord
100
AcDbTextStyleTableRecord
2
DWGDirectTextStyle
3
simplex
70
0
71
0
40
0
41
1
42
0
50
0
0
ENDTAB
0
TABLE
2
DIMSTYLE
5
1f4
100
AcDbSymbolTable
100
AcDbDimStyleTable
0
DIMSTYLE
105
27
100
AcDbSymbolTableRecord
100
AcDbDimStyleTableRecord
2
Standard
70
0
3
<>
41
0.18
42
0.0625
44
0.18
140
0.18
147
0.09
73
0
74
0
77
1
271
2
275
0
278
52
280
0
340
11
0
ENDTAB
0
TABLE
2
VIEW
5
1f5
100
AcDbSymbolTable
0
ENDTAB
0
TABLE
2
UCS
5
1f6
100
AcDbSymbolTable
0
ENDTAB
0
TABLE
2
APPID
5
1f7
100
AcDbSymbolTable
0
APPID
5
12
100
AcDbSymbolTableRecord
100
AcDbRegAppTableRecord
2
ACAD
70
0
0
APPID
5
101
100
AcDbSymbolTableRecord
100
AcDbRegAppTableRecord
2
ACAD_DSTYLE_DIMBREAK
70
0
0
APPID
5
19B
100
AcDbSymbolTableRecord
100
AcDbRegAppTableRecord
2
ACAD_DSTYLE_DIM_LINETYPE
70
0
0
APPID
5
19C
100
AcDbSymbolTableRecord
100
AcDbRegAppTableRecord
2
ACAD_DSTYLE_DIM_EXT1_LINETYPE
70
0
0
APPID
5
19D
100
AcDbSymbolTableRecord
100
AcDbRegAppTableRecord
2
ACAD_DSTYLE_DIM_EXT2_LINETYPE
70
0
0
APPID
5
1D8
100
AcDbSymbolTableRecord
100
AcDbRegAppTableRecord
2
ACAD_MLEADERVER
70
0
0
ENDTAB
0
TABLE
2
BLOCK_RECORD
5
1f8
100
AcDbSymbolTable
0
BLOCK_RECORD
5
1F
100
AcDbSymbolTableRecord
100
AcDbBlockTableRecord
2
*Model_Space
340
0
70
0
0
BLOCK_RECORD
5
1B
100
AcDbSymbolTableRecord
100
AcDbBlockTableRecord
2
*Paper_Space
340
0
70
0
0
BLOCK_RECORD
5
23
100
AcDbSymbolTableRecord
100
AcDbBlockTableRecord
2
*Paper_Space0
340
0
70
0
0
BLOCK_RECORD
5
106
100
AcDbSymbolTableRecord
100
AcDbBlockTableRecord
2
*D1
340
0
70
0
0
BLOCK_RECORD
5
112
100
AcDbSymbolTableRecord
100
AcDbBlockTableRecord
2
_U0
340
0
70
0
0
BLOCK_RECORD
5
11E
100
AcDbSymbolTableRecord
100
AcDbBlockTableRecord
2
*D3
340
0
70
0
0
BLOCK_RECORD
5
12A
100
AcDbSymbolTableRecord
100
AcDbBlockTableRecord
2
_U1
340
0
70
0
0
BLOCK_RECORD
5
136
100
AcDbSymbolTableRecord
100
AcDbBlockTableRecord
2
*D5
340
0
70
0
0
BLOCK_RECORD
5
142
100
AcDbSymbolTableRecord
100
AcDbBlockTableRecord
2
_U2
340
0
70
0
0
BLOCK_RECORD
5
14E
100
AcDbSymbolTableRecord
100
AcDbBlockTableRecord
2
*D7
340
0
70
0
0
BLOCK_RECORD
5
15C
100
AcDbSymbolTableRecord
100
AcDbBlockTableRecord
2
_U3
340
0
70
0
0
BLOCK_RECORD
5
168
100
AcDbSymbolTableRecord
100
AcDbBlockTableRecord
2
*D9
340
0
70
0
0
BLOCK_RECORD
5
174
100
AcDbSymbolTableRecord
100
AcDbBlockTableRecord
2
_U4
340
0
70
0
0
ENDTAB
0
ENDSEC
0
SECTION
2
BLOCKS
0
BLOCK
5
20
100
AcDbEntity
8
0
100
AcDbBlockBegin
2
*Model_Space
70
0
10
0
20
0
30
0
3
*Model_Space
0
ENDBLK
5
21
100
AcDbEntity
8
0
100
AcDbBlockEnd
0
BLOCK
5
1C
100
AcDbEntity
8
0
100
AcDbBlockBegin
2
*Paper_Space
70
0
10
0
20
0
30
0
3
*Paper_Space
0
ENDBLK
5
1D
100
AcDbEntity
8
0
100
AcDbBlockEnd
0
BLOCK
5
24
100
AcDbEntity
8
0
100
AcDbBlockBegin
2
*Paper_Space0
70
0
10
0
20
0
30
0
3
*Paper_Space0
0
ENDBLK
5
25
100
AcDbEntity
8
0
100
AcDbBlockEnd
0
BLOCK
5
107
100
AcDbEntity
8
0
100
AcDbBlockBegin
2
*D1
70
1
10
0
20
0
30
0
3
*D1
0
LINE
5
109
100
AcDbEntity
8
0
62
256
6
ByLayer
370
-2
48
1
60
0
100
AcDbLine
10
0
20
-1.5875
30
0
11
0
21
-15.413398
31
0
39
0
210
0
220
0
230
1
0
LINE
5
10A
100
AcDbEntity
8
0
62
256
6
ByLayer
370
-2
48
1
60
0
100
AcDbLine
10
41.763
20
-4.7875
30
0
11
41.763
21
-15.413398
31
0
39
0
210
0
220
0
230
1
0
LINE
5
10B
100
AcDbEntity
8
0
62
256
6
ByLayer
370
-2
48
1
60
0
100
AcDbLine
10
3.5
20
-13.413398
30
0
11
38.263
21
-13.413398
31
0
39
0
210
0
220
0
230
1
0
SOLID
5
10C
100
AcDbEntity
8
0
62
256
6
ByLayer
370
-1
48
1
60
0
100
AcDbTrace
10
3.5
20
-12.830065
30
0
11
3.5
21
-13.996732
31
0
12
0
22
-13.413398
32
0
13
0
23
-13.413398
33
0
39
0
210
0
220
0
230
1
0
SOLID
5
10D
100
AcDbEntity
8
0
62
256
6
ByLayer
370
-1
48
1
60
0
100
AcDbTrace
10
38.263
20
-13.996732
30
0
11
38.263
21
-12.830065
31
0
12
41.763
22
-13.413398
32
0
13
41.763
23
-13.413398
33
0
39
0
210
0
220
0
230
1
0
MTEXT
5
10E
100
AcDbEntity
8
0
62
256
6
ByLayer
370
18
48
1
60
0
100
AcDbMText
10
20.8815
20
-6.413398
30
0
210
0
220
0
230
1
1
\A1;41.76
40
3.5
41
0
44
1
50
0
71
5
72
5
7
iso_b_vert
0
POINT
5
10F
100
AcDbEntity
8
Defpoints
62
0
6
ByLayer
370
-1
48
1
60
0
100
AcDbPoint
10
0
20
0
30
0
39
0
210
0
220
0
230
1
50
360
0
POINT
5
110
100
AcDbEntity
8
Defpoints
62
0
6
ByLayer
370
-1
48
1
60
0
100
AcDbPoint
10
41.763
20
-3.2
30
0
39
0
210
0
220
0
230
1
50
360
0
POINT
5
111
100
AcDbEntity
8
Defpoints
62
0
6
ByLayer
370
-1
48
1
60
0
100
AcDbPoint
10
41.763
20
-13.413398
30
0
39
0
210
0
220
0
230
1
50
360
0
ENDBLK
5
108
100
AcDbEntity
8
0
100
AcDbBlockEnd
0
BLOCK
5
119
100
AcDbEntity
8
0
100
AcDbBlockBegin
2
_U0
70
0
10
0
20
0
30
0
3
_U0
0
MTEXT
5
113
100
AcDbEntity
8
2
62
256
6
ByLayer
370
13
48
1
60
0
100
AcDbMText
10
15.997368
20
-12.380765
30
0
210
0
220
0
230
1
1
\W0.6977;41,76
40
3.5
41
0
44
1.084337
50
0
71
7
72
5
7
iso_b_vert
0
LINE
5
114
100
AcDbEntity
8
2
62
256
6
ByLayer
370
13
48
1
60
0
100
AcDbLine
10
0
20
-1.5875
30
0
11
0
21
-15.413398
31
0
39
0
210
0
220
0
230
1
0
LINE
5
115
100
AcDbEntity
8
2
62
256
6
ByLayer
370
13
48
1
60
0
100
AcDbLine
10
41.763
20
-4.7875
30
0
11
41.763
21
-15.413398
31
0
39
0
210
0
220
0
230
1
0
LINE
5
116
100
AcDbEntity
8
2
62
256
6
ByLayer
370
13
48
1
60
0
100
AcDbLine
10
0
20
-13.413398
30
0
11
41.763
21
-13.413398
31
0
39
0
210
0
220
0
230
1
0
SOLID
5
117
100
AcDbEntity
8
2
62
256
6
ByLayer
370
18
48
1
60
0
100
AcDbTrace
10
0
20
-13.413398
30
0
11
3.499998
21
-12.952615
31
0
12
3.500002
22
-13.874182
32
0
13
3.500002
23
-13.874182
33
0
39
0
210
0
220
0
230
1
0
SOLID
5
118
100
AcDbEntity
8
2
62
256
6
ByLayer
370
18
48
1
60
0
100
AcDbTrace
10
41.763
20
-13.413398
30
0
11
38.263002
21
-13.874182
31
0
12
38.262998
22
-12.952615
32
0
13
38.262998
23
-12.952615
33
0
39
0
210
0
220
0
230
1
0
ENDBLK
5
11A
100
AcDbEntity
8
0
100
AcDbBlockEnd
0
BLOCK
5
11F
100
AcDbEntity
8
0
100
AcDbBlockBegin
2
*D3
70
1
10
0
20
0
30
0
3
*D3
0
LINE
5
121
100
AcDbEntity
8
0
62
256
6
ByLayer
370
-2
48
1
60
0
100
AcDbLine
10
-36
20
-5.5875
30
0
11
-36
21
-34.692985
31
0
39
0
210
0
220
0
230
1
0
LINE
5
122
100
AcDbEntity
8
0
62
256
6
ByLayer
370
-2
48
1
60
0
100
AcDbLine
10
43
20
-1.5875
30
0
11
43
21
-34.692985
31
0
39
0
210
0
220
0
230
1
0
LINE
5
123
100
AcDbEntity
8
0
62
256
6
ByLayer
370
-2
48
1
60
0
100
AcDbLine
10
-32.5
20
-32.692985
30
0
11
39.5
21
-32.692985
31
0
39
0
210
0
220
0
230
1
0
SOLID
5
124
100
AcDbEntity
8
0
62
256
6
ByLayer
370
-1
48
1
60
0
100
AcDbTrace
10
-32.5
20
-32.109652
30
0
11
-32.5
21
-33.276319
31
0
12
-36
22
-32.692985
32
0
13
-36
23
-32.692985
33
0
39
0
210
0
220
0
230
1
0
SOLID
5
125
100
AcDbEntity
8
0
62
256
6
ByLayer
370
-1
48
1
60
0
100
AcDbTrace
10
39.5
20
-33.276319
30
0
11
39.5
21
-32.109652
31
0
12
43
22
-32.692985
32
0
13
43
23
-32.692985
33
0
39
0
210
0
220
0
230
1
0
MTEXT
5
126
100
AcDbEntity
8
0
62
256
6
ByLayer
370
18
48
1
60
0
100
AcDbMText
10
3.5
20
-25.692985
30
0
210
0
220
0
230
1
1
\A1;79.00
40
3.5
41
0
44
1
50
0
71
5
72
5
7
iso_b_vert
0
POINT
5
127
100
AcDbEntity
8
Defpoints
62
0
6
ByLayer
370
-1
48
1
60
0
100
AcDbPoint
10
-36
20
-4
30
0
39
0
210
0
220
0
230
1
50
360
0
POINT
5
128
100
AcDbEntity
8
Defpoints
62
0
6
ByLayer
370
-1
48
1
60
0
100
AcDbPoint
10
43
20
0
30
0
39
0
210
0
220
0
230
1
50
360
0
POINT
5
129
100
AcDbEntity
8
Defpoints
62
0
6
ByLayer
370
-1
48
1
60
0
100
AcDbPoint
10
43
20
-32.692985
30
0
39
0
210
0
220
0
230
1
50
360
0
ENDBLK
5
120
100
AcDbEntity
8
0
100
AcDbBlockEnd
0
BLOCK
5
131
100
AcDbEntity
8
0
100
AcDbBlockBegin
2
_U1
70
0
10
0
20
0
30
0
3
_U1
0
MTEXT
5
12B
100
AcDbEntity
8
SK2
62
256
6
ByLayer
370
13
48
1
60
0
100
AcDbMText
10
-1.637299
20
-31.660352
30
0
210
0
220
0
230
1
1
\W0.7317;79,00
40
3.5
41
0
44
1.084337
50
0
71
7
72
5
7
iso_b_vert
0
LINE
5
12C
100
AcDbEntity
8
SK2
62
256
6
ByLayer
370
13
48
1
60
0
100
AcDbLine
10
-36
20
-5.5875
30
0
11
-36
21
-34.692985
31
0
39
0
210
0
220
0
230
1
0
LINE
5
12D
100
AcDbEntity
8
SK2
62
256
6
ByLayer
370
13
48
1
60
0
100
AcDbLine
10
43
20
-1.5875
30
0
11
43
21
-34.692985
31
0
39
0
210
0
220
0
230
1
0
LINE
5
12E
100
AcDbEntity
8
SK2
62
256
6
ByLayer
370
13
48
1
60
0
100
AcDbLine
10
-36
20
-32.692985
30
0
11
43
21
-32.692985
31
0
39
0
210
0
220
0
230
1
0
SOLID
5
12F
100
AcDbEntity
8
SK2
62
256
6
ByLayer
370
18
48
1
60
0
100
AcDbTrace
10
-36
20
-32.692985
30
0
11
-32.500002
21
-32.232202
31
0
12
-32.499998
22
-33.153769
32
0
13
-32.499998
23
-33.153769
33
0
39
0
210
0
220
0
230
1
0
SOLID
5
130
100
AcDbEntity
8
SK2
62
256
6
ByLayer
370
18
48
1
60
0
100
AcDbTrace
10
43
20
-32.692985
30
0
11
39.500002
21
-33.153769
31
0
12
39.499998
22
-32.232202
32
0
13
39.499998
23
-32.232202
33
0
39
0
210
0
220
0
230
1
0
ENDBLK
5
132
100
AcDbEntity
8
0
100
AcDbBlockEnd
0
BLOCK
5
137
100
AcDbEntity
8
0
100
AcDbBlockBegin
2
*D5
70
1
10
0
20
0
30
0
3
*D5
0
LINE
5
139
100
AcDbEntity
8
0
62
256
6
ByLayer
370
-2
48
1
60
0
100
AcDbLine
10
22.56
20
4.7875
30
0
11
22.56
21
16.809119
31
0
39
0
210
0
220
0
230
1
0
LINE
5
13A
100
AcDbEntity
8
0
62
256
6
ByLayer
370
-2
48
1
60
0
100
AcDbLine
10
43
20
1.5875
30
0
11
43
21
16.809119
31
0
39
0
210
0
220
0
230
1
0
LINE
5
13B
100
AcDbEntity
8
0
62
256
6
ByLayer
370
-2
48
1
60
0
100
AcDbLine
10
26.06
20
14.809119
30
0
11
39.5
21
14.809119
31
0
39
0
210
0
220
0
230
1
0
SOLID
5
13C
100
AcDbEntity
8
0
62
256
6
ByLayer
370
-1
48
1
60
0
100
AcDbTrace
10
26.06
20
15.392453
30
0
11
26.06
21
14.225786
31
0
12
22.56
22
14.809119
32
0
13
22.56
23
14.809119
33
0
39
0
210
0
220
0
230
1
0
SOLID
5
13D
100
AcDbEntity
8
0
62
256
6
ByLayer
370
-1
48
1
60
0
100
AcDbTrace
10
39.5
20
14.225786
30
0
11
39.5
21
15.392453
31
0
12
43
22
14.809119
32
0
13
43
23
14.809119
33
0
39
0
210
0
220
0
230
1
0
MTEXT
5
13E
100
AcDbEntity
8
0
62
256
6
ByLayer
370
18
48
1
60
0
100
AcDbMText
10
32.78
20
21.809119
30
0
210
0
220
0
230
1
1
\A1;20.44
40
3.5
41
0
44
1
50
0
71
5
72
5
7
iso_b_vert
0
POINT
5
13F
100
AcDbEntity
8
Defpoints
62
0
6
ByLayer
370
-1
48
1
60
0
100
AcDbPoint
10
22.56
20
3.2
30
0
39
0
210
0
220
0
230
1
50
360
0
POINT
5
140
100
AcDbEntity
8
Defpoints
62
0
6
ByLayer
370
-1
48
1
60
0
100
AcDbPoint
10
43
20
0
30
0
39
0
210
0
220
0
230
1
50
360
0
POINT
5
141
100
AcDbEntity
8
Defpoints
62
0
6
ByLayer
370
-1
48
1
60
0
100
AcDbPoint
10
43
20
14.809119
30
0
39
0
210
0
220
0
230
1
50
360
0
ENDBLK
5
138
100
AcDbEntity
8
0
100
AcDbBlockEnd
0
BLOCK
5
149
100
AcDbEntity
8
0
100
AcDbBlockBegin
2
_U2
70
0
10
0
20
0
30
0
3
_U2
0
MTEXT
5
143
100
AcDbEntity
8
SK2
62
256
6
ByLayer
370
13
48
1
60
0
100
AcDbMText
10
27.274168
20
15.841753
30
0
210
0
220
0
230
1
1
\W0.7756;20,44
40
3.5
41
0
44
1.084337
50
0
71
7
72
5
7
iso_b_vert
0
LINE
5
144
100
AcDbEntity
8
SK2
62
256
6
ByLayer
370
13
48
1
60
0
100
AcDbLine
10
22.56
20
4.7875
30
0
11
22.56
21
16.809119
31
0
39
0
210
0
220
0
230
1
0
LINE
5
145
100
AcDbEntity
8
SK2
62
256
6
ByLayer
370
13
48
1
60
0
100
AcDbLine
10
43
20
1.5875
30
0
11
43
21
16.809119
31
0
39
0
210
0
220
0
230
1
0
LINE
5
146
100
AcDbEntity
8
SK2
62
256
6
ByLayer
370
13
48
1
60
0
100
AcDbLine
10
22.56
20
14.809119
30
0
11
43
21
14.809119
31
0
39
0
210
0
220
0
230
1
0
SOLID
5
147
100
AcDbEntity
8
SK2
62
256
6
ByLayer
370
18
48
1
60
0
100
AcDbTrace
10
22.56
20
14.809119
30
0
11
26.059998
21
15.269903
31
0
12
26.060002
22
14.348335
32
0
13
26.060002
23
14.348335
33
0
39
0
210
0
220
0
230
1
0
SOLID
5
148
100
AcDbEntity
8
SK2
62
256
6
ByLayer
370
18
48
1
60
0
100
AcDbTrace
10
43
20
14.809119
30
0
11
39.500002
21
14.348335
31
0
12
39.499998
22
15.269903
32
0
13
39.499998
23
15.269903
33
0
39
0
210
0
220
0
230
1
0
ENDBLK
5
14A
100
AcDbEntity
8
0
100
AcDbBlockEnd
0
BLOCK
5
14F
100
AcDbEntity
8
0
100
AcDbBlockBegin
2
*D7
70
1
10
0
20
0
30
0
3
*D7
0
LINE
5
151
100
AcDbEntity
8
0
62
256
6
ByLayer
370
-2
48
1
60
0
100
AcDbLine
10
43
20
-1.5875
30
0
11
43
21
-18.002503
31
0
39
0
210
0
220
0
230
1
0
LINE
5
152
100
AcDbEntity
8
0
62
256
6
ByLayer
370
-2
48
1
60
0
100
AcDbLine
10
41.763
20
-4.7875
30
0
11
41.763
21
-18.002503
31
0
39
0
210
0
220
0
230
1
0
LINE
5
153
100
AcDbEntity
8
0
62
256
6
ByLayer
370
-2
48
1
60
0
100
AcDbLine
10
43
20
-16.002503
30
0
11
70.833333
21
-16.002503
31
0
39
0
210
0
220
0
230
1
0
LINE
5
154
100
AcDbEntity
8
0
62
256
6
ByLayer
370
-2
48
1
60
0
100
AcDbLine
10
46.5
20
-16.002503
30
0
11
50
21
-16.002503
31
0
39
0
210
0
220
0
230
1
0
LINE
5
155
100
AcDbEntity
8
0
62
256
6
ByLayer
370
-2
48
1
60
0
100
AcDbLine
10
38.263
20
-16.002503
30
0
11
34.763
21
-16.002503
31
0
39
0
210
0
220
0
230
1
0
SOLID
5
156
100
AcDbEntity
8
0
62
256
6
ByLayer
370
-1
48
1
60
0
100
AcDbTrace
10
46.5
20
-15.41917
30
0
11
46.5
21
-16.585837
31
0
12
43
22
-16.002503
32
0
13
43
23
-16.002503
33
0
39
0
210
0
220
0
230
1
0
SOLID
5
157
100
AcDbEntity
8
0
62
256
6
ByLayer
370
-1
48
1
60
0
100
AcDbTrace
10
38.263
20
-16.585837
30
0
11
38.263
21
-15.41917
31
0
12
41.763
22
-16.002503
32
0
13
41.763
23
-16.002503
33
0
39
0
210
0
220
0
230
1
0
MTEXT
5
158
100
AcDbEntity
8
0
62
256
6
ByLayer
370
18
48
1
60
0
100
AcDbMText
10
60.416667
20
-9.002503
30
0
210
0
220
0
230
1
1
\A1;1.24
40
3.5
41
0
44
1
50
0
71
5
72
5
7
iso_b_vert
0
POINT
5
159
100
AcDbEntity
8
Defpoints
62
0
6
ByLayer
370
-1
48
1
60
0
100
AcDbPoint
10
43
20
0
30
0
39
0
210
0
220
0
230
1
50
360
0
POINT
5
15A
100
AcDbEntity
8
Defpoints
62
0
6
ByLayer
370
-1
48
1
60
0
100
AcDbPoint
10
41.763
20
-3.2
30
0
39
0
210
0
220
0
230
1
50
360
0
POINT
5
15B
100
AcDbEntity
8
Defpoints
62
0
6
ByLayer
370
-1
48
1
60
0
100
AcDbPoint
10
41.763
20
-16.002503
30
0
39
0
210
0
220
0
230
1
50
360
0
ENDBLK
5
150
100
AcDbEntity
8
0
100
AcDbBlockEnd
0
BLOCK
5
163
100
AcDbEntity
8
0
100
AcDbBlockBegin
2
_U3
70
0
10
0
20
0
30
0
3
_U3
0
MTEXT
5
15D
100
AcDbEntity
8
SK2
62
256
6
ByLayer
370
13
48
1
60
0
100
AcDbMText
10
49.405026
20
-14.96987
30
0
210
0
220
0
230
1
1
\W0.6611;1,24
40
3.5
41
0
44
1.084337
50
0
71
7
72
5
7
iso_b_vert
0
LINE
5
15E
100
AcDbEntity
8
SK2
62
256
6
ByLayer
370
13
48
1
60
0
100
AcDbLine
10
43
20
-1.5875
30
0
11
43
21
-18.002503
31
0
39
0
210
0
220
0
230
1
0
LINE
5
15F
100
AcDbEntity
8
SK2
62
256
6
ByLayer
370
13
48
1
60
0
100
AcDbLine
10
41.763
20
-4.7875
30
0
11
41.763
21
-18.002503
31
0
39
0
210
0
220
0
230
1
0
LINE
5
160
100
AcDbEntity
8
SK2
62
256
6
ByLayer
370
13
48
1
60
0
100
AcDbLine
10
33.013
20
-16.002503
30
0
11
56.743324
21
-16.002503
31
0
39
0
210
0
220
0
230
1
0
SOLID
5
161
100
AcDbEntity
8
SK2
62
256
6
ByLayer
370
18
48
1
60
0
100
AcDbTrace
10
43
20
-16.002503
30
0
11
46.499998
21
-15.541719
31
0
12
46.500002
22
-16.463287
32
0
13
46.500002
23
-16.463287
33
0
39
0
210
0
220
0
230
1
0
SOLID
5
162
100
AcDbEntity
8
SK2
62
256
6
ByLayer
370
18
48
1
60
0
100
AcDbTrace
10
41.763
20
-16.002503
30
0
11
38.263002
21
-16.463287
31
0
12
38.262998
22
-15.541719
32
0
13
38.262998
23
-15.541719
33
0
39
0
210
0
220
0
230
1
0
ENDBLK
5
164
100
AcDbEntity
8
0
100
AcDbBlockEnd
0
BLOCK
5
169
100
AcDbEntity
8
0
100
AcDbBlockBegin
2
*D9
70
1
10
0
20
0
30
0
3
*D9
0
LINE
5
16B
100
AcDbEntity
8
0
62
256
6
ByLayer
370
-2
48
1
60
0
100
AcDbLine
10
-36
20
-5.5875
30
0
11
-36
21
-24.343428
31
0
39
0
210
0
220
0
230
1
0
LINE
5
16C
100
AcDbEntity
8
0
62
256
6
ByLayer
370
-2
48
1
60
0
100
AcDbLine
10
41.763
20
-4.7875
30
0
11
41.763
21
-24.343428
31
0
39
0
210
0
220
0
230
1
0
LINE
5
16D
100
AcDbEntity
8
0
62
256
6
ByLayer
370
-2
48
1
60
0
100
AcDbLine
10
-32.5
20
-22.343428
30
0
11
38.263
21
-22.343428
31
0
39
0
210
0
220
0
230
1
0
SOLID
5
16E
100
AcDbEntity
8
0
62
256
6
ByLayer
370
-1
48
1
60
0
100
AcDbTrace
10
-32.5
20
-21.760095
30
0
11
-32.5
21
-22.926762
31
0
12
-36
22
-22.343428
32
0
13
-36
23
-22.343428
33
0
39
0
210
0
220
0
230
1
0
SOLID
5
16F
100
AcDbEntity
8
0
62
256
6
ByLayer
370
-1
48
1
60
0
100
AcDbTrace
10
38.263
20
-22.926762
30
0
11
38.263
21
-21.760095
31
0
12
41.763
22
-22.343428
32
0
13
41.763
23
-22.343428
33
0
39
0
210
0
220
0
230
1
0
MTEXT
5
170
100
AcDbEntity
8
0
62
256
6
ByLayer
370
18
48
1
60
0
100
AcDbMText
10
2.8815
20
-15.343428
30
0
210
0
220
0
230
1
1
\A1;77.76
40
3.5
41
0
44
1
50
0
71
5
72
5
7
iso_b_vert
0
POINT
5
171
100
AcDbEntity
8
Defpoints
62
0
6
ByLayer
370
-1
48
1
60
0
100
AcDbPoint
10
-36
20
-4
30
0
39
0
210
0
220
0
230
1
50
360
0
POINT
5
172
100
AcDbEntity
8
Defpoints
62
0
6
ByLayer
370
-1
48
1
60
0
100
AcDbPoint
10
41.763
20
-3.2
30
0
39
0
210
0
220
0
230
1
50
360
0
POINT
5
173
100
AcDbEntity
8
Defpoints
62
0
6
ByLayer
370
-1
48
1
60
0
100
AcDbPoint
10
41.763
20
-22.343428
30
0
39
0
210
0
220
0
230
1
50
360
0
ENDBLK
5
16A
100
AcDbEntity
8
0
100
AcDbBlockEnd
0
BLOCK
5
17B
100
AcDbEntity
8
0
100
AcDbBlockBegin
2
_U4
70
0
10
0
20
0
30
0
3
_U4
0
MTEXT
5
175
100
AcDbEntity
8
SK2
62
256
6
ByLayer
370
13
48
1
60
0
100
AcDbMText
10
-2.255799
20
-21.310795
30
0
210
0
220
0
230
1
1
\W0.7317;77,76
40
3.5
41
0
44
1.084337
50
0
71
7
72
5
7
iso_b_vert
0
LINE
5
176
100
AcDbEntity
8
SK2
62
256
6
ByLayer
370
13
48
1
60
0
100
AcDbLine
10
-36
20
-5.5875
30
0
11
-36
21
-24.343428
31
0
39
0
210
0
220
0
230
1
0
LINE
5
177
100
AcDbEntity
8
SK2
62
256
6
ByLayer
370
13
48
1
60
0
100
AcDbLine
10
41.763
20
-4.7875
30
0
11
41.763
21
-24.343428
31
0
39
0
210
0
220
0
230
1
0
LINE
5
178
100
AcDbEntity
8
SK2
62
256
6
ByLayer
370
13
48
1
60
0
100
AcDbLine
10
-36
20
-22.343428
30
0
11
41.763
21
-22.343428
31
0
39
0
210
0
220
0
230
1
0
SOLID
5
179
100
AcDbEntity
8
SK2
62
256
6
ByLayer
370
18
48
1
60
0
100
AcDbTrace
10
-36
20
-22.343428
30
0
11
-32.500002
21
-21.882645
31
0
12
-32.499998
22
-22.804212
32
0
13
-32.499998
23
-22.804212
33
0
39
0
210
0
220
0
230
1
0
SOLID
5
17A
100
AcDbEntity
8
SK2
62
256
6
ByLayer
370
18
48
1
60
0
100
AcDbTrace
10
41.763
20
-22.343428
30
0
11
38.263002
21
-22.804212
31
0
12
38.262998
22
-21.882645
32
0
13
38.262998
23
-21.882645
33
0
39
0
210
0
220
0
230
1
0
ENDBLK
5
17C
100
AcDbEntity
8
0
100
AcDbBlockEnd
0
ENDSEC
0
SECTION
2
ENTITIES
0
ARC
5
A7
100
AcDbEntity
8
1
62
256
6
ByLayer
370
18
48
1
60
0
100
AcDbCircle
39
0
10
1.485006
20
-3.977501
30
0
40
0.849999999999998
210
0
220
0
230
1
100
AcDbArc
50
89.896868
51
150.871806
0
ARC
5
A8
100
AcDbEntity
8
1
62
256
6
ByLayer
370
18
48
1
60
0
100
AcDbCircle
39
0
10
1.485006
20
3.977501
30
0
40
0.849999999999998
210
0
220
0
230
1
100
AcDbArc
50
209.128194
51
270.103132
0
ARC
5
A9
100
AcDbEntity
8
1
62
256
6
ByLayer
370
18
48
1
60
0
100
AcDbCircle
39
0
10
0
20
-3.15
30
0
40
0.849999999999998
210
0
220
0
230
1
100
AcDbArc
50
270
51
330.871806
0
ARC
5
AA
100
AcDbEntity
8
1
62
256
6
ByLayer
370
18
48
1
60
0
100
AcDbCircle
39
0
10
0
20
3.15
30
0
40
0.849999999999998
210
0
220
0
230
1
100
AcDbArc
50
29.128194
51
90
0
ELLIPSE
5
AB
100
AcDbEntity
8
1
62
256
6
ByLayer
370
13
48
1
60
0
100
AcDbEllipse
10
87.194174
20
42.489532
30
0
11
-61.2499999999999
21
7.50071391716205E-15
31
0
210
0
220
0
230
1
40
0.99863
41
0.746700081076508
42
0.763767605818996
0
ELLIPSE
5
AC
100
AcDbEntity
8
1
62
256
6
ByLayer
370
13
48
1
60
0
100
AcDbEllipse
10
14.549895
20
-75.494143
30
0
11
-8.51017899893453
21
73.9740176466281
31
0
210
0
220
0
230
1
40
0.86845
41
-0.101659371929486
42
-0.0303288487576604
0
ELLIPSE
5
AD
100
AcDbEntity
8
1
62
256
6
ByLayer
370
13
48
1
60
0
100
AcDbEllipse
10
9.827693
20
0.847337
30
0
11
0.127210599966767
21
0.271693693809951
31
0
210
0
220
0
230
1
40
0.111572
41
-2.56347161890312
42
-1.79994577242823
0
ELLIPSE
5
AE
100
AcDbEntity
8
1
62
256
6
ByLayer
370
18
48
1
60
0
100
AcDbEllipse
10
9.826234
20
-4.056244
30
0
11
-1
21
1.22460635382238E-16
31
0
210
0
220
0
230
1
40
0.999998
41
-1.57154053800343
42
-1.15490464991992
0
ELLIPSE
5
AF
100
AcDbEntity
8
1
62
256
6
ByLayer
370
18
48
1
60
0
100
AcDbEllipse
10
9.826234
20
4.056244
30
0
11
-1
21
1.22460635382238E-16
31
0
210
0
220
0
230
1
40
0.999998
41
1.1567415702228
42
1.5741010096442
0
POINT
5
70
100
AcDbEntity
8
80
62
256
6
ByLayer
370
18
48
1
60
0
100
AcDbPoint
10
0
20
0
30
0
39
0
210
0
220
0
230
1
50
360
0
POINT
5
72
100
AcDbEntity
8
81
62
256
6
ByLayer
370
18
48
1
60
0
100
AcDbPoint
10
43
20
0
30
0
39
0
210
0
220
0
230
1
50
360
0
POINT
5
74
100
AcDbEntity
8
1
62
256
6
ByLayer
370
18
48
1
60
1
100
AcDbPoint
10
41.763
20
-3.2
30
0
39
0
210
0
220
0
230
1
50
360
0
POINT
5
76
100
AcDbEntity
8
1
62
256
6
ByLayer
370
18
48
1
60
1
100
AcDbPoint
10
-36
20
-4
30
0
39
0
210
0
220
0
230
1
50
360
0
POINT
5
77
100
AcDbEntity
8
1
62
256
6
ByLayer
370
18
48
1
60
1
100
AcDbPoint
10
22.56
20
3.2
30
0
39
0
210
0
220
0
230
1
50
360
0
POINT
5
78
100
AcDbEntity
8
1
62
256
6
ByLayer
370
18
48
1
60
1
100
AcDbPoint
10
41.763
20
-3.2
30
0
39
0
210
0
220
0
230
1
50
360
0
POINT
5
79
100
AcDbEntity
8
1
62
256
6
ByLayer
370
18
48
1
60
1
100
AcDbPoint
10
-36
20
-4
30
0
39
0
210
0
220
0
230
1
50
360
0
POINT
5
7A
100
AcDbEntity
8
1
62
256
6
ByLayer
370
18
48
1
60
1
100
AcDbPoint
10
41.763
20
-3.2
30
0
39
0
210
0
220
0
230
1
50
360
0
SPLINE
5
B0
100
AcDbEntity
8
1
62
256
6
ByLayer
370
18
48
1
60
0
100
AcDbSpline
70
4
71
3
72
8
73
4
40
0
40
0
40
0
40
0
40
1
40
1
40
1
40
1
41
1
10
15.4533564950367
20
2.17958341723821
30
0
41
1
10
15.692405479568
20
2.25142518844319
30
0
41
1
10
15.9312582518121
20
2.3204965754652
30
0
41
1
10
16.1699032924954
20
2.38672975339671
30
0
0
SPLINE
5
B1
100
AcDbEntity
8
1
62
256
6
ByLayer
370
18
48
1
60
0
100
AcDbSpline
70
4
71
3
72
8
73
4
40
0
40
0
40
0
40
0
40
1
40
1
40
1
40
1
41
1
10
42.9998150064815
20
0.0646981961737367
30
0
41
1
10
43.0000616645018
20
0.0215660653910277
30
0
41
1
10
43.0000616645019
20
-0.0215660653917098
30
0
41
1
10
42.9998150064815
20
-0.0646981961744189
30
0
0
SPLINE
5
B2
100
AcDbEntity
8
1
62
256
6
ByLayer
370
13
48
1
60
0
100
AcDbSpline
70
4
71
3
72
10
73
6
40
0
40
0
40
0
40
0
40
0.123176441403779
40
0.123176441403779
40
1
40
1
40
1
40
1
41
1
10
9.82827382150194
20
-3.05624607433072
30
0
41
1
10
9.82827471418608
20
-3.05621714848991
30
0
41
1
10
9.82827560331168
20
-3.05610856627351
30
0
41
1
10
9.82828278482089
20
-3.05458090848788
30
0
41
1
10
9.82828887207799
20
-3.04924552308933
30
0
41
1
10
9.82829448660056
20
-3.039993101916
30
0
0
SPLINE
5
B3
100
AcDbEntity
8
1
62
256
6
ByLayer
370
18
48
1
60
0
100
AcDbSpline
70
4
71
1
72
4
73
2
40
0
40
0
40
1
40
1
41
1
10
41.8139803246314
20
-3.03619929040005
30
0
41
1
10
42.4339208663455
20
-0.943315096192123
30
0
0
SPLINE
5
B4
100
AcDbEntity
8
1
62
256
6
ByLayer
370
18
48
1
60
0
100
AcDbSpline
70
4
71
3
72
18
73
14
40
0
40
0
40
0
40
0
40
0.250000000000002
40
0.250000000000002
40
0.375000000000002
40
0.375000000000002
40
0.500000000000002
40
0.500000000000002
40
0.750000000000001
40
0.750000000000001
40
0.875000000000001
40
0.875000000000001
40
1
40
1
40
1
40
1
41
1
10
41.5452111879202
20
0.480666074499197
30
0
41
1
10
41.501575292516
20
0.292413065184718
30
0
41
1
10
41.4664601263195
20
0.102527870780079
30
0
41
1
10
41.4268063372931
20
-0.184793762881668
30
0
41
1
10
41.415771245603
20
-0.280985773481007
30
0
41
1
10
41.3982827157594
20
-0.474247431606045
30
0
41
1
10
41.3919283989391
20
-0.570454555009775
30
0
41
1
10
41.3801602657515
20
-0.854067923718873
30
0
41
1
10
41.3818312350324
20
-1.03807372566968
30
0
41
1
10
41.3987971718137
20
-1.30637926116273
30
0
41
1
10
41.4069242639222
20
-1.39470289280314
30
0
41
1
10
41.4277759925425
20
-1.56550838667988
30
0
41
1
10
41.4405134446422
20
-1.64839297692652
30
0
41
1
10
41.4555343584812
20
-1.72879004994184
30
0
0
SPLINE
5
B5
100
AcDbEntity
8
1
62
256
6
ByLayer
370
18
48
1
60
0
100
AcDbSpline
70
4
71
3
72
16
73
12
40
0
40
0
40
0
40
0
40
0.124999999999991
40
0.124999999999991
40
0.249999999999981
40
0.249999999999981
40
0.499999999999988
40
0.499999999999988
40
0.749999999999994
40
0.749999999999994
40
1
40
1
40
1
40
1
41
1
10
9.41654744241401
20
0.915322981093169
30
0
41
1
10
9.41650770833809
20
0.896310642749143
30
0
41
1
10
9.4210277573676
20
0.877975708730787
30
0
41
1
10
9.43562208703875
20
0.842741357745894
30
0
41
1
10
9.44542099264194
20
0.826491061294206
30
0
41
1
10
9.47945138059364
20
0.780266594796188
30
0
41
1
10
9.50762610461177
20
0.753630770806467
30
0
41
1
10
9.56785352459099
20
0.705722089649186
30
0
41
1
10
9.60043989809481
20
0.684244593049726
30
0
41
1
10
9.66745970779277
20
0.645387097458666
30
0
41
1
10
9.7021040801319
20
0.627882727434553
30
0
41
1
10
9.73772000070318
20
0.612040558453913
30
0
0
SPLINE
5
B6
100
AcDbEntity
8
1
62
256
6
ByLayer
370
18
48
1
60
0
100
AcDbSpline
70
4
71
3
72
8
73
4
40
0
40
0
40
0
40
0
40
1
40
1
40
1
40
1
41
1
10
41.8561710076599
20
-3.16648688151616
30
0
41
1
10
41.8370602043753
20
-3.14637846434988
30
0
41
1
10
41.8205875668869
20
-3.11733473584062
30
0
41
1
10
41.8064195088962
20
-3.0790019409169
30
0
0
SPLINE
5
B7
100
AcDbEntity
8
1
62
256
6
ByLayer
370
18
48
1
60
0
100
AcDbSpline
70
4
71
3
72
66
73
62
40
0
40
0
40
0
40
0
40
0.0371402031211373
40
0.0371402031211373
40
0.0742804062422746
40
0.0742804062422746
40
0.111420609363412
40
0.111420609363412
40
0.129990710923981
40
0.129990710923981
40
0.148560812484549
40
0.148560812484549
40
0.185701015605687
40
0.185701015605687
40
0.222841218726825
40
0.222841218726825
40
0.241411320287394
40
0.241411320287394
40
0.259981421847963
40
0.259981421847963
40
0.297121624969102
40
0.297121624969102
40
0.334261828090241
40
0.334261828090241
40
0.35283192965081
40
0.35283192965081
40
0.37140203121138
40
0.37140203121138
40
0.408542234332518
40
0.408542234332518
40
0.445682437453656
40
0.445682437453656
40
0.482822640574794
40
0.482822640574794
40
0.519962843695932
40
0.519962843695932
40
0.55710304681707
40
0.55710304681707
40
0.594243249938208
40
0.594243249938208
40
0.631383453059346
40
0.631383453059346
40
0.668523656180484
40
0.668523656180484
40
0.705663859301622
40
0.705663859301622
40
0.742804062422761
40
0.742804062422761
40
0.779944265543899
40
0.779944265543899
40
0.817084468665037
40
0.817084468665037
40
0.854224671786175
40
0.854224671786175
40
0.891364874907313
40
0.891364874907313
40
0.928505078028451
40
0.928505078028451
40
0.965645281149589
40
0.965645281149589
40
1
40
1
40
1
40
1
41
1
10
14.0461975168835
20
2.55433577075013
30
0
41
1
10
14.3340562503523
20
2.48460675451318
30
0
41
1
10
14.6210078256562
20
2.40857214148443
30
0
41
1
10
15.1945047192072
20
2.24515345473151
30
0
41
1
10
15.4811324534789
20
2.15697915928882
30
0
41
1
10
16.0545598500071
20
1.96879979959027
30
0
41
1
10
16.3414169812345
20
1.86928188418511
30
0
41
1
10
16.7723061885942
20
1.71430642175011
30
0
41
1
10
16.9162138180467
20
1.66174457837829
30
0
41
1
10
17.2033925393433
20
1.55387730327104
30
0
41
1
10
17.3467670870164
20
1.49863196884101
30
0
41
1
10
17.7767417804593
20
1.33018728835359
30
0
41
1
10
18.0632668073727
20
1.21450971265671
30
0
41
1
10
18.6361309941498
20
0.977219959960337
30
0
41
1
10
18.9225777532692
20
0.856035056033647
30
0
41
1
10
19.3527937891189
20
0.670806532252215
30
0
41
1
10
19.4963917283325
20
0.608701639449833
30
0
41
1
10
19.7837591725322
20
0.483510091113061
30
0
41
1
10
19.9272588993865
20
0.420464026176944
30
0
41
1
10
20.3572836683263
20
0.230501778234753
30
0
41
1
10
20.6437498964593
20
0.103559010333356
30
0
41
1
10
21.2163413196911
20
-0.1507808173086
30
0
41
1
10
21.5026119107975
20
-0.277840669500478
30
0
41
1
10
21.9323276455714
20
-0.467537803695592
30
0
41
1
10
22.0755923532294
20
-0.530666157771719
30
0
41
1
10
22.362682550089
20
-0.655543400684138
30
0
41
1
10
22.5064013213012
20
-0.717770185182104
30
0
41
1
10
22.9368296638057
20
-0.903031998160287
30
0
41
1
10
23.2233581628689
20
-1.02414979572919
30
0
41
1
10
23.7960787332929
20
-1.2610723985388
30
0
41
1
10
24.0821198873123
20
-1.37720192976002
30
0
41
1
10
24.6549391403483
20
-1.60073304800628
30
0
41
1
10
24.9417221336886
20
-1.7081764923505
30
0
41
1
10
25.516118654181
20
-1.91537455018349
30
0
41
1
10
25.8026876388454
20
-2.01511315872111
30
0
41
1
10
26.3755089248059
20
-2.20195819184235
30
0
41
1
10
26.6615937084029
20
-2.28949238018367
30
0
41
1
10
27.2340517578603
20
-2.4525687837025
30
0
41
1
10
27.5205300571341
20
-2.52841114948328
30
0
41
1
10
28.0943041266139
20
-2.66765820992072
30
0
41
1
10
28.3812874773728
20
-2.73049699289661
30
0
41
1
10
28.9542597413517
20
-2.84213285199905
30
0
41
1
10
29.2403082866849
20
-2.89007464047742
30
0
41
1
10
29.8124987597316
20
-2.97056554989271
30
0
41
1
10
30.0986437307121
20
-3.00332975815203
30
0
41
1
10
30.6719881946659
20
-3.05440747074272
30
0
41
1
10
30.9589256657185
20
-3.07405099571608
30
0
41
1
10
31.5317128530362
20
-3.09325584126284
30
0
41
1
10
31.8177216559111
20
-3.09400652158121
30
0
41
1
10
32.3895802217739
20
-3.08095808092946
30
0
41
1
10
32.675335546224
20
-3.06762144984006
30
0
41
1
10
33.2477364676158
20
-3.02516147092715
30
0
41
1
10
33.534667270591
20
-2.99475299515655
30
0
41
1
10
34.1076762406586
20
-2.9191548462216
30
0
41
1
10
34.3938779904651
20
-2.87407859379624
30
0
41
1
10
34.9657137206553
20
-2.77076565136232
30
0
41
1
10
35.2514901561976
20
-2.71174564942345
30
0
41
1
10
35.8235964272885
20
-2.57835790175145
30
0
41
1
10
36.110318584859
20
-2.50501646432696
30
0
41
1
10
36.662047636289
20
-2.35180781351303
30
0
41
1
10
36.9268482052351
20
-2.27396041263725
30
0
41
1
10
37.1912986145862
20
-2.19045876266091
30
0
0
SPLINE
5
B8
100
AcDbEntity
8
1
62
256
6
ByLayer
370
18
48
1
60
0
100
AcDbSpline
70
4
71
3
72
14
73
10
40
0
40
0
40
0
40
0
40
0.25
40
0.25
40
0.5
40
0.5
40
0.75
40
0.75
40
1
40
1
40
1
40
1
41
1
10
42.4439040059993
20
-0.909612581515574
30
0
41
1
10
42.4829750129287
20
-0.88853413632512
30
0
41
1
10
42.52569914641
20
-0.848021949282668
30
0
41
1
10
42.6193523516868
20
-0.729667457096923
30
0
41
1
10
42.6677527087082
20
-0.655005069618881
30
0
41
1
10
42.7674608116151
20
-0.477771067193231
30
0
41
1
10
42.8165300687908
20
-0.379129874459352
30
0
41
1
10
42.912438422681
20
-0.164503440903985
30
0
41
1
10
42.9577879472134
20
-0.0517268675192781
30
0
41
1
10
42.9998150064815
20
0.0646981961737367
30
0
0
SPLINE
5
B9
100
AcDbEntity
8
1
62
256
6
ByLayer
370
18
48
1
60
0
100
AcDbSpline
70
4
71
3
72
10
73
6
40
0
40
0
40
0
40
0
40
0.44537067112337
40
0.44537067112337
40
1
40
1
40
1
40
1
41
1
10
22.4502636230786
20
-3.07644256386555
30
0
41
1
10
22.2361547410703
20
-3.0758028002428
30
0
41
1
10
22.0224354611255
20
-3.07069840560502
30
0
41
1
10
21.5430529287818
20
-3.04936759294097
30
0
41
1
10
21.2775536013023
20
-3.03088655293252
30
0
41
1
10
21.0121418890538
20
-3.00583546400398
30
0
0
SPLINE
5
BA
100
AcDbEntity
8
1
62
256
6
ByLayer
370
13
48
1
60
0
100
AcDbSpline
70
4
71
3
72
24
73
20
40
0
40
0
40
0
40
0
40
0.106985447145822
40
0.106985447145822
40
0.196286902431239
40
0.196286902431239
40
0.285588357716657
40
0.285588357716657
40
0.464191268287493
40
0.464191268287493
40
0.553492723572911
40
0.553492723572911
40
0.64279417885833
40
0.64279417885833
40
0.821397089429166
40
0.821397089429166
40
0.910698544714583
40
0.910698544714583
40
1
40
1
40
1
40
1
41
1
10
21.0121418890549
20
-3.00583546400404
30
0
41
1
10
20.6156577166946
20
-2.96841299995219
30
0
41
1
10
20.2193690643178
20
-2.91632897712489
30
0
41
1
10
19.4908643589069
20
-2.79436153393982
30
0
41
1
10
19.1589396136817
20
-2.72904867427312
30
0
41
1
10
18.4927958075922
20
-2.5795158241711
30
0
41
1
10
18.1580045562944
20
-2.49520042256791
30
0
41
1
10
17.1539909886167
20
-2.21721288617391
30
0
41
1
10
16.4870215343764
20
-1.99862859590564
30
0
41
1
10
15.4834863971704
20
-1.6334334830814
30
0
41
1
10
15.148058152389
20
-1.50532150549358
30
0
41
1
10
14.4809126362569
20
-1.24101137019892
30
0
41
1
10
14.148552566302
20
-1.10448018800469
30
0
41
1
10
13.1530983610464
20
-0.686191261501421
30
0
41
1
10
12.4918197771632
20
-0.395288734100575
30
0
41
1
10
11.4967465672321
20
0.0438598286293939
30
0
41
1
10
11.1645958260188
20
0.190832389663569
30
0
41
1
10
10.4982308716527
20
0.483281454759037
30
0
41
1
10
10.1634424055829
20
0.628908270688157
30
0
41
1
10
9.82831812727517
20
0.771800256483488
30
0
0
SPLINE
5
BB
100
AcDbEntity
8
1
62
256
6
ByLayer
370
13
48
1
60
0
100
AcDbSpline
70
4
71
3
72
30
73
26
40
0
40
0
40
0
40
0
40
0.0600309235234456
40
0.0600309235234456
40
0.120061847046891
40
0.120061847046891
40
0.240123694093783
40
0.240123694093783
40
0.360185541140674
40
0.360185541140674
40
0.420216464664119
40
0.420216464664119
40
0.480247388187565
40
0.480247388187565
40
0.600309235234456
40
0.600309235234456
40
0.660340158757902
40
0.660340158757902
40
0.720371082281347
40
0.720371082281347
40
0.840432929328241
40
0.840432929328241
40
0.960494776375134
40
0.960494776375134
40
1
40
1
40
1
40
1
41
1
10
41.7708600018593
20
-2.9193070456285
30
0
41
1
10
41.4366624675827
20
-2.86674293169983
30
0
41
1
10
41.1019695653023
20
-2.80399414696413
30
0
41
1
10
40.4358671586077
20
-2.66022069296426
30
0
41
1
10
40.1041133503963
20
-2.57917412975297
30
0
41
1
10
39.1110962151863
20
-2.31096891068796
30
0
41
1
10
38.4516543200789
20
-2.09906293607776
30
0
41
1
10
37.1300850718429
20
-1.62317455778697
30
0
41
1
10
36.4674796218015
20
-1.35970914407417
30
0
41
1
10
35.4647180857858
20
-0.937833265927736
30
0
41
1
10
35.1313411119722
20
-0.793814045895829
30
0
41
1
10
34.4670990038591
20
-0.502989597645922
30
0
41
1
10
34.1359743815369
20
-0.355849275886186
30
0
41
1
10
33.1440638352503
20
0.087238574868536
30
0
41
1
10
32.4843825778763
20
0.384008217120851
30
0
41
1
10
31.4910815186491
20
0.817138453520727
30
0
41
1
10
31.1593776367308
20
0.95956350146389
30
0
41
1
10
30.493193204173
20
1.2369357832288
30
0
41
1
10
30.1582531792531
20
1.37265046455477
30
0
41
1
10
29.1557676825721
20
1.76287194680842
30
0
41
1
10
28.4887699025697
20
2.00105780350381
30
0
41
1
10
27.150328152607
20
2.41606192345347
30
0
41
1
10
26.4836465869344
20
2.59178387719197
30
0
41
1
10
25.594858845094
20
2.77417381424417
30
0
41
1
10
25.374582623034
20
2.81523428126093
30
0
41
1
10
25.1544052061533
20
2.85196728438103
30
0
0
SPLINE
5
BC
100
AcDbEntity
8
1
62
256
6
ByLayer
370
18
48
1
60
0
100
AcDbSpline
70
4
71
3
72
28
73
24
40
0
40
0
40
0
40
0
40
0.0625
40
0.0625
40
0.125
40
0.125
40
0.1875
40
0.1875
40
0.25
40
0.25
40
0.375
40
0.375
40
0.5
40
0.5
40
0.625
40
0.625
40
0.75
40
0.75
40
0.875
40
0.875
40
0.9375
40
0.9375
40
1
40
1
40
1
40
1
41
1
10
7.99173835605637
20
-1.33002883855474
30
0
41
1
10
8.03401063285125
20
-1.25319471605556
30
0
41
1
10
8.0973832516928
20
-1.18563166976674
30
0
41
1
10
8.23886482514945
20
-1.06990860545866
30
0
41
1
10
8.31843892125272
20
-1.0202587871899
30
0
41
1
10
8.48345731284351
20
-0.933784027388469
30
0
41
1
10
8.56888514615648
20
-0.896937581701025
30
0
41
1
10
8.7436346430795
20
-0.831945668339444
30
0
41
1
10
8.83299136717605
20
-0.803874082297767
30
0
41
1
10
9.10567912749482
20
-0.730161604926593
30
0
41
1
10
9.28923798979827
20
-0.695913020559175
30
0
41
1
10
9.65861176079898
20
-0.648658632342887
30
0
41
1
10
9.84449596451532
20
-0.635872457389326
30
0
41
1
10
10.2183761964022
20
-0.629601413335337
30
0
41
1
10
10.4070239967394
20
-0.636302985258567
30
0
41
1
10
10.7794505700353
20
-0.668320619191803
30
0
41
1
10
10.9639866791333
20
-0.693591308019649
30
0
41
1
10
11.3296949061169
20
-0.762382944527843
30
0
41
1
10
11.5108635136209
20
-0.805925126192022
30
0
41
1
10
11.7799744757696
20
-0.8851408982012
30
0
41
1
10
11.8693397929049
20
-0.91391672443379
30
0
41
1
10
12.0450968690081
20
-0.975352830484894
30
0
41
1
10
12.1317425755267
20
-1.00808113822103
30
0
41
1
10
12.2171715162795
20
-1.04270081394043
30
0
0
SPLINE
5
BD
100
AcDbEntity
8
1
62
256
6
ByLayer
370
18
48
1
60
0
100
AcDbSpline
70
4
71
3
72
16
73
12
40
0
40
0
40
0
40
0
40
0.25
40
0.25
40
0.375
40
0.375
40
0.5
40
0.5
40
0.75
40
0.75
40
1
40
1
40
1
40
1
41
1
10
41.7708600018586
20
-2.91930704562858
30
0
41
1
10
41.7210878885369
20
-2.86420116266211
30
0
41
1
10
41.6766898008924
20
-2.79780769000152
30
0
41
1
10
41.6183097045341
20
-2.68095844162812
30
0
41
1
10
41.6002250781996
20
-2.63911979340153
30
0
41
1
10
41.5669107348862
20
-2.54944605268895
30
0
41
1
10
41.5516271416317
20
-2.501404463124
30
0
41
1
10
41.5106916541918
20
-2.34923473424044
30
0
41
1
10
41.4901758864441
20
-2.2383471789403
30
0
41
1
10
41.4625650229273
20
-1.99786892785835
30
0
41
1
10
41.4554680632911
20
-1.86780138311158
30
0
41
1
10
41.4555343584844
20
-1.72879004994189
30
0
0
SPLINE
5
BE
100
AcDbEntity
8
1
62
256
6
ByLayer
370
18
48
1
60
0
100
AcDbSpline
70
4
71
3
72
10
73
6
40
0
40
0
40
0
40
0
40
0.548744954117392
40
0.548744954117392
40
1
40
1
40
1
40
1
41
1
10
9.42195770586306
20
-3.09973529382717
30
0
41
1
10
9.42189841504785
20
-3.11502864596685
30
0
41
1
10
9.4218326367054
20
-3.12620293304155
30
0
41
1
10
9.42170282945571
20
-3.13892072039638
30
0
41
1
10
9.42164028048362
20
-3.14180392727528
30
0
41
1
10
9.42157518757455
20
-3.14178175535196
30
0
0
SPLINE
5
BF
100
AcDbEntity
8
1
62
256
6
ByLayer
370
18
48
1
60
0
100
AcDbSpline
70
4
71
3
72
16
73
12
40
0
40
0
40
0
40
0
40
0.142520406153713
40
0.142520406153713
40
0.428346937435809
40
0.428346937435809
40
0.571260203076857
40
0.571260203076857
40
0.714173468717904
40
0.714173468717904
40
1
40
1
40
1
40
1
41
1
10
41.5587057729262
20
0.464464078374959
30
0
41
1
10
41.5828974453839
20
0.485001426479101
30
0
41
1
10
41.6083665195356
20
0.507053020389662
30
0
41
1
10
41.687200719836
20
0.575646235234899
30
0
41
1
10
41.743232317821
20
0.624984419163411
30
0
41
1
10
41.8352844096947
20
0.70112539318842
30
0
41
1
10
41.8675404743207
20
0.727004702685889
30
0
41
1
10
41.9342436818835
20
0.777495486322522
30
0
41
1
10
41.9687380842343
20
0.802163171476707
30
0
41
1
10
42.0768486359659
20
0.872590526347892
30
0
41
1
10
42.1560429215726
20
0.915009612454526
30
0
41
1
10
42.2407020168867
20
0.944288456901177
30
0
0
SPLINE
5
C0
100
AcDbEntity
8
1
62
256
6
ByLayer
370
18
48
1
60
0
100
AcDbSpline
70
4
71
3
72
8
73
4
40
0
40
0
40
0
40
0
40
1
40
1
40
1
40
1
41
1
10
42.4928865189643
20
1.48177577389822
30
0
41
1
10
42.5322098870696
20
1.36925816759677
30
0
41
1
10
42.5734982046669
20
1.26027501848662
30
0
41
1
10
42.6168506545923
20
1.1544668159884
30
0
0
SPLINE
5
C1
100
AcDbEntity
8
1
62
256
6
ByLayer
370
18
48
1
60
0
100
AcDbSpline
70
4
71
3
72
8
73
4
40
0
40
0
40
0
40
0
40
1
40
1
40
1
40
1
41
1
10
41.5452111879202
20
0.480666074499197
30
0
41
1
10
41.6666629861716
20
0.409704737189259
30
0
41
1
10
41.7889516484066
20
0.342481107318036
30
0
41
1
10
41.9121472920344
20
0.279308352099463
30
0
0
SPLINE
5
C2
100
AcDbEntity
8
1
62
256
6
ByLayer
370
18
48
1
60
0
100
AcDbSpline
70
4
71
3
72
32
73
28
40
0
40
0
40
0
40
0
40
0.0723200333925977
40
0.0723200333925977
40
0.144640066785195
40
0.144640066785195
40
0.216960100177793
40
0.216960100177793
40
0.289280133570391
40
0.289280133570391
40
0.361600166962989
40
0.361600166962989
40
0.433920200355586
40
0.433920200355586
40
0.578560267140782
40
0.578560267140782
40
0.650880300533379
40
0.650880300533379
40
0.723200333925976
40
0.723200333925976
40
0.795520367318573
40
0.795520367318573
40
0.86784040071117
40
0.86784040071117
40
0.940160434103767
40
0.940160434103767
40
1
40
1
40
1
40
1
41
1
10
9.73772000070323
20
0.612040558454027
30
0
41
1
10
10.0730225506998
20
0.462896030628229
30
0
41
1
10
10.4083087231253
20
0.311326275382385
30
0
41
1
10
11.0777413330549
20
0.0073609275986257
30
0
41
1
10
11.4120818661907
20
-0.14503965767949
30
0
41
1
10
12.0813593076575
20
-0.447703094746487
30
0
41
1
10
12.4166318035137
20
-0.598502474863551
30
0
41
1
10
13.0861894765271
20
-0.894555707604098
30
0
41
1
10
13.42029181183
20
-1.03971692900686
30
0
41
1
10
14.088242861531
20
-1.32202095881036
30
0
41
1
10
14.4220474689201
20
-1.45924214124116
30
0
41
1
10
15.0909960105819
20
-1.72246341856137
30
0
41
1
10
15.4264140626963
20
-1.84896843345763
30
0
41
1
10
16.4296422288452
20
-2.2072535062677
30
0
41
1
10
17.0963953789225
20
-2.41765430041579
30
0
41
1
10
18.100112876643
20
-2.68029695958231
30
0
41
1
10
18.4351809859626
20
-2.75892091241857
30
0
41
1
10
19.1035053542855
20
-2.89585056359246
30
0
41
1
10
19.4371561918023
20
-2.95445942522119
30
0
41
1
10
20.1049098456516
20
-3.05071912815686
30
0
41
1
10
20.4390055294671
20
-3.08839886685428
30
0
41
1
10
21.1086333381777
20
-3.14210588823551
30
0
41
1
10
21.442971462969
20
-3.15799614925714
30
0
41
1
10
22.1107745202299
20
-3.16763380209531
30
0
41
1
10
22.4444231386395
20
-3.16142848445458
30
0
41
1
10
23.054569004929
20
-3.12996677688497
30
0
41
1
10
23.3312862799351
20
-3.1081423605178
30
0
41
1
10
23.6081067190661
20
-3.07891030279941
30
0
0
SPLINE
5
C3
100
AcDbEntity
8
1
62
256
6
ByLayer
370
13
48
1
60
0
100
AcDbSpline
70
4
71
3
72
10
73
6
40
0
40
0
40
0
40
0
40
0.5
40
0.5
40
1
40
1
40
1
40
1
41
1
10
9.82831812727522
20
0.771800256483488
30
0
41
1
10
9.75727300555928
20
0.792987012601145
30
0
41
1
10
9.68735024409202
20
0.815293619575129
30
0
41
1
10
9.54993191005315
20
0.862877232467326
30
0
41
1
10
9.48202557753933
20
0.888320037977024
30
0
41
1
10
9.41654744241407
20
0.915322981093169
30
0
0
SPLINE
5
C4
100
AcDbEntity
8
1
62
256
6
ByLayer
370
18
48
1
60
0
100
AcDbSpline
70
4
71
3
72
16
73
12
40
0
40
0
40
0
40
0
40
0.249999999999998
40
0.249999999999998
40
0.499999999999996
40
0.499999999999996
40
0.624999999999997
40
0.624999999999997
40
0.749999999999998
40
0.749999999999998
40
1
40
1
40
1
40
1
41
1
10
14.0461975168835
20
-2.55433577075013
30
0
41
1
10
13.6831287630799
20
-2.63878055195144
30
0
41
1
10
13.3218062993525
20
-2.71520205922283
30
0
41
1
10
12.603250949957
20
-2.84762959281346
30
0
41
1
10
12.2459332186435
20
-2.90436496743064
30
0
41
1
10
11.7134842327368
20
-2.97085459554342
30
0
41
1
10
11.5369575899846
20
-2.98988153157254
30
0
41
1
10
11.1867047796085
20
-3.02184172150112
30
0
41
1
10
11.0128669968038
20
-3.03466944674793
30
0
41
1
10
10.4960680067492
20
-3.06102656824882
30
0
41
1
10
10.1576275664123
20
-3.06304305112133
30
0
41
1
10
9.82829448660044
20
-3.03999310191597
30
0
0
SPLINE
5
C5
100
AcDbEntity
8
1
62
256
6
ByLayer
370
18
48
1
60
0
100
AcDbSpline
70
4
71
3
72
20
73
16
40
0
40
0
40
0
40
0
40
0.125
40
0.125
40
0.25
40
0.25
40
0.375
40
0.375
40
0.5
40
0.5
40
0.75
40
0.75
40
0.875
40
0.875
40
1
40
1
40
1
40
1
41
1
10
42.4397168274959
20
-0.905426336317419
30
0
41
1
10
42.4011147338297
20
-0.905699808346327
30
0
41
1
10
42.3646469992966
20
-0.895694127333854
30
0
41
1
10
42.2951796366413
20
-0.858980235727557
30
0
41
1
10
42.2618748765138
20
-0.831813579172916
30
0
41
1
10
42.2003278168796
20
-0.764407158878669
30
0
41
1
10
42.1720289091543
20
-0.724371460358583
30
0
41
1
10
42.1196045843471
20
-0.633620218075009
30
0
41
1
10
42.0953376646476
20
-0.582477618323935
30
0
41
1
10
42.0295439196211
20
-0.417378333245836
30
0
41
1
10
41.9949786969413
20
-0.293044269187391
30
0
41
1
10
41.9547095864682
20
-0.088774118574463
30
0
41
1
10
41.9432420277187
20
-0.0173531151178281
30
0
41
1
10
41.9246113033048
20
0.128380115233881
30
0
41
1
10
41.9173709259829
20
0.202994753991049
30
0
41
1
10
41.9121472920343
20
0.279308352099491
30
0
0
SPLINE
5
C6
100
AcDbEntity
8
1
62
256
6
ByLayer
370
18
48
1
60
0
100
AcDbSpline
70
4
71
3
72
18
73
14
40
0
40
0
40
0
40
0
40
0.162866715286612
40
0.162866715286612
40
0.325733430573224
40
0.325733430573224
40
0.488600145859835
40
0.488600145859835
40
0.651466861146447
40
0.651466861146447
40
0.977200291719667
40
0.977200291719667
40
1
40
1
40
1
40
1
41
1
10
16.1699032924954
20
-2.38672975339671
30
0
41
1
10
16.439437522909
20
-2.46772427594871
30
0
41
1
10
16.708160963536
20
-2.54254421596323
30
0
41
1
10
17.2441285243677
20
-2.68015106444753
30
0
41
1
10
17.51113942884
20
-2.74319045101095
30
0
41
1
10
18.0445172243611
20
-2.85631653254256
30
0
41
1
10
18.3107467063066
20
-2.90657988164276
30
0
41
1
10
18.8428525182938
20
-2.99405165853409
30
0
41
1
10
19.108543586154
20
-3.03137044418233
30
0
41
1
10
19.9067798049715
20
-3.12259128483512
30
0
41
1
10
20.4392361527912
20
-3.15650346263484
30
0
41
1
10
21.0122968504006
20
-3.16241651355759
30
0
41
1
10
21.0497960131307
20
-3.16266462146302
30
0
41
1
10
21.0873081754092
20
-3.16277359657113
30
0
0
SPLINE
5
C7
100
AcDbEntity
8
1
62
256
6
ByLayer
370
18
48
1
60
0
100
AcDbSpline
70
4
71
3
72
16
73
12
40
0
40
0
40
0
40
0
40
0.312654885849045
40
0.312654885849045
40
0.484491164386784
40
0.484491164386784
40
0.656327442924523
40
0.656327442924523
40
0.828163721462261
40
0.828163721462261
40
1
40
1
40
1
40
1
41
1
10
37.2018353418372
20
2.18385333574526
30
0
41
1
10
37.6865700953517
20
2.34730582877748
30
0
41
1
10
38.1693309124883
20
2.49450571244319
30
0
41
1
10
38.9179275299365
20
2.69247561128694
30
0
41
1
10
39.1832408950741
20
2.75719242032855
30
0
41
1
10
39.7148227296392
20
2.87398338343638
30
0
41
1
10
39.9809283809383
20
2.92626135304658
30
0
41
1
10
40.5142403337569
20
3.01795608340026
30
0
41
1
10
40.7814004425213
20
3.05738607540948
30
0
41
1
10
41.3178883700587
20
3.12236838451517
30
0
41
1
10
41.5873305885967
20
3.1480200209771
30
0
41
1
10
41.8561710076599
20
3.16648688151616
30
0
0
SPLINE
5
C8
100
AcDbEntity
8
1
62
256
6
ByLayer
370
18
48
1
60
0
100
AcDbSpline
70
4
71
3
72
10
73
6
40
0
40
0
40
0
40
0
40
0.5
40
0.5
40
1
40
1
40
1
40
1
41
1
10
41.8561710076599
20
-3.16648688151616
30
0
41
1
10
41.9623805744918
20
-2.89776210660966
30
0
41
1
10
42.0699806235467
20
-2.62372365905077
30
0
41
1
10
42.2837676839872
20
-2.06298738077899
30
0
41
1
10
42.3899624111178
20
-1.77627685057612
30
0
41
1
10
42.4928865189643
20
-1.48177577389822
30
0
0
SPLINE
5
C9
100
AcDbEntity
8
1
62
256
6
ByLayer
370
18
48
1
60
0
100
AcDbSpline
70
4
71
3
72
8
73
4
40
0
40
0
40
0
40
0
40
1
40
1
40
1
40
1
41
1
10
42.9572624358862
20
0.184183570822824
30
0
41
1
10
42.8431740234345
20
0.507396529816333
30
0
41
1
10
42.7297026079858
20
0.830823992545589
30
0
41
1
10
42.6168506545864
20
1.15446681600284
30
0
0
SPLINE
5
CA
100
AcDbEntity
8
1
62
256
6
ByLayer
370
18
48
1
60
0
100
AcDbSpline
70
4
71
4
72
10
73
5
40
0
40
0
40
0
40
0
40
0
40
1
40
1
40
1
40
1
40
1
41
1
10
14.3192642073537
20
-1.81480439563441
30
0
41
1
10
14.2509975347362
20
-1.99968723941333
30
0
41
1
10
14.1827308621186
20
-2.18457008319228
30
0
41
1
10
14.114464189501
20
-2.36945292697124
30
0
41
1
10
14.0461975168834
20
-2.55433577075016
30
0
0
SPLINE
5
CB
100
AcDbEntity
8
1
62
256
6
ByLayer
370
13
48
1
60
0
100
AcDbSpline
70
4
71
3
72
75
73
71
40
0
40
0
40
0
40
0
40
0.0063306502366131
40
0.0145379811327561
40
0.0227453120288989
40
0.0391599738211847
40
0.0555746356134705
40
0.0719892974057561
40
0.0966112900941847
40
0.104818620990328
40
0.121233282782614
40
0.137647944574899
40
0.17047726815947
40
0.178684599055613
40
0.186891929951756
40
0.203306591744042
40
0.211513922640185
40
0.219721253536328
40
0.236135915328613
40
0.252550577120899
40
0.268965238913185
40
0.293587231601614
40
0.301794562497756
40
0.318209224290043
40
0.334623886082328
40
0.367453209666899
40
0.375660540563042
40
0.383867871459185
40
0.400282533251471
40
0.408489864147614
40
0.416697195043757
40
0.433111856836042
40
0.449526518628328
40
0.465941180420614
40
0.490563173109043
40
0.498770504005185
40
0.515185165797471
40
0.531599827589757
40
0.564429151174328
40
0.572636482070471
40
0.580843812966614
40
0.5972584747589
40
0.605465805655043
40
0.613673136551185
40
0.630087798343471
40
0.646502460135757
40
0.662917121928042
40
0.687539114616471
40
0.695746445512614
40
0.7121611073049
40
0.728575769097186
40
0.761405092681757
40
0.7696124235779
40
0.777819754474043
40
0.794234416266328
40
0.802441747162472
40
0.810649078058614
40
0.8270637398509
40
0.843478401643186
40
0.859893063435471
40
0.8845150561239
40
0.892722387020043
40
0.909137048812329
40
0.925551710604614
40
0.958381034189186
40
0.966588365085329
40
0.974795695981472
40
0.991210357773757
40
0.9994176886699
40
1
40
1
40
1
40
1
41
1
10
31.5833641789343
20
0.0542310288414285
30
0
41
0.999999999999999
10
31.5542383083625
20
0.0604648428011956
30
0
41
1
10
31.4873532731346
20
0.0747819340833474
30
0
41
1
10
31.3827116869224
20
0.0971834495664439
30
0
41
1
10
31.2316616990542
20
0.129396824190223
30
0
41
1
10
31.0428487310216
20
0.169581065288185
30
0
41
1
10
30.8162843209272
20
0.217685853588762
30
0
41
1
10
30.5519468497366
20
0.273453062168329
30
0
41
1
10
30.3253984705434
20
0.321031333055942
30
0
41
1
10
30.098847646669
20
0.368257627513856
30
0
41
1
10
29.9100338716223
20
0.407257758506972
30
0
41
1
10
29.6079169491081
20
0.468976929564008
30
0
41
1
10
29.343610573625
20
0.522379816446403
30
0
41
1
10
29.1170864768853
20
0.567574158308986
30
0
41
1
10
28.966036800984
20
0.597305315958067
30
0
41
1
10
28.8149955649616
20
0.626769259153321
30
0
41
1
10
28.6639616609326
20
0.655944438232951
30
0
41
1
10
28.5129116363791
20
0.684784181910914
30
0
41
1
10
28.3240986237914
20
0.720379609431319
30
0
41
1
10
28.0975342167981
20
0.762398920916866
30
0
41
1
10
27.833196810369
20
0.810376621014456
30
0
41
1
10
27.606648495136
20
0.850576114012654
30
0
41
1
10
27.380097681618
20
0.889852924485354
30
0
41
1
10
27.1912838687621
20
0.921864163943412
30
0
41
1
10
26.8891668417083
20
0.971661821670125
30
0
41
1
10
26.6248603910157
20
1.01370641584362
30
0
41
1
10
26.3983363290854
20
1.04851920666877
30
0
41
1
10
26.247286679115
20
1.07114881801493
30
0
41
1
10
26.0962454729433
20
1.09325943254203
30
0
41
1
10
25.945211596747
20
1.11483337214264
30
0
41
1
10
25.7941616028043
20
1.13590795765751
30
0
41
1
10
25.6053486279177
20
1.16149542110694
30
0
41
1
10
25.3787842109391
20
1.19103314120213
30
0
41
1
10
25.1144467336377
20
1.22391945548432
30
0
41
1
10
24.8878983515658
20
1.25062333710417
30
0
41
1
10
24.6613475270627
20
1.27597519859918
30
0
41
1
10
24.4725337530092
20
1.29612806628183
30
0
41
1
10
24.1704168349941
20
1.32642946752969
30
0
41
1
10
23.9061104667537
20
1.35071952528279
30
0
41
1
10
23.6795863778854
20
1.36985226206826
30
0
41
1
10
23.5285367076736
20
1.38193535437998
30
0
41
1
10
23.3774954779334
20
1.39332542650462
30
0
41
1
10
23.2264615806766
20
1.40401116815227
30
0
41
1
10
23.0754115631776
20
1.41410863470671
30
0
41
1
10
22.8865985598245
20
1.42578619580218
30
0
41
1
10
22.6600341658735
20
1.43833398957329
30
0
41
1
10
22.3956967776892
20
1.45110732864967
30
0
41
1
10
22.169148480089
20
1.46023873949113
30
0
41
1
10
21.9425976846294
20
1.46779936071917
30
0
41
1
10
21.7537838868057
20
1.4730238955639
30
0
41
1
10
21.4516668826688
20
1.47921871580982
30
0
41
1
10
21.1873604491333
20
1.48206351641792
30
0
41
1
10
20.9608363985067
20
1.48260901977028
30
0
41
1
10
20.8097867559052
20
1.48230991143618
30
0
41
1
10
20.6587455566622
20
1.48124983432817
30
0
41
1
10
20.5077116869224
20
1.47942634202769
30
0
41
1
10
20.3566616990542
20
1.47701635969926
30
0
41
1
10
20.1678487310216
20
1.47301749986289
30
0
41
1
10
19.9412843209271
20
1.46668442337926
30
0
41
1
10
19.6769468497365
20
1.45742441779677
30
0
41
1
10
19.4503984705434
20
1.44761029456086
30
0
41
1
10
19.2238476465523
20
1.43623622211101
30
0
41
1
10
19.0350338725561
20
1.4257360335358
30
0
41
1
10
18.7329169534315
20
1.40686904632378
30
0
41
1
10
18.4686105800313
20
1.38781777282776
30
0
41
1
10
18.2420864802782
20
1.36968226825721
30
0
41
1
10
18.0910368007603
20
1.35704013025102
30
0
41
1
10
17.9399955583386
20
1.34368551918192
30
0
41
1
10
17.8240411531935
20
1.33289000432475
30
0
41
1
10
17.7836013934949
20
1.32905408548592
30
0
41
1
10
17.7809222613294
20
1.32879964590575
30
0
0
SPLINE
5
CC
100
AcDbEntity
8
1
62
256
6
ByLayer
370
18
48
1
60
0
100
AcDbSpline
70
4
71
3
72
8
73
4
40
0
40
0
40
0
40
0
40
1
40
1
40
1
40
1
41
1
10
42.4928865189644
20
-1.48177577389822
30
0
41
1
10
42.5322098870696
20
-1.36925816759668
30
0
41
1
10
42.573498204667
20
-1.26027501848643
30
0
41
1
10
42.6168506545924
20
-1.15446681598812
30
0
0
SPLINE
5
CD
100
AcDbEntity
8
1
62
256
6
ByLayer
370
18
48
1
60
0
100
AcDbSpline
70
4
71
3
72
28
73
24
40
0
40
0
40
0
40
0
40
0.0126054896376761
40
0.0126054896376761
40
0.153661848260866
40
0.153661848260866
40
0.22419002757246
40
0.22419002757246
40
0.294718206884055
40
0.294718206884055
40
0.435774565507244
40
0.435774565507244
40
0.506302744818839
40
0.506302744818839
40
0.576830924130433
40
0.576830924130433
40
0.717887282753622
40
0.717887282753622
40
0.788415462065217
40
0.788415462065217
40
0.858943641376811
40
0.858943641376811
40
1
40
1
40
1
40
1
41
1
10
9.42157544166326
20
3.1417818271461
30
0
41
1
10
9.4215612956192
20
3.14177865157183
30
0
41
1
10
9.42154702931694
20
3.14163823491233
30
0
41
1
10
9.42137183491062
20
3.13824735641839
30
0
41
1
10
9.42119785805608
20
3.11822818375745
30
0
41
1
10
9.42092373802814
20
3.06342522519748
30
0
41
1
10
9.42083008380408
20
3.04100356919759
30
0
41
1
10
9.42063827225269
20
2.98764402347308
30
0
41
1
10
9.42054002462908
20
2.95662977976556
30
0
41
1
10
9.42024383457562
20
2.85264593862868
30
0
41
1
10
9.42004277741106
20
2.76833546815558
30
0
41
1
10
9.41972839037527
20
2.61963925726093
30
0
41
1
10
9.41962139093442
20
2.56634684093643
30
0
41
1
10
9.4194007916789
20
2.45207367248855
30
0
41
1
10
9.4192881940663
20
2.39160675104625
30
0
41
1
10
9.41894299487967
20
2.20204998933832
30
0
41
1
10
9.41870198566582
20
2.06423819104103
30
0
41
1
10
9.41830694174482
20
1.84034523298269
30
0
41
1
10
9.41816912061182
20
1.76255710112929
30
0
41
1
10
9.41788079367427
20
1.60226495578078
30
0
41
1
10
9.41773140953558
20
1.52038672807234
30
0
41
1
10
9.41726332705974
20
1.26970817431859
30
0
41
1
10
9.41692483984144
20
1.09590370082833
30
0
41
1
10
9.41654744239051
20
0.915322981096267
30
0
0
SPLINE
5
CE
100
AcDbEntity
8
1
62
256
6
ByLayer
370
13
48
1
60
0
100
AcDbSpline
70
4
71
3
72
28
73
24
40
0
40
0
40
0
40
0
40
0.066756743163392
40
0.066756743163392
40
0.133513486326784
40
0.133513486326784
40
0.267026972653568
40
0.267026972653568
40
0.333783715816961
40
0.333783715816961
40
0.400540458980353
40
0.400540458980353
40
0.534053945307137
40
0.534053945307137
40
0.600810688470529
40
0.600810688470529
40
0.667567431633922
40
0.667567431633922
40
0.801080917960706
40
0.801080917960706
40
0.934594404287491
40
0.934594404287491
40
1
40
1
40
1
40
1
41
1
10
9.82831812727517
20
0.771800256483488
30
0
41
1
10
9.82831405130412
20
0.859901506561897
30
0
41
1
10
9.82830908906479
20
0.946692554828161
30
0
41
1
10
9.82829800302881
20
1.11767423588049
30
0
41
1
10
9.82829185486685
20
1.20215355409889
30
0
41
1
10
9.82827273953157
20
1.44876308474147
30
0
41
1
10
9.82825913142506
20
1.60447545013707
30
0
41
1
10
9.82824035770193
20
1.8253292151611
30
0
41
1
10
9.82823436405624
20
1.89681549986787
30
0
41
1
10
9.82822331237247
20
2.03542701211799
30
0
41
1
10
9.82821824906313
20
2.10269500256652
30
0
41
1
10
9.82820523889242
20
2.29396748315403
30
0
41
1
10
9.82819938705242
20
2.40886344271192
30
0
41
1
10
9.8281957528678
20
2.56258351551003
30
0
41
1
10
9.82819539080521
20
2.61070156914428
30
0
41
1
10
9.8281964262444
20
2.70052100255128
30
0
41
1
10
9.82819783176728
20
2.7420457417673
30
0
41
1
10
9.82820446369561
20
2.85458020998087
30
0
41
1
10
9.82821213779471
20
2.9145118224906
30
0
41
1
10
9.82823208147019
20
3.00440555012048
30
0
41
1
10
9.82824444983544
20
3.03431448175743
30
0
41
1
10
9.82826353474874
20
3.05442977983987
30
0
41
1
10
9.82826992684261
20
3.05714918822463
30
0
41
1
10
9.82827610527886
20
3.05599677136314
30
0
0
SPLINE
5
CF
100
AcDbEntity
8
1
62
256
6
ByLayer
370
18
48
1
60
0
100
AcDbSpline
70
4
71
3
72
42
73
38
40
0
40
0
40
0
40
0
40
0.040718996827658
40
0.040718996827658
40
0.0912074706788337
40
0.0912074706788337
40
0.192184418381185
40
0.192184418381185
40
0.242672892232361
40
0.242672892232361
40
0.293161366083537
40
0.293161366083537
40
0.343649839934713
40
0.343649839934713
40
0.39413831378589
40
0.39413831378589
40
0.495115261488242
40
0.495115261488242
40
0.545603735339419
40
0.545603735339419
40
0.596092209190595
40
0.596092209190595
40
0.646580683041771
40
0.646580683041771
40
0.697069156892948
40
0.697069156892948
40
0.747557630744124
40
0.747557630744124
40
0.7980461045953
40
0.7980461045953
40
0.899023052297651
40
0.899023052297651
40
0.949511526148826
40
0.949511526148826
40
0.974755763074413
40
0.974755763074413
40
1
40
1
40
1
40
1
41
1
10
21.9703622082913
20
3.1643735681792
30
0
41
1
10
22.2395829781192
20
3.16482513554843
30
0
41
1
10
22.5087004176497
20
3.15810812796724
30
0
41
1
10
23.1118434409794
20
3.12702083027085
30
0
41
1
10
23.4463790891624
20
3.09874264058348
30
0
41
1
10
24.4501223652266
20
2.98160593092513
30
0
41
1
10
25.1162577455849
20
2.86080210463515
30
0
41
1
10
26.1182056423682
20
2.62207920742472
30
0
41
1
10
26.4531739215312
20
2.53274597898908
30
0
41
1
10
27.121517139801
20
2.33723700918097
30
0
41
1
10
27.4550622850068
20
2.23108234792471
30
0
41
1
10
28.1221263230222
20
2.00390734708415
30
0
41
1
10
28.4556709358056
20
1.8829339914395
30
0
41
1
10
29.1238754527186
20
1.62801477330694
30
0
41
1
10
29.4587238694796
20
1.4940409115251
30
0
41
1
10
30.4601864452757
20
1.07886471164522
30
0
41
1
10
31.1259882448253
20
0.783771048976774
30
0
41
1
10
32.1289344613404
20
0.328181989638836
30
0
41
1
10
32.463228285841
20
0.174683663193775
30
0
41
1
10
33.1303531291978
20
-0.132032659437982
30
0
41
1
10
33.4635089581042
20
-0.28555299640422
30
0
41
1
10
34.1304305592442
20
-0.589807060925864
30
0
41
1
10
34.4644705904981
20
-0.740643967485823
30
0
41
1
10
35.1331289886592
20
-1.03658124309831
30
0
41
1
10
35.4665964345846
20
-1.181301550402
30
0
41
1
10
36.1332171054037
20
-1.46140064861268
30
0
41
1
10
36.4663816406762
20
-1.59676380777847
30
0
41
1
10
37.1335362450582
20
-1.8559549213131
30
0
41
1
10
37.4679609252075
20
-1.98009273982598
30
0
41
1
10
38.4697773442673
20
-2.32991448327419
30
0
41
1
10
39.1360459474872
20
-2.53311203233122
30
0
41
1
10
40.1386884107868
20
-2.78267023263456
30
0
41
1
10
40.4722600938622
20
-2.85621604997255
30
0
41
1
10
40.9724726461321
20
-2.95134234757205
30
0
41
1
10
41.139184742237
20
-2.98052000055063
30
0
41
1
10
41.4726941765915
20
-3.03368853581713
30
0
41
1
10
41.6393379630293
20
-3.05777028073874
30
0
41
1
10
41.8064195088954
20
-3.07900194091817
30
0
0
SPLINE
5
D0
100
AcDbEntity
8
1
62
256
6
ByLayer
370
18
48
1
60
0
100
AcDbSpline
70
4
71
3
72
60
73
56
40
0
40
0
40
0
40
0
40
0.0312500000000004
40
0.0312500000000004
40
0.0625000000000008
40
0.0625000000000008
40
0.0937500000000012
40
0.0937500000000012
40
0.125000000000002
40
0.125000000000002
40
0.187500000000002
40
0.187500000000002
40
0.218750000000002
40
0.218750000000002
40
0.250000000000002
40
0.250000000000002
40
0.312500000000001
40
0.312500000000001
40
0.343750000000001
40
0.343750000000001
40
0.375000000000001
40
0.375000000000001
40
0.406250000000001
40
0.406250000000001
40
0.437500000000001
40
0.437500000000001
40
0.468750000000001
40
0.468750000000001
40
0.500000000000002
40
0.500000000000002
40
0.531250000000002
40
0.531250000000002
40
0.562500000000002
40
0.562500000000002
40
0.625000000000002
40
0.625000000000002
40
0.656250000000002
40
0.656250000000002
40
0.687500000000001
40
0.687500000000001
40
0.749999999999999
40
0.749999999999999
40
0.781249999999999
40
0.781249999999999
40
0.812499999999999
40
0.812499999999999
40
0.874999999999998
40
0.874999999999998
40
0.906249999999999
40
0.906249999999999
40
0.937499999999999
40
0.937499999999999
40
0.96875
40
0.96875
40
1
40
1
40
1
40
1
41
1
10
16.1699032924954
20
2.38672975339671
30
0
41
1
10
16.4394363638378
20
2.46772392765001
30
0
41
1
10
16.7081586503051
20
2.54254357500514
30
0
41
1
10
17.244123923175
20
2.6801499301632
30
0
41
1
10
17.5111336856406
20
2.74318912766563
30
0
41
1
10
18.0445092055338
20
2.85631493704571
30
0
41
1
10
18.3107375525781
20
2.9065782057211
30
0
41
1
10
18.8428410782114
20
2.99404994907502
30
0
41
1
10
19.1085310097599
20
3.03136877131436
30
0
41
1
10
19.9067637661395
20
3.1225899232567
30
0
41
1
10
20.4392177883431
20
3.1565025437946
30
0
41
1
10
21.242574122524
20
3.16479296374973
30
0
41
1
10
21.5109575067883
20
3.16047889540081
30
0
41
1
10
22.0498542713154
20
3.13738110607801
30
0
41
1
10
22.3187886966805
20
3.11878758586445
30
0
41
1
10
23.1220682495605
20
3.04212022879273
30
0
41
1
10
23.6547112881804
20
2.96360888585835
30
0
41
1
10
24.4524015628762
20
2.8077896105772
30
0
41
1
10
24.717964291239
20
2.7493510856568
30
0
41
1
10
25.2498297109067
20
2.62105558555243
30
0
41
1
10
25.515668404538
20
2.5506446927287
30
0
41
1
10
26.0485206533546
20
2.39895836072051
30
0
41
1
10
26.3154116380247
20
2.3175504809756
30
0
41
1
10
26.85040184791
20
2.14380087365203
30
0
41
1
10
27.1185698380364
20
2.05154769818375
30
0
41
1
10
27.6571607513346
20
1.85766568444652
30
0
41
1
10
27.9264475603708
20
1.75651245915165
30
0
41
1
10
28.463723650944
20
1.54638930577491
30
0
41
1
10
28.732179104156
20
1.43781153209099
30
0
41
1
10
29.269209619183
20
1.21460391349078
30
0
41
1
10
29.5377558599801
20
1.09991969769703
30
0
41
1
10
30.0752340062733
20
0.864954609241039
30
0
41
1
10
30.344941583881
20
0.7454833466509
30
0
41
1
10
31.1518427965492
20
0.382654500907307
30
0
41
1
10
31.6880251390522
20
0.135423574006978
30
0
41
1
10
32.4937682338696
20
-0.234482691727265
30
0
41
1
10
32.7623397152761
20
-0.358210682116265
30
0
41
1
10
33.301110000914
20
-0.602762431230161
30
0
41
1
10
33.5697821501971
20
-0.724106306255607
30
0
41
1
10
34.3753259006742
20
-1.08176510102979
30
0
41
1
10
34.9114320970473
20
-1.31235318974674
30
0
41
1
10
35.7177703114553
20
-1.63909320127723
30
0
41
1
10
35.9874465135771
20
-1.74440374080331
30
0
41
1
10
36.5235492026461
20
-1.94661428274392
30
0
41
1
10
36.7907788978479
20
-2.04310887246692
30
0
41
1
10
37.5906949546306
20
-2.3178785720668
30
0
41
1
10
38.1213112297706
20
-2.48180401721356
30
0
41
1
10
38.9178305098865
20
-2.69245128557947
30
0
41
1
10
39.1831426715177
20
-2.75716930415572
30
0
41
1
10
39.7147220757504
20
-2.87396280474931
30
0
41
1
10
39.9808265175007
20
-2.9262421032966
30
0
41
1
10
40.5141357923542
20
-3.01793984436301
30
0
41
1
10
40.7812946145804
20
-3.05737137254386
30
0
41
1
10
41.3177796428862
20
-3.12235709855563
30
0
41
1
10
41.5871995735186
20
-3.14801102144801
30
0
41
1
10
41.85617100766
20
-3.16648688151616
30
0
0
SPLINE
5
D1
100
AcDbEntity
8
1
62
256
6
ByLayer
370
13
48
1
60
0
100
AcDbSpline
70
4
71
3
72
22
73
18
40
0
40
0
40
0
40
0
40
0.0417560465380109
40
0.0805594912645145
40
0.119362935991015
40
0.196969825444023
40
0.27457671489703
40
0.352183604350039
40
0.468593938529537
40
0.507397383256049
40
0.585004272709052
40
0.662611162162063
40
0.817824941068075
40
0.856628385794579
40
0.895431830521074
40
0.973038719974088
40
1
40
1
40
1
40
1
41
1
10
42.4928865183657
20
1.48177577389416
30
0
41
1
10
42.4522528330879
20
1.48150088016118
30
0
41
1
10
42.3738601774444
20
1.48082864919104
30
0
41
1
10
42.2577116869224
20
1.47942634202769
30
0
41
1
10
42.1066616990543
20
1.47701635969926
30
0
41
1
10
41.9178487310216
20
1.47301749986286
30
0
41
1
10
41.6912843209271
20
1.46668442337929
30
0
41
1
10
41.4269468497365
20
1.4574244177968
30
0
41
1
10
41.2003984705434
20
1.44761029456086
30
0
41
1
10
40.973847646669
20
1.43623622208483
30
0
41
1
10
40.7850338716222
20
1.42573603374876
30
0
41
1
10
40.4829169491081
20
1.4068689073888
30
0
41
1
10
40.218610573625
20
1.38781714483517
30
0
41
1
10
39.9920864768853
20
1.36968069585652
30
0
41
1
10
39.841036800984
20
1.35703777101443
30
0
41
1
10
39.7015193820232
20
1.34470109206546
30
0
41
1
10
39.5997667091686
20
1.33527537087397
30
0
41
1
10
39.5735307753557
20
1.33281559801657
30
0
0
SPLINE
5
D2
100
AcDbEntity
8
1
62
256
6
ByLayer
370
18
48
1
60
0
100
AcDbSpline
70
4
71
1
72
4
73
2
40
0
40
0
40
1
40
1
41
1
10
42.4339208663434
20
-0.943315096191526
30
0
41
1
10
42.4439040059974
20
-0.909612581539733
30
0
0
SPLINE
5
D3
100
AcDbEntity
8
1
62
256
6
ByLayer
370
18
48
1
60
0
100
AcDbSpline
70
4
71
3
72
8
73
4
40
0
40
0
40
0
40
0
40
1
40
1
40
1
40
1
41
1
10
42.9998150064815
20
0.0646981961737367
30
0
41
1
10
42.9855343113124
20
0.104442247331008
30
0
41
1
10
42.9713509875556
20
0.144270643864132
30
0
41
1
10
42.9572624358804
20
0.184183570839338
30
0
0
SPLINE
5
D4
100
AcDbEntity
8
1
62
256
6
ByLayer
370
18
48
1
60
0
100
AcDbSpline
70
4
71
3
72
10
73
6
40
0
40
0
40
0
40
0
40
0.5
40
0.5
40
1
40
1
40
1
40
1
41
1
10
12.2171715162796
20
-1.04270081394043
30
0
41
1
10
12.8783169796091
20
-1.31062689779586
30
0
41
1
10
13.5385526054163
20
-1.55406291173702
30
0
41
1
10
14.8563431436008
20
-2.00115618624409
30
0
41
1
10
15.5139080362355
20
-2.2046658378606
30
0
41
1
10
16.1699032924954
20
-2.38672975339671
30
0
0
SPLINE
5
D5
100
AcDbEntity
8
1
62
256
6
ByLayer
370
13
48
1
60
0
100
AcDbSpline
70
4
71
3
72
74
73
70
40
0
40
0
40
0
40
0
40
0.0008622257135652
40
0.0256721553653518
40
0.0339421319159468
40
0.0504820850171373
40
0.0670220381183291
40
0.10010194432071
40
0.108371920871305
40
0.116641897421901
40
0.133181850523091
40
0.141451827073687
40
0.149721803624282
40
0.166261756725473
40
0.182801709826664
40
0.199341662927855
40
0.224151592579641
40
0.232421569130236
40
0.248961522231427
40
0.265501475332618
40
0.298581381534999
40
0.306851358085595
40
0.31512133463619
40
0.331661287737381
40
0.339931264287976
40
0.348201240838572
40
0.364741193939763
40
0.381281147040953
40
0.397821100142144
40
0.42263102979393
40
0.430901006344526
40
0.447440959445717
40
0.463980912546907
40
0.497060818749289
40
0.505330795299883
40
0.51360077185048
40
0.53014072495167
40
0.538410701502266
40
0.546680678052861
40
0.563220631154052
40
0.579760584255243
40
0.596300537356433
40
0.62111046700822
40
0.629380443558815
40
0.645920396660007
40
0.662460349761197
40
0.695540255963578
40
0.703810232514174
40
0.712080209064769
40
0.72862016216596
40
0.736890138716555
40
0.745160115267151
40
0.761700068368341
40
0.778240021469533
40
0.794779974570723
40
0.819589904222509
40
0.827859880773105
40
0.844399833874296
40
0.860939786975486
40
0.894019693177868
40
0.902289669728463
40
0.910559646279059
40
0.927099599380249
40
0.935369575930845
40
0.94363955248144
40
0.960179505582631
40
0.976719458683822
40
0.993259411785013
40
1
40
1
40
1
40
1
41
1
10
34.9523670159439
20
-1.33887212788386
30
0
41
1
10
34.9484301747911
20
-1.33923484076104
30
0
41
1
10
34.8312132738367
20
-1.35001540358488
30
0
41
1
10
34.6762250485362
20
-1.36352357830606
30
0
41
1
10
34.4496508613594
20
-1.38181026546425
30
0
41
1
10
34.2608604804381
20
-1.39607883362433
30
0
41
1
10
33.958810765417
20
-1.41685825418313
30
0
41
1
10
33.6944712838601
20
-1.43249596818657
30
0
41
1
10
33.4678703345408
20
-1.44405452223415
30
0
41
1
10
33.3168366795607
20
-1.45115157329587
30
0
41
1
10
33.165794575557
20
-1.45749736113009
30
0
41
1
10
33.0147451317035
20
-1.46309150154548
30
0
41
1
10
32.8637118242188
20
-1.46810758884339
30
0
41
1
10
32.6749206716853
20
-1.47339448093049
30
0
41
1
10
32.4483600672993
20
-1.47820392264549
30
0
41
1
10
32.184051636647
20
-1.481908010946
30
0
41
1
10
31.9574749200875
20
-1.48319646964202
30
0
41
1
10
31.7309007038483
20
-1.48290828921279
30
0
41
1
10
31.5421103467247
20
-1.48159057243828
30
0
41
1
10
31.240060717906
20
-1.47728620419173
30
0
41
1
10
30.9757213016878
20
-1.47094189416259
30
0
41
1
10
30.7491203140538
20
-1.46366107924302
30
0
41
1
10
30.5980866314073
20
-1.45812762869426
30
0
41
1
10
30.4470444968421
20
-1.45185188862447
30
0
41
1
10
30.2959950254097
20
-1.4448431151317
30
0
41
1
10
30.1449616882315
20
-1.43723366493589
30
0
41
1
10
29.9561705003057
20
-1.42675797152342
30
0
41
1
10
29.7296099120474
20
-1.41272534415228
30
0
41
1
10
29.4653015644563
20
-1.39450688781162
30
0
41
1
10
29.2387249295564
20
-1.37715395328044
30
0
41
1
10
29.0121507417509
20
-1.35833713896395
30
0
41
1
10
28.8233603618229
20
-1.34162715147713
30
0
41
1
10
28.5213106513015
20
-1.31287192232531
30
0
41
1
10
28.2569711769878
20
-1.28548483648422
30
0
41
1
10
28.0303702355399
20
-1.2604573403714
30
0
41
1
10
27.8793365862492
20
-1.24312686516532
30
0
41
1
10
27.7282944885277
20
-1.22517796056107
30
0
41
1
10
27.5772450514461
20
-1.206627189947
30
0
41
1
10
27.4262117510153
20
-1.18754489956862
30
0
41
1
10
27.2374206077153
20
-1.16289428151305
30
0
41
1
10
27.0108600163707
20
-1.13214551061734
30
0
41
1
10
26.746551603964
20
-1.0947666287272
30
0
41
1
10
26.5199749050391
20
-1.06140805569981
30
0
41
1
10
26.29340070686
20
-1.0269278725851
30
0
41
1
10
26.1046103647702
20
-0.997374955241042
30
0
41
1
10
25.8025607588702
20
-0.948561650588061
30
0
41
1
10
25.5382213598093
20
-0.904317504743318
30
0
41
1
10
25.3116203834774
20
-0.865362100699599
30
0
41
1
10
25.1605867081992
20
-0.838877442265954
30
0
41
1
10
25.0095445805624
20
-0.8119906614088
30
0
41
1
10
24.8584951155862
20
-0.784723531629851
30
0
41
1
10
24.7074617844824
20
-0.75707424069779
30
0
41
1
10
24.5186706034106
20
-0.72200136899022
30
0
41
1
10
24.2921100220369
20
-0.679216644766996
30
0
41
1
10
24.027801680557
20
-0.628365733823131
30
0
41
1
10
23.8012250485362
20
-0.584077032737326
30
0
41
1
10
23.5746508613594
20
-0.539178746906117
30
0
41
1
10
23.3858604804381
20
-0.501278063042577
30
0
41
1
10
23.0838107654171
20
-0.439831406937657
30
0
41
1
10
22.8194712838602
20
-0.385461265592511
30
0
41
1
10
22.5928703345407
20
-0.338507397378209
30
0
41
1
10
22.4418366795607
20
-0.306900626404882
30
0
41
1
10
22.290794575557
20
-0.275170537728144
30
0
41
1
10
22.1397451317035
20
-0.24334096111528
30
0
41
1
10
21.9887118242189
20
-0.21133778341428
30
0
41
1
10
21.7999206716853
20
-0.171188898709033
30
0
41
1
10
21.5733600672993
20
-0.12289337105986
30
0
41
1
10
21.3915510807654
20
-0.083983144357461
30
0
41
1
10
21.2852517534663
20
-0.0612402134256342
30
0
41
1
10
21.2544737081744
20
-0.0546555446879609
30
0
0
SPLINE
5
D6
100
AcDbEntity
8
1
62
256
6
ByLayer
370
18
48
1
60
0
100
AcDbSpline
70
4
71
3
72
8
73
4
40
0
40
0
40
0
40
0
40
1
40
1
40
1
40
1
41
1
10
42.9572624358743
20
-0.184183570856476
30
0
41
1
10
42.8431736836122
20
-0.507397492534579
30
0
41
1
10
42.7297022714052
20
-0.830824957809313
30
0
41
1
10
42.6168506545864
20
-1.1544668160029
30
0
0
SPLINE
5
D7
100
AcDbEntity
8
1
62
256
6
ByLayer
370
18
48
1
60
0
100
AcDbSpline
70
4
71
3
72
26
73
22
40
0
40
0
40
0
40
0
40
0.250000000000004
40
0.250000000000004
40
0.375000000000003
40
0.375000000000003
40
0.500000000000003
40
0.500000000000003
40
0.625000000000002
40
0.625000000000002
40
0.687500000000002
40
0.687500000000002
40
0.750000000000001
40
0.750000000000001
40
0.812500000000001
40
0.812500000000001
40
0.875000000000001
40
0.875000000000001
40
0.9375
40
0.9375
40
1
40
1
40
1
40
1
41
1
10
9.42195770586457
20
-3.09973529382728
30
0
41
1
10
9.17087558967125
20
-3.07020248175545
30
0
41
1
10
8.93006213621382
20
-3.02454808757759
30
0
41
1
10
8.59296038482276
20
-2.91653588842951
30
0
41
1
10
8.48408430265943
20
-2.87348209641638
30
0
41
1
10
8.28207487671909
20
-2.77069810701397
30
0
41
1
10
8.18849660802252
20
-2.7109852348022
30
0
41
1
10
8.0227172233902
20
-2.56844372934015
30
0
41
1
10
7.95287478700359
20
-2.48762113119452
30
0
41
1
10
7.87354577519787
20
-2.34752877264802
30
0
41
1
10
7.85125319439285
20
-2.29724176580814
30
0
41
1
10
7.81745212638907
20
-2.19109571881165
30
0
41
1
10
7.80603978291356
20
-2.13581014869001
30
0
41
1
10
7.79454127979778
20
-2.02065079555606
30
0
41
1
10
7.7944924034089
20
-1.96041849537548
30
0
41
1
10
7.80613661256749
20
-1.83671580317198
30
0
41
1
10
7.81766278935083
20
-1.7742178890494
30
0
41
1
10
7.8510802655868
20
-1.64804304001777
30
0
41
1
10
7.87303549802445
20
-1.5842219670993
30
0
41
1
10
7.92632913506219
20
-1.4560906050188
30
0
41
1
10
7.95723029352976
20
-1.39275071928631
30
0
41
1
10
7.99173835605637
20
-1.33002883855474
30
0
0
SPLINE
5
D8
100
AcDbEntity
8
1
62
256
6
ByLayer
370
18
48
1
60
0
100
AcDbSpline
70
4
71
3
72
10
73
6
40
0
40
0
40
0
40
0
40
0.5
40
0.5
40
1
40
1
40
1
40
1
41
1
10
41.85617100766
20
3.16648688151619
30
0
41
1
10
41.9623726197333
20
2.89778223324001
30
0
41
1
10
42.069968419817
20
2.62375502754478
30
0
41
1
10
42.2837554070477
20
2.06302022189433
30
0
41
1
10
42.3899543491638
20
1.77629991858404
30
0
41
1
10
42.4928865189643
20
1.48177577389819
30
0
0
SPLINE
5
D9
100
AcDbEntity
8
1
62
256
6
ByLayer
370
18
48
1
60
0
100
AcDbSpline
70
4
71
3
72
8
73
4
40
0
40
0
40
0
40
0
40
1
40
1
40
1
40
1
41
1
10
42.9998150064814
20
-0.0646981961741631
30
0
41
1
10
42.9855268023013
20
-0.104463145369948
30
0
41
1
10
42.9713435381818
20
-0.144291747971693
30
0
41
1
10
42.9572624358802
20
-0.18418357083948
30
0
0
SPLINE
5
DA
100
AcDbEntity
8
1
62
256
6
ByLayer
370
18
48
1
60
0
100
AcDbSpline
70
4
71
3
72
18
73
14
40
0
40
0
40
0
40
0
40
0.249999999999996
40
0.249999999999996
40
0.374999999999996
40
0.374999999999996
40
0.499999999999996
40
0.499999999999996
40
0.624999999999996
40
0.624999999999996
40
0.749999999999996
40
0.749999999999996
40
1
40
1
40
1
40
1
41
1
10
9.82829448660047
20
3.03999310191583
30
0
41
1
10
10.157907019103
20
3.06306260995302
30
0
41
1
10
10.4962134467405
20
3.06101029888745
30
0
41
1
10
11.0123599750068
20
3.03469972555018
30
0
41
1
10
11.1859034276434
20
3.02190140132936
30
0
41
1
10
11.5354403811596
20
2.99003332904388
30
0
41
1
10
11.7113966249508
20
2.97108778337011
30
0
41
1
10
12.0657658386292
20
2.92689052419112
30
0
41
1
10
12.244375048216
20
2.90146393583899
30
0
41
1
10
12.6022190938278
20
2.84536613473679
30
0
41
1
10
12.7816246205678
20
2.81474652398589
30
0
41
1
10
13.3212579922908
20
2.71532173423287
30
0
41
1
10
13.6829142863622
20
2.63883043627581
30
0
41
1
10
14.0461975168836
20
2.55433577075007
30
0
0
SPLINE
5
DB
100
AcDbEntity
8
1
62
256
6
ByLayer
370
18
48
1
60
0
100
AcDbSpline
70
4
71
3
72
12
73
8
40
0
40
0
40
0
40
0
40
0.50000000000002
40
0.50000000000002
40
0.75000000000001
40
0.75000000000001
40
1
40
1
40
1
40
1
41
1
10
9.82829448660056
20
-3.039993101916
30
0
41
1
10
9.76387863676933
20
-3.03548465087465
30
0
41
1
10
9.69785125540895
20
-3.03654874347993
30
0
41
1
10
9.59530270512261
20
-3.05017004803383
30
0
41
1
10
9.56034176183999
20
-3.0568185576488
30
0
41
1
10
9.49100094885836
20
-3.07467380561283
30
0
41
1
10
9.45642558038963
20
-3.08588581726605
30
0
41
1
10
9.42195770586491
20
-3.09973529382634
30
0
0
SPLINE
5
DC
100
AcDbEntity
8
1
62
256
6
ByLayer
370
18
48
1
60
0
100
AcDbSpline
70
4
71
3
72
8
73
4
40
0
40
0
40
0
40
0
40
1
40
1
40
1
40
1
41
1
10
41.8064195088986
20
-3.07900194090959
30
0
41
1
10
41.8094441525886
20
-3.06402031567714
30
0
41
1
10
41.8119602230421
20
-3.04976174530606
30
0
41
1
10
41.8139803246357
20
-3.03619929038064
30
0
0
SPLINE
5
DD
100
AcDbEntity
8
1
62
256
6
ByLayer
370
18
48
1
60
0
100
AcDbSpline
70
4
71
3
72
12
73
8
40
0
40
0
40
0
40
0
40
0.500000000000043
40
0.500000000000043
40
0.750000000000021
40
0.750000000000021
40
1
40
1
40
1
40
1
41
1
10
42.2407020168868
20
0.944288456901148
30
0
41
1
10
42.3091055505417
20
0.967945412058242
30
0
41
1
10
42.3767876006428
20
0.995126831558167
30
0
41
1
10
42.4729638671227
20
1.04520146232105
30
0
41
1
10
42.5041223864648
20
1.06346089291583
30
0
41
1
10
42.563615062192
20
1.10489877671779
30
0
41
1
10
42.5919729745356
20
1.12814058588128
30
0
41
1
10
42.6168506545857
20
1.15446681600201
30
0
0
SPLINE
5
DE
100
AcDbEntity
8
1
62
256
6
ByLayer
370
18
48
1
60
0
100
AcDbSpline
70
4
71
3
72
10
73
6
40
0
40
0
40
0
40
0
40
0.5
40
0.5
40
1
40
1
40
1
40
1
41
1
10
41.8139803246327
20
-3.03619929040048
30
0
41
1
10
41.8118186972067
20
-3.00866480455079
30
0
41
1
10
41.8062819994308
20
-2.98516152579066
30
0
41
1
10
41.7913356364256
20
-2.94682316282552
30
0
41
1
10
41.7817666820271
20
-2.93138252727502
30
0
41
1
10
41.7708600018584
20
-2.91930704562839
30
0
0
SPLINE
5
DF
100
AcDbEntity
8
1
62
256
6
ByLayer
370
18
48
1
60
0
100
AcDbSpline
70
4
71
3
72
8
73
4
40
0
40
0
40
0
40
0
40
1
40
1
40
1
40
1
41
1
10
42.4397168275012
20
-0.905426336323472
30
0
41
1
10
42.4411124829047
20
-0.906821822169661
30
0
41
1
10
42.442508209081
20
-0.908217237238063
30
0
41
1
10
42.443904006019
20
-0.909612581518104
30
0
0
SPLINE
5
E0
100
AcDbEntity
8
1
62
256
6
ByLayer
370
18
48
1
60
0
100
AcDbSpline
70
4
71
3
72
32
73
28
40
0
40
0
40
0
40
0
40
0.0884604744085593
40
0.0884604744085593
40
0.176920948817119
40
0.176920948817119
40
0.265381423225678
40
0.265381423225678
40
0.309611660429958
40
0.309611660429958
40
0.353841897634237
40
0.353841897634237
40
0.442302372042793
40
0.442302372042793
40
0.530762846451349
40
0.530762846451349
40
0.619223320859905
40
0.619223320859905
40
0.70768379526846
40
0.70768379526846
40
0.796144269677016
40
0.796144269677016
40
0.884604744085572
40
0.884604744085572
40
0.973065218494128
40
0.973065218494128
40
1
40
1
40
1
40
1
41
1
10
41.5452111879202
20
0.480666074499169
30
0
41
1
10
41.259211473036
20
0.60737629383047
30
0
41
1
10
40.9732718199152
20
0.732332843541002
30
0
41
1
10
40.4014522833315
20
0.978565968343503
30
0
41
1
10
40.1156474978621
20
1.09996546475438
30
0
41
1
10
39.5430756318545
20
1.3363549972818
30
0
41
1
10
39.2560449883924
20
1.45188043572395
30
0
41
1
10
38.8269480458873
20
1.61745193456733
30
0
41
1
10
38.6839854284336
20
1.67122186796718
30
0
41
1
10
38.3979610182342
20
1.7769221469008
30
0
41
1
10
38.2550565175018
20
1.82895553572689
30
0
41
1
10
37.826295199444
20
1.98156832430621
30
0
41
1
10
37.5405608981574
20
2.07906174802534
30
0
41
1
10
36.9684660589735
20
2.26171380259677
30
0
41
1
10
36.6815348281497
20
2.34642151048877
30
0
41
1
10
36.108605017259
20
2.50546707819999
30
0
41
1
10
35.8222773894278
20
2.57868563742471
30
0
41
1
10
35.2503786558691
20
2.71198451267955
30
0
41
1
10
34.9645699376265
20
2.77099262320502
30
0
41
1
10
34.3924212935761
20
2.8743213552398
30
0
41
1
10
34.1058686301704
20
2.91942927018755
30
0
41
1
10
33.5322698079961
20
2.99503308993368
30
0
41
1
10
33.2459557975123
20
3.02532532160851
30
0
41
1
10
32.67379145576
20
3.06770404054885
30
0
41
1
10
32.3880361363554
20
3.08102154093848
30
0
41
1
10
32.0149250160121
20
3.08949811343763
30
0
41
1
10
31.9278190156254
20
3.09080207247632
30
0
41
1
10
31.8406869203059
20
3.09138608640308
30
0
0
SPLINE
5
E1
100
AcDbEntity
8
1
62
256
6
ByLayer
370
18
48
1
60
0
100
AcDbSpline
70
4
71
3
72
10
73
6
40
0
40
0
40
0
40
0
40
0.384996401037886
40
0.384996401037886
40
1
40
1
40
1
40
1
41
1
10
15.4456464487906
20
-2.16611356148704
30
0
41
1
10
15.266295569982
20
-2.22215655488509
30
0
41
1
10
15.0869306111696
20
-2.27580893692195
30
0
41
1
10
14.6208747307663
20
-2.40860670856708
30
0
41
1
10
14.3340066744758
20
-2.48461876344919
30
0
41
1
10
14.0461975168834
20
-2.55433577075016
30
0
0
SPLINE
5
E2
100
AcDbEntity
8
1
62
256
6
ByLayer
370
18
48
1
60
0
100
AcDbSpline
70
4
71
4
72
10
73
5
40
0
40
0
40
0
40
0
40
0
40
1
40
1
40
1
40
1
40
1
41
1
10
16.1699032924952
20
2.38672975339665
30
0
41
1
10
16.1283846214173
20
2.28383988823529
30
0
41
1
10
16.0868659503394
20
2.18095002307393
30
0
41
1
10
16.0453472792614
20
2.07806015791257
30
0
41
1
10
16.0038286081835
20
1.97517029275122
30
0
0
SPLINE
5
E3
100
AcDbEntity
8
1
62
256
6
ByLayer
370
18
48
1
60
0
100
AcDbSpline
70
4
71
2
72
6
73
3
40
0
40
0
40
0
40
1
40
1
40
1
41
1
10
21.2706754813405
20
-0.0581217927611704
30
0
41
1
10
20.7830160178935
20
0.0431365422112151
30
0
41
1
10
20.2674682565489
20
0.271972453752085
30
0
0
SPLINE
5
E4
100
AcDbEntity
8
1
62
256
6
ByLayer
370
18
48
1
60
0
100
AcDbSpline
70
4
71
2
72
6
73
3
40
0
40
0
40
0
40
1
40
1
40
1
41
1
10
10.3830468771836
20
3.05674906133365
30
0
41
1
10
10.105585023915
20
3.05684505910014
30
0
41
1
10
9.82825432712485
20
3.05585123011036
30
0
0
SPLINE
5
E5
100
AcDbEntity
8
1
62
256
6
ByLayer
370
18
48
1
60
0
100
AcDbSpline
70
4
71
3
72
25
73
21
40
0
40
0
40
0
40
0
40
0.0263883480043072
40
0.0971667771220681
40
0.155564166625402
40
0.228486008416626
40
0.285061508224178
40
0.332033050759862
40
0.404947185358461
40
0.473612821196366
40
0.525593413731947
40
0.594673068828186
40
0.654772365687546
40
0.69566106039876
40
0.744269349341509
40
0.808874832153706
40
0.864611042100885
40
0.923453777651239
40
0.964295949286711
40
1
40
1
40
1
40
1
41
1
10
31.8388504778305
20
3.09139452053162
30
0
41
1
10
31.7666838452003
20
3.09133195789579
30
0
41
1
10
31.5008512315115
20
3.0910402813461
30
0
41
1
10
31.0727773989195
20
3.09172079756374
30
0
41
1
10
30.5200665113457
20
3.08840299750096
30
0
41
1
10
30.0038881883668
20
3.08810282410536
30
0
41
1
10
29.5195025736192
20
3.08795181089559
30
0
41
1
10
29.0350433712385
20
3.08825861455494
30
0
41
1
10
28.5174162536693
20
3.08642418664439
30
0
41
1
10
27.9860291559161
20
3.08571154759997
30
0
41
1
10
27.4651725841514
20
3.08392816526768
30
0
41
1
10
26.9678303490747
20
3.08356236503641
30
0
41
1
10
26.5009403943554
20
3.08358726944178
30
0
41
1
10
26.0902494028625
20
3.08302547689971
30
0
41
1
10
25.6671919276962
20
3.08183019420989
30
0
41
1
10
25.2033823325524
20
3.08085672415427
30
0
41
1
10
24.7114642257409
20
3.080409497125
30
0
41
1
10
24.2847845127444
20
3.0797183753246
30
0
41
1
10
23.9130982639784
20
3.07879960014998
30
0
41
1
10
23.7029602835416
20
3.0783868665047
30
0
41
1
10
23.6049419477892
20
3.0782183664146
30
0
0
SPLINE
5
E6
100
AcDbEntity
8
1
62
256
6
ByLayer
370
18
48
1
60
0
100
AcDbSpline
70
4
71
2
72
6
73
3
40
0
40
0
40
0
40
1
40
1
40
1
41
1
10
9.82825432712485
20
-3.05585123011048
30
0
41
1
10
10.1025098185081
20
-3.05683720706313
30
0
41
1
10
10.37689501221
20
-3.05674544040002
30
0
0
SPLINE
5
E7
100
AcDbEntity
8
1
62
256
6
ByLayer
370
18
48
1
60
0
100
AcDbSpline
70
4
71
3
72
26
73
22
40
0
40
0
40
0
40
0
40
0.0895184732091887
40
0.166872264341989
40
0.22119141928605
40
0.285481677717047
40
0.371129710984363
40
0.451162518094034
40
0.504985228490362
40
0.548820954635649
40
0.595402512406077
40
0.640931232528588
40
0.679068092914039
40
0.715409967657231
40
0.766138765882255
40
0.813071330086031
40
0.853356008654985
40
0.885903799529498
40
0.925030120729278
40
0.985247393626292
40
1
40
1
40
1
40
1
41
1
10
22.4109220324179
20
-3.07640038004089
30
0
41
1
10
22.6898431546817
20
-3.07665106751216
30
0
41
1
10
23.2092319648285
20
-3.0773282205256
30
0
41
1
10
23.8923838502449
20
-3.07847610525951
30
0
41
1
10
24.5026145461274
20
-3.0802599921069
30
0
41
1
10
25.1380449410606
20
-3.08066452166653
30
0
41
1
10
25.8539183092525
20
-3.08248942569639
30
0
41
1
10
26.5370809693736
20
-3.08371782257575
30
0
41
1
10
27.0901352979719
20
-3.08354203839284
30
0
41
1
10
27.5390718660816
20
-3.0841763278512
30
0
41
1
10
27.9621922680549
20
-3.08563896195312
30
0
41
1
10
28.3675764482871
20
-3.08612309008953
30
0
41
1
10
28.7410885211945
20
-3.08738018892953
30
0
41
1
10
29.1307890841892
20
-3.0882140236474
30
0
41
1
10
29.5478534007765
20
-3.08795550422224
30
0
41
1
10
29.9771787002726
20
-3.08803764949184
30
0
41
1
10
30.3499500006
20
-3.08849696161016
30
0
41
1
10
30.6983907979044
20
-3.08929332036729
30
0
41
1
10
31.108844471191
20
-3.09219190934419
30
0
41
1
10
31.4639672568088
20
-3.09172588676941
30
0
41
1
10
31.697304056275
20
-3.09178743255768
30
0
41
1
10
31.7432204669779
20
-3.09178200865531
30
0
0
SPLINE
5
E8
100
AcDbEntity
8
1
62
256
6
ByLayer
370
18
48
1
60
0
100
AcDbSpline
70
4
71
2
72
6
73
3
40
0
40
0
40
0
40
1
40
1
40
1
41
1
10
31.5679356726216
20
0.0575332600626837
30
0
41
1
10
32.1207032921243
20
-0.0609781037761081
30
0
41
1
10
32.6693885300317
20
-0.315231298593488
30
0
0
LINE
5
7B
100
AcDbEntity
8
SK1
62
256
6
ByLayer
370
18
48
1
60
0
100
AcDbLine
10
-36
20
2
30
0
11
-36
21
-2
31
0
39
0
210
0
220
0
230
1
0
LINE
5
7D
100
AcDbEntity
8
SK1
62
256
6
ByLayer
370
18
48
1
60
0
100
AcDbLine
10
0
20
-4
30
0
11
0
21
4
31
0
39
0
210
0
220
0
230
1
0
LINE
5
7E
100
AcDbEntity
8
SK1
62
256
6
ByLayer
370
18
48
1
60
0
100
AcDbLine
10
-34.845299
20
4
30
0
11
-34.845299
21
-4
31
0
39
0
210
0
220
0
230
1
0
LINE
5
7F
100
AcDbEntity
8
1
62
256
6
ByLayer
370
18
48
1
60
0
100
AcDbLine
10
42.433921
20
-0.943315
30
0
11
42.439717
21
-0.905426
31
0
39
0
210
0
220
0
230
1
0
LINE
5
80
100
AcDbEntity
8
1
62
256
6
ByLayer
370
13
48
1
60
0
100
AcDbLine
10
0.742503
20
3.56375
30
0
11
0.742503
21
-3.56375
31
0
39
0
210
0
220
0
230
1
0
LINE
5
81
100
AcDbEntity
8
1
62
256
6
ByLayer
370
18
48
1
60
0
100
AcDbLine
10
9.828271
20
-3.055992
30
0
11
9.828274
21
-3.056246
31
0
39
0
210
0
220
0
230
1
0
LINE
5
82
100
AcDbEntity
8
1
62
256
6
ByLayer
370
13
48
1
60
0
100
AcDbLine
10
1.486536
20
3.127502
30
0
11
1.486536
21
-3.127502
31
0
39
0
210
0
220
0
230
1
0
LINE
5
83
100
AcDbEntity
8
1
62
256
6
ByLayer
370
18
48
1
60
0
100
AcDbLine
10
41.455534
20
-1.72879
30
0
11
42.433921
21
-0.943315
31
0
39
0
210
0
220
0
230
1
0
LINE
5
84
100
AcDbEntity
8
1
62
256
6
ByLayer
370
18
48
1
60
0
100
AcDbLine
10
0
20
-4
30
0
11
0
21
4
31
0
39
0
210
0
220
0
230
1
0
LINE
5
85
100
AcDbEntity
8
80
62
256
6
ByLayer
370
18
48
1
60
0
100
AcDbLine
10
0
20
0
30
0
11
-5
21
0
31
0
39
0
210
0
220
0
230
1
0
LINE
5
86
100
AcDbEntity
8
4
62
256
6
ByLayer
370
18
48
0.05
60
0
100
AcDbLine
10
43
20
0
30
0
11
0
21
0
31
0
39
0
210
0
220
0
230
1
0
LINE
5
88
100
AcDbEntity
8
SK4
62
256
6
ByLayer
370
18
48
0.05
60
0
100
AcDbLine
10
48
20
0
30
0
11
-41
21
0
31
0
39
0
210
0
220
0
230
1
0
LINE
5
8A
100
AcDbEntity
8
SK1
62
256
6
ByLayer
370
18
48
1
60
0
100
AcDbLine
10
-36
20
-2
30
0
11
-34.845299
21
-4
31
0
39
0
210
0
220
0
230
1
0
LINE
5
8B
100
AcDbEntity
8
SK1
62
256
6
ByLayer
370
18
48
1
60
0
100
AcDbLine
10
-34.845299
20
4
30
0
11
-36
21
2
31
0
39
0
210
0
220
0
230
1
0
LINE
5
8C
100
AcDbEntity
8
SK1
62
256
6
ByLayer
370
18
48
1
60
0
100
AcDbLine
10
-34.845299
20
-4
30
0
11
0
21
-4
31
0
39
0
210
0
220
0
230
1
0
LINE
5
8D
100
AcDbEntity
8
SK1
62
256
6
ByLayer
370
18
48
1
60
0
100
AcDbLine
10
0
20
4
30
0
11
-34.845299
21
4
31
0
39
0
210
0
220
0
230
1
0
LINE
5
8E
100
AcDbEntity
8
1
62
256
6
ByLayer
370
18
48
1
60
0
100
AcDbLine
10
1.486536
20
-3.127502
30
0
11
9.421565
21
-3.141785
31
0
39
0
210
0
220
0
230
1
0
LINE
5
8F
100
AcDbEntity
8
1
62
256
6
ByLayer
370
18
48
1
60
0
100
AcDbLine
10
21.103252
20
-3.162812
30
0
11
21.968888
21
-3.164371
31
0
39
0
210
0
220
0
230
1
0
LINE
5
90
100
AcDbEntity
8
1
62
256
6
ByLayer
370
18
48
1
60
0
100
AcDbLine
10
21.968888
20
3.164371
30
0
11
21.103252
21
3.162812
31
0
39
0
210
0
220
0
230
1
0
LINE
5
91
100
AcDbEntity
8
1
62
256
6
ByLayer
370
18
48
1
60
0
100
AcDbLine
10
9.421565
20
3.141785
30
0
11
1.486536
21
3.127502
31
0
39
0
210
0
220
0
230
1
0
LINE
5
92
100
AcDbEntity
8
81
62
256
6
ByLayer
370
18
48
1
60
0
100
AcDbLine
10
43
20
0
30
0
11
48
21
0
31
0
39
0
210
0
220
0
230
1
0
LINE
5
93
100
AcDbEntity
8
SK2
62
256
6
ByLayer
370
13
48
1
60
0
100
AcDbLine
10
-44.625163
20
-4
30
0
11
-44.625163
21
33.117107
31
0
39
0
210
0
220
0
230
1
0
LINE
5
95
100
AcDbEntity
8
SK2
62
256
6
ByLayer
370
13
48
1
60
0
100
AcDbLine
10
-37.5875
20
4
30
0
11
-46.625163
21
4
31
0
39
0
210
0
220
0
230
1
0
LINE
5
96
100
AcDbEntity
8
SK2
62
256
6
ByLayer
370
13
48
1
60
0
100
AcDbLine
10
-37.5875
20
-4
30
0
11
-46.625163
21
-4
31
0
39
0
210
0
220
0
230
1
0
LINE
5
97
100
AcDbEntity
8
1
62
256
6
ByLayer
370
18
48
1
60
1
100
AcDbLine
10
-44.625163
20
4
30
0
11
-44.164379
21
0.500002
31
0
39
0
210
0
220
0
230
1
0
LINE
5
98
100
AcDbEntity
8
1
62
256
6
ByLayer
370
18
48
1
60
1
100
AcDbLine
10
-44.164379
20
0.500002
30
0
11
-45.085946
21
0.499998
31
0
39
0
210
0
220
0
230
1
0
LINE
5
99
100
AcDbEntity
8
1
62
256
6
ByLayer
370
18
48
1
60
1
100
AcDbLine
10
-45.085946
20
0.499998
30
0
11
-44.625163
21
4
31
0
39
0
210
0
220
0
230
1
0
LINE
5
9A
100
AcDbEntity
8
1
62
256
6
ByLayer
370
18
48
1
60
1
100
AcDbLine
10
-44.625163
20
-4
30
0
11
-45.085946
21
-0.500002
31
0
39
0
210
0
220
0
230
1
0
LINE
5
9B
100
AcDbEntity
8
1
62
256
6
ByLayer
370
18
48
1
60
1
100
AcDbLine
10
-45.085946
20
-0.500002
30
0
11
-44.164379
21
-0.499998
31
0
39
0
210
0
220
0
230
1
0
LINE
5
9C
100
AcDbEntity
8
1
62
256
6
ByLayer
370
18
48
1
60
1
100
AcDbLine
10
-44.164379
20
-0.499998
30
0
11
-44.625163
21
-4
31
0
39
0
210
0
220
0
230
1
0
LINE
5
9D
100
AcDbEntity
8
2
62
256
6
ByLayer
370
13
48
1
60
0
100
AcDbLine
10
55.083343
20
31.278727
30
0
11
55.083343
21
-11.95
31
0
39
0
210
0
220
0
230
1
0
LINE
5
9F
100
AcDbEntity
8
2
62
256
6
ByLayer
370
13
48
1
60
0
100
AcDbLine
10
43.3505
20
3.2
30
0
11
57.083343
21
3.2
31
0
39
0
210
0
220
0
230
1
0
LINE
5
A0
100
AcDbEntity
8
2
62
256
6
ByLayer
370
13
48
1
60
0
100
AcDbLine
10
43.3505
20
-3.2
30
0
11
57.083343
21
-3.2
31
0
39
0
210
0
220
0
230
1
0
LINE
5
A1
100
AcDbEntity
8
1
62
256
6
ByLayer
370
18
48
1
60
1
100
AcDbLine
10
55.083343
20
3.2
30
0
11
54.622559
21
6.699998
31
0
39
0
210
0
220
0
230
1
0
LINE
5
A2
100
AcDbEntity
8
1
62
256
6
ByLayer
370
18
48
1
60
1
100
AcDbLine
10
54.622559
20
6.699998
30
0
11
55.544126
21
6.700002
31
0
39
0
210
0
220
0
230
1
0
LINE
5
A3
100
AcDbEntity
8
1
62
256
6
ByLayer
370
18
48
1
60
1
100
AcDbLine
10
55.544126
20
6.700002
30
0
11
55.083343
21
3.2
31
0
39
0
210
0
220
0
230
1
0
LINE
5
A4
100
AcDbEntity
8
1
62
256
6
ByLayer
370
18
48
1
60
1
100
AcDbLine
10
55.083343
20
-3.2
30
0
11
55.544126
21
-6.699998
31
0
39
0
210
0
220
0
230
1
0
LINE
5
A5
100
AcDbEntity
8
1
62
256
6
ByLayer
370
18
48
1
60
1
100
AcDbLine
10
55.544126
20
-6.699998
30
0
11
54.622559
21
-6.700002
31
0
39
0
210
0
220
0
230
1
0
LINE
5
A6
100
AcDbEntity
8
1
62
256
6
ByLayer
370
18
48
1
60
1
100
AcDbLine
10
54.622559
20
-6.700002
30
0
11
55.083343
21
-3.2
31
0
39
0
210
0
220
0
230
1
0
LINE
5
EF
100
AcDbEntity
8
1
62
256
6
ByLayer
370
18
48
1
60
1
100
AcDbLine
10
-44.625163
20
4
30
0
11
-44.164379
21
0.500002
31
0
39
0
210
0
220
0
230
1
0
LINE
5
F0
100
AcDbEntity
8
1
62
256
6
ByLayer
370
18
48
1
60
1
100
AcDbLine
10
-44.164379
20
0.500002
30
0
11
-45.085946
21
0.499998
31
0
39
0
210
0
220
0
230
1
0
LINE
5
F1
100
AcDbEntity
8
1
62
256
6
ByLayer
370
18
48
1
60
1
100
AcDbLine
10
-45.085946
20
0.499998
30
0
11
-44.625163
21
4
31
0
39
0
210
0
220
0
230
1
0
LINE
5
F3
100
AcDbEntity
8
1
62
256
6
ByLayer
370
18
48
1
60
1
100
AcDbLine
10
-44.625163
20
-4
30
0
11
-45.085946
21
-0.500002
31
0
39
0
210
0
220
0
230
1
0
LINE
5
F4
100
AcDbEntity
8
1
62
256
6
ByLayer
370
18
48
1
60
1
100
AcDbLine
10
-45.085946
20
-0.500002
30
0
11
-44.164379
21
-0.499998
31
0
39
0
210
0
220
0
230
1
0
LINE
5
F5
100
AcDbEntity
8
1
62
256
6
ByLayer
370
18
48
1
60
1
100
AcDbLine
10
-44.164379
20
-0.499998
30
0
11
-44.625163
21
-4
31
0
39
0
210
0
220
0
230
1
0
LINE
5
F9
100
AcDbEntity
8
1
62
256
6
ByLayer
370
18
48
1
60
1
100
AcDbLine
10
55.083343
20
3.2
30
0
11
54.622559
21
6.699998
31
0
39
0
210
0
220
0
230
1
0
LINE
5
FA
100
AcDbEntity
8
1
62
256
6
ByLayer
370
18
48
1
60
1
100
AcDbLine
10
54.622559
20
6.699998
30
0
11
55.544126
21
6.700002
31
0
39
0
210
0
220
0
230
1
0
LINE
5
FB
100
AcDbEntity
8
1
62
256
6
ByLayer
370
18
48
1
60
1
100
AcDbLine
10
55.544126
20
6.700002
30
0
11
55.083343
21
3.2
31
0
39
0
210
0
220
0
230
1
0
LINE
5
FD
100
AcDbEntity
8
1
62
256
6
ByLayer
370
18
48
1
60
1
100
AcDbLine
10
55.083343
20
-3.2
30
0
11
55.544126
21
-6.699998
31
0
39
0
210
0
220
0
230
1
0
LINE
5
FE
100
AcDbEntity
8
1
62
256
6
ByLayer
370
18
48
1
60
1
100
AcDbLine
10
55.544126
20
-6.699998
30
0
11
54.622559
21
-6.700002
31
0
39
0
210
0
220
0
230
1
0
LINE
5
FF
100
AcDbEntity
8
1
62
256
6
ByLayer
370
18
48
1
60
1
100
AcDbLine
10
54.622559
20
-6.700002
30
0
11
55.083343
21
-3.2
31
0
39
0
210
0
220
0
230
1
0
MTEXT
5
E9
100
AcDbEntity
8
SK6
62
256
6
ByLayer
370
13
48
1
60
0
100
AcDbMText
10
-25.414993
20
35.740328
30
0
210
0
220
0
230
1
1
\W0.7585;860.1-0640-024A0-PM P1BM
40
3.5
41
0
44
1.084337
50
0
71
7
72
5
7
iso_b_vert
0
MTEXT
5
ED
100
AcDbEntity
8
SK2
62
256
6
ByLayer
370
18
48
1
60
0
100
AcDbMText
10
-46.189796
20
17.409024
30
0
210
0
220
0
230
1
1
%%c
40
3.5
41
0
44
1.084337
50
90
71
7
72
5
7
iso_b_vert
0
MTEXT
5
EE
100
AcDbEntity
8
SK2
62
256
6
ByLayer
370
18
48
1
60
0
100
AcDbMText
10
-46.189796
20
22.63168
30
0
210
0
220
0
230
1
1
\W0.7317;8,000
40
3.5
41
0
44
1.084337
50
90
71
7
72
5
7
iso_b_vert
0
MTEXT
5
F7
100
AcDbEntity
8
2
62
256
6
ByLayer
370
18
48
1
60
0
100
AcDbMText
10
53.518709
20
15.20211
30
0
210
0
220
0
230
1
1
%%c
40
3.5
41
0
44
1.084337
50
90
71
7
72
5
7
iso_b_vert
0
MTEXT
5
F8
100
AcDbEntity
8
2
62
256
6
ByLayer
370
18
48
1
60
0
100
AcDbMText
10
53.518709
20
20.424766
30
0
210
0
220
0
230
1
1
\W0.7581;6,400
40
3.5
41
0
44
1.084337
50
90
71
7
72
5
7
iso_b_vert
0
HATCH
5
F2
100
AcDbEntity
8
SK2
62
256
6
ByLayer
370
13
48
1
60
0
100
AcDbHatch
10
0
20
0
30
0
210
0
220
0
230
1
2
ANSI31
70
0
71
0
91
1
92
5
93
3
72
1
10
-44.6251625675374
20
4
11
-44.1643788259847
21
0.500001692553184
72
1
10
-44.1643788259847
20
0.500001692553184
11
-45.0859463090902
21
0.499998307446816
72
1
10
-45.0859463090902
20
0.499998307446816
11
-44.6251625675374
21
4
97
0
75
0
76
1
52
0
41
0.0062
77
0
78
1
53
45
43
0
44
0
45
-0.0139193969876572
46
0.0139193969876572
79
0
47
0
98
1
10
0
20
0
0
HATCH
5
F6
100
AcDbEntity
8
SK2
62
256
6
ByLayer
370
13
48
1
60
0
100
AcDbHatch
10
0
20
0
30
0
210
0
220
0
230
1
2
ANSI31
70
0
71
0
91
1
92
5
93
3
72
1
10
-44.6251625675374
20
-4
11
-45.0859463090902
21
-0.500001692553184
72
1
10
-45.0859463090902
20
-0.500001692553184
11
-44.1643788259847
21
-0.499998307446816
72
1
10
-44.1643788259847
20
-0.499998307446816
11
-44.6251625675374
21
-4
97
0
75
0
76
1
52
0
41
0.0062
77
0
78
1
53
45
43
0
44
0
45
-0.0139193969876572
46
0.0139193969876572
79
0
47
0
98
1
10
0
20
0
0
HATCH
5
FC
100
AcDbEntity
8
2
62
256
6
ByLayer
370
13
48
1
60
0
100
AcDbHatch
10
0
20
0
30
0
210
0
220
0
230
1
2
ANSI31
70
0
71
0
91
1
92
5
93
3
72
1
10
55.083342615295
20
3.20000000000002
11
54.6225588737423
21
6.69999830744683
72
1
10
54.6225588737423
20
6.69999830744683
11
55.5441263568478
21
6.7000016925532
72
1
10
55.5441263568478
20
6.7000016925532
11
55.083342615295
21
3.20000000000002
97
0
75
0
76
1
52
0
41
0.0062
77
0
78
1
53
45
43
0
44
0
45
-0.0139193969876572
46
0.0139193969876572
79
0
47
0
98
1
10
0
20
0
0
HATCH
5
100
100
AcDbEntity
8
2
62
256
6
ByLayer
370
13
48
1
60
0
100
AcDbHatch
10
0
20
0
30
0
210
0
220
0
230
1
2
ANSI31
70
0
71
0
91
1
92
5
93
3
72
1
10
55.083342615295
20
-3.19999999999999
11
55.5441263568478
21
-6.6999983074468
72
1
10
55.5441263568478
20
-6.6999983074468
11
54.6225588737423
21
-6.70000169255317
72
1
10
54.6225588737423
20
-6.70000169255317
11
55.083342615295
21
-3.19999999999999
97
0
75
0
76
1
52
0
41
0.0062
77
0
78
1
53
45
43
0
44
0
45
-0.0139193969876572
46
0.0139193969876572
79
0
47
0
98
1
10
0
20
0
0
DIMENSION
5
102
100
AcDbEntity
8
2
62
256
6
ByLayer
370
13
48
1
60
0
100
AcDbDimension
2
_U0
10
41.763
20
-13.413398
30
0
11
20.8815
21
-13.413398
31
0
70
32
71
1
72
1
41
1
210
0
220
0
230
1
3
Standard
100
AcDbAlignedDimension
13
0
23
0
33
0
14
41.763
24
-3.2
34
0
50
0
100
AcDbRotatedDimension
1001
ACAD
1000
DSTYLE
1002
{
1070
   371
1070
    13
1070
   372
1070
    13
1070
   170
1070
     0
1070
   144
1040
1.0
1070
   277
1070
     2
1070
   278
1070
    44
1070
   146
1040
1.0
1070
   345
1005
16
1070
   347
1005
16
1070
   346
1005
16
1070
   344
1005
0
1070
   343
1005
0
1070
   172
1070
     1
1070
    76
1070
     0
1070
    75
1070
     0
1070
   282
1070
     0
1070
   281
1070
     0
1070
    71
1070
     0
1070
    74
1070
     0
1070
   279
1070
     0
1070
   173
1070
     1
1070
   340
1005
EA
1070
   271
1070
     2
1070
   272
1070
     2
1070
    77
1070
     1
1070
    73
1070
     1
1070
   171
1070
     3
1070
   274
1070
     4
1070
   177
1070
    35
1070
   176
1070
    35
1070
   178
1070
    35
1070
    48
1040
-0.1
1070
    41
1040
3.5
1070
   147
1040
1.75
1070
    42
1040
1.5875
1070
    44
1040
2.0
1070
   140
1040
3.5
1002
}
1001
ACAD_DSTYLE_DIM_LINETYPE
1070
   380
1005
16
1001
ACAD_DSTYLE_DIM_EXT1_LINETYPE
1070
   381
1005
16
1001
ACAD_DSTYLE_DIM_EXT2_LINETYPE
1070
   382
1005
16
0
DIMENSION
5
11B
100
AcDbEntity
8
SK2
62
256
6
ByLayer
370
13
48
1
60
0
100
AcDbDimension
2
_U1
10
43
20
-32.692985
30
0
11
3.5
21
-32.692985
31
0
70
32
71
1
72
1
41
1
210
0
220
0
230
1
3
Standard
100
AcDbAlignedDimension
13
-36
23
-4
33
0
14
43
24
0
34
0
50
0
100
AcDbRotatedDimension
1001
ACAD
1000
DSTYLE
1002
{
1070
   371
1070
    13
1070
   372
1070
    13
1070
   170
1070
     0
1070
   144
1040
1.0
1070
   277
1070
     2
1070
   278
1070
    44
1070
   146
1040
1.0
1070
   345
1005
16
1070
   347
1005
16
1070
   346
1005
16
1070
   344
1005
0
1070
   343
1005
0
1070
   172
1070
     1
1070
    76
1070
     0
1070
    75
1070
     0
1070
   282
1070
     0
1070
   281
1070
     0
1070
    71
1070
     0
1070
    74
1070
     0
1070
   279
1070
     0
1070
   173
1070
     1
1070
   340
1005
EA
1070
   271
1070
     2
1070
   272
1070
     2
1070
    77
1070
     1
1070
    73
1070
     1
1070
   171
1070
     3
1070
   274
1070
     4
1070
   177
1070
    35
1070
   176
1070
    35
1070
   178
1070
    35
1070
    48
1040
-0.1
1070
    41
1040
3.5
1070
   147
1040
1.75
1070
    42
1040
1.5875
1070
    44
1040
2.0
1070
   140
1040
3.5
1002
}
1001
ACAD_DSTYLE_DIM_LINETYPE
1070
   380
1005
16
1001
ACAD_DSTYLE_DIM_EXT1_LINETYPE
1070
   381
1005
16
1001
ACAD_DSTYLE_DIM_EXT2_LINETYPE
1070
   382
1005
16
0
DIMENSION
5
133
100
AcDbEntity
8
SK2
62
256
6
ByLayer
370
13
48
1
60
0
100
AcDbDimension
2
_U2
10
43
20
14.809119
30
0
11
32.78
21
14.809119
31
0
70
32
71
1
72
1
41
1
210
0
220
0
230
1
3
Standard
100
AcDbAlignedDimension
13
22.56
23
3.2
33
0
14
43
24
0
34
0
50
0
100
AcDbRotatedDimension
1001
ACAD
1000
DSTYLE
1002
{
1070
   371
1070
    13
1070
   372
1070
    13
1070
   170
1070
     0
1070
   144
1040
1.0
1070
   277
1070
     2
1070
   278
1070
    44
1070
   146
1040
1.0
1070
   345
1005
16
1070
   347
1005
16
1070
   346
1005
16
1070
   344
1005
0
1070
   343
1005
0
1070
   172
1070
     1
1070
    76
1070
     0
1070
    75
1070
     0
1070
   282
1070
     0
1070
   281
1070
     0
1070
    71
1070
     0
1070
    74
1070
     0
1070
   279
1070
     0
1070
   173
1070
     1
1070
   340
1005
EA
1070
   271
1070
     2
1070
   272
1070
     2
1070
    77
1070
     1
1070
    73
1070
     1
1070
   171
1070
     3
1070
   274
1070
     4
1070
   177
1070
    35
1070
   176
1070
    35
1070
   178
1070
    35
1070
    48
1040
-0.1
1070
    41
1040
3.5
1070
   147
1040
1.75
1070
    42
1040
1.5875
1070
    44
1040
2.0
1070
   140
1040
3.5
1002
}
1001
ACAD_DSTYLE_DIM_LINETYPE
1070
   380
1005
16
1001
ACAD_DSTYLE_DIM_EXT1_LINETYPE
1070
   381
1005
16
1001
ACAD_DSTYLE_DIM_EXT2_LINETYPE
1070
   382
1005
16
0
DIMENSION
5
14B
100
AcDbEntity
8
SK2
62
256
6
ByLayer
370
13
48
1
60
0
100
AcDbDimension
2
_U3
10
41.763
20
-16.002503
30
0
11
60.416667
21
-16.002503
31
0
70
32
71
1
72
1
41
1
210
0
220
0
230
1
3
Standard
100
AcDbAlignedDimension
13
43
23
0
33
0
14
41.763
24
-3.2
34
0
50
0
100
AcDbRotatedDimension
1001
ACAD
1000
DSTYLE
1002
{
1070
   371
1070
    13
1070
   372
1070
    13
1070
   170
1070
     0
1070
   144
1040
1.0
1070
   277
1070
     2
1070
   278
1070
    44
1070
   146
1040
1.0
1070
   345
1005
16
1070
   347
1005
16
1070
   346
1005
16
1070
   344
1005
0
1070
   343
1005
0
1070
   172
1070
     1
1070
    76
1070
     0
1070
    75
1070
     0
1070
   282
1070
     0
1070
   281
1070
     0
1070
    71
1070
     0
1070
    74
1070
     0
1070
   279
1070
     0
1070
   173
1070
     1
1070
   340
1005
EA
1070
   271
1070
     2
1070
   272
1070
     2
1070
    77
1070
     1
1070
    73
1070
     1
1070
   171
1070
     3
1070
   274
1070
     4
1070
   177
1070
    35
1070
   176
1070
    35
1070
   178
1070
    35
1070
    48
1040
-0.1
1070
    41
1040
3.5
1070
   147
1040
1.75
1070
    42
1040
1.5875
1070
    44
1040
2.0
1070
   140
1040
3.5
1002
}
1001
ACAD_DSTYLE_DIM_LINETYPE
1070
   380
1005
16
1001
ACAD_DSTYLE_DIM_EXT1_LINETYPE
1070
   381
1005
16
1001
ACAD_DSTYLE_DIM_EXT2_LINETYPE
1070
   382
1005
16
0
DIMENSION
5
165
100
AcDbEntity
8
SK2
62
256
6
ByLayer
370
13
48
1
60
0
100
AcDbDimension
2
_U4
10
41.763
20
-22.343428
30
0
11
2.8815
21
-22.343428
31
0
70
32
71
1
72
1
41
1
210
0
220
0
230
1
3
Standard
100
AcDbAlignedDimension
13
-36
23
-4
33
0
14
41.763
24
-3.2
34
0
50
0
100
AcDbRotatedDimension
1001
ACAD
1000
DSTYLE
1002
{
1070
   371
1070
    13
1070
   372
1070
    13
1070
   170
1070
     0
1070
   144
1040
1.0
1070
   277
1070
     2
1070
   278
1070
    44
1070
   146
1040
1.0
1070
   345
1005
16
1070
   347
1005
16
1070
   346
1005
16
1070
   344
1005
0
1070
   343
1005
0
1070
   172
1070
     1
1070
    76
1070
     0
1070
    75
1070
     0
1070
   282
1070
     0
1070
   281
1070
     0
1070
    71
1070
     0
1070
    74
1070
     0
1070
   279
1070
     0
1070
   173
1070
     1
1070
   340
1005
EA
1070
   271
1070
     2
1070
   272
1070
     2
1070
    77
1070
     1
1070
    73
1070
     1
1070
   171
1070
     3
1070
   274
1070
     4
1070
   177
1070
    35
1070
   176
1070
    35
1070
   178
1070
    35
1070
    48
1040
-0.1
1070
    41
1040
3.5
1070
   147
1040
1.75
1070
    42
1040
1.5875
1070
    44
1040
2.0
1070
   140
1040
3.5
1002
}
1001
ACAD_DSTYLE_DIM_LINETYPE
1070
   380
1005
16
1001
ACAD_DSTYLE_DIM_EXT1_LINETYPE
1070
   381
1005
16
1001
ACAD_DSTYLE_DIM_EXT2_LINETYPE
1070
   382
1005
16
0
ENDSEC
0
SECTION
2
OBJECTS
0
DICTIONARY
5
1ed
330
0
100
AcDbDictionary
280
0
281
1
3
ACAD_GROUP
350
1ee
3
ACAD_MLINESTYLE
350
1ef
0
DICTIONARY
5
1ee
330
0
100
AcDbDictionary
280
0
281
1
0
DICTIONARY
5
1ef
330
0
100
AcDbDictionary
280
0
281
1
3
Standard
350
18
0
MLINESTYLE
5
18
330
1ef
100
AcDbMlineStyle
2
Standard
70
0
3

62
256
51
90
52
90
71
2
49
-0.5
62
256
6
ByLayer
49
0.5
62
256
6
ByLayer
0
RASTERVARIABLES
5
1db
330

100
AcDbRasterVariables
90
0
70
1
71
1
72
1
0
ENDSEC
0
EOF
