0
SECTION
2
HEADER
9
$ACADVER
1
AC1015
9
$DWGCODEPAGE
3
ANSI_1252
9
$HANDSEED
5
1ff
9
$ANGBASE
50
0
9
$ANGDIR
70
0
9
$ATTMODE
70
1
9
$AUNITS
70
0
9
$AUPREC
70
0
9
$CECOLOR
62
256
9
$CELTSCALE
40
1
9
$CELTYPE
6
ByLayer
9
$CELWEIGHT
370
18
9
$CLAYER
8
0
9
$CMLJUST
70
0
9
$CMLSCALE
40
1
9
$CMLSTYLE
2
Standard
9
$DIMSTYLE
2
Standard
9
$TEXTSIZE
40
0.2
9
$TEXTSTYLE
7
Standard
9
$LUNITS
70
2
9
$LUPREC
70
4
9
$EXTNAMES
290
1
9
$INSUNITS
70
4
9
$LTSCALE
40
1
9
$LWDISPLAY
290
1
9
$PDMODE
70
0
9
$PDSIZE
40
0
9
$PLINEGEN
70
0
0
ENDSEC
0
SECTION
2
CLASSES
0
CLASS
1
RASTERVARIABLES
2
AcDbRasterVariables
3
ISM
90
0
280
0
281
0
0
ENDSEC
0
SECTION
2
TABLES
0
TABLE
2
VPORT
5
1f5
100
AcDbSymbolTable
0
VPORT
5
1
100
AcDbSymbolTableRecord
100
AcDbViewportTableRecord
2
*Active
70
0
10
0
20
0
11
1
21
1
12
-1
22
1
13
0
23
0
14
0.5
24
0.5
15
10
25
10
16
0
26
0
36
1
17
0
27
0
37
0
0
ENDTAB
0
TABLE
2
LTYPE
5
1f6
100
AcDbSymbolTable
0
LTYPE
5
14
100
AcDbSymbolTableRecord
100
AcDbLinetypeTableRecord
70
0
2
ByBlock
3

72
65
73
0
40
0
0
LTYPE
5
15
100
AcDbSymbolTableRecord
100
AcDbLinetypeTableRecord
70
0
2
ByLayer
3

72
65
73
0
40
0
0
LTYPE
5
16
100
AcDbSymbolTableRecord
100
AcDbLinetypeTableRecord
70
0
2
Continuous
3
Solid line
72
65
73
0
40
0
0
LTYPE
5
6E
100
AcDbSymbolTableRecord
100
AcDbLinetypeTableRecord
70
0
2
CENTER
3
____ _ ____ _ ____ _ ____
72
65
73
4
40
47.5
49
22
74
0
49
-8.5
74
0
49
8.5
74
0
49
-8.5
74
0
0
LTYPE
5
6F
100
AcDbSymbolTableRecord
100
AcDbLinetypeTableRecord
70
0
2
DASHED
3
__ __ __ __ __ __ __ __ __
72
65
73
2
40
25.72
49
12.86
74
0
49
-12.86
74
0
0
ENDTAB
0
TABLE
2
LAYER
5
1f7
100
AcDbSymbolTable
0
LAYER
5
10
100
AcDbSymbolTableRecord
100
AcDbLayerTableRecord
2
0
70
0
62
7
6
Continuous
290
1
370
-3
390
0
0
LAYER
5
71
100
AcDbSymbolTableRecord
100
AcDbLayerTableRecord
2
80
70
0
62
-6
6
Continuous
290
1
370
-3
390
0
0
LAYER
5
73
100
AcDbSymbolTableRecord
100
AcDbLayerTableRecord
2
81
70
0
62
-3
6
Continuous
290
1
370
-3
390
0
0
LAYER
5
75
100
AcDbSymbolTableRecord
100
AcDbLayerTableRecord
2
1
70
0
62
4
6
Continuous
290
1
370
-3
390
0
0
LAYER
5
86
100
AcDbSymbolTableRecord
100
AcDbLayerTableRecord
2
4
70
0
62
-2
6
CENTER
290
1
370
-3
390
0
0
LAYER
5
9F
100
AcDbSymbolTableRecord
100
AcDbLayerTableRecord
2
2
70
0
62
7
6
Continuous
290
1
370
-3
390
0
0
LAYER
5
10A
100
AcDbSymbolTableRecord
100
AcDbLayerTableRecord
2
Defpoints
70
0
62
7
6
Continuous
290
0
370
-3
390
0
0
LAYER
5
1e1
100
AcDbSymbolTableRecord
100
AcDbLayerTableRecord
2
SK1
70
0
62
4
6
Continuous
290
1
370
-3
390
0
0
LAYER
5
1e2
100
AcDbSymbolTableRecord
100
AcDbLayerTableRecord
2
SK4
70
0
62
2
6
CENTER
290
1
370
-3
390
0
0
LAYER
5
1e3
100
AcDbSymbolTableRecord
100
AcDbLayerTableRecord
2
SK2
70
0
62
7
6
Continuous
290
1
370
-3
390
0
0
LAYER
5
1e4
100
AcDbSymbolTableRecord
100
AcDbLayerTableRecord
2
SK6
70
0
62
5
6
Continuous
290
1
370
-3
390
0
0
ENDTAB
0
TABLE
2
STYLE
5
1f8
100
AcDbSymbolTable
0
STYLE
5
11
100
AcDbSymbolTableRecord
100
AcDbTextStyleTableRecord
2
Standard
3
txt
70
0
71
0
40
0
41
1
42
0
50
0
0
STYLE
5
EF
100
AcDbSymbolTableRecord
100
AcDbTextStyleTableRecord
2
iso_b_vert
3
simplex.shx
70
0
71
0
40
0
41
1
42
0
50
0
0
STYLE
5
F0
100
AcDbSymbolTableRecord
100
AcDbTextStyleTableRecord
2
DWGDirectTextStyle
3
simplex
70
0
71
0
40
0
41
1
42
0
50
0
0
ENDTAB
0
TABLE
2
DIMSTYLE
5
1f9
100
AcDbSymbolTable
100
AcDbDimStyleTable
0
DIMSTYLE
105
27
100
AcDbSymbolTableRecord
100
AcDbDimStyleTableRecord
2
Standard
70
0
3
<>
41
0.18
42
0.0625
44
0.18
140
0.18
147
0.09
73
0
74
0
77
1
271
2
275
0
278
52
280
0
340
11
0
ENDTAB
0
TABLE
2
VIEW
5
1fa
100
AcDbSymbolTable
0
ENDTAB
0
TABLE
2
UCS
5
1fb
100
AcDbSymbolTable
0
ENDTAB
0
TABLE
2
APPID
5
1fc
100
AcDbSymbolTable
0
APPID
5
12
100
AcDbSymbolTableRecord
100
AcDbRegAppTableRecord
2
ACAD
70
0
0
APPID
5
106
100
AcDbSymbolTableRecord
100
AcDbRegAppTableRecord
2
ACAD_DSTYLE_DIMBREAK
70
0
0
APPID
5
1A0
100
AcDbSymbolTableRecord
100
AcDbRegAppTableRecord
2
ACAD_DSTYLE_DIM_LINETYPE
70
0
0
APPID
5
1A1
100
AcDbSymbolTableRecord
100
AcDbRegAppTableRecord
2
ACAD_DSTYLE_DIM_EXT1_LINETYPE
70
0
0
APPID
5
1A2
100
AcDbSymbolTableRecord
100
AcDbRegAppTableRecord
2
ACAD_DSTYLE_DIM_EXT2_LINETYPE
70
0
0
APPID
5
1DD
100
AcDbSymbolTableRecord
100
AcDbRegAppTableRecord
2
ACAD_MLEADERVER
70
0
0
ENDTAB
0
TABLE
2
BLOCK_RECORD
5
1fd
100
AcDbSymbolTable
0
BLOCK_RECORD
5
1F
100
AcDbSymbolTableRecord
100
AcDbBlockTableRecord
2
*Model_Space
340
0
70
0
0
BLOCK_RECORD
5
1B
100
AcDbSymbolTableRecord
100
AcDbBlockTableRecord
2
*Paper_Space
340
0
70
0
0
BLOCK_RECORD
5
23
100
AcDbSymbolTableRecord
100
AcDbBlockTableRecord
2
*Paper_Space0
340
0
70
0
0
BLOCK_RECORD
5
10B
100
AcDbSymbolTableRecord
100
AcDbBlockTableRecord
2
*D1
340
0
70
0
0
BLOCK_RECORD
5
117
100
AcDbSymbolTableRecord
100
AcDbBlockTableRecord
2
_U0
340
0
70
0
0
BLOCK_RECORD
5
123
100
AcDbSymbolTableRecord
100
AcDbBlockTableRecord
2
*D3
340
0
70
0
0
BLOCK_RECORD
5
12F
100
AcDbSymbolTableRecord
100
AcDbBlockTableRecord
2
_U1
340
0
70
0
0
BLOCK_RECORD
5
13B
100
AcDbSymbolTableRecord
100
AcDbBlockTableRecord
2
*D5
340
0
70
0
0
BLOCK_RECORD
5
147
100
AcDbSymbolTableRecord
100
AcDbBlockTableRecord
2
_U2
340
0
70
0
0
BLOCK_RECORD
5
153
100
AcDbSymbolTableRecord
100
AcDbBlockTableRecord
2
*D7
340
0
70
0
0
BLOCK_RECORD
5
161
100
AcDbSymbolTableRecord
100
AcDbBlockTableRecord
2
_U3
340
0
70
0
0
BLOCK_RECORD
5
16D
100
AcDbSymbolTableRecord
100
AcDbBlockTableRecord
2
*D9
340
0
70
0
0
BLOCK_RECORD
5
179
100
AcDbSymbolTableRecord
100
AcDbBlockTableRecord
2
_U4
340
0
70
0
0
ENDTAB
0
ENDSEC
0
SECTION
2
BLOCKS
0
BLOCK
5
20
100
AcDbEntity
8
0
100
AcDbBlockBegin
2
*Model_Space
70
0
10
0
20
0
30
0
3
*Model_Space
0
ENDBLK
5
21
100
AcDbEntity
8
0
100
AcDbBlockEnd
0
BLOCK
5
1C
100
AcDbEntity
8
0
100
AcDbBlockBegin
2
*Paper_Space
70
0
10
0
20
0
30
0
3
*Paper_Space
0
ENDBLK
5
1D
100
AcDbEntity
8
0
100
AcDbBlockEnd
0
BLOCK
5
24
100
AcDbEntity
8
0
100
AcDbBlockBegin
2
*Paper_Space0
70
0
10
0
20
0
30
0
3
*Paper_Space0
0
ENDBLK
5
25
100
AcDbEntity
8
0
100
AcDbBlockEnd
0
BLOCK
5
10C
100
AcDbEntity
8
0
100
AcDbBlockBegin
2
*D1
70
1
10
0
20
0
30
0
3
*D1
0
LINE
5
10E
100
AcDbEntity
8
0
62
256
6
ByLayer
370
-2
48
1
60
0
100
AcDbLine
10
0
20
-1.5875
30
0
11
0
21
-15.363398
31
0
39
0
210
0
220
0
230
1
0
LINE
5
10F
100
AcDbEntity
8
0
62
256
6
ByLayer
370
-2
48
1
60
0
100
AcDbLine
10
53.7803
20
-4.7375
30
0
11
53.7803
21
-15.363398
31
0
39
0
210
0
220
0
230
1
0
LINE
5
110
100
AcDbEntity
8
0
62
256
6
ByLayer
370
-2
48
1
60
0
100
AcDbLine
10
3.5
20
-13.363398
30
0
11
50.2803
21
-13.363398
31
0
39
0
210
0
220
0
230
1
0
SOLID
5
111
100
AcDbEntity
8
0
62
256
6
ByLayer
370
-1
48
1
60
0
100
AcDbTrace
10
3.5
20
-12.780065
30
0
11
3.5
21
-13.946732
31
0
12
0
22
-13.363398
32
0
13
0
23
-13.363398
33
0
39
0
210
0
220
0
230
1
0
SOLID
5
112
100
AcDbEntity
8
0
62
256
6
ByLayer
370
-1
48
1
60
0
100
AcDbTrace
10
50.2803
20
-13.946732
30
0
11
50.2803
21
-12.780065
31
0
12
53.7803
22
-13.363398
32
0
13
53.7803
23
-13.363398
33
0
39
0
210
0
220
0
230
1
0
MTEXT
5
113
100
AcDbEntity
8
0
62
256
6
ByLayer
370
18
48
1
60
0
100
AcDbMText
10
26.89015
20
-6.363398
30
0
210
0
220
0
230
1
1
\A1;53.78
40
3.5
41
0
44
1
50
0
71
5
72
5
7
iso_b_vert
0
POINT
5
114
100
AcDbEntity
8
Defpoints
62
0
6
ByLayer
370
-1
48
1
60
0
100
AcDbPoint
10
0
20
0
30
0
39
0
210
0
220
0
230
1
50
360
0
POINT
5
115
100
AcDbEntity
8
Defpoints
62
0
6
ByLayer
370
-1
48
1
60
0
100
AcDbPoint
10
53.7803
20
-3.15
30
0
39
0
210
0
220
0
230
1
50
360
0
POINT
5
116
100
AcDbEntity
8
Defpoints
62
0
6
ByLayer
370
-1
48
1
60
0
100
AcDbPoint
10
53.7803
20
-13.363398
30
0
39
0
210
0
220
0
230
1
50
360
0
ENDBLK
5
10D
100
AcDbEntity
8
0
100
AcDbBlockEnd
0
BLOCK
5
11E
100
AcDbEntity
8
0
100
AcDbBlockBegin
2
_U0
70
0
10
0
20
0
30
0
3
_U0
0
MTEXT
5
118
100
AcDbEntity
8
2
62
256
6
ByLayer
370
13
48
1
60
0
100
AcDbMText
10
21.752851
20
-12.330765
30
0
210
0
220
0
230
1
1
\W0.7317;53,78
40
3.5
41
0
44
1.084337
50
0
71
7
72
5
7
iso_b_vert
0
LINE
5
119
100
AcDbEntity
8
2
62
256
6
ByLayer
370
13
48
1
60
0
100
AcDbLine
10
0
20
-1.5875
30
0
11
0
21
-15.363398
31
0
39
0
210
0
220
0
230
1
0
LINE
5
11A
100
AcDbEntity
8
2
62
256
6
ByLayer
370
13
48
1
60
0
100
AcDbLine
10
53.7803
20
-4.7375
30
0
11
53.7803
21
-15.363398
31
0
39
0
210
0
220
0
230
1
0
LINE
5
11B
100
AcDbEntity
8
2
62
256
6
ByLayer
370
13
48
1
60
0
100
AcDbLine
10
0
20
-13.363398
30
0
11
53.7803
21
-13.363398
31
0
39
0
210
0
220
0
230
1
0
SOLID
5
11C
100
AcDbEntity
8
2
62
256
6
ByLayer
370
18
48
1
60
0
100
AcDbTrace
10
0
20
-13.363398
30
0
11
3.499998
21
-12.902615
31
0
12
3.500002
22
-13.824182
32
0
13
3.500002
23
-13.824182
33
0
39
0
210
0
220
0
230
1
0
SOLID
5
11D
100
AcDbEntity
8
2
62
256
6
ByLayer
370
18
48
1
60
0
100
AcDbTrace
10
53.7803
20
-13.363398
30
0
11
50.280302
21
-13.824182
31
0
12
50.280298
22
-12.902615
32
0
13
50.280298
23
-12.902615
33
0
39
0
210
0
220
0
230
1
0
ENDBLK
5
11F
100
AcDbEntity
8
0
100
AcDbBlockEnd
0
BLOCK
5
124
100
AcDbEntity
8
0
100
AcDbBlockBegin
2
*D3
70
1
10
0
20
0
30
0
3
*D3
0
LINE
5
126
100
AcDbEntity
8
0
62
256
6
ByLayer
370
-2
48
1
60
0
100
AcDbLine
10
-36
20
-5.5875
30
0
11
-36
21
-34.692985
31
0
39
0
210
0
220
0
230
1
0
LINE
5
127
100
AcDbEntity
8
0
62
256
6
ByLayer
370
-2
48
1
60
0
100
AcDbLine
10
55
20
-1.5875
30
0
11
55
21
-34.692985
31
0
39
0
210
0
220
0
230
1
0
LINE
5
128
100
AcDbEntity
8
0
62
256
6
ByLayer
370
-2
48
1
60
0
100
AcDbLine
10
-32.5
20
-32.692985
30
0
11
51.5
21
-32.692985
31
0
39
0
210
0
220
0
230
1
0
SOLID
5
129
100
AcDbEntity
8
0
62
256
6
ByLayer
370
-1
48
1
60
0
100
AcDbTrace
10
-32.5
20
-32.109652
30
0
11
-32.5
21
-33.276319
31
0
12
-36
22
-32.692985
32
0
13
-36
23
-32.692985
33
0
39
0
210
0
220
0
230
1
0
SOLID
5
12A
100
AcDbEntity
8
0
62
256
6
ByLayer
370
-1
48
1
60
0
100
AcDbTrace
10
51.5
20
-33.276319
30
0
11
51.5
21
-32.109652
31
0
12
55
22
-32.692985
32
0
13
55
23
-32.692985
33
0
39
0
210
0
220
0
230
1
0
MTEXT
5
12B
100
AcDbEntity
8
0
62
256
6
ByLayer
370
18
48
1
60
0
100
AcDbMText
10
9.5
20
-25.692985
30
0
210
0
220
0
230
1
1
\A1;91.00
40
3.5
41
0
44
1
50
0
71
5
72
5
7
iso_b_vert
0
POINT
5
12C
100
AcDbEntity
8
Defpoints
62
0
6
ByLayer
370
-1
48
1
60
0
100
AcDbPoint
10
-36
20
-4
30
0
39
0
210
0
220
0
230
1
50
360
0
POINT
5
12D
100
AcDbEntity
8
Defpoints
62
0
6
ByLayer
370
-1
48
1
60
0
100
AcDbPoint
10
55
20
0
30
0
39
0
210
0
220
0
230
1
50
360
0
POINT
5
12E
100
AcDbEntity
8
Defpoints
62
0
6
ByLayer
370
-1
48
1
60
0
100
AcDbPoint
10
55
20
-32.692985
30
0
39
0
210
0
220
0
230
1
50
360
0
ENDBLK
5
125
100
AcDbEntity
8
0
100
AcDbBlockEnd
0
BLOCK
5
136
100
AcDbEntity
8
0
100
AcDbBlockBegin
2
_U1
70
0
10
0
20
0
30
0
3
_U1
0
MTEXT
5
130
100
AcDbEntity
8
SK2
62
256
6
ByLayer
370
13
48
1
60
0
100
AcDbMText
10
4.800135
20
-31.660352
30
0
210
0
220
0
230
1
1
\W0.6713;91,00
40
3.5
41
0
44
1.084337
50
0
71
7
72
5
7
iso_b_vert
0
LINE
5
131
100
AcDbEntity
8
SK2
62
256
6
ByLayer
370
13
48
1
60
0
100
AcDbLine
10
-36
20
-5.5875
30
0
11
-36
21
-34.692985
31
0
39
0
210
0
220
0
230
1
0
LINE
5
132
100
AcDbEntity
8
SK2
62
256
6
ByLayer
370
13
48
1
60
0
100
AcDbLine
10
55
20
-1.5875
30
0
11
55
21
-34.692985
31
0
39
0
210
0
220
0
230
1
0
LINE
5
133
100
AcDbEntity
8
SK2
62
256
6
ByLayer
370
13
48
1
60
0
100
AcDbLine
10
-36
20
-32.692985
30
0
11
55
21
-32.692985
31
0
39
0
210
0
220
0
230
1
0
SOLID
5
134
100
AcDbEntity
8
SK2
62
256
6
ByLayer
370
18
48
1
60
0
100
AcDbTrace
10
-36
20
-32.692985
30
0
11
-32.500002
21
-32.232202
31
0
12
-32.499998
22
-33.153769
32
0
13
-32.499998
23
-33.153769
33
0
39
0
210
0
220
0
230
1
0
SOLID
5
135
100
AcDbEntity
8
SK2
62
256
6
ByLayer
370
18
48
1
60
0
100
AcDbTrace
10
55
20
-32.692985
30
0
11
51.500002
21
-33.153769
31
0
12
51.499998
22
-32.232202
32
0
13
51.499998
23
-32.232202
33
0
39
0
210
0
220
0
230
1
0
ENDBLK
5
137
100
AcDbEntity
8
0
100
AcDbBlockEnd
0
BLOCK
5
13C
100
AcDbEntity
8
0
100
AcDbBlockBegin
2
*D5
70
1
10
0
20
0
30
0
3
*D5
0
LINE
5
13E
100
AcDbEntity
8
0
62
256
6
ByLayer
370
-2
48
1
60
0
100
AcDbLine
10
22.28
20
4.7375
30
0
11
22.28
21
16.759119
31
0
39
0
210
0
220
0
230
1
0
LINE
5
13F
100
AcDbEntity
8
0
62
256
6
ByLayer
370
-2
48
1
60
0
100
AcDbLine
10
55
20
1.5875
30
0
11
55
21
16.759119
31
0
39
0
210
0
220
0
230
1
0
LINE
5
140
100
AcDbEntity
8
0
62
256
6
ByLayer
370
-2
48
1
60
0
100
AcDbLine
10
25.78
20
14.759119
30
0
11
51.5
21
14.759119
31
0
39
0
210
0
220
0
230
1
0
SOLID
5
141
100
AcDbEntity
8
0
62
256
6
ByLayer
370
-1
48
1
60
0
100
AcDbTrace
10
25.78
20
15.342453
30
0
11
25.78
21
14.175786
31
0
12
22.28
22
14.759119
32
0
13
22.28
23
14.759119
33
0
39
0
210
0
220
0
230
1
0
SOLID
5
142
100
AcDbEntity
8
0
62
256
6
ByLayer
370
-1
48
1
60
0
100
AcDbTrace
10
51.5
20
14.175786
30
0
11
51.5
21
15.342453
31
0
12
55
22
14.759119
32
0
13
55
23
14.759119
33
0
39
0
210
0
220
0
230
1
0
MTEXT
5
143
100
AcDbEntity
8
0
62
256
6
ByLayer
370
18
48
1
60
0
100
AcDbMText
10
38.64
20
21.759119
30
0
210
0
220
0
230
1
1
\A1;32.72
40
3.5
41
0
44
1
50
0
71
5
72
5
7
iso_b_vert
0
POINT
5
144
100
AcDbEntity
8
Defpoints
62
0
6
ByLayer
370
-1
48
1
60
0
100
AcDbPoint
10
22.28
20
3.15
30
0
39
0
210
0
220
0
230
1
50
360
0
POINT
5
145
100
AcDbEntity
8
Defpoints
62
0
6
ByLayer
370
-1
48
1
60
0
100
AcDbPoint
10
55
20
0
30
0
39
0
210
0
220
0
230
1
50
360
0
POINT
5
146
100
AcDbEntity
8
Defpoints
62
0
6
ByLayer
370
-1
48
1
60
0
100
AcDbPoint
10
55
20
14.759119
30
0
39
0
210
0
220
0
230
1
50
360
0
ENDBLK
5
13D
100
AcDbEntity
8
0
100
AcDbBlockEnd
0
BLOCK
5
14E
100
AcDbEntity
8
0
100
AcDbBlockBegin
2
_U2
70
0
10
0
20
0
30
0
3
_U2
0
MTEXT
5
148
100
AcDbEntity
8
SK2
62
256
6
ByLayer
370
13
48
1
60
0
100
AcDbMText
10
33.502701
20
15.791753
30
0
210
0
220
0
230
1
1
\W0.7317;32,72
40
3.5
41
0
44
1.084337
50
0
71
7
72
5
7
iso_b_vert
0
LINE
5
149
100
AcDbEntity
8
SK2
62
256
6
ByLayer
370
13
48
1
60
0
100
AcDbLine
10
22.28
20
4.7375
30
0
11
22.28
21
16.759119
31
0
39
0
210
0
220
0
230
1
0
LINE
5
14A
100
AcDbEntity
8
SK2
62
256
6
ByLayer
370
13
48
1
60
0
100
AcDbLine
10
55
20
1.5875
30
0
11
55
21
16.759119
31
0
39
0
210
0
220
0
230
1
0
LINE
5
14B
100
AcDbEntity
8
SK2
62
256
6
ByLayer
370
13
48
1
60
0
100
AcDbLine
10
22.28
20
14.759119
30
0
11
55
21
14.759119
31
0
39
0
210
0
220
0
230
1
0
SOLID
5
14C
100
AcDbEntity
8
SK2
62
256
6
ByLayer
370
18
48
1
60
0
100
AcDbTrace
10
22.28
20
14.759119
30
0
11
25.779998
21
15.219903
31
0
12
25.780002
22
14.298335
32
0
13
25.780002
23
14.298335
33
0
39
0
210
0
220
0
230
1
0
SOLID
5
14D
100
AcDbEntity
8
SK2
62
256
6
ByLayer
370
18
48
1
60
0
100
AcDbTrace
10
55
20
14.759119
30
0
11
51.500002
21
14.298335
31
0
12
51.499998
22
15.219903
32
0
13
51.499998
23
15.219903
33
0
39
0
210
0
220
0
230
1
0
ENDBLK
5
14F
100
AcDbEntity
8
0
100
AcDbBlockEnd
0
BLOCK
5
154
100
AcDbEntity
8
0
100
AcDbBlockBegin
2
*D7
70
1
10
0
20
0
30
0
3
*D7
0
LINE
5
156
100
AcDbEntity
8
0
62
256
6
ByLayer
370
-2
48
1
60
0
100
AcDbLine
10
55
20
-1.5875
30
0
11
55
21
-17.952503
31
0
39
0
210
0
220
0
230
1
0
LINE
5
157
100
AcDbEntity
8
0
62
256
6
ByLayer
370
-2
48
1
60
0
100
AcDbLine
10
53.7803
20
-4.7375
30
0
11
53.7803
21
-17.952503
31
0
39
0
210
0
220
0
230
1
0
LINE
5
158
100
AcDbEntity
8
0
62
256
6
ByLayer
370
-2
48
1
60
0
100
AcDbLine
10
55
20
-15.952503
30
0
11
82.666667
21
-15.952503
31
0
39
0
210
0
220
0
230
1
0
LINE
5
159
100
AcDbEntity
8
0
62
256
6
ByLayer
370
-2
48
1
60
0
100
AcDbLine
10
58.5
20
-15.952503
30
0
11
62
21
-15.952503
31
0
39
0
210
0
220
0
230
1
0
LINE
5
15A
100
AcDbEntity
8
0
62
256
6
ByLayer
370
-2
48
1
60
0
100
AcDbLine
10
50.2803
20
-15.952503
30
0
11
46.7803
21
-15.952503
31
0
39
0
210
0
220
0
230
1
0
SOLID
5
15B
100
AcDbEntity
8
0
62
256
6
ByLayer
370
-1
48
1
60
0
100
AcDbTrace
10
58.5
20
-15.36917
30
0
11
58.5
21
-16.535837
31
0
12
55
22
-15.952503
32
0
13
55
23
-15.952503
33
0
39
0
210
0
220
0
230
1
0
SOLID
5
15C
100
AcDbEntity
8
0
62
256
6
ByLayer
370
-1
48
1
60
0
100
AcDbTrace
10
50.2803
20
-16.535837
30
0
11
50.2803
21
-15.36917
31
0
12
53.7803
22
-15.952503
32
0
13
53.7803
23
-15.952503
33
0
39
0
210
0
220
0
230
1
0
MTEXT
5
15D
100
AcDbEntity
8
0
62
256
6
ByLayer
370
18
48
1
60
0
100
AcDbMText
10
72.333333
20
-8.952503
30
0
210
0
220
0
230
1
1
\A1;1.22
40
3.5
41
0
44
1
50
0
71
5
72
5
7
iso_b_vert
0
POINT
5
15E
100
AcDbEntity
8
Defpoints
62
0
6
ByLayer
370
-1
48
1
60
0
100
AcDbPoint
10
55
20
0
30
0
39
0
210
0
220
0
230
1
50
360
0
POINT
5
15F
100
AcDbEntity
8
Defpoints
62
0
6
ByLayer
370
-1
48
1
60
0
100
AcDbPoint
10
53.7803
20
-3.15
30
0
39
0
210
0
220
0
230
1
50
360
0
POINT
5
160
100
AcDbEntity
8
Defpoints
62
0
6
ByLayer
370
-1
48
1
60
0
100
AcDbPoint
10
53.7803
20
-15.952503
30
0
39
0
210
0
220
0
230
1
50
360
0
ENDBLK
5
155
100
AcDbEntity
8
0
100
AcDbBlockEnd
0
BLOCK
5
168
100
AcDbEntity
8
0
100
AcDbBlockBegin
2
_U3
70
0
10
0
20
0
30
0
3
_U3
0
MTEXT
5
162
100
AcDbEntity
8
SK2
62
256
6
ByLayer
370
13
48
1
60
0
100
AcDbMText
10
61.589293
20
-14.91987
30
0
210
0
220
0
230
1
1
\W0.6367;1,22
40
3.5
41
0
44
1.084337
50
0
71
7
72
5
7
iso_b_vert
0
LINE
5
163
100
AcDbEntity
8
SK2
62
256
6
ByLayer
370
13
48
1
60
0
100
AcDbLine
10
55
20
-1.5875
30
0
11
55
21
-17.952503
31
0
39
0
210
0
220
0
230
1
0
LINE
5
164
100
AcDbEntity
8
SK2
62
256
6
ByLayer
370
13
48
1
60
0
100
AcDbLine
10
53.7803
20
-4.7375
30
0
11
53.7803
21
-17.952503
31
0
39
0
210
0
220
0
230
1
0
LINE
5
165
100
AcDbEntity
8
SK2
62
256
6
ByLayer
370
13
48
1
60
0
100
AcDbLine
10
45.0303
20
-15.952503
30
0
11
68.559058
21
-15.952503
31
0
39
0
210
0
220
0
230
1
0
SOLID
5
166
100
AcDbEntity
8
SK2
62
256
6
ByLayer
370
18
48
1
60
0
100
AcDbTrace
10
55
20
-15.952503
30
0
11
58.499998
21
-15.491719
31
0
12
58.500002
22
-16.413287
32
0
13
58.500002
23
-16.413287
33
0
39
0
210
0
220
0
230
1
0
SOLID
5
167
100
AcDbEntity
8
SK2
62
256
6
ByLayer
370
18
48
1
60
0
100
AcDbTrace
10
53.7803
20
-15.952503
30
0
11
50.280302
21
-16.413287
31
0
12
50.280298
22
-15.491719
32
0
13
50.280298
23
-15.491719
33
0
39
0
210
0
220
0
230
1
0
ENDBLK
5
169
100
AcDbEntity
8
0
100
AcDbBlockEnd
0
BLOCK
5
16E
100
AcDbEntity
8
0
100
AcDbBlockBegin
2
*D9
70
1
10
0
20
0
30
0
3
*D9
0
LINE
5
170
100
AcDbEntity
8
0
62
256
6
ByLayer
370
-2
48
1
60
0
100
AcDbLine
10
-36
20
-5.5875
30
0
11
-36
21
-24.343428
31
0
39
0
210
0
220
0
230
1
0
LINE
5
171
100
AcDbEntity
8
0
62
256
6
ByLayer
370
-2
48
1
60
0
100
AcDbLine
10
53.7803
20
-4.7375
30
0
11
53.7803
21
-24.343428
31
0
39
0
210
0
220
0
230
1
0
LINE
5
172
100
AcDbEntity
8
0
62
256
6
ByLayer
370
-2
48
1
60
0
100
AcDbLine
10
-32.5
20
-22.343428
30
0
11
50.2803
21
-22.343428
31
0
39
0
210
0
220
0
230
1
0
SOLID
5
173
100
AcDbEntity
8
0
62
256
6
ByLayer
370
-1
48
1
60
0
100
AcDbTrace
10
-32.5
20
-21.760095
30
0
11
-32.5
21
-22.926762
31
0
12
-36
22
-22.343428
32
0
13
-36
23
-22.343428
33
0
39
0
210
0
220
0
230
1
0
SOLID
5
174
100
AcDbEntity
8
0
62
256
6
ByLayer
370
-1
48
1
60
0
100
AcDbTrace
10
50.2803
20
-22.926762
30
0
11
50.2803
21
-21.760095
31
0
12
53.7803
22
-22.343428
32
0
13
53.7803
23
-22.343428
33
0
39
0
210
0
220
0
230
1
0
MTEXT
5
175
100
AcDbEntity
8
0
62
256
6
ByLayer
370
18
48
1
60
0
100
AcDbMText
10
8.89015
20
-15.343428
30
0
210
0
220
0
230
1
1
\A1;89.78
40
3.5
41
0
44
1
50
0
71
5
72
5
7
iso_b_vert
0
POINT
5
176
100
AcDbEntity
8
Defpoints
62
0
6
ByLayer
370
-1
48
1
60
0
100
AcDbPoint
10
-36
20
-4
30
0
39
0
210
0
220
0
230
1
50
360
0
POINT
5
177
100
AcDbEntity
8
Defpoints
62
0
6
ByLayer
370
-1
48
1
60
0
100
AcDbPoint
10
53.7803
20
-3.15
30
0
39
0
210
0
220
0
230
1
50
360
0
POINT
5
178
100
AcDbEntity
8
Defpoints
62
0
6
ByLayer
370
-1
48
1
60
0
100
AcDbPoint
10
53.7803
20
-22.343428
30
0
39
0
210
0
220
0
230
1
50
360
0
ENDBLK
5
16F
100
AcDbEntity
8
0
100
AcDbBlockEnd
0
BLOCK
5
180
100
AcDbEntity
8
0
100
AcDbBlockBegin
2
_U4
70
0
10
0
20
0
30
0
3
_U4
0
MTEXT
5
17A
100
AcDbEntity
8
SK2
62
256
6
ByLayer
370
13
48
1
60
0
100
AcDbMText
10
3.752851
20
-21.310795
30
0
210
0
220
0
230
1
1
\W0.7317;89,78
40
3.5
41
0
44
1.084337
50
0
71
7
72
5
7
iso_b_vert
0
LINE
5
17B
100
AcDbEntity
8
SK2
62
256
6
ByLayer
370
13
48
1
60
0
100
AcDbLine
10
-36
20
-5.5875
30
0
11
-36
21
-24.343428
31
0
39
0
210
0
220
0
230
1
0
LINE
5
17C
100
AcDbEntity
8
SK2
62
256
6
ByLayer
370
13
48
1
60
0
100
AcDbLine
10
53.7803
20
-4.7375
30
0
11
53.7803
21
-24.343428
31
0
39
0
210
0
220
0
230
1
0
LINE
5
17D
100
AcDbEntity
8
SK2
62
256
6
ByLayer
370
13
48
1
60
0
100
AcDbLine
10
-36
20
-22.343428
30
0
11
53.7803
21
-22.343428
31
0
39
0
210
0
220
0
230
1
0
SOLID
5
17E
100
AcDbEntity
8
SK2
62
256
6
ByLayer
370
18
48
1
60
0
100
AcDbTrace
10
-36
20
-22.343428
30
0
11
-32.500002
21
-21.882645
31
0
12
-32.499998
22
-22.804212
32
0
13
-32.499998
23
-22.804212
33
0
39
0
210
0
220
0
230
1
0
SOLID
5
17F
100
AcDbEntity
8
SK2
62
256
6
ByLayer
370
18
48
1
60
0
100
AcDbTrace
10
53.7803
20
-22.343428
30
0
11
50.280302
21
-22.804212
31
0
12
50.280298
22
-21.882645
32
0
13
50.280298
23
-21.882645
33
0
39
0
210
0
220
0
230
1
0
ENDBLK
5
181
100
AcDbEntity
8
0
100
AcDbBlockEnd
0
ENDSEC
0
SECTION
2
ENTITIES
0
ARC
5
A8
100
AcDbEntity
8
1
62
256
6
ByLayer
370
18
48
1
60
0
100
AcDbCircle
39
0
10
1.522681
20
-3.905938
30
0
40
0.850000000000003
210
0
220
0
230
1
100
AcDbArc
50
89.896868
51
153.597823
0
ARC
5
A9
100
AcDbEntity
8
1
62
256
6
ByLayer
370
18
48
1
60
0
100
AcDbCircle
39
0
10
1.522681
20
3.905938
30
0
40
0.850000000000003
210
0
220
0
230
1
100
AcDbArc
50
206.402177
51
270.103132
0
ARC
5
AA
100
AcDbEntity
8
1
62
256
6
ByLayer
370
18
48
1
60
0
100
AcDbCircle
39
0
10
0
20
-3.15
30
0
40
0.849999999999997
210
0
220
0
230
1
100
AcDbArc
50
270
51
333.597823
0
ARC
5
AB
100
AcDbEntity
8
1
62
256
6
ByLayer
370
18
48
1
60
0
100
AcDbCircle
39
0
10
0
20
3.15
30
0
40
0.849999999999997
210
0
220
0
230
1
100
AcDbArc
50
26.402177
51
90
0
ELLIPSE
5
AC
100
AcDbEntity
8
1
62
256
6
ByLayer
370
13
48
1
60
0
100
AcDbEllipse
10
99.194174
20
42.489532
30
0
11
-61.2499999999999
21
7.50071391716205E-15
31
0
210
0
220
0
230
1
40
0.99863
41
0.747251779783528
42
0.763764953671896
0
ELLIPSE
5
AD
100
AcDbEntity
8
1
62
256
6
ByLayer
370
13
48
1
60
0
100
AcDbEllipse
10
11.630935
20
55.355066
30
0
11
-57.8280720218666
21
46.9094075811169
31
0
210
0
220
0
230
1
40
0.631353
41
1.99314881619544
42
2.04411315862749
0
ELLIPSE
5
AE
100
AcDbEntity
8
1
62
256
6
ByLayer
370
13
48
1
60
0
100
AcDbEllipse
10
5.973872
20
-1.819746
30
0
11
0.110110864183707
21
0.279061995959172
31
0
210
0
220
0
230
1
40
0.23635
41
1.02587617723625
42
1.78390811516663
0
POINT
5
70
100
AcDbEntity
8
80
62
256
6
ByLayer
370
18
48
1
60
0
100
AcDbPoint
10
0
20
0
30
0
39
0
210
0
220
0
230
1
50
360
0
POINT
5
72
100
AcDbEntity
8
81
62
256
6
ByLayer
370
18
48
1
60
0
100
AcDbPoint
10
55
20
0
30
0
39
0
210
0
220
0
230
1
50
360
0
POINT
5
74
100
AcDbEntity
8
1
62
256
6
ByLayer
370
18
48
1
60
1
100
AcDbPoint
10
53.7803
20
-3.15
30
0
39
0
210
0
220
0
230
1
50
360
0
POINT
5
76
100
AcDbEntity
8
1
62
256
6
ByLayer
370
18
48
1
60
1
100
AcDbPoint
10
-36
20
-4
30
0
39
0
210
0
220
0
230
1
50
360
0
POINT
5
77
100
AcDbEntity
8
1
62
256
6
ByLayer
370
18
48
1
60
1
100
AcDbPoint
10
22.28
20
3.15
30
0
39
0
210
0
220
0
230
1
50
360
0
POINT
5
78
100
AcDbEntity
8
1
62
256
6
ByLayer
370
18
48
1
60
1
100
AcDbPoint
10
53.7803
20
-3.15
30
0
39
0
210
0
220
0
230
1
50
360
0
POINT
5
79
100
AcDbEntity
8
1
62
256
6
ByLayer
370
18
48
1
60
1
100
AcDbPoint
10
-36
20
-4
30
0
39
0
210
0
220
0
230
1
50
360
0
POINT
5
7A
100
AcDbEntity
8
1
62
256
6
ByLayer
370
18
48
1
60
1
100
AcDbPoint
10
53.7803
20
-3.15
30
0
39
0
210
0
220
0
230
1
50
360
0
SPLINE
5
AF
100
AcDbEntity
8
1
62
256
6
ByLayer
370
18
48
1
60
0
100
AcDbSpline
70
4
71
3
72
28
73
24
40
0
40
0
40
0
40
0
40
0.0450949678082126
40
0.0450949678082126
40
0.108755303287665
40
0.108755303287665
40
0.172415638767117
40
0.172415638767117
40
0.236075974246569
40
0.236075974246569
40
0.363396645205474
40
0.363396645205474
40
0.490717316164378
40
0.490717316164378
40
0.618037987123282
40
0.618037987123282
40
0.745358658082187
40
0.745358658082187
40
0.872679329041091
40
0.872679329041091
40
0.936339664520546
40
0.936339664520546
40
1
40
1
40
1
40
1
41
1
10
4.10518911404526
20
-2.90244764962628
30
0
41
1
10
4.14301794521839
20
-2.8847857414342
30
0
41
1
10
4.18976213597543
20
-2.86759240750786
30
0
41
1
10
4.31166098542911
20
-2.82905175446746
30
0
41
1
10
4.39200198944678
20
-2.80835259472471
30
0
41
1
10
4.55858983166439
20
-2.77111198551563
30
0
41
1
10
4.64480659085356
20
-2.75455007772052
30
0
41
1
10
4.82111138217121
20
-2.72471014730812
30
0
41
1
10
4.91123571852742
20
-2.71144823150144
30
0
41
1
10
5.18618559870393
20
-2.67612852908712
30
0
41
1
10
5.37118082952114
20
-2.6590187397253
30
0
41
1
10
5.74337450107103
20
-2.63550770427781
30
0
41
1
10
5.93063087772731
20
-2.62916903227543
30
0
41
1
10
6.30718697796743
20
-2.62669318203885
30
0
41
1
10
6.49718336230541
20
-2.63064655528288
30
0
41
1
10
6.87234949339538
20
-2.64807194793434
30
0
41
1
10
7.05823060060135
20
-2.66152001241673
30
0
41
1
10
7.42658627978255
20
-2.69662780712105
30
0
41
1
10
7.60905701951168
20
-2.71830460015207
30
0
41
1
10
7.88010141792546
20
-2.75557972888592
30
0
41
1
10
7.97018916269209
20
-2.76882305471034
30
0
41
1
10
8.14750450496422
20
-2.79622938654913
30
0
41
1
10
8.23493871629634
20
-2.81041744726272
30
0
41
1
10
8.3211695719566
20
-2.82486058089782
30
0
0
SPLINE
5
B0
100
AcDbEntity
8
1
62
256
6
ByLayer
370
18
48
1
60
0
100
AcDbSpline
70
4
71
3
72
20
73
16
40
0
40
0
40
0
40
0
40
0.124999999999999
40
0.124999999999999
40
0.249999999999997
40
0.249999999999997
40
0.374999999999996
40
0.374999999999996
40
0.499999999999995
40
0.499999999999995
40
0.749999999999997
40
0.749999999999997
40
0.874999999999999
40
0.874999999999999
40
1
40
1
40
1
40
1
41
1
10
54.4421359607322
20
-0.904738635070828
30
0
41
1
10
54.4033103179736
20
-0.905564060107253
30
0
41
1
10
54.3666149285489
20
-0.895976506663146
30
0
41
1
10
54.2966866882661
20
-0.85987602333833
30
0
41
1
10
54.2631443422437
20
-0.832895787045146
30
0
41
1
10
54.2012041672621
20
-0.765732864943715
30
0
41
1
10
54.1727184268395
20
-0.725730751232305
30
0
41
1
10
54.1199397749782
20
-0.634890397522298
30
0
41
1
10
54.0954995123465
20
-0.583602512486436
30
0
41
1
10
54.0293456164938
20
-0.418185028263878
30
0
41
1
10
53.9945803561586
20
-0.293429856386609
30
0
41
1
10
53.9540946394387
20
-0.0882157621684883
30
0
41
1
10
53.9425855230938
20
-0.0165134108047198
30
0
41
1
10
53.9239061687429
20
0.129752534812781
30
0
41
1
10
53.9166524497483
20
0.204672747359837
30
0
41
1
10
53.9114308636843
20
0.281334082409216
30
0
0
SPLINE
5
B1
100
AcDbEntity
8
1
62
256
6
ByLayer
370
18
48
1
60
0
100
AcDbSpline
70
4
71
3
72
16
73
12
40
0
40
0
40
0
40
0
40
0.125
40
0.125
40
0.250000000000001
40
0.250000000000001
40
0.5
40
0.5
40
0.75
40
0.75
40
1
40
1
40
1
40
1
41
1
10
5.56508002336312
20
-1.59819724561677
30
0
41
1
10
5.56502753707687
20
-1.61505082601204
30
0
41
1
10
5.5695513745045
20
-1.63117339267765
30
0
41
1
10
5.58416011756819
20
-1.6618517519538
30
0
41
1
10
5.59397366835643
20
-1.67587066011691
30
0
41
1
10
5.62807053554019
20
-1.71546767352555
30
0
41
1
10
5.65623584510902
20
-1.73782620363471
30
0
41
1
10
5.71649310984398
20
-1.77766402709244
30
0
41
1
10
5.74905964448379
20
-1.79525151599034
30
0
41
1
10
5.81598342954123
20
-1.8267482261399
30
0
41
1
10
5.85056910708727
20
-1.84076353219416
30
0
41
1
10
5.88611878553004
20
-1.8533324622062
30
0
0
SPLINE
5
B2
100
AcDbEntity
8
1
62
256
6
ByLayer
370
18
48
1
60
0
100
AcDbSpline
70
4
71
3
72
50
73
46
40
0
40
0
40
0
40
0
40
0.0124433535466356
40
0.0124433535466356
40
0.0618211858693026
40
0.0618211858693026
40
0.0865101020306367
40
0.0865101020306367
40
0.111199018191971
40
0.111199018191971
40
0.160576850514639
40
0.160576850514639
40
0.209954682837307
40
0.209954682837307
40
0.259332515159976
40
0.259332515159976
40
0.28402143132131
40
0.28402143132131
40
0.308710347482644
40
0.308710347482644
40
0.358088179805311
40
0.358088179805311
40
0.407466012127978
40
0.407466012127978
40
0.506221676773311
40
0.506221676773311
40
0.530910592934644
40
0.530910592934644
40
0.555599509095977
40
0.555599509095977
40
0.604977341418645
40
0.604977341418645
40
0.703733006063981
40
0.703733006063981
40
0.728421922225316
40
0.728421922225316
40
0.75311083838665
40
0.75311083838665
40
0.80248867070932
40
0.80248867070932
40
0.901244335354661
40
0.901244335354661
40
0.95062216767733
40
0.95062216767733
40
1
40
1
40
1
40
1
41
1
10
27.4720540075398
20
2.122981227688
30
0
41
1
10
27.5812915743617
20
2.15880344609934
30
0
41
1
10
27.690583964445
20
2.19386670739064
30
0
41
1
10
28.2339210249088
20
2.36415297668478
30
0
41
1
10
28.6692166860114
20
2.48738874626051
30
0
41
1
10
29.3259366910036
20
2.6499742129582
30
0
41
1
10
29.545624207386
20
2.70054244127346
30
0
41
1
10
29.9830194049101
20
2.79284153049204
30
0
41
1
10
30.2010102508987
20
2.83486579793893
30
0
41
1
10
30.8539091828675
20
2.94769647330301
30
0
41
1
10
31.287275470555
20
3.00572723760425
30
0
41
1
10
32.1527376507015
20
3.08602046301061
30
0
41
1
10
32.5850504454238
20
3.10822523153976
30
0
41
1
10
33.4507689028337
20
3.11618780161481
30
0
41
1
10
33.8843634486803
20
3.10190520225328
30
0
41
1
10
34.5376717291569
20
3.05292302980717
30
0
41
1
10
34.7558711585367
20
3.03197080169522
30
0
41
1
10
35.1937071122645
20
2.98097379795146
30
0
41
1
10
35.413160485864
20
2.95079826184198
30
0
41
1
10
36.0685864984644
20
2.84783509580725
30
0
41
1
10
36.5030536646245
20
2.76206246115302
30
0
41
1
10
37.3695682425211
20
2.55938252959794
30
0
41
1
10
37.8018611095803
20
2.4428075125293
30
0
41
1
10
39.0986978827267
20
2.05155428108682
30
0
41
1
10
39.9637128224957
20
1.73578443468386
30
0
41
1
10
41.0584732966717
20
1.2938067717952
30
0
41
1
10
41.2776227264694
20
1.20304779670064
30
0
41
1
10
41.7139829685864
20
1.01908718398562
30
0
41
1
10
41.9316117040268
20
0.925741104628685
30
0
41
1
10
42.5830202885928
20
0.642008026972974
30
0
41
1
10
43.0157726572326
20
0.448944396191848
30
0
41
1
10
44.3123354423987
20
-0.1354543969139
30
0
41
1
10
45.1749912914156
20
-0.530781923936075
30
0
41
1
10
46.2640049560676
20
-1.00283093131574
30
0
41
1
10
46.4822657736282
20
-1.09631067996045
30
0
41
1
10
46.9202216076805
20
-1.28022503272885
30
0
41
1
10
47.1389204748587
20
-1.37022524229957
30
0
41
1
10
47.7925322363068
20
-1.63334379179483
30
0
41
1
10
48.2261816140098
20
-1.79896664042189
30
0
41
1
10
49.5238443387315
20
-2.26151434337234
30
0
41
1
10
50.385077347048
20
-2.52289974033269
30
0
41
1
10
51.6865389249821
20
-2.82094928851916
30
0
41
1
10
52.1221171393327
20
-2.90486062926371
30
0
41
1
10
52.9976966253808
20
-3.03785855301021
30
0
41
1
10
53.4347851040214
20
-3.08632727136924
30
0
41
1
10
53.8722413437577
20
-3.11624145218144
30
0
0
SPLINE
5
B3
100
AcDbEntity
8
1
62
256
6
ByLayer
370
18
48
1
60
0
100
AcDbSpline
70
4
71
1
72
4
73
2
40
0
40
0
40
1
40
1
41
1
10
53.8296164990305
20
-2.98987120021346
30
0
41
1
10
54.4366627949605
20
-0.940517250244653
30
0
0
SPLINE
5
B4
100
AcDbEntity
8
1
62
256
6
ByLayer
370
18
48
1
60
0
100
AcDbSpline
70
4
71
3
72
24
73
20
40
0
40
0
40
0
40
0
40
0.139646197008105
40
0.139646197008105
40
0.279292394016209
40
0.279292394016209
40
0.418938591024314
40
0.418938591024314
40
0.558584788032418
40
0.558584788032418
40
0.698230985040523
40
0.698230985040523
40
0.768054083544577
40
0.768054083544577
40
0.837877182048631
40
0.837877182048631
40
0.977523379056739
40
0.977523379056739
40
1
40
1
40
1
40
1
41
1
10
53.5673466120788
20
0.472536379966101
30
0
41
1
10
53.115554368176
20
0.669672028821623
30
0
41
1
10
52.6654750512662
20
0.862798765212602
30
0
41
1
10
51.7661988646967
20
1.23517965167898
30
0
41
1
10
51.317277730215
20
1.41513431898551
30
0
41
1
10
50.4180573830547
20
1.75335893181128
30
0
41
1
10
49.9675313407673
20
1.91283393290695
30
0
41
1
10
49.0621968615708
20
2.20593624087905
30
0
41
1
10
48.606641722037
20
2.34095067322931
30
0
41
1
10
47.6990935691469
20
2.57653244542487
30
0
41
1
10
47.2460714064024
20
2.67893238089502
30
0
41
1
10
46.5654302907242
20
2.8035002833482
30
0
41
1
10
46.3381565763366
20
2.84007757220147
30
0
41
1
10
45.8833111856868
20
2.90510704352673
30
0
41
1
10
45.6561316905777
20
2.9334390739804
30
0
41
1
10
44.9750705508341
20
3.00473925838361
30
0
41
1
10
44.5217842037892
20
3.0342023134036
30
0
41
1
10
43.9945778036536
20
3.0433731903251
30
0
41
1
10
43.9214565153142
20
3.04402840090293
30
0
41
1
10
43.8483094699051
20
3.04411348499045
30
0
0
SPLINE
5
B5
100
AcDbEntity
8
1
62
256
6
ByLayer
370
18
48
1
60
0
100
AcDbSpline
70
4
71
3
72
56
73
52
40
0
40
0
40
0
40
0
40
0.0232082132209801
40
0.0232082132209801
40
0.062279884692141
40
0.062279884692141
40
0.101351556163302
40
0.101351556163302
40
0.140423227634462
40
0.140423227634462
40
0.179494899105623
40
0.179494899105623
40
0.218566570576784
40
0.218566570576784
40
0.257638242047945
40
0.257638242047945
40
0.296709913519106
40
0.296709913519106
40
0.335781584990267
40
0.335781584990267
40
0.374853256461427
40
0.374853256461427
40
0.413924927932588
40
0.413924927932588
40
0.452996599403749
40
0.452996599403749
40
0.53113994234607
40
0.53113994234607
40
0.570211613817231
40
0.570211613817231
40
0.609283285288392
40
0.609283285288392
40
0.648354956759552
40
0.648354956759552
40
0.687426628230713
40
0.687426628230713
40
0.726498299701874
40
0.726498299701874
40
0.765569971173035
40
0.765569971173035
40
0.804641642644196
40
0.804641642644196
40
0.843713314115357
40
0.843713314115357
40
0.882784985586517
40
0.882784985586517
40
0.921856657057678
40
0.921856657057678
40
0.960928328528839
40
0.960928328528839
40
1
40
1
40
1
40
1
41
1
10
27.4946834188338
20
-2.12204255392544
30
0
41
1
10
27.3597016156548
20
-2.16359385633154
30
0
41
1
10
27.2247012053246
20
-2.20383567021065
30
0
41
1
10
26.8623392343345
20
-2.30852264025711
30
0
41
1
10
26.6348047554169
20
-2.37092713644657
30
0
41
1
10
26.1791864946378
20
-2.48818770091873
30
0
41
1
10
25.9510520813734
20
-2.54261694705548
30
0
41
1
10
25.4957561728464
20
-2.64219078037152
30
0
41
1
10
25.2684039339775
20
-2.68788895761503
30
0
41
1
10
24.8136518317257
20
-2.77116586382843
30
0
41
1
10
24.5864327423702
20
-2.80864105907202
30
0
41
1
10
24.1318099923023
20
-2.8722103845183
30
0
41
1
10
23.9043242064858
20
-2.89956125072516
30
0
41
1
10
23.4490062368271
20
-2.94621308828087
30
0
41
1
10
23.22059167452
20
-2.96554191464907
30
0
41
1
10
22.7656929130697
20
-2.99195049754746
30
0
41
1
10
22.5390146766695
20
-2.99930733758529
30
0
41
1
10
22.0862575933552
20
-3.00677131724694
30
0
41
1
10
21.8603337390834
20
-3.00635437975373
30
0
41
1
10
21.4091119866305
20
-2.995201904136
30
0
41
1
10
21.1840267739751
20
-2.98338314058515
30
0
41
1
10
20.7338322814316
20
-2.9522210679593
30
0
41
1
10
20.5088784531553
20
-2.9325584841325
30
0
41
1
10
20.0590434152774
20
-2.88399726475527
30
0
41
1
10
19.8340725359574
20
-2.85442358475851
30
0
41
1
10
19.1587983429211
20
-2.75169401111015
30
0
41
1
10
18.7078983537487
20
-2.66828997844468
30
0
41
1
10
18.028268314773
20
-2.51333634790404
30
0
41
1
10
17.8012750574469
20
-2.45774709248599
30
0
41
1
10
17.3458930813139
20
-2.33939770079746
30
0
41
1
10
17.1176747819265
20
-2.2762718373763
30
0
41
1
10
16.6624605106245
20
-2.14219677392003
30
0
41
1
10
16.4351060949209
20
-2.07148553926916
30
0
41
1
10
15.9805750843567
20
-1.92435336887667
30
0
41
1
10
15.7533035966715
20
-1.84774581501011
30
0
41
1
10
15.2987048966244
20
-1.68816415153654
30
0
41
1
10
15.0712456427762
20
-1.6056227549295
30
0
41
1
10
14.6158394564657
20
-1.43581907790863
30
0
41
1
10
14.3875813664893
20
-1.34827549741172
30
0
41
1
10
13.9322195795397
20
-1.16942640265944
30
0
41
1
10
13.7050976794062
20
-1.07794349765331
30
0
41
1
10
13.2512155590445
20
-0.892748629445833
30
0
41
1
10
13.024611416824
20
-0.798672026600173
30
0
41
1
10
12.5717059324174
20
-0.608231485135633
30
0
41
1
10
12.3453412077876
20
-0.512009365487557
30
0
41
1
10
11.8926485804621
20
-0.318081725952709
30
0
41
1
10
11.6661736922419
20
-0.220739052029472
30
0
41
1
10
11.2129436240808
20
-0.025177641680159
30
0
41
1
10
10.9860627605741
20
0.0727773103213281
30
0
41
1
10
10.5315615214727
20
0.26841221137866
30
0
41
1
10
10.3040632156765
20
0.366346670122397
30
0
41
1
10
10.0758265192561
20
0.463262739568478
30
0
0
SPLINE
5
B6
100
AcDbEntity
8
1
62
256
6
ByLayer
370
18
48
1
60
0
100
AcDbSpline
70
4
71
3
72
10
73
6
40
0
40
0
40
0
40
0
40
0.5
40
0.5
40
1
40
1
40
1
40
1
41
1
10
54.2636607689587
20
0.919527997074965
30
0
41
1
10
54.3295206404989
20
0.94072754764909
30
0
41
1
10
54.394617780556
20
0.964745133587002
30
0
41
1
10
54.5205736151813
20
1.02284586183953
30
0
41
1
10
54.5813497614322
20
1.05645758428574
30
0
41
1
10
54.635364383352
20
1.10027662213642
30
0
0
SPLINE
5
B7
100
AcDbEntity
8
1
62
256
6
ByLayer
370
18
48
1
60
0
100
AcDbSpline
70
4
71
3
72
8
73
4
40
0
40
0
40
0
40
0
40
1
40
1
40
1
40
1
41
1
10
54.4909010466293
20
1.47647597207043
30
0
41
1
10
54.5364403276315
20
1.34638056131036
30
0
41
1
10
54.5845417262082
20
1.22117309193391
30
0
41
1
10
54.6353643833603
20
1.10027662211681
30
0
0
SPLINE
5
B8
100
AcDbEntity
8
1
62
256
6
ByLayer
370
18
48
1
60
0
100
AcDbSpline
70
4
71
1
72
4
73
2
40
0
40
0
40
1
40
1
41
1
10
54.4366627949576
20
-0.940517250243772
30
0
41
1
10
54.4460903602956
20
-0.90869032304991
30
0
0
SPLINE
5
B9
100
AcDbEntity
8
1
62
256
6
ByLayer
370
18
48
1
60
0
100
AcDbSpline
70
4
71
3
72
10
73
6
40
0
40
0
40
0
40
0
40
0.5
40
0.5
40
1
40
1
40
1
40
1
41
1
10
53.8296164990328
20
-2.9898712002142
30
0
41
1
10
53.8278710624189
20
-2.96130334432075
30
0
41
1
10
53.8225370096871
20
-2.9368552353215
30
0
41
1
10
53.8077262387564
20
-2.89709340748345
30
0
41
1
10
53.7981005636749
20
-2.88113056476556
30
0
41
1
10
53.7870604913868
20
-2.86869441233816
30
0
0
SPLINE
5
BA
100
AcDbEntity
8
1
62
256
6
ByLayer
370
18
48
1
60
0
100
AcDbSpline
70
4
71
3
72
8
73
4
40
0
40
0
40
0
40
0
40
1
40
1
40
1
40
1
41
1
10
53.822834026136
20
-3.02763491989632
30
0
41
1
10
53.8254793858908
20
-3.01451391401935
30
0
41
1
10
53.8277379877104
20
-3.00193117956943
30
0
41
1
10
53.8296164990375
20
-2.98987120018256
30
0
0
SPLINE
5
BB
100
AcDbEntity
8
1
62
256
6
ByLayer
370
18
48
1
60
0
100
AcDbSpline
70
4
71
3
72
12
73
8
40
0
40
0
40
0
40
0
40
0.325549978123035
40
0.325549978123035
40
0.662774989061517
40
0.662774989061517
40
1
40
1
40
1
40
1
41
1
10
10.8018292620251
20
0.159998500327447
30
0
41
1
10
10.8922801749542
20
0.20878766914322
30
0
41
1
10
10.9920885303719
20
0.298881609758723
30
0
41
1
10
11.1954219890087
20
0.549543097439454
30
0
41
1
10
11.2988072139327
20
0.712343622410174
30
0
41
1
10
11.4847814128851
20
1.07594894294013
30
0
41
1
10
11.567240237235
20
1.27649927784918
30
0
41
1
10
11.6309351127023
20
1.47576708271456
30
0
0
SPLINE
5
BC
100
AcDbEntity
8
1
62
256
6
ByLayer
370
18
48
1
60
0
100
AcDbSpline
70
4
71
3
72
16
73
12
40
0
40
0
40
0
40
0
40
0.249999999999998
40
0.249999999999998
40
0.374999999999999
40
0.374999999999999
40
0.5
40
0.5
40
0.75
40
0.75
40
1
40
1
40
1
40
1
41
1
10
53.7870604913899
20
-2.86869441234174
30
0
41
1
10
53.7388875193129
20
-2.81442969304888
30
0
41
1
10
53.695881272524
20
-2.74931441730601
30
0
41
1
10
53.639289120235
20
-2.63501468207861
30
0
41
1
10
53.6217501152835
20
-2.59413206299752
30
0
41
1
10
53.5894233768614
20
-2.5065889239695
30
0
41
1
10
53.5745825116143
20
-2.45972358481293
30
0
41
1
10
53.5348087724837
20
-2.31143277053692
30
0
41
1
10
53.5148177957654
20
-2.20348453302029
30
0
41
1
10
53.487763434029
20
-1.96958273717434
30
0
41
1
10
53.4806966403125
20
-1.84326011830953
30
0
41
1
10
53.4805230548568
20
-1.70813190161238
30
0
0
SPLINE
5
BD
100
AcDbEntity
8
1
62
256
6
ByLayer
370
18
48
1
60
0
100
AcDbSpline
70
4
71
3
72
8
73
4
40
0
40
0
40
0
40
0
40
1
40
1
40
1
40
1
41
1
10
54.9998122354277
20
-0.0646363884882817
30
0
41
1
10
54.9854871789651
20
-0.104460810464332
30
0
41
1
10
54.971267415004
20
-0.144349079364616
30
0
41
1
10
54.9571500820648
20
-0.184300732983758
30
0
0
SPLINE
5
BE
100
AcDbEntity
8
1
62
256
6
ByLayer
370
18
48
1
60
0
100
AcDbSpline
70
4
71
3
72
44
73
40
40
0
40
0
40
0
40
0
40
0.0621832358131632
40
0.0621832358131632
40
0.124366471626326
40
0.124366471626326
40
0.248732943252653
40
0.248732943252653
40
0.279824561159235
40
0.279824561159235
40
0.310916179065817
40
0.310916179065817
40
0.373099414878981
40
0.373099414878981
40
0.435282650692146
40
0.435282650692146
40
0.497465886505311
40
0.497465886505311
40
0.528557504411893
40
0.528557504411893
40
0.559649122318476
40
0.559649122318476
40
0.621832358131641
40
0.621832358131641
40
0.684015593944807
40
0.684015593944807
40
0.746198829757973
40
0.746198829757973
40
0.808382065571138
40
0.808382065571138
40
0.839473683477721
40
0.839473683477721
40
0.870565301384305
40
0.870565301384305
40
0.932748537197471
40
0.932748537197471
40
0.994931773010638
40
0.994931773010638
40
1
40
1
40
1
40
1
41
1
10
12.1361962390095
20
3.05646372093423
30
0
41
1
10
12.5755855281471
20
3.03576916283583
30
0
41
1
10
13.0125546028677
20
2.99677160031777
30
0
41
1
10
13.8832536626827
20
2.8841496388506
30
0
41
1
10
14.3170318138184
20
2.8104641278066
30
0
41
1
10
15.6180596023821
20
2.54182957737265
30
0
41
1
10
16.48415042743
20
2.29825743465696
30
0
41
1
10
17.5778079863422
20
1.92876073494335
30
0
41
1
10
17.7975977222721
20
1.85161222932766
30
0
41
1
10
18.2362539693649
20
1.69200287521309
30
0
41
1
10
18.4549441730661
20
1.60976910071869
30
0
41
1
10
19.10954643101
20
1.35675285068257
30
0
41
1
10
19.5438897331019
20
1.17943295709256
30
0
41
1
10
20.4114585075853
20
0.814094317543294
30
0
41
1
10
20.8444032635027
20
0.625464248796874
30
0
41
1
10
21.7113179979149
20
0.242304572139403
30
0
41
1
10
22.1454112646796
20
0.0480696224336441
30
0
41
1
10
22.7990006248824
20
-0.243880368964568
30
0
41
1
10
23.0173641896971
20
-0.341075677452409
30
0
41
1
10
23.4552179362235
20
-0.534950253593536
30
0
41
1
10
23.6750895389178
20
-0.631657244155861
30
0
41
1
10
24.3317840458957
20
-0.917211531011475
30
0
41
1
10
24.7669720933778
20
-1.10249014458648
30
0
41
1
10
25.6351931598181
20
-1.45650387737044
30
0
41
1
10
26.0679659745088
20
-1.62581058014436
30
0
41
1
10
26.9334440567756
20
-1.94382963788416
30
0
41
1
10
27.3663207344219
20
-2.09224751503618
30
0
41
1
10
28.2342910463547
20
-2.36426138770602
30
0
41
1
10
28.6695974698468
20
-2.4874925654178
30
0
41
1
10
29.3263351172778
20
-2.65006807183741
30
0
41
1
10
29.5460270959703
20
-2.70063265909627
30
0
41
1
10
29.9834310215892
20
-2.79292317979278
30
0
41
1
10
30.2014261835913
20
-2.8349430445009
30
0
41
1
10
30.8543381578791
20
-2.9477598566464
30
0
41
1
10
31.2877139071841
20
-3.00578003735001
30
0
41
1
10
32.153194570134
20
-3.08605071734564
30
0
41
1
10
32.5855174098223
20
-3.10824296154067
30
0
41
1
10
33.0536682803575
20
-3.11253430846367
30
0
41
1
10
33.0889541046238
20
-3.11273638044929
30
0
41
1
10
33.1242454677488
20
-3.11281706005536
30
0
0
SPLINE
5
BF
100
AcDbEntity
8
1
62
256
6
ByLayer
370
18
48
1
60
0
100
AcDbSpline
70
4
71
3
72
12
73
8
40
0
40
0
40
0
40
0
40
0.438751116400968
40
0.438751116400968
40
0.719375558200485
40
0.719375558200485
40
1
40
1
40
1
40
1
41
1
10
49.2255903704452
20
2.14846343786073
30
0
41
1
10
49.9009564919381
20
2.37288736709598
30
0
41
1
10
50.5753273847224
20
2.56650251877906
30
0
41
1
10
51.68744822366
20
2.82113616181223
30
0
41
1
10
52.1230666246439
20
2.90502974843932
30
0
41
1
10
52.9986164224204
20
3.03797331906978
30
0
41
1
10
53.435395024319
20
3.08636897900624
30
0
41
1
10
53.8722413437575
20
3.11624145218141
30
0
0
SPLINE
5
C0
100
AcDbEntity
8
1
62
256
6
ByLayer
370
18
48
1
60
0
100
AcDbSpline
70
4
71
3
72
46
73
42
40
0
40
0
40
0
40
0
40
0.0481954248647618
40
0.0481954248647618
40
0.0802405600906161
40
0.0802405600906161
40
0.11228569531647
40
0.11228569531647
40
0.176375965768179
40
0.176375965768179
40
0.240466236219887
40
0.240466236219887
40
0.304556506671596
40
0.304556506671596
40
0.368646777123304
40
0.368646777123304
40
0.432737047575012
40
0.432737047575012
40
0.464782182800866
40
0.464782182800866
40
0.49682731802672
40
0.49682731802672
40
0.560917588478428
40
0.560917588478428
40
0.592962723704282
40
0.592962723704282
40
0.625007858930136
40
0.625007858930136
40
0.689098129381845
40
0.689098129381845
40
0.753188399833554
40
0.753188399833554
40
0.817278670285264
40
0.817278670285264
40
0.881368940736973
40
0.881368940736973
40
0.913414075962828
40
0.913414075962828
40
0.945459211188683
40
0.945459211188683
40
1
40
1
40
1
40
1
41
1
10
12.2661657606506
20
3.07527351833977
30
0
41
1
10
12.6421539160004
20
3.07584560143098
30
0
41
1
10
13.017678063894
20
3.06281073127266
30
0
41
1
10
13.6433557378886
20
3.01865965796756
30
0
41
1
10
13.893382673074
20
2.99507984597534
30
0
41
1
10
14.3941470208092
20
2.93611964980423
30
0
41
1
10
14.64473712791
20
2.90072484647129
30
0
41
1
10
15.394881405134
20
2.77798925627184
30
0
41
1
10
15.8939425824472
20
2.67397399528676
30
0
41
1
10
16.8934154991678
20
2.42520373780758
30
0
41
1
10
17.3949643068992
20
2.2802132057445
30
0
41
1
10
18.3945313442646
20
1.95763969018111
30
0
41
1
10
18.8933618175544
20
1.77991980725469
30
0
41
1
10
19.8930018075552
20
1.39852604702961
30
0
41
1
10
20.3943355516528
20
1.19454248202621
30
0
41
1
10
21.3932714356793
20
0.772333204224367
30
0
41
1
10
21.891976066465
20
0.553610665772879
30
0
41
1
10
22.641882378326
20
0.220655740006322
30
0
41
1
10
22.8924295891615
20
0.108663028515991
30
0
41
1
10
23.3926130728771
20
-0.114974264890407
30
0
41
1
10
23.6423159805799
20
-0.226702772613692
30
0
41
1
10
24.3910544806853
20
-0.559830868737322
30
0
41
1
10
24.8897839099179
20
-0.779030898798084
30
0
41
1
10
25.6399090039181
20
-1.09757339105539
30
0
41
1
10
25.890408329573
20
-1.20202887351667
30
0
41
1
10
26.3901812159426
20
-1.405405693381
30
0
41
1
10
26.6397428288163
20
-1.50447267044515
30
0
41
1
10
27.3882114554759
20
-1.79233235677586
30
0
41
1
10
27.8868517957538
20
-1.97186280091125
30
0
41
1
10
28.8875021687281
20
-2.2986473782675
30
0
41
1
10
29.3869051307851
20
-2.44514152253038
30
0
41
1
10
30.3845184419766
20
-2.69782769188413
30
0
41
1
10
30.8834159715631
20
-2.8043175083211
30
0
41
1
10
31.8840828250138
20
-2.97247556923992
30
0
41
1
10
32.3825386387861
20
-3.0337077764338
30
0
41
1
10
33.1305553772049
20
-3.08966548481808
30
0
41
1
10
33.3799231057502
20
-3.10235847319231
30
0
41
1
10
33.8791856077826
20
-3.11563407636729
30
0
41
1
10
34.1293960361434
20
-3.11620096635477
30
0
41
1
10
34.8046337212639
20
-3.10127502135003
30
0
41
1
10
35.2287592973616
20
-3.0742379736426
30
0
41
1
10
35.6530003478233
20
-3.03011565503817
30
0
0
SPLINE
5
C1
100
AcDbEntity
8
1
62
256
6
ByLayer
370
18
48
1
60
0
100
AcDbSpline
70
4
71
3
72
8
73
4
40
0
40
0
40
0
40
0
40
1
40
1
40
1
40
1
41
1
10
54.4909010466293
20
-1.47647597207043
30
0
41
1
10
54.5364403276316
20
-1.34638056131013
30
0
41
1
10
54.5845417262083
20
-1.22117309193339
30
0
41
1
10
54.6353643833606
20
-1.10027662211604
30
0
0
SPLINE
5
C2
100
AcDbEntity
8
1
62
256
6
ByLayer
370
18
48
1
60
0
100
AcDbSpline
70
4
71
3
72
16
73
12
40
0
40
0
40
0
40
0
40
0.249999999999997
40
0.249999999999997
40
0.499999999999995
40
0.499999999999995
40
0.749999999999992
40
0.749999999999992
40
0.874999999999996
40
0.874999999999996
40
1
40
1
40
1
40
1
41
1
10
54.4460903602937
20
-0.908690323029845
30
0
41
1
10
54.4850979642462
20
-0.88694417627454
30
0
41
1
10
54.527698210872
20
-0.845981388983716
30
0
41
1
10
54.6209588520985
20
-0.727237825151491
30
0
41
1
10
54.6691792054411
20
-0.652531001669757
30
0
41
1
10
54.7683719237577
20
-0.475768676319149
30
0
41
1
10
54.8172692826313
20
-0.37735362169937
30
0
41
1
10
54.8888357622556
20
-0.217139794086592
30
0
41
1
10
54.9121836105043
20
-0.162036266453924
30
0
41
1
10
54.9571455879099
20
-0.050253134910264
30
0
41
1
10
54.9788727102268
20
0.0066797819064561
30
0
41
1
10
54.9998122354288
20
0.064636388490527
30
0
0
SPLINE
5
C3
100
AcDbEntity
8
1
62
256
6
ByLayer
370
18
48
1
60
0
100
AcDbSpline
70
4
71
3
72
28
73
24
40
0
40
0
40
0
40
0
40
0.0624999999999999
40
0.0624999999999999
40
0.125
40
0.125
40
0.25
40
0.25
40
0.3125
40
0.3125
40
0.375
40
0.375
40
0.5
40
0.5
40
0.625
40
0.625
40
0.75
40
0.75
40
0.8125
40
0.8125
40
0.875
40
0.875
40
1
40
1
40
1
40
1
41
1
10
5.5719926822901
20
2.37959750090908
30
0
41
1
10
5.5719603642107
20
2.3219796611607
30
0
41
1
10
5.57191804881262
20
2.26108577918956
30
0
41
1
10
5.57181459333492
20
2.13259723718434
30
0
41
1
10
5.5717532061646
20
2.06481080482226
30
0
41
1
10
5.57154623992588
20
1.85534947342285
30
0
41
1
10
5.57137740821494
20
1.70645269642469
30
0
41
1
10
5.57108311107856
20
1.46942084533515
30
0
41
1
10
5.57097808009092
20
1.3881155510646
30
0
41
1
10
5.57075393503982
20
1.22077885233079
30
0
41
1
10
5.57063546685598
20
1.13525491822835
30
0
41
1
10
5.57026553927579
20
0.876529120329764
30
0
41
1
10
5.56999812115515
20
0.699885803797599
30
0
41
1
10
5.56941556569419
20
0.338298982929217
30
0
41
1
10
5.569097850069
20
0.152124946670824
30
0
41
1
10
5.56842663651059
20
-0.214346188789335
30
0
41
1
10
5.56807081941025
20
-0.39624815694583
30
0
41
1
10
5.56749508054335
20
-0.667081004258506
30
0
41
1
10
5.56729500192756
20
-0.757485307526508
30
0
41
1
10
5.56688445797673
20
-0.934827876142663
30
0
41
1
10
5.56667411487453
20
-1.02176252782169
30
0
41
1
10
5.56602515285425
20
-1.2774971501984
30
0
41
1
10
5.56556874075289
20
-1.4412679068397
30
0
41
1
10
5.5650800233409
20
-1.59819724561223
30
0
0
SPLINE
5
C4
100
AcDbEntity
8
1
62
256
6
ByLayer
370
18
48
1
60
0
100
AcDbSpline
70
4
71
3
72
24
73
20
40
0
40
0
40
0
40
0
40
0.0127197693571174
40
0.0127197693571174
40
0.088664402483493
40
0.088664402483493
40
0.240553668736244
40
0.240553668736244
40
0.392442934988995
40
0.392442934988995
40
0.544332201241747
40
0.544332201241747
40
0.696221467494498
40
0.696221467494498
40
0.848110733747249
40
0.848110733747249
40
0.924055366873624
40
0.924055366873624
40
1
40
1
40
1
40
1
41
1
10
4.68883327294787
20
2.74726696730127
30
0
41
1
10
4.7034844534501
20
2.74467398478103
30
0
41
1
10
4.71819457071501
20
2.74212901873622
30
0
41
1
10
4.82111138217124
20
2.72471014730812
30
0
41
1
10
4.91123571852742
20
2.71144823150144
30
0
41
1
10
5.18618559870393
20
2.67612852908712
30
0
41
1
10
5.37118082952114
20
2.6590187397253
30
0
41
1
10
5.74337450107106
20
2.63550770427781
30
0
41
1
10
5.93063087772734
20
2.62916903227543
30
0
41
1
10
6.30718697796743
20
2.62669318203888
30
0
41
1
10
6.49718336230541
20
2.63064655528288
30
0
41
1
10
6.8723494933954
20
2.64807194793434
30
0
41
1
10
7.05823060060138
20
2.66152001241676
30
0
41
1
10
7.42658627978261
20
2.69662780712105
30
0
41
1
10
7.60905701951171
20
2.71830460015207
30
0
41
1
10
7.88010141792546
20
2.75557972888592
30
0
41
1
10
7.97018916269215
20
2.76882305471034
30
0
41
1
10
8.14750450496422
20
2.79622938654913
30
0
41
1
10
8.23493871629637
20
2.81041744726272
30
0
41
1
10
8.3211695719566
20
2.82486058089782
30
0
0
SPLINE
5
C5
100
AcDbEntity
8
1
62
256
6
ByLayer
370
13
48
1
60
0
100
AcDbSpline
70
4
71
3
72
80
73
76
40
0
40
0
40
0
40
0
40
0.0131650720850093
40
0.0236178737463189
40
0.03407067540763
40
0.0549762787302487
40
0.065429080391559
40
0.0758818820528677
40
0.0967874853754881
40
0.107240287036797
40
0.117693088698109
40
0.138598692020728
40
0.149051493682037
40
0.159504295343348
40
0.180409898665967
40
0.190862700327278
40
0.201315501988586
40
0.222221105311207
40
0.232673906972517
40
0.243126708633825
40
0.264032311956446
40
0.274485113617756
40
0.284937915279066
40
0.305843518601686
40
0.316296320262995
40
0.326749121924306
40
0.347654725246925
40
0.358107526908235
40
0.368560328569546
40
0.389465931892165
40
0.399918733553475
40
0.410371535214784
40
0.431277138537404
40
0.441729940198714
40
0.452182741860024
40
0.473088345182644
40
0.483541146843953
40
0.493993948505263
40
0.514899551827883
40
0.525352353489193
40
0.535805155150503
40
0.556710758473123
40
0.567163560134433
40
0.577616361795742
40
0.598521965118362
40
0.608974766779672
40
0.619427568440981
40
0.640333171763602
40
0.650785973424911
40
0.661238775086221
40
0.682144378408841
40
0.692597180070151
40
0.70304998173146
40
0.723955585054081
40
0.734408386715391
40
0.7448611883767
40
0.76576679169932
40
0.77621959336063
40
0.78667239502194
40
0.807577998344559
40
0.81803080000587
40
0.828483601667179
40
0.849389204989799
40
0.859842006651109
40
0.870294808312419
40
0.891200411635039
40
0.901653213296349
40
0.912106014957658
40
0.933011618280278
40
0.943464419941588
40
0.953917221602898
40
0.974822824925518
40
0.985275626586828
40
0.995728428248139
40
1
40
1
40
1
40
1
41
1
10
43.6098206014982
20
0.0609918732658626
30
0
41
1
10
43.5491420490954
20
0.0739280061006296
30
0
41
1
10
43.4402891147335
20
0.0971387148248082
30
0
41
1
10
43.2832674362381
20
0.130612754727394
30
0
41
1
10
43.090545727057
20
0.171475006058983
30
0
41
1
10
42.8978380440595
20
0.21226478834103
30
0
41
1
10
42.7051424043318
20
0.252935126198821
30
0
41
1
10
42.5124205633077
20
0.293309904621281
30
0
41
1
10
42.319712764732
20
0.333509574076487
30
0
41
1
10
42.127017048941
20
0.37348811989014
30
0
41
1
10
41.9342951762042
20
0.413095560150992
30
0
41
1
10
41.7415874244881
20
0.452428189447289
30
0
41
1
10
41.548891852207
20
0.491441162659043
30
0
41
1
10
41.3561701481455
20
0.530010187868384
30
0
41
1
10
41.163462566805
20
0.568205345059169
30
0
41
1
10
40.9707670890761
20
0.605980379360431
30
0
41
1
10
40.7780454351944
20
0.643239803287058
30
0
41
1
10
40.5853378444006
20
0.680027338702557
30
0
41
1
10
40.3926423112194
20
0.716298241498235
30
0
41
1
10
40.1999205833503
20
0.751986112747345
30
0
41
1
10
40.0072129105912
20
0.787108275835037
30
0
41
1
10
39.8145173174887
20
0.821621697825121
30
0
41
1
10
39.6217955413762
20
0.855489217960012
30
0
41
1
10
39.4290878549938
20
0.888701804572547
30
0
41
1
10
39.2363923185125
20
0.921218272274357
30
0
41
1
10
39.0436706233017
20
0.953030598776534
30
0
41
1
10
38.8509630044678
20
0.984103252397231
30
0
41
1
10
38.6582674359389
20
1.01439662436789
30
0
41
1
10
38.4655456695524
20
1.04393219518567
30
0
41
1
10
38.2728379405565
20
1.07264816383005
30
0
41
1
10
38.0801422654891
20
1.10050707832937
30
0
41
1
10
37.8874204004122
20
1.12755973336217
30
0
41
1
10
37.6947125985985
20
1.15371835644535
30
0
41
1
10
37.5020169015804
20
1.17894773092038
30
0
41
1
10
37.3092950500883
20
1.20332768576565
30
0
41
1
10
37.1165873218937
20
1.22674484173214
30
0
41
1
10
36.9238917729318
20
1.24916628504283
30
0
41
1
10
36.7311700978702
20
1.27070122021928
30
0
41
1
10
36.5384625521695
20
1.29121250444947
30
0
41
1
10
36.3457671099567
20
1.31067171650142
30
0
41
1
10
36.1530454865235
20
1.3292148849508
30
0
41
1
10
35.9603379247614
20
1.3466816322491
30
0
41
1
10
35.7676424192682
20
1.36304599834156
30
0
41
1
10
35.5749207029002
20
1.37847026276932
30
0
41
1
10
35.3822130140967
20
1.39277140670407
30
0
41
1
10
35.1895173744766
20
1.4059259636204
30
0
41
1
10
34.9967955454727
20
1.41812184025062
30
0
41
1
10
34.8040877973152
20
1.42915410592275
30
0
41
1
10
34.6113922091139
20
1.43900193027423
30
0
41
1
10
34.4186704865478
20
1.44787936759019
30
0
41
1
10
34.2259628761355
20
1.45556301350271
30
0
41
1
10
34.0332673567974
20
1.46203864271694
30
0
41
1
10
33.8405456607543
20
1.46754157201022
30
0
41
1
10
33.6478380264853
20
1.47183070674694
30
0
41
1
10
33.4551424493993
20
1.47489436509451
30
0
41
1
10
33.2624206775809
20
1.47698824279351
30
0
41
1
10
33.0697129645697
20
1.47785445085333
30
0
41
1
10
32.8770173500294
20
1.47748390712277
30
0
41
1
10
32.6842955730178
20
1.47615162628545
30
0
41
1
10
32.4915879096709
20
1.47358381103149
30
0
41
1
10
32.2988924107914
20
1.46977384470025
30
0
41
1
10
32.1061707632409
20
1.46501689577434
30
0
41
1
10
31.9134632091711
20
1.45902791422116
30
0
41
1
10
31.7207677112588
20
1.45180828870084
30
0
41
1
10
31.5280460008803
20
1.44366666367781
30
0
41
1
10
31.3353383117351
20
1.43430774955186
30
0
41
1
10
31.1426426607414
20
1.42373535319163
30
0
41
1
10
30.9499208041399
20
1.41227036866959
30
0
41
1
10
30.7572129844049
20
1.39960825740917
30
0
41
1
10
30.5645172430283
20
1.38575506826134
30
0
41
1
10
30.3717953422341
20
1.37104277621753
30
0
41
1
10
30.179087559751
20
1.3551586303233
30
0
41
1
10
29.9863919577211
20
1.33811086806352
30
0
41
1
10
29.870342000142
20
1.32735185141251
30
0
41
1
10
29.8024748112658
20
1.32087199950084
30
0
41
1
10
29.7827865876301
20
1.31897643687341
30
0
0
SPLINE
5
C6
100
AcDbEntity
8
1
62
256
6
ByLayer
370
18
48
1
60
0
100
AcDbSpline
70
4
71
3
72
8
73
4
40
0
40
0
40
0
40
0
40
1
40
1
40
1
40
1
41
1
10
53.8722413437577
20
3.11624145218144
30
0
41
1
10
54.0785812643363
20
2.59220861103935
30
0
41
1
10
54.2905966439879
20
2.04870027963924
30
0
41
1
10
54.4909010466293
20
1.47647597207046
30
0
0
SPLINE
5
C7
100
AcDbEntity
8
1
62
256
6
ByLayer
370
18
48
1
60
0
100
AcDbSpline
70
4
71
3
72
8
73
4
40
0
40
0
40
0
40
0
40
1
40
1
40
1
40
1
41
1
10
53.8722413437577
20
-3.11624145218144
30
0
41
1
10
53.8532148337912
20
-3.09591098375634
30
0
41
1
10
53.8368579660856
20
-3.06650587132916
30
0
41
1
10
53.8228340261378
20
-3.02763491989032
30
0
0
SPLINE
5
C8
100
AcDbEntity
8
1
62
256
6
ByLayer
370
18
48
1
60
0
100
AcDbSpline
70
4
71
3
72
8
73
4
40
0
40
0
40
0
40
0
40
1
40
1
40
1
40
1
41
1
10
54.9998122354278
20
0.0646363884912091
30
0
41
1
10
55.0000625881842
20
0.0215454628312841
30
0
41
1
10
55.0000625881842
20
-0.0215454628286409
30
0
41
1
10
54.9998122354278
20
-0.0646363884885659
30
0
0
SPLINE
5
C9
100
AcDbEntity
8
1
62
256
6
ByLayer
370
18
48
1
60
0
100
AcDbSpline
70
4
71
3
72
12
73
8
40
0
40
0
40
0
40
0
40
0.637480572523536
40
0.637480572523536
40
0.956220858785306
40
0.956220858785306
40
1
40
1
40
1
40
1
41
1
10
8.3211695719566
20
-2.82486058089779
30
0
41
1
10
8.95225246742663
20
-2.93056305276019
30
0
41
1
10
9.58619151460576
20
-3.00066116706947
30
0
41
1
10
10.5401546568524
20
-3.05850035527968
30
0
41
1
10
10.8586693902026
20
-3.06975602877767
30
0
41
1
10
11.2215167160309
20
-3.07318968786657
30
0
41
1
10
11.2653546365862
20
-3.07344858034728
30
0
41
1
10
11.3092074946704
20
-3.07355015618981
30
0
0
SPLINE
5
CA
100
AcDbEntity
8
1
62
256
6
ByLayer
370
18
48
1
60
0
100
AcDbSpline
70
4
71
3
72
16
73
12
40
0
40
0
40
0
40
0
40
0.1331078072194
40
0.1331078072194
40
0.4220718714796
40
0.4220718714796
40
0.5665539036097
40
0.5665539036097
40
0.7110359357398
40
0.7110359357398
40
1
40
1
40
1
40
1
41
1
10
53.5767144140323
20
0.459277587333588
30
0
41
1
10
53.5996353319471
20
0.478087723978348
30
0
41
1
10
53.6236394181302
20
0.498121257502248
30
0
41
1
10
53.7018748117058
20
0.563663380428238
30
0
41
1
10
53.7589239578931
20
0.611958921074319
30
0
41
1
10
53.8526129213131
20
0.686146059060519
30
0
41
1
10
53.8854459994733
20
0.711311381690166
30
0
41
1
10
53.9533631803547
20
0.760285961320221
30
0
41
1
10
53.9884553343302
20
0.784119426338407
30
0
41
1
10
54.0982415800816
20
0.851824270247448
30
0
41
1
10
54.1784659679181
20
0.892104750550629
30
0
41
1
10
54.2636607689587
20
0.919527997075051
30
0
0
SPLINE
5
CB
100
AcDbEntity
8
1
62
256
6
ByLayer
370
18
48
1
60
0
100
AcDbSpline
70
4
71
4
72
10
73
5
40
0
40
0
40
0
40
0
40
0
40
1
40
1
40
1
40
1
40
1
41
1
10
12.1361962390094
20
3.05646372093423
30
0
41
1
10
12.0098809574326
20
2.66128956137931
30
0
41
1
10
11.8835656758559
20
2.26611540182438
30
0
41
1
10
11.7572503942791
20
1.87094124226948
30
0
41
1
10
11.6309351127024
20
1.47576708271456
30
0
0
SPLINE
5
CC
100
AcDbEntity
8
1
62
256
6
ByLayer
370
18
48
1
60
0
100
AcDbSpline
70
4
71
3
72
8
73
4
40
0
40
0
40
0
40
0
40
1
40
1
40
1
40
1
41
1
10
54.9571500820648
20
0.184300732983701
30
0
41
1
10
54.8493289858751
20
0.489431390902155
30
0
41
1
10
54.7420663724418
20
0.794756438813721
30
0
41
1
10
54.6353643833521
20
1.10027662213645
30
0
0
SPLINE
5
CD
100
AcDbEntity
8
1
62
256
6
ByLayer
370
13
48
1
60
0
100
AcDbSpline
70
4
71
3
72
23
73
19
40
0
40
0
40
0
40
0
40
0.0267094848657721
40
0.0757369705375921
40
0.124764456209411
40
0.222819427553049
40
0.271846913224869
40
0.320874398896689
40
0.418929370240328
40
0.467956855912146
40
0.516984341583966
40
0.615039312927605
40
0.664066798599425
40
0.713094284271243
40
0.811149255614882
40
0.860176741286702
40
0.909204226958522
40
1
40
1
40
1
40
1
41
1
10
54.4909010466293
20
1.47647597207046
30
0
41
1
10
54.4646554269903
20
1.47625154689152
30
0
41
1
10
54.3902346672719
20
1.47552848228218
30
0
41
1
10
54.2676424006618
20
1.47393193236018
30
0
41
1
10
54.0749205929109
20
1.47047099409189
30
0
41
1
10
53.8822128246627
20
1.4657779258182
30
0
41
1
10
53.6895171345869
20
1.45984975859076
30
0
41
1
10
53.4967952830244
20
1.45298882173929
30
0
41
1
10
53.3040875445605
20
1.44490146248446
30
0
41
1
10
53.1113919773552
20
1.43558712218552
30
0
41
1
10
52.9186702760909
20
1.4253652500744
30
0
41
1
10
52.7259626941028
20
1.4139344166233
30
0
41
1
10
52.5332672131918
20
1.40130261030907
30
0
41
1
10
52.3405455541497
20
1.38779894240701
30
0
41
1
10
52.1478379559914
20
1.37311519075351
30
0
41
1
10
51.9551424141781
20
1.35726149521736
30
0
41
1
10
51.7695544568686
20
1.3411931088043
30
0
41
1
10
51.632156459125
20
1.32851927343347
30
0
41
1
10
51.5429390495581
20
1.31996500441164
30
0
0
SPLINE
5
CE
100
AcDbEntity
8
1
62
256
6
ByLayer
370
13
48
1
60
0
100
AcDbSpline
70
4
71
3
72
61
73
57
40
0
40
0
40
0
40
0
40
0.0105233174004916
40
0.0387940797604774
40
0.0529294609404701
40
0.0670648421204633
40
0.0953356044804492
40
0.109470985660443
40
0.123606366840435
40
0.151877129200421
40
0.166012510380414
40
0.180147891560407
40
0.208418653920393
40
0.222554035100386
40
0.236689416280379
40
0.264960178640365
40
0.279095559820359
40
0.293230941000351
40
0.321501703360337
40
0.33563708454033
40
0.349772465720323
40
0.378043228080309
40
0.392178609260303
40
0.406313990440295
40
0.434584752800281
40
0.448720133980274
40
0.462855515160267
40
0.491126277520253
40
0.505261658700246
40
0.519397039880239
40
0.547667802240225
40
0.561803183420218
40
0.57593856460021
40
0.604209326960197
40
0.618344708140189
40
0.632480089320183
40
0.660750851680169
40
0.674886232860161
40
0.689021614040154
40
0.71729237640014
40
0.731427757580133
40
0.745563138760126
40
0.773833901120113
40
0.787969282300105
40
0.802104663480098
40
0.830375425840084
40
0.844510807020077
40
0.85864618820007
40
0.886916950560056
40
0.901052331740049
40
0.915187712920042
40
0.932856939395033
40
0.943458475280028
40
0.954060011165023
40
0.971729237640014
40
1
40
1
40
1
40
1
41
1
10
21.8557055856411
20
0.0619110938535526
30
0
41
1
10
21.819838270435
20
0.0695545992863343
30
0
41
1
10
21.6876094877524
20
0.0976999802638828
30
0
41
1
10
21.5072126087906
20
0.136093022512057
30
0
41
1
10
21.3145170149974
20
0.177051251380021
30
0
41
1
10
21.1217952628644
20
0.217763050943546
30
0
41
1
10
20.9290876298981
20
0.258364763721601
30
0
41
1
10
20.7363921676119
20
0.298811299099099
30
0
41
1
10
20.5436705625115
20
0.338934703311053
30
0
41
1
10
20.3509630579799
20
0.378846068158821
30
0
41
1
10
20.1582676139474
20
0.418497888497853
30
0
41
1
10
19.9655459586689
20
0.45774982043656
30
0
41
1
10
19.7728383250264
20
0.496687437555436
30
0
41
1
10
19.580142725897
20
0.535264469797993
30
0
41
1
10
19.3874209165693
20
0.57336859020674
30
0
41
1
10
19.1947131359297
20
0.611059654739875
30
0
41
1
10
19.0020174223343
20
0.648292796874897
30
0
41
1
10
18.8092955413578
20
0.684984053228219
30
0
41
1
10
18.6165877662125
20
0.721167462904872
30
0
41
1
10
18.4238921587717
20
0.756799763798851
30
0
41
1
10
18.2311704157605
20
0.791825160236554
30
0
41
1
10
18.0384627903846
20
0.826251017412089
30
0
41
1
10
17.8457672665558
20
0.860034562211693
30
0
41
1
10
17.6530455661358
20
0.893149535956665
30
0
41
1
10
17.4603379292719
20
0.925576688159394
30
0
41
1
10
17.2676423534244
20
0.957275123962431
30
0
41
1
10
17.0749205869868
20
0.988248161602597
30
0
41
1
10
16.8822128835795
20
1.01845010843937
30
0
41
1
10
16.6895172722247
20
1.04784213968858
30
0
41
1
10
16.4967954871626
20
1.07645703558234
30
0
41
1
10
16.3040878060534
20
1.10422291187495
30
0
41
1
10
16.1113922896488
20
1.13110310795031
30
0
41
1
10
15.9186706226583
20
1.15716000075747
30
0
41
1
10
15.7259630422628
20
1.18229654800265
30
0
41
1
10
15.5332675166725
20
1.20647940940898
30
0
41
1
10
15.3405457936724
20
1.22979920803178
30
0
41
1
10
15.147838108053
20
1.25213418050384
30
0
41
1
10
14.9551424749784
20
1.27345340086248
30
0
41
1
10
14.7624206507943
20
1.29387528458235
30
0
41
1
10
14.5697128855104
20
1.31325383419351
30
0
41
1
10
14.3770172160903
20
1.33156055998691
30
0
41
1
10
14.1842953859426
20
1.34894115540143
30
0
41
1
10
13.9915876681474
20
1.36522593748589
30
0
41
1
10
13.7988921092039
20
1.3803888892925
30
0
41
1
10
13.6061704056948
20
1.39460333420135
30
0
41
1
10
13.4134628107634
20
1.40767841321053
30
0
41
1
10
13.2207673093919
20
1.41959345517048
30
0
41
1
10
13.028045624514
20
1.43054589128701
30
0
41
1
10
12.8353380021334
20
1.44032437643588
30
0
41
1
10
12.6426424411356
20
1.4489107811263
30
0
41
1
10
12.4860648042863
20
1.45513743743166
30
0
41
1
10
12.34153711272
20
1.46019627042949
30
0
41
1
10
12.2090541907935
20
1.46425821038909
30
0
41
1
10
12.0765612422062
20
1.46783796132627
30
0
41
1
10
11.8838359653031
20
1.47215017587629
30
0
41
1
10
11.7272759989276
20
1.47464448265927
30
0
41
1
10
11.6309351127024
20
1.47576708271455
30
0
0
SPLINE
5
CF
100
AcDbEntity
8
1
62
256
6
ByLayer
370
13
48
1
60
0
100
AcDbSpline
70
4
71
3
72
80
73
76
40
0
40
0
40
0
40
0
40
0.0027871576663244
40
0.0133106973859227
40
0.0238342371055202
40
0.0448813165447181
40
0.0554048562643163
40
0.0659283959839146
40
0.0869754754231121
40
0.0974990151427096
40
0.108022554862308
40
0.129069634301506
40
0.139593174021104
40
0.150116713740701
40
0.1711637931799
40
0.181687332899498
40
0.192210872619096
40
0.213257952058294
40
0.223781491777892
40
0.234305031497489
40
0.255352110936687
40
0.265875650656286
40
0.276399190375886
40
0.297446269815081
40
0.307969809534678
40
0.318493349254277
40
0.339540428693475
40
0.350063968413073
40
0.360587508132673
40
0.381634587571869
40
0.392158127291467
40
0.402681667011065
40
0.423728746450263
40
0.434252286169861
40
0.444775825889461
40
0.465822905328657
40
0.476346445048255
40
0.486869984767853
40
0.507917064207051
40
0.51844060392665
40
0.528964143646247
40
0.550011223085444
40
0.560534762805043
40
0.57105830252464
40
0.592105381963838
40
0.602628921683436
40
0.613152461403035
40
0.634199540842232
40
0.64472308056183
40
0.655246620281429
40
0.676293699720626
40
0.686817239440224
40
0.697340779159824
40
0.71838785859902
40
0.728911398318619
40
0.739434938038217
40
0.760482017477414
40
0.771005557197012
40
0.78152909691661
40
0.802576176355807
40
0.813099716075405
40
0.823623255795004
40
0.844670335234201
40
0.8551938749538
40
0.865717414673398
40
0.886764494112595
40
0.897288033832193
40
0.907811573551792
40
0.928858652990989
40
0.939382192710587
40
0.949905732430185
40
0.970952811869383
40
0.981476351588981
40
0.991999891308579
40
1
40
1
40
1
40
1
41
1
10
47.0131693710911
20
-1.32721607456134
30
0
41
1
10
47.0004092344514
20
-1.32841094981001
30
0
41
1
10
46.9394699913475
20
-1.33408578833965
30
0
41
1
10
46.8303488289524
20
-1.34397694778048
30
0
41
1
10
46.6376537521157
20
-1.36061371134338
30
0
41
1
10
46.4449446353573
20
-1.37609468477584
30
0
41
1
10
46.2522234823781
20
-1.39040959689731
30
0
41
1
10
46.0595285152003
20
-1.40385279256898
30
0
41
1
10
45.8668195434093
20
-1.41610861647368
30
0
41
1
10
45.6740985429721
20
-1.42716914489276
30
0
41
1
10
45.4814037061284
20
-1.43732235361668
30
0
41
1
10
45.288694810676
20
-1.44626167369677
30
0
41
1
10
45.095973776845
20
-1.45398172683025
30
0
41
1
10
44.9032788529887
20
-1.46076510212728
30
0
41
1
10
44.7105698387935
20
-1.46631938059599
30
0
41
1
10
44.5178487504517
20
-1.47064771177688
30
0
41
1
10
44.3251538116231
20
-1.47402044901608
30
0
41
1
10
44.1324448292695
20
-1.47616038483332
30
0
41
1
10
43.9397238031961
20
-1.47707329483055
30
0
41
1
10
43.747028940833
20
-1.47701645046683
30
0
41
1
10
43.5543200323426
20
-1.47572891133052
30
0
41
1
10
43.3615990336493
20
-1.47321919541315
30
0
41
1
10
43.1689041636752
20
-1.46973056400304
30
0
41
1
10
42.9761951882014
20
-1.46501927947972
30
0
41
1
10
42.783474052208
20
-1.45909653959393
30
0
41
1
10
42.5907790307351
20
-1.45219239423122
30
0
41
1
10
42.3980699257831
20
-1.44408435785689
30
0
41
1
10
42.205348774032
20
-1.43479107354807
30
0
41
1
10
42.0126538014249
20
-1.42452393072708
30
0
41
1
10
41.8199448185288
20
-1.41308258170653
30
0
41
1
10
41.6272238059939
20
-1.40048845543657
30
0
41
1
10
41.4345289651294
20
-1.38693347238217
30
0
41
1
10
41.2418200977111
20
-1.37224016763591
30
0
41
1
10
41.0490991611812
20
-1.35643264087017
30
0
41
1
10
40.8564043520119
20
-1.33968271183301
30
0
41
1
10
40.6636954377818
20
-1.32183649685001
30
0
41
1
10
40.4709743578569
20
-1.30292076909185
30
0
41
1
10
40.2782793801354
20
-1.28308757916781
30
0
41
1
10
40.0855702956355
20
-1.26220912727933
30
0
41
1
10
39.8928491211819
20
-1.2403176168734
30
0
41
1
10
39.7001540932659
20
-1.21754192582756
30
0
41
1
10
39.50744501817
20
-1.19378084294971
30
0
41
1
10
39.3147238991303
20
-1.16906905272404
30
0
41
1
10
39.1220289451718
20
-1.14351182012354
30
0
41
1
10
38.9293199520254
20
-1.1170349785246
30
0
41
1
10
38.7365988928975
20
-1.08967566590951
30
0
41
1
10
38.5439039871674
20
-1.06151509679765
30
0
41
1
10
38.3511950076293
20
-1.0325065073234
30
0
41
1
10
38.1584738918829
20
-1.00268935296072
30
0
41
1
10
37.9657789052639
20
-0.972120559436348
30
0
41
1
10
37.7730698581883
20
-0.940781287780396
30
0
41
1
10
37.5803487744794
20
-0.908713568510962
30
0
41
1
10
37.387653859024
20
-0.875949371464458
30
0
41
1
10
37.1949449220879
20
-0.842497951768308
30
0
41
1
10
37.0022239448743
20
-0.80840340228329
30
0
41
1
10
36.8095291280549
20
-0.773672519927459
30
0
41
1
10
36.6168202638763
20
-0.738342710529224
30
0
41
1
10
36.4240993085649
20
-0.70245993811352
30
0
41
1
10
36.2314044781285
20
-0.666005702549768
30
0
41
1
10
36.038695540343
20
-0.629045512712025
30
0
41
1
10
35.8459744370713
20
-0.59162701475978
30
0
41
1
10
35.6532794303342
20
-0.553705721208559
30
0
41
1
10
35.4605703101976
20
-0.515373786954541
30
0
41
1
10
35.2678491002478
20
-0.47667839817251
30
0
41
1
10
35.075154041903
20
-0.437551097694353
30
0
41
1
10
34.8824449377906
20
-0.398110452778241
30
0
41
1
10
34.6897237910532
20
-0.358404964907805
30
0
41
1
10
34.4970288255619
20
-0.318342316301738
30
0
41
1
10
34.3043198484069
20
-0.27806715673637
30
0
41
1
10
34.1115988357518
20
-0.237629094197729
30
0
41
1
10
33.9189039828816
20
-0.196912138918407
30
0
41
1
10
33.7261950650963
20
-0.156086607318571
30
0
41
1
10
33.5334740010543
20
-0.115203023577095
30
0
41
1
10
33.400504323486
20
-0.0868540160076918
30
0
41
1
10
33.3157047461574
20
-0.0687740498228209
30
0
41
1
10
33.2790803344198
20
-0.0609661349548674
30
0
0
SPLINE
5
D0
100
AcDbEntity
8
1
62
256
6
ByLayer
370
18
48
1
60
0
100
AcDbSpline
70
4
71
3
72
8
73
4
40
0
40
0
40
0
40
0
40
1
40
1
40
1
40
1
41
1
10
34.5135221082799
20
-3.02726419623195
30
0
41
1
10
34.0184409212137
20
-3.02634396152345
30
0
41
1
10
33.5235245394289
20
-3.00226536678244
30
0
41
1
10
33.0269163984304
20
-2.95511058461193
30
0
0
SPLINE
5
D1
100
AcDbEntity
8
1
62
256
6
ByLayer
370
13
48
1
60
0
100
AcDbSpline
70
4
71
3
72
40
73
36
40
0
40
0
40
0
40
0
40
0.0062516752049491
40
0.0062516752049491
40
0.0476526807460757
40
0.0476526807460757
40
0.0890536862872021
40
0.0890536862872021
40
0.171855697369457
40
0.171855697369457
40
0.213256702910585
40
0.213256702910585
40
0.254657708451714
40
0.254657708451714
40
0.296058713992842
40
0.296058713992842
40
0.337459719533971
40
0.337459719533971
40
0.503063741698484
40
0.503063741698484
40
0.585865752780742
40
0.585865752780742
40
0.62726675832187
40
0.62726675832187
40
0.668667763862998
40
0.668667763862998
40
0.834271786027514
40
0.834271786027514
40
0.875672791568643
40
0.875672791568643
40
0.917073797109772
40
0.917073797109772
40
0.999875808192029
40
0.999875808192029
40
1
40
1
40
1
40
1
41
1
10
33.0269163991695
20
-2.95511058468213
30
0
41
1
10
32.9893657476017
20
-2.95154501124904
30
0
41
1
10
32.9518054233758
20
-2.94784749937665
30
0
41
1
10
32.6654262919573
20
-2.91865822221863
30
0
41
1
10
32.4162201454319
20
-2.88758452833522
30
0
41
1
10
31.9164287569414
20
-2.81407543904706
30
0
41
1
10
31.6654633224573
20
-2.77157614270223
30
0
41
1
10
30.9128776915546
20
-2.62808015368643
30
0
41
1
10
30.4122206193142
20
-2.51116213697347
30
0
41
1
10
29.6597752364164
20
-2.30751116682657
30
0
41
1
10
29.4086572348086
20
-2.23485058061402
30
0
41
1
10
28.9071277167727
20
-2.08128368174695
30
0
41
1
10
28.6565138762213
20
-2.00034096379588
30
0
41
1
10
28.1552012506413
20
-1.83098684853601
30
0
41
1
10
27.9045220736278
20
-1.74254963200406
30
0
41
1
10
27.4025496734004
20
-1.55902937754811
30
0
41
1
10
27.1517158800032
20
-1.46414292751245
30
0
41
1
10
25.9021510799703
20
-0.978349356417453
30
0
41
1
10
24.9125154615407
20
-0.551504002709862
30
0
41
1
10
23.4215396169446
20
0.0961007639079696
30
0
41
1
10
22.9235066148469
20
0.313294569586361
30
0
41
1
10
22.1719895054733
20
0.634176053958782
30
0
41
1
10
21.9204098094551
20
0.740556829643168
30
0
41
1
10
21.4195843197955
20
0.948982517486087
30
0
41
1
10
21.1698470576052
20
1.05112049844504
30
0
41
1
10
19.9234946037161
20
1.54948746116588
30
0
41
1
10
18.9340716708854
20
1.90851808476992
30
0
41
1
10
17.6886952975031
20
2.27297368237546
30
0
41
1
10
17.439214443409
20
2.34172661677746
30
0
41
1
10
16.938966713272
20
2.47004285917194
30
0
41
1
10
16.6877582478557
20
2.52968177512361
30
0
41
1
10
15.9345316663537
20
2.69316680070179
30
0
41
1
10
15.4354339615655
20
2.78084064422328
30
0
41
1
10
14.9369598187098
20
2.84642009721077
30
0
41
1
10
14.9362132975295
20
2.84651825964423
30
0
41
1
10
14.9354667792156
20
2.84661637151365
30
0
0
SPLINE
5
D2
100
AcDbEntity
8
1
62
256
6
ByLayer
370
18
48
1
60
0
100
AcDbSpline
70
4
71
3
72
16
73
12
40
0
40
0
40
0
40
0
40
0.250000000000001
40
0.250000000000001
40
0.500000000000002
40
0.500000000000002
40
0.750000000000003
40
0.750000000000003
40
0.875000000000001
40
0.875000000000001
40
1
40
1
40
1
40
1
41
1
10
10.0758265192561
20
0.463262739568393
30
0
41
1
10
9.72294581940074
20
0.609094352385597
30
0
41
1
10
9.37251751824778
20
0.754771845526761
30
0
41
1
10
8.67638062845265
20
1.04617806515026
30
0
41
1
10
8.33075398559157
20
1.19182699720707
30
0
41
1
10
7.64560158897712
20
1.48207238093232
30
0
41
1
10
7.3056407957053
20
1.62706998285975
30
0
41
1
10
6.80112021971348
20
1.84314536861589
30
0
41
1
10
6.63384849518619
20
1.91493561565883
30
0
41
1
10
6.30143836454417
20
2.05777405692808
30
0
41
1
10
6.13659133861381
20
2.12869690667784
30
0
41
1
10
5.97480505115257
20
2.19827412409748
30
0
0
SPLINE
5
D3
100
AcDbEntity
8
1
62
256
6
ByLayer
370
13
48
1
60
0
100
AcDbSpline
70
4
71
3
72
10
73
6
40
0
40
0
40
0
40
0
40
0.5
40
0.5
40
1
40
1
40
1
40
1
41
1
10
5.56508002336318
20
-1.59819724561677
30
0
41
1
10
5.63023274399961
20
-1.59892528319654
30
0
41
1
10
5.69775758161441
20
-1.6038520557363
30
0
41
1
10
5.83440081127611
20
-1.62193330559168
30
0
41
1
10
5.90391793065896
20
-1.63508720892381
30
0
41
1
10
5.97454386975738
20
-1.65283891976736
30
0
0
SPLINE
5
D4
100
AcDbEntity
8
1
62
256
6
ByLayer
370
13
48
1
60
0
100
AcDbSpline
70
4
71
3
72
79
73
75
40
0
40
0
40
0
40
0
40
0.0201888693824038
40
0.0306793366914606
40
0.041169804000519
40
0.0621507386186335
40
0.0726412059276905
40
0.0831316732367483
40
0.104112607854862
40
0.11460307516392
40
0.125093542472978
40
0.146074477091091
40
0.156564944400149
40
0.167055411709207
40
0.188036346327321
40
0.198526813636378
40
0.209017280945436
40
0.22999821556355
40
0.240488682872607
40
0.250979150181665
40
0.271960084799779
40
0.282450552108836
40
0.292941019417894
40
0.313921954036008
40
0.324412421345066
40
0.334902888654123
40
0.355883823272238
40
0.366374290581295
40
0.376864757890352
40
0.397845692508467
40
0.408336159817525
40
0.418826627126582
40
0.439807561744696
40
0.450298029053753
40
0.460788496362811
40
0.481769430980925
40
0.492259898289982
40
0.502750365599039
40
0.523731300217154
40
0.534221767526212
40
0.544712234835269
40
0.565693169453384
40
0.576183636762441
40
0.586674104071498
40
0.607655038689612
40
0.61814550599867
40
0.628635973307727
40
0.649616907925842
40
0.660107375234899
40
0.670597842543956
40
0.691578777162071
40
0.702069244471128
40
0.712559711780186
40
0.7335406463983
40
0.744031113707357
40
0.754521581016415
40
0.775502515634529
40
0.785992982943586
40
0.796483450252644
40
0.817464384870759
40
0.827954852179816
40
0.838445319488873
40
0.859426254106987
40
0.869916721416045
40
0.880407188725102
40
0.901388123343217
40
0.911878590652274
40
0.922369057961331
40
0.943349992579446
40
0.953840459888504
40
0.964330927197561
40
0.985311861815675
40
0.995802329124732
40
1
40
1
40
1
40
1
41
1
10
25.2842893654459
20
-1.32525030835149
30
0
41
1
10
25.1915766369465
20
-1.33397970341119
30
0
41
1
10
25.0506823036835
20
-1.34671393028236
30
0
41
1
10
24.8615991175255
20
-1.36270604581065
30
0
41
1
10
24.6689042904006
20
-1.37815665288878
30
0
41
1
10
24.4761953603052
20
-1.39243513343678
30
0
41
1
10
24.2834742723902
20
-1.4055291938696
30
0
41
1
10
24.0907792889419
20
-1.41773433794572
30
0
41
1
10
23.8980702018367
20
-1.42873842723813
30
0
41
1
10
23.7053490314532
20
-1.43853817066605
30
0
41
1
10
23.5126540155474
20
-1.44741985567953
30
0
41
1
10
23.3199449574457
20
-1.45508326076265
30
0
41
1
10
23.1272238583842
20
-1.46152759454046
30
0
41
1
10
22.9345289407356
20
-1.46702901851174
30
0
41
1
10
22.7418200102356
20
-1.47130030216869
30
0
41
1
10
22.5490990408314
20
-1.47434322373252
30
0
41
1
10
22.3564042291532
20
-1.47642297133021
30
0
41
1
10
22.1636953481023
20
-1.47726639995568
30
0
41
1
10
21.9709743138761
20
-1.47687801322599
30
0
41
1
10
21.7782793800358
20
-1.4755128942889
30
0
41
1
10
21.5855703439204
20
-1.47291661446783
30
0
41
1
10
21.3928492246675
20
-1.46910184313148
30
0
41
1
10
21.2001542479383
20
-1.46430727862762
30
0
41
1
10
21.0074452188169
20
-1.45829815396752
30
0
41
1
10
20.814724139689
20
-1.45108986174105
30
0
41
1
10
20.6220292212629
20
-1.44290394486018
30
0
41
1
10
20.4293202536626
20
-1.4335262167738
30
0
41
1
10
20.2365991951966
20
-1.42297485599016
30
0
41
1
10
20.0439042654649
20
-1.41145341922632
30
0
41
1
10
19.8511952325027
20
-1.39876908688569
30
0
41
1
10
19.6584740425823
20
-1.38494271739151
30
0
41
1
10
19.4657789658938
20
-1.37016038420634
30
0
41
1
10
19.2730698045846
20
-1.35425370853713
30
0
41
1
10
19.0803485964567
20
-1.33724973635458
30
0
41
1
10
18.8876535699552
20
-1.31931294052498
30
0
41
1
10
18.6949445377081
20
-1.3003000829269
30
0
41
1
10
18.5022234845745
20
-1.28024089370913
30
0
41
1
10
18.3095286120083
20
-1.25927758042957
30
0
41
1
10
18.1168197266419
20
-1.23729260502981
30
0
41
1
10
17.9240987878996
20
-1.21431823732658
30
0
41
1
10
17.7314039869484
20
-1.19047392784731
30
0
41
1
10
17.5386950961175
20
-1.16566833921115
30
0
41
1
10
17.3459740513129
20
-1.13993624330198
30
0
41
1
10
17.1532791124999
20
-1.11337431341252
30
0
41
1
10
16.9605700719919
20
-1.08591870679237
30
0
41
1
10
16.7678489435956
20
-1.05760790865924
30
0
41
1
10
16.5751539621768
20
-1.0285140745568
30
0
41
1
10
16.3824449331133
20
-0.998601148145042
30
0
41
1
10
16.1897238567084
20
-0.967909841013267
30
0
41
1
10
15.9970289412915
20
-0.936487509443879
30
0
41
1
10
15.8043199787716
20
-0.90432611489814
30
0
41
1
10
15.6115989378794
20
-0.871468523595496
30
0
41
1
10
15.418904041087
20
-0.837937029832204
30
0
41
1
10
15.2261950562719
20
-0.803751741419404
30
0
41
1
10
15.0334739204559
20
-0.768957503502151
30
0
41
1
10
14.8407789056304
20
-0.733551008043577
30
0
41
1
10
14.6480698201404
20
-0.697579826619801
30
0
41
1
10
14.4553486935259
20
-0.661089548272315
30
0
41
1
10
14.2626537347197
20
-0.624052233454705
30
0
41
1
10
14.0699447544448
20
-0.586542848877485
30
0
41
1
10
13.8772237352746
20
-0.548608637272281
30
0
41
1
10
13.6845288775989
20
-0.510197000361103
30
0
41
1
10
13.4918199769269
20
-0.471410122966432
30
0
41
1
10
13.2990989940536
20
-0.432296685914736
30
0
41
1
10
13.1064041423092
20
-0.392779502768065
30
0
41
1
10
12.9136951941598
20
-0.352987703029413
30
0
41
1
10
12.7209741008957
20
-0.312971205090633
30
0
41
1
10
12.5282791226193
20
-0.272627476542084
30
0
41
1
10
12.3355700517108
20
-0.232110415083127
30
0
41
1
10
12.142848900906
20
-0.191468253982379
30
0
41
1
10
11.9501539039889
20
-0.150576048763014
30
0
41
1
10
11.757444860476
20
-0.109612009329283
30
0
41
1
10
11.5936251174684
20
-0.0747717632295348
30
0
41
1
10
11.5261696838727
20
-0.060395178151083
30
0
41
1
10
11.506891967086
20
-0.0562851406333209
30
0
0
SPLINE
5
D5
100
AcDbEntity
8
1
62
256
6
ByLayer
370
13
48
1
60
0
100
AcDbSpline
70
4
71
3
72
28
73
24
40
0
40
0
40
0
40
0
40
0.177429801715751
40
0.177429801715751
40
0.266144702573627
40
0.266144702573627
40
0.310502153002565
40
0.310502153002565
40
0.354859603431503
40
0.354859603431503
40
0.53228940514726
40
0.53228940514726
40
0.621004306005139
40
0.621004306005139
40
0.665361756434077
40
0.665361756434077
40
0.709719206863016
40
0.709719206863016
40
0.887149008578773
40
0.887149008578773
40
0.975863909436652
40
0.975863909436652
40
1
40
1
40
1
40
1
41
1
10
53.78706049139
20
-2.86869441234174
30
0
41
1
10
52.7881410919947
20
-2.71218713074663
30
0
41
1
10
51.8019446650201
20
-2.46866580781355
30
0
41
1
10
50.3205140826771
20
-2.00368396699199
30
0
41
1
10
49.8263779827371
20
-1.83215519603775
30
0
41
1
10
49.0818017143521
20
-1.55492251512615
30
0
41
1
10
48.8330746450475
20
-1.4591602089578
30
0
41
1
10
48.3340972002192
20
-1.26177379096273
30
0
41
1
10
48.0832474165553
20
-1.15991788995848
30
0
41
1
10
46.8327079314577
20
-0.642056738600786
30
0
41
1
10
45.8444687529092
20
-0.200419628610661
30
0
41
1
10
44.3582639944414
20
0.451415929034027
30
0
41
1
10
43.8623124817783
20
0.667133908596554
30
0
41
1
10
43.1145959570156
20
0.981464373425553
30
0
41
1
10
42.8647636811646
20
1.08479041346996
30
0
41
1
10
42.3634188341555
20
1.28739032661289
30
0
41
1
10
42.1133173657119
20
1.38608425840925
30
0
41
1
10
40.8664718627938
20
1.86329339707896
30
0
41
1
10
39.8788163462543
20
2.19417478509405
30
0
41
1
10
38.3901081537005
20
2.57732592344553
30
0
41
1
10
37.8927408853264
20
2.68652799286906
30
0
41
1
10
37.2561521887368
20
2.79804878468951
30
0
41
1
10
37.1197228853155
20
2.82035291713703
30
0
41
1
10
36.9833579725363
20
2.84100050175687
30
0
0
SPLINE
5
D6
100
AcDbEntity
8
1
62
256
6
ByLayer
370
18
48
1
60
0
100
AcDbSpline
70
4
71
3
72
10
73
6
40
0
40
0
40
0
40
0
40
0.552564094397184
40
0.552564094397184
40
1
40
1
40
1
40
1
41
1
10
12.7469744016396
20
-2.98791516509044
30
0
41
1
10
12.4826477251477
20
-2.9870889211324
30
0
41
1
10
12.2179546630386
20
-2.97973189320106
30
0
41
1
10
11.7377894637966
20
-2.95447249913431
30
0
41
1
10
11.522557508285
20
-2.93889871434107
30
0
41
1
10
11.3067498562222
20
-2.91899213931899
30
0
0
SPLINE
5
D7
100
AcDbEntity
8
1
62
256
6
ByLayer
370
13
48
1
60
0
100
AcDbSpline
70
4
71
3
72
14
73
10
40
0
40
0
40
0
40
0
40
0.0196078146471314
40
0.0196078146471314
40
0.159663841126115
40
0.159663841126115
40
0.439775894084076
40
0.439775894084076
40
1
40
1
40
1
40
1
41
1
10
11.3067498565236
20
-2.91899213934678
30
0
41
1
10
11.2716184388401
20
-2.9157515396974
30
0
41
1
10
11.2364717647835
20
-2.91239611798781
30
0
41
1
10
10.9501462509058
20
-2.88413624034288
30
0
41
1
10
10.6987988839753
20
-2.85353336661541
30
0
41
1
10
9.94827374306217
20
-2.74574732317313
30
0
41
1
10
9.45072701027436
20
-2.65224204735097
30
0
41
1
10
7.96146617592359
20
-2.31378779988665
30
0
41
1
10
6.97285501791322
20
-2.01082592421895
30
0
41
1
10
5.97454386975738
20
-1.65283891976736
30
0
0
SPLINE
5
D8
100
AcDbEntity
8
1
62
256
6
ByLayer
370
18
48
1
60
0
100
AcDbSpline
70
4
71
3
72
12
73
8
40
0
40
0
40
0
40
0
40
0.5
40
0.5
40
0.75
40
0.75
40
1
40
1
40
1
40
1
41
1
10
5.97480505115254
20
2.19827412409742
30
0
41
1
10
5.91067126882319
20
2.22585526330948
30
0
41
1
10
5.84504916098516
20
2.25462534843507
30
0
41
1
10
5.74344763797956
20
2.30025278299828
30
0
41
1
10
5.70882667631054
20
2.31598182245767
30
0
41
1
10
5.64018353468646
20
2.34757797976315
30
0
41
1
10
5.60600668669204
20
2.36351236808085
30
0
41
1
10
5.57199268229397
20
2.37959750090775
30
0
0
SPLINE
5
D9
100
AcDbEntity
8
1
62
256
6
ByLayer
370
18
48
1
60
0
100
AcDbSpline
70
4
71
3
72
8
73
4
40
0
40
0
40
0
40
0
40
1
40
1
40
1
40
1
41
1
10
54.9571500820592
20
-0.184300732999702
30
0
41
1
10
54.8493286757383
20
-0.4894322685806
30
0
41
1
10
54.7420660651359
20
-0.794757318724038
30
0
41
1
10
54.6353643833521
20
-1.10027662213648
30
0
0
SPLINE
5
DA
100
AcDbEntity
8
1
62
256
6
ByLayer
370
18
48
1
60
0
100
AcDbSpline
70
4
71
3
72
22
73
18
40
0
40
0
40
0
40
0
40
0.167788709068377
40
0.167788709068377
40
0.335577418136754
40
0.335577418136754
40
0.503366127205131
40
0.503366127205131
40
0.671154836273508
40
0.671154836273508
40
0.755049190807696
40
0.755049190807696
40
0.838943545341885
40
0.838943545341885
40
0.922837899876073
40
0.922837899876073
40
1
40
1
40
1
40
1
41
1
10
5.57199268229311
20
2.37959750090829
30
0
41
1
10
5.44589293719457
20
2.43394873046628
30
0
41
1
10
5.32163601252094
20
2.48745665318498
30
0
41
1
10
5.07771511018001
20
2.59218452993758
30
0
41
1
10
4.95820980800244
20
2.64333621708053
30
0
41
1
10
4.72898881326529
20
2.74080419316678
30
0
41
1
10
4.61881862375188
20
2.7873211170602
30
0
41
1
10
4.41046311534311
20
2.87406446307949
30
0
41
1
10
4.31408528401795
20
2.91353824101199
30
0
41
1
10
4.1856270250789
20
2.96448003451144
30
0
41
1
10
4.14548374706416
20
2.98008335515814
30
0
41
1
10
4.07161647559516
20
3.0079386047471
30
0
41
1
10
4.03767233035285
20
3.02026303796788
30
0
41
1
10
3.9791856910212
20
3.04022304116126
30
0
41
1
10
3.9545395084956
20
3.04790698926016
30
0
41
1
10
3.9170767102795
20
3.05769456033823
30
0
41
1
10
3.90341530897894
20
3.0601869853439
30
0
41
1
10
3.89480141445404
20
3.06020500447275
30
0
0
SPLINE
5
DB
100
AcDbEntity
8
1
62
256
6
ByLayer
370
13
48
1
60
0
100
AcDbSpline
70
4
71
3
72
24
73
20
40
0
40
0
40
0
40
0
40
0.125
40
0.125
40
0.25
40
0.25
40
0.375
40
0.375
40
0.5
40
0.5
40
0.625
40
0.625
40
0.6875
40
0.6875
40
0.75
40
0.75
40
0.875
40
0.875
40
1
40
1
40
1
40
1
41
1
10
5.97454386975738
20
-1.65283891976736
30
0
41
1
10
5.97456369847748
20
-1.50534944626764
30
0
41
1
10
5.97457796770902
20
-1.35089539896194
30
0
41
1
10
5.97460065910136
20
-1.02841509676298
30
0
41
1
10
5.97460910686397
20
-0.858972155514778
30
0
41
1
10
5.9746239617902
20
-0.51728557273637
30
0
41
1
10
5.9746304572142
20
-0.344168219096787
30
0
41
1
10
5.97464487806391
20
0.0066171560809494
30
0
41
1
10
5.97465287835308
20
0.185287552471152
30
0
41
1
10
5.97467154010448
20
0.533563357663553
30
0
41
1
10
5.97468224965468
20
0.704788845436156
30
0
41
1
10
5.97470046563998
20
0.957215774575445
30
0
41
1
10
5.97470691289442
20
1.04095155050473
30
0
41
1
10
5.97472021476136
20
1.20498496213608
30
0
41
1
10
5.97472706135903
20
1.2852364877441
30
0
41
1
10
5.97474779339981
20
1.52074136577315
30
0
41
1
10
5.97476199559597
20
1.67161374740519
30
0
41
1
10
5.97478699985771
20
1.9505316510878
30
0
41
1
10
5.97479789584742
20
2.07960914440071
30
0
41
1
10
5.97480505115254
20
2.19827412409742
30
0
0
SPLINE
5
DC
100
AcDbEntity
8
1
62
256
6
ByLayer
370
18
48
1
60
0
100
AcDbSpline
70
4
71
3
72
8
73
4
40
0
40
0
40
0
40
0
40
1
40
1
40
1
40
1
41
1
10
53.5673466120788
20
0.472536379966101
30
0
41
1
10
53.6812659798849
20
0.405356009353938
30
0
41
1
10
53.7959409763632
20
0.341534111150935
30
0
41
1
10
53.9114308636842
20
0.281334082409216
30
0
0
SPLINE
5
DD
100
AcDbEntity
8
1
62
256
6
ByLayer
370
18
48
1
60
0
100
AcDbSpline
70
4
71
3
72
18
73
14
40
0
40
0
40
0
40
0
40
0.150997551527956
40
0.150997551527956
40
0.437834758437374
40
0.437834758437374
40
0.581253361892087
40
0.581253361892087
40
0.724671965346799
40
0.724671965346799
40
0.868090568801512
40
0.868090568801512
40
1
40
1
40
1
40
1
41
1
10
4.68392085611902
20
-2.75971788471193
30
0
41
1
10
4.6259845187231
20
-2.7841575295561
30
0
41
1
10
4.56948238044322
20
-2.8078609667493
30
0
41
1
10
4.41046311534154
20
-2.87406446308012
30
0
41
1
10
4.31408528401664
20
-2.91353824101253
30
0
41
1
10
4.18562702507788
20
-2.96448003451186
30
0
41
1
10
4.14548374706322
20
-2.98008335515851
30
0
41
1
10
4.07161647559445
20
-3.00793860474738
30
0
41
1
10
4.03767233035219
20
-3.02026303796811
30
0
41
1
10
3.97918569102075
20
-3.04022304116143
30
0
41
1
10
3.9545395084952
20
-3.04790698926027
30
0
41
1
10
3.91707674928858
20
-3.05769455014669
30
0
41
1
10
3.90341536836252
20
-3.06018697450975
30
0
41
1
10
3.89480147061863
20
-3.06020500435522
30
0
0
SPLINE
5
DE
100
AcDbEntity
8
1
62
256
6
ByLayer
370
18
48
1
60
0
100
AcDbSpline
70
4
71
3
72
18
73
14
40
0
40
0
40
0
40
0
40
0.250000000000002
40
0.250000000000002
40
0.375000000000002
40
0.375000000000002
40
0.500000000000001
40
0.500000000000001
40
0.750000000000001
40
0.750000000000001
40
0.875
40
0.875
40
1
40
1
40
1
40
1
41
1
10
53.5673466120788
20
0.472536379966101
30
0
41
1
10
53.5242391328163
20
0.286646879485431
30
0
41
1
10
53.4895894312135
20
0.099134284572159
30
0
41
1
10
53.4505312319828
20
-0.184613327594604
30
0
41
1
10
53.4396776250035
20
-0.279611492624497
30
0
41
1
10
53.4225172955373
20
-0.470480395031728
30
0
41
1
10
53.4163135346848
20
-0.565420991481147
30
0
41
1
10
53.404923063842
20
-0.845364593174196
30
0
41
1
10
53.4067604923898
20
-1.02697189283126
30
0
41
1
10
53.4238589698016
20
-1.29174597452166
30
0
41
1
10
53.4320069501583
20
-1.37885035292092
30
0
41
1
10
53.4528469184272
20
-1.54722597051887
30
0
41
1
10
53.4655547796583
20
-1.62891388108841
30
0
41
1
10
53.4805230548532
20
-1.70813190161232
30
0
0
SPLINE
5
DF
100
AcDbEntity
8
1
62
256
6
ByLayer
370
18
48
1
60
0
100
AcDbSpline
70
4
71
3
72
8
73
4
40
0
40
0
40
0
40
0
40
1
40
1
40
1
40
1
41
1
10
53.8722413437576
20
-3.11624145218141
30
0
41
1
10
54.0785960183241
20
-2.59217114095526
30
0
41
1
10
54.2906116106174
20
-2.04865752336877
30
0
41
1
10
54.4909010466293
20
-1.47647597207046
30
0
0
SPLINE
5
E0
100
AcDbEntity
8
1
62
256
6
ByLayer
370
18
48
1
60
0
100
AcDbSpline
70
4
71
3
72
12
73
8
40
0
40
0
40
0
40
0
40
0.499999999999998
40
0.499999999999998
40
0.749999999999999
40
0.749999999999999
40
1
40
1
40
1
40
1
41
1
10
8.3211695719566
20
2.82486058089782
30
0
41
1
10
8.95225246742666
20
2.93056305276022
30
0
41
1
10
9.58619151460576
20
3.00066116706947
30
0
41
1
10
10.5401546568523
20
3.05850035527968
30
0
41
1
10
10.8586693902026
20
3.06975602877767
30
0
41
1
10
11.4967265630769
20
3.07579402507781
30
0
41
1
10
11.816771900034
20
3.07055608640545
30
0
41
1
10
12.1361962390095
20
3.05646372093423
30
0
0
SPLINE
5
E1
100
AcDbEntity
8
1
62
256
6
ByLayer
370
18
48
1
60
0
100
AcDbSpline
70
4
71
3
72
22
73
18
40
0
40
0
40
0
40
0
40
0.190186381878267
40
0.190186381878267
40
0.285279572817401
40
0.285279572817401
40
0.380372763756535
40
0.380372763756535
40
0.570559145634804
40
0.570559145634804
40
0.66565233657394
40
0.66565233657394
40
0.760745527513075
40
0.760745527513075
40
0.950931909391344
40
0.950931909391344
40
1
40
1
40
1
40
1
41
1
10
5.88611878551424
20
-1.85333246220043
30
0
41
1
10
6.38774562251052
20
-2.03068744493322
30
0
41
1
10
6.88903392716608
20
-2.19350649856887
30
0
41
1
10
7.63985068639175
20
-2.40979644153617
30
0
41
1
10
7.89010049490648
20
-2.47727892817935
30
0
41
1
10
8.39090075513752
20
-2.60251442610874
30
0
41
1
10
8.64172553319142
20
-2.66030745215556
30
0
41
1
10
9.39308232219844
20
-2.8173717898793
30
0
41
1
10
9.89254605406032
20
-2.90042603256126
30
0
41
1
10
10.6422059644312
20
-2.99049956715263
30
0
41
1
10
10.8921921454163
20
-3.01476163476337
30
0
41
1
10
11.3927697806661
20
-3.05146915720422
30
0
41
1
10
11.6435639805407
20
-3.06389909999342
30
0
41
1
10
12.3942979517537
20
-3.08297759998732
30
0
41
1
10
12.8935322624583
20
-3.07156412387963
30
0
41
1
10
13.5221933037542
20
-3.02721130921094
30
0
41
1
10
13.6511648416871
20
-3.01653163541448
30
0
41
1
10
13.7802050399362
20
-3.00427498001994
30
0
0
SPLINE
5
E2
100
AcDbEntity
8
1
62
256
6
ByLayer
370
18
48
1
60
0
100
AcDbSpline
70
4
71
3
72
46
73
42
40
0
40
0
40
0
40
0
40
0.0183534542817188
40
0.0183534542817188
40
0.0938647270292819
40
0.0938647270292819
40
0.131620363403063
40
0.131620363403063
40
0.169375999776843
40
0.169375999776843
40
0.244887272524403
40
0.244887272524403
40
0.282642908898183
40
0.282642908898183
40
0.320398545271963
40
0.320398545271963
40
0.395909818019522
40
0.395909818019522
40
0.471421090767082
40
0.471421090767082
40
0.546932363514641
40
0.546932363514641
40
0.584687999888421
40
0.584687999888421
40
0.622443636262201
40
0.622443636262201
40
0.697954909009761
40
0.697954909009761
40
0.735710545383541
40
0.735710545383541
40
0.773466181757321
40
0.773466181757321
40
0.84897745450488
40
0.84897745450488
40
0.88673309087866
40
0.88673309087866
40
0.92448872725244
40
0.92448872725244
40
0.96224436362622
40
0.96224436362622
40
1
40
1
40
1
40
1
41
1
10
34.0139143092623
20
3.11441586974354
30
0
41
1
10
34.1354347094827
20
3.11461341916595
30
0
41
1
10
34.2569844876565
20
3.11337404076832
30
0
41
1
10
34.8782551314824
20
3.09967475077499
30
0
41
1
10
35.3763777656371
20
3.06430404679463
30
0
41
1
10
36.124279248173
20
2.97606055977889
30
0
41
1
10
36.373661988408
20
2.9407738780223
30
0
41
1
10
36.8730521656551
20
2.85868161443057
30
0
41
1
10
37.1232653364772
20
2.81183740732041
30
0
41
1
10
37.8722131846166
20
2.65551206915288
30
0
41
1
10
38.3701163776452
20
2.52986897081109
30
0
41
1
10
39.1179663044051
20
2.31317682672034
30
0
41
1
10
39.3674046455166
20
2.23623515569696
30
0
41
1
10
39.867047758106
20
2.07354819066933
30
0
41
1
10
40.1169966607015
20
1.98788930100579
30
0
41
1
10
40.8652744214946
20
1.72035687750898
30
0
41
1
10
41.3630156090741
20
1.5274261439331
30
0
41
1
10
42.3601993016291
20
1.11985465357211
30
0
41
1
10
42.8604483523824
20
0.904712287915714
30
0
41
1
10
43.8574075271773
20
0.465212529892085
30
0
41
1
10
44.3550179632155
20
0.240295305266074
30
0
41
1
10
45.1031017667377
20
-0.0982776940448389
30
0
41
1
10
45.3530446016582
20
-0.211466981714295
30
0
41
1
10
45.8523016764583
20
-0.436404518340623
30
0
41
1
10
46.1015277820578
20
-0.548118891647363
30
0
41
1
10
46.8486769021645
20
-0.879520353624088
30
0
41
1
10
47.3461299122416
20
-1.09532646957209
30
0
41
1
10
48.0943919460108
20
-1.40482977129469
30
0
41
1
10
48.3443416393066
20
-1.50570398619553
30
0
41
1
10
48.8429995570172
20
-1.70070764397642
30
0
41
1
10
49.0919851993199
20
-1.79495651121485
30
0
41
1
10
49.838584565392
20
-2.06675897933295
30
0
41
1
10
50.3357807453874
20
-2.23344303059753
30
0
41
1
10
51.0839160397766
20
-2.45635742602528
30
0
41
1
10
51.3338263333384
20
-2.52615018285908
30
0
41
1
10
51.8322582450782
20
-2.65538129950764
30
0
41
1
10
52.0810995439403
20
-2.71490685001061
30
0
41
1
10
52.5785928777789
20
-2.82318025808903
30
0
41
1
10
52.8272411269766
20
-2.87193725599977
30
0
41
1
10
53.3247569988197
20
-2.95828043738842
30
0
41
1
10
53.573395096785
20
-2.99600783513924
30
0
41
1
10
53.8228340261386
20
-3.02763491988924
30
0
0
SPLINE
5
E3
100
AcDbEntity
8
1
62
256
6
ByLayer
370
18
48
1
60
0
100
AcDbSpline
70
4
71
3
72
78
73
74
40
0
40
0
40
0
40
0
40
0.010322926597103
40
0.010322926597103
40
0.0353147699628105
40
0.0353147699628105
40
0.0603066133285178
40
0.0603066133285178
40
0.0852984566942253
40
0.0852984566942253
40
0.110290300059933
40
0.110290300059933
40
0.160273986791348
40
0.160273986791348
40
0.185265830157055
40
0.185265830157055
40
0.210257673522762
40
0.210257673522762
40
0.23524951688847
40
0.23524951688847
40
0.260241360254177
40
0.260241360254177
40
0.285233203619885
40
0.285233203619885
40
0.310225046985592
40
0.310225046985592
40
0.3352168903513
40
0.3352168903513
40
0.360208733717007
40
0.360208733717007
40
0.385200577082714
40
0.385200577082714
40
0.410192420448422
40
0.410192420448422
40
0.460176107179837
40
0.460176107179837
40
0.485167950545544
40
0.485167950545544
40
0.510159793911252
40
0.510159793911252
40
0.535151637276959
40
0.535151637276959
40
0.560143480642667
40
0.560143480642667
40
0.585135324008374
40
0.585135324008374
40
0.610127167374081
40
0.610127167374081
40
0.635119010739789
40
0.635119010739789
40
0.660110854105496
40
0.660110854105496
40
0.685102697471204
40
0.685102697471204
40
0.710094540836911
40
0.710094540836911
40
0.760078227568326
40
0.760078227568326
40
0.785070070934034
40
0.785070070934034
40
0.810061914299741
40
0.810061914299741
40
0.860045601031156
40
0.860045601031156
40
0.885037444396863
40
0.885037444396863
40
0.91002928776257
40
0.91002928776257
40
0.935021131128276
40
0.935021131128276
40
0.960012974493983
40
0.960012974493983
40
1
40
1
40
1
40
1
41
1
10
22.0427482428545
20
3.00546021160702
30
0
41
1
10
22.136128635423
20
3.00534890759485
30
0
41
1
10
22.2294340296116
20
3.00446038233943
30
0
41
1
10
22.5484531672239
20
2.99902246702001
30
0
41
1
10
22.7738638808834
20
2.99158270324438
30
0
41
1
10
23.2240987536179
20
2.96522895283403
30
0
41
1
10
23.4490523886687
20
2.94617282974033
30
0
41
1
10
23.898717594481
20
2.90017079695997
30
0
41
1
10
24.1235648852747
20
2.87321160454445
30
0
41
1
10
24.5732734453331
20
2.81062573215323
30
0
41
1
10
24.7982953372679
20
2.77376295742235
30
0
41
1
10
25.4743680410315
20
2.65057777215679
30
0
41
1
10
25.9257933863788
20
2.55271136063251
30
0
41
1
10
26.6071512556825
20
2.37835989119253
30
0
41
1
10
26.8350456859444
20
2.31609493386117
30
0
41
1
10
27.2895481921115
20
2.1853785440764
30
0
41
1
10
27.5165774111883
20
2.11660275340211
30
0
41
1
10
27.970279551543
20
1.97133316506876
30
0
41
1
10
28.1971224113098
20
1.8953938151468
30
0
41
1
10
28.6508494181077
20
1.73823486097075
30
0
41
1
10
28.8776990936062
20
1.65686566891696
30
0
41
1
10
29.3321744267363
20
1.48810867722824
30
0
41
1
10
29.5598640099826
20
1.40056853270462
30
0
41
1
10
30.0147376361553
20
1.22225757126572
30
0
41
1
10
30.241837115294
20
1.13122988387974
30
0
41
1
10
30.6957270472706
20
0.945454647886038
30
0
41
1
10
30.9225722676467
20
0.850909765253135
30
0
41
1
10
31.376212730791
20
0.659112940444203
30
0
41
1
10
31.6031007849957
20
0.562261666556566
30
0
41
1
10
32.0571648832458
20
0.366257729211668
30
0
41
1
10
32.2846520310305
20
0.267333087042289
30
0
41
1
10
32.73968724437
20
0.0690684770598295
30
0
41
1
10
32.9664841731803
20
-0.0302564086507289
30
0
41
1
10
33.6454346085617
20
-0.326638784544855
30
0
41
1
10
34.0956383038757
20
-0.522255539683925
30
0
41
1
10
34.7698275427424
20
-0.809619301081398
30
0
41
1
10
34.9943819169
20
-0.90404450233487
30
0
41
1
10
35.4432771664695
20
-1.08978552187526
30
0
41
1
10
35.667790828976
20
-1.18074085824645
30
0
41
1
10
36.1168391546336
20
-1.35983222359866
30
0
41
1
10
36.3414567417432
20
-1.44766122505024
30
0
41
1
10
36.7914689589041
20
-1.61779148329779
30
0
41
1
10
37.0167415159837
20
-1.70046506941728
30
0
41
1
10
37.468283301747
20
-1.86065957564975
30
0
41
1
10
37.6943050135709
20
-1.93888571489197
30
0
41
1
10
38.1478889467812
20
-2.08819748869396
30
0
41
1
10
38.3757183047213
20
-2.15957161448617
30
0
41
1
10
38.8302715226549
20
-2.29500687856975
30
0
41
1
10
39.0573297709369
20
-2.35956336590493
30
0
41
1
10
39.5109786118755
20
-2.48093127388245
30
0
41
1
10
39.7377540999635
20
-2.53708022611392
30
0
41
1
10
40.1913397042698
20
-2.64126330196294
30
0
41
1
10
40.4181628091955
20
-2.6894816586931
30
0
41
1
10
40.8722712678933
20
-2.77798739428476
30
0
41
1
10
41.0996945954315
20
-2.81738240236677
30
0
41
1
10
41.7821753545889
20
-2.92080760500789
30
0
41
1
10
42.2357837763238
20
-2.97215381199126
30
0
41
1
10
42.9161040536667
20
-3.01932713311979
30
0
41
1
10
43.1429649199775
20
-3.03028394462672
30
0
41
1
10
43.596752920913
20
-3.04377067443661
30
0
41
1
10
43.8238029414968
20
-3.04607188644917
30
0
41
1
10
44.5063347738482
20
-3.03498670300292
30
0
41
1
10
44.9601591728587
20
-3.00587804425857
30
0
41
1
10
45.6405422306028
20
-2.93527172838685
30
0
41
1
10
45.8672957994713
20
-2.90718416145009
30
0
41
1
10
46.3209596765362
20
-2.84273380482782
30
0
41
1
10
46.5479154434363
20
-2.8064447663325
30
0
41
1
10
47.0023130071962
20
-2.7237859449715
30
0
41
1
10
47.2299085778685
20
-2.67741229984526
30
0
41
1
10
47.6839223731805
20
-2.57615660893558
30
0
41
1
10
47.9106831632829
20
-2.52142274886222
30
0
41
1
10
48.500182658047
20
-2.36886573653936
30
0
41
1
10
48.8627161587344
20
-2.26438810660898
30
0
41
1
10
49.2257328496553
20
-2.15125214538347
30
0
0
SPLINE
5
E4
100
AcDbEntity
8
1
62
256
6
ByLayer
370
18
48
1
60
0
100
AcDbSpline
70
4
71
3
72
8
73
4
40
0
40
0
40
0
40
0
40
1
40
1
40
1
40
1
41
1
10
54.4421359607384
20
-0.904738635077933
30
0
41
1
10
54.4434540308388
20
-0.90605592752749
30
0
41
1
10
54.444772164035
20
-0.907373156847029
30
0
41
1
10
54.4460903603177
20
-0.908690323027685
30
0
0
SPLINE
5
E5
100
AcDbEntity
8
1
62
256
6
ByLayer
370
18
48
1
60
0
100
AcDbSpline
70
4
71
3
72
8
73
4
40
0
40
0
40
0
40
0
40
1
40
1
40
1
40
1
41
1
10
54.9998122354271
20
0.0646363884898733
30
0
41
1
10
54.9854946363367
20
0.10444007857285
30
0
41
1
10
54.9712748129242
20
0.144328143459433
30
0
41
1
10
54.9571500820649
20
0.184300732983559
30
0
0
SPLINE
5
E6
100
AcDbEntity
8
1
62
256
6
ByLayer
370
18
48
1
60
0
100
AcDbSpline
70
4
71
2
72
6
73
3
40
0
40
0
40
0
40
1
40
1
40
1
41
1
10
43.590096403572
20
0.065196976298239
30
0
41
1
10
44.1251569462685
20
-0.0493478575668291
30
0
41
1
10
44.6530813627097
20
-0.290284010823598
30
0
0
SPLINE
5
E7
100
AcDbEntity
8
1
62
256
6
ByLayer
370
18
48
1
60
0
100
AcDbSpline
70
4
71
2
72
6
73
3
40
0
40
0
40
0
40
1
40
1
40
1
41
1
10
21.839199605782
20
0.0654279963285092
30
0
41
1
10
22.3462311860123
20
-0.0416200527594697
30
0
41
1
10
22.8492014322574
20
-0.269050614200296
30
0
0
SPLINE
5
E8
100
AcDbEntity
8
1
62
256
6
ByLayer
370
18
48
1
60
0
100
AcDbSpline
70
4
71
2
72
6
73
3
40
0
40
0
40
0
40
1
40
1
40
1
41
1
10
11.5014447913917
20
-0.055007672396215
30
0
41
1
10
11.0854599722595
20
0.0370936700010134
30
0
41
1
10
10.6709147187932
20
0.210841204999639
30
0
0
SPLINE
5
E9
100
AcDbEntity
8
1
62
256
6
ByLayer
370
18
48
1
60
0
100
AcDbSpline
70
4
71
3
72
25
73
21
40
0
40
0
40
0
40
0
40
0.0269103427391004
40
0.11176332987529
40
0.180103961720616
40
0.243780399510103
40
0.285939691646935
40
0.331331760484055
40
0.382893580816121
40
0.436630539181777
40
0.483272147828025
40
0.523731186022355
40
0.578956224315183
40
0.645319323069353
40
0.703965519583659
40
0.748871278578473
40
0.799596533021638
40
0.879706709279941
40
0.989339126184236
40
1
40
1
40
1
40
1
41
1
10
22.043622606892
20
3.00579328991927
30
0
41
1
10
21.9694040581786
20
3.00570374051679
30
0
41
1
10
21.6611644839583
20
3.00527071466621
30
0
41
1
10
21.1644638072055
20
3.00398395375569
30
0
41
1
10
20.566399522369
20
3.00215064426152
30
0
41
1
10
20.0858057456666
20
3.00294685116884
30
0
41
1
10
19.6691412372678
20
3.00128385110423
30
0
41
1
10
19.2855079372882
20
3.00004880324565
30
0
41
1
10
18.8698732817912
20
2.99987402969538
30
0
41
1
10
18.450788988709
20
2.9998119579129
30
0
41
1
10
18.0623340288988
20
2.99797977703253
30
0
41
1
10
17.6697693118583
20
2.99722735467054
30
0
41
1
10
17.2228181640886
20
2.99707383650815
30
0
41
1
10
16.7257210438838
20
2.99590225551333
30
0
41
1
10
16.2570851849635
20
2.99460682273298
30
0
41
1
10
15.8316097082065
20
2.9940052901247
30
0
41
1
10
15.3470287070909
20
2.99267433226163
30
0
41
1
10
14.6838040135539
20
2.9913675527126
30
0
41
1
10
14.1309871109257
20
2.9904812263315
30
0
41
1
10
13.7992585174203
20
2.98991453709891
30
0
41
1
10
13.76986017927
20
2.98986406479375
30
0
0
SPLINE
5
EA
100
AcDbEntity
8
1
62
256
6
ByLayer
370
18
48
1
60
0
100
AcDbSpline
70
4
71
3
72
22
73
18
40
0
40
0
40
0
40
0
40
0.0988401795038308
40
0.182429781255465
40
0.254085284174427
40
0.314294852126889
40
0.370462863548532
40
0.438813563806834
40
0.518408823157971
40
0.577739397598559
40
0.620828613519982
40
0.655295135671408
40
0.703457166763031
40
0.766774672337357
40
0.846549215126821
40
0.944157606059325
40
1
40
1
40
1
40
1
41
1
10
34.4601745727187
20
-3.0273160776797
30
0
41
1
10
34.7650617114855
20
-3.02602513823189
30
0
41
1
10
35.3293533725749
20
-3.02509223719034
30
0
41
1
10
36.1335308952841
20
-3.02725316928743
30
0
41
1
10
36.7959253252706
20
-3.03219489679432
30
0
41
1
10
37.387380265574
20
-3.03168151967441
30
0
41
1
10
37.9665869007388
20
-3.0340422477301
30
0
41
1
10
38.6074037774396
20
-3.03391683387793
30
0
41
1
10
39.25796154878
20
-3.0357725660453
30
0
41
1
10
39.8292823576966
20
-3.03665273072707
30
0
41
1
10
40.2589414301198
20
-3.03665470029478
30
0
41
1
10
40.6535454093358
20
-3.03798125438476
30
0
41
1
10
41.1109445210218
20
-3.03923590235823
30
0
41
1
10
41.7088990343716
20
-3.03768678453605
30
0
41
1
10
42.4647137791792
20
-3.03834733663345
30
0
41
1
10
43.196620812237
20
-3.04053013890862
30
0
41
1
10
43.6771836237168
20
-3.04232624049544
30
0
41
1
10
43.8519722304522
20
-3.0430542065983
30
0
0
SPLINE
5
EB
100
AcDbEntity
8
1
62
256
6
ByLayer
370
18
48
1
60
0
100
AcDbSpline
70
4
71
3
72
24
73
20
40
0
40
0
40
0
40
0
40
0.0896493435753398
40
0.175390599797434
40
0.251925590679855
40
0.317337619772645
40
0.368971792474716
40
0.409258698504096
40
0.464723651883913
40
0.529748923364159
40
0.589188421441103
40
0.638122518217019
40
0.678458681840647
40
0.701101444230933
40
0.732223423463949
40
0.784740667447833
40
0.8587056238288
40
0.954187650472872
40
1
40
1
40
1
40
1
41
1
10
12.7571828410214
20
-2.9880259445072
30
0
41
1
10
13.0325742685667
20
-2.98830880850667
30
0
41
1
10
13.5718552595671
20
-2.98899765823978
30
0
41
1
10
14.3488955140724
20
-2.98967261226645
30
0
41
1
10
15.0506167622164
20
-2.9917899677674
30
0
41
1
10
15.6436519165195
20
-2.99380844069358
30
0
41
1
10
16.1288995037726
20
-2.99427508963657
30
0
41
1
10
16.5830765159185
20
-2.99531869182482
30
0
41
1
10
17.0787706929176
20
-2.99709218115956
30
0
41
1
10
17.6336016700802
20
-2.9969845275119
30
0
41
1
10
18.1682687768314
20
-2.99852224046009
30
0
41
1
10
18.6268116312806
20
-3.00000031425154
30
0
41
1
10
18.9719088017151
20
-2.99988667366552
30
0
41
1
10
19.2619835713063
20
-3.00015283341276
30
0
41
1
10
19.5896523034269
20
-3.00077995478503
30
0
41
1
10
20.0756189911898
20
-3.00335262255962
30
0
41
1
10
20.7600429990476
20
-3.00179686487115
30
0
41
1
10
21.4238186263169
20
-3.00562171868381
30
0
41
1
10
21.859447065683
20
-3.00587956506723
30
0
41
1
10
22.0006886638493
20
-3.00594560180889
30
0
0
SPLINE
5
EC
100
AcDbEntity
8
1
62
256
6
ByLayer
370
18
48
1
60
0
100
AcDbSpline
70
4
71
3
72
21
73
17
40
0
40
0
40
0
40
0
40
0.0782979781397323
40
0.199487297859172
40
0.295263556112749
40
0.368385511283406
40
0.410556397704691
40
0.44459871170022
40
0.491018127953328
40
0.551854890308335
40
0.64310191437086
40
0.721458314513301
40
0.785848630362705
40
0.854872136794355
40
0.937017121965067
40
1
40
1
40
1
40
1
41
1
10
43.8500567163388
20
3.04299406285864
30
0
41
1
10
43.6362769287491
20
3.04202660613652
30
0
41
1
10
43.0913581048308
20
3.03995291662136
30
0
41
1
10
42.2823122798262
20
3.03788006818758
30
0
41
1
10
41.489173745698
20
3.03826197024904
30
0
41
1
10
40.9130041861085
20
3.03912966284233
30
0
41
1
10
40.5044950074017
20
3.03729476532948
30
0
41
1
10
40.1686798273998
20
3.03667277586095
30
0
41
1
10
39.781821554743
20
3.0365915909569
30
0
41
1
10
39.2383039614477
20
3.03571386915425
30
0
41
1
10
38.6074044678522
20
3.03391753303657
30
0
41
1
10
37.9665867623319
20
3.0340421075698
30
0
41
1
10
37.3873803020873
20
3.03168155665028
30
0
41
1
10
36.795925313112
20
3.03219488448173
30
0
41
1
10
36.2216104005519
20
3.02791027962451
30
0
41
1
10
35.8230522326638
20
3.02649645984317
30
0
41
1
10
35.6502622258656
20
3.02612715665478
30
0
0
SPLINE
5
ED
100
AcDbEntity
8
1
62
256
6
ByLayer
370
18
48
1
60
0
100
AcDbSpline
70
4
71
2
72
6
73
3
40
0
40
0
40
0
40
1
40
1
40
1
41
1
10
33.29630977839
20
-0.0646393087746731
30
0
41
1
10
32.8066608082303
20
0.0380733847200645
30
0
41
1
10
32.2912421787183
20
0.264573167219595
30
0
0
LINE
5
7B
100
AcDbEntity
8
SK1
62
256
6
ByLayer
370
18
48
1
60
0
100
AcDbLine
10
0
20
-4
30
0
11
0
21
4
31
0
39
0
210
0
220
0
230
1
0
LINE
5
7D
100
AcDbEntity
8
SK1
62
256
6
ByLayer
370
18
48
1
60
0
100
AcDbLine
10
-36
20
2
30
0
11
-36
21
-2
31
0
39
0
210
0
220
0
230
1
0
LINE
5
7E
100
AcDbEntity
8
SK1
62
256
6
ByLayer
370
18
48
1
60
0
100
AcDbLine
10
-34.845299
20
4
30
0
11
-34.845299
21
-4
31
0
39
0
210
0
220
0
230
1
0
LINE
5
7F
100
AcDbEntity
8
1
62
256
6
ByLayer
370
18
48
1
60
0
100
AcDbLine
10
54.436663
20
-0.940517
30
0
11
54.442136
21
-0.904739
31
0
39
0
210
0
220
0
230
1
0
LINE
5
80
100
AcDbEntity
8
1
62
256
6
ByLayer
370
13
48
1
60
0
100
AcDbLine
10
0.761341
20
3.527969
30
0
11
0.761341
21
-3.527969
31
0
39
0
210
0
220
0
230
1
0
LINE
5
81
100
AcDbEntity
8
1
62
256
6
ByLayer
370
13
48
1
60
0
100
AcDbLine
10
1.524211
20
3.055939
30
0
11
1.524211
21
-3.055939
31
0
39
0
210
0
220
0
230
1
0
LINE
5
82
100
AcDbEntity
8
1
62
256
6
ByLayer
370
18
48
1
60
0
100
AcDbLine
10
53.480523
20
-1.708132
30
0
11
54.436663
21
-0.940517
31
0
39
0
210
0
220
0
230
1
0
LINE
5
83
100
AcDbEntity
8
1
62
256
6
ByLayer
370
18
48
1
60
0
100
AcDbLine
10
0
20
-4
30
0
11
0
21
4
31
0
39
0
210
0
220
0
230
1
0
LINE
5
84
100
AcDbEntity
8
80
62
256
6
ByLayer
370
18
48
1
60
0
100
AcDbLine
10
0
20
0
30
0
11
-5
21
0
31
0
39
0
210
0
220
0
230
1
0
LINE
5
85
100
AcDbEntity
8
4
62
256
6
ByLayer
370
18
48
0.05
60
0
100
AcDbLine
10
55
20
0
30
0
11
0
21
0
31
0
39
0
210
0
220
0
230
1
0
LINE
5
87
100
AcDbEntity
8
SK4
62
256
6
ByLayer
370
18
48
0.05
60
0
100
AcDbLine
10
60
20
0
30
0
11
-41
21
0
31
0
39
0
210
0
220
0
230
1
0
LINE
5
89
100
AcDbEntity
8
1
62
256
6
ByLayer
370
18
48
1
60
0
100
AcDbLine
10
33.131863
20
-3.112833
30
0
11
34.011436
21
-3.114416
31
0
39
0
210
0
220
0
230
1
0
LINE
5
8A
100
AcDbEntity
8
1
62
256
6
ByLayer
370
18
48
1
60
0
100
AcDbLine
10
34.011436
20
3.114416
30
0
11
33.131863
21
3.112833
31
0
39
0
210
0
220
0
230
1
0
LINE
5
8B
100
AcDbEntity
8
SK1
62
256
6
ByLayer
370
18
48
1
60
0
100
AcDbLine
10
-36
20
-2
30
0
11
-34.845299
21
-4
31
0
39
0
210
0
220
0
230
1
0
LINE
5
8C
100
AcDbEntity
8
SK1
62
256
6
ByLayer
370
18
48
1
60
0
100
AcDbLine
10
-34.845299
20
4
30
0
11
-36
21
2
31
0
39
0
210
0
220
0
230
1
0
LINE
5
8D
100
AcDbEntity
8
SK1
62
256
6
ByLayer
370
18
48
1
60
0
100
AcDbLine
10
-34.845299
20
-4
30
0
11
0
21
-4
31
0
39
0
210
0
220
0
230
1
0
LINE
5
8E
100
AcDbEntity
8
SK1
62
256
6
ByLayer
370
18
48
1
60
0
100
AcDbLine
10
0
20
4
30
0
11
-34.845299
21
4
31
0
39
0
210
0
220
0
230
1
0
LINE
5
8F
100
AcDbEntity
8
1
62
256
6
ByLayer
370
18
48
1
60
0
100
AcDbLine
10
1.524211
20
-3.055939
30
0
11
3.900482
21
-3.060216
31
0
39
0
210
0
220
0
230
1
0
LINE
5
90
100
AcDbEntity
8
1
62
256
6
ByLayer
370
18
48
1
60
0
100
AcDbLine
10
11.313298
20
-3.073559
30
0
11
12.261925
21
-3.075267
31
0
39
0
210
0
220
0
230
1
0
LINE
5
91
100
AcDbEntity
8
1
62
256
6
ByLayer
370
18
48
1
60
0
100
AcDbLine
10
12.261925
20
3.075267
30
0
11
11.313298
21
3.073559
31
0
39
0
210
0
220
0
230
1
0
LINE
5
92
100
AcDbEntity
8
1
62
256
6
ByLayer
370
18
48
1
60
0
100
AcDbLine
10
3.900482
20
3.060216
30
0
11
1.524211
21
3.055939
31
0
39
0
210
0
220
0
230
1
0
LINE
5
93
100
AcDbEntity
8
81
62
256
6
ByLayer
370
18
48
1
60
0
100
AcDbLine
10
55
20
0
30
0
11
60
21
0
31
0
39
0
210
0
220
0
230
1
0
LINE
5
94
100
AcDbEntity
8
SK2
62
256
6
ByLayer
370
13
48
1
60
0
100
AcDbLine
10
-44.625163
20
-4
30
0
11
-44.625163
21
33.117107
31
0
39
0
210
0
220
0
230
1
0
LINE
5
96
100
AcDbEntity
8
SK2
62
256
6
ByLayer
370
13
48
1
60
0
100
AcDbLine
10
-37.5875
20
4
30
0
11
-46.625163
21
4
31
0
39
0
210
0
220
0
230
1
0
LINE
5
97
100
AcDbEntity
8
SK2
62
256
6
ByLayer
370
13
48
1
60
0
100
AcDbLine
10
-37.5875
20
-4
30
0
11
-46.625163
21
-4
31
0
39
0
210
0
220
0
230
1
0
LINE
5
98
100
AcDbEntity
8
1
62
256
6
ByLayer
370
18
48
1
60
1
100
AcDbLine
10
-44.625163
20
4
30
0
11
-44.164379
21
0.500002
31
0
39
0
210
0
220
0
230
1
0
LINE
5
99
100
AcDbEntity
8
1
62
256
6
ByLayer
370
18
48
1
60
1
100
AcDbLine
10
-44.164379
20
0.500002
30
0
11
-45.085946
21
0.499998
31
0
39
0
210
0
220
0
230
1
0
LINE
5
9A
100
AcDbEntity
8
1
62
256
6
ByLayer
370
18
48
1
60
1
100
AcDbLine
10
-45.085946
20
0.499998
30
0
11
-44.625163
21
4
31
0
39
0
210
0
220
0
230
1
0
LINE
5
9B
100
AcDbEntity
8
1
62
256
6
ByLayer
370
18
48
1
60
1
100
AcDbLine
10
-44.625163
20
-4
30
0
11
-45.085946
21
-0.500002
31
0
39
0
210
0
220
0
230
1
0
LINE
5
9C
100
AcDbEntity
8
1
62
256
6
ByLayer
370
18
48
1
60
1
100
AcDbLine
10
-45.085946
20
-0.500002
30
0
11
-44.164379
21
-0.499998
31
0
39
0
210
0
220
0
230
1
0
LINE
5
9D
100
AcDbEntity
8
1
62
256
6
ByLayer
370
18
48
1
60
1
100
AcDbLine
10
-44.164379
20
-0.499998
30
0
11
-44.625163
21
-4
31
0
39
0
210
0
220
0
230
1
0
LINE
5
9E
100
AcDbEntity
8
2
62
256
6
ByLayer
370
13
48
1
60
0
100
AcDbLine
10
67.083343
20
30.860193
30
0
11
67.083343
21
-11.9
31
0
39
0
210
0
220
0
230
1
0
LINE
5
A0
100
AcDbEntity
8
2
62
256
6
ByLayer
370
13
48
1
60
0
100
AcDbLine
10
55.3678
20
3.15
30
0
11
69.083343
21
3.15
31
0
39
0
210
0
220
0
230
1
0
LINE
5
A1
100
AcDbEntity
8
2
62
256
6
ByLayer
370
13
48
1
60
0
100
AcDbLine
10
55.3678
20
-3.15
30
0
11
69.083343
21
-3.15
31
0
39
0
210
0
220
0
230
1
0
LINE
5
A2
100
AcDbEntity
8
1
62
256
6
ByLayer
370
18
48
1
60
1
100
AcDbLine
10
67.083343
20
3.15
30
0
11
66.622559
21
6.649998
31
0
39
0
210
0
220
0
230
1
0
LINE
5
A3
100
AcDbEntity
8
1
62
256
6
ByLayer
370
18
48
1
60
1
100
AcDbLine
10
66.622559
20
6.649998
30
0
11
67.544126
21
6.650002
31
0
39
0
210
0
220
0
230
1
0
LINE
5
A4
100
AcDbEntity
8
1
62
256
6
ByLayer
370
18
48
1
60
1
100
AcDbLine
10
67.544126
20
6.650002
30
0
11
67.083343
21
3.15
31
0
39
0
210
0
220
0
230
1
0
LINE
5
A5
100
AcDbEntity
8
1
62
256
6
ByLayer
370
18
48
1
60
1
100
AcDbLine
10
67.083343
20
-3.15
30
0
11
67.544126
21
-6.649998
31
0
39
0
210
0
220
0
230
1
0
LINE
5
A6
100
AcDbEntity
8
1
62
256
6
ByLayer
370
18
48
1
60
1
100
AcDbLine
10
67.544126
20
-6.649998
30
0
11
66.622559
21
-6.650002
31
0
39
0
210
0
220
0
230
1
0
LINE
5
A7
100
AcDbEntity
8
1
62
256
6
ByLayer
370
18
48
1
60
1
100
AcDbLine
10
66.622559
20
-6.650002
30
0
11
67.083343
21
-3.15
31
0
39
0
210
0
220
0
230
1
0
LINE
5
F4
100
AcDbEntity
8
1
62
256
6
ByLayer
370
18
48
1
60
1
100
AcDbLine
10
-44.625163
20
4
30
0
11
-44.164379
21
0.500002
31
0
39
0
210
0
220
0
230
1
0
LINE
5
F5
100
AcDbEntity
8
1
62
256
6
ByLayer
370
18
48
1
60
1
100
AcDbLine
10
-44.164379
20
0.500002
30
0
11
-45.085946
21
0.499998
31
0
39
0
210
0
220
0
230
1
0
LINE
5
F6
100
AcDbEntity
8
1
62
256
6
ByLayer
370
18
48
1
60
1
100
AcDbLine
10
-45.085946
20
0.499998
30
0
11
-44.625163
21
4
31
0
39
0
210
0
220
0
230
1
0
LINE
5
F8
100
AcDbEntity
8
1
62
256
6
ByLayer
370
18
48
1
60
1
100
AcDbLine
10
-44.625163
20
-4
30
0
11
-45.085946
21
-0.500002
31
0
39
0
210
0
220
0
230
1
0
LINE
5
F9
100
AcDbEntity
8
1
62
256
6
ByLayer
370
18
48
1
60
1
100
AcDbLine
10
-45.085946
20
-0.500002
30
0
11
-44.164379
21
-0.499998
31
0
39
0
210
0
220
0
230
1
0
LINE
5
FA
100
AcDbEntity
8
1
62
256
6
ByLayer
370
18
48
1
60
1
100
AcDbLine
10
-44.164379
20
-0.499998
30
0
11
-44.625163
21
-4
31
0
39
0
210
0
220
0
230
1
0
LINE
5
FE
100
AcDbEntity
8
1
62
256
6
ByLayer
370
18
48
1
60
1
100
AcDbLine
10
67.083343
20
3.15
30
0
11
66.622559
21
6.649998
31
0
39
0
210
0
220
0
230
1
0
LINE
5
FF
100
AcDbEntity
8
1
62
256
6
ByLayer
370
18
48
1
60
1
100
AcDbLine
10
66.622559
20
6.649998
30
0
11
67.544126
21
6.650002
31
0
39
0
210
0
220
0
230
1
0
LINE
5
100
100
AcDbEntity
8
1
62
256
6
ByLayer
370
18
48
1
60
1
100
AcDbLine
10
67.544126
20
6.650002
30
0
11
67.083343
21
3.15
31
0
39
0
210
0
220
0
230
1
0
LINE
5
102
100
AcDbEntity
8
1
62
256
6
ByLayer
370
18
48
1
60
1
100
AcDbLine
10
67.083343
20
-3.15
30
0
11
67.544126
21
-6.649998
31
0
39
0
210
0
220
0
230
1
0
LINE
5
103
100
AcDbEntity
8
1
62
256
6
ByLayer
370
18
48
1
60
1
100
AcDbLine
10
67.544126
20
-6.649998
30
0
11
66.622559
21
-6.650002
31
0
39
0
210
0
220
0
230
1
0
LINE
5
104
100
AcDbEntity
8
1
62
256
6
ByLayer
370
18
48
1
60
1
100
AcDbLine
10
66.622559
20
-6.650002
30
0
11
67.083343
21
-3.15
31
0
39
0
210
0
220
0
230
1
0
MTEXT
5
EE
100
AcDbEntity
8
SK6
62
256
6
ByLayer
370
13
48
1
60
0
100
AcDbMText
10
-18.793293
20
35.690328
30
0
210
0
220
0
230
1
1
\W0.7433;860.1-0630-040A1-PM P1BM
40
3.5
41
0
44
1.084337
50
0
71
7
72
5
7
iso_b_vert
0
MTEXT
5
F2
100
AcDbEntity
8
SK2
62
256
6
ByLayer
370
18
48
1
60
0
100
AcDbMText
10
-46.189796
20
17.409024
30
0
210
0
220
0
230
1
1
%%c
40
3.5
41
0
44
1.084337
50
90
71
7
72
5
7
iso_b_vert
0
MTEXT
5
F3
100
AcDbEntity
8
SK2
62
256
6
ByLayer
370
18
48
1
60
0
100
AcDbMText
10
-46.189796
20
22.63168
30
0
210
0
220
0
230
1
1
\W0.7317;8,000
40
3.5
41
0
44
1.084337
50
90
71
7
72
5
7
iso_b_vert
0
MTEXT
5
FC
100
AcDbEntity
8
2
62
256
6
ByLayer
370
18
48
1
60
0
100
AcDbMText
10
65.518709
20
15.15211
30
0
210
0
220
0
230
1
1
%%c
40
3.5
41
0
44
1.084337
50
90
71
7
72
5
7
iso_b_vert
0
MTEXT
5
FD
100
AcDbEntity
8
2
62
256
6
ByLayer
370
18
48
1
60
0
100
AcDbMText
10
65.518709
20
20.374766
30
0
210
0
220
0
230
1
1
\W0.7317;6,300
40
3.5
41
0
44
1.084337
50
90
71
7
72
5
7
iso_b_vert
0
HATCH
5
F7
100
AcDbEntity
8
SK2
62
256
6
ByLayer
370
13
48
1
60
0
100
AcDbHatch
10
0
20
0
30
0
210
0
220
0
230
1
2
ANSI31
70
0
71
0
91
1
92
5
93
3
72
1
10
-44.6251625675374
20
4
11
-44.1643788259847
21
0.500001692553184
72
1
10
-44.1643788259847
20
0.500001692553184
11
-45.0859463090902
21
0.499998307446816
72
1
10
-45.0859463090902
20
0.499998307446816
11
-44.6251625675374
21
4
97
0
75
0
76
1
52
0
41
0.0062
77
0
78
1
53
45
43
0
44
0
45
-0.0139193969876572
46
0.0139193969876572
79
0
47
0
98
1
10
0
20
0
0
HATCH
5
FB
100
AcDbEntity
8
SK2
62
256
6
ByLayer
370
13
48
1
60
0
100
AcDbHatch
10
0
20
0
30
0
210
0
220
0
230
1
2
ANSI31
70
0
71
0
91
1
92
5
93
3
72
1
10
-44.6251625675374
20
-4
11
-45.0859463090902
21
-0.500001692553184
72
1
10
-45.0859463090902
20
-0.500001692553184
11
-44.1643788259847
21
-0.499998307446816
72
1
10
-44.1643788259847
20
-0.499998307446816
11
-44.6251625675374
21
-4
97
0
75
0
76
1
52
0
41
0.0062
77
0
78
1
53
45
43
0
44
0
45
-0.0139193969876572
46
0.0139193969876572
79
0
47
0
98
1
10
0
20
0
0
HATCH
5
101
100
AcDbEntity
8
2
62
256
6
ByLayer
370
13
48
1
60
0
100
AcDbHatch
10
0
20
0
30
0
210
0
220
0
230
1
2
ANSI31
70
0
71
0
91
1
92
5
93
3
72
1
10
67.083342615295
20
3.15000000000001
11
66.6225588737423
21
6.64999830744682
72
1
10
66.6225588737423
20
6.64999830744682
11
67.5441263568478
21
6.65000169255319
72
1
10
67.5441263568478
20
6.65000169255319
11
67.083342615295
21
3.15000000000001
97
0
75
0
76
1
52
0
41
0.0062
77
0
78
1
53
45
43
0
44
0
45
-0.0139193969876572
46
0.0139193969876572
79
0
47
0
98
1
10
0
20
0
0
HATCH
5
105
100
AcDbEntity
8
2
62
256
6
ByLayer
370
13
48
1
60
0
100
AcDbHatch
10
0
20
0
30
0
210
0
220
0
230
1
2
ANSI31
70
0
71
0
91
1
92
5
93
3
72
1
10
67.083342615295
20
-3.14999999999998
11
67.5441263568478
21
-6.64999830744679
72
1
10
67.5441263568478
20
-6.64999830744679
11
66.6225588737423
21
-6.65000169255316
72
1
10
66.6225588737423
20
-6.65000169255316
11
67.083342615295
21
-3.14999999999998
97
0
75
0
76
1
52
0
41
0.0062
77
0
78
1
53
45
43
0
44
0
45
-0.0139193969876572
46
0.0139193969876572
79
0
47
0
98
1
10
0
20
0
0
DIMENSION
5
107
100
AcDbEntity
8
2
62
256
6
ByLayer
370
13
48
1
60
0
100
AcDbDimension
2
_U0
10
53.7803
20
-13.363398
30
0
11
26.89015
21
-13.363398
31
0
70
32
71
1
72
1
41
1
210
0
220
0
230
1
3
Standard
100
AcDbAlignedDimension
13
0
23
0
33
0
14
53.7803
24
-3.15
34
0
50
0
100
AcDbRotatedDimension
1001
ACAD
1000
DSTYLE
1002
{
1070
   371
1070
    13
1070
   372
1070
    13
1070
   170
1070
     0
1070
   144
1040
1.0
1070
   277
1070
     2
1070
   278
1070
    44
1070
   146
1040
1.0
1070
   345
1005
16
1070
   347
1005
16
1070
   346
1005
16
1070
   344
1005
0
1070
   343
1005
0
1070
   172
1070
     1
1070
    76
1070
     0
1070
    75
1070
     0
1070
   282
1070
     0
1070
   281
1070
     0
1070
    71
1070
     0
1070
    74
1070
     0
1070
   279
1070
     0
1070
   173
1070
     1
1070
   340
1005
EF
1070
   271
1070
     2
1070
   272
1070
     2
1070
    77
1070
     1
1070
    73
1070
     1
1070
   171
1070
     3
1070
   274
1070
     4
1070
   177
1070
    35
1070
   176
1070
    35
1070
   178
1070
    35
1070
    48
1040
-0.1
1070
    41
1040
3.5
1070
   147
1040
1.75
1070
    42
1040
1.5875
1070
    44
1040
2.0
1070
   140
1040
3.5
1002
}
1001
ACAD_DSTYLE_DIM_LINETYPE
1070
   380
1005
16
1001
ACAD_DSTYLE_DIM_EXT1_LINETYPE
1070
   381
1005
16
1001
ACAD_DSTYLE_DIM_EXT2_LINETYPE
1070
   382
1005
16
0
DIMENSION
5
120
100
AcDbEntity
8
SK2
62
256
6
ByLayer
370
13
48
1
60
0
100
AcDbDimension
2
_U1
10
55
20
-32.692985
30
0
11
9.5
21
-32.692985
31
0
70
32
71
1
72
1
41
1
210
0
220
0
230
1
3
Standard
100
AcDbAlignedDimension
13
-36
23
-4
33
0
14
55
24
0
34
0
50
0
100
AcDbRotatedDimension
1001
ACAD
1000
DSTYLE
1002
{
1070
   371
1070
    13
1070
   372
1070
    13
1070
   170
1070
     0
1070
   144
1040
1.0
1070
   277
1070
     2
1070
   278
1070
    44
1070
   146
1040
1.0
1070
   345
1005
16
1070
   347
1005
16
1070
   346
1005
16
1070
   344
1005
0
1070
   343
1005
0
1070
   172
1070
     1
1070
    76
1070
     0
1070
    75
1070
     0
1070
   282
1070
     0
1070
   281
1070
     0
1070
    71
1070
     0
1070
    74
1070
     0
1070
   279
1070
     0
1070
   173
1070
     1
1070
   340
1005
EF
1070
   271
1070
     2
1070
   272
1070
     2
1070
    77
1070
     1
1070
    73
1070
     1
1070
   171
1070
     3
1070
   274
1070
     4
1070
   177
1070
    35
1070
   176
1070
    35
1070
   178
1070
    35
1070
    48
1040
-0.1
1070
    41
1040
3.5
1070
   147
1040
1.75
1070
    42
1040
1.5875
1070
    44
1040
2.0
1070
   140
1040
3.5
1002
}
1001
ACAD_DSTYLE_DIM_LINETYPE
1070
   380
1005
16
1001
ACAD_DSTYLE_DIM_EXT1_LINETYPE
1070
   381
1005
16
1001
ACAD_DSTYLE_DIM_EXT2_LINETYPE
1070
   382
1005
16
0
DIMENSION
5
138
100
AcDbEntity
8
SK2
62
256
6
ByLayer
370
13
48
1
60
0
100
AcDbDimension
2
_U2
10
55
20
14.759119
30
0
11
38.64
21
14.759119
31
0
70
32
71
1
72
1
41
1
210
0
220
0
230
1
3
Standard
100
AcDbAlignedDimension
13
22.28
23
3.15
33
0
14
55
24
0
34
0
50
0
100
AcDbRotatedDimension
1001
ACAD
1000
DSTYLE
1002
{
1070
   371
1070
    13
1070
   372
1070
    13
1070
   170
1070
     0
1070
   144
1040
1.0
1070
   277
1070
     2
1070
   278
1070
    44
1070
   146
1040
1.0
1070
   345
1005
16
1070
   347
1005
16
1070
   346
1005
16
1070
   344
1005
0
1070
   343
1005
0
1070
   172
1070
     1
1070
    76
1070
     0
1070
    75
1070
     0
1070
   282
1070
     0
1070
   281
1070
     0
1070
    71
1070
     0
1070
    74
1070
     0
1070
   279
1070
     0
1070
   173
1070
     1
1070
   340
1005
EF
1070
   271
1070
     2
1070
   272
1070
     2
1070
    77
1070
     1
1070
    73
1070
     1
1070
   171
1070
     3
1070
   274
1070
     4
1070
   177
1070
    35
1070
   176
1070
    35
1070
   178
1070
    35
1070
    48
1040
-0.1
1070
    41
1040
3.5
1070
   147
1040
1.75
1070
    42
1040
1.5875
1070
    44
1040
2.0
1070
   140
1040
3.5
1002
}
1001
ACAD_DSTYLE_DIM_LINETYPE
1070
   380
1005
16
1001
ACAD_DSTYLE_DIM_EXT1_LINETYPE
1070
   381
1005
16
1001
ACAD_DSTYLE_DIM_EXT2_LINETYPE
1070
   382
1005
16
0
DIMENSION
5
150
100
AcDbEntity
8
SK2
62
256
6
ByLayer
370
13
48
1
60
0
100
AcDbDimension
2
_U3
10
53.7803
20
-15.952503
30
0
11
72.333333
21
-15.952503
31
0
70
32
71
1
72
1
41
1
210
0
220
0
230
1
3
Standard
100
AcDbAlignedDimension
13
55
23
0
33
0
14
53.7803
24
-3.15
34
0
50
0
100
AcDbRotatedDimension
1001
ACAD
1000
DSTYLE
1002
{
1070
   371
1070
    13
1070
   372
1070
    13
1070
   170
1070
     0
1070
   144
1040
1.0
1070
   277
1070
     2
1070
   278
1070
    44
1070
   146
1040
1.0
1070
   345
1005
16
1070
   347
1005
16
1070
   346
1005
16
1070
   344
1005
0
1070
   343
1005
0
1070
   172
1070
     1
1070
    76
1070
     0
1070
    75
1070
     0
1070
   282
1070
     0
1070
   281
1070
     0
1070
    71
1070
     0
1070
    74
1070
     0
1070
   279
1070
     0
1070
   173
1070
     1
1070
   340
1005
EF
1070
   271
1070
     2
1070
   272
1070
     2
1070
    77
1070
     1
1070
    73
1070
     1
1070
   171
1070
     3
1070
   274
1070
     4
1070
   177
1070
    35
1070
   176
1070
    35
1070
   178
1070
    35
1070
    48
1040
-0.1
1070
    41
1040
3.5
1070
   147
1040
1.75
1070
    42
1040
1.5875
1070
    44
1040
2.0
1070
   140
1040
3.5
1002
}
1001
ACAD_DSTYLE_DIM_LINETYPE
1070
   380
1005
16
1001
ACAD_DSTYLE_DIM_EXT1_LINETYPE
1070
   381
1005
16
1001
ACAD_DSTYLE_DIM_EXT2_LINETYPE
1070
   382
1005
16
0
DIMENSION
5
16A
100
AcDbEntity
8
SK2
62
256
6
ByLayer
370
13
48
1
60
0
100
AcDbDimension
2
_U4
10
53.7803
20
-22.343428
30
0
11
8.89015
21
-22.343428
31
0
70
32
71
1
72
1
41
1
210
0
220
0
230
1
3
Standard
100
AcDbAlignedDimension
13
-36
23
-4
33
0
14
53.7803
24
-3.15
34
0
50
0
100
AcDbRotatedDimension
1001
ACAD
1000
DSTYLE
1002
{
1070
   371
1070
    13
1070
   372
1070
    13
1070
   170
1070
     0
1070
   144
1040
1.0
1070
   277
1070
     2
1070
   278
1070
    44
1070
   146
1040
1.0
1070
   345
1005
16
1070
   347
1005
16
1070
   346
1005
16
1070
   344
1005
0
1070
   343
1005
0
1070
   172
1070
     1
1070
    76
1070
     0
1070
    75
1070
     0
1070
   282
1070
     0
1070
   281
1070
     0
1070
    71
1070
     0
1070
    74
1070
     0
1070
   279
1070
     0
1070
   173
1070
     1
1070
   340
1005
EF
1070
   271
1070
     2
1070
   272
1070
     2
1070
    77
1070
     1
1070
    73
1070
     1
1070
   171
1070
     3
1070
   274
1070
     4
1070
   177
1070
    35
1070
   176
1070
    35
1070
   178
1070
    35
1070
    48
1040
-0.1
1070
    41
1040
3.5
1070
   147
1040
1.75
1070
    42
1040
1.5875
1070
    44
1040
2.0
1070
   140
1040
3.5
1002
}
1001
ACAD_DSTYLE_DIM_LINETYPE
1070
   380
1005
16
1001
ACAD_DSTYLE_DIM_EXT1_LINETYPE
1070
   381
1005
16
1001
ACAD_DSTYLE_DIM_EXT2_LINETYPE
1070
   382
1005
16
0
ENDSEC
0
SECTION
2
OBJECTS
0
DICTIONARY
5
1f2
330
0
100
AcDbDictionary
280
0
281
1
3
ACAD_GROUP
350
1f3
3
ACAD_MLINESTYLE
350
1f4
0
DICTIONARY
5
1f3
330
0
100
AcDbDictionary
280
0
281
1
0
DICTIONARY
5
1f4
330
0
100
AcDbDictionary
280
0
281
1
3
Standard
350
18
0
MLINESTYLE
5
18
330
1f4
100
AcDbMlineStyle
2
Standard
70
0
3

62
256
51
90
52
90
71
2
49
-0.5
62
256
6
ByLayer
49
0.5
62
256
6
ByLayer
0
RASTERVARIABLES
5
1e0
330

100
AcDbRasterVariables
90
0
70
1
71
1
72
1
0
ENDSEC
0
EOF
