0
SECTION
2
HEADER
9
$ACADVER
1
AC1015
9
$DWGCODEPAGE
3
ANSI_1252
9
$HANDSEED
5
203
9
$ANGBASE
50
0
9
$ANGDIR
70
0
9
$ATTMODE
70
1
9
$AUNITS
70
0
9
$AUPREC
70
0
9
$CECOLOR
62
256
9
$CELTSCALE
40
1
9
$CELTYPE
6
ByLayer
9
$CELWEIGHT
370
18
9
$CLAYER
8
0
9
$CMLJUST
70
0
9
$CMLSCALE
40
1
9
$CMLSTYLE
2
Standard
9
$DIMSTYLE
2
Standard
9
$TEXTSIZE
40
0.2
9
$TEXTSTYLE
7
Standard
9
$LUNITS
70
2
9
$LUPREC
70
4
9
$EXTNAMES
290
1
9
$INSUNITS
70
4
9
$LTSCALE
40
1
9
$LWDISPLAY
290
1
9
$PDMODE
70
0
9
$PDSIZE
40
0
9
$PLINEGEN
70
0
0
ENDSEC
0
SECTION
2
CLASSES
0
CLASS
1
RASTERVARIABLES
2
AcDbRasterVariables
3
ISM
90
0
280
0
281
0
0
ENDSEC
0
SECTION
2
TABLES
0
TABLE
2
VPORT
5
1f9
100
AcDbSymbolTable
0
VPORT
5
1
100
AcDbSymbolTableRecord
100
AcDbViewportTableRecord
2
*Active
70
0
10
0
20
0
11
1
21
1
12
-1
22
1
13
0
23
0
14
0.5
24
0.5
15
10
25
10
16
0
26
0
36
1
17
0
27
0
37
0
0
ENDTAB
0
TABLE
2
LTYPE
5
1fa
100
AcDbSymbolTable
0
LTYPE
5
14
100
AcDbSymbolTableRecord
100
AcDbLinetypeTableRecord
70
0
2
ByBlock
3

72
65
73
0
40
0
0
LTYPE
5
15
100
AcDbSymbolTableRecord
100
AcDbLinetypeTableRecord
70
0
2
ByLayer
3

72
65
73
0
40
0
0
LTYPE
5
16
100
AcDbSymbolTableRecord
100
AcDbLinetypeTableRecord
70
0
2
Continuous
3
Solid line
72
65
73
0
40
0
0
LTYPE
5
6E
100
AcDbSymbolTableRecord
100
AcDbLinetypeTableRecord
70
0
2
CENTER
3
____ _ ____ _ ____ _ ____
72
65
73
4
40
47.5
49
22
74
0
49
-8.5
74
0
49
8.5
74
0
49
-8.5
74
0
0
LTYPE
5
6F
100
AcDbSymbolTableRecord
100
AcDbLinetypeTableRecord
70
0
2
DASHED
3
__ __ __ __ __ __ __ __ __
72
65
73
2
40
25.72
49
12.86
74
0
49
-12.86
74
0
0
ENDTAB
0
TABLE
2
LAYER
5
1fb
100
AcDbSymbolTable
0
LAYER
5
10
100
AcDbSymbolTableRecord
100
AcDbLayerTableRecord
2
0
70
0
62
7
6
Continuous
290
1
370
-3
390
0
0
LAYER
5
71
100
AcDbSymbolTableRecord
100
AcDbLayerTableRecord
2
80
70
0
62
-6
6
Continuous
290
1
370
-3
390
0
0
LAYER
5
73
100
AcDbSymbolTableRecord
100
AcDbLayerTableRecord
2
81
70
0
62
-3
6
Continuous
290
1
370
-3
390
0
0
LAYER
5
75
100
AcDbSymbolTableRecord
100
AcDbLayerTableRecord
2
1
70
0
62
4
6
Continuous
290
1
370
-3
390
0
0
LAYER
5
85
100
AcDbSymbolTableRecord
100
AcDbLayerTableRecord
2
4
70
0
62
-2
6
CENTER
290
1
370
-3
390
0
0
LAYER
5
9E
100
AcDbSymbolTableRecord
100
AcDbLayerTableRecord
2
2
70
0
62
7
6
Continuous
290
1
370
-3
390
0
0
LAYER
5
10E
100
AcDbSymbolTableRecord
100
AcDbLayerTableRecord
2
Defpoints
70
0
62
7
6
Continuous
290
0
370
-3
390
0
0
LAYER
5
1e5
100
AcDbSymbolTableRecord
100
AcDbLayerTableRecord
2
SK1
70
0
62
4
6
Continuous
290
1
370
-3
390
0
0
LAYER
5
1e6
100
AcDbSymbolTableRecord
100
AcDbLayerTableRecord
2
SK4
70
0
62
2
6
CENTER
290
1
370
-3
390
0
0
LAYER
5
1e7
100
AcDbSymbolTableRecord
100
AcDbLayerTableRecord
2
SK2
70
0
62
7
6
Continuous
290
1
370
-3
390
0
0
LAYER
5
1e8
100
AcDbSymbolTableRecord
100
AcDbLayerTableRecord
2
SK6
70
0
62
5
6
Continuous
290
1
370
-3
390
0
0
ENDTAB
0
TABLE
2
STYLE
5
1fc
100
AcDbSymbolTable
0
STYLE
5
11
100
AcDbSymbolTableRecord
100
AcDbTextStyleTableRecord
2
Standard
3
txt
70
0
71
0
40
0
41
1
42
0
50
0
0
STYLE
5
F3
100
AcDbSymbolTableRecord
100
AcDbTextStyleTableRecord
2
iso_b_vert
3
simplex.shx
70
0
71
0
40
0
41
1
42
0
50
0
0
STYLE
5
F4
100
AcDbSymbolTableRecord
100
AcDbTextStyleTableRecord
2
DWGDirectTextStyle
3
simplex
70
0
71
0
40
0
41
1
42
0
50
0
0
ENDTAB
0
TABLE
2
DIMSTYLE
5
1fd
100
AcDbSymbolTable
100
AcDbDimStyleTable
0
DIMSTYLE
105
27
100
AcDbSymbolTableRecord
100
AcDbDimStyleTableRecord
2
Standard
70
0
3
<>
41
0.18
42
0.0625
44
0.18
140
0.18
147
0.09
73
0
74
0
77
1
271
2
275
0
278
52
280
0
340
11
0
ENDTAB
0
TABLE
2
VIEW
5
1fe
100
AcDbSymbolTable
0
ENDTAB
0
TABLE
2
UCS
5
1ff
100
AcDbSymbolTable
0
ENDTAB
0
TABLE
2
APPID
5
200
100
AcDbSymbolTable
0
APPID
5
12
100
AcDbSymbolTableRecord
100
AcDbRegAppTableRecord
2
ACAD
70
0
0
APPID
5
10A
100
AcDbSymbolTableRecord
100
AcDbRegAppTableRecord
2
ACAD_DSTYLE_DIMBREAK
70
0
0
APPID
5
1A4
100
AcDbSymbolTableRecord
100
AcDbRegAppTableRecord
2
ACAD_DSTYLE_DIM_LINETYPE
70
0
0
APPID
5
1A5
100
AcDbSymbolTableRecord
100
AcDbRegAppTableRecord
2
ACAD_DSTYLE_DIM_EXT1_LINETYPE
70
0
0
APPID
5
1A6
100
AcDbSymbolTableRecord
100
AcDbRegAppTableRecord
2
ACAD_DSTYLE_DIM_EXT2_LINETYPE
70
0
0
APPID
5
1E1
100
AcDbSymbolTableRecord
100
AcDbRegAppTableRecord
2
ACAD_MLEADERVER
70
0
0
ENDTAB
0
TABLE
2
BLOCK_RECORD
5
201
100
AcDbSymbolTable
0
BLOCK_RECORD
5
1F
100
AcDbSymbolTableRecord
100
AcDbBlockTableRecord
2
*Model_Space
340
0
70
0
0
BLOCK_RECORD
5
1B
100
AcDbSymbolTableRecord
100
AcDbBlockTableRecord
2
*Paper_Space
340
0
70
0
0
BLOCK_RECORD
5
23
100
AcDbSymbolTableRecord
100
AcDbBlockTableRecord
2
*Paper_Space0
340
0
70
0
0
BLOCK_RECORD
5
10F
100
AcDbSymbolTableRecord
100
AcDbBlockTableRecord
2
*D1
340
0
70
0
0
BLOCK_RECORD
5
11B
100
AcDbSymbolTableRecord
100
AcDbBlockTableRecord
2
_U0
340
0
70
0
0
BLOCK_RECORD
5
127
100
AcDbSymbolTableRecord
100
AcDbBlockTableRecord
2
*D3
340
0
70
0
0
BLOCK_RECORD
5
133
100
AcDbSymbolTableRecord
100
AcDbBlockTableRecord
2
_U1
340
0
70
0
0
BLOCK_RECORD
5
13F
100
AcDbSymbolTableRecord
100
AcDbBlockTableRecord
2
*D5
340
0
70
0
0
BLOCK_RECORD
5
14B
100
AcDbSymbolTableRecord
100
AcDbBlockTableRecord
2
_U2
340
0
70
0
0
BLOCK_RECORD
5
157
100
AcDbSymbolTableRecord
100
AcDbBlockTableRecord
2
*D7
340
0
70
0
0
BLOCK_RECORD
5
165
100
AcDbSymbolTableRecord
100
AcDbBlockTableRecord
2
_U3
340
0
70
0
0
BLOCK_RECORD
5
171
100
AcDbSymbolTableRecord
100
AcDbBlockTableRecord
2
*D9
340
0
70
0
0
BLOCK_RECORD
5
17D
100
AcDbSymbolTableRecord
100
AcDbBlockTableRecord
2
_U4
340
0
70
0
0
ENDTAB
0
ENDSEC
0
SECTION
2
BLOCKS
0
BLOCK
5
20
100
AcDbEntity
8
0
100
AcDbBlockBegin
2
*Model_Space
70
0
10
0
20
0
30
0
3
*Model_Space
0
ENDBLK
5
21
100
AcDbEntity
8
0
100
AcDbBlockEnd
0
BLOCK
5
1C
100
AcDbEntity
8
0
100
AcDbBlockBegin
2
*Paper_Space
70
0
10
0
20
0
30
0
3
*Paper_Space
0
ENDBLK
5
1D
100
AcDbEntity
8
0
100
AcDbBlockEnd
0
BLOCK
5
24
100
AcDbEntity
8
0
100
AcDbBlockBegin
2
*Paper_Space0
70
0
10
0
20
0
30
0
3
*Paper_Space0
0
ENDBLK
5
25
100
AcDbEntity
8
0
100
AcDbBlockEnd
0
BLOCK
5
110
100
AcDbEntity
8
0
100
AcDbBlockBegin
2
*D1
70
1
10
0
20
0
30
0
3
*D1
0
LINE
5
112
100
AcDbEntity
8
0
62
256
6
ByLayer
370
-2
48
1
60
0
100
AcDbLine
10
0
20
-1.5875
30
0
11
0
21
-15.188398
31
0
39
0
210
0
220
0
230
1
0
LINE
5
113
100
AcDbEntity
8
0
62
256
6
ByLayer
370
-2
48
1
60
0
100
AcDbLine
10
49.8935
20
-4.5625
30
0
11
49.8935
21
-15.188398
31
0
39
0
210
0
220
0
230
1
0
LINE
5
114
100
AcDbEntity
8
0
62
256
6
ByLayer
370
-2
48
1
60
0
100
AcDbLine
10
3.5
20
-13.188398
30
0
11
46.3935
21
-13.188398
31
0
39
0
210
0
220
0
230
1
0
SOLID
5
115
100
AcDbEntity
8
0
62
256
6
ByLayer
370
-1
48
1
60
0
100
AcDbTrace
10
3.5
20
-12.605065
30
0
11
3.5
21
-13.771732
31
0
12
0
22
-13.188398
32
0
13
0
23
-13.188398
33
0
39
0
210
0
220
0
230
1
0
SOLID
5
116
100
AcDbEntity
8
0
62
256
6
ByLayer
370
-1
48
1
60
0
100
AcDbTrace
10
46.3935
20
-13.771732
30
0
11
46.3935
21
-12.605065
31
0
12
49.8935
22
-13.188398
32
0
13
49.8935
23
-13.188398
33
0
39
0
210
0
220
0
230
1
0
MTEXT
5
117
100
AcDbEntity
8
0
62
256
6
ByLayer
370
18
48
1
60
0
100
AcDbMText
10
24.94675
20
-6.188398
30
0
210
0
220
0
230
1
1
\A1;49.89
40
3.5
41
0
44
1
50
0
71
5
72
5
7
iso_b_vert
0
POINT
5
118
100
AcDbEntity
8
Defpoints
62
0
6
ByLayer
370
-1
48
1
60
0
100
AcDbPoint
10
0
20
0
30
0
39
0
210
0
220
0
230
1
50
360
0
POINT
5
119
100
AcDbEntity
8
Defpoints
62
0
6
ByLayer
370
-1
48
1
60
0
100
AcDbPoint
10
49.8935
20
-2.975
30
0
39
0
210
0
220
0
230
1
50
360
0
POINT
5
11A
100
AcDbEntity
8
Defpoints
62
0
6
ByLayer
370
-1
48
1
60
0
100
AcDbPoint
10
49.8935
20
-13.188398
30
0
39
0
210
0
220
0
230
1
50
360
0
ENDBLK
5
111
100
AcDbEntity
8
0
100
AcDbBlockEnd
0
BLOCK
5
122
100
AcDbEntity
8
0
100
AcDbBlockBegin
2
_U0
70
0
10
0
20
0
30
0
3
_U0
0
MTEXT
5
11C
100
AcDbEntity
8
2
62
256
6
ByLayer
370
13
48
1
60
0
100
AcDbMText
10
19.625185
20
-12.155765
30
0
210
0
220
0
230
1
1
\W0.7669;49,89
40
3.5
41
0
44
1.084337
50
0
71
7
72
5
7
iso_b_vert
0
LINE
5
11D
100
AcDbEntity
8
2
62
256
6
ByLayer
370
13
48
1
60
0
100
AcDbLine
10
0
20
-1.5875
30
0
11
0
21
-15.188398
31
0
39
0
210
0
220
0
230
1
0
LINE
5
11E
100
AcDbEntity
8
2
62
256
6
ByLayer
370
13
48
1
60
0
100
AcDbLine
10
49.8935
20
-4.5625
30
0
11
49.8935
21
-15.188398
31
0
39
0
210
0
220
0
230
1
0
LINE
5
11F
100
AcDbEntity
8
2
62
256
6
ByLayer
370
13
48
1
60
0
100
AcDbLine
10
0
20
-13.188398
30
0
11
49.8935
21
-13.188398
31
0
39
0
210
0
220
0
230
1
0
SOLID
5
120
100
AcDbEntity
8
2
62
256
6
ByLayer
370
18
48
1
60
0
100
AcDbTrace
10
0
20
-13.188398
30
0
11
3.499998
21
-12.727615
31
0
12
3.500002
22
-13.649182
32
0
13
3.500002
23
-13.649182
33
0
39
0
210
0
220
0
230
1
0
SOLID
5
121
100
AcDbEntity
8
2
62
256
6
ByLayer
370
18
48
1
60
0
100
AcDbTrace
10
49.8935
20
-13.188398
30
0
11
46.393502
21
-13.649182
31
0
12
46.393498
22
-12.727615
32
0
13
46.393498
23
-12.727615
33
0
39
0
210
0
220
0
230
1
0
ENDBLK
5
123
100
AcDbEntity
8
0
100
AcDbBlockEnd
0
BLOCK
5
128
100
AcDbEntity
8
0
100
AcDbBlockBegin
2
*D3
70
1
10
0
20
0
30
0
3
*D3
0
LINE
5
12A
100
AcDbEntity
8
0
62
256
6
ByLayer
370
-2
48
1
60
0
100
AcDbLine
10
-36
20
-4.5875
30
0
11
-36
21
-33.692985
31
0
39
0
210
0
220
0
230
1
0
LINE
5
12B
100
AcDbEntity
8
0
62
256
6
ByLayer
370
-2
48
1
60
0
100
AcDbLine
10
51
20
-1.5875
30
0
11
51
21
-33.692985
31
0
39
0
210
0
220
0
230
1
0
LINE
5
12C
100
AcDbEntity
8
0
62
256
6
ByLayer
370
-2
48
1
60
0
100
AcDbLine
10
-32.5
20
-31.692985
30
0
11
47.5
21
-31.692985
31
0
39
0
210
0
220
0
230
1
0
SOLID
5
12D
100
AcDbEntity
8
0
62
256
6
ByLayer
370
-1
48
1
60
0
100
AcDbTrace
10
-32.5
20
-31.109652
30
0
11
-32.5
21
-32.276319
31
0
12
-36
22
-31.692985
32
0
13
-36
23
-31.692985
33
0
39
0
210
0
220
0
230
1
0
SOLID
5
12E
100
AcDbEntity
8
0
62
256
6
ByLayer
370
-1
48
1
60
0
100
AcDbTrace
10
47.5
20
-32.276319
30
0
11
47.5
21
-31.109652
31
0
12
51
22
-31.692985
32
0
13
51
23
-31.692985
33
0
39
0
210
0
220
0
230
1
0
MTEXT
5
12F
100
AcDbEntity
8
0
62
256
6
ByLayer
370
18
48
1
60
0
100
AcDbMText
10
7.5
20
-24.692985
30
0
210
0
220
0
230
1
1
\A1;87.00
40
3.5
41
0
44
1
50
0
71
5
72
5
7
iso_b_vert
0
POINT
5
130
100
AcDbEntity
8
Defpoints
62
0
6
ByLayer
370
-1
48
1
60
0
100
AcDbPoint
10
-36
20
-3
30
0
39
0
210
0
220
0
230
1
50
360
0
POINT
5
131
100
AcDbEntity
8
Defpoints
62
0
6
ByLayer
370
-1
48
1
60
0
100
AcDbPoint
10
51
20
0
30
0
39
0
210
0
220
0
230
1
50
360
0
POINT
5
132
100
AcDbEntity
8
Defpoints
62
0
6
ByLayer
370
-1
48
1
60
0
100
AcDbPoint
10
51
20
-31.692985
30
0
39
0
210
0
220
0
230
1
50
360
0
ENDBLK
5
129
100
AcDbEntity
8
0
100
AcDbBlockEnd
0
BLOCK
5
13A
100
AcDbEntity
8
0
100
AcDbBlockBegin
2
_U1
70
0
10
0
20
0
30
0
3
_U1
0
MTEXT
5
134
100
AcDbEntity
8
SK2
62
256
6
ByLayer
370
13
48
1
60
0
100
AcDbMText
10
2.362701
20
-30.660352
30
0
210
0
220
0
230
1
1
\W0.7317;87,00
40
3.5
41
0
44
1.084337
50
0
71
7
72
5
7
iso_b_vert
0
LINE
5
135
100
AcDbEntity
8
SK2
62
256
6
ByLayer
370
13
48
1
60
0
100
AcDbLine
10
-36
20
-4.5875
30
0
11
-36
21
-33.692985
31
0
39
0
210
0
220
0
230
1
0
LINE
5
136
100
AcDbEntity
8
SK2
62
256
6
ByLayer
370
13
48
1
60
0
100
AcDbLine
10
51
20
-1.5875
30
0
11
51
21
-33.692985
31
0
39
0
210
0
220
0
230
1
0
LINE
5
137
100
AcDbEntity
8
SK2
62
256
6
ByLayer
370
13
48
1
60
0
100
AcDbLine
10
-36
20
-31.692985
30
0
11
51
21
-31.692985
31
0
39
0
210
0
220
0
230
1
0
SOLID
5
138
100
AcDbEntity
8
SK2
62
256
6
ByLayer
370
18
48
1
60
0
100
AcDbTrace
10
-36
20
-31.692985
30
0
11
-32.500002
21
-31.232202
31
0
12
-32.499998
22
-32.153769
32
0
13
-32.499998
23
-32.153769
33
0
39
0
210
0
220
0
230
1
0
SOLID
5
139
100
AcDbEntity
8
SK2
62
256
6
ByLayer
370
18
48
1
60
0
100
AcDbTrace
10
51
20
-31.692985
30
0
11
47.500002
21
-32.153769
31
0
12
47.499998
22
-31.232202
32
0
13
47.499998
23
-31.232202
33
0
39
0
210
0
220
0
230
1
0
ENDBLK
5
13B
100
AcDbEntity
8
0
100
AcDbBlockEnd
0
BLOCK
5
140
100
AcDbEntity
8
0
100
AcDbBlockBegin
2
*D5
70
1
10
0
20
0
30
0
3
*D5
0
LINE
5
142
100
AcDbEntity
8
0
62
256
6
ByLayer
370
-2
48
1
60
0
100
AcDbLine
10
20.14
20
4.5625
30
0
11
20.14
21
16.584119
31
0
39
0
210
0
220
0
230
1
0
LINE
5
143
100
AcDbEntity
8
0
62
256
6
ByLayer
370
-2
48
1
60
0
100
AcDbLine
10
51
20
1.5875
30
0
11
51
21
16.584119
31
0
39
0
210
0
220
0
230
1
0
LINE
5
144
100
AcDbEntity
8
0
62
256
6
ByLayer
370
-2
48
1
60
0
100
AcDbLine
10
23.64
20
14.584119
30
0
11
47.5
21
14.584119
31
0
39
0
210
0
220
0
230
1
0
SOLID
5
145
100
AcDbEntity
8
0
62
256
6
ByLayer
370
-1
48
1
60
0
100
AcDbTrace
10
23.64
20
15.167453
30
0
11
23.64
21
14.000786
31
0
12
20.14
22
14.584119
32
0
13
20.14
23
14.584119
33
0
39
0
210
0
220
0
230
1
0
SOLID
5
146
100
AcDbEntity
8
0
62
256
6
ByLayer
370
-1
48
1
60
0
100
AcDbTrace
10
47.5
20
14.000786
30
0
11
47.5
21
15.167453
31
0
12
51
22
14.584119
32
0
13
51
23
14.584119
33
0
39
0
210
0
220
0
230
1
0
MTEXT
5
147
100
AcDbEntity
8
0
62
256
6
ByLayer
370
18
48
1
60
0
100
AcDbMText
10
35.57
20
21.584119
30
0
210
0
220
0
230
1
1
\A1;30.86
40
3.5
41
0
44
1
50
0
71
5
72
5
7
iso_b_vert
0
POINT
5
148
100
AcDbEntity
8
Defpoints
62
0
6
ByLayer
370
-1
48
1
60
0
100
AcDbPoint
10
20.14
20
2.975
30
0
39
0
210
0
220
0
230
1
50
360
0
POINT
5
149
100
AcDbEntity
8
Defpoints
62
0
6
ByLayer
370
-1
48
1
60
0
100
AcDbPoint
10
51
20
0
30
0
39
0
210
0
220
0
230
1
50
360
0
POINT
5
14A
100
AcDbEntity
8
Defpoints
62
0
6
ByLayer
370
-1
48
1
60
0
100
AcDbPoint
10
51
20
14.584119
30
0
39
0
210
0
220
0
230
1
50
360
0
ENDBLK
5
141
100
AcDbEntity
8
0
100
AcDbBlockEnd
0
BLOCK
5
152
100
AcDbEntity
8
0
100
AcDbBlockBegin
2
_U2
70
0
10
0
20
0
30
0
3
_U2
0
MTEXT
5
14C
100
AcDbEntity
8
SK2
62
256
6
ByLayer
370
13
48
1
60
0
100
AcDbMText
10
30.432701
20
15.616753
30
0
210
0
220
0
230
1
1
\W0.7317;30,86
40
3.5
41
0
44
1.084337
50
0
71
7
72
5
7
iso_b_vert
0
LINE
5
14D
100
AcDbEntity
8
SK2
62
256
6
ByLayer
370
13
48
1
60
0
100
AcDbLine
10
20.14
20
4.5625
30
0
11
20.14
21
16.584119
31
0
39
0
210
0
220
0
230
1
0
LINE
5
14E
100
AcDbEntity
8
SK2
62
256
6
ByLayer
370
13
48
1
60
0
100
AcDbLine
10
51
20
1.5875
30
0
11
51
21
16.584119
31
0
39
0
210
0
220
0
230
1
0
LINE
5
14F
100
AcDbEntity
8
SK2
62
256
6
ByLayer
370
13
48
1
60
0
100
AcDbLine
10
20.14
20
14.584119
30
0
11
51
21
14.584119
31
0
39
0
210
0
220
0
230
1
0
SOLID
5
150
100
AcDbEntity
8
SK2
62
256
6
ByLayer
370
18
48
1
60
0
100
AcDbTrace
10
20.14
20
14.584119
30
0
11
23.639998
21
15.044903
31
0
12
23.640002
22
14.123335
32
0
13
23.640002
23
14.123335
33
0
39
0
210
0
220
0
230
1
0
SOLID
5
151
100
AcDbEntity
8
SK2
62
256
6
ByLayer
370
18
48
1
60
0
100
AcDbTrace
10
51
20
14.584119
30
0
11
47.500002
21
14.123335
31
0
12
47.499998
22
15.044903
32
0
13
47.499998
23
15.044903
33
0
39
0
210
0
220
0
230
1
0
ENDBLK
5
153
100
AcDbEntity
8
0
100
AcDbBlockEnd
0
BLOCK
5
158
100
AcDbEntity
8
0
100
AcDbBlockBegin
2
*D7
70
1
10
0
20
0
30
0
3
*D7
0
LINE
5
15A
100
AcDbEntity
8
0
62
256
6
ByLayer
370
-2
48
1
60
0
100
AcDbLine
10
51
20
-1.5875
30
0
11
51
21
-17.777503
31
0
39
0
210
0
220
0
230
1
0
LINE
5
15B
100
AcDbEntity
8
0
62
256
6
ByLayer
370
-2
48
1
60
0
100
AcDbLine
10
49.8935
20
-4.5625
30
0
11
49.8935
21
-17.777503
31
0
39
0
210
0
220
0
230
1
0
LINE
5
15C
100
AcDbEntity
8
0
62
256
6
ByLayer
370
-2
48
1
60
0
100
AcDbLine
10
51
20
-15.777503
30
0
11
77.666667
21
-15.777503
31
0
39
0
210
0
220
0
230
1
0
LINE
5
15D
100
AcDbEntity
8
0
62
256
6
ByLayer
370
-2
48
1
60
0
100
AcDbLine
10
54.5
20
-15.777503
30
0
11
58
21
-15.777503
31
0
39
0
210
0
220
0
230
1
0
LINE
5
15E
100
AcDbEntity
8
0
62
256
6
ByLayer
370
-2
48
1
60
0
100
AcDbLine
10
46.3935
20
-15.777503
30
0
11
42.8935
21
-15.777503
31
0
39
0
210
0
220
0
230
1
0
SOLID
5
15F
100
AcDbEntity
8
0
62
256
6
ByLayer
370
-1
48
1
60
0
100
AcDbTrace
10
54.5
20
-15.19417
30
0
11
54.5
21
-16.360837
31
0
12
51
22
-15.777503
32
0
13
51
23
-15.777503
33
0
39
0
210
0
220
0
230
1
0
SOLID
5
160
100
AcDbEntity
8
0
62
256
6
ByLayer
370
-1
48
1
60
0
100
AcDbTrace
10
46.3935
20
-16.360837
30
0
11
46.3935
21
-15.19417
31
0
12
49.8935
22
-15.777503
32
0
13
49.8935
23
-15.777503
33
0
39
0
210
0
220
0
230
1
0
MTEXT
5
161
100
AcDbEntity
8
0
62
256
6
ByLayer
370
18
48
1
60
0
100
AcDbMText
10
67.833333
20
-8.777503
30
0
210
0
220
0
230
1
1
\A1;1.11
40
3.5
41
0
44
1
50
0
71
5
72
5
7
iso_b_vert
0
POINT
5
162
100
AcDbEntity
8
Defpoints
62
0
6
ByLayer
370
-1
48
1
60
0
100
AcDbPoint
10
51
20
0
30
0
39
0
210
0
220
0
230
1
50
360
0
POINT
5
163
100
AcDbEntity
8
Defpoints
62
0
6
ByLayer
370
-1
48
1
60
0
100
AcDbPoint
10
49.8935
20
-2.975
30
0
39
0
210
0
220
0
230
1
50
360
0
POINT
5
164
100
AcDbEntity
8
Defpoints
62
0
6
ByLayer
370
-1
48
1
60
0
100
AcDbPoint
10
49.8935
20
-15.777503
30
0
39
0
210
0
220
0
230
1
50
360
0
ENDBLK
5
159
100
AcDbEntity
8
0
100
AcDbBlockEnd
0
BLOCK
5
16C
100
AcDbEntity
8
0
100
AcDbBlockBegin
2
_U3
70
0
10
0
20
0
30
0
3
_U3
0
MTEXT
5
166
100
AcDbEntity
8
SK2
62
256
6
ByLayer
370
13
48
1
60
0
100
AcDbMText
10
58.464159
20
-14.74487
30
0
210
0
220
0
230
1
1
\W0.5272;1,11
40
3.5
41
0
44
1.084337
50
0
71
7
72
5
7
iso_b_vert
0
LINE
5
167
100
AcDbEntity
8
SK2
62
256
6
ByLayer
370
13
48
1
60
0
100
AcDbLine
10
51
20
-1.5875
30
0
11
51
21
-17.777503
31
0
39
0
210
0
220
0
230
1
0
LINE
5
168
100
AcDbEntity
8
SK2
62
256
6
ByLayer
370
13
48
1
60
0
100
AcDbLine
10
49.8935
20
-4.5625
30
0
11
49.8935
21
-17.777503
31
0
39
0
210
0
220
0
230
1
0
LINE
5
169
100
AcDbEntity
8
SK2
62
256
6
ByLayer
370
13
48
1
60
0
100
AcDbLine
10
41.1435
20
-15.777503
30
0
11
63.684191
21
-15.777503
31
0
39
0
210
0
220
0
230
1
0
SOLID
5
16A
100
AcDbEntity
8
SK2
62
256
6
ByLayer
370
18
48
1
60
0
100
AcDbTrace
10
51
20
-15.777503
30
0
11
54.499998
21
-15.316719
31
0
12
54.500002
22
-16.238287
32
0
13
54.500002
23
-16.238287
33
0
39
0
210
0
220
0
230
1
0
SOLID
5
16B
100
AcDbEntity
8
SK2
62
256
6
ByLayer
370
18
48
1
60
0
100
AcDbTrace
10
49.8935
20
-15.777503
30
0
11
46.393502
21
-16.238287
31
0
12
46.393498
22
-15.316719
32
0
13
46.393498
23
-15.316719
33
0
39
0
210
0
220
0
230
1
0
ENDBLK
5
16D
100
AcDbEntity
8
0
100
AcDbBlockEnd
0
BLOCK
5
172
100
AcDbEntity
8
0
100
AcDbBlockBegin
2
*D9
70
1
10
0
20
0
30
0
3
*D9
0
LINE
5
174
100
AcDbEntity
8
0
62
256
6
ByLayer
370
-2
48
1
60
0
100
AcDbLine
10
-36
20
-4.5875
30
0
11
-36
21
-23.343428
31
0
39
0
210
0
220
0
230
1
0
LINE
5
175
100
AcDbEntity
8
0
62
256
6
ByLayer
370
-2
48
1
60
0
100
AcDbLine
10
49.8935
20
-4.5625
30
0
11
49.8935
21
-23.343428
31
0
39
0
210
0
220
0
230
1
0
LINE
5
176
100
AcDbEntity
8
0
62
256
6
ByLayer
370
-2
48
1
60
0
100
AcDbLine
10
-32.5
20
-21.343428
30
0
11
46.3935
21
-21.343428
31
0
39
0
210
0
220
0
230
1
0
SOLID
5
177
100
AcDbEntity
8
0
62
256
6
ByLayer
370
-1
48
1
60
0
100
AcDbTrace
10
-32.5
20
-20.760095
30
0
11
-32.5
21
-21.926762
31
0
12
-36
22
-21.343428
32
0
13
-36
23
-21.343428
33
0
39
0
210
0
220
0
230
1
0
SOLID
5
178
100
AcDbEntity
8
0
62
256
6
ByLayer
370
-1
48
1
60
0
100
AcDbTrace
10
46.3935
20
-21.926762
30
0
11
46.3935
21
-20.760095
31
0
12
49.8935
22
-21.343428
32
0
13
49.8935
23
-21.343428
33
0
39
0
210
0
220
0
230
1
0
MTEXT
5
179
100
AcDbEntity
8
0
62
256
6
ByLayer
370
18
48
1
60
0
100
AcDbMText
10
6.94675
20
-14.343428
30
0
210
0
220
0
230
1
1
\A1;85.89
40
3.5
41
0
44
1
50
0
71
5
72
5
7
iso_b_vert
0
POINT
5
17A
100
AcDbEntity
8
Defpoints
62
0
6
ByLayer
370
-1
48
1
60
0
100
AcDbPoint
10
-36
20
-3
30
0
39
0
210
0
220
0
230
1
50
360
0
POINT
5
17B
100
AcDbEntity
8
Defpoints
62
0
6
ByLayer
370
-1
48
1
60
0
100
AcDbPoint
10
49.8935
20
-2.975
30
0
39
0
210
0
220
0
230
1
50
360
0
POINT
5
17C
100
AcDbEntity
8
Defpoints
62
0
6
ByLayer
370
-1
48
1
60
0
100
AcDbPoint
10
49.8935
20
-21.343428
30
0
39
0
210
0
220
0
230
1
50
360
0
ENDBLK
5
173
100
AcDbEntity
8
0
100
AcDbBlockEnd
0
BLOCK
5
184
100
AcDbEntity
8
0
100
AcDbBlockBegin
2
_U4
70
0
10
0
20
0
30
0
3
_U4
0
MTEXT
5
17E
100
AcDbEntity
8
SK2
62
256
6
ByLayer
370
13
48
1
60
0
100
AcDbMText
10
1.809451
20
-20.310795
30
0
210
0
220
0
230
1
1
\W0.7402;85,89
40
3.5
41
0
44
1.084337
50
0
71
7
72
5
7
iso_b_vert
0
LINE
5
17F
100
AcDbEntity
8
SK2
62
256
6
ByLayer
370
13
48
1
60
0
100
AcDbLine
10
-36
20
-4.5875
30
0
11
-36
21
-23.343428
31
0
39
0
210
0
220
0
230
1
0
LINE
5
180
100
AcDbEntity
8
SK2
62
256
6
ByLayer
370
13
48
1
60
0
100
AcDbLine
10
49.8935
20
-4.5625
30
0
11
49.8935
21
-23.343428
31
0
39
0
210
0
220
0
230
1
0
LINE
5
181
100
AcDbEntity
8
SK2
62
256
6
ByLayer
370
13
48
1
60
0
100
AcDbLine
10
-36
20
-21.343428
30
0
11
49.8935
21
-21.343428
31
0
39
0
210
0
220
0
230
1
0
SOLID
5
182
100
AcDbEntity
8
SK2
62
256
6
ByLayer
370
18
48
1
60
0
100
AcDbTrace
10
-36
20
-21.343428
30
0
11
-32.500002
21
-20.882645
31
0
12
-32.499998
22
-21.804212
32
0
13
-32.499998
23
-21.804212
33
0
39
0
210
0
220
0
230
1
0
SOLID
5
183
100
AcDbEntity
8
SK2
62
256
6
ByLayer
370
18
48
1
60
0
100
AcDbTrace
10
49.8935
20
-21.343428
30
0
11
46.393502
21
-21.804212
31
0
12
46.393498
22
-20.882645
32
0
13
46.393498
23
-20.882645
33
0
39
0
210
0
220
0
230
1
0
ENDBLK
5
185
100
AcDbEntity
8
0
100
AcDbBlockEnd
0
ENDSEC
0
SECTION
2
ENTITIES
0
ARC
5
A7
100
AcDbEntity
8
1
62
256
6
ByLayer
370
18
48
1
60
0
100
AcDbCircle
39
0
10
0.611288
20
-3.736293
30
0
40
0.850000000000002
210
0
220
0
230
1
100
AcDbArc
50
89.896868
51
111.074484
0
ARC
5
A8
100
AcDbEntity
8
1
62
256
6
ByLayer
370
18
48
1
60
0
100
AcDbCircle
39
0
10
0
20
-2.15
30
0
40
0.849999999999999
210
0
220
0
230
1
100
AcDbArc
50
270
51
291.074484
0
ARC
5
A9
100
AcDbEntity
8
1
62
256
6
ByLayer
370
18
48
1
60
0
100
AcDbCircle
39
0
10
0.611288
20
3.736293
30
0
40
0.850000000000002
210
0
220
0
230
1
100
AcDbArc
50
248.925516
51
270.103132
0
ARC
5
AA
100
AcDbEntity
8
1
62
256
6
ByLayer
370
18
48
1
60
0
100
AcDbCircle
39
0
10
0
20
2.15
30
0
40
0.849999999999999
210
0
220
0
230
1
100
AcDbArc
50
68.925516
51
90
0
ELLIPSE
5
AB
100
AcDbEntity
8
1
62
256
6
ByLayer
370
13
48
1
60
0
100
AcDbEllipse
10
9.627012
20
-61.825134
30
0
11
-49.4850789759357
21
55.8535570572975
31
0
210
0
220
0
230
1
40
0.679391
41
-0.916613871836317
42
-0.835102799413819
0
ELLIPSE
5
AC
100
AcDbEntity
8
1
62
256
6
ByLayer
370
13
48
1
60
0
100
AcDbEllipse
10
95.194174
20
42.658776
30
0
11
-61.3999999999999
21
7.51908301246938E-15
31
0
210
0
220
0
230
1
40
0.99863
41
0.739543478791704
42
0.766839317548304
0
ELLIPSE
5
AD
100
AcDbEntity
8
1
62
256
6
ByLayer
370
13
48
1
60
0
100
AcDbEllipse
10
5.577998
20
2.593337
30
0
11
0.0937163103190376
21
0.284986408763972
31
0
210
0
220
0
230
1
40
0.428353
41
3.05841330703028
42
-2.48251591564746
0
ELLIPSE
5
AE
100
AcDbEntity
8
1
62
256
6
ByLayer
370
18
48
1
60
0
100
AcDbEllipse
10
5.576437
20
-3.812482
30
0
11
1
21
0
31
0
210
0
220
0
230
1
40
0.999959
41
1.56997433856594
42
1.97632915184313
0
ELLIPSE
5
AF
100
AcDbEntity
8
1
62
256
6
ByLayer
370
18
48
1
60
0
100
AcDbEllipse
10
5.576437
20
3.812482
30
0
11
1
21
0
31
0
210
0
220
0
230
1
40
0.999959
41
-1.97265129076964
42
-1.56713832566541
0
POINT
5
70
100
AcDbEntity
8
80
62
256
6
ByLayer
370
18
48
1
60
0
100
AcDbPoint
10
0
20
0
30
0
39
0
210
0
220
0
230
1
50
360
0
POINT
5
72
100
AcDbEntity
8
81
62
256
6
ByLayer
370
18
48
1
60
0
100
AcDbPoint
10
51
20
0
30
0
39
0
210
0
220
0
230
1
50
360
0
POINT
5
74
100
AcDbEntity
8
1
62
256
6
ByLayer
370
18
48
1
60
1
100
AcDbPoint
10
49.8935
20
-2.975
30
0
39
0
210
0
220
0
230
1
50
360
0
POINT
5
76
100
AcDbEntity
8
1
62
256
6
ByLayer
370
18
48
1
60
1
100
AcDbPoint
10
-36
20
-3
30
0
39
0
210
0
220
0
230
1
50
360
0
POINT
5
77
100
AcDbEntity
8
1
62
256
6
ByLayer
370
18
48
1
60
1
100
AcDbPoint
10
20.14
20
2.975
30
0
39
0
210
0
220
0
230
1
50
360
0
POINT
5
78
100
AcDbEntity
8
1
62
256
6
ByLayer
370
18
48
1
60
1
100
AcDbPoint
10
49.8935
20
-2.975
30
0
39
0
210
0
220
0
230
1
50
360
0
POINT
5
79
100
AcDbEntity
8
1
62
256
6
ByLayer
370
18
48
1
60
1
100
AcDbPoint
10
-36
20
-3
30
0
39
0
210
0
220
0
230
1
50
360
0
POINT
5
7A
100
AcDbEntity
8
1
62
256
6
ByLayer
370
18
48
1
60
1
100
AcDbPoint
10
49.8935
20
-2.975
30
0
39
0
210
0
220
0
230
1
50
360
0
SPLINE
5
B0
100
AcDbEntity
8
1
62
256
6
ByLayer
370
18
48
1
60
0
100
AcDbSpline
70
4
71
3
72
12
73
8
40
0
40
0
40
0
40
0
40
0.466653482154855
40
0.466653482154855
40
0.933306964309709
40
0.933306964309709
40
1
40
1
40
1
40
1
41
1
10
9.62701177952908
20
-1.15887137515503
30
0
41
1
10
9.68350645706468
20
-1.01261783794914
30
0
41
1
10
9.75407277891856
20
-0.872097162677164
30
0
41
1
10
9.91079028846076
20
-0.627529471885481
30
0
41
1
10
9.99685490830032
20
-0.523617551027002
30
0
41
1
10
10.0952740493376
20
-0.436420258257044
30
0
41
1
10
10.1075800321852
20
-0.426082393853647
30
0
41
1
10
10.1198626876599
20
-0.416322990089924
30
0
0
SPLINE
5
B1
100
AcDbEntity
8
1
62
256
6
ByLayer
370
18
48
1
60
0
100
AcDbSpline
70
4
71
2
72
6
73
3
40
0
40
0
40
0
40
1
40
1
40
1
41
0.500000042853803
10
49.9201032566997
20
-2.89134213829375
30
0
41
0.499999957146197
10
49.9195012082174
20
-2.89094741958233
30
0
41
0.500000042853803
10
49.9188998964289
20
-2.89055087771619
30
0
0
SPLINE
5
B2
100
AcDbEntity
8
1
62
256
6
ByLayer
370
18
48
1
60
0
100
AcDbSpline
70
4
71
1
72
4
73
2
40
0
40
0
40
1
40
1
41
1
10
49.9201032566995
20
-2.89134213829368
30
0
41
1
10
50.5383360934013
20
-0.804223059598456
30
0
0
SPLINE
5
B3
100
AcDbEntity
8
1
62
256
6
ByLayer
370
13
48
1
60
0
100
AcDbSpline
70
4
71
3
72
40
73
36
40
0
40
0
40
0
40
0
40
0.038246113003004
40
0.038246113003004
40
0.0855183701697381
40
0.0855183701697381
40
0.132790627336472
40
0.132790627336472
40
0.227335141669938
40
0.227335141669938
40
0.27460739883667
40
0.27460739883667
40
0.321879656003402
40
0.321879656003402
40
0.416424170336866
40
0.416424170336866
40
0.510968684670329
40
0.510968684670329
40
0.55824094183706
40
0.55824094183706
40
0.605513199003791
40
0.605513199003791
40
0.652785456170522
40
0.652785456170522
40
0.700057713337253
40
0.700057713337253
40
0.794602227670714
40
0.794602227670714
40
0.889146742004175
40
0.889146742004175
40
0.936418999170906
40
0.936418999170906
40
0.983691256337638
40
0.983691256337638
40
1
40
1
40
1
40
1
41
1
10
35.2310185087859
20
-2.86418742262805
30
0
41
1
10
35.0450334654419
20
-2.86400542519209
30
0
41
1
10
34.8587355639887
20
-2.85831878700978
30
0
41
1
10
34.4408935404738
20
-2.83303370034224
30
0
41
1
10
34.2083878581553
20
-2.81067156343713
30
0
41
1
10
33.7453476020747
20
-2.74942619827428
30
0
41
1
10
33.5147815587287
20
-2.71057228150721
30
0
41
1
10
32.8246657872805
20
-2.57099331192964
30
0
41
1
10
32.3667228622346
20
-2.44751208111552
30
0
41
1
10
31.6770839844526
20
-2.22090953548999
30
0
41
1
10
31.4468877798467
20
-2.13854937709073
30
0
41
1
10
30.9846324059449
20
-1.96115168594849
30
0
41
1
10
30.7518559823127
20
-1.86571020938777
30
0
41
1
10
30.0571236630242
20
-1.56524672184631
30
0
41
1
10
29.5977687383623
20
-1.34571022867155
30
0
41
1
10
28.6786994286248
20
-0.881136187770807
30
0
41
1
10
28.2192878428282
20
-0.635845513580961
30
0
41
1
10
27.5242868482202
20
-0.258527620950673
30
0
41
1
10
27.2915311875518
20
-0.130869102482023
30
0
41
1
10
26.8277990480257
20
0.123147165688749
30
0
41
1
10
26.5962628746349
20
0.249800995524083
30
0
41
1
10
26.1330224064274
20
0.500919957401976
30
0
41
1
10
25.9013983586959
20
0.625545851364222
30
0
41
1
10
25.4368974061836
20
0.870611460777468
30
0
41
1
10
25.2044517543602
20
0.990735133235574
30
0
41
1
10
24.5111241484774
20
1.33931994371107
30
0
41
1
10
24.0520589947383
20
1.55711640132736
30
0
41
1
10
23.1324757694361
20
1.95113810066957
30
0
41
1
10
22.6721983805222
20
2.12800289286267
30
0
41
1
10
21.9750549554543
20
2.35388808320238
30
0
41
1
10
21.7428140162734
20
2.42254785321737
30
0
41
1
10
21.2807541470415
20
2.54420454822912
30
0
41
1
10
21.050307114678
20
2.59715915414159
30
0
41
1
10
20.7408161072638
20
2.65807083282769
30
0
41
1
10
20.6614695056039
20
2.6727739190309
30
0
41
1
10
20.5821407880246
20
2.68654305996407
30
0
0
SPLINE
5
B4
100
AcDbEntity
8
1
62
256
6
ByLayer
370
18
48
1
60
0
100
AcDbSpline
70
4
71
3
72
8
73
4
40
0
40
0
40
0
40
0
40
1
40
1
40
1
40
1
41
1
10
50.9998544006331
20
0.0558573569323642
30
0
41
1
10
51.0000485331219
20
0.0186191189811495
30
0
41
1
10
51.0000485331219
20
-0.0186191189700651
30
0
41
1
10
50.9998544006331
20
-0.0558573569212797
30
0
0
SPLINE
5
B5
100
AcDbEntity
8
1
62
256
6
ByLayer
370
18
48
1
60
0
100
AcDbSpline
70
4
71
3
72
20
73
16
40
0
40
0
40
0
40
0
40
0.25
40
0.25
40
0.375
40
0.375
40
0.5
40
0.5
40
0.625
40
0.625
40
0.75
40
0.75
40
0.875
40
0.875
40
1
40
1
40
1
40
1
41
1
10
50.5383360934003
20
-0.804223059597973
30
0
41
1
10
50.5729973695664
20
-0.776745554312043
30
0
41
1
10
50.6099775653311
20
-0.734706847127626
30
0
41
1
10
50.6692012805559
20
-0.651207315794693
30
0
41
1
10
50.6893711896836
20
-0.620159284127141
30
0
41
1
10
50.7296776478402
20
-0.553374626048281
30
0
41
1
10
50.7499477668223
20
-0.517450097726282
30
0
41
1
10
50.7907059405023
20
-0.44069100227361
30
0
41
1
10
50.811193772459
20
-0.399812882188996
30
0
41
1
10
50.8511840093482
20
-0.315641641875402
30
0
41
1
10
50.8708397912201
20
-0.272067831195869
30
0
41
1
10
50.9094450876585
20
-0.18206994157427
30
0
41
1
10
50.9284832818083
20
-0.135405211172554
30
0
41
1
10
50.965166302428
20
-0.0408084840157414
30
0
41
1
10
50.9828479698019
20
0.0071847739097564
30
0
41
1
10
50.9998544006331
20
0.0558573569323357
30
0
0
SPLINE
5
B6
100
AcDbEntity
8
1
62
256
6
ByLayer
370
18
48
1
60
0
100
AcDbSpline
70
4
71
3
72
32
73
28
40
0
40
0
40
0
40
0
40
0.125
40
0.125
40
0.25
40
0.25
40
0.3125
40
0.3125
40
0.375
40
0.375
40
0.5
40
0.5
40
0.5625
40
0.5625
40
0.625
40
0.625
40
0.6875
40
0.6875
40
0.75
40
0.75
40
0.8125
40
0.8125
40
0.875
40
0.875
40
0.9375
40
0.9375
40
1
40
1
40
1
40
1
41
1
10
5.18304781830759
20
-2.1436217713333
30
0
41
1
10
5.0736570452554
20
-2.08135195162106
30
0
41
1
10
4.96723123525615
20
-2.01321207533002
30
0
41
1
10
4.7621825717211
20
-1.86126749096948
30
0
41
1
10
4.66347839555485
20
-1.77722342752193
30
0
41
1
10
4.52783246538911
20
-1.63890555590078
30
0
41
1
10
4.48452913076892
20
-1.59063055196441
30
0
41
1
10
4.40241397701931
20
-1.48896019762714
30
0
41
1
10
4.36350120424038
20
-1.43535558426447
30
0
41
1
10
4.25693940765589
20
-1.26872614182011
30
0
41
1
10
4.19855687223597
20
-1.14924727919774
30
0
41
1
10
4.13618440623915
20
-0.953194359011121
30
0
41
1
10
4.11981946425206
20
-0.885181964342706
30
0
41
1
10
4.09760825468325
20
-0.747850733240767
30
0
41
1
10
4.0915642594652
20
-0.67797854904569
30
0
41
1
10
4.09004973251183
20
-0.535705523035318
30
0
41
1
10
4.09471400454964
20
-0.463145186696977
30
0
41
1
10
4.11411977898507
20
-0.320700609273018
30
0
41
1
10
4.12881505580168
20
-0.250154640891651
30
0
41
1
10
4.16743207150915
20
-0.110311723010085
30
0
41
1
10
4.19154214578813
20
-0.0406972219836064
30
0
41
1
10
4.2466974620051
20
0.0935748784705766
30
0
41
1
10
4.27783193187898
20
0.158712628263856
30
0
41
1
10
4.3461637413636
20
0.285582416932385
30
0
41
1
10
4.383365694129
20
0.347311868448543
30
0
41
1
10
4.46309572536728
20
0.467779787496028
30
0
41
1
10
4.50561223833012
20
0.52644040559116
30
0
41
1
10
4.549652158968
20
0.582764340412695
30
0
0
SPLINE
5
B7
100
AcDbEntity
8
1
62
256
6
ByLayer
370
18
48
1
60
0
100
AcDbSpline
70
4
71
3
72
16
73
12
40
0
40
0
40
0
40
0
40
0.25
40
0.25
40
0.499999999999999
40
0.499999999999999
40
0.624999999999999
40
0.624999999999999
40
0.749999999999999
40
0.749999999999999
40
1
40
1
40
1
40
1
41
1
10
49.5667700419505
20
0.11356285395297
30
0
41
1
10
49.5410865636865
20
-0.0353087800013441
30
0
41
1
10
49.5211004678755
20
-0.185176851517951
30
0
41
1
10
49.4932464195171
20
-0.483608078322277
30
0
41
1
10
49.4855341933618
20
-0.630037159301338
30
0
41
1
10
49.4830883493706
20
-0.845590522539055
30
0
41
1
10
49.4838004474662
20
-0.916756811661372
30
0
41
1
10
49.4883299962449
20
-1.05769704125083
30
0
41
1
10
49.4921737051902
20
-1.12775488709471
30
0
41
1
10
49.5083076378184
20
-1.33327330439769
30
0
41
1
10
49.5250983698825
20
-1.46405934498768
30
0
41
1
10
49.5477804558657
20
-1.58876712129575
30
0
0
SPLINE
5
B8
100
AcDbEntity
8
1
62
256
6
ByLayer
370
18
48
1
60
0
100
AcDbSpline
70
4
71
3
72
48
73
44
40
0
40
0
40
0
40
0
40
0.0134383130764231
40
0.0134383130764231
40
0.0530799529334307
40
0.0530799529334307
40
0.092721592790438
40
0.092721592790438
40
0.132363232647446
40
0.132363232647446
40
0.211646512361461
40
0.211646512361461
40
0.251288152218468
40
0.251288152218468
40
0.290929792075475
40
0.290929792075475
40
0.330571431932482
40
0.330571431932482
40
0.370213071789489
40
0.370213071789489
40
0.409854711646496
40
0.409854711646496
40
0.449496351503503
40
0.449496351503503
40
0.48913799136051
40
0.48913799136051
40
0.528779631217517
40
0.528779631217517
40
0.608062910931533
40
0.608062910931533
40
0.64770455078854
40
0.64770455078854
40
0.687346190645547
40
0.687346190645547
40
0.766629470359562
40
0.766629470359562
40
0.806271110216569
40
0.806271110216569
40
0.845912750073576
40
0.845912750073576
40
0.925196029787588
40
0.925196029787588
40
1
40
1
40
1
40
1
41
1
10
18.4622705614511
20
2.91842279481617
30
0
41
1
10
18.5408687285528
20
2.9185681385118
30
0
41
1
10
18.6195132259921
20
2.91771458234837
30
0
41
1
10
18.9304215963921
20
2.91038109604364
30
0
41
1
10
19.1624269755807
20
2.89617786305621
30
0
41
1
10
19.6256152083787
20
2.85074514479686
30
0
41
1
10
19.8570262518708
20
2.81952005218705
30
0
41
1
10
20.3202629210601
20
2.74030499436427
30
0
41
1
10
20.5526089396008
20
2.69224657597593
30
0
41
1
10
21.2483742250142
20
2.52486041653486
30
0
41
1
10
21.7100332234479
20
2.38192515461762
30
0
41
1
10
22.4061170401658
20
2.12711933025992
30
0
41
1
10
22.6383151023452
20
2.03554624876145
30
0
41
1
10
23.1012640224456
20
1.84096952600416
30
0
41
1
10
23.3324284746749
20
1.73789403336332
30
0
41
1
10
23.795513602251
20
1.52213598810113
30
0
41
1
10
24.0277512503967
20
1.40915796846554
30
0
41
1
10
24.4914707285355
20
1.17531349347038
30
0
41
1
10
24.7227329664809
20
1.05462502027072
30
0
41
1
10
25.1854652793886
20
0.808080921188008
30
0
41
1
10
25.416863500519
20
0.682112943417593
30
0
41
1
10
25.8803881673492
20
0.425884901318199
30
0
41
1
10
26.1124625151875
20
0.295732539395232
30
0
41
1
10
26.5754002300621
20
0.0354991873202266
30
0
41
1
10
26.8065979310715
20
-0.0949586255798067
30
0
41
1
10
27.2692332747619
20
-0.355161386760329
30
0
41
1
10
27.5010103873472
20
-0.485010933251573
30
0
41
1
10
28.1966323660193
20
-0.868694773765782
30
0
41
1
10
28.6579490602435
20
-1.1164511713375
30
0
41
1
10
29.3527401668101
20
-1.46521630205024
30
0
41
1
10
29.5848954141436
20
-1.57775697206449
30
0
41
1
10
30.0475954302354
20
-1.79236844948224
30
0
41
1
10
30.2785723760434
20
-1.89461235278066
30
0
41
1
10
30.9722394300184
20
-2.18363949080773
30
0
41
1
10
31.4361998602647
20
-2.35353830061931
30
0
41
1
10
32.1296314245395
20
-2.56273695352834
30
0
41
1
10
32.3606482187229
20
-2.62512030690877
30
0
41
1
10
32.823359145174
20
-2.73429064886307
30
0
41
1
10
33.0552741808386
20
-2.78110887285018
30
0
41
1
10
33.7492882579555
20
-2.8957799966432
30
0
41
1
10
34.2102243298453
20
-2.93870643637089
30
0
41
1
10
35.1112952964857
20
-2.95395531091515
30
0
41
1
10
35.5462653312453
20
-2.9300764876044
30
0
41
1
10
35.9824437937227
20
-2.87575994502939
30
0
0
SPLINE
5
B9
100
AcDbEntity
8
1
62
256
6
ByLayer
370
18
48
1
60
0
100
AcDbSpline
70
4
71
3
72
8
73
4
40
0
40
0
40
0
40
0
40
1
40
1
40
1
40
1
41
1
10
50.9998544006363
20
-0.0558573569231555
30
0
41
1
10
50.9930683722382
20
-0.0752189447920273
30
0
41
1
10
50.9863113530259
20
-0.0945976511236779
30
0
41
1
10
50.9795829976882
20
-0.113993448602429
30
0
0
SPLINE
5
BA
100
AcDbEntity
8
1
62
256
6
ByLayer
370
18
48
1
60
0
100
AcDbSpline
70
4
71
3
72
18
73
14
40
0
40
0
40
0
40
0
40
0.250000000000004
40
0.250000000000004
40
0.375000000000003
40
0.375000000000003
40
0.500000000000002
40
0.500000000000002
40
0.75
40
0.75
40
0.875
40
0.875
40
1
40
1
40
1
40
1
41
1
10
49.8637415882682
20
-2.73591252150058
30
0
41
1
10
49.8136201759693
20
-2.68584904573592
30
0
41
1
10
49.7688604734057
20
-2.62418142840767
30
0
41
1
10
49.7099737792439
20
-2.51381865653775
30
0
41
1
10
49.6917266480397
20
-2.47404056122059
30
0
41
1
10
49.6581164804565
20
-2.38824243540296
30
0
41
1
10
49.6426858561132
20
-2.34195164863218
30
0
41
1
10
49.6016432526493
20
-2.19555926929536
30
0
41
1
10
49.5811376807883
20
-2.08808935773479
30
0
41
1
10
49.5606803388189
20
-1.91204784819794
30
0
41
1
10
49.5555866257082
20
-1.85088223520768
30
0
41
1
10
49.5489630280856
20
-1.72341799606781
30
0
41
1
10
49.5474453671962
20
-1.65691064161609
30
0
41
1
10
49.5477804558701
20
-1.5887671212958
30
0
0
SPLINE
5
BB
100
AcDbEntity
8
1
62
256
6
ByLayer
370
18
48
1
60
0
100
AcDbSpline
70
4
71
3
72
12
73
8
40
0
40
0
40
0
40
0
40
0.25
40
0.25
40
0.5
40
0.5
40
1
40
1
40
1
40
1
41
1
10
7.46612909869646
20
0.751296363593838
30
0
41
1
10
7.77722864833027
20
0.612832516735494
30
0
41
1
10
8.09019205389126
20
0.474179309308767
30
0
41
1
10
8.71936779627657
20
0.196075855105732
30
0
41
1
10
9.03423538510208
20
0.0572232335892124
30
0
41
1
10
9.97385364746995
20
-0.356745612713439
30
0
41
1
10
10.5960256063058
20
-0.630425317924448
30
0
41
1
10
11.2133841183056
20
-0.901867727706417
30
0
0
SPLINE
5
BC
100
AcDbEntity
8
1
62
256
6
ByLayer
370
18
48
1
60
0
100
AcDbSpline
70
4
71
3
72
60
73
56
40
0
40
0
40
0
40
0
40
0.0180262475210749
40
0.0180262475210749
40
0.0761982752459496
40
0.0761982752459496
40
0.134370302970824
40
0.134370302970824
40
0.163456316833262
40
0.163456316833262
40
0.1925423306957
40
0.1925423306957
40
0.221628344558137
40
0.221628344558137
40
0.250714358420575
40
0.250714358420575
40
0.30888638614545
40
0.30888638614545
40
0.337972400007888
40
0.337972400007888
40
0.367058413870326
40
0.367058413870326
40
0.396144427732764
40
0.396144427732764
40
0.425230441595201
40
0.425230441595201
40
0.483402469320077
40
0.483402469320077
40
0.512488483182515
40
0.512488483182515
40
0.541574497044953
40
0.541574497044953
40
0.570660510907391
40
0.570660510907391
40
0.599746524769829
40
0.599746524769829
40
0.657918552494706
40
0.657918552494706
40
0.687004566357144
40
0.687004566357144
40
0.716090580219582
40
0.716090580219582
40
0.74517659408202
40
0.74517659408202
40
0.774262607944458
40
0.774262607944458
40
0.832434635669336
40
0.832434635669336
40
0.861520649531774
40
0.861520649531774
40
0.890606663394212
40
0.890606663394212
40
0.948778691119088
40
0.948778691119088
40
1
40
1
40
1
40
1
41
1
10
13.2662761690828
20
1.89593733397459
30
0
41
1
10
13.3918155582107
20
1.94927295847447
30
0
41
1
10
13.5172881376198
20
2.00094986774599
30
0
41
1
10
14.0469597635838
20
2.21165334804874
30
0
41
1
10
14.4512493860534
20
2.3539384751551
30
0
41
1
10
15.2621465610269
20
2.59414994695766
30
0
41
1
10
15.6656429618215
20
2.69146773865285
30
0
41
1
10
16.2724374441299
20
2.80003764002953
30
0
41
1
10
16.4750689856389
20
2.83011363066439
30
0
41
1
10
16.8802968069179
20
2.87716863341598
30
0
41
1
10
17.0824244582069
20
2.89420190191837
30
0
41
1
10
17.4865796622586
20
2.91512297859518
30
0
41
1
10
17.6885711870467
20
2.91902823051726
30
0
41
1
10
18.0929162284974
20
2.9136311963905
30
0
41
1
10
18.2957218302658
20
2.9043171578667
30
0
41
1
10
18.902984308296
20
2.85662586459094
30
0
41
1
10
19.3064698090039
20
2.79881257431194
30
0
41
1
10
19.9129446855212
20
2.67469406769297
30
0
41
1
10
20.1157424831626
20
2.62706613894804
30
0
41
1
10
20.5204334724756
20
2.52019532191156
30
0
41
1
10
20.7224198735173
20
2.4610199926297
30
0
41
1
10
21.1263140074981
20
2.33185689410553
30
0
41
1
10
21.3281717440496
20
2.26181113253153
30
0
41
1
10
21.7325821898784
20
2.11172469785612
30
0
41
1
10
21.9352698699687
20
2.03135583446485
30
0
41
1
10
22.5421562233548
20
1.77792771859947
30
0
41
1
10
22.9451642875134
20
1.59154760553807
30
0
41
1
10
23.5517571385178
20
1.2923225901605
30
0
41
1
10
23.7544375103035
20
1.18901854124096
30
0
41
1
10
24.15872164996
20
0.978084583235272
30
0
41
1
10
24.3605706876496
20
0.870348538660039
30
0
41
1
10
24.7641589567287
20
0.651154535371091
30
0
41
1
10
24.9660695096211
20
0.539994849460982
30
0
41
1
10
25.370318754019
20
0.314869709080085
30
0
41
1
10
25.5730330906749
20
0.201237420031447
30
0
41
1
10
26.1790409481335
20
-0.139998169106917
30
0
41
1
10
26.5820102779579
20
-0.367508982697387
30
0
41
1
10
27.1884943250646
20
-0.702427004643113
30
0
41
1
10
27.3910324386184
20
-0.812952888965327
30
0
41
1
10
27.7949536211904
20
-1.02924011305703
30
0
41
1
10
27.9965867798795
20
-1.13529606612965
30
0
41
1
10
28.400111402631
20
-1.34173365104368
30
0
41
1
10
28.6018297285856
20
-1.44239270700945
30
0
41
1
10
29.0062650676098
20
-1.63684271950626
30
0
41
1
10
29.208593465858
20
-1.73088006972836
30
0
41
1
10
29.8142914449451
20
-1.9995132719346
30
0
41
1
10
30.2169533485757
20
-2.16212783206762
30
0
41
1
10
30.8235114079313
20
-2.37569388377119
30
0
41
1
10
31.0257608920858
20
-2.44165827035846
30
0
41
1
10
31.4292075579324
20
-2.56218546830658
30
0
41
1
10
31.6308316401912
20
-2.61667356888645
30
0
41
1
10
32.2356807566824
20
-2.76258241256241
30
0
41
1
10
32.6406639259449
20
-2.83595307953658
30
0
41
1
10
33.3990435736006
20
-2.92458480530979
30
0
41
1
10
33.7536490424541
20
-2.94589299392123
30
0
41
1
10
34.1094607903129
20
-2.94658892260532
30
0
0
SPLINE
5
BD
100
AcDbEntity
8
1
62
256
6
ByLayer
370
18
48
1
60
0
100
AcDbSpline
70
4
71
3
72
20
73
16
40
0
40
0
40
0
40
0
40
0.0958423785836876
40
0.0958423785836876
40
0.246535315486407
40
0.246535315486407
40
0.397228252389126
40
0.397228252389126
40
0.547921189291844
40
0.547921189291844
40
0.698614126194563
40
0.698614126194563
40
0.849307063097282
40
0.849307063097282
40
1
40
1
40
1
40
1
41
1
10
45.9653294536212
20
1.92428373449249
30
0
41
1
10
46.0933446259722
20
1.97996088754132
30
0
41
1
10
46.2214136563106
20
2.03394081731426
30
0
41
1
10
46.5511665442629
20
2.16817034581811
30
0
41
1
10
46.753167869945
20
2.24560039460223
30
0
41
1
10
47.1558719401557
20
2.38978709455191
30
0
41
1
10
47.3569776309504
20
2.45658450513957
30
0
41
1
10
47.7592991800456
20
2.57900515490786
30
0
41
1
10
47.9604879172832
20
2.63464702758819
30
0
41
1
10
48.3637618065497
20
2.73400590039975
30
0
41
1
10
48.5655281395711
20
2.7777624340369
30
0
41
1
10
48.9685542819554
20
2.85236918661684
30
0
41
1
10
49.1698534575438
20
2.88340371450187
30
0
41
1
10
49.5731521356367
20
2.93237606605649
30
0
41
1
10
49.7748959128153
20
2.95037945108913
30
0
41
1
10
49.9763768410532
20
2.96167458482779
30
0
0
SPLINE
5
BE
100
AcDbEntity
8
1
62
256
6
ByLayer
370
13
48
1
60
0
100
AcDbSpline
70
4
71
3
72
10
73
6
40
0
40
0
40
0
40
0
40
0.5
40
0.5
40
1
40
1
40
1
40
1
41
1
10
5.17747826842401
20
2.49317983168317
30
0
41
1
10
5.24154010917815
20
2.45723886215887
30
0
41
1
10
5.30776214394183
20
2.42688186116669
30
0
41
1
10
5.44167635885671
20
2.37723164763304
30
0
41
1
10
5.50971299135247
20
2.35774814776045
30
0
41
1
10
5.57866669667962
20
2.34345542313255
30
0
0
SPLINE
5
BF
100
AcDbEntity
8
1
62
256
6
ByLayer
370
18
48
1
60
0
100
AcDbSpline
70
4
71
3
72
8
73
4
40
0
40
0
40
0
40
0
40
1
40
1
40
1
40
1
41
1
10
49.976376841059
20
-2.96167458481398
30
0
41
1
10
50.0353071320837
20
-2.82104185828936
30
0
41
1
10
50.0951960869205
20
-2.67707268033752
30
0
41
1
10
50.1556129039695
20
-2.5292274065018
30
0
0
SPLINE
5
C0
100
AcDbEntity
8
1
62
256
6
ByLayer
370
18
48
1
60
0
100
AcDbSpline
70
4
71
3
72
8
73
4
40
0
40
0
40
0
40
0
40
1
40
1
40
1
40
1
41
1
10
50.9998544006331
20
0.0558573569323357
30
0
41
1
10
50.9930702629438
20
0.0752135503170166
30
0
41
1
10
50.9863132356471
20
0.094592224100893
30
0
41
1
10
50.9795829976883
20
0.113993448601917
30
0
0
SPLINE
5
C1
100
AcDbEntity
8
1
62
256
6
ByLayer
370
18
48
1
60
0
100
AcDbSpline
70
4
71
3
72
8
73
4
40
0
40
0
40
0
40
0
40
1
40
1
40
1
40
1
41
1
10
49.9763768410547
20
-2.96167458482873
30
0
41
1
10
49.9546897883936
20
-2.94821447860176
30
0
41
1
10
49.9360871716638
20
-2.9248131765352
30
0
41
1
10
49.9201032566991
20
-2.89134213829246
30
0
0
SPLINE
5
C2
100
AcDbEntity
8
1
62
256
6
ByLayer
370
18
48
1
60
0
100
AcDbSpline
70
4
71
3
72
8
73
4
40
0
40
0
40
0
40
0
40
1
40
1
40
1
40
1
41
1
10
50.9795829976928
20
0.113993448589184
30
0
41
1
10
50.7007923978592
20
0.917661766016209
30
0
41
1
10
50.4261211723885
20
1.72273479806003
30
0
41
1
10
50.1556129039695
20
2.52922740650178
30
0
0
SPLINE
5
C3
100
AcDbEntity
8
1
62
256
6
ByLayer
370
18
48
1
60
0
100
AcDbSpline
70
4
71
3
72
20
73
16
40
0
40
0
40
0
40
0
40
0.215078512377887
40
0.215078512377887
40
0.322617768566831
40
0.322617768566831
40
0.430157024755774
40
0.430157024755774
40
0.645235537133661
40
0.645235537133661
40
0.752774793322605
40
0.752774793322605
40
0.860314049511548
40
0.860314049511548
40
1
40
1
40
1
40
1
41
1
10
5.18304781829841
20
-2.14362177134106
30
0
41
1
10
5.18284468037365
20
-2.24600056815879
30
0
41
1
10
5.18263144523536
20
-2.33943561937818
30
0
41
1
10
5.18230623467662
20
-2.46573201625085
30
0
41
1
10
5.1821970701213
20
-2.50540564970487
30
0
41
1
10
5.18198154279972
20
-2.57871101525257
30
0
41
1
10
5.18187470017136
20
-2.61253319865176
30
0
41
1
10
5.18155724031504
20
-2.70565063555225
30
0
41
1
10
5.18134997147146
20
-2.75664932320939
30
0
41
1
10
5.18104182257198
20
-2.81614645826758
30
0
41
1
10
5.18093911858546
20
-2.83316591647878
30
0
41
1
10
5.18073634019331
20
-2.8608860265899
30
0
41
1
10
5.18063594221371
20
-2.87166984061784
30
0
41
1
10
5.18040505528305
20
-2.88954111928513
30
0
41
1
10
5.18027464592959
20
-2.89458352770271
30
0
41
1
10
5.1801413246726
20
-2.8945274055103
30
0
0
SPLINE
5
C4
100
AcDbEntity
8
1
62
256
6
ByLayer
370
18
48
1
60
0
100
AcDbSpline
70
4
71
3
72
28
73
24
40
0
40
0
40
0
40
0
40
0.0793520866245852
40
0.0793520866245852
40
0.15870417324917
40
0.15870417324917
40
0.238056259873756
40
0.238056259873756
40
0.317408346498341
40
0.317408346498341
40
0.396760433122926
40
0.396760433122926
40
0.476112519747511
40
0.476112519747511
40
0.634816692996681
40
0.634816692996681
40
0.793520866245852
40
0.793520866245852
40
0.872872952870437
40
0.872872952870437
40
0.952225039495022
40
0.952225039495022
40
1
40
1
40
1
40
1
41
1
10
49.5667700419504
20
0.11356285395297
30
0
41
1
10
49.3558037620743
20
0.230652482144024
30
0
41
1
10
49.1446564462573
20
0.347702967843077
30
0
41
1
10
48.7227004804232
20
0.578623765333219
30
0
41
1
10
48.511866801569
20
0.692872860191727
30
0
41
1
10
48.0897808527375
20
0.917698977343946
30
0
41
1
10
47.8783526720984
20
1.02821313788274
30
0
41
1
10
47.4568773789528
20
1.24338628618582
30
0
41
1
10
47.2464036706707
20
1.34777961005997
30
0
41
1
10
46.8255645331573
20
1.54917282239748
30
0
41
1
10
46.6149404835418
20
1.64627940519082
30
0
41
1
10
46.1928710705112
20
1.83245531828649
30
0
41
1
10
45.9817105499551
20
1.92117144476649
30
0
41
1
10
45.3495816874273
20
2.17160980027182
30
0
41
1
10
44.9290077998653
20
2.31934703823725
30
0
41
1
10
44.0836394117452
20
2.56661286417352
30
0
41
1
10
43.6629580335458
20
2.66645432823736
30
0
41
1
10
43.031022827574
20
2.77202347154531
30
0
41
1
10
42.8197483369301
20
2.80013403316718
30
0
41
1
10
42.3974321937325
20
2.84376447985054
30
0
41
1
10
42.1865171922533
20
2.8590724573539
30
0
41
1
10
41.8487862695283
20
2.87269740716596
30
0
41
1
10
41.7218855207427
20
2.87534333945632
30
0
41
1
10
41.5949256117289
20
2.87545419780994
30
0
0
SPLINE
5
C5
100
AcDbEntity
8
1
62
256
6
ByLayer
370
18
48
1
60
0
100
AcDbSpline
70
4
71
3
72
74
73
70
40
0
40
0
40
0
40
0
40
0.0153236582149304
40
0.0153236582149304
40
0.046094793895713
40
0.046094793895713
40
0.0768659295764957
40
0.0768659295764957
40
0.107637065257278
40
0.107637065257278
40
0.138408200938061
40
0.138408200938061
40
0.169179336618844
40
0.169179336618844
40
0.199950472299626
40
0.199950472299626
40
0.230721607980409
40
0.230721607980409
40
0.261492743661192
40
0.261492743661192
40
0.292263879341974
40
0.292263879341974
40
0.323035015022757
40
0.323035015022757
40
0.35380615070354
40
0.35380615070354
40
0.384577286384322
40
0.384577286384322
40
0.399962854224714
40
0.399962854224714
40
0.415348422065105
40
0.415348422065105
40
0.446119557745889
40
0.446119557745889
40
0.476890693426672
40
0.476890693426672
40
0.507661829107456
40
0.507661829107456
40
0.538432964788239
40
0.538432964788239
40
0.569204100469023
40
0.569204100469023
40
0.599975236149806
40
0.599975236149806
40
0.63074637183059
40
0.63074637183059
40
0.661517507511373
40
0.661517507511373
40
0.692288643192157
40
0.692288643192157
40
0.72305977887294
40
0.72305977887294
40
0.738445346713332
40
0.738445346713332
40
0.753830914553724
40
0.753830914553724
40
0.815373185915292
40
0.815373185915292
40
0.846144321596077
40
0.846144321596077
40
0.876915457276862
40
0.876915457276862
40
0.907686592957646
40
0.907686592957646
40
0.938457728638431
40
0.938457728638431
40
0.969228864319215
40
0.969228864319215
40
1
40
1
40
1
40
1
41
1
10
29.6222927444151
20
-1.90944516879105
30
0
41
1
10
29.5171490114037
20
-1.95221910359695
30
0
41
1
10
29.4120220297823
20
-1.99374202585341
30
0
41
1
10
29.0957613588193
20
-2.11472145255166
30
0
41
1
10
28.8843304968782
20
-2.19083156556991
30
0
41
1
10
28.4605878793572
20
-2.33258896904621
30
0
41
1
10
28.2492785670686
20
-2.39747265429455
30
0
41
1
10
27.8269607088526
20
-2.51389336777203
30
0
41
1
10
27.615967953004
20
-2.56596297166806
30
0
41
1
10
27.1932426130228
20
-2.65888988142726
30
0
41
1
10
26.9814707115804
20
-2.69898449834946
30
0
41
1
10
26.5581507461178
20
-2.76402362876718
30
0
41
1
10
26.3470112816347
20
-2.78898764451273
30
0
41
1
10
25.9245238198403
20
-2.82761893108537
30
0
41
1
10
25.7132716555102
20
-2.84044706730401
30
0
41
1
10
25.2904444107039
20
-2.85057201815815
30
0
41
1
10
25.0783848799779
20
-2.84701394939864
30
0
41
1
10
24.6551200814847
20
-2.82872431588288
30
0
41
1
10
24.4436677619093
20
-2.81327653682717
30
0
41
1
10
24.0209223784227
20
-2.76771139958379
30
0
41
1
10
23.8096234061979
20
-2.73653782455847
30
0
41
1
10
23.3860097208158
20
-2.66255576283879
30
0
41
1
10
23.1738643341581
20
-2.61947133252915
30
0
41
1
10
22.7505972694285
20
-2.52055868546276
30
0
41
1
10
22.5394684821759
20
-2.46334498163941
30
0
41
1
10
22.1165690891336
20
-2.33847718768055
30
0
41
1
10
21.9049630323437
20
-2.27104200017962
30
0
41
1
10
21.5869279896158
20
-2.16149075042077
30
0
41
1
10
21.4809184234484
20
-2.12351022387517
30
0
41
1
10
21.2692449374168
20
-2.04447540327004
30
0
41
1
10
21.1635426858424
20
-2.0033113830462
30
0
41
1
10
20.8465978369406
20
-1.87650584626979
30
0
41
1
10
20.6352024368535
20
-1.78828773138414
30
0
41
1
10
20.2122485203606
20
-1.60357734546525
30
0
41
1
10
20.0003132852684
20
-1.50715645605737
30
0
41
1
10
19.5765104915977
20
-1.30491997390558
30
0
41
1
10
19.3650115809561
20
-1.20063536142243
30
0
41
1
10
18.9419048027663
20
-0.987904514956654
30
0
41
1
10
18.7304629804686
20
-0.879246068738922
30
0
41
1
10
18.3070584973036
20
-0.65677743173174
30
0
41
1
10
18.0948824564753
20
-0.542809324993186
30
0
41
1
10
17.6708964240763
20
-0.314611465892653
30
0
41
1
10
17.4592057262664
20
-0.199806362578727
30
0
41
1
10
17.0360697087568
20
0.0306329328313097
30
0
41
1
10
16.8245564011291
20
0.14617298814116
30
0
41
1
10
16.4007371658338
20
0.376060423402237
30
0
41
1
10
16.188198893813
20
0.490322066299797
30
0
41
1
10
15.764541579171
20
0.715652087199032
30
0
41
1
10
15.5531373950468
20
0.826387079062926
30
0
41
1
10
15.1299736819303
20
1.04327754344371
30
0
41
1
10
14.9182511521924
20
1.1496105025501
30
0
41
1
10
14.5999701698717
20
1.30470053850763
30
0
41
1
10
14.4937576804175
20
1.35569033098145
30
0
41
1
10
14.2818682428889
20
1.45558479183092
30
0
41
1
10
14.1760522527483
20
1.50436990092479
30
0
41
1
10
13.6469821062571
20
1.74329929031433
30
0
41
1
10
13.2239263881991
20
1.92129331844882
30
0
41
1
10
12.5874335884656
20
2.15386872223894
30
0
41
1
10
12.3755880002199
20
2.22608575346726
30
0
41
1
10
11.9522560682915
20
2.36023851333309
30
0
41
1
10
11.7406357126517
20
2.42182649618084
30
0
41
1
10
11.3172854822135
20
2.53116568632711
30
0
41
1
10
11.1052064374138
20
2.57920241147013
30
0
41
1
10
10.6804537361851
20
2.66406932404982
30
0
41
1
10
10.4685995440354
20
2.7002215906025
30
0
41
1
10
10.0452383344659
20
2.75780398881321
30
0
41
1
10
9.83390252297119
20
2.77897363393797
30
0
41
1
10
9.41037481007248
20
2.80883924357369
30
0
41
1
10
9.19866272929468
20
2.81726615589147
30
0
41
1
10
8.98603465973122
20
2.81823425902112
30
0
0
SPLINE
5
C6
100
AcDbEntity
8
1
62
256
6
ByLayer
370
18
48
1
60
0
100
AcDbSpline
70
4
71
3
72
12
73
8
40
0
40
0
40
0
40
0
40
0.25
40
0.25
40
0.5
40
0.5
40
1
40
1
40
1
40
1
41
1
10
49.8333084823612
20
1.3349124394442
30
0
41
1
10
49.8501915342682
20
1.43715391495238
30
0
41
1
10
49.8718489182123
20
1.53809588602965
30
0
41
1
10
49.9199264073354
20
1.73868348404645
30
0
41
1
10
49.9464413784118
20
1.83830328985474
30
0
41
1
10
50.0302852028485
20
2.1359926055525
30
0
41
1
10
50.0917870847705
20
2.33292627715838
30
0
41
1
10
50.1556129039695
20
2.52922740650178
30
0
0
SPLINE
5
C7
100
AcDbEntity
8
1
62
256
6
ByLayer
370
18
48
1
60
0
100
AcDbSpline
70
4
71
3
72
20
73
16
40
0
40
0
40
0
40
0
40
0.185753439660533
40
0.185753439660533
40
0.371506879321066
40
0.371506879321066
40
0.5572603189816
40
0.5572603189816
40
0.743013758642133
40
0.743013758642133
40
0.835890478472398
40
0.835890478472398
40
0.928767198302663
40
0.928767198302663
40
1
40
1
40
1
40
1
41
1
10
11.2133841183056
20
-0.901867727706389
30
0
41
1
10
11.6189271095277
20
-1.11793685339092
30
0
41
1
10
12.0232526692759
20
-1.323640488314
30
0
41
1
10
12.8322581603369
20
-1.71008499477315
30
0
41
1
10
13.238412047913
20
-1.89001996282391
30
0
41
1
10
14.0472206096755
20
-2.211750048612
30
0
41
1
10
14.4515490858455
20
-2.35403993392288
30
0
41
1
10
15.2625195295433
20
-2.59424774170543
30
0
41
1
10
15.6660525287567
20
-2.69155935765519
30
0
41
1
10
16.2729038054837
20
-2.80011189901015
30
0
41
1
10
16.4755553978927
20
-2.83018074145795
30
0
41
1
10
16.8808188464986
20
-2.87721859743905
30
0
41
1
10
17.0829651375302
20
-2.89424187813705
30
0
41
1
10
17.4400602981714
20
-2.91270568209117
30
0
41
1
10
17.5950098877141
20
-2.91686322121814
30
0
41
1
10
17.7500292106294
20
-2.91714212783649
30
0
0
SPLINE
5
C8
100
AcDbEntity
8
1
62
256
6
ByLayer
370
18
48
1
60
0
100
AcDbSpline
70
4
71
3
72
56
73
52
40
0
40
0
40
0
40
0
40
0.0492607894349254
40
0.0492607894349254
40
0.0789713897650848
40
0.0789713897650848
40
0.108681990095244
40
0.108681990095244
40
0.168103190755562
40
0.168103190755562
40
0.227524391415879
40
0.227524391415879
40
0.286945592076197
40
0.286945592076197
40
0.346366792736514
40
0.346366792736514
40
0.376077393066673
40
0.376077393066673
40
0.405787993396831
40
0.405787993396831
40
0.465209194057147
40
0.465209194057147
40
0.494919794387305
40
0.494919794387305
40
0.524630394717463
40
0.524630394717463
40
0.55434099504762
40
0.55434099504762
40
0.584051595377778
40
0.584051595377778
40
0.643472796038096
40
0.643472796038096
40
0.673183396368254
40
0.673183396368254
40
0.702893996698413
40
0.702893996698413
40
0.732604597028572
40
0.732604597028572
40
0.76231519735873
40
0.76231519735873
40
0.821736398019049
40
0.821736398019049
40
0.851446998349208
40
0.851446998349208
40
0.881157598679367
40
0.881157598679367
40
0.910868199009525
40
0.910868199009525
40
0.940578799339684
40
0.940578799339684
40
1
40
1
40
1
40
1
41
1
10
29.6192363327294
20
1.91155455159566
30
0
41
1
10
29.9537662266941
20
2.05523220571209
30
0
41
1
10
30.2878530669706
20
2.18713861754375
30
0
41
1
10
30.8253201846181
20
2.37630198367916
30
0
41
1
10
31.0275850827815
20
2.44223629661303
30
0
41
1
10
31.4310647598276
20
2.56270693240373
30
0
41
1
10
31.6327076907639
20
2.61716360531133
30
0
41
1
10
32.237615105203
20
2.7629735613572
30
0
41
1
10
32.6426352467248
20
2.83626987785343
30
0
41
1
10
33.4492732190883
20
2.93036829567978
30
0
41
1
10
33.8519724327035
20
2.95136832340617
30
0
41
1
10
34.6610425726327
20
2.94003763418888
30
0
41
1
10
35.0634835708155
20
2.90769585237214
30
0
41
1
10
35.870145626722
20
2.79162590979695
30
0
41
1
10
36.2747321401906
20
2.70737936022951
30
0
41
1
10
36.8794017922093
20
2.54631109662907
30
0
41
1
10
37.0807763785617
20
2.48675017932763
30
0
41
1
10
37.4839650940669
20
2.35658772838741
30
0
41
1
10
37.6860531490901
20
2.28591447065747
30
0
41
1
10
38.2918703640139
20
2.05864624732848
30
0
41
1
10
38.6942563168977
20
1.88799386053625
30
0
41
1
10
39.2989211556789
20
1.60779981780396
30
0
41
1
10
39.5011179273673
20
1.51042305311154
30
0
41
1
10
39.9047709262662
20
1.30922756603181
30
0
41
1
10
40.1062587786116
20
1.20570661808685
30
0
41
1
10
40.5090124907603
20
0.993580159520292
30
0
41
1
10
40.7103299031732
20
0.88505662648069
30
0
41
1
10
41.1135217932746
20
0.664210085642253
30
0
41
1
10
41.3156502971925
20
0.551598633885817
30
0
41
1
10
41.92094087412
20
0.211786198194005
30
0
41
1
10
42.322806057812
20
-0.0183978074833817
30
0
41
1
10
42.9276905947046
20
-0.361048879422043
30
0
41
1
10
43.1297717796105
20
-0.475261600657461
30
0
41
1
10
43.5330466440496
20
-0.700163406273816
30
0
41
1
10
43.7342952988146
20
-0.811244305361242
30
0
41
1
10
44.1368514963779
20
-1.02924822121804
30
0
41
1
10
44.3381474315366
20
-1.13619427999325
30
0
41
1
10
44.7412713481301
20
-1.34512558076443
30
0
41
1
10
44.9434248564623
20
-1.44692217162199
30
0
41
1
10
45.5477552845279
20
-1.74162909645298
30
0
41
1
10
45.949675373019
20
-1.92342887110488
30
0
41
1
10
46.5544223861558
20
-2.16944400494114
30
0
41
1
10
46.7564360247237
20
-2.24682754234371
30
0
41
1
10
47.1591068291755
20
-2.39088740972179
30
0
41
1
10
47.3601688584967
20
-2.4576151323212
30
0
41
1
10
47.7623637088991
20
-2.57987713035658
30
0
41
1
10
47.9634616935682
20
-2.63543721737085
30
0
41
1
10
48.3665119445695
20
-2.73462514959775
30
0
41
1
10
48.5684209120347
20
-2.7783547768569
30
0
41
1
10
49.1724750828691
20
-2.89000342239669
30
0
41
1
10
49.573666176062
20
-2.93909839928582
30
0
41
1
10
49.9763768410533
20
-2.96167458482779
30
0
0
SPLINE
5
C9
100
AcDbEntity
8
1
62
256
6
ByLayer
370
18
48
1
60
0
100
AcDbSpline
70
4
71
3
72
8
73
4
40
0
40
0
40
0
40
0
40
1
40
1
40
1
40
1
41
1
10
50.9795829976939
20
-0.113993448586029
30
0
41
1
10
50.7007904956224
20
-0.917667249584952
30
0
41
1
10
50.4261193202021
20
-1.72274032016335
30
0
41
1
10
50.1556129039695
20
-2.5292274065018
30
0
0
SPLINE
5
CA
100
AcDbEntity
8
1
62
256
6
ByLayer
370
13
48
1
60
0
100
AcDbSpline
70
4
71
3
72
32
73
28
40
0
40
0
40
0
40
0
40
0.105014438590477
40
0.105014438590477
40
0.157521657885717
40
0.157521657885717
40
0.210028877180956
40
0.210028877180956
40
0.315043315771433
40
0.315043315771433
40
0.367550535066673
40
0.367550535066673
40
0.420057754361913
40
0.420057754361913
40
0.630086631542872
40
0.630086631542872
40
0.682593850838111
40
0.682593850838111
40
0.735101070133351
40
0.735101070133351
40
0.840115508723833
40
0.840115508723833
40
0.892622728019074
40
0.892622728019074
40
0.945129947314315
40
0.945129947314315
40
1
40
1
40
1
40
1
41
1
10
49.8637415882682
20
-2.73591252150058
30
0
41
1
10
49.40089045423
20
-2.65213120711093
30
0
41
1
10
48.9400274578318
20
-2.53651749723514
30
0
41
1
10
48.2470853502263
20
-2.32017580162074
30
0
41
1
10
48.0152771268034
20
-2.24069875363762
30
0
41
1
10
47.5525705705526
20
-2.06930098059959
30
0
41
1
10
47.3223189188386
20
-1.9775926933057
30
0
41
1
10
46.6332807918805
20
-1.68693098937786
30
0
41
1
10
46.176290603354
20
-1.47237155801551
30
0
41
1
10
45.4887217983052
20
-1.12820918874888
30
0
41
1
10
45.2592107402908
20
-1.0097459692378
30
0
41
1
10
44.7986241505222
20
-0.766810735645265
30
0
41
1
10
44.5668874419015
20
-0.642003471282692
30
0
41
1
10
43.409457014189
20
-0.0113042903652172
30
0
41
1
10
42.5007573231117
20
0.50740781884727
30
0
41
1
10
41.3487021746062
20
1.10483070254008
30
0
41
1
10
41.1168792809502
20
1.22212257781871
30
0
41
1
10
40.6537037369786
20
1.44844221459724
30
0
41
1
10
40.4231885436489
20
1.55688686497155
30
0
41
1
10
39.7332757006085
20
1.86684461949204
30
0
41
1
10
39.2757383072902
20
2.05310552985105
30
0
41
1
10
38.5872102050014
20
2.2938297658807
30
0
41
1
10
38.3574076521615
20
2.36789694906
30
0
41
1
10
37.8961219862938
20
2.50189119845095
30
0
41
1
10
37.6639222320735
20
2.56184748148698
30
0
41
1
10
37.1902879316528
20
2.66834863404807
30
0
41
1
10
36.9493789670454
20
2.71413188915926
30
0
41
1
10
36.7090392400495
20
2.75100723882323
30
0
0
SPLINE
5
CB
100
AcDbEntity
8
1
62
256
6
ByLayer
370
13
48
1
60
0
100
AcDbSpline
70
4
71
3
72
28
73
24
40
0
40
0
40
0
40
0
40
0.0085576942062896
40
0.0085576942062896
40
0.0607388681954331
40
0.0607388681954331
40
0.165101216173719
40
0.165101216173719
40
0.269463564152005
40
0.269463564152005
40
0.373825912130291
40
0.373825912130291
40
0.478188260108577
40
0.478188260108577
40
0.53036943409772
40
0.53036943409772
40
0.582550608086863
40
0.582550608086863
40
0.686912956065147
40
0.686912956065147
40
0.791275304043432
40
0.791275304043432
40
1
40
1
40
1
40
1
41
1
10
18.8588804017642
20
-2.83414530377848
30
0
41
1
10
18.8207997959613
20
-2.83399760754528
30
0
41
1
10
18.7826919332262
20
-2.83362163535091
30
0
41
1
10
18.5120098496661
20
-2.82932317284889
30
0
41
1
10
18.2798033462688
20
-2.81706846242736
30
0
41
1
10
17.5863769302279
20
-2.75585660222933
30
0
41
1
10
17.127093195941
20
-2.68214842486191
30
0
41
1
10
16.206520041515
20
-2.47417966869617
30
0
41
1
10
15.7455913645517
20
-2.33965386840279
30
0
41
1
10
14.8143162710469
20
-2.01567903765292
30
0
41
1
10
14.3526113946167
20
-1.82873355199084
30
0
41
1
10
13.4315115007678
20
-1.41870274039349
30
0
41
1
10
12.9720495164989
20
-1.19489147429522
30
0
41
1
10
12.2785035243451
20
-0.840742891732049
30
0
41
1
10
12.0466777579202
20
-0.71950755714451
30
0
41
1
10
11.5807223055933
20
-0.47220954950032
30
0
41
1
10
11.3488084068185
20
-0.347452782328588
30
0
41
1
10
10.6550709452546
20
0.0273674958681909
30
0
41
1
10
10.1953738141361
20
0.27843601346072
30
0
41
1
10
9.27382302342642
20
0.768515254922789
30
0
41
1
10
8.81187313326606
20
1.00804950651954
30
0
41
1
10
7.41348677787886
20
1.68697129375903
30
0
41
1
10
6.50095051519665
20
2.06953316019818
30
0
41
1
10
5.57866669667965
20
2.34345542313255
30
0
0
SPLINE
5
CC
100
AcDbEntity
8
1
62
256
6
ByLayer
370
13
48
1
60
0
100
AcDbSpline
70
4
71
3
72
16
73
12
40
0
40
0
40
0
40
0
40
0.0553142886901885
40
0.0553142886901885
40
0.291485716517641
40
0.291485716517641
40
0.527657144345094
40
0.527657144345094
40
0.763828572172547
40
0.763828572172547
40
1
40
1
40
1
40
1
41
1
10
5.57869310043429
20
-2.81264274967395
30
0
41
1
10
5.57869630858667
20
-2.81262588334727
30
0
41
1
10
5.57869976411098
20
-2.81198121907352
30
0
41
1
10
5.57871932347598
20
-2.80524279706481
30
0
41
1
10
5.57873962307357
20
-2.78834247962246
30
0
41
1
10
5.57878846751143
20
-2.7317188811393
30
0
41
1
10
5.57881654955929
20
-2.69252895306136
30
0
41
1
10
5.5788775068475
20
-2.59327119556676
30
0
41
1
10
5.5789103932824
20
-2.53320214017091
30
0
41
1
10
5.57897734583634
20
-2.3915126270918
30
0
41
1
10
5.57901123636265
20
-2.31004452416349
30
0
41
1
10
5.57904223915139
20
-2.21995292224463
30
0
0
SPLINE
5
CD
100
AcDbEntity
8
1
62
256
6
ByLayer
370
18
48
1
60
0
100
AcDbSpline
70
4
71
3
72
20
73
16
40
0
40
0
40
0
40
0
40
0.0635071456493382
40
0.0635071456493382
40
0.219589288041115
40
0.219589288041115
40
0.375671430432892
40
0.375671430432892
40
0.531753572824669
40
0.531753572824669
40
0.687835715216446
40
0.687835715216446
40
0.843917857608223
40
0.843917857608223
40
1
40
1
40
1
40
1
41
1
10
49.4798997967319
20
0.220404664430106
30
0
41
1
10
49.4869120919945
20
0.225197969419611
30
0
41
1
10
49.4943997562129
20
0.231130974541031
30
0
41
1
10
49.521675476533
20
0.255539064488261
30
0
41
1
10
49.5434825253058
20
0.279526803989512
30
0
41
1
10
49.5912284820955
20
0.341395451555258
30
0
41
1
10
49.6169154197246
20
0.379040440221473
30
0
41
1
10
49.6688920156323
20
0.465176703336482
30
0
41
1
10
49.6957616612444
20
0.514601761951639
30
0
41
1
10
49.7471119009215
20
0.622928589468813
30
0
41
1
10
49.7714818730374
20
0.681293012756583
30
0
41
1
10
49.8136427395085
20
0.807244142500394
30
0
41
1
10
49.8314086428418
20
0.874989744121706
30
0
41
1
10
49.8502414132512
20
1.01440039383101
30
0
41
1
10
49.8511085687631
20
1.08760005834986
30
0
41
1
10
49.8376510707158
20
1.15925892834633
30
0
0
SPLINE
5
CE
100
AcDbEntity
8
1
62
256
6
ByLayer
370
18
48
1
60
0
100
AcDbSpline
70
4
71
3
72
8
73
4
40
0
40
0
40
0
40
0
40
1
40
1
40
1
40
1
41
1
10
49.8376510707159
20
1.15925892834633
30
0
41
1
10
49.8267200892035
20
1.21746453093184
30
0
41
1
10
49.8235653101787
20
1.27590910844572
30
0
41
1
10
49.8333084823596
20
1.33491243944403
30
0
0
SPLINE
5
CF
100
AcDbEntity
8
1
62
256
6
ByLayer
370
18
48
1
60
0
100
AcDbSpline
70
4
71
3
72
8
73
4
40
0
40
0
40
0
40
0
40
1
40
1
40
1
40
1
41
1
10
49.5667700419504
20
0.11356285395297
30
0
41
1
10
49.7262555998111
20
0.0801063410342522
30
0
41
1
10
49.8866200833575
20
0.0524638721400379
30
0
41
1
10
50.0479492140409
20
0.0312024898541097
30
0
0
SPLINE
5
D0
100
AcDbEntity
8
1
62
256
6
ByLayer
370
13
48
1
60
0
100
AcDbSpline
70
4
71
3
72
84
73
80
40
0
40
0
40
0
40
0
40
0.0096963957537315
40
0.0162750591380377
40
0.0294323859066577
40
0.0425897126752778
40
0.0623257028282095
40
0.0689043662125191
40
0.0820616929811383
40
0.0952190197497591
40
0.11495500990269
40
0.121533673287
40
0.13469100005562
40
0.147848326824238
40
0.167584316977174
40
0.174162980361482
40
0.187320307130101
40
0.200477633898721
40
0.220213624051653
40
0.226792287435963
40
0.239949614204583
40
0.253106940973202
40
0.272842931126134
40
0.279421594510444
40
0.292578921279065
40
0.305736248047686
40
0.325472238200615
40
0.332050901584926
40
0.345208228353544
40
0.358365555122165
40
0.378101545275095
40
0.384680208659407
40
0.397837535428026
40
0.410994862196648
40
0.430730852349578
40
0.437309515733888
40
0.450466842502509
40
0.463624169271128
40
0.48336015942406
40
0.489938822808369
40
0.503096149576989
40
0.51625347634561
40
0.53598946649854
40
0.542568129882851
40
0.555725456651471
40
0.568882783420091
40
0.588618773573019
40
0.595197436957332
40
0.608354763725953
40
0.621512090494571
40
0.641248080647501
40
0.647826744031813
40
0.660984070800434
40
0.674141397569052
40
0.693877387721982
40
0.700456051106294
40
0.713613377874914
40
0.726770704643535
40
0.746506694796464
40
0.753085358180775
40
0.766242684949396
40
0.779400011718016
40
0.799136001870947
40
0.805714665255257
40
0.818871992023877
40
0.832029318792499
40
0.851765308945427
40
0.858343972329738
40
0.871501299098359
40
0.884658625866979
40
0.904394616019909
40
0.910973279404219
40
0.92413060617284
40
0.93728793294146
40
0.957023923094391
40
0.9636025864787
40
0.97675991324732
40
0.989917240015941
40
1
40
1
40
1
40
1
41
1
10
44.1891803519142
20
-1.07738906212796
30
0
41
1
10
44.1551142663543
20
-1.08018882666434
30
0
41
1
10
44.0979350808184
20
-1.08477333669313
30
0
41
1
10
43.9945311244429
20
-1.09271101462127
30
0
41
1
10
43.8789759956376
20
-1.10107552760036
30
0
41
1
10
43.7171970839564
20
-1.1118635629187
30
0
41
1
10
43.5785192668155
20
-1.12014967235044
30
0
41
1
10
43.4398433988679
20
-1.12764717934272
30
0
41
1
10
43.3242882289558
20
-1.13336955548357
30
0
41
1
10
43.1625093154698
20
-1.14043627911397
30
0
41
1
10
43.0238315395208
20
-1.14551744044203
30
0
41
1
10
42.8851557267148
20
-1.14979365316773
30
0
41
1
10
42.7696006121012
20
-1.1528160680453
30
0
41
1
10
42.6078217899468
20
-1.15608735212265
30
0
41
1
10
42.4691440973786
20
-1.15790779626513
30
0
41
1
10
42.3304683614581
20
-1.15891447453635
30
0
41
1
10
42.2149133006802
20
-1.15920207824362
30
0
41
1
10
42.0531345226169
20
-1.15863785733566
30
0
41
1
10
41.914456826231
20
-1.15717133604031
30
0
41
1
10
41.7757810428533
20
-1.1548881228008
30
0
41
1
10
41.6602259123054
20
-1.15242793181147
30
0
41
1
10
41.4984470072467
20
-1.14802018198239
30
0
41
1
10
41.3597692007248
20
-1.14327376807719
30
0
41
1
10
41.2210933421363
20
-1.13772364863553
30
0
41
1
10
41.1055381792588
20
-1.13254621906694
30
0
41
1
10
40.9437592776974
20
-1.12435488497286
30
0
41
1
10
40.8050815165658
20
-1.116394149173
30
0
41
1
10
40.6664057259033
20
-1.10765020388908
30
0
41
1
10
40.5508506288899
20
-1.09982082488787
30
0
41
1
10
40.389071825051
20
-1.08794496425136
30
0
41
1
10
40.2503941440739
20
-1.07686270710849
30
0
41
1
10
40.1117184184448
20
-1.0650250047384
30
0
41
1
10
39.9961633669391
20
-1.05463234095438
30
0
41
1
10
39.834384600636
20
-1.03920458025459
30
0
41
1
10
39.6957069089516
20
-1.02512245645178
30
0
41
1
10
39.5570311209577
20
-1.0103191049362
30
0
41
1
10
39.4414759828876
20
-0.997474514623747
30
0
41
1
10
39.2796970677352
20
-0.97866020188755
30
0
41
1
10
39.1410192568146
20
-0.961731350714189
30
0
41
1
10
39.0023434023024
20
-0.944127683386256
30
0
41
1
10
38.8867882500067
20
-0.928977776558895
30
0
41
1
10
38.7250093701335
20
-0.906995499683944
30
0
41
1
10
38.5863316269851
20
-0.887418605700418
30
0
41
1
10
38.4476558448108
20
-0.867220396027676
30
0
41
1
10
38.3321007426848
20
-0.849941250841056
30
0
41
1
10
38.1703219123782
20
-0.825044700432954
30
0
41
1
10
38.0316441971513
20
-0.803043862985788
30
0
41
1
10
37.8929684383756
20
-0.780480918059766
30
0
41
1
10
37.7774133601952
20
-0.761268287765205
30
0
41
1
10
37.6156345602504
20
-0.733738250658575
30
0
41
1
10
37.4769568481136
20
-0.70956055508654
30
0
41
1
10
37.3382810505222
20
-0.684885801731099
30
0
41
1
10
37.222725920643
20
-0.663954851835427
30
0
41
1
10
37.060947043533
20
-0.63409992583243
30
0
41
1
10
36.9222692790984
20
-0.608017397104049
30
0
41
1
10
36.7835934663681
20
-0.581510108279701
30
0
41
1
10
36.6680383404243
20
-0.559098919067253
30
0
41
1
10
36.5062594720774
20
-0.527260435106456
30
0
41
1
10
36.3675817041793
20
-0.499572683411628
30
0
41
1
10
36.2289058602917
20
-0.471537927497366
30
0
41
1
10
36.1133506808877
20
-0.447904668579952
30
0
41
1
10
35.9515717065993
20
-0.414448742306462
30
0
41
1
10
35.8128938440556
20
-0.385472269505726
30
0
41
1
10
35.6742179358833
20
-0.356227576387084
30
0
41
1
10
35.5586627369745
20
-0.331637817729302
30
0
41
1
10
35.3968837987797
20
-0.296937892186406
30
0
41
1
10
35.2582060246138
20
-0.266994955803654
30
0
41
1
10
35.1195302395592
20
-0.236866421121135
30
0
41
1
10
35.003975163249
20
-0.211595259709156
30
0
41
1
10
34.8421964131421
20
-0.176041319340754
30
0
41
1
10
34.7035187947437
20
-0.145470463760546
30
0
41
1
10
34.5648431335676
20
-0.114800507521778
30
0
41
1
10
34.4492881337977
20
-0.0891362972451475
30
0
41
1
10
34.2875094322075
20
-0.0531362771095587
30
0
41
1
10
34.1488317843964
20
-0.0222908114874087
30
0
41
1
10
34.0101560271073
20
0.0085639208754742
30
0
41
1
10
33.8946009030383
20
0.0343213548159724
30
0
41
1
10
33.7667344145754
20
0.0627953731923014
30
0
41
1
10
33.6850862360572
20
0.0809280975480817
30
0
41
1
10
33.6496627112247
20
0.0887868719039488
30
0
0
SPLINE
5
D1
100
AcDbEntity
8
1
62
256
6
ByLayer
370
13
48
1
60
0
100
AcDbSpline
70
4
71
3
72
20
73
16
40
0
40
0
40
0
40
0
40
0.0868955371290345
40
0.123419715643875
40
0.19646807267355
40
0.269516429703228
40
0.379088965247744
40
0.415613143762582
40
0.488661500792259
40
0.561709857821937
40
0.671282393366453
40
0.707806571881291
40
0.744330750396131
40
0.853903285940647
40
1
40
1
40
1
40
1
41
1
10
11.5253824199872
20
-1.07434507090915
30
0
41
1
10
11.4703953355397
20
-1.07893412804239
30
0
41
1
10
11.3922938970639
20
-1.08520119019124
30
0
41
1
10
11.2679680858959
20
-1.09460018256271
30
0
41
1
10
11.1524128863655
20
-1.10283282115984
30
0
41
1
10
10.9906339436469
20
-1.113440953934
30
0
41
1
10
10.8519561580522
20
-1.12157743055414
30
0
41
1
10
10.7132803507277
20
-1.12892765865084
30
0
41
1
10
10.5977252503785
20
-1.13452828271679
30
0
41
1
10
10.43594646261
20
-1.14142614853239
30
0
41
1
10
10.2972688113809
20
-1.14636377077562
30
0
41
1
10
10.1817015570374
20
-1.14982238064133
30
0
41
1
10
10.0661509590916
20
-1.15287998920488
30
0
41
1
10
9.88127414520528
20
-1.1566429535047
30
0
41
1
10
9.71947193007264
20
-1.15839818754969
30
0
41
1
10
9.62701177952923
20
-1.15887137515506
30
0
0
SPLINE
5
D2
100
AcDbEntity
8
1
62
256
6
ByLayer
370
18
48
1
60
0
100
AcDbSpline
70
4
71
3
72
8
73
4
40
0
40
0
40
0
40
0
40
1
40
1
40
1
40
1
41
1
10
50.5174050210421
20
-0.810326490362741
30
0
41
1
10
50.524275993393
20
-0.808693922620392
30
0
41
1
10
50.5312515373678
20
-0.806665055068351
30
0
41
1
10
50.5383360933994
20
-0.804223059597888
30
0
0
SPLINE
5
D3
100
AcDbEntity
8
1
62
256
6
ByLayer
370
18
48
1
60
0
100
AcDbSpline
70
4
71
4
72
10
73
5
40
0
40
0
40
0
40
0
40
0
40
1
40
1
40
1
40
1
40
1
41
1
10
9.6270117795292
20
-1.15887137515506
30
0
41
1
10
9.4667674995797
20
-1.5737120961216
30
0
41
1
10
9.30652321963021
20
-1.98855281708811
30
0
41
1
10
9.14627893968071
20
-2.40339353805462
30
0
41
1
10
8.98603465973122
20
-2.81823425902115
30
0
0
SPLINE
5
D4
100
AcDbEntity
8
1
62
256
6
ByLayer
370
13
48
1
60
0
100
AcDbSpline
70
4
71
3
72
16
73
12
40
0
40
0
40
0
40
0
40
0.276745337900442
40
0.276745337900442
40
0.415118006850662
40
0.415118006850662
40
0.553490675800883
40
0.553490675800883
40
0.830236013701323
40
0.830236013701323
40
1
40
1
40
1
40
1
41
1
10
5.57866669667965
20
2.34345542313255
30
0
41
1
10
5.57866649347847
20
2.42488368499471
30
0
41
1
10
5.57866388610361
20
2.49585626659669
30
0
41
1
10
5.57866050037018
20
2.58706627522167
30
0
41
1
10
5.57865944916034
20
2.61491624798276
30
0
41
1
10
5.57865809535733
20
2.66544043881146
30
0
41
1
10
5.57865779716403
20
2.68815892873241
30
0
41
1
10
5.57865881555867
20
2.74749687872085
30
0
41
1
10
5.57866206375269
20
2.77572263755855
30
0
41
1
10
5.57867367003783
20
2.80342558395256
30
0
41
1
10
5.57867958186404
20
2.80979229603992
30
0
41
1
10
5.57868715124894
20
2.81188040996074
30
0
0
SPLINE
5
D5
100
AcDbEntity
8
1
62
256
6
ByLayer
370
18
48
1
60
0
100
AcDbSpline
70
4
71
3
72
12
73
8
40
0
40
0
40
0
40
0
40
0.249999999999992
40
0.249999999999992
40
0.499999999999984
40
0.499999999999984
40
1
40
1
40
1
40
1
41
1
10
5.1774782684235
20
2.49317983168348
30
0
41
1
10
5.17738595565373
20
2.47344559526189
30
0
41
1
10
5.19357953922082
20
2.45438922220939
30
0
41
1
10
5.23486673549263
20
2.41987414973462
30
0
41
1
10
5.26085516283291
20
2.40403036150261
30
0
41
1
10
5.34392405103293
20
2.36025307627477
30
0
41
1
10
5.40768754496622
20
2.33491745902543
30
0
41
1
10
5.47446315989527
20
2.31267133854834
30
0
0
SPLINE
5
D6
100
AcDbEntity
8
1
62
256
6
ByLayer
370
13
48
1
60
0
100
AcDbSpline
70
4
71
3
72
84
73
80
40
0
40
0
40
0
40
0
40
0.0062921256392081
40
0.019429300791776
40
0.0391350635206286
40
0.0457036510969125
40
0.0588408262494811
40
0.0719780014020506
40
0.0916837641309007
40
0.098252351707185
40
0.111389526859753
40
0.12452670201232
40
0.144232464741174
40
0.150801052317458
40
0.163938227470025
40
0.177075402622594
40
0.196781165351447
40
0.203349752927731
40
0.216486928080298
40
0.229624103232866
40
0.249329865961719
40
0.255898453538003
40
0.269035628690571
40
0.282172803843139
40
0.301878566571992
40
0.308447154148276
40
0.321584329300843
40
0.334721504453414
40
0.354427267182265
40
0.360995854758548
40
0.374133029911117
40
0.387270205063685
40
0.406975967792537
40
0.413544555368821
40
0.426681730521388
40
0.439818905673957
40
0.459524668402809
40
0.466093255979094
40
0.479230431131662
40
0.49236760628423
40
0.512073369013082
40
0.518641956589366
40
0.531779131741935
40
0.544916306894503
40
0.564622069623355
40
0.571190657199639
40
0.584327832352207
40
0.597465007504776
40
0.617170770233627
40
0.623739357809912
40
0.63687653296248
40
0.650013708115048
40
0.6697194708439
40
0.676288058420184
40
0.689425233572752
40
0.702562408725321
40
0.722268171454173
40
0.728836759030457
40
0.741973934183025
40
0.755111109335593
40
0.774816872064445
40
0.781385459640729
40
0.794522634793297
40
0.807659809945866
40
0.827365572674718
40
0.833934160251002
40
0.84707133540357
40
0.860208510556138
40
0.87991427328499
40
0.886482860861275
40
0.899620036013844
40
0.912757211166411
40
0.932462973895263
40
0.939031561471547
40
0.952168736624116
40
0.965305911776684
40
0.985011674505536
40
0.99158026208182
40
1
40
1
40
1
40
1
41
1
10
27.8594534229513
20
-1.07570405058428
30
0
41
1
10
27.8373148599912
20
-1.0775408712565
30
0
41
1
10
27.7689543719605
20
-1.08312066689172
30
0
41
1
10
27.6312596157156
20
-1.09379090426265
30
0
41
1
10
27.4925819544146
20
-1.10358735987566
30
0
41
1
10
27.3539061855184
20
-1.11260163294421
30
0
41
1
10
27.2383510506285
20
-1.11959363683852
30
0
41
1
10
27.0765721157352
20
-1.12844320750233
30
0
41
1
10
26.9378942677904
20
-1.13505529466173
30
0
41
1
10
26.7992183662424
20
-1.14086791070511
30
0
41
1
10
26.6836631701591
20
-1.14517684819955
30
0
41
1
10
26.5218842284072
20
-1.15025506805486
30
0
41
1
10
26.3832064396203
20
-1.15362693250586
30
0
41
1
10
26.2445306268414
20
-1.15618925514474
30
0
41
1
10
26.1289755169294
20
-1.15777821395315
30
0
41
1
10
25.9671967064344
20
-1.15903971063955
30
0
41
1
10
25.8285190305252
20
-1.15913880709383
30
0
41
1
10
25.6898433173148
20
-1.15842372640549
30
0
41
1
10
25.5742882797317
20
-1.15727398589163
30
0
41
1
10
25.4125095327716
20
-1.15469922045608
30
0
41
1
10
25.2738318511838
20
-1.15151547702106
30
0
41
1
10
25.1351560605515
20
-1.1475186940948
30
0
41
1
10
25.0196009087683
20
-1.14363081135616
30
0
41
1
10
24.8578219568888
20
-1.13723123662385
30
0
41
1
10
24.7191441024312
20
-1.13078925124873
30
0
41
1
10
24.5804682026196
20
-1.12355234543577
30
0
41
1
10
24.4649130111033
20
-1.11697314300156
30
0
41
1
10
24.3031340787091
20
-1.10683255451872
30
0
41
1
10
24.1644563010619
20
-1.09721913784188
30
0
41
1
10
24.0257805011287
20
-1.08683669562544
30
0
41
1
10
23.9102254056426
20
-1.07764949446519
30
0
41
1
10
23.7484466215767
20
-1.06389197481616
30
0
41
1
10
23.6097689707478
20
-1.05122070972169
30
0
41
1
10
23.4710932800019
20
-1.03781259119697
30
0
41
1
10
23.3555382576976
20
-1.02612184073027
30
0
41
1
10
23.1937595282972
20
-1.00890107774956
30
0
41
1
10
23.0550818615459
20
-0.993310899879276
30
0
41
1
10
22.916406090565
20
-0.977022330605564
30
0
41
1
10
22.8008509545629
20
-0.962953657450271
30
0
41
1
10
22.6390720148414
20
-0.94245472864921
30
0
41
1
10
22.5003941565971
20
-0.924115176285852
30
0
41
1
10
22.3617182364618
20
-0.905127220224813
30
0
41
1
10
22.2461630176214
20
-0.888839885698758
30
0
41
1
10
22.0843840360504
20
-0.865298397838615
30
0
41
1
10
21.9457062123007
20
-0.844422187351199
30
0
41
1
10
21.8070303727936
20
-0.822954461379709
30
0
41
1
10
21.6914752488451
20
-0.804636020688548
30
0
41
1
10
21.5296964322268
20
-0.778321731275327
30
0
41
1
10
21.3910187620328
20
-0.755146865822354
30
0
41
1
10
21.2523430592176
20
-0.731443367554562
30
0
41
1
10
21.1367880329504
20
-0.711301607354642
30
0
41
1
10
20.9750093124043
20
-0.682512366158534
30
0
41
1
10
20.8363316699706
20
-0.657300631627322
30
0
41
1
10
20.697655937432
20
-0.631628871396828
30
0
41
1
10
20.5821008533416
20
-0.609890996658152
30
0
41
1
10
20.4203220253586
20
-0.578951758572344
30
0
41
1
10
20.2816442931334
20
-0.551988372408488
30
0
41
1
10
20.1429685110754
20
-0.524639798959072
30
0
41
1
10
20.0274134135623
20
-0.501553328171525
30
0
41
1
10
19.865634594469
20
-0.468817593409028
30
0
41
1
10
19.7269568802076
20
-0.440411775786572
30
0
41
1
10
19.5882811015269
20
-0.411700762150247
30
0
41
1
10
19.4727259795649
20
-0.387531482210988
30
0
41
1
10
19.3109470849302
20
-0.353375647875453
30
0
41
1
10
19.1722692885831
20
-0.323852183600309
30
0
41
1
10
19.0335934426741
20
-0.294103952813458
30
0
41
1
10
18.9180382923313
20
-0.269123435006037
30
0
41
1
10
18.7562594035704
20
-0.233928716241081
30
0
41
1
10
18.6175816391689
20
-0.203615989513821
30
0
41
1
10
18.4789058218341
20
-0.173162477335438
30
0
41
1
10
18.363350695635
20
-0.147650522388545
30
0
41
1
10
18.2015718525463
20
-0.111812969594325
30
0
41
1
10
18.062894142558
20
-0.0810539327358129
30
0
41
1
10
17.9242183971528
20
-0.0502410117520071
30
0
41
1
10
17.8086633339138
20
-0.0244881556890846
30
0
41
1
10
17.6468845581389
20
0.0115823015345313
30
0
41
1
10
17.508206866523
20
0.0424335014779729
30
0
41
1
10
17.3861301465243
20
0.0695602809977061
30
0
41
1
10
17.3333940999746
20
0.0812844306989291
30
0
41
1
10
17.3037697140865
20
0.0878677591387884
30
0
0
SPLINE
5
D7
100
AcDbEntity
8
1
62
256
6
ByLayer
370
18
48
1
60
0
100
AcDbSpline
70
4
71
3
72
12
73
8
40
0
40
0
40
0
40
0
40
0.25
40
0.25
40
0.5
40
0.5
40
1
40
1
40
1
40
1
41
1
10
5.18304781830108
20
-2.14362177132787
30
0
41
1
10
5.21752982987189
20
-2.13873287045453
30
0
41
1
10
5.25243347400786
20
-2.13755768119569
30
0
41
1
10
5.32045707668874
20
-2.14126795403547
30
0
41
1
10
5.35395335422558
20
-2.14608717327664
30
0
41
1
10
5.4532314452731
20
-2.16755052905023
30
0
41
1
10
5.51744167560247
20
-2.1910719709922
30
0
41
1
10
5.579042239156
20
-2.21995292224005
30
0
0
SPLINE
5
D8
100
AcDbEntity
8
1
62
256
6
ByLayer
370
18
48
1
60
0
100
AcDbSpline
70
4
71
3
72
8
73
4
40
0
40
0
40
0
40
0
40
1
40
1
40
1
40
1
41
1
10
49.9763768410533
20
2.96167458482779
30
0
41
1
10
50.0353053853808
20
2.8210460266653
30
0
41
1
10
50.0951942372346
20
2.67707720668187
30
0
41
1
10
50.1556129039695
20
2.52922740650178
30
0
0
SPLINE
5
D9
100
AcDbEntity
8
1
62
256
6
ByLayer
370
18
48
1
60
0
100
AcDbSpline
70
4
71
3
72
18
73
14
40
0
40
0
40
0
40
0
40
0.250000000000005
40
0.250000000000005
40
0.375000000000005
40
0.375000000000005
40
0.500000000000005
40
0.500000000000005
40
0.625000000000005
40
0.625000000000005
40
0.750000000000005
40
0.750000000000005
40
1
40
1
40
1
40
1
41
1
10
5.57904223916327
20
-2.21995292224346
30
0
41
1
10
5.83828898297173
20
-2.3414987675578
30
0
41
1
10
6.10802665352375
20
-2.43559598633757
30
0
41
1
10
6.52304010588364
20
-2.55053374506636
30
0
41
1
10
6.66316775838339
20
-2.58432267239897
30
0
41
1
10
6.94651790100798
20
-2.64421216102076
30
0
41
1
10
7.08980695957052
20
-2.67027157195085
30
0
41
1
10
7.37708645567022
20
-2.71605733681449
30
0
41
1
10
7.52133820950152
20
-2.73581103057396
30
0
41
1
10
7.8111911212693
20
-2.76810360500536
30
0
41
1
10
7.95677267794315
20
-2.78077679373521
30
0
41
1
10
8.39519500977772
20
-2.81026491088852
30
0
41
1
10
8.68960618710889
20
-2.81929416690412
30
0
41
1
10
8.98603465973127
20
-2.81823425902112
30
0
0
SPLINE
5
DA
100
AcDbEntity
8
1
62
256
6
ByLayer
370
13
48
1
60
0
100
AcDbSpline
70
4
71
3
72
22
73
18
40
0
40
0
40
0
40
0
40
0.0266926648720043
40
0.0944904068682211
40
0.196187019862545
40
0.230085890860655
40
0.297883632856872
40
0.365681374853089
40
0.467377987847413
40
0.501276858845522
40
0.569074600841739
40
0.636872342837954
40
0.73856895583228
40
0.772467826830388
40
0.840265568826605
40
0.908063310822821
40
1
40
1
40
1
40
1
41
1
10
49.8376510707157
20
1.15925892834633
30
0
41
1
10
49.8194516538168
20
1.15927431422975
30
0
41
1
10
49.7550264426133
20
1.15925176554592
30
0
41
1
10
49.6212636669461
20
1.15865610174407
30
0
41
1
10
49.4825977388656
20
1.15705612186656
30
0
41
1
10
49.3439298245848
20
1.15463216723125
30
0
41
1
10
49.2283651482713
20
1.15206999077048
30
0
41
1
10
49.0665762466949
20
1.14753846483865
30
0
41
1
10
48.9279101678777
20
1.14267500400066
30
0
41
1
10
48.7892421247647
20
1.13699698397084
30
0
41
1
10
48.6736773614894
20
1.13173566509252
30
0
41
1
10
48.5118883836551
20
1.12343982794397
30
0
41
1
10
48.3732222949967
20
1.11535928834584
30
0
41
1
10
48.234554295524
20
1.10647890966947
30
0
41
1
10
48.1189895963889
20
1.09856506572464
30
0
41
1
10
47.9638551705914
20
1.08707264545964
30
0
41
1
10
47.8549536634601
20
1.07830398691987
30
0
41
1
10
47.7922740515104
20
1.07302168654266
30
0
0
SPLINE
5
DB
100
AcDbEntity
8
1
62
256
6
ByLayer
370
13
48
1
60
0
100
AcDbSpline
70
4
71
3
72
84
73
80
40
0
40
0
40
0
40
0
40
0.0096034233700704
40
0.0161364665328549
40
0.029202552858424
40
0.0422686391839972
40
0.0618677686723516
40
0.0684008118351361
40
0.0814668981607064
40
0.0945329844862771
40
0.114132113974632
40
0.120665157137417
40
0.133731243462986
40
0.146797329788558
40
0.166396459276913
40
0.172929502439698
40
0.185995588765268
40
0.199061675090839
40
0.218660804579194
40
0.225193847741979
40
0.238259934067549
40
0.251326020393121
40
0.270925149881475
40
0.27745819304426
40
0.290524279369831
40
0.303590365695401
40
0.323189495183756
40
0.329722538346541
40
0.342788624672111
40
0.355854710997682
40
0.375453840486037
40
0.381986883648822
40
0.395052969974392
40
0.408119056299964
40
0.427718185788319
40
0.434251228951103
40
0.447317315276674
40
0.460383401602244
40
0.479982531090599
40
0.486515574253385
40
0.499581660578955
40
0.512647746904525
40
0.53224687639288
40
0.538779919555666
40
0.551846005881236
40
0.564912092206806
40
0.584511221695162
40
0.591044264857947
40
0.604110351183518
40
0.617176437509087
40
0.636775566997443
40
0.643308610160228
40
0.656374696485798
40
0.669440782811369
40
0.689039912299724
40
0.695572955462509
40
0.708639041788079
40
0.721705128113649
40
0.741304257602005
40
0.74783730076479
40
0.76090338709036
40
0.773969473415931
40
0.793568602904286
40
0.800101646067071
40
0.813167732392641
40
0.826233818718211
40
0.845832948206567
40
0.852365991369352
40
0.865432077694922
40
0.878498164020492
40
0.898097293508848
40
0.904630336671633
40
0.917696422997204
40
0.930762509322774
40
0.950361638811129
40
0.956894681973914
40
0.969960768299485
40
0.983026854625055
40
1
40
1
40
1
40
1
41
1
10
25.6867310087173
20
-0.0887130141400404
30
0
41
1
10
25.6527579431093
20
-0.0811612536827509
30
0
41
1
10
25.5956740406055
20
-0.0684587337885317
30
0
41
1
10
25.4923670250296
20
-0.0454460528725064
30
0
41
1
10
25.3768024218187
20
-0.0197316695538916
30
0
41
1
10
25.2150136426822
20
0.0162781773013023
30
0
41
1
10
25.0763476741155
20
0.0471923991328821
30
0
41
1
10
24.9376797265685
20
0.078069942915249
30
0
41
1
10
24.8221150273033
20
0.10371463789744
30
0
41
1
10
24.6603260997969
20
0.13952418947548
30
0
41
1
10
24.5216600043729
20
0.170161277455378
30
0
41
1
10
24.3829919476023
20
0.20067433415798
30
0
41
1
10
24.2674271751296
20
0.225958169985602
30
0
41
1
10
24.105638192936
20
0.261163497403657
30
0
41
1
10
23.9669721134356
20
0.291180592435551
30
0
41
1
10
23.8283041369223
20
0.320989738073137
30
0
41
1
10
23.7127394781819
20
0.345632727665133
30
0
41
1
10
23.5509507063756
20
0.379844490201008
30
0
41
1
10
23.4122848184286
20
0.408908195410958
30
0
41
1
10
23.2736169911149
20
0.437678839515569
30
0
41
1
10
23.1580524152354
20
0.461401695898586
30
0
41
1
10
22.9962636852861
20
0.494228707972808
30
0
41
1
10
22.8575977628326
20
0.522004680425652
30
0
41
1
10
22.718929854873
20
0.549406253097543
30
0
41
1
10
22.6033651840846
20
0.571937071414964
30
0
41
1
10
22.4415762891563
20
0.603004212510341
30
0
41
1
10
22.3029102131234
20
0.629176143977957
30
0
41
1
10
22.1642421684491
20
0.654897315696586
30
0
41
1
10
22.0486773999614
20
0.675980523696977
30
0
41
1
10
21.8868884089412
20
0.704936038400062
30
0
41
1
10
21.7482223051422
20
0.729208148881496
30
0
41
1
10
21.6095542902006
20
0.752958502915674
30
0
41
1
10
21.4939895795508
20
0.772356192640244
30
0
41
1
10
21.3322006959906
20
0.798873218026556
30
0
41
1
10
21.1935346819977
20
0.820970958075661
30
0
41
1
10
21.0548667165764
20
0.842480893762085
30
0
41
1
10
20.9393020193427
20
0.859972151776615
30
0
41
1
10
20.7775131268754
20
0.883747435872122
30
0
41
1
10
20.6388470948984
20
0.903416846744163
30
0
41
1
10
20.5001791260779
20
0.92243828053685
30
0
41
1
10
20.384614453282
20
0.93782082364052
30
0
41
1
10
20.2228256363594
20
0.958579623880807
30
0
41
1
10
20.0841596864863
20
0.975594994607176
30
0
41
1
10
19.9454917849216
20
0.991912556105317
30
0
41
1
10
19.8299271405278
20
1.0050144426842
30
0
41
1
10
19.6681383177522
20
1.02252750200893
30
0
41
1
10
19.5294723359447
20
1.03670237597453
30
0
41
1
10
19.3908044058136
20
1.05013657291388
30
0
41
1
10
19.2752397372765
20
1.06081285448664
30
0
41
1
10
19.113450868816
20
1.07488487926119
30
0
41
1
10
18.9747848325725
20
1.08605954305696
30
0
41
1
10
18.8361168304821
20
1.0964577353416
30
0
41
1
10
18.7205520989615
20
1.10458628178116
30
0
41
1
10
18.558763163165
20
1.11505434280502
30
0
41
1
10
18.4200971085432
20
1.12309684371567
30
0
41
1
10
18.2814291414095
20
1.13033356821725
30
0
41
1
10
18.1658644786172
20
1.13581438264808
30
0
41
1
10
18.0040756808844
20
1.14254878074354
30
0
41
1
10
17.8654097529137
20
1.1473614506728
30
0
41
1
10
17.7267418757843
20
1.15135414376249
30
0
41
1
10
17.6111772535122
20
1.15412913634932
30
0
41
1
10
17.4493884569118
20
1.1570645239056
30
0
41
1
10
17.3107224830417
20
1.15860470577681
30
0
41
1
10
17.1720545374708
20
1.15931810031463
30
0
41
1
10
17.0564898451702
20
1.15936214215182
30
0
41
1
10
16.89470093729
20
1.15847082515736
30
0
41
1
10
16.7560348681248
20
1.15672281969134
30
0
41
1
10
16.6173668439758
20
1.15414875753941
30
0
41
1
10
16.5018021019318
20
1.15146026836277
30
0
41
1
10
16.3400131618566
20
1.14674830596138
30
0
41
1
10
16.2013471116312
20
1.14172508107179
30
0
41
1
10
16.0626791517344
20
1.13588238617535
30
0
41
1
10
15.9471144925378
20
1.13048085598149
30
0
41
1
10
15.7853256927245
20
1.12198580079223
30
0
41
1
10
15.6466597568979
20
1.11373438414733
30
0
41
1
10
15.5079918683923
20
1.10468735563782
30
0
41
1
10
15.3924272335189
20
1.09663843847718
30
0
41
1
10
15.2399286572055
20
1.08516874262005
30
0
41
1
10
15.1336626009966
20
1.07651254079738
30
0
41
1
10
15.0736186401432
20
1.07140676727403
30
0
0
SPLINE
5
DC
100
AcDbEntity
8
1
62
256
6
ByLayer
370
18
48
1
60
0
100
AcDbSpline
70
4
71
3
72
40
73
36
40
0
40
0
40
0
40
0
40
0.0488949486488995
40
0.0488949486488995
40
0.097789897297799
40
0.097789897297799
40
0.146684845946699
40
0.146684845946699
40
0.195579794595598
40
0.195579794595598
40
0.293369691893397
40
0.293369691893397
40
0.342264640542297
40
0.342264640542297
40
0.391159589191197
40
0.391159589191197
40
0.440054537840097
40
0.440054537840097
40
0.488949486488997
40
0.488949486488997
40
0.537844435137897
40
0.537844435137897
40
0.586739383786798
40
0.586739383786798
40
0.684529281084599
40
0.684529281084599
40
0.7823191783824
40
0.7823191783824
40
0.8312141270313
40
0.8312141270313
40
0.8801090756802
40
0.8801090756802
40
0.977898972978001
40
0.977898972978001
40
1
40
1
40
1
40
1
41
1
10
5.47446315988032
20
2.3126713385534
30
0
41
1
10
5.70735368322374
20
2.23508447326199
30
0
41
1
10
5.9402904945398
20
2.15041496934569
30
0
41
1
10
6.40524810731094
20
1.96895597092447
30
0
41
1
10
6.63709321718446
20
1.8722580304167
30
0
41
1
10
7.10051358496099
20
1.66837399791109
30
0
41
1
10
7.3321422774091
20
1.56126773497198
30
0
41
1
10
7.79608885568217
20
1.33799342523258
30
0
41
1
10
8.02879224035453
20
1.22158334159769
30
0
41
1
10
8.72641154254242
20
0.862491278516757
30
0
41
1
10
9.18925173856371
20
0.610612195493104
30
0
41
1
10
9.88626500707414
20
0.224700041691051
30
0
41
1
10
10.1190786902305
20
0.0947007243742917
30
0
41
1
10
10.5832873998255
20
-0.164288517885638
30
0
41
1
10
10.8150681027684
20
-0.293574041006224
30
0
41
1
10
11.2789785337257
20
-0.549939063912746
30
0
41
1
10
11.5113071415618
20
-0.677179588507528
30
0
41
1
10
11.9763941812563
20
-0.927046422173476
30
0
41
1
10
12.2083463317981
20
-1.04931587620919
30
0
41
1
10
12.6720528011532
20
-1.28690931094045
30
0
41
1
10
12.9037778200558
20
-1.40227938833371
30
0
41
1
10
13.3680807938407
20
-1.6243583045125
30
0
41
1
10
13.6008752699536
20
-1.73119728847516
30
0
41
1
10
14.2970354790168
20
-2.03441441869666
30
0
41
1
10
14.7596309021394
20
-2.21426717964121
30
0
41
1
10
15.6898213464798
20
-2.51906820120254
30
0
41
1
10
16.1523239876132
20
-2.64241946375665
30
0
41
1
10
16.8482020432021
20
-2.77902146835626
30
0
41
1
10
17.0808319090706
20
-2.81654710073622
30
0
41
1
10
17.5448467350207
20
-2.87435617755145
30
0
41
1
10
17.776453212124
20
-2.89473062640076
30
0
41
1
10
18.4714661949554
20
-2.92997337656382
30
0
41
1
10
18.9364940135973
20
-2.91862455920517
30
0
41
1
10
19.5045970633505
20
-2.86254866801877
30
0
41
1
10
19.6092857182396
20
-2.85047171815466
30
0
41
1
10
19.7139737764344
20
-2.83666680029816
30
0
0
SPLINE
5
DD
100
AcDbEntity
8
1
62
256
6
ByLayer
370
18
48
1
60
0
100
AcDbSpline
70
4
71
3
72
46
73
42
40
0
40
0
40
0
40
0
40
0.0825255766251892
40
0.0825255766251892
40
0.128399297793931
40
0.128399297793931
40
0.174273018962673
40
0.174273018962673
40
0.220146740131415
40
0.220146740131415
40
0.266020461300157
40
0.266020461300157
40
0.311894182468899
40
0.311894182468899
40
0.357767903637641
40
0.357767903637641
40
0.449515345975123
40
0.449515345975123
40
0.495389067143862
40
0.495389067143862
40
0.541262788312603
40
0.541262788312603
40
0.587136509481342
40
0.587136509481342
40
0.633010230650082
40
0.633010230650082
40
0.678883951818822
40
0.678883951818822
40
0.724757672987562
40
0.724757672987562
40
0.770631394156302
40
0.770631394156302
40
0.816505115325042
40
0.816505115325042
40
0.908252557662522
40
0.908252557662522
40
0.954126278831261
40
0.954126278831261
40
0.97706313941563
40
0.97706313941563
40
1
40
1
40
1
40
1
41
1
10
34.8259277372705
20
2.94786726810807
30
0
41
1
10
35.2426442714664
20
2.94801963948382
30
0
41
1
10
35.6574752158824
20
2.91980254727048
30
0
41
1
10
36.3050129575334
20
2.83291788270671
30
0
41
1
10
36.5371280063536
20
2.79328689694671
30
0
41
1
10
36.9997208401878
20
2.6977618106927
30
0
41
1
10
37.2304971827984
20
2.64182450341599
30
0
41
1
10
37.6925593719796
20
2.51484780909092
30
0
41
1
10
37.9237737663694
20
2.4437797408759
30
0
41
1
10
38.3871764538838
20
2.28690322200635
30
0
41
1
10
38.618383726139
20
2.20143639694106
30
0
41
1
10
39.0804178986546
20
2.01841776690065
30
0
41
1
10
39.3113280725578
20
1.9207919229371
30
0
41
1
10
39.7736550106565
20
1.71421523508732
30
0
41
1
10
40.0054782652854
20
1.605058594013
30
0
41
1
10
40.6993467731273
20
1.26539865548142
30
0
41
1
10
41.1601962288996
20
1.02198824728521
30
0
41
1
10
41.8547419241461
20
0.640850425804359
30
0
41
1
10
42.0860810185799
20
0.511535150189104
30
0
41
1
10
42.547827075741
20
0.250972042766023
30
0
41
1
10
42.7784382254102
20
0.119518072695996
30
0
41
1
10
43.2403931827668
20
-0.143523960846949
30
0
41
1
10
43.472138391571
20
-0.275383190916728
30
0
41
1
10
43.9344963845321
20
-0.536385995071754
30
0
41
1
10
44.1652034830707
20
-0.665484825291145
30
0
41
1
10
44.6266786002705
20
-0.919158738794522
30
0
41
1
10
44.8574401435127
20
-1.04374443263291
30
0
41
1
10
45.3200583433709
20
-1.28662822808627
30
0
41
1
10
45.5514225854225
20
-1.40463227761586
30
0
41
1
10
46.0130352547132
20
-1.6312204892665
30
0
41
1
10
46.2435916465571
20
-1.74000205757412
30
0
41
1
10
46.7052081017507
20
-1.94705338552831
30
0
41
1
10
46.9368784193597
20
-2.04553614216451
30
0
41
1
10
47.6291796988369
20
-2.32091009411044
30
0
41
1
10
48.08667873075
20
-2.47762757622686
30
0
41
1
10
48.772650295954
20
-2.66752051176621
30
0
41
1
10
49.0012717749399
20
-2.72328159700129
30
0
41
1
10
49.3447919531917
20
-2.79505830174063
30
0
41
1
10
49.4593938308967
20
-2.81700790626567
30
0
41
1
10
49.688879966822
20
-2.85685799114123
30
0
41
1
10
49.8035409874025
20
-2.87485346300528
30
0
41
1
10
49.9188998964278
20
-2.89055087771737
30
0
0
SPLINE
5
DE
100
AcDbEntity
8
1
62
256
6
ByLayer
370
18
48
1
60
0
100
AcDbSpline
70
4
71
3
72
20
73
16
40
0
40
0
40
0
40
0
40
0.148498810396655
40
0.148498810396655
40
0.29699762079331
40
0.29699762079331
40
0.445496431189965
40
0.445496431189965
40
0.593995241586619
40
0.593995241586619
40
0.742494051983274
40
0.742494051983274
40
0.890992862379929
40
0.890992862379929
40
1
40
1
40
1
40
1
41
1
10
8.98603465973125
20
-2.81823425902112
30
0
41
1
10
9.19866811224455
20
-2.81726613138272
30
0
41
1
10
9.4104198405162
20
-2.80883846404143
30
0
41
1
10
9.83408998988
20
-2.77895801730065
30
0
41
1
10
10.0455263108329
20
-2.75777467692279
30
0
41
1
10
10.4691651091592
20
-2.70013479033878
30
0
41
1
10
10.681375895019
20
-2.66390316382402
30
0
41
1
10
11.1061127580443
20
-2.57900315775757
30
0
41
1
10
11.3179613169691
20
-2.5310063874546
30
0
41
1
10
11.7413008300335
20
-2.42163941729928
30
0
41
1
10
11.9530105741676
20
-2.36001538908536
30
0
41
1
10
12.3766733619071
20
-2.22572575905272
30
0
41
1
10
12.5890594182483
20
-2.15329973793965
30
0
41
1
10
12.9567433586979
20
-2.01890381335585
30
0
41
1
10
13.1122117920605
20
-1.95893017659353
30
0
41
1
10
13.2676059471317
20
-1.896342774223
30
0
0
SPLINE
5
DF
100
AcDbEntity
8
1
62
256
6
ByLayer
370
18
48
1
60
0
100
AcDbSpline
70
4
71
3
72
74
73
70
40
0
40
0
40
0
40
0
40
0.009680588617015
40
0.009680588617015
40
0.0403254914674262
40
0.0403254914674262
40
0.0709703943178374
40
0.0709703943178374
40
0.101615297168249
40
0.101615297168249
40
0.13226020001866
40
0.13226020001866
40
0.162905102869071
40
0.162905102869071
40
0.193550005719482
40
0.193550005719482
40
0.224194908569893
40
0.224194908569893
40
0.254839811420305
40
0.254839811420305
40
0.285484714270716
40
0.285484714270716
40
0.316129617121127
40
0.316129617121127
40
0.346774519971539
40
0.346774519971539
40
0.37741942282195
40
0.37741942282195
40
0.408064325672361
40
0.408064325672361
40
0.438709228522773
40
0.438709228522773
40
0.469354131373184
40
0.469354131373184
40
0.499999034223595
40
0.499999034223595
40
0.530643937074006
40
0.530643937074006
40
0.561288839924418
40
0.561288839924418
40
0.591933742774829
40
0.591933742774829
40
0.62257864562524
40
0.62257864562524
40
0.653223548475652
40
0.653223548475652
40
0.668545999900857
40
0.668545999900857
40
0.683868451326061
40
0.683868451326061
40
0.714513354176471
40
0.714513354176471
40
0.745158257026881
40
0.745158257026881
40
0.775803159877291
40
0.775803159877291
40
0.806448062727701
40
0.806448062727701
40
0.83709296557811
40
0.83709296557811
40
0.86773786842852
40
0.86773786842852
40
0.89838277127893
40
0.89838277127893
40
0.92902767412934
40
0.92902767412934
40
0.990317479830161
40
0.990317479830161
40
1
40
1
40
1
40
1
41
1
10
25.3017692841911
20
2.84782291775525
30
0
41
1
10
25.3686109152316
20
2.84784503397805
30
0
41
1
10
25.4354184026012
20
2.84710297866573
30
0
41
1
10
25.7134873635766
20
2.84043401552512
30
0
41
1
10
25.9247367249449
20
2.82760513098094
30
0
41
1
10
26.3473795353418
20
2.7889482969868
30
0
41
1
10
26.5586991469333
20
2.7639566383881
30
0
41
1
10
26.9824380255565
20
2.69881855153966
30
0
41
1
10
27.193705147561
20
2.6587956433516
30
0
41
1
10
27.6162505681823
20
2.56589339176261
30
0
41
1
10
27.8272287621475
20
2.51382671229916
30
0
41
1
10
28.2496962205738
20
2.39735026864722
30
0
41
1
10
28.4615024207432
20
2.33229550158183
30
0
41
1
10
28.884743478802
20
2.19068088872626
30
0
41
1
10
29.096011913509
20
2.11462839603337
30
0
41
1
10
29.5180918406615
20
1.95316427265214
30
0
41
1
10
29.7291880698593
20
1.86713768633683
30
0
41
1
10
30.1519226226901
20
1.68534203281914
30
0
41
1
10
30.3640127939567
20
1.58973770318789
30
0
41
1
10
30.7868284589863
20
1.39242301451563
30
0
41
1
10
30.9978501582625
20
1.29007912740514
30
0
41
1
10
31.4201883470339
20
1.07921565421665
30
0
41
1
10
31.6314007302222
20
0.970473570631953
30
0
41
1
10
32.054518002105
20
0.749120466786451
30
0
41
1
10
32.2661156885017
20
0.636037354028105
30
0
41
1
10
32.6884701240067
20
0.407900328632593
30
0
41
1
10
32.8994251924538
20
0.292637528878629
30
0
41
1
10
33.3214618132509
20
0.0609850753417049
30
0
41
1
10
33.5325046457398
20
-0.055434414421228
30
0
41
1
10
33.9555934399473
20
-0.288124611990099
30
0
41
1
10
34.1669747574443
20
-0.403577461746608
30
0
41
1
10
34.588956597531
20
-0.632222999903888
30
0
41
1
10
34.7997758204233
20
-0.745450079097196
30
0
41
1
10
35.2217585908544
20
-0.967756112844086
30
0
41
1
10
35.4332934326406
20
-1.07666207840353
30
0
41
1
10
35.8564242030794
20
-1.28856754786904
30
0
41
1
10
36.0674340166454
20
-1.39192442075057
30
0
41
1
10
36.4893504661011
20
-1.59155825311009
30
0
41
1
10
36.7001850521356
20
-1.68724762324854
30
0
41
1
10
37.1226355119293
20
-1.86970515580475
30
0
41
1
10
37.3343962834635
20
-1.95697636998767
30
0
41
1
10
37.7567616508296
20
-2.122934017197
30
0
41
1
10
37.9676252888415
20
-2.20001224060238
30
0
41
1
10
38.3893525436836
20
-2.34220080923328
30
0
41
1
10
38.6003875756065
20
-2.40735087726466
30
0
41
1
10
38.9171268975824
20
-2.49762725119791
30
0
41
1
10
39.0228839493574
20
-2.52652624987451
30
0
41
1
10
39.2342414710794
20
-2.58047731359244
30
0
41
1
10
39.3397582241994
20
-2.60562213464471
30
0
41
1
10
39.6562438130943
20
-2.6758261780642
30
0
41
1
10
39.8669931722554
20
-2.71591384800175
30
0
41
1
10
40.2886216639353
20
-2.7842834135468
30
0
41
1
10
40.4992003923235
20
-2.81331742214988
30
0
41
1
10
40.9217840250113
20
-2.85441703578871
30
0
41
1
10
41.1329849101634
20
-2.86695002286044
30
0
41
1
10
41.5547118224156
20
-2.87775750739675
30
0
41
1
10
41.765374481768
20
-2.87607297998375
30
0
41
1
10
42.1870137652464
20
-2.85904187709011
30
0
41
1
10
42.3981864725158
20
-2.84370280645791
30
0
41
1
10
42.8205838254858
20
-2.8000314027727
30
0
41
1
10
43.0313598572616
20
-2.77197210514817
30
0
41
1
10
43.4524106979383
20
-2.70162277385074
30
0
41
1
10
43.6629396977681
20
-2.65902146127618
30
0
41
1
10
44.0844941938235
20
-2.56042085803716
30
0
41
1
10
44.2958674767432
20
-2.50454854447938
30
0
41
1
10
44.9290449671824
20
-2.3193135630313
30
0
41
1
10
45.3495327665462
20
-2.17163919955482
30
0
41
1
10
45.8379445936562
20
-1.97812740533345
30
0
41
1
10
45.9046233416973
20
-1.95120245077411
30
0
41
1
10
45.9713148677131
20
-1.92378738754212
30
0
0
SPLINE
5
E0
100
AcDbEntity
8
1
62
256
6
ByLayer
370
13
48
1
60
0
100
AcDbSpline
70
4
71
3
72
85
73
81
40
0
40
0
40
0
40
0
40
0.0014893060545028
40
0.014612336154459
40
0.0342968813043899
40
0.0408583963543672
40
0.0539814264543205
40
0.0671044565542763
40
0.0867890017042076
40
0.093350516754187
40
0.106473546854141
40
0.119596576954098
40
0.139281122104029
40
0.145842637154007
40
0.158965667253962
40
0.172088697353916
40
0.191773242503851
40
0.198334757553827
40
0.211457787653781
40
0.224580817753737
40
0.244265362903668
40
0.250826877953646
40
0.263949908053601
40
0.277072938153556
40
0.296757483303486
40
0.303318998353466
40
0.316442028453422
40
0.329565058553375
40
0.349249603703307
40
0.355811118753285
40
0.368934148853241
40
0.382057178953194
40
0.401741724103126
40
0.408303239153105
40
0.42142626925306
40
0.434549299353015
40
0.454233844502946
40
0.460795359552925
40
0.47391838965288
40
0.487041419752835
40
0.506725964902768
40
0.513287479952745
40
0.526410510052699
40
0.539533540152656
40
0.559218085302586
40
0.565779600352565
40
0.57890263045252
40
0.592025660552474
40
0.611710205702406
40
0.618271720752384
40
0.63139475085234
40
0.644517780952294
40
0.664202326102227
40
0.670763841152204
40
0.683886871252158
40
0.697009901352113
40
0.716694446502047
40
0.723255961552023
40
0.736378991651978
40
0.749502021751933
40
0.769186566901866
40
0.775748081951843
40
0.788871112051798
40
0.801994142151753
40
0.821678687301686
40
0.828240202351663
40
0.841363232451618
40
0.854486262551572
40
0.874170807701505
40
0.880732322751483
40
0.893855352851438
40
0.906978382951392
40
0.926662928101325
40
0.933224443151302
40
0.946347473251257
40
0.959470503351212
40
0.979155048501145
40
0.985716563551122
40
0.998839593651077
40
1
40
1
40
1
40
1
41
1
10
42.0331656518382
20
-0.0879023300817322
30
0
41
1
10
42.0279195980979
20
-0.0867380163998347
30
0
41
1
10
41.9764479032871
20
-0.0753133212579085
30
0
41
1
10
41.8556384436676
20
-0.0484719938999091
30
0
41
1
10
41.7169724585749
20
-0.0175572529219039
30
0
41
1
10
41.5783045017495
20
0.0133675986105004
30
0
41
1
10
41.4627398040102
20
0.0390827218594438
30
0
41
1
10
41.3009508962856
20
0.0750446759248005
30
0
41
1
10
41.1622848310265
20
0.105867991088161
30
0
41
1
10
41.0236168091615
20
0.136613584979784
30
0
41
1
10
40.9080520659106
20
0.162121454083205
30
0
41
1
10
40.7462631206486
20
0.197693309762542
30
0
41
1
10
40.6075970661031
20
0.228079506736463
30
0
41
1
10
40.4689291066196
20
0.258303141949255
30
0
41
1
10
40.3533644499537
20
0.283320838105083
30
0
41
1
10
40.1915756535732
20
0.31810859376381
30
0
41
1
10
40.0529097182883
20
0.347719466781455
30
0
41
1
10
39.9142418253349
20
0.377080792734517
30
0
41
1
10
39.7986771828958
20
0.401323557737498
30
0
41
1
10
39.6368883512255
20
0.434927375311559
30
0
41
1
10
39.4982223481479
20
0.463420365918409
30
0
41
1
10
39.3595543828296
20
0.491580243143516
30
0
41
1
10
39.2439896901992
20
0.514768863724412
30
0
41
1
10
39.0822008089399
20
0.546803214583462
30
0
41
1
10
38.9435347779315
20
0.573853033640033
30
0
41
1
10
38.8048667892158
20
0.600491237968099
30
0
41
1
10
38.6893020726449
20
0.622362820423915
30
0
41
1
10
38.5275131610364
20
0.652465800613497
30
0
41
1
10
38.3888471269566
20
0.677767977434313
30
0
41
1
10
38.2501791770844
20
0.702585276542037
30
0
41
1
10
38.1346145122344
20
0.722894464552353
30
0
41
1
10
37.9728256778098
20
0.750728317760319
30
0
41
1
10
37.8341596960286
20
0.773998159215834
30
0
41
1
10
37.6954917612791
20
0.796713795910078
30
0
41
1
10
37.5799270924757
20
0.815229668328867
30
0
41
1
10
37.4181382492658
20
0.84047609035113
30
0
41
1
10
37.2794722709356
20
0.861445925128775
30
0
41
1
10
37.1408043673409
20
0.881797827220593
30
0
41
1
10
37.0252397520064
20
0.898306367648699
30
0
41
1
10
36.8634510147643
20
0.920673963107872
30
0
41
1
10
36.724785131107
20
0.939103456145572
30
0
41
1
10
36.5861172918166
20
0.956861242070856
30
0
41
1
10
36.4705526959915
20
0.97117774184923
30
0
41
1
10
36.3087639226428
20
0.990418970219961
30
0
41
1
10
36.1700979505827
20
1.00610563607429
30
0
41
1
10
36.0314299881466
20
1.02107362280017
30
0
41
1
10
35.9158652696997
20
1.03303957915693
30
0
41
1
10
35.7540763082311
20
1.04893984504903
30
0
41
1
10
35.6154101803783
20
1.06170685663898
30
0
41
1
10
35.4767420940416
20
1.07371461072193
30
0
41
1
10
35.3611772990381
20
1.08319262503247
30
0
41
1
10
35.1993882890398
20
1.09556699713522
30
0
41
1
10
35.0607221906043
20
1.10526307168774
30
0
41
1
10
34.9220542004049
20
1.11416570831261
30
0
41
1
10
34.8064895297342
20
1.12103961906513
30
0
41
1
10
34.6447007340807
20
1.12973591978345
30
0
41
1
10
34.5060348165763
20
1.13624442008222
30
0
41
1
10
34.3673669500476
20
1.14194086423561
30
0
41
1
10
34.2518023335459
20
1.14613750994436
30
0
41
1
10
34.0900135376534
20
1.15106978875337
30
0
41
1
10
33.951347556833
20
1.15433076867364
30
0
41
1
10
33.8126795980912
20
1.15676863080662
30
0
41
1
10
33.6971148931551
20
1.1582487170667
30
0
41
1
10
33.535325964819
20
1.15936905332
30
0
41
1
10
33.3966598727049
20
1.15934843733353
30
0
41
1
10
33.2579918187518
20
1.15849967990093
30
0
41
1
10
33.1424270463259
20
1.15724401219975
30
0
41
1
10
32.9806380626626
20
1.15453236778634
30
0
41
1
10
32.8419719847436
20
1.15121978591225
30
0
41
1
10
32.7033040175294
20
1.14707988744473
30
0
41
1
10
32.5877393695473
20
1.14308868662746
30
0
41
1
10
32.4259506104857
20
1.1365564900257
30
0
41
1
10
32.2872847262283
20
1.12997805256205
30
0
41
1
10
32.148616890491
20
1.12259232428315
30
0
41
1
10
32.0330522996022
20
1.11591681349102
30
0
41
1
10
31.8712635414672
20
1.10565554971063
30
0
41
1
10
31.732597594292
20
1.09590555440448
30
0
41
1
10
31.5939296700277
20
1.0853753556353
30
0
41
1
10
31.5205033316275
20
1.07948421241468
30
0
41
1
10
31.4701902086028
20
1.07529837176994
30
0
41
1
10
31.466102702754
20
1.07495732599082
30
0
0
SPLINE
5
E1
100
AcDbEntity
8
1
62
256
6
ByLayer
370
18
48
1
60
0
100
AcDbSpline
70
4
71
3
72
26
73
22
40
0
40
0
40
0
40
0
40
0.0312499999999998
40
0.0312499999999998
40
0.0624999999999996
40
0.0624999999999996
40
0.124999999999999
40
0.124999999999999
40
0.187499999999999
40
0.187499999999999
40
0.249999999999998
40
0.249999999999998
40
0.374999999999998
40
0.374999999999998
40
0.499999999999997
40
0.499999999999997
40
0.624999999999996
40
0.624999999999996
40
0.749999999999995
40
0.749999999999995
40
1
40
1
40
1
40
1
41
1
10
4.5496521589651
20
0.582764340414911
30
0
41
1
10
4.56944198796393
20
0.608074128046411
30
0
41
1
10
4.59154259857905
20
0.632024139761228
30
0
41
1
10
4.63819811598353
20
0.676371351666972
30
0
41
1
10
4.66271284210819
20
0.696800491053466
30
0
41
1
10
4.739015309672
20
0.754062227366802
30
0
41
1
10
4.79352029276947
20
0.786930639861623
30
0
41
1
10
4.90758999020332
20
0.845395153008639
30
0
41
1
10
4.96731013475602
20
0.870931170189351
30
0
41
1
10
5.08770136715174
20
0.915293801093156
30
0
41
1
10
5.1487974566333
20
0.934325942836978
30
0
41
1
10
5.33423071743024
20
0.984034282354457
30
0
41
1
10
5.46097975200323
20
1.00747626673638
30
0
41
1
10
5.71765613900885
20
1.03929008869304
30
0
41
1
10
5.84574468317348
20
1.04739467324848
30
0
41
1
10
6.10149605951528
20
1.05045474989248
30
0
41
1
10
6.22915748890193
20
1.04536375980968
30
0
41
1
10
6.4840661597122
20
1.02228773933715
30
0
41
1
10
6.6118179324645
20
1.00418744790255
30
0
41
1
10
6.99099932026152
20
0.929758437334101
30
0
41
1
10
7.23377693422339
20
0.854711410503029
30
0
41
1
10
7.46612909869674
20
0.751296363593696
30
0
0
SPLINE
5
E2
100
AcDbEntity
8
1
62
256
6
ByLayer
370
18
48
1
60
0
100
AcDbSpline
70
4
71
3
72
10
73
6
40
0
40
0
40
0
40
0
40
0.5
40
0.5
40
1
40
1
40
1
40
1
41
1
10
49.9188998964315
20
-2.89055087770967
30
0
41
1
10
49.9183556320084
20
-2.851311909223
30
0
41
1
10
49.911324033628
20
-2.81992645192065
30
0
41
1
10
49.8914809818729
20
-2.76984296013259
30
0
41
1
10
49.8785028417963
20
-2.7506567121427
30
0
41
1
10
49.8637415882682
20
-2.73591252150061
30
0
0
SPLINE
5
E3
100
AcDbEntity
8
1
62
256
6
ByLayer
370
18
48
1
60
0
100
AcDbSpline
70
4
71
3
72
16
73
12
40
0
40
0
40
0
40
0
40
0.104782584450034
40
0.104782584450034
40
0.253985487041695
40
0.253985487041695
40
0.403188389633356
40
0.403188389633356
40
0.701594194816678
40
0.701594194816678
40
1
40
1
40
1
40
1
41
1
10
5.18014169796484
20
2.89452754932842
30
0
41
1
10
5.18006961911692
20
2.89450235177731
30
0
41
1
10
5.17999668988043
20
2.89298678508081
30
0
41
1
10
5.17981672050868
20
2.88568398626194
30
0
41
1
10
5.17970781006852
20
2.87829808524285
30
0
41
1
10
5.17948328395741
20
2.85743567877392
30
0
41
1
10
5.17936808118995
20
2.84402467639717
30
0
41
1
10
5.17900872272267
20
2.79508719382684
30
0
41
1
10
5.1787509778095
20
2.75090923157825
30
0
41
1
10
5.17817000874731
20
2.63936404665145
30
0
41
1
10
5.17784458821137
20
2.57149013821032
30
0
41
1
10
5.17747826842367
20
2.4931798316839
30
0
0
SPLINE
5
E4
100
AcDbEntity
8
1
62
256
6
ByLayer
370
18
48
1
60
0
100
AcDbSpline
70
4
71
3
72
18
73
14
40
0
40
0
40
0
40
0
40
0.125000000000002
40
0.125000000000002
40
0.250000000000004
40
0.250000000000004
40
0.375000000000006
40
0.375000000000006
40
0.500000000000008
40
0.500000000000008
40
0.750000000000004
40
0.750000000000004
40
1
40
1
40
1
40
1
41
1
10
50.5174050210421
20
-0.810326490362826
30
0
41
1
10
50.4865621808923
20
-0.814450892292456
30
0
41
1
10
50.4568812951431
20
-0.811027986820761
30
0
41
1
10
50.399523609374
20
-0.791164925761876
30
0
41
1
10
50.37168737219
20
-0.774460967006121
30
0
41
1
10
50.3197802780039
20
-0.73066308548411
30
0
41
1
10
50.2954504753414
20
-0.703549730106829
30
0
41
1
10
50.2496260815074
20
-0.640218157798387
30
0
41
1
10
50.2283118176828
20
-0.604158249736116
30
0
41
1
10
50.1697460127018
20
-0.486881850723108
30
0
41
1
10
50.137060315126
20
-0.39547858873874
30
0
41
1
10
50.0832509767764
20
-0.192691317029471
30
0
41
1
10
50.0627820624278
20
-0.0839581739133735
30
0
41
1
10
50.0479492140409
20
0.0312024898541097
30
0
0
SPLINE
5
E5
100
AcDbEntity
8
1
62
256
6
ByLayer
370
18
48
1
60
0
100
AcDbSpline
70
4
71
3
72
10
73
6
40
0
40
0
40
0
40
0
40
0.508467374068574
40
0.508467374068574
40
1
40
1
40
1
40
1
41
1
10
50.047949214041
20
0.0312024898540813
30
0
41
1
10
49.9708791158817
20
0.0637622276424281
30
0
41
1
10
49.8943998076391
20
0.0946952812373922
30
0
41
1
10
49.7506749643632
20
0.149314070334555
30
0
41
1
10
49.6824486907468
20
0.173430434382794
30
0
41
1
10
49.6219583452185
20
0.192183293271796
30
0
0
SPLINE
5
E6
100
AcDbEntity
8
1
62
256
6
ByLayer
370
18
48
1
60
0
100
AcDbSpline
70
4
71
3
72
11
73
7
40
0
40
0
40
0
40
0
40
0.205395953915337
40
0.440313561635151
40
0.705041359096671
40
1
40
1
40
1
40
1
41
1
10
33.669850113002
20
0.0843073635667224
30
0
41
1
10
33.5754214970365
20
0.105401697180952
30
0
41
1
10
33.3746448658634
20
0.15688472475054
30
0
41
1
10
33.0596334481326
20
0.26116078028511
30
0
41
1
10
32.7099351663433
20
0.405351397099025
30
0
41
1
10
32.4668892516106
20
0.526638073485316
30
0
41
1
10
32.3397934256987
20
0.596152675908371
30
0
0
SPLINE
5
E7
100
AcDbEntity
8
1
62
256
6
ByLayer
370
18
48
1
60
0
100
AcDbSpline
70
4
71
2
72
6
73
3
40
0
40
0
40
0
40
1
40
1
40
1
41
1
10
17.3199106768518
20
0.0842805671098574
30
0
41
1
10
16.6785409350851
20
0.225959493357323
30
0
41
1
10
16.0482059570628
20
0.568983960593897
30
0
0
SPLINE
5
E8
100
AcDbEntity
8
1
62
256
6
ByLayer
370
18
48
1
60
0
100
AcDbSpline
70
4
71
2
72
6
73
3
40
0
40
0
40
0
40
1
40
1
40
1
41
1
10
49.634057269986
20
0.203744395052809
30
0
41
1
10
49.1633978039521
20
0.324761899165338
30
0
41
1
10
48.6903622356762
20
0.595892660510231
30
0
0
SPLINE
5
E9
100
AcDbEntity
8
1
62
256
6
ByLayer
370
18
48
1
60
0
100
AcDbSpline
70
4
71
3
72
11
73
7
40
0
40
0
40
0
40
0
40
0.209077132588551
40
0.450677725082158
40
0.72515297974473
40
1
40
1
40
1
40
1
41
1
10
25.6648996469555
20
-0.0838591168380844
30
0
41
1
10
25.7596717449311
20
-0.104956298739808
30
0
41
1
10
25.963674017297
20
-0.157386450107225
30
0
41
1
10
26.2909261612551
20
-0.266225588222454
30
0
41
1
10
26.6466431088598
20
-0.414224028000461
30
0
41
1
10
26.8924998435309
20
-0.540067836824761
30
0
41
1
10
27.015236001171
20
-0.608686666011607
30
0
0
SPLINE
5
EA
100
AcDbEntity
8
1
62
256
6
ByLayer
370
18
48
1
60
0
100
AcDbSpline
70
4
71
2
72
6
73
3
40
0
40
0
40
0
40
1
40
1
40
1
41
1
10
42.0148608839204
20
-0.0838393114609062
30
0
41
1
10
42.7186957099052
20
-0.242028730857555
30
0
41
1
10
43.4098257111095
20
-0.631433158631069
30
0
0
SPLINE
5
EB
100
AcDbEntity
8
1
62
256
6
ByLayer
370
18
48
1
60
0
100
AcDbSpline
70
4
71
3
72
17
73
13
40
0
40
0
40
0
40
0
40
0.126700686962309
40
0.241450017504046
40
0.337835951299318
40
0.405798452853251
40
0.465860234025495
40
0.538194420139419
40
0.627635100320006
40
0.740819827357377
40
0.873729921895545
40
1
40
1
40
1
40
1
41
1
10
18.8349164621323
20
-2.83410965503273
30
0
41
1
10
19.1074980677991
20
-2.83428554340713
30
0
41
1
10
19.6273360529997
20
-2.83484557979892
30
0
41
1
10
20.3596257270751
20
-2.83662497947174
30
0
41
1
10
20.9594069104035
20
-2.83792578773279
30
0
41
1
10
21.4449732543709
20
-2.84043214858784
30
0
41
1
10
21.8782168086955
20
-2.84002982907114
30
0
41
1
10
22.3573632168367
20
-2.84047173275624
30
0
41
1
10
22.9506491547114
20
-2.84286825722208
30
0
41
1
10
23.6719126117611
20
-2.84000617975323
30
0
41
1
10
24.4813032700192
20
-2.84009807772105
30
0
41
1
10
25.0322271066587
20
-2.84447135992616
30
0
41
1
10
25.2992080353444
20
-2.84747085001141
30
0
0
SPLINE
5
EC
100
AcDbEntity
8
1
62
256
6
ByLayer
370
18
48
1
60
0
100
AcDbSpline
70
4
71
3
72
20
73
16
40
0
40
0
40
0
40
0
40
0.122472918541057
40
0.240078552108876
40
0.324609454550356
40
0.375729072879195
40
0.452125225491912
40
0.561872967912608
40
0.639284875082989
40
0.701760774580427
40
0.749561306178854
40
0.800156587341814
40
0.882389315873157
40
0.996272060033234
40
1
40
1
40
1
40
1
41
1
10
41.6086843411749
20
2.87542757307483
30
0
41
1
10
41.3790584311923
20
2.87632420594042
30
0
41
1
10
40.9289172685694
20
2.87715143645249
30
0
41
1
10
40.3202558252835
20
2.87314253533415
30
0
41
1
10
39.8453423213266
20
2.87196380221277
30
0
41
1
10
39.4477591531128
20
2.87234511937817
30
0
41
1
10
39.0032979648353
20
2.87170167314207
30
0
41
1
10
38.5089685929275
20
2.86993991908099
30
0
41
1
10
38.0409109066871
20
2.87032516907612
30
0
41
1
10
37.688915325247
20
2.86930499739853
30
0
41
1
10
37.3875985671682
20
2.8677096338435
30
0
41
1
10
37.0491142481176
20
2.86709056921686
30
0
41
1
10
36.5864557994873
20
2.8667841602626
30
0
41
1
10
36.2116863644155
20
2.86567847888603
30
0
41
1
10
35.9912464421714
20
2.86522883617519
30
0
41
1
10
35.9842592108558
20
2.86521478178057
30
0
0
SPLINE
5
ED
100
AcDbEntity
8
1
62
256
6
ByLayer
370
18
48
1
60
0
100
AcDbSpline
70
4
71
3
72
21
73
17
40
0
40
0
40
0
40
0
40
0.122469870404129
40
0.219019037327806
40
0.290634824504196
40
0.35330567061352
40
0.412464998039959
40
0.467212120915016
40
0.503072152702181
40
0.534261803343549
40
0.562005420679822
40
0.606802757633943
40
0.675883124851559
40
0.768981996749564
40
0.885721993838413
40
1
40
1
40
1
40
1
41
1
10
35.1872968531036
20
-2.86425300807542
30
0
41
1
10
35.4489940950582
20
-2.86447529618985
30
0
41
1
10
35.9170095752855
20
-2.86500372958236
30
0
41
1
10
36.538370453811
20
-2.86684796811852
30
0
41
1
10
37.0314963605686
20
-2.86735071360178
30
0
41
1
10
37.44455183534
20
-2.86794241129493
30
0
41
1
10
37.8220855040839
20
-2.86998234473896
30
0
41
1
10
38.1422260861017
20
-2.87020031598698
30
0
41
1
10
38.4025857472415
20
-2.87025507785748
30
0
41
1
10
38.6052316987643
20
-2.8703137831443
30
0
41
1
10
38.8269819984707
20
-2.87057034049025
30
0
41
1
10
39.1297239904007
20
-2.87217036711567
30
0
41
1
10
39.572196745955
20
-2.87230512287115
30
0
41
1
10
40.1684588195371
20
-2.87189300852467
30
0
41
1
10
40.8613301066948
20
-2.87738378934606
30
0
41
1
10
41.3551933203696
20
-2.87635254185514
30
0
41
1
10
41.5994943766754
20
-2.87542339350648
30
0
0
SPLINE
5
EE
100
AcDbEntity
8
1
62
256
6
ByLayer
370
18
48
1
60
0
100
AcDbSpline
70
4
71
3
72
12
73
8
40
0
40
0
40
0
40
0
40
0.196279594763419
40
0.389224939906546
40
0.54193143348859
40
0.786817038078326
40
1
40
1
40
1
40
1
41
1
10
8.93423188415801
20
2.81822459669778
30
0
41
1
10
8.71542780290531
20
2.81743746314228
30
0
41
1
10
8.28110208003537
20
2.81601275524997
30
0
41
1
10
7.67390352120066
20
2.81517355792818
30
0
41
1
10
7.01356794562585
20
2.81312284369267
30
0
41
1
10
6.33031742159704
20
2.81405499720236
30
0
41
1
10
5.81744750771696
20
2.81292788381637
30
0
41
1
10
5.5786786665993
20
2.81234463437764
30
0
0
SPLINE
5
EF
100
AcDbEntity
8
1
62
256
6
ByLayer
370
18
48
1
60
0
100
AcDbSpline
70
4
71
3
72
17
73
13
40
0
40
0
40
0
40
0
40
0.145956537308733
40
0.299597011259538
40
0.430435493968012
40
0.533826500807455
40
0.617442863251597
40
0.676286620793462
40
0.73560682073017
40
0.817062350967362
40
0.919647527992231
40
1
40
1
40
1
40
1
41
1
10
25.2991623976527
20
2.84747049713218
30
0
41
1
10
25.0321965160472
20
2.84447120342253
30
0
41
1
10
24.4812879783696
20
2.84009790703519
30
0
41
1
10
23.6719121535712
20
2.84000662986122
30
0
41
1
10
22.9506503852848
20
2.84286700787897
30
0
41
1
10
22.3573599598336
20
2.84047504714968
30
0
41
1
10
21.8980050338066
20
2.84003943954764
30
0
41
1
10
21.5205577235234
20
2.84037228275022
30
0
41
1
10
21.1470388942664
20
2.83902111894326
30
0
41
1
10
20.6927580421274
20
2.83721825003141
30
0
41
1
10
20.2006850497709
20
2.83628779561244
30
0
41
1
10
19.8580904289291
20
2.8355060090017
30
0
41
1
10
19.7077464877375
20
2.83520477252395
30
0
0
SPLINE
5
F0
100
AcDbEntity
8
1
62
256
6
ByLayer
370
18
48
1
60
0
100
AcDbSpline
70
4
71
3
72
9
73
5
40
0
40
0
40
0
40
0
40
0.916012605461754
40
1
40
1
40
1
40
1
41
1
10
21.7377209444635
20
2.36409207925018
30
0
41
1
10
21.9013317228763
20
2.31303004025369
30
0
41
1
10
22.0800466270698
20
2.25193446727889
30
0
41
1
10
22.2590472266036
20
2.17969108067319
30
0
41
1
10
22.274082166191
20
2.17357153804463
30
0
0
SPLINE
5
F1
100
AcDbEntity
8
1
62
256
6
ByLayer
370
18
48
1
60
0
100
AcDbSpline
70
4
71
3
72
12
73
8
40
0
40
0
40
0
40
0
40
0.213223227022953
40
0.458155084575792
40
0.610890420718119
40
0.803872208566587
40
1
40
1
40
1
40
1
41
1
10
5.5786786665993
20
-2.81234463437761
30
0
41
1
10
5.81744750771696
20
-2.81292788381637
30
0
41
1
10
6.33031741513364
20
-2.81405500007804
30
0
41
1
10
7.01356796757972
20
-2.81312283392478
30
0
41
1
10
7.67390346788369
20
-2.81517358165021
30
0
41
1
10
8.28089076166503
20
-2.81601234510578
30
0
41
1
10
8.71500578389373
20
-2.81743633684127
30
0
41
1
10
8.93359949562381
20
-2.81822265805675
30
0
0
LINE
5
7B
100
AcDbEntity
8
SK1
62
256
6
ByLayer
370
18
48
1
60
0
100
AcDbLine
10
-34.989637
20
3
30
0
11
-34.989637
21
-3
31
0
39
0
210
0
220
0
230
1
0
LINE
5
7D
100
AcDbEntity
8
SK1
62
256
6
ByLayer
370
18
48
1
60
0
100
AcDbLine
10
0
20
-3
30
0
11
0
21
3
31
0
39
0
210
0
220
0
230
1
0
LINE
5
7E
100
AcDbEntity
8
SK1
62
256
6
ByLayer
370
18
48
1
60
0
100
AcDbLine
10
-36
20
1.25
30
0
11
-36
21
-1.25
31
0
39
0
210
0
220
0
230
1
0
LINE
5
7F
100
AcDbEntity
8
1
62
256
6
ByLayer
370
13
48
1
60
0
100
AcDbLine
10
0.305644
20
2.943147
30
0
11
0.305644
21
-2.943147
31
0
39
0
210
0
220
0
230
1
0
LINE
5
80
100
AcDbEntity
8
1
62
256
6
ByLayer
370
13
48
1
60
0
100
AcDbLine
10
0.612818
20
2.886295
30
0
11
0.612818
21
-2.886295
31
0
39
0
210
0
220
0
230
1
0
LINE
5
81
100
AcDbEntity
8
1
62
256
6
ByLayer
370
18
48
1
60
0
100
AcDbLine
10
49.54778
20
-1.588767
30
0
11
50.517405
21
-0.810326
31
0
39
0
210
0
220
0
230
1
0
LINE
5
82
100
AcDbEntity
8
1
62
256
6
ByLayer
370
18
48
1
60
0
100
AcDbLine
10
0
20
-3
30
0
11
0
21
3
31
0
39
0
210
0
220
0
230
1
0
LINE
5
83
100
AcDbEntity
8
80
62
256
6
ByLayer
370
18
48
1
60
0
100
AcDbLine
10
0
20
0
30
0
11
-5
21
0
31
0
39
0
210
0
220
0
230
1
0
LINE
5
84
100
AcDbEntity
8
4
62
256
6
ByLayer
370
18
48
0.05
60
0
100
AcDbLine
10
51
20
0
30
0
11
0
21
0
31
0
39
0
210
0
220
0
230
1
0
LINE
5
86
100
AcDbEntity
8
SK4
62
256
6
ByLayer
370
18
48
0.05
60
0
100
AcDbLine
10
56
20
0
30
0
11
-41
21
0
31
0
39
0
210
0
220
0
230
1
0
LINE
5
88
100
AcDbEntity
8
SK1
62
256
6
ByLayer
370
18
48
1
60
0
100
AcDbLine
10
-36
20
-1.25
30
0
11
-34.989637
21
-3
31
0
39
0
210
0
220
0
230
1
0
LINE
5
89
100
AcDbEntity
8
SK1
62
256
6
ByLayer
370
18
48
1
60
0
100
AcDbLine
10
-34.989637
20
3
30
0
11
-36
21
1.25
31
0
39
0
210
0
220
0
230
1
0
LINE
5
8A
100
AcDbEntity
8
SK1
62
256
6
ByLayer
370
18
48
1
60
0
100
AcDbLine
10
-34.989637
20
-3
30
0
11
0
21
-3
31
0
39
0
210
0
220
0
230
1
0
LINE
5
8B
100
AcDbEntity
8
SK1
62
256
6
ByLayer
370
18
48
1
60
0
100
AcDbLine
10
0
20
3
30
0
11
-34.989637
21
3
31
0
39
0
210
0
220
0
230
1
0
LINE
5
8C
100
AcDbEntity
8
1
62
256
6
ByLayer
370
18
48
1
60
0
100
AcDbLine
10
0.612818
20
-2.886295
30
0
11
5.180122
21
-2.894516
31
0
39
0
210
0
220
0
230
1
0
LINE
5
8D
100
AcDbEntity
8
1
62
256
6
ByLayer
370
18
48
1
60
0
100
AcDbLine
10
17.749639
20
-2.917141
30
0
11
18.462643
21
-2.918424
31
0
39
0
210
0
220
0
230
1
0
LINE
5
8E
100
AcDbEntity
8
1
62
256
6
ByLayer
370
18
48
1
60
0
100
AcDbLine
10
34.111113
20
-2.946592
30
0
11
34.812659
21
-2.947854
31
0
39
0
210
0
220
0
230
1
0
LINE
5
8F
100
AcDbEntity
8
1
62
256
6
ByLayer
370
18
48
1
60
0
100
AcDbLine
10
34.812659
20
2.947854
30
0
11
34.111113
21
2.946592
31
0
39
0
210
0
220
0
230
1
0
LINE
5
90
100
AcDbEntity
8
1
62
256
6
ByLayer
370
18
48
1
60
0
100
AcDbLine
10
18.462643
20
2.918424
30
0
11
17.749639
21
2.917141
31
0
39
0
210
0
220
0
230
1
0
LINE
5
91
100
AcDbEntity
8
1
62
256
6
ByLayer
370
18
48
1
60
0
100
AcDbLine
10
5.180122
20
2.894516
30
0
11
0.612818
21
2.886295
31
0
39
0
210
0
220
0
230
1
0
LINE
5
92
100
AcDbEntity
8
81
62
256
6
ByLayer
370
18
48
1
60
0
100
AcDbLine
10
51
20
0
30
0
11
56
21
0
31
0
39
0
210
0
220
0
230
1
0
LINE
5
93
100
AcDbEntity
8
SK2
62
256
6
ByLayer
370
13
48
1
60
0
100
AcDbLine
10
-44.625163
20
32.117107
30
0
11
-44.625163
21
-11.75
31
0
39
0
210
0
220
0
230
1
0
LINE
5
95
100
AcDbEntity
8
SK2
62
256
6
ByLayer
370
13
48
1
60
0
100
AcDbLine
10
-37.5875
20
3
30
0
11
-46.625163
21
3
31
0
39
0
210
0
220
0
230
1
0
LINE
5
96
100
AcDbEntity
8
SK2
62
256
6
ByLayer
370
13
48
1
60
0
100
AcDbLine
10
-37.5875
20
-3
30
0
11
-46.625163
21
-3
31
0
39
0
210
0
220
0
230
1
0
LINE
5
97
100
AcDbEntity
8
1
62
256
6
ByLayer
370
18
48
1
60
1
100
AcDbLine
10
-44.625163
20
3
30
0
11
-45.085946
21
6.499998
31
0
39
0
210
0
220
0
230
1
0
LINE
5
98
100
AcDbEntity
8
1
62
256
6
ByLayer
370
18
48
1
60
1
100
AcDbLine
10
-45.085946
20
6.499998
30
0
11
-44.164379
21
6.500002
31
0
39
0
210
0
220
0
230
1
0
LINE
5
99
100
AcDbEntity
8
1
62
256
6
ByLayer
370
18
48
1
60
1
100
AcDbLine
10
-44.164379
20
6.500002
30
0
11
-44.625163
21
3
31
0
39
0
210
0
220
0
230
1
0
LINE
5
9A
100
AcDbEntity
8
1
62
256
6
ByLayer
370
18
48
1
60
1
100
AcDbLine
10
-44.625163
20
-3
30
0
11
-44.164379
21
-6.499998
31
0
39
0
210
0
220
0
230
1
0
LINE
5
9B
100
AcDbEntity
8
1
62
256
6
ByLayer
370
18
48
1
60
1
100
AcDbLine
10
-44.164379
20
-6.499998
30
0
11
-45.085946
21
-6.500002
31
0
39
0
210
0
220
0
230
1
0
LINE
5
9C
100
AcDbEntity
8
1
62
256
6
ByLayer
370
18
48
1
60
1
100
AcDbLine
10
-45.085946
20
-6.500002
30
0
11
-44.625163
21
-3
31
0
39
0
210
0
220
0
230
1
0
LINE
5
9D
100
AcDbEntity
8
2
62
256
6
ByLayer
370
13
48
1
60
0
100
AcDbLine
10
63.083343
20
30.685193
30
0
11
63.083343
21
-11.725
31
0
39
0
210
0
220
0
230
1
0
LINE
5
9F
100
AcDbEntity
8
2
62
256
6
ByLayer
370
13
48
1
60
0
100
AcDbLine
10
51.481
20
2.975
30
0
11
65.083343
21
2.975
31
0
39
0
210
0
220
0
230
1
0
LINE
5
A0
100
AcDbEntity
8
2
62
256
6
ByLayer
370
13
48
1
60
0
100
AcDbLine
10
51.481
20
-2.975
30
0
11
65.083343
21
-2.975
31
0
39
0
210
0
220
0
230
1
0
LINE
5
A1
100
AcDbEntity
8
1
62
256
6
ByLayer
370
18
48
1
60
1
100
AcDbLine
10
63.083343
20
2.975
30
0
11
62.622559
21
6.474998
31
0
39
0
210
0
220
0
230
1
0
LINE
5
A2
100
AcDbEntity
8
1
62
256
6
ByLayer
370
18
48
1
60
1
100
AcDbLine
10
62.622559
20
6.474998
30
0
11
63.544126
21
6.475002
31
0
39
0
210
0
220
0
230
1
0
LINE
5
A3
100
AcDbEntity
8
1
62
256
6
ByLayer
370
18
48
1
60
1
100
AcDbLine
10
63.544126
20
6.475002
30
0
11
63.083343
21
2.975
31
0
39
0
210
0
220
0
230
1
0
LINE
5
A4
100
AcDbEntity
8
1
62
256
6
ByLayer
370
18
48
1
60
1
100
AcDbLine
10
63.083343
20
-2.975
30
0
11
63.544126
21
-6.474998
31
0
39
0
210
0
220
0
230
1
0
LINE
5
A5
100
AcDbEntity
8
1
62
256
6
ByLayer
370
18
48
1
60
1
100
AcDbLine
10
63.544126
20
-6.474998
30
0
11
62.622559
21
-6.475002
31
0
39
0
210
0
220
0
230
1
0
LINE
5
A6
100
AcDbEntity
8
1
62
256
6
ByLayer
370
18
48
1
60
1
100
AcDbLine
10
62.622559
20
-6.475002
30
0
11
63.083343
21
-2.975
31
0
39
0
210
0
220
0
230
1
0
LINE
5
F8
100
AcDbEntity
8
1
62
256
6
ByLayer
370
18
48
1
60
1
100
AcDbLine
10
-44.625163
20
3
30
0
11
-45.085946
21
6.499998
31
0
39
0
210
0
220
0
230
1
0
LINE
5
F9
100
AcDbEntity
8
1
62
256
6
ByLayer
370
18
48
1
60
1
100
AcDbLine
10
-45.085946
20
6.499998
30
0
11
-44.164379
21
6.500002
31
0
39
0
210
0
220
0
230
1
0
LINE
5
FA
100
AcDbEntity
8
1
62
256
6
ByLayer
370
18
48
1
60
1
100
AcDbLine
10
-44.164379
20
6.500002
30
0
11
-44.625163
21
3
31
0
39
0
210
0
220
0
230
1
0
LINE
5
FC
100
AcDbEntity
8
1
62
256
6
ByLayer
370
18
48
1
60
1
100
AcDbLine
10
-44.625163
20
-3
30
0
11
-44.164379
21
-6.499998
31
0
39
0
210
0
220
0
230
1
0
LINE
5
FD
100
AcDbEntity
8
1
62
256
6
ByLayer
370
18
48
1
60
1
100
AcDbLine
10
-44.164379
20
-6.499998
30
0
11
-45.085946
21
-6.500002
31
0
39
0
210
0
220
0
230
1
0
LINE
5
FE
100
AcDbEntity
8
1
62
256
6
ByLayer
370
18
48
1
60
1
100
AcDbLine
10
-45.085946
20
-6.500002
30
0
11
-44.625163
21
-3
31
0
39
0
210
0
220
0
230
1
0
LINE
5
102
100
AcDbEntity
8
1
62
256
6
ByLayer
370
18
48
1
60
1
100
AcDbLine
10
63.083343
20
2.975
30
0
11
62.622559
21
6.474998
31
0
39
0
210
0
220
0
230
1
0
LINE
5
103
100
AcDbEntity
8
1
62
256
6
ByLayer
370
18
48
1
60
1
100
AcDbLine
10
62.622559
20
6.474998
30
0
11
63.544126
21
6.475002
31
0
39
0
210
0
220
0
230
1
0
LINE
5
104
100
AcDbEntity
8
1
62
256
6
ByLayer
370
18
48
1
60
1
100
AcDbLine
10
63.544126
20
6.475002
30
0
11
63.083343
21
2.975
31
0
39
0
210
0
220
0
230
1
0
LINE
5
106
100
AcDbEntity
8
1
62
256
6
ByLayer
370
18
48
1
60
1
100
AcDbLine
10
63.083343
20
-2.975
30
0
11
63.544126
21
-6.474998
31
0
39
0
210
0
220
0
230
1
0
LINE
5
107
100
AcDbEntity
8
1
62
256
6
ByLayer
370
18
48
1
60
1
100
AcDbLine
10
63.544126
20
-6.474998
30
0
11
62.622559
21
-6.475002
31
0
39
0
210
0
220
0
230
1
0
LINE
5
108
100
AcDbEntity
8
1
62
256
6
ByLayer
370
18
48
1
60
1
100
AcDbLine
10
62.622559
20
-6.475002
30
0
11
63.083343
21
-2.975
31
0
39
0
210
0
220
0
230
1
0
MTEXT
5
F2
100
AcDbEntity
8
SK6
62
256
6
ByLayer
370
13
48
1
60
0
100
AcDbMText
10
-20.609026
20
35.515328
30
0
210
0
220
0
230
1
1
\W0.7386;860.1-0595-037A1-PM P1BM
40
3.5
41
0
44
1.084337
50
0
71
7
72
5
7
iso_b_vert
0
MTEXT
5
F6
100
AcDbEntity
8
SK2
62
256
6
ByLayer
370
18
48
1
60
0
100
AcDbMText
10
-46.189796
20
16.409024
30
0
210
0
220
0
230
1
1
%%c
40
3.5
41
0
44
1.084337
50
90
71
7
72
5
7
iso_b_vert
0
MTEXT
5
F7
100
AcDbEntity
8
SK2
62
256
6
ByLayer
370
18
48
1
60
0
100
AcDbMText
10
-46.189796
20
21.63168
30
0
210
0
220
0
230
1
1
\W0.7317;6,000
40
3.5
41
0
44
1.084337
50
90
71
7
72
5
7
iso_b_vert
0
MTEXT
5
100
100
AcDbEntity
8
2
62
256
6
ByLayer
370
18
48
1
60
0
100
AcDbMText
10
61.518709
20
14.97711
30
0
210
0
220
0
230
1
1
%%c
40
3.5
41
0
44
1.084337
50
90
71
7
72
5
7
iso_b_vert
0
MTEXT
5
101
100
AcDbEntity
8
2
62
256
6
ByLayer
370
18
48
1
60
0
100
AcDbMText
10
61.518709
20
20.199766
30
0
210
0
220
0
230
1
1
\W0.7317;5,950
40
3.5
41
0
44
1.084337
50
90
71
7
72
5
7
iso_b_vert
0
HATCH
5
FB
100
AcDbEntity
8
SK2
62
256
6
ByLayer
370
13
48
1
60
0
100
AcDbHatch
10
0
20
0
30
0
210
0
220
0
230
1
2
ANSI31
70
0
71
0
91
1
92
5
93
3
72
1
10
-44.6251625675374
20
3
11
-45.0859463090902
21
6.49999830744682
72
1
10
-45.0859463090902
20
6.49999830744682
11
-44.1643788259847
21
6.50000169255318
72
1
10
-44.1643788259847
20
6.50000169255318
11
-44.6251625675374
21
3
97
0
75
0
76
1
52
0
41
0.0062
77
0
78
1
53
45
43
0
44
0
45
-0.0139193969876572
46
0.0139193969876572
79
0
47
0
98
1
10
0
20
0
0
HATCH
5
FF
100
AcDbEntity
8
SK2
62
256
6
ByLayer
370
13
48
1
60
0
100
AcDbHatch
10
0
20
0
30
0
210
0
220
0
230
1
2
ANSI31
70
0
71
0
91
1
92
5
93
3
72
1
10
-44.6251625675374
20
-3
11
-44.1643788259847
21
-6.49999830744682
72
1
10
-44.1643788259847
20
-6.49999830744682
11
-45.0859463090902
21
-6.50000169255318
72
1
10
-45.0859463090902
20
-6.50000169255318
11
-44.6251625675374
21
-3
97
0
75
0
76
1
52
0
41
0.0062
77
0
78
1
53
45
43
0
44
0
45
-0.0139193969876572
46
0.0139193969876572
79
0
47
0
98
1
10
0
20
0
0
HATCH
5
105
100
AcDbEntity
8
2
62
256
6
ByLayer
370
13
48
1
60
0
100
AcDbHatch
10
0
20
0
30
0
210
0
220
0
230
1
2
ANSI31
70
0
71
0
91
1
92
5
93
3
72
1
10
63.083342615295
20
2.97500000000002
11
62.6225588737423
21
6.47499830744684
72
1
10
62.6225588737423
20
6.47499830744684
11
63.5441263568478
21
6.47500169255321
72
1
10
63.5441263568478
20
6.47500169255321
11
63.083342615295
21
2.97500000000002
97
0
75
0
76
1
52
0
41
0.0062
77
0
78
1
53
45
43
0
44
0
45
-0.0139193969876572
46
0.0139193969876572
79
0
47
0
98
1
10
0
20
0
0
HATCH
5
109
100
AcDbEntity
8
2
62
256
6
ByLayer
370
13
48
1
60
0
100
AcDbHatch
10
0
20
0
30
0
210
0
220
0
230
1
2
ANSI31
70
0
71
0
91
1
92
5
93
3
72
1
10
63.083342615295
20
-2.97499999999999
11
63.5441263568478
21
-6.47499830744681
72
1
10
63.5441263568478
20
-6.47499830744681
11
62.6225588737423
21
-6.47500169255318
72
1
10
62.6225588737423
20
-6.47500169255318
11
63.083342615295
21
-2.97499999999999
97
0
75
0
76
1
52
0
41
0.0062
77
0
78
1
53
45
43
0
44
0
45
-0.0139193969876572
46
0.0139193969876572
79
0
47
0
98
1
10
0
20
0
0
DIMENSION
5
10B
100
AcDbEntity
8
2
62
256
6
ByLayer
370
13
48
1
60
0
100
AcDbDimension
2
_U0
10
49.8935
20
-13.188398
30
0
11
24.94675
21
-13.188398
31
0
70
32
71
1
72
1
41
1
210
0
220
0
230
1
3
Standard
100
AcDbAlignedDimension
13
0
23
0
33
0
14
49.8935
24
-2.975
34
0
50
0
100
AcDbRotatedDimension
1001
ACAD
1000
DSTYLE
1002
{
1070
   371
1070
    13
1070
   372
1070
    13
1070
   170
1070
     0
1070
   144
1040
1.0
1070
   277
1070
     2
1070
   278
1070
    44
1070
   146
1040
1.0
1070
   345
1005
16
1070
   347
1005
16
1070
   346
1005
16
1070
   344
1005
0
1070
   343
1005
0
1070
   172
1070
     1
1070
    76
1070
     0
1070
    75
1070
     0
1070
   282
1070
     0
1070
   281
1070
     0
1070
    71
1070
     0
1070
    74
1070
     0
1070
   279
1070
     0
1070
   173
1070
     1
1070
   340
1005
F3
1070
   271
1070
     2
1070
   272
1070
     2
1070
    77
1070
     1
1070
    73
1070
     1
1070
   171
1070
     3
1070
   274
1070
     4
1070
   177
1070
    35
1070
   176
1070
    35
1070
   178
1070
    35
1070
    48
1040
-0.1
1070
    41
1040
3.5
1070
   147
1040
1.75
1070
    42
1040
1.5875
1070
    44
1040
2.0
1070
   140
1040
3.5
1002
}
1001
ACAD_DSTYLE_DIM_LINETYPE
1070
   380
1005
16
1001
ACAD_DSTYLE_DIM_EXT1_LINETYPE
1070
   381
1005
16
1001
ACAD_DSTYLE_DIM_EXT2_LINETYPE
1070
   382
1005
16
0
DIMENSION
5
124
100
AcDbEntity
8
SK2
62
256
6
ByLayer
370
13
48
1
60
0
100
AcDbDimension
2
_U1
10
51
20
-31.692985
30
0
11
7.5
21
-31.692985
31
0
70
32
71
1
72
1
41
1
210
0
220
0
230
1
3
Standard
100
AcDbAlignedDimension
13
-36
23
-3
33
0
14
51
24
0
34
0
50
0
100
AcDbRotatedDimension
1001
ACAD
1000
DSTYLE
1002
{
1070
   371
1070
    13
1070
   372
1070
    13
1070
   170
1070
     0
1070
   144
1040
1.0
1070
   277
1070
     2
1070
   278
1070
    44
1070
   146
1040
1.0
1070
   345
1005
16
1070
   347
1005
16
1070
   346
1005
16
1070
   344
1005
0
1070
   343
1005
0
1070
   172
1070
     1
1070
    76
1070
     0
1070
    75
1070
     0
1070
   282
1070
     0
1070
   281
1070
     0
1070
    71
1070
     0
1070
    74
1070
     0
1070
   279
1070
     0
1070
   173
1070
     1
1070
   340
1005
F3
1070
   271
1070
     2
1070
   272
1070
     2
1070
    77
1070
     1
1070
    73
1070
     1
1070
   171
1070
     3
1070
   274
1070
     4
1070
   177
1070
    35
1070
   176
1070
    35
1070
   178
1070
    35
1070
    48
1040
-0.1
1070
    41
1040
3.5
1070
   147
1040
1.75
1070
    42
1040
1.5875
1070
    44
1040
2.0
1070
   140
1040
3.5
1002
}
1001
ACAD_DSTYLE_DIM_LINETYPE
1070
   380
1005
16
1001
ACAD_DSTYLE_DIM_EXT1_LINETYPE
1070
   381
1005
16
1001
ACAD_DSTYLE_DIM_EXT2_LINETYPE
1070
   382
1005
16
0
DIMENSION
5
13C
100
AcDbEntity
8
SK2
62
256
6
ByLayer
370
13
48
1
60
0
100
AcDbDimension
2
_U2
10
51
20
14.584119
30
0
11
35.57
21
14.584119
31
0
70
32
71
1
72
1
41
1
210
0
220
0
230
1
3
Standard
100
AcDbAlignedDimension
13
20.14
23
2.975
33
0
14
51
24
0
34
0
50
0
100
AcDbRotatedDimension
1001
ACAD
1000
DSTYLE
1002
{
1070
   371
1070
    13
1070
   372
1070
    13
1070
   170
1070
     0
1070
   144
1040
1.0
1070
   277
1070
     2
1070
   278
1070
    44
1070
   146
1040
1.0
1070
   345
1005
16
1070
   347
1005
16
1070
   346
1005
16
1070
   344
1005
0
1070
   343
1005
0
1070
   172
1070
     1
1070
    76
1070
     0
1070
    75
1070
     0
1070
   282
1070
     0
1070
   281
1070
     0
1070
    71
1070
     0
1070
    74
1070
     0
1070
   279
1070
     0
1070
   173
1070
     1
1070
   340
1005
F3
1070
   271
1070
     2
1070
   272
1070
     2
1070
    77
1070
     1
1070
    73
1070
     1
1070
   171
1070
     3
1070
   274
1070
     4
1070
   177
1070
    35
1070
   176
1070
    35
1070
   178
1070
    35
1070
    48
1040
-0.1
1070
    41
1040
3.5
1070
   147
1040
1.75
1070
    42
1040
1.5875
1070
    44
1040
2.0
1070
   140
1040
3.5
1002
}
1001
ACAD_DSTYLE_DIM_LINETYPE
1070
   380
1005
16
1001
ACAD_DSTYLE_DIM_EXT1_LINETYPE
1070
   381
1005
16
1001
ACAD_DSTYLE_DIM_EXT2_LINETYPE
1070
   382
1005
16
0
DIMENSION
5
154
100
AcDbEntity
8
SK2
62
256
6
ByLayer
370
13
48
1
60
0
100
AcDbDimension
2
_U3
10
49.8935
20
-15.777503
30
0
11
67.833333
21
-15.777503
31
0
70
32
71
1
72
1
41
1
210
0
220
0
230
1
3
Standard
100
AcDbAlignedDimension
13
51
23
0
33
0
14
49.8935
24
-2.975
34
0
50
0
100
AcDbRotatedDimension
1001
ACAD
1000
DSTYLE
1002
{
1070
   371
1070
    13
1070
   372
1070
    13
1070
   170
1070
     0
1070
   144
1040
1.0
1070
   277
1070
     2
1070
   278
1070
    44
1070
   146
1040
1.0
1070
   345
1005
16
1070
   347
1005
16
1070
   346
1005
16
1070
   344
1005
0
1070
   343
1005
0
1070
   172
1070
     1
1070
    76
1070
     0
1070
    75
1070
     0
1070
   282
1070
     0
1070
   281
1070
     0
1070
    71
1070
     0
1070
    74
1070
     0
1070
   279
1070
     0
1070
   173
1070
     1
1070
   340
1005
F3
1070
   271
1070
     2
1070
   272
1070
     2
1070
    77
1070
     1
1070
    73
1070
     1
1070
   171
1070
     3
1070
   274
1070
     4
1070
   177
1070
    35
1070
   176
1070
    35
1070
   178
1070
    35
1070
    48
1040
-0.1
1070
    41
1040
3.5
1070
   147
1040
1.75
1070
    42
1040
1.5875
1070
    44
1040
2.0
1070
   140
1040
3.5
1002
}
1001
ACAD_DSTYLE_DIM_LINETYPE
1070
   380
1005
16
1001
ACAD_DSTYLE_DIM_EXT1_LINETYPE
1070
   381
1005
16
1001
ACAD_DSTYLE_DIM_EXT2_LINETYPE
1070
   382
1005
16
0
DIMENSION
5
16E
100
AcDbEntity
8
SK2
62
256
6
ByLayer
370
13
48
1
60
0
100
AcDbDimension
2
_U4
10
49.8935
20
-21.343428
30
0
11
6.94675
21
-21.343428
31
0
70
32
71
1
72
1
41
1
210
0
220
0
230
1
3
Standard
100
AcDbAlignedDimension
13
-36
23
-3
33
0
14
49.8935
24
-2.975
34
0
50
0
100
AcDbRotatedDimension
1001
ACAD
1000
DSTYLE
1002
{
1070
   371
1070
    13
1070
   372
1070
    13
1070
   170
1070
     0
1070
   144
1040
1.0
1070
   277
1070
     2
1070
   278
1070
    44
1070
   146
1040
1.0
1070
   345
1005
16
1070
   347
1005
16
1070
   346
1005
16
1070
   344
1005
0
1070
   343
1005
0
1070
   172
1070
     1
1070
    76
1070
     0
1070
    75
1070
     0
1070
   282
1070
     0
1070
   281
1070
     0
1070
    71
1070
     0
1070
    74
1070
     0
1070
   279
1070
     0
1070
   173
1070
     1
1070
   340
1005
F3
1070
   271
1070
     2
1070
   272
1070
     2
1070
    77
1070
     1
1070
    73
1070
     1
1070
   171
1070
     3
1070
   274
1070
     4
1070
   177
1070
    35
1070
   176
1070
    35
1070
   178
1070
    35
1070
    48
1040
-0.1
1070
    41
1040
3.5
1070
   147
1040
1.75
1070
    42
1040
1.5875
1070
    44
1040
2.0
1070
   140
1040
3.5
1002
}
1001
ACAD_DSTYLE_DIM_LINETYPE
1070
   380
1005
16
1001
ACAD_DSTYLE_DIM_EXT1_LINETYPE
1070
   381
1005
16
1001
ACAD_DSTYLE_DIM_EXT2_LINETYPE
1070
   382
1005
16
0
ENDSEC
0
SECTION
2
OBJECTS
0
DICTIONARY
5
1f6
330
0
100
AcDbDictionary
280
0
281
1
3
ACAD_GROUP
350
1f7
3
ACAD_MLINESTYLE
350
1f8
0
DICTIONARY
5
1f7
330
0
100
AcDbDictionary
280
0
281
1
0
DICTIONARY
5
1f8
330
0
100
AcDbDictionary
280
0
281
1
3
Standard
350
18
0
MLINESTYLE
5
18
330
1f8
100
AcDbMlineStyle
2
Standard
70
0
3

62
256
51
90
52
90
71
2
49
-0.5
62
256
6
ByLayer
49
0.5
62
256
6
ByLayer
0
RASTERVARIABLES
5
1e4
330

100
AcDbRasterVariables
90
0
70
1
71
1
72
1
0
ENDSEC
0
EOF
