0
SECTION
2
HEADER
9
$ACADVER
1
AC1015
9
$DWGCODEPAGE
3
ANSI_1252
9
$HANDSEED
5
20b
9
$ANGBASE
50
0
9
$ANGDIR
70
0
9
$ATTMODE
70
1
9
$AUNITS
70
0
9
$AUPREC
70
0
9
$CECOLOR
62
256
9
$CELTSCALE
40
1
9
$CELTYPE
6
ByLayer
9
$CELWEIGHT
370
18
9
$CLAYER
8
0
9
$CMLJUST
70
0
9
$CMLSCALE
40
1
9
$CMLSTYLE
2
Standard
9
$DIMSTYLE
2
Standard
9
$TEXTSIZE
40
0.2
9
$TEXTSTYLE
7
Standard
9
$LUNITS
70
2
9
$LUPREC
70
4
9
$EXTNAMES
290
1
9
$INSUNITS
70
4
9
$LTSCALE
40
1
9
$LWDISPLAY
290
1
9
$PDMODE
70
0
9
$PDSIZE
40
0
9
$PLINEGEN
70
0
0
ENDSEC
0
SECTION
2
CLASSES
0
CLASS
1
RASTERVARIABLES
2
AcDbRasterVariables
3
ISM
90
0
280
0
281
0
0
ENDSEC
0
SECTION
2
TABLES
0
TABLE
2
VPORT
5
201
100
AcDbSymbolTable
0
VPORT
5
1
100
AcDbSymbolTableRecord
100
AcDbViewportTableRecord
2
*Active
70
0
10
0
20
0
11
1
21
1
12
-1
22
1
13
0
23
0
14
0.5
24
0.5
15
10
25
10
16
0
26
0
36
1
17
0
27
0
37
0
0
ENDTAB
0
TABLE
2
LTYPE
5
202
100
AcDbSymbolTable
0
LTYPE
5
14
100
AcDbSymbolTableRecord
100
AcDbLinetypeTableRecord
70
0
2
ByBlock
3

72
65
73
0
40
0
0
LTYPE
5
15
100
AcDbSymbolTableRecord
100
AcDbLinetypeTableRecord
70
0
2
ByLayer
3

72
65
73
0
40
0
0
LTYPE
5
16
100
AcDbSymbolTableRecord
100
AcDbLinetypeTableRecord
70
0
2
Continuous
3
Solid line
72
65
73
0
40
0
0
LTYPE
5
6E
100
AcDbSymbolTableRecord
100
AcDbLinetypeTableRecord
70
0
2
CENTER
3
____ _ ____ _ ____ _ ____
72
65
73
4
40
47.5
49
22
74
0
49
-8.5
74
0
49
8.5
74
0
49
-8.5
74
0
0
LTYPE
5
6F
100
AcDbSymbolTableRecord
100
AcDbLinetypeTableRecord
70
0
2
DASHED
3
__ __ __ __ __ __ __ __ __
72
65
73
2
40
25.72
49
12.86
74
0
49
-12.86
74
0
0
ENDTAB
0
TABLE
2
LAYER
5
203
100
AcDbSymbolTable
0
LAYER
5
10
100
AcDbSymbolTableRecord
100
AcDbLayerTableRecord
2
0
70
0
62
7
6
Continuous
290
1
370
-3
390
0
0
LAYER
5
71
100
AcDbSymbolTableRecord
100
AcDbLayerTableRecord
2
80
70
0
62
-6
6
Continuous
290
1
370
-3
390
0
0
LAYER
5
73
100
AcDbSymbolTableRecord
100
AcDbLayerTableRecord
2
81
70
0
62
-3
6
Continuous
290
1
370
-3
390
0
0
LAYER
5
75
100
AcDbSymbolTableRecord
100
AcDbLayerTableRecord
2
1
70
0
62
4
6
Continuous
290
1
370
-3
390
0
0
LAYER
5
85
100
AcDbSymbolTableRecord
100
AcDbLayerTableRecord
2
4
70
0
62
-2
6
CENTER
290
1
370
-3
390
0
0
LAYER
5
A0
100
AcDbSymbolTableRecord
100
AcDbLayerTableRecord
2
2
70
0
62
7
6
Continuous
290
1
370
-3
390
0
0
LAYER
5
116
100
AcDbSymbolTableRecord
100
AcDbLayerTableRecord
2
Defpoints
70
0
62
7
6
Continuous
290
0
370
-3
390
0
0
LAYER
5
1ed
100
AcDbSymbolTableRecord
100
AcDbLayerTableRecord
2
SK1
70
0
62
4
6
Continuous
290
1
370
-3
390
0
0
LAYER
5
1ee
100
AcDbSymbolTableRecord
100
AcDbLayerTableRecord
2
SK4
70
0
62
2
6
CENTER
290
1
370
-3
390
0
0
LAYER
5
1ef
100
AcDbSymbolTableRecord
100
AcDbLayerTableRecord
2
SK2
70
0
62
7
6
Continuous
290
1
370
-3
390
0
0
LAYER
5
1f0
100
AcDbSymbolTableRecord
100
AcDbLayerTableRecord
2
SK6
70
0
62
5
6
Continuous
290
1
370
-3
390
0
0
ENDTAB
0
TABLE
2
STYLE
5
204
100
AcDbSymbolTable
0
STYLE
5
11
100
AcDbSymbolTableRecord
100
AcDbTextStyleTableRecord
2
Standard
3
txt
70
0
71
0
40
0
41
1
42
0
50
0
0
STYLE
5
FB
100
AcDbSymbolTableRecord
100
AcDbTextStyleTableRecord
2
iso_b_vert
3
simplex.shx
70
0
71
0
40
0
41
1
42
0
50
0
0
STYLE
5
FC
100
AcDbSymbolTableRecord
100
AcDbTextStyleTableRecord
2
DWGDirectTextStyle
3
simplex
70
0
71
0
40
0
41
1
42
0
50
0
0
ENDTAB
0
TABLE
2
DIMSTYLE
5
205
100
AcDbSymbolTable
100
AcDbDimStyleTable
0
DIMSTYLE
105
27
100
AcDbSymbolTableRecord
100
AcDbDimStyleTableRecord
2
Standard
70
0
3
<>
41
0.18
42
0.0625
44
0.18
140
0.18
147
0.09
73
0
74
0
77
1
271
2
275
0
278
52
280
0
340
11
0
ENDTAB
0
TABLE
2
VIEW
5
206
100
AcDbSymbolTable
0
ENDTAB
0
TABLE
2
UCS
5
207
100
AcDbSymbolTable
0
ENDTAB
0
TABLE
2
APPID
5
208
100
AcDbSymbolTable
0
APPID
5
12
100
AcDbSymbolTableRecord
100
AcDbRegAppTableRecord
2
ACAD
70
0
0
APPID
5
112
100
AcDbSymbolTableRecord
100
AcDbRegAppTableRecord
2
ACAD_DSTYLE_DIMBREAK
70
0
0
APPID
5
1AC
100
AcDbSymbolTableRecord
100
AcDbRegAppTableRecord
2
ACAD_DSTYLE_DIM_LINETYPE
70
0
0
APPID
5
1AD
100
AcDbSymbolTableRecord
100
AcDbRegAppTableRecord
2
ACAD_DSTYLE_DIM_EXT1_LINETYPE
70
0
0
APPID
5
1AE
100
AcDbSymbolTableRecord
100
AcDbRegAppTableRecord
2
ACAD_DSTYLE_DIM_EXT2_LINETYPE
70
0
0
APPID
5
1E9
100
AcDbSymbolTableRecord
100
AcDbRegAppTableRecord
2
ACAD_MLEADERVER
70
0
0
ENDTAB
0
TABLE
2
BLOCK_RECORD
5
209
100
AcDbSymbolTable
0
BLOCK_RECORD
5
1F
100
AcDbSymbolTableRecord
100
AcDbBlockTableRecord
2
*Model_Space
340
0
70
0
0
BLOCK_RECORD
5
1B
100
AcDbSymbolTableRecord
100
AcDbBlockTableRecord
2
*Paper_Space
340
0
70
0
0
BLOCK_RECORD
5
23
100
AcDbSymbolTableRecord
100
AcDbBlockTableRecord
2
*Paper_Space0
340
0
70
0
0
BLOCK_RECORD
5
117
100
AcDbSymbolTableRecord
100
AcDbBlockTableRecord
2
*D1
340
0
70
0
0
BLOCK_RECORD
5
123
100
AcDbSymbolTableRecord
100
AcDbBlockTableRecord
2
_U0
340
0
70
0
0
BLOCK_RECORD
5
12F
100
AcDbSymbolTableRecord
100
AcDbBlockTableRecord
2
*D3
340
0
70
0
0
BLOCK_RECORD
5
13B
100
AcDbSymbolTableRecord
100
AcDbBlockTableRecord
2
_U1
340
0
70
0
0
BLOCK_RECORD
5
147
100
AcDbSymbolTableRecord
100
AcDbBlockTableRecord
2
*D5
340
0
70
0
0
BLOCK_RECORD
5
153
100
AcDbSymbolTableRecord
100
AcDbBlockTableRecord
2
_U2
340
0
70
0
0
BLOCK_RECORD
5
15F
100
AcDbSymbolTableRecord
100
AcDbBlockTableRecord
2
*D7
340
0
70
0
0
BLOCK_RECORD
5
16D
100
AcDbSymbolTableRecord
100
AcDbBlockTableRecord
2
_U3
340
0
70
0
0
BLOCK_RECORD
5
179
100
AcDbSymbolTableRecord
100
AcDbBlockTableRecord
2
*D9
340
0
70
0
0
BLOCK_RECORD
5
185
100
AcDbSymbolTableRecord
100
AcDbBlockTableRecord
2
_U4
340
0
70
0
0
ENDTAB
0
ENDSEC
0
SECTION
2
BLOCKS
0
BLOCK
5
20
100
AcDbEntity
8
0
100
AcDbBlockBegin
2
*Model_Space
70
0
10
0
20
0
30
0
3
*Model_Space
0
ENDBLK
5
21
100
AcDbEntity
8
0
100
AcDbBlockEnd
0
BLOCK
5
1C
100
AcDbEntity
8
0
100
AcDbBlockBegin
2
*Paper_Space
70
0
10
0
20
0
30
0
3
*Paper_Space
0
ENDBLK
5
1D
100
AcDbEntity
8
0
100
AcDbBlockEnd
0
BLOCK
5
24
100
AcDbEntity
8
0
100
AcDbBlockBegin
2
*Paper_Space0
70
0
10
0
20
0
30
0
3
*Paper_Space0
0
ENDBLK
5
25
100
AcDbEntity
8
0
100
AcDbBlockEnd
0
BLOCK
5
118
100
AcDbEntity
8
0
100
AcDbBlockBegin
2
*D1
70
1
10
0
20
0
30
0
3
*D1
0
LINE
5
11A
100
AcDbEntity
8
0
62
256
6
ByLayer
370
-2
48
1
60
0
100
AcDbLine
10
0
20
-1.5875
30
0
11
0
21
-14.863398
31
0
39
0
210
0
220
0
230
1
0
LINE
5
11B
100
AcDbEntity
8
0
62
256
6
ByLayer
370
-2
48
1
60
0
100
AcDbLine
10
60.0113
20
-4.2375
30
0
11
60.0113
21
-14.863398
31
0
39
0
210
0
220
0
230
1
0
LINE
5
11C
100
AcDbEntity
8
0
62
256
6
ByLayer
370
-2
48
1
60
0
100
AcDbLine
10
3.5
20
-12.863398
30
0
11
56.5113
21
-12.863398
31
0
39
0
210
0
220
0
230
1
0
SOLID
5
11D
100
AcDbEntity
8
0
62
256
6
ByLayer
370
-1
48
1
60
0
100
AcDbTrace
10
3.5
20
-12.280065
30
0
11
3.5
21
-13.446732
31
0
12
0
22
-12.863398
32
0
13
0
23
-12.863398
33
0
39
0
210
0
220
0
230
1
0
SOLID
5
11E
100
AcDbEntity
8
0
62
256
6
ByLayer
370
-1
48
1
60
0
100
AcDbTrace
10
56.5113
20
-13.446732
30
0
11
56.5113
21
-12.280065
31
0
12
60.0113
22
-12.863398
32
0
13
60.0113
23
-12.863398
33
0
39
0
210
0
220
0
230
1
0
MTEXT
5
11F
100
AcDbEntity
8
0
62
256
6
ByLayer
370
18
48
1
60
0
100
AcDbMText
10
30.00565
20
-5.863398
30
0
210
0
220
0
230
1
1
\A1;60.01
40
3.5
41
0
44
1
50
0
71
5
72
5
7
iso_b_vert
0
POINT
5
120
100
AcDbEntity
8
Defpoints
62
0
6
ByLayer
370
-1
48
1
60
0
100
AcDbPoint
10
0
20
0
30
0
39
0
210
0
220
0
230
1
50
360
0
POINT
5
121
100
AcDbEntity
8
Defpoints
62
0
6
ByLayer
370
-1
48
1
60
0
100
AcDbPoint
10
60.0113
20
-2.65
30
0
39
0
210
0
220
0
230
1
50
360
0
POINT
5
122
100
AcDbEntity
8
Defpoints
62
0
6
ByLayer
370
-1
48
1
60
0
100
AcDbPoint
10
60.0113
20
-12.863398
30
0
39
0
210
0
220
0
230
1
50
360
0
ENDBLK
5
119
100
AcDbEntity
8
0
100
AcDbBlockEnd
0
BLOCK
5
12A
100
AcDbEntity
8
0
100
AcDbBlockBegin
2
_U0
70
0
10
0
20
0
30
0
3
_U0
0
MTEXT
5
124
100
AcDbEntity
8
2
62
256
6
ByLayer
370
13
48
1
60
0
100
AcDbMText
10
25.305785
20
-11.830765
30
0
210
0
220
0
230
1
1
\W0.7211;60,01
40
3.5
41
0
44
1.084337
50
0
71
7
72
5
7
iso_b_vert
0
LINE
5
125
100
AcDbEntity
8
2
62
256
6
ByLayer
370
13
48
1
60
0
100
AcDbLine
10
0
20
-1.5875
30
0
11
0
21
-14.863398
31
0
39
0
210
0
220
0
230
1
0
LINE
5
126
100
AcDbEntity
8
2
62
256
6
ByLayer
370
13
48
1
60
0
100
AcDbLine
10
60.0113
20
-4.2375
30
0
11
60.0113
21
-14.863398
31
0
39
0
210
0
220
0
230
1
0
LINE
5
127
100
AcDbEntity
8
2
62
256
6
ByLayer
370
13
48
1
60
0
100
AcDbLine
10
0
20
-12.863398
30
0
11
60.0113
21
-12.863398
31
0
39
0
210
0
220
0
230
1
0
SOLID
5
128
100
AcDbEntity
8
2
62
256
6
ByLayer
370
18
48
1
60
0
100
AcDbTrace
10
0
20
-12.863398
30
0
11
3.499998
21
-12.402615
31
0
12
3.500002
22
-13.324182
32
0
13
3.500002
23
-13.324182
33
0
39
0
210
0
220
0
230
1
0
SOLID
5
129
100
AcDbEntity
8
2
62
256
6
ByLayer
370
18
48
1
60
0
100
AcDbTrace
10
60.0113
20
-12.863398
30
0
11
56.511302
21
-13.324182
31
0
12
56.511298
22
-12.402615
32
0
13
56.511298
23
-12.402615
33
0
39
0
210
0
220
0
230
1
0
ENDBLK
5
12B
100
AcDbEntity
8
0
100
AcDbBlockEnd
0
BLOCK
5
130
100
AcDbEntity
8
0
100
AcDbBlockBegin
2
*D3
70
1
10
0
20
0
30
0
3
*D3
0
LINE
5
132
100
AcDbEntity
8
0
62
256
6
ByLayer
370
-2
48
1
60
0
100
AcDbLine
10
-36
20
-4.5875
30
0
11
-36
21
-33.692985
31
0
39
0
210
0
220
0
230
1
0
LINE
5
133
100
AcDbEntity
8
0
62
256
6
ByLayer
370
-2
48
1
60
0
100
AcDbLine
10
61
20
-1.5875
30
0
11
61
21
-33.692985
31
0
39
0
210
0
220
0
230
1
0
LINE
5
134
100
AcDbEntity
8
0
62
256
6
ByLayer
370
-2
48
1
60
0
100
AcDbLine
10
-32.5
20
-31.692985
30
0
11
57.5
21
-31.692985
31
0
39
0
210
0
220
0
230
1
0
SOLID
5
135
100
AcDbEntity
8
0
62
256
6
ByLayer
370
-1
48
1
60
0
100
AcDbTrace
10
-32.5
20
-31.109652
30
0
11
-32.5
21
-32.276319
31
0
12
-36
22
-31.692985
32
0
13
-36
23
-31.692985
33
0
39
0
210
0
220
0
230
1
0
SOLID
5
136
100
AcDbEntity
8
0
62
256
6
ByLayer
370
-1
48
1
60
0
100
AcDbTrace
10
57.5
20
-32.276319
30
0
11
57.5
21
-31.109652
31
0
12
61
22
-31.692985
32
0
13
61
23
-31.692985
33
0
39
0
210
0
220
0
230
1
0
MTEXT
5
137
100
AcDbEntity
8
0
62
256
6
ByLayer
370
18
48
1
60
0
100
AcDbMText
10
12.5
20
-24.692985
30
0
210
0
220
0
230
1
1
\A1;97.00
40
3.5
41
0
44
1
50
0
71
5
72
5
7
iso_b_vert
0
POINT
5
138
100
AcDbEntity
8
Defpoints
62
0
6
ByLayer
370
-1
48
1
60
0
100
AcDbPoint
10
-36
20
-3
30
0
39
0
210
0
220
0
230
1
50
360
0
POINT
5
139
100
AcDbEntity
8
Defpoints
62
0
6
ByLayer
370
-1
48
1
60
0
100
AcDbPoint
10
61
20
0
30
0
39
0
210
0
220
0
230
1
50
360
0
POINT
5
13A
100
AcDbEntity
8
Defpoints
62
0
6
ByLayer
370
-1
48
1
60
0
100
AcDbPoint
10
61
20
-31.692985
30
0
39
0
210
0
220
0
230
1
50
360
0
ENDBLK
5
131
100
AcDbEntity
8
0
100
AcDbBlockEnd
0
BLOCK
5
142
100
AcDbEntity
8
0
100
AcDbBlockBegin
2
_U1
70
0
10
0
20
0
30
0
3
_U1
0
MTEXT
5
13C
100
AcDbEntity
8
SK2
62
256
6
ByLayer
370
13
48
1
60
0
100
AcDbMText
10
7.362701
20
-30.660352
30
0
210
0
220
0
230
1
1
\W0.7317;97,00
40
3.5
41
0
44
1.084337
50
0
71
7
72
5
7
iso_b_vert
0
LINE
5
13D
100
AcDbEntity
8
SK2
62
256
6
ByLayer
370
13
48
1
60
0
100
AcDbLine
10
-36
20
-4.5875
30
0
11
-36
21
-33.692985
31
0
39
0
210
0
220
0
230
1
0
LINE
5
13E
100
AcDbEntity
8
SK2
62
256
6
ByLayer
370
13
48
1
60
0
100
AcDbLine
10
61
20
-1.5875
30
0
11
61
21
-33.692985
31
0
39
0
210
0
220
0
230
1
0
LINE
5
13F
100
AcDbEntity
8
SK2
62
256
6
ByLayer
370
13
48
1
60
0
100
AcDbLine
10
-36
20
-31.692985
30
0
11
61
21
-31.692985
31
0
39
0
210
0
220
0
230
1
0
SOLID
5
140
100
AcDbEntity
8
SK2
62
256
6
ByLayer
370
18
48
1
60
0
100
AcDbTrace
10
-36
20
-31.692985
30
0
11
-32.500002
21
-31.232202
31
0
12
-32.499998
22
-32.153769
32
0
13
-32.499998
23
-32.153769
33
0
39
0
210
0
220
0
230
1
0
SOLID
5
141
100
AcDbEntity
8
SK2
62
256
6
ByLayer
370
18
48
1
60
0
100
AcDbTrace
10
61
20
-31.692985
30
0
11
57.500002
21
-32.153769
31
0
12
57.499998
22
-31.232202
32
0
13
57.499998
23
-31.232202
33
0
39
0
210
0
220
0
230
1
0
ENDBLK
5
143
100
AcDbEntity
8
0
100
AcDbBlockEnd
0
BLOCK
5
148
100
AcDbEntity
8
0
100
AcDbBlockBegin
2
*D5
70
1
10
0
20
0
30
0
3
*D5
0
LINE
5
14A
100
AcDbEntity
8
0
62
256
6
ByLayer
370
-2
48
1
60
0
100
AcDbLine
10
17.61
20
4.2375
30
0
11
17.61
21
16.259119
31
0
39
0
210
0
220
0
230
1
0
LINE
5
14B
100
AcDbEntity
8
0
62
256
6
ByLayer
370
-2
48
1
60
0
100
AcDbLine
10
61
20
1.5875
30
0
11
61
21
16.259119
31
0
39
0
210
0
220
0
230
1
0
LINE
5
14C
100
AcDbEntity
8
0
62
256
6
ByLayer
370
-2
48
1
60
0
100
AcDbLine
10
21.11
20
14.259119
30
0
11
57.5
21
14.259119
31
0
39
0
210
0
220
0
230
1
0
SOLID
5
14D
100
AcDbEntity
8
0
62
256
6
ByLayer
370
-1
48
1
60
0
100
AcDbTrace
10
21.11
20
14.842453
30
0
11
21.11
21
13.675786
31
0
12
17.61
22
14.259119
32
0
13
17.61
23
14.259119
33
0
39
0
210
0
220
0
230
1
0
SOLID
5
14E
100
AcDbEntity
8
0
62
256
6
ByLayer
370
-1
48
1
60
0
100
AcDbTrace
10
57.5
20
13.675786
30
0
11
57.5
21
14.842453
31
0
12
61
22
14.259119
32
0
13
61
23
14.259119
33
0
39
0
210
0
220
0
230
1
0
MTEXT
5
14F
100
AcDbEntity
8
0
62
256
6
ByLayer
370
18
48
1
60
0
100
AcDbMText
10
39.305
20
21.259119
30
0
210
0
220
0
230
1
1
\A1;43.39
40
3.5
41
0
44
1
50
0
71
5
72
5
7
iso_b_vert
0
POINT
5
150
100
AcDbEntity
8
Defpoints
62
0
6
ByLayer
370
-1
48
1
60
0
100
AcDbPoint
10
17.61
20
2.65
30
0
39
0
210
0
220
0
230
1
50
360
0
POINT
5
151
100
AcDbEntity
8
Defpoints
62
0
6
ByLayer
370
-1
48
1
60
0
100
AcDbPoint
10
61
20
0
30
0
39
0
210
0
220
0
230
1
50
360
0
POINT
5
152
100
AcDbEntity
8
Defpoints
62
0
6
ByLayer
370
-1
48
1
60
0
100
AcDbPoint
10
61
20
14.259119
30
0
39
0
210
0
220
0
230
1
50
360
0
ENDBLK
5
149
100
AcDbEntity
8
0
100
AcDbBlockEnd
0
BLOCK
5
15A
100
AcDbEntity
8
0
100
AcDbBlockBegin
2
_U2
70
0
10
0
20
0
30
0
3
_U2
0
MTEXT
5
154
100
AcDbEntity
8
SK2
62
256
6
ByLayer
370
13
48
1
60
0
100
AcDbMText
10
33.983435
20
15.291753
30
0
210
0
220
0
230
1
1
\W0.7669;43,39
40
3.5
41
0
44
1.084337
50
0
71
7
72
5
7
iso_b_vert
0
LINE
5
155
100
AcDbEntity
8
SK2
62
256
6
ByLayer
370
13
48
1
60
0
100
AcDbLine
10
17.61
20
4.2375
30
0
11
17.61
21
16.259119
31
0
39
0
210
0
220
0
230
1
0
LINE
5
156
100
AcDbEntity
8
SK2
62
256
6
ByLayer
370
13
48
1
60
0
100
AcDbLine
10
61
20
1.5875
30
0
11
61
21
16.259119
31
0
39
0
210
0
220
0
230
1
0
LINE
5
157
100
AcDbEntity
8
SK2
62
256
6
ByLayer
370
13
48
1
60
0
100
AcDbLine
10
17.61
20
14.259119
30
0
11
61
21
14.259119
31
0
39
0
210
0
220
0
230
1
0
SOLID
5
158
100
AcDbEntity
8
SK2
62
256
6
ByLayer
370
18
48
1
60
0
100
AcDbTrace
10
17.61
20
14.259119
30
0
11
21.109998
21
14.719903
31
0
12
21.110002
22
13.798335
32
0
13
21.110002
23
13.798335
33
0
39
0
210
0
220
0
230
1
0
SOLID
5
159
100
AcDbEntity
8
SK2
62
256
6
ByLayer
370
18
48
1
60
0
100
AcDbTrace
10
61
20
14.259119
30
0
11
57.500002
21
13.798335
31
0
12
57.499998
22
14.719903
32
0
13
57.499998
23
14.719903
33
0
39
0
210
0
220
0
230
1
0
ENDBLK
5
15B
100
AcDbEntity
8
0
100
AcDbBlockEnd
0
BLOCK
5
160
100
AcDbEntity
8
0
100
AcDbBlockBegin
2
*D7
70
1
10
0
20
0
30
0
3
*D7
0
LINE
5
162
100
AcDbEntity
8
0
62
256
6
ByLayer
370
-2
48
1
60
0
100
AcDbLine
10
61
20
-1.5875
30
0
11
61
21
-17.452503
31
0
39
0
210
0
220
0
230
1
0
LINE
5
163
100
AcDbEntity
8
0
62
256
6
ByLayer
370
-2
48
1
60
0
100
AcDbLine
10
60.0113
20
-4.2375
30
0
11
60.0113
21
-17.452503
31
0
39
0
210
0
220
0
230
1
0
LINE
5
164
100
AcDbEntity
8
0
62
256
6
ByLayer
370
-2
48
1
60
0
100
AcDbLine
10
61
20
-15.452503
30
0
11
89
21
-15.452503
31
0
39
0
210
0
220
0
230
1
0
LINE
5
165
100
AcDbEntity
8
0
62
256
6
ByLayer
370
-2
48
1
60
0
100
AcDbLine
10
64.5
20
-15.452503
30
0
11
68
21
-15.452503
31
0
39
0
210
0
220
0
230
1
0
LINE
5
166
100
AcDbEntity
8
0
62
256
6
ByLayer
370
-2
48
1
60
0
100
AcDbLine
10
56.5113
20
-15.452503
30
0
11
53.0113
21
-15.452503
31
0
39
0
210
0
220
0
230
1
0
SOLID
5
167
100
AcDbEntity
8
0
62
256
6
ByLayer
370
-1
48
1
60
0
100
AcDbTrace
10
64.5
20
-14.86917
30
0
11
64.5
21
-16.035837
31
0
12
61
22
-15.452503
32
0
13
61
23
-15.452503
33
0
39
0
210
0
220
0
230
1
0
SOLID
5
168
100
AcDbEntity
8
0
62
256
6
ByLayer
370
-1
48
1
60
0
100
AcDbTrace
10
56.5113
20
-16.035837
30
0
11
56.5113
21
-14.86917
31
0
12
60.0113
22
-15.452503
32
0
13
60.0113
23
-15.452503
33
0
39
0
210
0
220
0
230
1
0
MTEXT
5
169
100
AcDbEntity
8
0
62
256
6
ByLayer
370
18
48
1
60
0
100
AcDbMText
10
78.5
20
-8.452503
30
0
210
0
220
0
230
1
1
\A1;0.99
40
3.5
41
0
44
1
50
0
71
5
72
5
7
iso_b_vert
0
POINT
5
16A
100
AcDbEntity
8
Defpoints
62
0
6
ByLayer
370
-1
48
1
60
0
100
AcDbPoint
10
61
20
0
30
0
39
0
210
0
220
0
230
1
50
360
0
POINT
5
16B
100
AcDbEntity
8
Defpoints
62
0
6
ByLayer
370
-1
48
1
60
0
100
AcDbPoint
10
60.0113
20
-2.65
30
0
39
0
210
0
220
0
230
1
50
360
0
POINT
5
16C
100
AcDbEntity
8
Defpoints
62
0
6
ByLayer
370
-1
48
1
60
0
100
AcDbPoint
10
60.0113
20
-15.452503
30
0
39
0
210
0
220
0
230
1
50
360
0
ENDBLK
5
161
100
AcDbEntity
8
0
100
AcDbBlockEnd
0
BLOCK
5
174
100
AcDbEntity
8
0
100
AcDbBlockBegin
2
_U3
70
0
10
0
20
0
30
0
3
_U3
0
MTEXT
5
16E
100
AcDbEntity
8
SK2
62
256
6
ByLayer
370
13
48
1
60
0
100
AcDbMText
10
67.15186
20
-14.41987
30
0
210
0
220
0
230
1
1
\W0.7259;0,99
40
3.5
41
0
44
1.084337
50
0
71
7
72
5
7
iso_b_vert
0
LINE
5
16F
100
AcDbEntity
8
SK2
62
256
6
ByLayer
370
13
48
1
60
0
100
AcDbLine
10
61
20
-1.5875
30
0
11
61
21
-17.452503
31
0
39
0
210
0
220
0
230
1
0
LINE
5
170
100
AcDbEntity
8
SK2
62
256
6
ByLayer
370
13
48
1
60
0
100
AcDbLine
10
60.0113
20
-4.2375
30
0
11
60.0113
21
-17.452503
31
0
39
0
210
0
220
0
230
1
0
LINE
5
171
100
AcDbEntity
8
SK2
62
256
6
ByLayer
370
13
48
1
60
0
100
AcDbLine
10
51.2613
20
-15.452503
30
0
11
74.996491
21
-15.452503
31
0
39
0
210
0
220
0
230
1
0
SOLID
5
172
100
AcDbEntity
8
SK2
62
256
6
ByLayer
370
18
48
1
60
0
100
AcDbTrace
10
61
20
-15.452503
30
0
11
64.499998
21
-14.991719
31
0
12
64.500002
22
-15.913287
32
0
13
64.500002
23
-15.913287
33
0
39
0
210
0
220
0
230
1
0
SOLID
5
173
100
AcDbEntity
8
SK2
62
256
6
ByLayer
370
18
48
1
60
0
100
AcDbTrace
10
60.0113
20
-15.452503
30
0
11
56.511302
21
-15.913287
31
0
12
56.511298
22
-14.991719
32
0
13
56.511298
23
-14.991719
33
0
39
0
210
0
220
0
230
1
0
ENDBLK
5
175
100
AcDbEntity
8
0
100
AcDbBlockEnd
0
BLOCK
5
17A
100
AcDbEntity
8
0
100
AcDbBlockBegin
2
*D9
70
1
10
0
20
0
30
0
3
*D9
0
LINE
5
17C
100
AcDbEntity
8
0
62
256
6
ByLayer
370
-2
48
1
60
0
100
AcDbLine
10
-36
20
-4.5875
30
0
11
-36
21
-23.343428
31
0
39
0
210
0
220
0
230
1
0
LINE
5
17D
100
AcDbEntity
8
0
62
256
6
ByLayer
370
-2
48
1
60
0
100
AcDbLine
10
60.0113
20
-4.2375
30
0
11
60.0113
21
-23.343428
31
0
39
0
210
0
220
0
230
1
0
LINE
5
17E
100
AcDbEntity
8
0
62
256
6
ByLayer
370
-2
48
1
60
0
100
AcDbLine
10
-32.5
20
-21.343428
30
0
11
56.5113
21
-21.343428
31
0
39
0
210
0
220
0
230
1
0
SOLID
5
17F
100
AcDbEntity
8
0
62
256
6
ByLayer
370
-1
48
1
60
0
100
AcDbTrace
10
-32.5
20
-20.760095
30
0
11
-32.5
21
-21.926762
31
0
12
-36
22
-21.343428
32
0
13
-36
23
-21.343428
33
0
39
0
210
0
220
0
230
1
0
SOLID
5
180
100
AcDbEntity
8
0
62
256
6
ByLayer
370
-1
48
1
60
0
100
AcDbTrace
10
56.5113
20
-21.926762
30
0
11
56.5113
21
-20.760095
31
0
12
60.0113
22
-21.343428
32
0
13
60.0113
23
-21.343428
33
0
39
0
210
0
220
0
230
1
0
MTEXT
5
181
100
AcDbEntity
8
0
62
256
6
ByLayer
370
18
48
1
60
0
100
AcDbMText
10
12.00565
20
-14.343428
30
0
210
0
220
0
230
1
1
\A1;96.01
40
3.5
41
0
44
1
50
0
71
5
72
5
7
iso_b_vert
0
POINT
5
182
100
AcDbEntity
8
Defpoints
62
0
6
ByLayer
370
-1
48
1
60
0
100
AcDbPoint
10
-36
20
-3
30
0
39
0
210
0
220
0
230
1
50
360
0
POINT
5
183
100
AcDbEntity
8
Defpoints
62
0
6
ByLayer
370
-1
48
1
60
0
100
AcDbPoint
10
60.0113
20
-2.65
30
0
39
0
210
0
220
0
230
1
50
360
0
POINT
5
184
100
AcDbEntity
8
Defpoints
62
0
6
ByLayer
370
-1
48
1
60
0
100
AcDbPoint
10
60.0113
20
-21.343428
30
0
39
0
210
0
220
0
230
1
50
360
0
ENDBLK
5
17B
100
AcDbEntity
8
0
100
AcDbBlockEnd
0
BLOCK
5
18C
100
AcDbEntity
8
0
100
AcDbBlockBegin
2
_U4
70
0
10
0
20
0
30
0
3
_U4
0
MTEXT
5
186
100
AcDbEntity
8
SK2
62
256
6
ByLayer
370
13
48
1
60
0
100
AcDbMText
10
7.305785
20
-20.310795
30
0
210
0
220
0
230
1
1
\W0.7211;96,01
40
3.5
41
0
44
1.084337
50
0
71
7
72
5
7
iso_b_vert
0
LINE
5
187
100
AcDbEntity
8
SK2
62
256
6
ByLayer
370
13
48
1
60
0
100
AcDbLine
10
-36
20
-4.5875
30
0
11
-36
21
-23.343428
31
0
39
0
210
0
220
0
230
1
0
LINE
5
188
100
AcDbEntity
8
SK2
62
256
6
ByLayer
370
13
48
1
60
0
100
AcDbLine
10
60.0113
20
-4.2375
30
0
11
60.0113
21
-23.343428
31
0
39
0
210
0
220
0
230
1
0
LINE
5
189
100
AcDbEntity
8
SK2
62
256
6
ByLayer
370
13
48
1
60
0
100
AcDbLine
10
-36
20
-21.343428
30
0
11
60.0113
21
-21.343428
31
0
39
0
210
0
220
0
230
1
0
SOLID
5
18A
100
AcDbEntity
8
SK2
62
256
6
ByLayer
370
18
48
1
60
0
100
AcDbTrace
10
-36
20
-21.343428
30
0
11
-32.500002
21
-20.882645
31
0
12
-32.499998
22
-21.804212
32
0
13
-32.499998
23
-21.804212
33
0
39
0
210
0
220
0
230
1
0
SOLID
5
18B
100
AcDbEntity
8
SK2
62
256
6
ByLayer
370
18
48
1
60
0
100
AcDbTrace
10
60.0113
20
-21.343428
30
0
11
56.511302
21
-21.804212
31
0
12
56.511298
22
-20.882645
32
0
13
56.511298
23
-20.882645
33
0
39
0
210
0
220
0
230
1
0
ENDBLK
5
18D
100
AcDbEntity
8
0
100
AcDbBlockEnd
0
ENDSEC
0
SECTION
2
ENTITIES
0
ARC
5
A9
100
AcDbEntity
8
1
62
256
6
ByLayer
370
18
48
1
60
0
100
AcDbCircle
39
0
10
1.158576
20
-3.394066
30
0
40
0.85
210
0
220
0
230
1
100
AcDbArc
50
89.896868
51
132.962172
0
ARC
5
AA
100
AcDbEntity
8
1
62
256
6
ByLayer
370
18
48
1
60
0
100
AcDbCircle
39
0
10
1.158576
20
3.394066
30
0
40
0.85
210
0
220
0
230
1
100
AcDbArc
50
227.037828
51
270.103132
0
ARC
5
AB
100
AcDbEntity
8
1
62
256
6
ByLayer
370
18
48
1
60
0
100
AcDbCircle
39
0
10
0
20
-2.15
30
0
40
0.850000000000001
210
0
220
0
230
1
100
AcDbArc
50
270
51
312.962172
0
ARC
5
AC
100
AcDbEntity
8
1
62
256
6
ByLayer
370
18
48
1
60
0
100
AcDbCircle
39
0
10
0
20
2.15
30
0
40
0.850000000000001
210
0
220
0
230
1
100
AcDbArc
50
47.037828
51
90
0
ELLIPSE
5
AD
100
AcDbEntity
8
1
62
256
6
ByLayer
370
13
48
1
60
0
100
AcDbEllipse
10
6.686394
20
-1.109291
30
0
11
0.131875107854409
21
0.269460490477524
31
0
210
0
220
0
230
1
40
0.186721
41
1.20250753099895
42
1.91020168868952
0
ELLIPSE
5
AE
100
AcDbEntity
8
1
62
256
6
ByLayer
370
13
48
1
60
0
100
AcDbEllipse
10
9.642234
20
-63.289182
30
0
11
49.3843593895995
21
55.942630657543
31
0
210
0
220
0
230
1
40
0.720481
41
0.957349565264805
42
0.96402085237772
0
ELLIPSE
5
AF
100
AcDbEntity
8
1
62
256
6
ByLayer
370
13
48
1
60
0
100
AcDbEllipse
10
10.505434
20
64.051187
30
0
11
-49.3843593895994
21
55.942630657543
31
0
210
0
220
0
230
1
40
0.720481
41
2.21229259072514
42
2.25531432893372
0
ELLIPSE
5
B0
100
AcDbEntity
8
1
62
256
6
ByLayer
370
13
48
1
60
0
100
AcDbEllipse
10
105.194174
20
42.658776
30
0
11
-61.3999999999999
21
7.51908301246938E-15
31
0
210
0
220
0
230
1
40
0.99863
41
0.747132653343401
42
0.766833514740671
0
POINT
5
70
100
AcDbEntity
8
80
62
256
6
ByLayer
370
18
48
1
60
0
100
AcDbPoint
10
0
20
0
30
0
39
0
210
0
220
0
230
1
50
360
0
POINT
5
72
100
AcDbEntity
8
81
62
256
6
ByLayer
370
18
48
1
60
0
100
AcDbPoint
10
61
20
0
30
0
39
0
210
0
220
0
230
1
50
360
0
POINT
5
74
100
AcDbEntity
8
1
62
256
6
ByLayer
370
18
48
1
60
1
100
AcDbPoint
10
60.0113
20
-2.65
30
0
39
0
210
0
220
0
230
1
50
360
0
POINT
5
76
100
AcDbEntity
8
1
62
256
6
ByLayer
370
18
48
1
60
1
100
AcDbPoint
10
-36
20
-3
30
0
39
0
210
0
220
0
230
1
50
360
0
POINT
5
77
100
AcDbEntity
8
1
62
256
6
ByLayer
370
18
48
1
60
1
100
AcDbPoint
10
17.61
20
2.65
30
0
39
0
210
0
220
0
230
1
50
360
0
POINT
5
78
100
AcDbEntity
8
1
62
256
6
ByLayer
370
18
48
1
60
1
100
AcDbPoint
10
60.0113
20
-2.65
30
0
39
0
210
0
220
0
230
1
50
360
0
POINT
5
79
100
AcDbEntity
8
1
62
256
6
ByLayer
370
18
48
1
60
1
100
AcDbPoint
10
-36
20
-3
30
0
39
0
210
0
220
0
230
1
50
360
0
POINT
5
7A
100
AcDbEntity
8
1
62
256
6
ByLayer
370
18
48
1
60
1
100
AcDbPoint
10
60.0113
20
-2.65
30
0
39
0
210
0
220
0
230
1
50
360
0
SPLINE
5
B1
100
AcDbEntity
8
1
62
256
6
ByLayer
370
18
48
1
60
0
100
AcDbSpline
70
4
71
3
72
44
73
40
40
0
40
0
40
0
40
0
40
0.0912533682690486
40
0.0912533682690486
40
0.182506736538097
40
0.182506736538097
40
0.228133420672621
40
0.228133420672621
40
0.250946762739883
40
0.250946762739883
40
0.273760104807145
40
0.273760104807145
40
0.319386788941667
40
0.319386788941667
40
0.365013473076189
40
0.365013473076189
40
0.456266841345235
40
0.456266841345235
40
0.501893525479758
40
0.501893525479758
40
0.547520209614282
40
0.547520209614282
40
0.638773577883328
40
0.638773577883328
40
0.684400262017852
40
0.684400262017852
40
0.730026946152375
40
0.730026946152375
40
0.821280314421423
40
0.821280314421423
40
0.844093656488684
40
0.844093656488684
40
0.866906998555946
40
0.866906998555946
40
0.912533682690469
40
0.912533682690469
40
0.95816036682499
40
0.95816036682499
40
1
40
1
40
1
40
1
41
1
10
11.0283244975038
20
2.55106569613545
30
0
41
1
10
11.5440690778328
20
2.57527756989333
30
0
41
1
10
12.0545547630903
20
2.56152778016434
30
0
41
1
10
13.0726418526825
20
2.46211263384689
30
0
41
1
10
13.5803827409559
20
2.37639627763082
30
0
41
1
10
14.3464381652103
20
2.19787710048021
30
0
41
1
10
14.6024282153156
20
2.12994991404068
30
0
41
1
10
14.9882945977561
20
2.01609934267771
30
0
41
1
10
15.1173292268563
20
1.97611395706571
30
0
41
1
10
15.3744390048456
20
1.89305334742016
30
0
41
1
10
15.5026518608532
20
1.84980157062048
30
0
41
1
10
15.886528222593
20
1.71530337434794
30
0
41
1
10
16.14164565244
20
1.61966370809867
30
0
41
1
10
16.6506702502583
20
1.41720578582354
30
0
41
1
10
16.9047081146388
20
1.31058201441326
30
0
41
1
10
17.6674938495068
20
0.978324256125717
30
0
41
1
10
18.1760913481131
20
0.738768247811493
30
0
41
1
10
18.9460227457666
20
0.365139551552403
30
0
41
1
10
19.2041074236577
20
0.237985936299964
30
0
41
1
10
19.7180983046803
20
-0.0163629664093321
30
0
41
1
10
19.9747861179301
20
-0.14362625088927
30
0
41
1
10
20.745265191991
20
-0.522971058299532
30
0
41
1
10
21.2609282167569
20
-0.773005222769598
30
0
41
1
10
22.0310580070738
20
-1.12525920018595
30
0
41
1
10
22.2876860791378
20
-1.23886239279651
30
0
41
1
10
22.8015776584153
20
-1.45695710481891
30
0
41
1
10
23.0594057438707
20
-1.56125876124673
30
0
41
1
10
23.8303790316606
20
-1.85549017831599
30
0
41
1
10
24.3425932019439
20
-2.02680537043423
30
0
41
1
10
24.9862500611949
20
-2.20219551256997
30
0
41
1
10
25.1147127557292
20
-2.23539532790193
30
0
41
1
10
25.3710657910775
20
-2.29725862728557
30
0
41
1
10
25.4990262164441
20
-2.32599998648899
30
0
41
1
10
25.8819541729006
20
-2.40601101833701
30
0
41
1
10
26.1364570902178
20
-2.45061902162411
30
0
41
1
10
26.644574703439
20
-2.52213190483647
30
0
41
1
10
26.8984580720565
20
-2.54889852281292
30
0
41
1
10
27.3851275669914
20
-2.58284377578818
30
0
41
1
10
27.6180390658434
20
-2.59138325547667
30
0
41
1
10
27.851616272561
20
-2.59210368586048
30
0
0
SPLINE
5
B2
100
AcDbEntity
8
1
62
256
6
ByLayer
370
18
48
1
60
0
100
AcDbSpline
70
4
71
3
72
56
73
52
40
0
40
0
40
0
40
0
40
0.0215644065208029
40
0.0215644065208029
40
0.0591965447315422
40
0.0591965447315422
40
0.0968286829422816
40
0.0968286829422816
40
0.134460821153021
40
0.134460821153021
40
0.172092959363761
40
0.172092959363761
40
0.247357235785239
40
0.247357235785239
40
0.284989373995979
40
0.284989373995979
40
0.322621512206718
40
0.322621512206718
40
0.360253650417458
40
0.360253650417458
40
0.397885788628197
40
0.397885788628197
40
0.435517926838936
40
0.435517926838936
40
0.473150065049676
40
0.473150065049676
40
0.510782203260415
40
0.510782203260415
40
0.548414341471155
40
0.548414341471155
40
0.586046479681894
40
0.586046479681894
40
0.623678617892634
40
0.623678617892634
40
0.698942894314111
40
0.698942894314111
40
0.71775896341948
40
0.71775896341948
40
0.736575032524848
40
0.736575032524848
40
0.774207170735585
40
0.774207170735585
40
0.811839308946321
40
0.811839308946321
40
0.849471447157057
40
0.849471447157057
40
0.887103585367793
40
0.887103585367793
40
0.92473572357853
40
0.92473572357853
40
1
40
1
40
1
40
1
41
1
10
39.7349857954815
20
1.70070807541342
30
0
41
1
10
39.8807696051156
20
1.75643360017045
30
0
41
1
10
40.0267858943356
20
1.81027181633658
30
0
41
1
10
40.4285405312116
20
1.95237639432156
30
0
41
1
10
40.6856869691302
20
2.03659187975322
30
0
41
1
10
41.1985026261029
20
2.18943999165984
30
0
41
1
10
41.4545467640846
20
2.25786006593049
30
0
41
1
10
41.9665630508559
20
2.37813746313424
30
0
41
1
10
42.2225660706376
20
2.42993058159809
30
0
41
1
10
42.7360347250984
20
2.51557517301424
30
0
41
1
10
42.9924161737287
20
2.54944695625795
30
0
41
1
10
43.7573816100845
20
2.62254900241857
30
0
41
1
10
44.2633734523645
20
2.6339743025062
30
0
41
1
10
45.0230911986309
20
2.59530451040294
30
0
41
1
10
45.2766162699266
20
2.5732006547845
30
0
41
1
10
45.7846458955585
20
2.51051033361691
30
0
41
1
10
46.0392800632116
20
2.46993675474707
30
0
41
1
10
46.5512603322121
20
2.37096808819069
30
0
41
1
10
46.8082716934047
20
2.3122968746766
30
0
41
1
10
47.3203710834452
20
2.17917821664781
30
0
41
1
10
47.5760594653746
20
2.10451471697419
30
0
41
1
10
48.0878476591399
20
1.94026808266131
30
0
41
1
10
48.3442448035474
20
1.85052274637528
30
0
41
1
10
48.8571066531248
20
1.65803193114036
30
0
41
1
10
49.1129852293634
20
1.55571402252707
30
0
41
1
10
49.6246051317036
20
1.34057754009893
30
0
41
1
10
49.8802538490426
20
1.22759020281805
30
0
41
1
10
50.3927482293899
20
0.99336848609326
30
0
41
1
10
50.6494642675012
20
0.871725480955377
30
0
41
1
10
51.1612850477881
20
0.62372934320436
30
0
41
1
10
51.4168802369218
20
0.497212978386557
30
0
41
1
10
51.9283090564795
20
0.240824715940761
30
0
41
1
10
52.1846471051057
20
0.1111792230692
30
0
41
1
10
52.9536680178417
20
-0.278291430882064
30
0
41
1
10
53.463832858407
20
-0.536507365026267
30
0
41
1
10
54.1040759384176
20
-0.846372033661339
30
0
41
1
10
54.232287577976
20
-0.908038611524461
30
0
41
1
10
54.4883742837432
20
-1.02899813437895
30
0
41
1
10
54.6161630039446
20
-1.08830008858345
30
0
41
1
10
54.9984423716944
20
-1.26335788308316
30
0
41
1
10
55.2523314435302
20
-1.37533640134569
30
0
41
1
10
55.7588981983331
20
-1.58877933400777
30
0
41
1
10
56.0118627819639
20
-1.68977327014778
30
0
41
1
10
56.5174710233984
20
-1.87985509374246
30
0
41
1
10
56.770265685113
20
-1.96868094408944
30
0
41
1
10
57.2773051412156
20
-2.1318207975489
30
0
41
1
10
57.5312502215396
20
-2.20651624781388
30
0
41
1
10
58.0416274947307
20
-2.33992018286568
30
0
41
1
10
58.298397926915
20
-2.3988762511288
30
0
41
1
10
59.0651200831963
20
-2.54832183303532
30
0
41
1
10
59.5739552631815
20
-2.61217453359666
30
0
41
1
10
60.0850887943157
20
-2.63797473146869
30
0
0
SPLINE
5
B3
100
AcDbEntity
8
1
62
256
6
ByLayer
370
13
48
1
60
0
100
AcDbSpline
70
4
71
3
72
44
73
40
40
0
40
0
40
0
40
0
40
0.0262797186259139
40
0.0262797186259139
40
0.0547827432580718
40
0.0547827432580718
40
0.0832857678902294
40
0.0832857678902294
40
0.140291817154547
40
0.140291817154547
40
0.254303915683183
40
0.254303915683183
40
0.282806940315342
40
0.282806940315342
40
0.311309964947501
40
0.311309964947501
40
0.368316014211819
40
0.368316014211819
40
0.482328112740453
40
0.482328112740453
40
0.539334162004769
40
0.539334162004769
40
0.567837186636927
40
0.567837186636927
40
0.596340211269084
40
0.596340211269084
40
0.710352309797713
40
0.710352309797713
40
0.767358359062029
40
0.767358359062029
40
0.824364408326344
40
0.824364408326344
40
0.88137045759066
40
0.88137045759066
40
0.938376506854975
40
0.938376506854975
40
0.995382556119291
40
0.995382556119291
40
1
40
1
40
1
40
1
41
1
10
45.4073572981979
20
-2.54575223374445
30
0
41
1
10
45.2796100653451
20
-2.54549476959801
30
0
41
1
10
45.1516637863035
20
-2.54294498324307
30
0
41
1
10
44.8843969571749
20
-2.53281486128967
30
0
41
1
10
44.7447949698892
20
-2.52476398673619
30
0
41
1
10
44.4660735994114
20
-2.50313101915037
30
0
41
1
10
44.3269995806862
20
-2.48958759114095
30
0
41
1
10
43.9105785474253
20
-2.44133328886332
30
0
41
1
10
43.6340380415742
20
-2.398936508307
30
0
41
1
10
42.8055775857029
20
-2.24222276037943
30
0
41
1
10
42.2547947604153
20
-2.09786671794359
30
0
41
1
10
41.5615046523984
20
-1.87560546746397
30
0
41
1
10
41.4226295525609
20
-1.82906817454281
30
0
41
1
10
41.1442310090315
20
-1.73199588210315
30
0
41
1
10
41.0044601274304
20
-1.68136497892519
30
0
41
1
10
40.5863411738383
20
-1.52457301302303
30
0
41
1
10
40.3090160810539
20
-1.4133620586241
30
0
41
1
10
39.4787629114035
20
-1.06499160201918
30
0
41
1
10
38.927994209896
20
-0.812219838455746
30
0
41
1
10
38.0979904737879
20
-0.417439408005407
30
0
41
1
10
37.8207710386421
20
-0.283185126684089
30
0
41
1
10
37.4028538560585
20
-0.0801284718348825
30
0
41
1
10
37.2629872561556
20
-0.0120288011942193
30
0
41
1
10
36.9842166755203
20
0.123554811927676
30
0
41
1
10
36.8451523867808
20
0.191059796838601
30
0
41
1
10
36.1509719627758
20
0.526417395813013
30
0
41
1
10
35.5996886371785
20
0.788563999241745
30
0
41
1
10
34.7705446326426
20
1.1553161600124
30
0
41
1
10
34.4938438608207
20
1.27329293539188
30
0
41
1
10
33.9383457183214
20
1.49794546959438
30
0
41
1
10
33.6591664049155
20
1.60516259493468
30
0
41
1
10
33.1002169671592
20
1.80456394623448
30
0
41
1
10
32.8206604398814
20
1.8966518890627
30
0
41
1
10
32.2630005510025
20
2.06314667618847
30
0
41
1
10
31.9845681425892
20
2.13766770242236
30
0
41
1
10
31.4270421839808
20
2.26801742565743
30
0
41
1
10
31.1473038833497
20
2.32403192587486
30
0
41
1
10
30.8457660443885
20
2.37317235030636
30
0
41
1
10
30.8231800788025
20
2.37678285551078
30
0
41
1
10
30.8006020201565
20
2.38032210817173
30
0
0
SPLINE
5
B4
100
AcDbEntity
8
1
62
256
6
ByLayer
370
13
48
1
60
0
100
AcDbSpline
70
4
71
3
72
20
73
16
40
0
40
0
40
0
40
0
40
0.169547395922329
40
0.169547395922329
40
0.307956163268608
40
0.307956163268608
40
0.377160546941749
40
0.377160546941749
40
0.44636493061489
40
0.44636493061489
40
0.723182465307444
40
0.723182465307444
40
0.861591232653722
40
0.861591232653722
40
1
40
1
40
1
40
1
41
1
10
12.7152205663443
20
-2.48638110277091
30
0
41
1
10
12.3758550818416
20
-2.48564757897361
30
0
41
1
10
12.0367776855041
20
-2.46909740469931
30
0
41
1
10
11.4192737156234
20
-2.41023505183193
30
0
41
1
10
11.1411553390543
20
-2.37333797022654
30
0
41
1
10
10.7221272755282
20
-2.30276332506327
30
0
41
1
10
10.5818929089625
20
-2.27663626332981
30
0
41
1
10
10.3020397513492
20
-2.21960602835813
30
0
41
1
10
10.1624555306857
20
-2.18871385333785
30
0
41
1
10
9.46579067165374
20
-2.0229078990688
30
0
41
1
10
8.91262433000088
20
-1.85444275362738
30
0
41
1
10
8.08104399043901
20
-1.55876592400932
30
0
41
1
10
7.80360327973699
20
-1.45304505778526
30
0
41
1
10
7.24697047714497
20
-1.22960791262815
30
0
41
1
10
6.96725106677735
20
-1.11172391588158
30
0
41
1
10
6.68693168030552
20
-0.989306869414889
30
0
0
SPLINE
5
B5
100
AcDbEntity
8
1
62
256
6
ByLayer
370
18
48
1
60
0
100
AcDbSpline
70
4
71
3
72
24
73
20
40
0
40
0
40
0
40
0
40
0.125
40
0.125
40
0.187499999999999
40
0.187499999999999
40
0.249999999999999
40
0.249999999999999
40
0.374999999999999
40
0.374999999999999
40
0.437499999999999
40
0.437499999999999
40
0.499999999999999
40
0.499999999999999
40
0.75
40
0.75
40
0.875
40
0.875
40
1
40
1
40
1
40
1
41
1
10
6.30187902825648
20
1.97334802749145
30
0
41
1
10
6.30173412275141
20
1.88926356375251
30
0
41
1
10
6.30159984143728
20
1.79789341309379
30
0
41
1
10
6.30142069991166
20
1.65001189099729
30
0
41
1
10
6.30136465756621
20
1.59890562442879
30
0
41
1
10
6.30126049680774
20
1.49298545211826
30
0
41
1
10
6.3012123229318
20
1.43803720363894
30
0
41
1
10
6.30108215676739
20
1.27043615204059
30
0
41
1
10
6.30101371260747
20
1.15419902570807
30
0
41
1
10
6.30093342715199
20
0.973232693989388
30
0
41
1
10
6.30091036117187
20
0.911803784320625
30
0
41
1
10
6.30087031136975
20
0.786695703177685
30
0
41
1
10
6.30085327306449
20
0.722750102494331
30
0
41
1
10
6.30077983412616
20
0.400605733462214
30
0
41
1
10
6.30076114166658
20
0.138325537561457
30
0
41
1
10
6.30066756311723
20
-0.261978418461325
30
0
41
1
10
6.30062534051501
20
-0.393551136464311
30
0
41
1
10
6.30049667617669
20
-0.651211465201612
30
0
41
1
10
6.30041024605976
20
-0.77762701141566
30
0
41
1
10
6.30028952645509
20
-0.901579577606554
30
0
0
SPLINE
5
B6
100
AcDbEntity
8
1
62
256
6
ByLayer
370
18
48
1
60
0
100
AcDbSpline
70
4
71
3
72
12
73
8
40
0
40
0
40
0
40
0
40
0.0057795477440038
40
0.0057795477440038
40
0.502889773872002
40
0.502889773872002
40
1
40
1
40
1
40
1
41
1
10
10.0709910644963
20
0.411025030613359
30
0
41
1
10
10.0719387272095
20
0.411853843133514
30
0
41
1
10
10.0728864074013
20
0.412686545935117
30
0
41
1
10
10.1553464473792
20
0.485479623444746
30
0
41
1
10
10.236813775165
20
0.586092429827147
30
0
41
1
10
10.3851599450948
20
0.826724991808476
30
0
41
1
10
10.4519568435628
20
0.966611826438424
30
0
41
1
10
10.5054337591818
20
1.1136216478827
30
0
0
SPLINE
5
B7
100
AcDbEntity
8
1
62
256
6
ByLayer
370
18
48
1
60
0
100
AcDbSpline
70
4
71
3
72
8
73
4
40
0
40
0
40
0
40
0
40
1
40
1
40
1
40
1
41
1
10
59.7235276295317
20
0.117366589391509
30
0
41
1
10
59.8289388790698
20
0.0898823611244381
30
0
41
1
10
59.934850389703
20
0.0654965031139909
30
0
41
1
10
60.0412890862208
20
0.0443757742141031
30
0
0
SPLINE
5
B8
100
AcDbEntity
8
1
62
256
6
ByLayer
370
13
48
1
60
0
100
AcDbSpline
70
4
71
3
72
10
73
6
40
0
40
0
40
0
40
0
40
0.5
40
0.5
40
1
40
1
40
1
40
1
41
1
10
6.68693168030549
20
-0.989306869414861
30
0
41
1
10
6.62055385218281
20
-0.969009686349153
30
0
41
1
10
6.55504636060678
20
-0.951843767064844
30
0
41
1
10
6.42602404762539
20
-0.922806839012196
30
0
41
1
10
6.36220789095421
20
-0.910893698641559
30
0
41
1
10
6.30028952645512
20
-0.901579577606554
30
0
0
SPLINE
5
B9
100
AcDbEntity
8
1
62
256
6
ByLayer
370
18
48
1
60
0
100
AcDbSpline
70
4
71
3
72
16
73
12
40
0
40
0
40
0
40
0
40
0.250000000000001
40
0.250000000000001
40
0.500000000000002
40
0.500000000000002
40
0.625000000000002
40
0.625000000000002
40
0.750000000000002
40
0.750000000000002
40
1
40
1
40
1
40
1
41
1
10
59.7235276295317
20
0.117366589391565
30
0
41
1
10
59.6993412416003
20
-0.0202657191539686
30
0
41
1
10
59.6805888786877
20
-0.159122411776508
30
0
41
1
10
59.6548001157577
20
-0.434943625496601
30
0
41
1
10
59.6478559019382
20
-0.570286770387412
30
0
41
1
10
59.6462208900838
20
-0.76951240514299
30
0
41
1
10
59.6471465420937
20
-0.835286370756222
30
0
41
1
10
59.652002261103
20
-0.965537914773989
30
0
41
1
10
59.6559592674189
20
-1.03018125011869
30
0
41
1
10
59.6721649336063
20
-1.21877662145212
30
0
41
1
10
59.6887255922218
20
-1.33848536114931
30
0
41
1
10
59.7109213135813
20
-1.45230001103181
30
0
0
SPLINE
5
BA
100
AcDbEntity
8
1
62
256
6
ByLayer
370
18
48
1
60
0
100
AcDbSpline
70
4
71
3
72
20
73
16
40
0
40
0
40
0
40
0
40
0.396049970468663
40
0.396049970468663
40
0.594074955702994
40
0.594074955702994
40
0.693087448320163
40
0.693087448320163
40
0.792099940937331
40
0.792099940937331
40
0.8911124335545
40
0.8911124335545
40
0.990124926171669
40
0.990124926171669
40
1
40
1
40
1
40
1
41
1
10
6.30187902825625
20
1.97334802749125
30
0
41
1
10
6.00706284503616
20
2.08365063133584
30
0
41
1
10
5.72069782239279
20
2.18790682303626
30
0
41
1
10
5.31176444428013
20
2.32752012439232
30
0
41
1
10
5.17835684705241
20
2.37137428873248
30
0
41
1
10
4.9903031711066
20
2.42917755190575
30
0
41
1
10
4.92951295781936
20
2.44715156936198
30
0
41
1
10
4.81256875414701
20
2.47986433043346
30
0
41
1
10
4.75630671678385
20
2.4946199949699
30
0
41
1
10
4.65172021110158
20
2.51947904463441
30
0
41
1
10
4.60312769450255
20
2.52966625919467
30
0
41
1
10
4.51509152931726
20
2.54441019958009
30
0
41
1
10
4.47540678523237
20
2.54898557727787
30
0
41
1
10
4.4388858994885
20
2.54990083512538
30
0
41
1
10
4.43564348599907
20
2.54994674118061
30
0
41
1
10
4.43247181132935
20
2.54995494471336
30
0
0
SPLINE
5
BB
100
AcDbEntity
8
1
62
256
6
ByLayer
370
18
48
1
60
0
100
AcDbSpline
70
4
71
3
72
8
73
4
40
0
40
0
40
0
40
0
40
1
40
1
40
1
40
1
41
1
10
60.1486561522611
20
0.992326029346629
30
0
41
1
10
60.169388527722
20
1.03182284285054
30
0
41
1
10
60.1778012884728
20
1.07671413678855
30
0
41
1
10
60.1733579210042
20
1.1212255394087
30
0
0
SPLINE
5
BC
100
AcDbEntity
8
1
62
256
6
ByLayer
370
13
48
1
60
0
100
AcDbSpline
70
4
71
3
72
32
73
28
40
0
40
0
40
0
40
0
40
0.128501828178717
40
0.128501828178717
40
0.160627285223398
40
0.160627285223398
40
0.19275274226808
40
0.19275274226808
40
0.257003656357442
40
0.257003656357442
40
0.38550548453617
40
0.38550548453617
40
0.449756398625534
40
0.449756398625534
40
0.514007312714897
40
0.514007312714897
40
0.578258226804261
40
0.578258226804261
40
0.642509140893625
40
0.642509140893625
40
0.771010969072352
40
0.771010969072352
40
0.835261883161717
40
0.835261883161717
40
0.899512797251083
40
0.899512797251083
40
1
40
1
40
1
40
1
41
1
10
59.9811128058241
20
-2.4235791728118
30
0
41
1
10
59.4245432821671
20
-2.33042910883177
30
0
41
1
10
58.8711639184762
20
-2.19677396565504
30
0
41
1
10
58.1775055480936
20
-1.9854209663238
30
0
41
1
10
58.0386678473356
20
-1.94093747249758
30
0
41
1
10
57.7605254119196
20
-1.84782221447935
30
0
41
1
10
57.6210442166376
20
-1.79912163412513
30
0
41
1
10
57.2040181190189
20
-1.64802742723697
30
0
41
1
10
56.927358537945
20
-1.54039999477101
30
0
41
1
10
56.0995500020799
20
-1.20023355617133
30
0
41
1
10
55.5503190016801
20
-0.950711333823989
30
0
41
1
10
54.7224818789397
20
-0.557594469034996
30
0
41
1
10
54.4458795056875
20
-0.423377736821266
30
0
41
1
10
53.8899888395235
20
-0.151275887161944
30
0
41
1
10
53.6108810995694
20
-0.013495040786637
30
0
41
1
10
53.054667549791
20
0.259758697508374
30
0
41
1
10
52.7768175947396
20
0.395648795017735
30
0
41
1
10
52.2203255403873
20
0.663263566924826
30
0
41
1
10
51.9410433835283
20
0.79513400154471
30
0
41
1
10
51.1081596762714
20
1.17633294268146
30
0
41
1
10
50.5574121721593
20
1.41238562490602
30
0
41
1
10
49.7301372791937
20
1.72530907838569
30
0
41
1
10
49.454179253414
20
1.82276137368328
30
0
41
1
10
48.9004865291531
20
2.00194661926014
30
0
41
1
10
48.6223596837488
20
2.08382917019276
30
0
41
1
10
47.907511913759
20
2.27013239868063
30
0
41
1
10
47.474995123561
20
2.3597743290226
30
0
41
1
10
47.0433704837848
20
2.42427510578
30
0
0
SPLINE
5
BD
100
AcDbEntity
8
1
62
256
6
ByLayer
370
13
48
1
60
0
100
AcDbSpline
70
4
71
3
72
40
73
36
40
0
40
0
40
0
40
0
40
0.0460898809822393
40
0.0460898809822393
40
0.10250100622921
40
0.10250100622921
40
0.130706568852695
40
0.130706568852695
40
0.158912131476181
40
0.158912131476181
40
0.271734381970123
40
0.271734381970123
40
0.328145507217093
40
0.328145507217093
40
0.356351069840578
40
0.356351069840578
40
0.384556632464063
40
0.384556632464063
40
0.497378882958006
40
0.497378882958006
40
0.610201133451949
40
0.610201133451949
40
0.638406696075435
40
0.638406696075435
40
0.66661225869892
40
0.66661225869892
40
0.723023383945893
40
0.723023383945893
40
0.835845634439838
40
0.835845634439838
40
0.892256759686812
40
0.892256759686812
40
0.948667884933785
40
0.948667884933785
40
1
40
1
40
1
40
1
41
1
10
29.0530473451711
20
-2.51549659729457
30
0
41
1
10
28.8271784220405
20
-2.51484158285569
30
0
41
1
10
28.6012157543684
20
-2.50705998656949
30
0
41
1
10
28.0976606286686
20
-2.47373429918986
30
0
41
1
10
27.819781654994
20
-2.4447311205688
30
0
41
1
10
27.4010085796928
20
-2.38559313589494
30
0
41
1
10
27.2609891684416
20
-2.36324200119296
30
0
41
1
10
26.9820510139771
20
-2.31369152989524
30
0
41
1
10
26.8428997991159
20
-2.28646634731285
30
0
41
1
10
26.1484127812463
20
-2.13829710282388
30
0
41
1
10
25.5963234624117
20
-1.98217028729053
30
0
41
1
10
24.7662771334017
20
-1.70132808438316
30
0
41
1
10
24.4891323917138
20
-1.60000055100332
30
0
41
1
10
24.0718935058659
20
-1.438120753231
30
0
41
1
10
23.93256250361
20
-1.38248803449613
30
0
41
1
10
23.653223947795
20
-1.26810893333055
30
0
41
1
10
23.5131670965006
20
-1.20933288475621
30
0
41
1
10
22.8158019509117
20
-0.910214675650337
30
0
41
1
10
22.2626802953932
20
-0.653956961433948
30
0
41
1
10
21.1563212327985
20
-0.127878798153091
30
0
41
1
10
20.6028385103292
20
0.141567095380111
30
0
41
1
10
19.9041018171796
20
0.472432232933528
30
0
41
1
10
19.7639979022186
20
0.538340953731876
30
0
41
1
10
19.4849107916351
20
0.66831768543139
30
0
41
1
10
19.3456847818232
20
0.73250277133647
30
0
41
1
10
18.9287089719388
20
0.922136643160741
30
0
41
1
10
18.6516290043761
20
1.04457882591271
30
0
41
1
10
17.8212044101466
20
1.3966815929071
30
0
41
1
10
17.2684308242207
20
1.6108016537772
30
0
41
1
10
16.433341603951
20
1.88766145985892
30
0
41
1
10
16.1530371275001
20
1.97238842624151
30
0
41
1
10
15.5936563527243
20
2.12427426872637
30
0
41
1
10
15.3144872074261
20
2.19122502070752
30
0
41
1
10
14.7809421987138
20
2.3001617564928
30
0
41
1
10
14.5261841866023
20
2.34394061656482
30
0
41
1
10
14.2715358267889
20
2.37928244201609
30
0
0
SPLINE
5
BE
100
AcDbEntity
8
1
62
256
6
ByLayer
370
18
48
1
60
0
100
AcDbSpline
70
4
71
3
72
10
73
6
40
0
40
0
40
0
40
0
40
0.5
40
0.5
40
1
40
1
40
1
40
1
41
1
10
6.30187902825637
20
1.97334802749123
30
0
41
1
10
6.36593439349349
20
1.94257774564068
30
0
41
1
10
6.43124103312618
20
1.91321598791751
30
0
41
1
10
6.56064954866463
20
1.85823203323997
30
0
41
1
10
6.6241551272058
20
1.83282900643394
30
0
41
1
10
6.68673494920426
20
1.80907264801311
30
0
0
SPLINE
5
BF
100
AcDbEntity
8
1
62
256
6
ByLayer
370
18
48
1
60
0
100
AcDbSpline
70
4
71
3
72
42
73
38
40
0
40
0
40
0
40
0
40
0.0577024710807989
40
0.0577024710807989
40
0.152672992534448
40
0.152672992534448
40
0.200158253261272
40
0.200158253261272
40
0.247643513988096
40
0.247643513988096
40
0.29512877471492
40
0.29512877471492
40
0.342614035441744
40
0.342614035441744
40
0.390099296168567
40
0.390099296168567
40
0.437584556895391
40
0.437584556895391
40
0.485069817622215
40
0.485069817622215
40
0.532555078349039
40
0.532555078349039
40
0.580040339075863
40
0.580040339075863
40
0.627525599802687
40
0.627525599802687
40
0.722496121256334
40
0.722496121256334
40
0.817466642709981
40
0.817466642709981
40
0.864951903436804
40
0.864951903436804
40
0.912437164163628
40
0.912437164163628
40
0.959922424890451
40
0.959922424890451
40
1
40
1
40
1
40
1
41
1
10
12.2788821602233
20
2.56404422464007
30
0
41
1
10
12.6177625803599
20
2.56461254223069
30
0
41
1
10
12.9566021913842
20
2.54889305279505
30
0
41
1
10
13.8555994595379
20
2.46424544295573
30
0
41
1
10
14.4116803019707
20
2.36811761001161
30
0
41
1
10
15.2496599746909
20
2.1649335189833
30
0
41
1
10
15.5292942906948
20
2.08732276886741
30
0
41
1
10
16.0868793365852
20
1.91518752706588
30
0
41
1
10
16.3654352123666
20
1.82066171911978
30
0
41
1
10
16.9231736692566
20
1.616208259687
30
0
41
1
10
17.2029093559777
20
1.50605874380093
30
0
41
1
10
17.761005681054
20
1.27437259204228
30
0
41
1
10
18.0395379300136
20
1.15278122251416
30
0
41
1
10
18.5967399886238
20
0.900215384426502
30
0
41
1
10
18.8756528520674
20
0.769281544752545
30
0
41
1
10
19.4344902273882
20
0.501340405248357
30
0
41
1
10
19.7131012939392
20
0.364916817752715
30
0
41
1
10
20.2701806806288
20
0.0901382140146438
30
0
41
1
10
20.5486640764369
20
-0.0481851695515729
30
0
41
1
10
21.1067063677143
20
-0.324297279424144
30
0
41
1
10
21.3861318158464
20
-0.461859364434275
30
0
41
1
10
21.9433140875892
20
-0.731012969922432
30
0
41
1
10
22.2216057202015
20
-0.862880193498796
30
0
41
1
10
22.7789354188993
20
-1.11859521056539
30
0
41
1
10
23.0584716148748
20
-1.24273641793425
30
0
41
1
10
23.8948385000761
20
-1.5968282176826
30
0
41
1
10
24.4505975730549
20
-1.80861875093504
30
0
41
1
10
25.5674242591221
20
-2.16568073294226
30
0
41
1
10
26.1226956261824
20
-2.30891650112454
30
0
41
1
10
26.9591428342799
20
-2.46235061617603
30
0
41
1
10
27.2383702562908
20
-2.5031548924691
30
0
41
1
10
27.7951658032956
20
-2.56272910878033
30
0
41
1
10
28.0732557974454
20
-2.58162096936323
30
0
41
1
10
28.6301808459391
20
-2.59721739255133
30
0
41
1
10
28.9095503474921
20
-2.59387505533337
30
0
41
1
10
29.423255913039
20
-2.56717256028264
30
0
41
1
10
29.6579820251596
20
-2.54705756053053
30
0
41
1
10
29.892759348625
20
-2.51925126607705
30
0
0
SPLINE
5
C0
100
AcDbEntity
8
1
62
256
6
ByLayer
370
18
48
1
60
0
100
AcDbSpline
70
4
71
3
72
44
73
40
40
0
40
0
40
0
40
0
40
0.004314191038835
40
0.004314191038835
40
0.0596300693144546
40
0.0596300693144546
40
0.114945947590074
40
0.114945947590074
40
0.170261825865694
40
0.170261825865694
40
0.225577704141314
40
0.225577704141314
40
0.336209460692553
40
0.336209460692553
40
0.391525338968174
40
0.391525338968174
40
0.446841217243794
40
0.446841217243794
40
0.502157095519415
40
0.502157095519415
40
0.557472973795035
40
0.557472973795035
40
0.612788852070656
40
0.612788852070656
40
0.668104730346276
40
0.668104730346276
40
0.723420608621897
40
0.723420608621897
40
0.778736486897517
40
0.778736486897517
40
0.834052365173138
40
0.834052365173138
40
0.889368243448758
40
0.889368243448758
40
0.944684121724379
40
0.944684121724379
40
0.97234206086219
40
0.97234206086219
40
1
40
1
40
1
40
1
41
1
10
44.9803859865532
20
2.62294283775393
30
0
41
1
10
45.002048331971
20
2.62297441734697
30
0
41
1
10
45.0237068327849
20
2.62293762451208
30
0
41
1
10
45.3230096247682
20
2.62148320570216
30
0
41
1
10
45.600320713169
20
2.60891272433437
30
0
41
1
10
46.155984640769
20
2.56154818836052
30
0
41
1
10
46.4348114069562
20
2.52671609288001
30
0
41
1
10
46.9904512446988
20
2.43586831479175
30
0
41
1
10
47.267713341296
20
2.37982408911799
30
0
41
1
10
47.8229063109506
20
2.24796956738499
30
0
41
1
10
48.1012276344526
20
2.17197819604104
30
0
41
1
10
48.9355806468876
20
1.91685798471099
30
0
41
1
10
49.4889058167342
20
1.71154558755782
30
0
41
1
10
50.3233553021184
20
1.36329549607652
30
0
41
1
10
50.6012889303586
20
1.24090187672957
30
0
41
1
10
51.1560658983933
20
0.986878919610746
30
0
41
1
10
51.4332317399487
20
0.855118119004146
30
0
41
1
10
51.9886044227463
20
0.584824539007116
30
0
41
1
10
52.2670978525587
20
0.446205719875167
30
0
41
1
10
52.8220908380159
20
0.166927895883902
30
0
41
1
10
53.0991502571476
20
0.0261079862187898
30
0
41
1
10
53.6538862449657
20
-0.254936700601689
30
0
41
1
10
53.9321066440632
20
-0.39541613616953
30
0
41
1
10
54.4876511464303
20
-0.671608214639861
30
0
41
1
10
54.7647916926666
20
-0.807135582840999
30
0
41
1
10
55.3191938751759
20
-1.07045312849755
30
0
41
1
10
55.5964568049147
20
-1.19824083862042
30
0
41
1
10
56.1525032769547
20
-1.44346349764999
30
0
41
1
10
56.4298760683193
20
-1.56014021510236
30
0
41
1
10
56.9841712612177
20
-1.77913677839524
30
0
41
1
10
57.2612341667429
20
-1.88144291637599
30
0
41
1
10
57.8164655558713
20
-2.06977828175886
30
0
41
1
10
58.0945238305903
20
-2.15587311310406
30
0
41
1
10
58.6481779995217
20
-2.30814459301061
30
0
41
1
10
58.924423416282
20
-2.37458968796616
30
0
41
1
10
59.338830187932
20
-2.45896789250793
30
0
41
1
10
59.4769694006732
20
-2.48454658570884
30
0
41
1
10
59.7534180148148
20
-2.53046228184007
30
0
41
1
10
59.8915221740789
20
-2.55090029107817
30
0
41
1
10
60.0302339948661
20
-2.56842499315269
30
0
0
SPLINE
5
C1
100
AcDbEntity
8
1
62
256
6
ByLayer
370
18
48
1
60
0
100
AcDbSpline
70
4
71
3
72
14
73
10
40
0
40
0
40
0
40
0
40
0.25
40
0.25
40
0.5
40
0.5
40
0.75
40
0.75
40
1
40
1
40
1
40
1
41
1
10
59.9811128058242
20
-2.4235791728118
30
0
41
1
10
59.9392707274926
20
-2.37942781014937
30
0
41
1
10
59.9018330334852
20
-2.3258964028438
30
0
41
1
10
59.8359518758576
20
-2.19967851992891
30
0
41
1
10
59.8073964160716
20
-2.12662053202826
30
0
41
1
10
59.7606199863593
20
-1.9611181211092
30
0
41
1
10
59.742832215165
20
-1.87044495644844
30
0
41
1
10
59.7183602434688
20
-1.67339236538856
30
0
41
1
10
59.7116712430529
20
-1.56665356736423
30
0
41
1
10
59.7109213135858
20
-1.45230001103187
30
0
0
SPLINE
5
C2
100
AcDbEntity
8
1
62
256
6
ByLayer
370
18
48
1
60
0
100
AcDbSpline
70
4
71
3
72
8
73
4
40
0
40
0
40
0
40
0
40
1
40
1
40
1
40
1
41
1
10
60.0850887943157
20
-2.63797473146869
30
0
41
1
10
60.0647999004771
20
-2.62527743868938
30
0
41
1
10
60.0475445955287
20
-2.60278148933366
30
0
41
1
10
60.0328408107763
20
-2.57022085643092
30
0
0
SPLINE
5
C3
100
AcDbEntity
8
1
62
256
6
ByLayer
370
18
48
1
60
0
100
AcDbSpline
70
4
71
1
72
4
73
2
40
0
40
0
40
1
40
1
41
1
10
60.0328408107767
20
-2.57022085643234
30
0
41
1
10
60.5609049383032
20
-0.78750623840088
30
0
0
SPLINE
5
C4
100
AcDbEntity
8
1
62
256
6
ByLayer
370
18
48
1
60
0
100
AcDbSpline
70
4
71
3
72
8
73
4
40
0
40
0
40
0
40
0
40
1
40
1
40
1
40
1
41
1
10
60.9998370140229
20
0.0556849908627726
30
0
41
1
10
61.0000543286579
20
0.0185616636205737
30
0
41
1
10
61.0000543286579
20
-0.0185616636216253
30
0
41
1
10
60.9998370140228
20
-0.0556849908638526
30
0
0
SPLINE
5
C5
100
AcDbEntity
8
1
62
256
6
ByLayer
370
13
48
1
60
0
100
AcDbSpline
70
4
71
3
72
86
73
82
40
0
40
0
40
0
40
0
40
0.0025090332613256
40
0.0173996958275141
40
0.0397356896767969
40
0.0471810209598911
40
0.0620716835260796
40
0.0769623460922681
40
0.0992983399415504
40
0.106743671224645
40
0.121634333790833
40
0.136524996357022
40
0.162583655847852
40
0.166306321489399
40
0.173751652772493
40
0.181196984055587
40
0.196087646621776
40
0.20353297790487
40
0.210978309187964
40
0.218423640471058
40
0.225868971754153
40
0.233314303037247
40
0.240759634320341
40
0.25565029688653
40
0.277986290735812
40
0.285431622018907
40
0.300322284585095
40
0.315212947151284
40
0.337548941000566
40
0.344994272283661
40
0.359884934849849
40
0.374775597416037
40
0.39711159126532
40
0.404556922548414
40
0.419447585114601
40
0.434338247680791
40
0.456674241530076
40
0.464119572813168
40
0.479010235379357
40
0.493900897945547
40
0.516236891794832
40
0.523682223077922
40
0.538572885644111
40
0.5534635482103
40
0.575799542059585
40
0.583244873342676
40
0.598135535908862
40
0.613026198475055
40
0.635362192324336
40
0.64280752360743
40
0.657698186173618
40
0.672588848739809
40
0.698647508230635
40
0.702370173872184
40
0.709815505155281
40
0.717260836438372
40
0.732151499004561
40
0.739596830287656
40
0.747042161570754
40
0.754487492853844
40
0.761932824136938
40
0.769378155420034
40
0.776823486703126
40
0.791714149269313
40
0.814050143118598
40
0.821495474401692
40
0.836386136967881
40
0.851276799534072
40
0.873612793383352
40
0.881058124666446
40
0.895948787232632
40
0.91083944979882
40
0.936898109289652
40
0.9406207749312
40
0.948066106214293
40
0.955511437497388
40
0.970402100063577
40
0.97784743134667
40
0.985292762629766
40
0.992738093912859
40
1
40
1
40
1
40
1
41
1
10
54.4403824638068
20
-1.01691502552651
30
0
41
1
10
54.4314973114369
20
-1.01772092102698
30
0
41
1
10
54.369880637446
20
-1.02327784935778
30
0
41
1
10
54.2291702310173
20
-1.03546462370534
30
0
41
1
10
54.0709591980893
20
-1.0480124539551
30
0
41
1
10
53.9127506906063
20
-1.05959541570019
30
0
41
1
10
53.7809211073476
20
-1.06860358414605
30
0
41
1
10
53.5963574568931
20
-1.08005020311899
30
0
41
1
10
53.4381464263909
20
-1.08865480491028
30
0
41
1
10
53.2799380836872
20
-1.09626201303649
30
0
41
1
10
53.1481086402523
20
-1.10192966249281
30
0
41
1
10
52.9503660490597
20
-1.10913379633394
30
0
41
1
10
52.7921515342855
20
-1.11356810882353
30
0
41
1
10
52.6603029137526
20
-1.11643793308491
30
0
41
1
10
52.5943865884235
20
-1.117676543492
30
0
41
1
10
52.4889216096897
20
-1.11930093039231
30
0
41
1
10
52.3834524146965
20
-1.12042871561607
30
0
41
1
10
52.2779802328089
20
-1.12106334885351
30
0
41
1
10
52.1988782746823
20
-1.1212624333651
30
0
41
1
10
52.1197762432038
20
-1.12120288950248
30
0
41
1
10
52.0406751879718
20
-1.12088737565776
30
0
41
1
10
51.9615746918613
20
-1.12031431228633
30
0
41
1
10
51.8561107913476
20
-1.11918010540165
30
0
41
1
10
51.6979201485483
20
-1.11666368116988
30
0
41
1
10
51.5397091021014
20
-1.11296137732725
30
0
41
1
10
51.3815005870051
20
-1.10823887921737
30
0
41
1
10
51.2496710059295
20
-1.10359788684292
30
0
41
1
10
51.0651073654897
20
-1.09590141128854
30
0
41
1
10
50.9068963357786
20
-1.08811463538814
30
0
41
1
10
50.7486879670894
20
-1.07933272579532
30
0
41
1
10
50.6168585143708
20
-1.07132062755844
30
0
41
1
10
50.432294981808
20
-1.05894194688358
30
0
41
1
10
50.2740839646812
20
-1.04719128390829
30
0
41
1
10
50.1158755280278
20
-1.03448256086762
30
0
41
1
10
49.984045977938
20
-1.02321763210534
30
0
41
1
10
49.7994822841177
20
-1.00633714702815
30
0
41
1
10
49.6412711404774
20
-0.990793944537813
30
0
41
1
10
49.4830626343321
20
-0.974346675424897
30
0
41
1
10
49.3512330772996
20
-0.959998092559033
30
0
41
1
10
49.1666694506007
20
-0.938871598354325
30
0
41
1
10
49.0084584203464
20
-0.919771806889372
30
0
41
1
10
48.8502500416567
20
-0.899833663766174
30
0
41
1
10
48.7184205917462
20
-0.882615806408012
30
0
41
1
10
48.5338571052368
20
-0.857556710944465
30
0
41
1
10
48.3756461743104
20
-0.835182203827571
30
0
41
1
10
48.217437863947
20
-0.812047283621297
30
0
41
1
10
48.0856084664735
20
-0.792214248218727
30
0
41
1
10
47.9010450536897
20
-0.763592292882464
30
0
41
1
10
47.7428341733385
20
-0.738272790507693
30
0
41
1
10
47.5846258968442
20
-0.712281313310655
30
0
41
1
10
47.4527964535621
20
-0.690124211580354
30
0
41
1
10
47.2550537848061
20
-0.656058571627966
30
0
41
1
10
47.0968391498404
20
-0.628112833439275
30
0
41
1
10
46.9649904241949
20
-0.604393433607839
30
0
41
1
10
46.8990740451065
20
-0.592383652511131
30
0
41
1
10
46.7936089773357
20
-0.5729684790156
30
0
41
1
10
46.6881396905697
20
-0.55331892458625
30
0
41
1
10
46.5826674243045
20
-0.533448635935343
30
0
41
1
10
46.5035654142401
20
-0.518397647366498
30
0
41
1
10
46.4244633420276
20
-0.503226632222464
30
0
41
1
10
46.3453622585451
20
-0.487939120472618
30
0
41
1
10
46.2662617449854
20
-0.472538733300098
30
0
41
1
10
46.1607978319489
20
-0.451826989160509
30
0
41
1
10
46.0026071953078
20
-0.420394921961048
30
0
41
1
10
45.8443961956328
20
-0.388613502335659
30
0
41
1
10
45.686187758758
20
-0.356480229582985
30
0
41
1
10
45.5543582603046
20
-0.329415573716062
30
0
41
1
10
45.3697947483949
20
-0.291172075578515
30
0
41
1
10
45.2115838237329
20
-0.258140830337254
30
0
41
1
10
45.0533755349301
20
-0.224879701427653
30
0
41
1
10
44.9215461057324
20
-0.196957068907608
30
0
41
1
10
44.7238035117377
20
-0.154823682552092
30
0
41
1
10
44.5655889950049
20
-0.121037256087448
30
0
41
1
10
44.4337404034496
20
-0.0928304552946884
30
0
41
1
10
44.3678240979133
20
-0.0786613386359534
30
0
41
1
10
44.2623591570625
20
-0.0559542786118072
30
0
41
1
10
44.1568900043741
20
-0.033245146846383
30
0
41
1
10
44.0514178612345
20
-0.0105482232989118
30
0
41
1
10
43.9723159296428
20
0.0064948915727143
30
0
41
1
10
43.8938635115057
20
0.023396120977111
30
0
41
1
10
43.8417790594858
20
0.0346139022155398
30
0
41
1
10
43.8160617140434
20
0.040151307096437
30
0
0
SPLINE
5
C6
100
AcDbEntity
8
1
62
256
6
ByLayer
370
13
48
1
60
0
100
AcDbSpline
70
4
71
3
72
92
73
88
40
0
40
0
40
0
40
0
40
0.0041747965646505
40
0.0115891761553
40
0.0264179353365999
40
0.0412466945178999
40
0.0634898332898499
40
0.0709042128804999
40
0.0857329720617999
40
0.1005617312431
40
0.126512059810374
40
0.1302192496057
40
0.13763362919635
40
0.145048008787
40
0.1598767679683
40
0.16729114755895
40
0.1747055271496
40
0.18211990674025
40
0.1895342863309
40
0.196948665921551
40
0.2043630455122
40
0.2191918046935
40
0.24143494346545
40
0.248849323056099
40
0.2636780822374
40
0.278506841418699
40
0.30074998019065
40
0.308164359781299
40
0.322993118962599
40
0.337821878143899
40
0.363772206711175
40
0.367479396506499
40
0.374893776097149
40
0.382308155687799
40
0.397136914869099
40
0.404551294459749
40
0.411965674050399
40
0.419380053641049
40
0.426794433231699
40
0.434208812822348
40
0.441623192412999
40
0.456451951594298
40
0.478695090366248
40
0.486109469956898
40
0.500938229138199
40
0.515766988319498
40
0.538010127091448
40
0.545424506682098
40
0.560253265863398
40
0.575082025044698
40
0.601032353611973
40
0.604739543407298
40
0.612153922997948
40
0.619568302588598
40
0.634397061769898
40
0.641811441360548
40
0.649225820951198
40
0.656640200541848
40
0.664054580132498
40
0.671468959723148
40
0.678883339313798
40
0.693712098495098
40
0.715955237267048
40
0.723369616857698
40
0.738198376038998
40
0.753027135220298
40
0.775270273992247
40
0.782684653582897
40
0.797513412764197
40
0.812342171945497
40
0.838292500512772
40
0.841999690308097
40
0.849414069898747
40
0.856828449489397
40
0.871657208670697
40
0.879071588261347
40
0.886485967851997
40
0.893900347442647
40
0.901314727033297
40
0.908729106623947
40
0.916143486214597
40
0.930972245395897
40
0.953215384167847
40
0.960629763758497
40
0.975458522939797
40
0.990287282121097
40
1
40
1
40
1
40
1
41
1
10
21.7893264769344
20
-1.01239449598651
30
0
41
1
10
21.7744793790948
20
-1.01377052232164
30
0
41
1
10
21.7332640496486
20
-1.01755653327908
30
0
41
1
10
21.6393128692747
20
-1.02597170639629
30
0
41
1
10
21.5074834312424
20
-1.03716594574425
30
0
41
1
10
21.3229199599857
20
-1.05171012188396
30
0
41
1
10
21.1647090414876
20
-1.06299549959974
30
0
41
1
10
21.0065007492167
20
-1.07330249571143
30
0
41
1
10
20.8746713187164
20
-1.08123622824473
30
0
41
1
10
20.6769287184821
20
-1.09186033293932
30
0
41
1
10
20.5187141771016
20
-1.09903903825526
30
0
41
1
10
20.3868655380006
20
-1.1042032407135
30
0
41
1
10
20.3209492027261
20
-1.10659524019871
30
0
41
1
10
20.2154842030405
20
-1.11006946900261
30
0
41
1
10
20.1100149780332
20
-1.1130491627749
30
0
41
1
10
20.0045427610489
20
-1.11553641440381
30
0
41
1
10
19.9254407818168
20
-1.11712757195656
30
0
41
1
10
19.8463387334505
20
-1.1184607566004
30
0
41
1
10
19.7672376664991
20
-1.11953834396698
30
0
41
1
10
19.6881371586762
20
-1.12035829569905
30
0
41
1
10
19.5826732373725
20
-1.1210830627939
30
0
41
1
10
19.4244825585035
20
-1.12135670697424
30
0
41
1
10
19.2662714827422
20
-1.12043199789329
30
0
41
1
10
19.1080629618222
20
-1.11848328955943
30
0
41
1
10
18.976233391302
20
-1.11615541802516
30
0
41
1
10
18.7916697888663
20
-1.11168653810085
30
0
41
1
10
18.6334588141696
20
-1.10664502367857
30
0
41
1
10
18.4752505165985
20
-1.10059033926484
30
0
41
1
10
18.3434211141476
20
-1.09484208084854
30
0
41
1
10
18.1456786006796
20
-1.08492109759024
30
0
41
1
10
17.9874641564021
20
-1.07572418020229
30
0
41
1
10
17.8556155920606
20
-1.0672779300655
30
0
41
1
10
17.7896992939643
20
-1.06284777794983
30
0
41
1
10
17.6842343543196
20
-1.05541514426889
30
0
41
1
10
17.5787651881304
20
-1.04752275782556
30
0
41
1
10
17.4732930209562
20
-1.03917876105746
30
0
41
1
10
17.3941910679511
20
-1.03265636959878
30
0
41
1
10
17.3150890330066
20
-1.02589507932336
30
0
41
1
10
17.2359879645713
20
-1.01889826568839
30
0
41
1
10
17.1568874364849
20
-1.0116663057994
30
0
41
1
10
17.051423464493
20
-1.00167911856138
30
0
41
1
10
16.8932326646554
20
-0.985952069741927
30
0
41
1
10
16.7350214185152
20
-0.969220887067507
30
0
41
1
10
16.5768127181048
20
-0.951605207316561
30
0
41
1
10
16.4449830017079
20
-0.936294744613178
30
0
41
1
10
16.2604192254614
20
-0.913847403377957
30
0
41
1
10
16.1022081558053
20
-0.893645313177444
30
0
41
1
10
15.9439998341226
20
-0.872629254578641
30
0
41
1
10
15.8121704479893
20
-0.85452828908322
30
0
41
1
10
15.6144280031104
20
-0.826356602694631
30
0
41
1
10
15.4562136492318
20
-0.802911601519128
30
0
41
1
10
15.324365165293
20
-0.782809711960539
30
0
41
1
10
15.2584489093613
20
-0.772582932826168
30
0
41
1
10
15.1529840425978
20
-0.755964440908315
30
0
41
1
10
15.0475149558831
20
-0.739028152159051
30
0
41
1
10
14.9420428679774
20
-0.721786582809528
30
0
41
1
10
14.8629409688615
20
-0.708662647647515
30
0
41
1
10
14.7838389817338
20
-0.695374774583826
30
0
41
1
10
14.7047379525514
20
-0.681926606580731
30
0
41
1
10
14.6256374631015
20
-0.668320906340142
30
0
41
1
10
14.5201735524988
20
-0.649939950708585
30
0
41
1
10
14.3619828597022
20
-0.621863969221096
30
0
41
1
10
14.2037717347877
20
-0.593212657225564
30
0
41
1
10
14.0455631542445
20
-0.56402208411734
30
0
41
1
10
13.9137335345342
20
-0.539285591050287
30
0
41
1
10
13.7291698741392
20
-0.504073637102834
30
0
41
1
10
13.5709588682149
20
-0.473402115657961
30
0
41
1
10
13.4127505658612
20
-0.442303139015649
30
0
41
1
10
13.2809211489353
20
-0.416050040816657
30
0
41
1
10
13.0831785725466
20
-0.376163156005646
30
0
41
1
10
12.9249640508193
20
-0.343907017193089
30
0
41
1
10
12.7931154193387
20
-0.316810204029934
30
0
41
1
10
12.7271990899202
20
-0.303157760695342
30
0
41
1
10
12.6217341103526
20
-0.2812058931423
30
0
41
1
10
12.5162649221451
20
-0.259151406308433
30
0
41
1
10
12.41079274974
20
-0.23700836665418
30
0
41
1
10
12.3316907948084
20
-0.220324485899425
30
0
41
1
10
12.252588761978
20
-0.203589482755461
30
0
41
1
10
12.1734876991385
20
-0.186806440935442
30
0
41
1
10
12.09438719114
20
-0.169979880290612
30
0
41
1
10
11.9889232747772
20
-0.147464526068859
30
0
41
1
10
11.8307326100484
20
-0.113545492490516
30
0
41
1
10
11.6725215557294
20
-0.079613433406422
30
0
41
1
10
11.5143130573185
20
-0.0456129374990724
30
0
41
1
10
11.3824835079829
20
-0.0171836351561581
30
0
41
1
10
11.2424792782734
20
0.0130181799297873
30
0
41
1
10
11.1552025270316
20
0.031809068334411
30
0
41
1
10
11.120660873797
20
0.0392408905325397
30
0
0
SPLINE
5
C7
100
AcDbEntity
8
1
62
256
6
ByLayer
370
18
48
1
60
0
100
AcDbSpline
70
4
71
3
72
12
73
8
40
0
40
0
40
0
40
0
40
0.25
40
0.25
40
0.5
40
0.5
40
1
40
1
40
1
40
1
41
1
10
7.76388204359151
20
2.06826383262674
30
0
41
1
10
8.03425320912439
20
2.137473682875
30
0
41
1
10
8.30674494934263
20
2.19921827781866
30
0
41
1
10
8.85196158132939
20
2.30816813138029
30
0
41
1
10
9.12443593545927
20
2.35534867132688
30
0
41
1
10
9.9413468825947
20
2.47589560922543
30
0
41
1
10
10.4852627602017
20
2.5286946680416
30
0
41
1
10
11.0283244975038
20
2.55106569613545
30
0
0
SPLINE
5
C8
100
AcDbEntity
8
1
62
256
6
ByLayer
370
18
48
1
60
0
100
AcDbSpline
70
4
71
4
72
10
73
5
40
0
40
0
40
0
40
0
40
0
40
1
40
1
40
1
40
1
40
1
41
1
10
11.0283244975037
20
2.55106569613542
30
0
41
1
10
10.8976018129232
20
2.19170468407225
30
0
41
1
10
10.7668791283428
20
1.83234367200905
30
0
41
1
10
10.6361564437623
20
1.47298265994587
30
0
41
1
10
10.5054337591818
20
1.11362164788267
30
0
0
SPLINE
5
C9
100
AcDbEntity
8
1
62
256
6
ByLayer
370
18
48
1
60
0
100
AcDbSpline
70
4
71
2
72
6
73
3
40
0
40
0
40
0
40
1
40
1
40
1
41
0.500000237966322
10
60.032840810777
20
-2.5702208564324
30
0
41
0.499999762033678
10
60.0315354066205
20
-2.56932781325956
30
0
41
0.500000237966322
10
60.0302339948665
20
-2.56842499315157
30
0
0
SPLINE
5
CA
100
AcDbEntity
8
1
62
256
6
ByLayer
370
18
48
1
60
0
100
AcDbSpline
70
4
71
3
72
12
73
8
40
0
40
0
40
0
40
0
40
0.499999999999997
40
0.499999999999997
40
0.749999999999998
40
0.749999999999998
40
1
40
1
40
1
40
1
41
1
10
6.68673494920421
20
1.80907264801297
30
0
41
1
10
7.08554608920468
20
1.65767719686747
30
0
41
1
10
7.4915233234463
20
1.49886549556226
30
0
41
1
10
8.10758427510194
20
1.25505660824936
30
0
41
1
10
8.31410931278916
20
1.17287747038907
30
0
41
1
10
8.72965740152381
20
1.0063688449813
30
0
41
1
10
8.93864665899247
20
0.922095078332234
30
0
41
1
10
9.1487179166939
20
0.836989212395025
30
0
0
SPLINE
5
CB
100
AcDbEntity
8
1
62
256
6
ByLayer
370
18
48
1
60
0
100
AcDbSpline
70
4
71
3
72
10
73
6
40
0
40
0
40
0
40
0
40
0.5
40
0.5
40
1
40
1
40
1
40
1
41
1
10
60.0302339948689
20
-2.5684249931457
30
0
41
1
10
60.0296075247089
20
-2.53253566830327
30
0
41
1
10
60.0235828822082
20
-2.50319858944292
30
0
41
1
10
60.0060177933049
20
-2.45588615695914
30
0
41
1
10
59.9944564595015
20
-2.43765926912104
30
0
41
1
10
59.9811128058194
20
-2.42357917280677
30
0
0
SPLINE
5
CC
100
AcDbEntity
8
1
62
256
6
ByLayer
370
13
48
1
60
0
100
AcDbSpline
70
4
71
3
72
26
73
22
40
0
40
0
40
0
40
0
40
0.0988227130014383
40
0.132889196759859
40
0.201022164276695
40
0.269155131793534
40
0.37135458306879
40
0.405421066827208
40
0.473554034344045
40
0.541687001860883
40
0.66091969501535
40
0.677952936894558
40
0.712019420652976
40
0.746085904411396
40
0.814218871928233
40
0.848285355686653
40
0.882351839445071
40
0.916418323203489
40
0.950484806961907
40
0.984551290720328
40
1
40
1
40
1
40
1
41
1.00000000000001
10
60.173357917662
20
1.12122557288758
30
0
41
1.00000000000001
10
60.0968682821743
20
1.12123157911411
30
0
41
1.00000000000001
10
59.9940182740438
20
1.1207878608583
30
0
41
1.00000000000001
10
59.8384340375314
20
1.11912075630632
30
0
41
1.00000000000001
10
59.7065916988073
20
1.11701696228953
30
0
41
1.00000000000001
10
59.5220145602143
20
1.11288032554181
30
0
41
1.00000000000001
10
59.3638191315787
20
1.10810715669943
30
0
41
1.00000000000001
10
59.2056209958369
20
1.10230588325156
30
0
41
1.00000000000001
10
59.0737783696274
20
1.09679670507357
30
0
41
1.00000000000001
10
58.8760128872634
20
1.08726269055554
30
0
41
1.00000000000001
10
58.71782101781
20
1.07831402095879
30
0
41
1.00000000000001
10
58.5859977313157
20
1.07003187191249
30
0
41
1.00000000000001
10
58.5200781153399
20
1.06571195046731
30
0
41
1.00000000000001
10
58.4146056125834
20
1.05846764192289
30
0
41
1.00000000000001
10
58.3091373588426
20
1.05074242541206
30
0
41
1.00000000000001
10
58.2036721050801
20
1.04253846967605
30
0
41
1.00000000000001
10
58.1245709840368
20
1.03613921619921
30
0
41
1.00000000000001
10
58.0454699343033
20
1.02950021683795
30
0
41
1.00000000000001
10
57.9663679042219
20
1.02262046500058
30
0
41
1.00000000000001
10
57.9016755098048
20
1.01679978745473
30
0
41
1.00000000000001
10
57.8633497403866
20
1.01326767112888
30
0
41
1.00000000000001
10
57.8513920490962
20
1.01215755139051
30
0
0
SPLINE
5
CD
100
AcDbEntity
8
1
62
256
6
ByLayer
370
13
48
1
60
0
100
AcDbSpline
70
4
71
3
72
91
73
87
40
0
40
0
40
0
40
0
40
0.0008997932001999
40
0.015707219539948
40
0.0305146458796961
40
0.0527257853893175
40
0.0601294985591918
40
0.0749369248989384
40
0.089744351238687
40
0.115657347333246
40
0.119359203918183
40
0.126762917088057
40
0.134166630257931
40
0.148974056597678
40
0.156377769767553
40
0.163781482937427
40
0.1711851961073
40
0.178588909277175
40
0.185992622447048
40
0.193396335616922
40
0.20820376195667
40
0.230414901466291
40
0.237818614636166
40
0.252626040975914
40
0.267433467315662
40
0.289644606825284
40
0.297048319995158
40
0.311855746334906
40
0.326663172674654
40
0.352576168769212
40
0.356278025354149
40
0.363681738524023
40
0.371085451693897
40
0.385892878033645
40
0.393296591203519
40
0.400700304373393
40
0.408104017543267
40
0.415507730713141
40
0.422911443883015
40
0.430315157052889
40
0.445122583392637
40
0.467333722902259
40
0.474737436072132
40
0.489544862411882
40
0.50435228875163
40
0.526563428261249
40
0.533967141431124
40
0.548774567770872
40
0.563581994110618
40
0.589494990205178
40
0.593196846790116
40
0.60060055995999
40
0.608004273129864
40
0.622811699469611
40
0.630215412639485
40
0.637619125809358
40
0.645022838979235
40
0.652426552149107
40
0.659830265318981
40
0.667233978488853
40
0.682041404828602
40
0.704252544338224
40
0.711656257508099
40
0.726463683847846
40
0.741271110187596
40
0.763482249697218
40
0.77088596286709
40
0.785693389206836
40
0.800500815546588
40
0.826413811641144
40
0.830115668226082
40
0.837519381395957
40
0.84492309456583
40
0.859730520905578
40
0.867134234075451
40
0.874537947245327
40
0.8819416604152
40
0.889345373585073
40
0.896749086754948
40
0.90415279992482
40
0.918960226264569
40
0.941171365774191
40
0.948575078944065
40
0.963382505283812
40
0.978189931623561
40
1
40
1
40
1
40
1
41
1.00000000000001
10
35.8275372924274
20
-0.0399400661871705
30
0
41
1.00000000000001
10
35.8243328547707
20
-0.0392498484106621
30
0
41
1.00000000000001
10
35.7683944947452
20
-0.0272015873182451
30
0
41
1.00000000000001
10
35.6597159080867
20
-0.0038181234594674
30
0
41
1.00000000000001
10
35.4751387804898
20
0.0358969325017138
30
0
41
1.00000000000001
10
35.3169434826346
20
0.0699855889210418
30
0
41
1.00000000000001
10
35.1587455299661
20
0.104008104092059
30
0
41
1.00000000000001
10
35.026903062942
20
0.132233754852761
30
0
41
1.00000000000001
10
34.8291377894123
20
0.174385885874157
30
0
41
1.00000000000001
10
34.6709460292545
20
0.20802625371388
30
0
41
1.00000000000001
10
34.5391227687527
20
0.235930999149386
30
0
41
1.00000000000001
10
34.4732031604728
20
0.249793852762932
30
0
41
1.00000000000001
10
34.3677306715324
20
0.271880125195989
30
0
41
1.00000000000001
10
34.262262435415
20
0.293873788460584
30
0
41
1.00000000000001
10
34.1567972039306
20
0.315761949951192
30
0
41
1.00000000000001
10
34.0776960954828
20
0.332080031126079
30
0
41
1.00000000000001
10
33.9985950548392
20
0.34832121666042
30
0
41
1.00000000000001
10
33.9194930299079
20
0.364483418064562
30
0
41
1.00000000000001
10
33.8403904404497
20
0.380561948948749
30
0
41
1.00000000000001
10
33.7349168898633
20
0.401849137904146
30
0
41
1.00000000000001
10
33.5767013438662
20
0.43345386716589
30
0
41
1.00000000000001
10
33.4185061798998
20
0.464706463319539
30
0
41
1.00000000000001
10
33.2603084507781
20
0.495524355443502
30
0
41
1.00000000000001
10
33.1284661350016
20
0.520840882163123
30
0
41
1.00000000000001
10
32.9438890773218
20
0.555718947636615
30
0
41
1.00000000000001
10
32.7856937538387
20
0.585076574787501
30
0
41
1.00000000000001
10
32.6274957321735
20
0.613887759507087
30
0
41
1.00000000000001
10
32.4956532020106
20
0.637461896663404
30
0
41
1.00000000000001
10
32.297887850836
20
0.672053161997177
30
0
41
1.00000000000001
10
32.1396960564248
20
0.699031114629228
30
0
41
1.00000000000001
10
32.007872797349
20
0.721008171246602
30
0
41
1.00000000000001
10
31.9419531895102
20
0.731830208598459
30
0
41
1.00000000000001
10
31.8364806918371
20
0.748902886125499
30
0
41
1.00000000000001
10
31.7310124339606
20
0.765665157826894
30
0
41
1.00000000000001
10
31.6255471707594
20
0.782105824727231
30
0
41
1.00000000000001
10
31.5464460388046
20
0.794230221139421
30
0
41
1.00000000000001
10
31.4673449756757
20
0.806171121884964
30
0
41
1.00000000000001
10
31.3882429306773
20
0.817926052904218
30
0
41
1.00000000000001
10
31.30914032447
20
0.829492141232114
30
0
41
1.00000000000001
10
31.2036667561131
20
0.844624876130032
30
0
41
1.00000000000001
10
31.0454511954655
20
0.866692040689079
30
0
41
1.00000000000001
10
30.887256041982
20
0.887908636178414
30
0
41
1.00000000000001
10
30.7290583485567
20
0.90829595980036
30
0
41
1.00000000000001
10
30.5972160897403
20
0.924681061472417
30
0
41
1.00000000000001
10
30.4126391558388
20
0.946623628136838
30
0
41
1.00000000000001
10
30.2544439653146
20
0.964436454254884
30
0
41
1.00000000000001
10
30.0962460756141
20
0.981351338631459
30
0
41
1.00000000000001
10
29.9644036500449
20
0.994805305429925
30
0
41
1.00000000000001
10
29.7666384266085
20
1.01381340976242
30
0
41
1.00000000000001
10
29.6084466821531
20
1.02787427965528
30
0
41
1.00000000000001
10
29.4766234117973
20
1.03882925373528
30
0
41
1.00000000000001
10
29.4107037864899
20
1.04410202917144
30
0
41
1.00000000000001
10
29.3052312369876
20
1.05220407556438
30
0
41
1.00000000000001
10
29.1997628966488
20
1.05985012468897
30
0
41
1.00000000000001
10
29.0942975331032
20
1.06703304891737
30
0
41
1.00000000000001
10
29.0151963222835
20
1.07215381735559
30
0
41
1.00000000000001
10
28.9360951787395
20
1.07702693497625
30
0
41
1.00000000000001
10
28.8569930544327
20
1.08165006138045
30
0
41
1.00000000000001
10
28.7778903714491
20
1.08602274892029
30
0
41
1.00000000000001
10
28.6724167049617
20
1.0914930113412
30
0
41
1.00000000000001
10
28.514201012395
20
1.09890615516695
30
0
41
1.00000000000001
10
28.3560057705136
20
1.10516537083082
30
0
41
1.00000000000001
10
28.1978080452855
20
1.11039067180686
30
0
41
1.00000000000001
10
28.0659657960843
20
1.11404000230069
30
0
41
1.00000000000001
10
27.8813889262051
20
1.11794997505074
30
0
41
1.00000000000001
10
27.7231938313121
20
1.12007850279371
30
0
41
1.00000000000001
10
27.5649960529475
20
1.12116590865232
30
0
41
1.00000000000001
10
27.433153725782
20
1.12137284465017
30
0
41
1.00000000000001
10
27.2353886462249
20
1.12038101115717
30
0
41
1.00000000000001
10
27.0771969972562
20
1.11825976086748
30
0
41
1.00000000000001
10
26.9453737777762
20
1.11565134030717
30
0
41
1.00000000000001
10
26.8794541720119
20
1.11415221625016
30
0
41
1.00000000000001
10
26.7739816420661
20
1.11140610200029
30
0
41
1.00000000000001
10
26.6685133053292
20
1.10816583676449
30
0
41
1.00000000000001
10
26.5630479361419
20
1.10442997145801
30
0
41
1.00000000000001
10
26.4839467198266
20
1.1013639216731
30
0
41
1.00000000000001
10
26.4048455689011
20
1.09804429219487
30
0
41
1.00000000000001
10
26.3257434355432
20
1.0944694048488
30
0
41
1.00000000000001
10
26.2466407397696
20
1.09064132652843
30
0
41
1.00000000000001
10
26.1411670488989
20
1.08519045031339
30
0
41
1.00000000000001
10
25.9829513047699
20
1.07624752097904
30
0
41
1.00000000000001
10
25.8247559883291
20
1.06611847134737
30
0
41
1.00000000000001
10
25.6665581740328
20
1.05499333178806
30
0
41
1.00000000000001
10
25.5347158304858
20
1.04508170835662
30
0
41
1.00000000000001
10
25.3515671991088
20
1.03019916623324
30
0
41
1.00000000000001
10
25.2211659786958
20
1.01864972477434
30
0
41
1.00000000000001
10
25.1434956798416
20
1.01142872075623
30
0
0
SPLINE
5
CE
100
AcDbEntity
8
1
62
256
6
ByLayer
370
18
48
1
60
0
100
AcDbSpline
70
4
71
3
72
8
73
4
40
0
40
0
40
0
40
0
40
1
40
1
40
1
40
1
41
1
10
60.9793357804434
20
0.11424966645103
30
0
41
1
10
60.7469518058604
20
0.781542377080513
30
0
41
1
10
60.5177533006597
20
1.44992605049865
30
0
41
1
10
60.2917717706096
20
2.11941147683294
30
0
0
SPLINE
5
CF
100
AcDbEntity
8
1
62
256
6
ByLayer
370
18
48
1
60
0
100
AcDbSpline
70
4
71
3
72
8
73
4
40
0
40
0
40
0
40
0
40
1
40
1
40
1
40
1
41
1
10
60.9998370140226
20
-0.0556849908636821
30
0
41
1
10
60.9929737942207
20
-0.0751891504527862
30
0
41
1
10
60.9861401948716
20
-0.0947107281216688
30
0
41
1
10
60.9793357804364
20
-0.114249666470812
30
0
0
SPLINE
5
D0
100
AcDbEntity
8
1
62
256
6
ByLayer
370
18
48
1
60
0
100
AcDbSpline
70
4
71
3
72
10
73
6
40
0
40
0
40
0
40
0
40
0.619428028695116
40
0.619428028695116
40
1
40
1
40
1
40
1
41
1
10
60.041289086221
20
0.0443757742140463
30
0
41
1
10
59.962152439442
20
0.0765772128602862
30
0
41
1
10
59.8838325552969
20
0.107033703088263
30
0
41
1
10
59.7635014204917
20
0.150166261673803
30
0
41
1
10
59.7189718438292
20
0.165215307326605
30
0
41
1
10
59.6771844447233
20
0.17818377745013
30
0
0
SPLINE
5
D1
100
AcDbEntity
8
1
62
256
6
ByLayer
370
18
48
1
60
0
100
AcDbSpline
70
4
71
3
72
8
73
4
40
0
40
0
40
0
40
0
40
1
40
1
40
1
40
1
41
1
10
60.9998370140229
20
0.055684990862801
30
0
41
1
10
60.9929755345736
20
0.0751842046515208
30
0
41
1
10
60.9861419274979
20
0.0947057528692881
30
0
41
1
10
60.9793357804365
20
0.11424966647067
30
0
0
SPLINE
5
D2
100
AcDbEntity
8
1
62
256
6
ByLayer
370
18
48
1
60
0
100
AcDbSpline
70
4
71
3
72
12
73
8
40
0
40
0
40
0
40
0
40
0.249999999999999
40
0.249999999999999
40
0.499999999999997
40
0.499999999999997
40
1
40
1
40
1
40
1
41
1
10
60.1733577051524
20
1.1212255740999
30
0
41
1
10
60.1647436357765
20
1.20751700458715
30
0
41
1
10
60.1651196050047
20
1.29229601259092
30
0
41
1
10
60.174587432097
20
1.46038772367632
30
0
41
1
10
60.1838778341378
20
1.54366702621559
30
0
41
1
10
60.2195704528473
20
1.79218911194187
30
0
41
1
10
60.2535719906365
20
1.95615343641325
30
0
41
1
10
60.2917717706096
20
2.11941147683294
30
0
0
SPLINE
5
D3
100
AcDbEntity
8
1
62
256
6
ByLayer
370
18
48
1
60
0
100
AcDbSpline
70
4
71
3
72
10
73
6
40
0
40
0
40
0
40
0
40
0.123549618786166
40
0.123549618786166
40
1
40
1
40
1
40
1
41
1
10
6.52358533094559
20
-1.87407587546028
30
0
41
1
10
6.51455482882878
20
-1.87785042087501
30
0
41
1
10
6.50550570213142
20
-1.88166308907117
30
0
41
1
10
6.4321074090596
20
-1.91283982734862
30
0
41
1
10
6.36619777447632
20
-1.9424512252931
30
0
41
1
10
6.30187902825736
20
-1.97334802749077
30
0
0
SPLINE
5
D4
100
AcDbEntity
8
1
62
256
6
ByLayer
370
18
48
1
60
0
100
AcDbSpline
70
4
71
3
72
12
73
8
40
0
40
0
40
0
40
0
40
0.249999999999999
40
0.249999999999999
40
0.499999999999997
40
0.499999999999997
40
1
40
1
40
1
40
1
41
1
10
7.76388204359154
20
-2.06826383262674
30
0
41
1
10
8.03425320912442
20
-2.137473682875
30
0
41
1
10
8.3067449493426
20
-2.19921827781866
30
0
41
1
10
8.85196158132936
20
-2.30816813138029
30
0
41
1
10
9.12443593545927
20
-2.35534867132688
30
0
41
1
10
9.9413468825947
20
-2.47589560922543
30
0
41
1
10
10.4852627602017
20
-2.5286946680416
30
0
41
1
10
11.0283244975038
20
-2.55106569613545
30
0
0
SPLINE
5
D5
100
AcDbEntity
8
1
62
256
6
ByLayer
370
18
48
1
60
0
100
AcDbSpline
70
4
71
3
72
8
73
4
40
0
40
0
40
0
40
0
40
1
40
1
40
1
40
1
41
1
10
60.5194341318764
20
-0.803204215617768
30
0
41
1
10
60.5329625990207
20
-0.799484879136116
30
0
41
1
10
60.5467821412256
20
-0.794273037639158
30
0
41
1
10
60.5609049383028
20
-0.787506238403751
30
0
0
SPLINE
5
D6
100
AcDbEntity
8
1
62
256
6
ByLayer
370
18
48
1
60
0
100
AcDbSpline
70
4
71
3
72
8
73
4
40
0
40
0
40
0
40
0
40
1
40
1
40
1
40
1
41
1
10
60.0850887943157
20
-2.63797473146869
30
0
41
1
10
60.1533499401778
20
-2.46897731404269
30
0
41
1
10
60.2225233588088
20
-2.29627790947808
30
0
41
1
10
60.2917717706095
20
-2.11941147683297
30
0
0
SPLINE
5
D7
100
AcDbEntity
8
1
62
256
6
ByLayer
370
18
48
1
60
0
100
AcDbSpline
70
4
71
3
72
20
73
16
40
0
40
0
40
0
40
0
40
0.125
40
0.125
40
0.25
40
0.25
40
0.375
40
0.375
40
0.5
40
0.5
40
0.625
40
0.625
40
0.75
40
0.75
40
1
40
1
40
1
40
1
41
1
10
60.5194341318764
20
-0.803204215618052
30
0
41
1
10
60.4881660425158
20
-0.808659904083157
30
0
41
1
10
60.4578243458331
20
-0.806361577798043
30
0
41
1
10
60.3988024200185
20
-0.787858248067408
30
0
41
1
10
60.370545641531
20
-0.771668101718717
30
0
41
1
10
60.3175778971566
20
-0.728384645677693
30
0
41
1
10
60.2924586391809
20
-0.700965792313042
30
0
41
1
10
60.245732775721
20
-0.637277135304686
30
0
41
1
10
60.2242570581139
20
-0.601299473245007
30
0
41
1
10
60.1845135991828
20
-0.522318112251867
30
0
41
1
10
60.1662511543742
20
-0.479302813010264
30
0
41
1
10
60.1326773138319
20
-0.386808893795717
30
0
41
1
10
60.117452697304
20
-0.337469808564464
30
0
41
1
10
60.0769021243601
20
-0.184059018205005
30
0
41
1
10
60.0562013381651
20
-0.0735879153075985
30
0
41
1
10
60.0412890862208
20
0.04437577421578
30
0
0
SPLINE
5
D8
100
AcDbEntity
8
1
62
256
6
ByLayer
370
18
48
1
60
0
100
AcDbSpline
70
4
71
3
72
22
73
18
40
0
40
0
40
0
40
0
40
0.121403493341548
40
0.121403493341548
40
0.242806986683095
40
0.242806986683095
40
0.364210480024643
40
0.364210480024643
40
0.48561397336619
40
0.48561397336619
40
0.607017466707738
40
0.607017466707738
40
0.728420960049285
40
0.728420960049285
40
0.971227946732378
40
0.971227946732378
40
1
40
1
40
1
40
1
41
1
10
6.59504581712369
20
-1.17578198512038
30
0
41
1
10
6.87507027580864
20
-1.29797851255753
30
0
41
1
10
7.15518096316401
20
-1.41526137850118
30
0
41
1
10
7.71385561219611
20
-1.63626481935469
30
0
41
1
10
7.99257052210879
20
-1.73986453895745
30
0
41
1
10
8.5502544889996
20
-1.9311285953178
30
0
41
1
10
8.82904084161851
20
-2.01905255139482
30
0
41
1
10
9.38802549413862
20
-2.1772602404273
30
0
41
1
10
9.66783749083766
20
-2.24733860185321
30
0
41
1
10
10.2259398391415
20
-2.36712429675634
30
0
41
1
10
10.5046561804816
20
-2.41707042200122
30
0
41
1
10
11.0628728116075
20
-2.49590012227847
30
0
41
1
10
11.3428882865493
20
-2.52478632024653
30
0
41
1
10
12.1806829140396
20
-2.57813340337916
30
0
41
1
10
12.7373977254452
20
-2.56954667463424
30
0
41
1
10
13.3629108599827
20
-2.51063428007802
30
0
41
1
10
13.4291358452139
20
-2.50378242217684
30
0
41
1
10
13.4953262294728
20
-2.49632699249557
30
0
0
SPLINE
5
D9
100
AcDbEntity
8
1
62
256
6
ByLayer
370
18
48
1
60
0
100
AcDbSpline
70
4
71
3
72
48
73
44
40
0
40
0
40
0
40
0
40
0.0317244149075207
40
0.0317244149075207
40
0.0791378363833191
40
0.0791378363833191
40
0.126551257859117
40
0.126551257859117
40
0.173964679334916
40
0.173964679334916
40
0.221378100810714
40
0.221378100810714
40
0.268791522286512
40
0.268791522286512
40
0.31620494376231
40
0.31620494376231
40
0.363618365238108
40
0.363618365238108
40
0.411031786713907
40
0.411031786713907
40
0.458445208189705
40
0.458445208189705
40
0.553272051141304
40
0.553272051141304
40
0.600685472617102
40
0.600685472617102
40
0.6480988940929
40
0.6480988940929
40
0.695512315568698
40
0.695512315568698
40
0.742925737044497
40
0.742925737044497
40
0.790339158520295
40
0.790339158520295
40
0.837752579996093
40
0.837752579996093
40
0.885166001471891
40
0.885166001471891
40
0.932579422947689
40
0.932579422947689
40
0.979992844423488
40
0.979992844423488
40
1
40
1
40
1
40
1
41
1
10
28.6292530872591
20
2.59350235259439
30
0
41
1
10
28.8158581636316
20
2.59377164092285
30
0
41
1
10
29.0026179949352
20
2.58905321325116
30
0
41
1
10
29.4676162908488
20
2.56484294966407
30
0
41
1
10
29.7456513145128
20
2.5392566523108
30
0
41
1
10
30.3020994954845
20
2.46659345966907
30
0
41
1
10
30.580742374316
20
2.41952073859915
30
0
41
1
10
31.1386470914728
20
2.30450894404407
30
0
41
1
10
31.4168022846114
20
2.23693825109589
30
0
41
1
10
31.9730242749961
20
2.08333233699509
30
0
41
1
10
32.2510804953217
20
1.99729107332544
30
0
41
1
10
32.8084523109702
20
1.80833938807359
30
0
41
1
10
33.0874793202507
20
1.70545084850534
30
0
41
1
10
33.6437343484822
20
1.48627784077425
30
0
41
1
10
33.9215234299442
20
1.36986618967984
30
0
41
1
10
34.4780653969933
20
1.12615867236332
30
0
41
1
10
34.757221824968
20
0.998403627023521
30
0
41
1
10
35.313949556169
20
0.735957092109857
30
0
41
1
10
35.5917325444811
20
0.601133223215015
30
0
41
1
10
36.1476226189673
20
0.327175545488586
30
0
41
1
10
36.4260213137488
20
0.187966001104286
30
0
41
1
10
37.2624171353891
20
-0.23047046859827
30
0
41
1
10
37.8164915556752
20
-0.509805248370128
30
0
41
1
10
38.6518653487754
20
-0.910379781553189
30
0
41
1
10
38.9306943538866
20
-1.04052888788522
30
0
41
1
10
39.4864615400364
20
-1.29079986552264
30
0
41
1
10
39.7640216032083
20
-1.41092760720397
30
0
41
1
10
40.3201413104363
20
-1.63833361763383
30
0
41
1
10
40.59909503044
20
-1.74592513033258
30
0
41
1
10
41.155258869714
20
-1.94478602112389
30
0
41
1
10
41.4327723967431
20
-2.03622811617811
30
0
41
1
10
41.9883723531193
20
-2.20098063790371
30
0
41
1
10
42.2667225765928
20
-2.27449943342961
30
0
41
1
10
42.8235275332838
20
-2.40160846283061
30
0
41
1
10
43.1012679659106
20
-2.45491314615032
30
0
41
1
10
43.6565507537418
20
-2.54033465036824
30
0
41
1
10
43.9341731409298
20
-2.57238421808242
30
0
41
1
10
44.4908778729931
20
-2.61435398665819
30
0
41
1
10
44.769217194954
20
-2.6242149035364
30
0
41
1
10
45.324534011878
20
-2.62143495270189
30
0
41
1
10
45.6018558424801
20
-2.60882265610954
30
0
41
1
10
45.9969440869405
20
-2.57508735914342
30
0
41
1
10
46.1143637753336
20
-2.56309091807688
30
0
41
1
10
46.2318098052413
20
-2.5491510501833
30
0
0
SPLINE
5
DA
100
AcDbEntity
8
1
62
256
6
ByLayer
370
18
48
1
60
0
100
AcDbSpline
70
4
71
3
72
8
73
4
40
0
40
0
40
0
40
0
40
1
40
1
40
1
40
1
41
1
10
60.0850887943215
20
2.63797473145434
30
0
41
1
10
60.1533477720862
20
2.46898268169187
30
0
41
1
10
60.2225211305659
20
2.29628360060301
30
0
41
1
10
60.2917717706095
20
2.11941147683294
30
0
0
SPLINE
5
DB
100
AcDbEntity
8
1
62
256
6
ByLayer
370
18
48
1
60
0
100
AcDbSpline
70
4
71
3
72
18
73
14
40
0
40
0
40
0
40
0
40
0.24999999999999
40
0.24999999999999
40
0.374999999999991
40
0.374999999999991
40
0.499999999999993
40
0.499999999999993
40
0.624999999999994
40
0.624999999999994
40
0.749999999999996
40
0.749999999999996
40
1
40
1
40
1
40
1
41
1
10
60.5609049383015
20
-0.787506238402415
30
0
41
1
10
60.5946872513156
20
-0.755192278583166
30
0
41
1
10
60.6302966938688
20
-0.710298963926959
30
0
41
1
10
60.6866286967724
20
-0.62562022033228
30
0
41
1
10
60.7058934012995
20
-0.594415861348409
30
0
41
1
10
60.7441854210074
20
-0.528264421300463
30
0
41
1
10
60.7633664048739
20
-0.493094714574255
30
0
41
1
10
60.8017796174637
20
-0.418744041011195
30
0
41
1
10
60.821138351961
20
-0.379281096694996
30
0
41
1
10
60.8590652957678
20
-0.298054788776369
30
0
41
1
10
60.8776565954677
20
-0.256277888701249
30
0
41
1
10
60.9322927332285
20
-0.127645093405818
30
0
41
1
10
60.9674325871778
20
-0.0368374175603776
30
0
41
1
10
60.9998370140229
20
0.055684990862801
30
0
0
SPLINE
5
DC
100
AcDbEntity
8
1
62
256
6
ByLayer
370
18
48
1
60
0
100
AcDbSpline
70
4
71
3
72
8
73
4
40
0
40
0
40
0
40
0
40
1
40
1
40
1
40
1
41
1
10
11.0283244975038
20
-2.55106569613548
30
0
41
1
10
11.188503583056
20
-2.55858537922273
30
0
41
1
10
11.3481753911418
20
-2.56244331839292
30
0
41
1
10
11.5074542738198
20
-2.56269954957742
30
0
0
SPLINE
5
DD
100
AcDbEntity
8
1
62
256
6
ByLayer
370
18
48
1
60
0
100
AcDbSpline
70
4
71
3
72
58
73
54
40
0
40
0
40
0
40
0
40
0.0689961480962599
40
0.0689961480962599
40
0.0874246466754579
40
0.0874246466754579
40
0.105853145254656
40
0.105853145254656
40
0.142710142413051
40
0.142710142413051
40
0.179567139571446
40
0.179567139571446
40
0.216424136729841
40
0.216424136729841
40
0.253281133888236
40
0.253281133888236
40
0.271709632467433
40
0.271709632467433
40
0.29013813104663
40
0.29013813104663
40
0.326995128205023
40
0.326995128205023
40
0.345423626784219
40
0.345423626784219
40
0.363852125363415
40
0.363852125363415
40
0.4375661196802
40
0.4375661196802
40
0.511280113996986
40
0.511280113996986
40
0.548137111155379
40
0.548137111155379
40
0.584994108313772
40
0.584994108313772
40
0.621851105472166
40
0.621851105472166
40
0.658708102630559
40
0.658708102630559
40
0.695565099788953
40
0.695565099788953
40
0.732422096947346
40
0.732422096947346
40
0.806136091264132
40
0.806136091264132
40
0.842993088422524
40
0.842993088422524
40
0.879850085580917
40
0.879850085580917
40
0.91670708273931
40
0.91670708273931
40
0.953564079897703
40
0.953564079897703
40
1
40
1
40
1
40
1
41
1
10
23.415908295418
20
1.69700870180844
30
0
41
1
10
23.8968315708014
20
1.87759471460856
30
0
41
1
10
24.3764582697246
20
2.03606899481085
30
0
41
1
10
24.9872037969378
20
2.20244580910591
30
0
41
1
10
25.1156714837149
20
2.2356373789126
30
0
41
1
10
25.372039662755
20
2.29748287173069
30
0
41
1
10
25.5000072175702
20
2.3262155882563
30
0
41
1
10
25.8829570152718
20
2.40619918155605
30
0
41
1
10
26.137475766838
20
2.45078667779308
30
0
41
1
10
26.6456266322029
20
2.52225556817811
30
0
41
1
10
26.8995264785795
20
2.54899914989522
30
0
41
1
10
27.4073031402717
20
2.58436430703009
30
0
41
1
10
27.6613261173156
20
2.5928904169393
30
0
41
1
10
28.1710761130436
20
2.59131674418995
30
0
41
1
10
28.4265182639855
20
2.58120353733523
30
0
41
1
10
28.8117259917149
20
2.55188474711062
30
0
41
1
10
28.9404702254747
20
2.53969896795275
30
0
41
1
10
29.197544313935
20
2.51082664107602
30
0
41
1
10
29.3259643942156
20
2.49411447693245
30
0
41
1
10
29.7108633496884
20
2.43715939844333
30
0
41
1
10
29.9671422486232
20
2.3901810732761
30
0
41
1
10
30.3518975955732
20
2.30675843346611
30
0
41
1
10
30.4803082926974
20
2.27689033961238
30
0
41
1
10
30.737282554676
20
2.212865822373
30
0
41
1
10
30.8659920114706
20
2.17863182403065
30
0
41
1
10
31.5078394120015
20
1.99859694058816
30
0
41
1
10
32.0161894898739
20
1.82464206759363
30
0
41
1
10
33.0311807709886
20
1.43040639296495
30
0
41
1
10
33.5378415145142
20
1.21015373532839
30
0
41
1
10
34.3029750913848
20
0.855820151775333
30
0
41
1
10
34.5592071367112
20
0.733816035778091
30
0
41
1
10
35.073342103848
20
0.483888075893219
30
0
41
1
10
35.3296638111904
20
0.35686089053209
30
0
41
1
10
35.8423222701861
20
0.101697708846388
30
0
41
1
10
36.0984255891966
20
-0.0269052888550334
30
0
41
1
10
36.6115156233881
20
-0.283477923493933
30
0
41
1
10
36.8690539667605
20
-0.411584615491108
30
0
41
1
10
37.3805834088724
20
-0.662762790035231
30
0
41
1
10
37.6354024256271
20
-0.78555065365461
30
0
41
1
10
38.1435083305855
20
-1.02497141753432
30
0
41
1
10
38.3969278008203
20
-1.14131891714425
30
0
41
1
10
39.1575311925145
20
-1.47623899579386
30
0
41
1
10
39.6642680982059
20
-1.68211464428143
30
0
41
1
10
40.4305407466467
20
-1.95304921554319
30
0
41
1
10
40.6877087537285
20
-2.0372365812965
30
0
41
1
10
41.2005558458531
20
-2.19000953642981
30
0
41
1
10
41.4566146249615
20
-2.25839236392619
30
0
41
1
10
41.9686681906883
20
-2.37858506110166
30
0
41
1
10
42.2246901554282
20
-2.43033449039365
30
0
41
1
10
42.7382001153936
20
-2.51588631586191
30
0
41
1
10
42.9945875714555
20
-2.54970631887628
30
0
41
1
10
43.5708586861832
20
-2.60465855689463
30
0
41
1
10
43.8905524271718
20
-2.62048589780329
30
0
41
1
10
44.20978582843
20
-2.62153191174846
30
0
0
SPLINE
5
DE
100
AcDbEntity
8
1
62
256
6
ByLayer
370
18
48
1
60
0
100
AcDbSpline
70
4
71
3
72
16
73
12
40
0
40
0
40
0
40
0
40
0.0380915857603155
40
0.0380915857603155
40
0.230473268608252
40
0.230473268608252
40
0.422854951456189
40
0.422854951456189
40
0.615236634304125
40
0.615236634304125
40
1
40
1
40
1
40
1
41
1
10
56.1175102937263
20
1.72882882165589
30
0
41
1
10
56.1675825460045
20
1.748103732521
30
0
41
1
10
56.2176473561412
20
1.76714685342321
30
0
41
1
10
56.5205271412445
20
1.88095414069008
30
0
41
1
10
56.7733424518911
20
1.96973057570281
30
0
41
1
10
57.280427083356
20
2.13276486521244
30
0
41
1
10
57.5343964404128
20
2.20740417310299
30
0
41
1
10
58.0448248174787
20
2.34068953149628
30
0
41
1
10
58.3016497633118
20
2.39958071824438
30
0
41
1
10
59.0678615067307
20
2.54871361981972
30
0
41
1
10
59.5756821171505
20
2.61226169902679
30
0
41
1
10
60.0850887943157
20
2.63797473146869
30
0
0
SPLINE
5
DF
100
AcDbEntity
8
1
62
256
6
ByLayer
370
18
48
1
60
0
100
AcDbSpline
70
4
71
3
72
14
73
10
40
0
40
0
40
0
40
0
40
0.25
40
0.25
40
0.5
40
0.5
40
0.75
40
0.75
40
1
40
1
40
1
40
1
41
1
10
6.30028952645483
20
-0.901579577606526
30
0
41
1
10
6.30025563115831
20
-0.936382615600735
30
0
41
1
10
6.31651552099763
20
-0.968332669680791
30
0
41
1
10
6.3579328626746
20
-1.02385084473914
30
0
41
1
10
6.38375897425885
20
-1.04795966699174
30
0
41
1
10
6.43880146654607
20
-1.09112558936286
30
0
41
1
10
6.4686205288626
20
-1.11049063992439
30
0
41
1
10
6.53027798850391
20
-1.14563044632163
30
0
41
1
10
6.56219343774984
20
-1.16144592784747
30
0
41
1
10
6.59504581712369
20
-1.17578198512041
30
0
0
SPLINE
5
E0
100
AcDbEntity
8
1
62
256
6
ByLayer
370
18
48
1
60
0
100
AcDbSpline
70
4
71
3
72
26
73
22
40
0
40
0
40
0
40
0
40
0.0993148203772742
40
0.0993148203772742
40
0.198629640754548
40
0.198629640754548
40
0.248287050943186
40
0.248287050943186
40
0.297944461131823
40
0.297944461131823
40
0.397259281509093
40
0.397259281509093
40
0.496574101886363
40
0.496574101886363
40
0.595888922263633
40
0.595888922263633
40
0.794518563018173
40
0.794518563018173
40
0.993148203772713
40
0.993148203772713
40
1
40
1
40
1
40
1
41
1
10
59.7235276295317
20
0.117366589391537
30
0
41
1
10
59.4615407201733
20
0.246651938844821
30
0
41
1
10
59.2003790977881
20
0.374830033622544
30
0
41
1
10
58.678850812317
20
0.627472626454676
30
0
41
1
10
58.4183320873866
20
0.75156570078039
30
0
41
1
10
58.0274225139936
20
0.933058420882816
30
0
41
1
10
57.8970249379921
20
0.992630771291232
30
0
41
1
10
57.6361621844
20
1.10995209937906
30
0
41
1
10
57.5056379042565
20
1.167593623974
30
0
41
1
10
57.1131923467522
20
1.33682671651854
30
0
41
1
10
56.8508626972275
20
1.44571584302307
30
0
41
1
10
56.3236715110557
20
1.65296221983064
30
0
41
1
10
56.0578916524635
20
1.75114358608056
30
0
41
1
10
55.5311200738881
20
1.93036448401455
30
0
41
1
10
55.2687889683954
20
2.01274294212414
30
0
41
1
10
54.4842617278488
20
2.23651698987734
30
0
41
1
10
53.9644201611418
20
2.35232163112127
30
0
41
1
10
52.9216799612074
20
2.50947882888841
30
0
41
1
10
52.3991321786366
20
2.55407553577376
30
0
41
1
10
51.8520679318925
20
2.55614663121364
30
0
41
1
10
51.8338143704055
20
2.55616721923104
30
0
41
1
10
51.8155519523521
20
2.55614004045202
30
0
0
SPLINE
5
E1
100
AcDbEntity
8
1
62
256
6
ByLayer
370
18
48
1
60
0
100
AcDbSpline
70
4
71
3
72
78
73
74
40
0
40
0
40
0
40
0
40
0.0263074124010342
40
0.0263074124010342
40
0.064595026369429
40
0.064595026369429
40
0.102882640337824
40
0.102882640337824
40
0.141170254306219
40
0.141170254306219
40
0.179457868274613
40
0.179457868274613
40
0.19860167525881
40
0.19860167525881
40
0.217745482243007
40
0.217745482243007
40
0.256033096211398
40
0.256033096211398
40
0.275176903195594
40
0.275176903195594
40
0.29432071017979
40
0.29432071017979
40
0.332608324148183
40
0.332608324148183
40
0.370895938116577
40
0.370895938116577
40
0.390039745100772
40
0.390039745100772
40
0.409183552084968
40
0.409183552084968
40
0.44747116605336
40
0.44747116605336
40
0.466614973037555
40
0.466614973037555
40
0.485758780021751
40
0.485758780021751
40
0.504902587005947
40
0.504902587005947
40
0.524046393990142
40
0.524046393990142
40
0.543190200974338
40
0.543190200974338
40
0.562334007958534
40
0.562334007958534
40
0.58147781494273
40
0.58147781494273
40
0.600621621926925
40
0.600621621926925
40
0.638909235895315
40
0.638909235895315
40
0.65805304287951
40
0.65805304287951
40
0.677196849863705
40
0.677196849863705
40
0.715484463832095
40
0.715484463832095
40
0.753772077800484
40
0.753772077800484
40
0.792059691768874
40
0.792059691768874
40
0.830347305737264
40
0.830347305737264
40
0.868634919705654
40
0.868634919705654
40
0.887778726689849
40
0.887778726689849
40
0.906922533674044
40
0.906922533674044
40
0.945210147642434
40
0.945210147642434
40
0.983497761610825
40
0.983497761610825
40
1
40
1
40
1
40
1
41
1
10
39.7529344875603
20
-1.71560085248487
30
0
41
1
10
39.5704993000397
20
-1.78085282484679
30
0
41
1
10
39.3879424506937
20
-1.84312211656618
30
0
41
1
10
38.9417620193192
20
-1.98672687173729
30
0
41
1
10
38.6785389411909
20
-2.06293761633114
30
0
41
1
10
38.1532369319041
20
-2.19967036951201
30
0
41
1
10
37.8911023953272
20
-2.26084834462304
30
0
41
1
10
37.366876613609
20
-2.36448058438398
30
0
41
1
10
37.1048711631033
20
-2.40662246571986
30
0
41
1
10
36.5797927650286
20
-2.47216089726064
30
0
41
1
10
36.3165591846058
20
-2.49666657298604
30
0
41
1
10
35.9202080112931
20
-2.51910575100069
30
0
41
1
10
35.7878249047093
20
-2.52419182914019
30
0
41
1
10
35.5223741723326
20
-2.52904889890419
30
0
41
1
10
35.3895570132466
20
-2.52869832746197
30
0
41
1
10
34.9925404381973
20
-2.51989288084459
30
0
41
1
10
34.729018754732
20
-2.5049810869763
30
0
41
1
10
34.3347469458081
20
-2.46722318948196
30
0
41
1
10
34.2035328970959
20
-2.45234313768015
30
0
41
1
10
33.9410476160677
20
-2.41908986052226
30
0
41
1
10
33.8098405522051
20
-2.40049175412884
30
0
41
1
10
33.4165958546209
20
-2.33725846425188
30
0
41
1
10
33.1544895277804
20
-2.28549548235355
30
0
41
1
10
32.6293762422116
20
-2.16332281694827
30
0
41
1
10
32.3664485224551
20
-2.09417492098976
30
0
41
1
10
31.9702535158785
20
-1.97773607666213
30
0
41
1
10
31.8379212633262
20
-1.93685309288514
30
0
41
1
10
31.5727148639383
20
-1.85189928497053
30
0
41
1
10
31.439626115434
20
-1.80780348881001
30
0
41
1
10
31.0412893778658
20
-1.67040413841605
30
0
41
1
10
30.7764099020349
20
-1.57197289205021
30
0
41
1
10
30.3793004333449
20
-1.41387917611675
30
0
41
1
10
30.2468653960446
20
-1.35973632873686
30
0
41
1
10
29.9818396391686
20
-1.24962015471644
30
0
41
1
10
29.8492741478179
20
-1.19340189116528
30
0
41
1
10
29.5838463304198
20
-1.07879189400538
30
0
41
1
10
29.4507316122919
20
-1.02055445520259
30
0
41
1
10
29.1855287679632
20
-0.902164291232623
30
0
41
1
10
29.0533083227083
20
-0.842072718054226
30
0
41
1
10
28.7894144519179
20
-0.720526261840718
30
0
41
1
10
28.6577859429128
20
-0.658981773823569
30
0
41
1
10
28.3948348028335
20
-0.535097663399768
30
0
41
1
10
28.2634397245505
20
-0.472906721626202
30
0
41
1
10
28.0009371030868
20
-0.347715614275671
30
0
41
1
10
27.8699287896188
20
-0.28450936941934
30
0
41
1
10
27.6077439511727
20
-0.158310447394172
30
0
41
1
10
27.4766795075525
20
-0.0950759266376906
30
0
41
1
10
27.0835086402016
20
0.0949148449845438
30
0
41
1
10
26.821232915402
20
0.221569960703533
30
0
41
1
10
26.4268965036903
20
0.410142820494713
30
0
41
1
10
26.2951967123957
20
0.472581453787455
30
0
41
1
10
26.031428159485
20
0.596829213956482
30
0
41
1
10
25.8993518291089
20
0.65861101286535
30
0
41
1
10
25.5020181769307
20
0.841834170178117
30
0
41
1
10
25.2358504736894
20
0.96215862459178
30
0
41
1
10
24.7079968302041
20
1.19181613204608
30
0
41
1
10
24.4453678187505
20
1.30112015485102
30
0
41
1
10
23.9206456639895
20
1.51030385022128
30
0
41
1
10
23.6586197463604
20
1.6096730208975
30
0
41
1
10
23.1348529102493
20
1.79467743074235
30
0
41
1
10
22.8728441209228
20
1.87906394080704
30
0
41
1
10
22.3476629407699
20
2.03556841176632
30
0
41
1
10
22.0845603035786
20
2.10734052064302
30
0
41
1
10
21.6881389927363
20
2.20277439877935
30
0
41
1
10
21.5557875138279
20
2.2325038868988
30
0
41
1
10
21.29013650937
20
2.28676728502802
30
0
41
1
10
21.1573148327386
20
2.31145466532723
30
0
41
1
10
20.7595029471919
20
2.37949590795162
30
0
41
1
10
20.4946860469713
20
2.4148454026969
30
0
41
1
10
19.9647681078581
20
2.46784588532392
30
0
41
1
10
19.6994922357872
20
2.48588150465977
30
0
41
1
10
19.3191172932825
20
2.4978077463129
30
0
41
1
10
19.2046932428982
20
2.49958455901014
30
0
41
1
10
19.090608598901
20
2.49926598821853
30
0
0
SPLINE
5
E2
100
AcDbEntity
8
1
62
256
6
ByLayer
370
18
48
1
60
0
100
AcDbSpline
70
4
71
3
72
30
73
26
40
0
40
0
40
0
40
0
40
0.249999999999995
40
0.249999999999995
40
0.374999999999993
40
0.374999999999993
40
0.437499999999994
40
0.437499999999994
40
0.499999999999995
40
0.499999999999995
40
0.562499999999995
40
0.562499999999995
40
0.624999999999996
40
0.624999999999996
40
0.687499999999997
40
0.687499999999997
40
0.749999999999997
40
0.749999999999997
40
0.812499999999998
40
0.812499999999998
40
0.874999999999998
40
0.874999999999998
40
0.937499999999999
40
0.937499999999999
40
1
40
1
40
1
40
1
41
1
10
6.30187902825722
20
-1.97334802749089
30
0
41
1
10
6.00706284503704
20
-2.08365063133553
30
0
41
1
10
5.72069782239356
20
-2.18790682303597
30
0
41
1
10
5.31176444428075
20
-2.3275201243921
30
0
41
1
10
5.17835684705298
20
-2.37137428873231
30
0
41
1
10
4.99030317110706
20
-2.42917755190561
30
0
41
1
10
4.92951295781981
20
-2.44715156936184
30
0
41
1
10
4.81256875414738
20
-2.47986433043334
30
0
41
1
10
4.7563067167842
20
-2.49461999496978
30
0
41
1
10
4.65172021110192
20
-2.51947904463435
30
0
41
1
10
4.6031276945028
20
-2.52966625919461
30
0
41
1
10
4.51509152931746
20
-2.54441019958006
30
0
41
1
10
4.47540678523254
20
-2.54898557727785
30
0
41
1
10
4.40898921253563
20
-2.55065008248869
30
0
41
1
10
4.3827860084366
20
-2.54775272289325
30
0
41
1
10
4.34651338205964
20
-2.53328248735997
30
0
41
1
10
4.33666351428369
20
-2.52147774888135
30
0
41
1
10
4.33552163846474
20
-2.48959089535003
30
0
41
1
10
4.34387760810665
20
-2.46948491513797
30
0
41
1
10
4.37811117950372
20
-2.42107224597066
30
0
41
1
10
4.40334553000031
20
-2.39364279409574
30
0
41
1
10
4.46718950696206
20
-2.33350276652323
30
0
41
1
10
4.50611794933226
20
-2.30057776399582
30
0
41
1
10
4.59254900562291
20
-2.23242827606202
30
0
41
1
10
4.64026878324745
20
-2.19697428342312
30
0
41
1
10
4.69156913846075
20
-2.16043691599225
30
0
0
SPLINE
5
E3
100
AcDbEntity
8
1
62
256
6
ByLayer
370
18
48
1
60
0
100
AcDbSpline
70
4
71
3
72
24
73
20
40
0
40
0
40
0
40
0
40
0.0625000000000019
40
0.0625000000000019
40
0.125000000000004
40
0.125000000000004
40
0.187500000000006
40
0.187500000000006
40
0.250000000000008
40
0.250000000000008
40
0.375000000000005
40
0.375000000000005
40
0.500000000000003
40
0.500000000000003
40
0.749999999999998
40
0.749999999999998
40
0.874999999999999
40
0.874999999999999
40
1
40
1
40
1
40
1
41
1
10
4.69156913846075
20
-2.16043691599225
30
0
41
1
10
4.73249721781059
20
-2.13128693706466
30
0
41
1
10
4.78246465988363
20
-2.10523823613048
30
0
41
1
10
4.8920290852588
20
-2.05793806573578
30
0
41
1
10
4.95028865499424
20
-2.03728546646502
30
0
41
1
10
5.07114815865131
20
-2.00012721781141
30
0
41
1
10
5.13405196082061
20
-1.98360438709727
30
0
41
1
10
5.26200219462498
20
-1.95426909964715
30
0
41
1
10
5.32667553165095
20
-1.94153076600563
30
0
41
1
10
5.52230853874551
20
-1.90807743963265
30
0
41
1
10
5.65485635809154
20
-1.89207043847969
30
0
41
1
10
5.92316701344612
20
-1.87050287407399
30
0
41
1
10
6.0592799209972
20
-1.86505197108275
30
0
41
1
10
6.46323772706148
20
-1.86349138456114
30
0
41
1
10
6.72979054811708
20
-1.88178665209023
30
0
41
1
10
7.12560650148382
20
-1.93471828776902
30
0
41
1
10
7.25764653445202
20
-1.95682067192868
30
0
41
1
10
7.51536505949048
20
-2.00790694196371
30
0
41
1
10
7.64114864279446
20
-2.03684642806408
30
0
41
1
10
7.76388204359142
20
-2.06826383262671
30
0
0
SPLINE
5
E4
100
AcDbEntity
8
1
62
256
6
ByLayer
370
13
48
1
60
0
100
AcDbSpline
70
4
71
3
72
87
73
83
40
0
40
0
40
0
40
0
40
0.005855889734649
40
0.0206956536332703
40
0.0429552994812015
40
0.0503751814305124
40
0.0652149453291331
40
0.0800547092277544
40
0.102314355075686
40
0.109734237024996
40
0.124574000923616
40
0.139413764822238
40
0.161673410670172
40
0.169093292619481
40
0.183933056518102
40
0.198772820416725
40
0.221032466264659
40
0.228452348213965
40
0.243292112112586
40
0.258131876011208
40
0.280391521859141
40
0.287811403808449
40
0.302651167707068
40
0.317490931605693
40
0.339750577453623
40
0.347170459402934
40
0.362010223301555
40
0.376849987200177
40
0.402819574022761
40
0.406529514997418
40
0.413949396946731
40
0.421369278896039
40
0.43620904279466
40
0.443628924743971
40
0.451048806693285
40
0.458468688642591
40
0.465888570591902
40
0.473308452541215
40
0.480728334490523
40
0.495568098389143
40
0.517827744237076
40
0.525247626186387
40
0.540087390085008
40
0.554927153983632
40
0.577186799831561
40
0.584606681780871
40
0.59944644567949
40
0.614286209578111
40
0.640255796400699
40
0.643965737375355
40
0.651385619324665
40
0.658805501273976
40
0.673645265172597
40
0.681065147121907
40
0.688485029071219
40
0.695904911020529
40
0.703324792969839
40
0.71074467491915
40
0.718164556868465
40
0.733004320767079
40
0.755263966615011
40
0.762683848564324
40
0.777523612462945
40
0.792363376361567
40
0.814623022209497
40
0.822042904158808
40
0.83688266805743
40
0.85172243195605
40
0.877692018778638
40
0.881401959753293
40
0.888821841702604
40
0.896241723651914
40
0.911081487550535
40
0.918501369499844
40
0.925921251449156
40
0.933341133398464
40
0.940761015347777
40
0.948180897297086
40
0.955600779246398
40
0.970440543145017
40
0.992700188992949
40
1
40
1
40
1
40
1
41
1.00000000000001
10
52.1752720516442
20
-0.0394590697545705
30
0
41
1.00000000000001
10
52.1544618649761
20
-0.0349822463943777
30
0
41
1.00000000000001
10
52.0809148048727
20
-0.019160934958421
30
0
41
1.00000000000001
10
51.9282639409443
20
0.0136900830271144
30
0
41
1.00000000000001
10
51.7700687228605
20
0.0478067862225937
30
0
41
1.00000000000001
10
51.6118708430112
20
0.081876946002665
30
0
41
1.00000000000001
10
51.4800284189302
20
0.110155484156563
30
0
41
1.00000000000001
10
51.2954513246118
20
0.14961993749739
30
0
41
1.00000000000001
10
51.1372560939291
20
0.183365597577788
30
0
41
1.00000000000001
10
50.9790582820447
20
0.216939539760174
30
0
41
1.00000000000001
10
50.847215955343
20
0.244722208345931
30
0
41
1.00000000000001
10
50.6626390222989
20
0.283348986273748
30
0
41
1.00000000000001
10
50.5044439181457
20
0.31622734714912
30
0
41
1.00000000000001
10
50.3462461757648
20
0.34880860380758
30
0
41
1.00000000000001
10
50.2144038560104
20
0.375682258435684
30
0
41
1.00000000000001
10
50.0298268558432
20
0.412894405499908
30
0
41
1.00000000000001
10
49.8716316382959
20
0.444413544297812
30
0
41
1.00000000000001
10
49.7134337684486
20
0.475516242717186
30
0
41
1.00000000000001
10
49.5815913415626
20
0.501081597655565
30
0
41
1.00000000000001
10
49.3970142011923
20
0.536328240629837
30
0
41
1.00000000000001
10
49.2388188843071
20
0.566022939708483
30
0
41
1.00000000000001
10
49.0806209461265
20
0.595188150371535
30
0
41
1.00000000000001
10
48.948778466795
20
0.619067880500375
30
0
41
1.00000000000001
10
48.7642012526823
20
0.651828910103
30
0
41
1.00000000000001
10
48.6060058852072
20
0.679261401866505
30
0
41
1.00000000000001
10
48.4478079131472
20
0.706059874883316
30
0
41
1.00000000000001
10
48.3159654796351
20
0.727903008689132
30
0
41
1.00000000000001
10
48.1182003327705
20
0.759794626696382
30
0
41
1.00000000000001
10
47.9600087209049
20
0.784500952188884
30
0
41
1.00000000000001
10
47.8281855750391
20
0.80451891104166
30
0
41
1.00000000000001
10
47.7622660161556
20
0.814349773624363
30
0
41
1.00000000000001
10
47.6567935828719
20
0.829811837436315
30
0
41
1.00000000000001
10
47.5513253697722
20
0.844925824193885
30
0
41
1.00000000000001
10
47.4458601370042
20
0.859681334034567
30
0
41
1.00000000000001
10
47.366759022192
20
0.870524820359085
30
0
41
1.00000000000001
10
47.2876579695545
20
0.881167421707422
30
0
41
1.00000000000001
10
47.208555927926
20
0.891606676773923
30
0
41
1.00000000000001
10
47.1294533162197
20
0.901840215522346
30
0
41
1.00000000000001
10
47.0239797279339
20
0.915175436214601
30
0
41
1.00000000000001
10
46.8657641111195
20
0.934500152164408
30
0
41
1.00000000000001
10
46.70756886298
20
0.952894256755447
30
0
41
1.00000000000001
10
46.5493710513247
20
0.970401212371702
30
0
41
1.00000000000001
10
46.4175286729886
20
0.984354195462704
30
0
41
1.00000000000001
10
46.2329515580206
20
1.0028299659672
30
0
41
1.00000000000001
10
46.0747562348691
20
1.01760202699079
30
0
41
1.00000000000001
10
45.9165582751266
20
1.03142471062775
30
0
41
1.00000000000001
10
45.784715827534
20
1.04227452962387
30
0
41
1.00000000000001
10
45.5869506059053
20
1.05732174194016
30
0
41
1.00000000000001
10
45.4287588757946
20
1.06814895673201
30
0
41
1.00000000000001
10
45.2969355958223
20
1.07637649424861
30
0
41
1.00000000000001
10
45.2310159633773
20
1.08028352526877
30
0
41
1.00000000000001
10
45.125543403157
20
1.08619057034186
30
0
41
1.00000000000001
10
45.0200750559617
20
1.09162359073152
30
0
41
1.00000000000001
10
44.9146097000525
20
1.09657612794818
30
0
41
1.00000000000001
10
44.8355085067581
20
1.10001864619595
30
0
41
1.00000000000001
10
44.7564073928863
20
1.10320654145277
30
0
41
1.00000000000001
10
44.6773053113877
20
1.10613746487015
30
0
41
1.00000000000001
10
44.5982026847125
20
1.10881140178215
30
0
41
1.00000000000001
10
44.4927291050996
20
1.11201152874033
30
0
41
1.00000000000001
10
44.3345135572562
20
1.11600838361871
30
0
41
1.00000000000001
10
44.1763184424879
20
1.11882322778992
30
0
41
1.00000000000001
10
44.0181207811471
20
1.12059730597029
30
0
41
1.00000000000001
10
43.8862785292659
20
1.12137485384612
30
0
41
1.00000000000001
10
43.7017015681835
20
1.12126272369848
30
0
41
1.00000000000001
10
43.543506327561
20
1.11993476405137
30
0
41
1.00000000000001
10
43.3853083794571
20
1.1175652797936
30
0
41
1.00000000000001
10
43.2534659052532
20
1.11489890010411
30
0
41
1.00000000000001
10
43.0557006162021
20
1.10960532136913
30
0
41
1.00000000000001
10
42.8975088317106
20
1.10403927892138
30
0
41
1.00000000000001
10
42.7656855407291
20
1.09856557137245
30
0
41
1.00000000000001
10
42.6997659072416
20
1.0956412474467
30
0
41
1.00000000000001
10
42.5942933485793
20
1.09062115663882
30
0
41
1.00000000000001
10
42.4888250049465
20
1.08511148981858
30
0
41
1.00000000000001
10
42.383359651938
20
1.07911187287955
30
0
41
1.00000000000001
10
42.304258463801
20
1.07435530608486
30
0
41
1.00000000000001
10
42.2251573563441
20
1.06935030300214
30
0
41
1.00000000000001
10
42.1460552821529
20
1.06409533114193
30
0
41
1.00000000000001
10
42.0669526578459
20
1.05859289339425
30
0
41
1.00000000000001
10
41.96147907025
20
1.05092154507971
30
0
41
1.00000000000001
10
41.8032634914972
20
1.03867456837536
30
0
41
1.00000000000001
10
41.6454949885816
20
1.02530615590631
30
0
41
1.00000000000001
10
41.5404565238813
20
1.01577492792949
30
0
41
1.00000000000001
10
41.5145162172597
20
1.01338217297722
30
0
0
SPLINE
5
E5
100
AcDbEntity
8
1
62
256
6
ByLayer
370
13
48
1
60
0
100
AcDbSpline
70
4
71
3
72
80
73
76
40
0
40
0
40
0
40
0
40
0.0037417770453351
40
0.0125582214962605
40
0.0301911103981132
40
0.0478239992999647
40
0.0786815548782087
40
0.0830897771036702
40
0.0919062215545969
40
0.100722666005524
40
0.118355554907376
40
0.127171999358302
40
0.135988443809228
40
0.144804888260154
40
0.15362133271108
40
0.162437777162007
40
0.171254221612933
40
0.188887110514785
40
0.215336443867564
40
0.224152888318491
40
0.241785777220344
40
0.259418666122195
40
0.285867999474974
40
0.2946844439259
40
0.312317332827753
40
0.329950221729605
40
0.360807777307848
40
0.36521599953331
40
0.374032443984237
40
0.382848888435163
40
0.400481777337015
40
0.409298221787942
40
0.418114666238868
40
0.426931110689794
40
0.435747555140721
40
0.444563999591647
40
0.453380444042573
40
0.471013332944425
40
0.497462666297204
40
0.50627911074813
40
0.523911999649982
40
0.541544888551835
40
0.567994221904614
40
0.576810666355541
40
0.594443555257393
40
0.612076444159245
40
0.642933999737487
40
0.64734222196295
40
0.656158666413876
40
0.664975110864802
40
0.682607999766655
40
0.691424444217581
40
0.700240888668508
40
0.709057333119434
40
0.71787377757036
40
0.726690222021287
40
0.735506666472213
40
0.753139555374065
40
0.779588888726844
40
0.78840533317777
40
0.806038222079622
40
0.823671110981475
40
0.850120444334254
40
0.85893688878518
40
0.876569777687033
40
0.894202666588885
40
0.925060222167127
40
0.92946844439259
40
0.938284888843516
40
0.947101333294442
40
0.9581218888581
40
0.964734222196295
40
0.97134655553449
40
0.982367111098147
40
1
40
1
40
1
40
1
41
1.00000000000001
10
19.4774685997527
20
-0.0399374220797593
30
0
41
1.00000000000001
10
19.466278571178
20
-0.0375255221963467
30
0
41
1.00000000000001
10
19.4287223706748
20
-0.0294293237051587
30
0
41
1.00000000000001
10
19.3384332934632
20
-0.0099572857722591
30
0
41
1.00000000000001
10
19.2065908191212
20
0.0184186066602477
30
0
41
1.00000000000001
10
19.0088255169566
20
0.0609285971118816
30
0
41
1.00000000000001
10
18.8506337143823
20
0.0949907656960808
30
0
41
1.00000000000001
10
18.7188104071934
20
0.123332005668941
30
0
41
1.00000000000001
10
18.6528907673076
20
0.137432443135366
30
0
41
1.00000000000001
10
18.5474182058804
20
0.159933865901534
30
0
41
1.00000000000001
10
18.4419498721861
20
0.182392946830445
30
0
41
1.00000000000001
10
18.3364845403111
20
0.204797283101696
30
0
41
1.00000000000001
10
18.2573833684294
20
0.221529366418534
30
0
41
1.00000000000001
10
18.1782822785156
20
0.238210584413506
30
0
41
1.00000000000001
10
18.0991802218338
20
0.254839114999354
30
0
41
1.00000000000001
10
18.0200776246512
20
0.271410137643753
30
0
41
1.00000000000001
10
17.9146040953215
20
0.293389374806449
30
0
41
1.00000000000001
10
17.7563886417132
20
0.32611008751746
30
0
41
1.00000000000001
10
17.598193640059
20
0.358598973996745
30
0
41
1.00000000000001
10
17.4399960919621
20
0.390751626177969
30
0
41
1.00000000000001
10
17.3081539315885
20
0.417242925288942
30
0
41
1.00000000000001
10
17.1235770809795
20
0.45387549556096
30
0
41
1.00000000000001
10
16.965381902832
20
0.484851534593583
30
0
41
1.00000000000001
10
16.8071839759662
20
0.515373246898287
30
0
41
1.00000000000001
10
16.6753414853
20
0.540430405965304
30
0
41
1.00000000000001
10
16.4775761145368
20
0.577356141738755
30
0
41
1.00000000000001
10
16.3193842215571
20
0.606319646290438
30
0
41
1.00000000000001
10
16.1875608339623
20
0.630022116512685
30
0
41
1.00000000000001
10
16.1216411519105
20
0.641720118576182
30
0
41
1.00000000000001
10
16.0161685176
20
0.66022151923891
30
0
41
1.00000000000001
10
15.9107001044293
20
0.678453494771695
30
0
41
1.00000000000001
10
15.8052346932864
20
0.696404544446487
30
0
41
1.00000000000001
10
15.726133467518
20
0.709681231740028
30
0
41
1.00000000000001
10
15.6470323297919
20
0.722794138691135
30
0
41
1.00000000000001
10
15.5679302338638
20
0.735740900684781
30
0
41
1.00000000000001
10
15.4888275980513
20
0.748518272856607
30
0
41
1.00000000000001
10
15.3833540073382
20
0.765290754416177
30
0
41
1.00000000000001
10
15.2251384466927
20
0.789872562205054
30
0
41
1.00000000000001
10
15.0669433238093
20
0.813697193373164
30
0
41
1.00000000000001
10
14.9087456558382
20
0.83676349365796
30
0
41
1.00000000000001
10
14.7769033987701
20
0.855422128851776
30
0
41
1.00000000000001
10
14.5923264322961
20
0.880622392334904
30
0
41
1.00000000000001
10
14.4341311904048
20
0.901306651929663
30
0
41
1.00000000000001
10
14.2759332441992
20
0.92114954293253
30
0
41
1.00000000000001
10
14.1440907843214
20
0.937074075768625
30
0
41
1.00000000000001
10
13.9463255450727
20
0.959849749261782
30
0
41
1.00000000000001
10
13.7881338199536
20
0.976997746279342
30
0
41
1.00000000000001
10
13.656310579912
20
0.990565667107394
30
0
41
1.00000000000001
10
13.5903909713528
20
0.997149061826964
30
0
41
1.00000000000001
10
13.4849184498548
20
1.00736128186195
30
0
41
1.00000000000001
10
13.3794501381834
20
1.01713998450105
30
0
41
1.00000000000001
10
13.2739848115439
20
1.02647717039871
30
0
41
1.00000000000001
10
13.1948836415937
20
1.03322150634374
30
0
41
1.00000000000001
10
13.1157825495719
20
1.03972731340325
30
0
41
1.00000000000001
10
13.0366804873015
20
1.0459922150147
30
0
41
1.00000000000001
10
12.9575778700367
20
1.05201527086665
30
0
41
1.00000000000001
10
12.8521042850808
20
1.0596948010391
30
0
41
1.00000000000001
10
12.6938886963596
20
1.07044237962673
30
0
41
1.00000000000001
10
12.53569350287
20
1.08008292487931
30
0
41
1.00000000000001
10
12.3774957527562
20
1.08871835362068
30
0
41
1.00000000000001
10
12.2456534253057
20
1.09522074466323
30
0
41
1.00000000000001
10
12.0610763727745
20
1.10314827627402
30
0
41
1.00000000000001
10
11.9028810870703
20
1.1087454353244
30
0
41
1.00000000000001
10
11.7446831422322
20
1.11330751390485
30
0
41
1.00000000000001
10
11.6128407047533
20
1.11640497494467
30
0
41
1.00000000000001
10
11.4150755160706
20
1.11974487829672
30
0
41
1.00000000000001
10
11.2568838376304
20
1.12109636297253
30
0
41
1.00000000000001
10
11.1250606254538
20
1.12137974658542
30
0
41
1.00000000000001
10
11.0591410237128
20
1.1213200875762
30
0
41
1.00000000000001
10
10.973447340372
20
1.12096873626625
30
0
41
1.00000000000001
10
10.8943471789952
20
1.12036130971895
30
0
41
1.00000000000001
10
10.8218383867426
20
1.11956896499705
30
0
41
1.00000000000001
10
10.7493264142735
20
1.11858577503064
30
0
41
1.00000000000001
10
10.6438526598897
20
1.11680148395893
30
0
41
1.00000000000001
10
10.558164384808
20
1.11493648521919
30
0
41
1.00000000000001
10
10.5054337591818
20
1.11362164788271
30
0
0
SPLINE
5
E6
100
AcDbEntity
8
1
62
256
6
ByLayer
370
18
48
1
60
0
100
AcDbSpline
70
4
71
3
72
54
73
50
40
0
40
0
40
0
40
0
40
0.0555062153060507
40
0.0555062153060507
40
0.111012430612101
40
0.111012430612101
40
0.166518645918152
40
0.166518645918152
40
0.222024861224203
40
0.222024861224203
40
0.277531076530253
40
0.277531076530253
40
0.333037291836304
40
0.333037291836304
40
0.388543507142355
40
0.388543507142355
40
0.41629661479538
40
0.41629661479538
40
0.444049722448406
40
0.444049722448406
40
0.499555937754455
40
0.499555937754455
40
0.52730904540748
40
0.52730904540748
40
0.555062153060505
40
0.555062153060505
40
0.610568368366555
40
0.610568368366555
40
0.638321476019581
40
0.638321476019581
40
0.666074583672606
40
0.666074583672606
40
0.693827691325631
40
0.693827691325631
40
0.721580798978657
40
0.721580798978657
40
0.777087014284706
40
0.777087014284706
40
0.832593229590756
40
0.832593229590756
40
0.86034633724378
40
0.86034633724378
40
0.888099444896805
40
0.888099444896805
40
0.943605660202855
40
0.943605660202855
40
0.999111875508904
40
0.999111875508904
40
1
40
1
40
1
40
1
41
1
10
9.14871791669384
20
0.836989212395082
30
0
41
1
10
9.41392982015546
20
0.718243483630857
30
0
41
1
10
9.67823898361627
20
0.596219568750797
30
0
41
1
10
10.2067537434387
20
0.34923655143669
30
0
41
1
10
10.4707170012153
20
0.223588091063448
30
0
41
1
10
10.9995856475434
20
-0.0286588421334955
30
0
41
1
10
11.265074051394
20
-0.155625671911451
30
0
41
1
10
11.7928005283444
20
-0.406795027761575
30
0
41
1
10
12.055411684458
20
-0.530580021898004
30
0
41
1
10
12.5796418394161
20
-0.771774757710233
30
0
41
1
10
12.8409576529029
20
-0.890274100829544
30
0
41
1
10
13.363489809491
20
-1.11970044025821
30
0
41
1
10
13.6245874557629
20
-1.23046083258328
30
0
41
1
10
14.1477627837028
20
-1.44157010364469
30
0
41
1
10
14.4098118915793
20
-1.54243475674852
30
0
41
1
10
14.8040197065099
20
-1.68603478567292
30
0
41
1
10
14.9357654628253
20
-1.7321602764838
30
0
41
1
10
15.1998987458937
20
-1.82099940609055
30
0
41
1
10
15.332400380273
20
-1.86389878644286
30
0
41
1
10
15.7294930274191
20
-1.98648565684204
30
0
41
1
10
15.9936328185494
20
-2.06025124524322
30
0
41
1
10
16.3896874669339
20
-2.1610240703339
30
0
41
1
10
16.5215570919371
20
-2.1931098804682
30
0
41
1
10
16.7856180397248
20
-2.25118771145779
30
0
41
1
10
16.9177665046266
20
-2.27766302648286
30
0
41
1
10
17.3146562174755
20
-2.35050626247221
30
0
41
1
10
17.5799087424768
20
-2.39004840112929
30
0
41
1
10
17.9762782152388
20
-2.43734794703528
30
0
41
1
10
18.1083614217675
20
-2.45093193935071
30
0
41
1
10
18.3724615082991
20
-2.47272155628326
30
0
41
1
10
18.5044327842938
20
-2.48107336082879
30
0
41
1
10
18.7685511494382
20
-2.49361389198981
30
0
41
1
10
18.9006611718342
20
-2.49772478460329
30
0
41
1
10
19.1650627777355
20
-2.50012354773816
30
0
41
1
10
19.297592823643
20
-2.49843772029806
30
0
41
1
10
19.6949538669646
20
-2.48611178129843
30
0
41
1
10
19.9593684767175
20
-2.4682506873003
30
0
41
1
10
20.4876506313117
20
-2.41568116373861
30
0
41
1
10
20.7516754806641
20
-2.38064401010902
30
0
41
1
10
21.1483630003451
20
-2.31307656529393
30
0
41
1
10
21.2808961406468
20
-2.28852903693698
30
0
41
1
10
21.5455530694917
20
-2.23471123906518
30
0
41
1
10
21.6774283692291
20
-2.20523049965067
30
0
41
1
10
22.0724546770116
20
-2.11048458731912
30
0
41
1
10
22.3347078400019
20
-2.03918764644524
30
0
41
1
10
22.8582823642438
20
-1.88363241893109
30
0
41
1
10
23.1195356039272
20
-1.79976350513232
30
0
41
1
10
23.3849240653424
20
-1.7063429719409
30
0
41
1
10
23.3891035753036
20
-1.70486996152135
30
0
41
1
10
23.3932831342285
20
-1.70339517805437
30
0
0
SPLINE
5
E7
100
AcDbEntity
8
1
62
256
6
ByLayer
370
18
48
1
60
0
100
AcDbSpline
70
4
71
3
72
62
73
58
40
0
40
0
40
0
40
0
40
0.0295516055149399
40
0.0295516055149399
40
0.0677327076174527
40
0.0677327076174527
40
0.105913809719965
40
0.105913809719965
40
0.144094911822478
40
0.144094911822478
40
0.182276013924991
40
0.182276013924991
40
0.220457116027504
40
0.220457116027504
40
0.258638218130017
40
0.258638218130017
40
0.29681932023253
40
0.29681932023253
40
0.335000422335043
40
0.335000422335043
40
0.373181524437556
40
0.373181524437556
40
0.411362626540068
40
0.411362626540068
40
0.430453177591326
40
0.430453177591326
40
0.449543728642583
40
0.449543728642583
40
0.487724830745096
40
0.487724830745096
40
0.506815381796353
40
0.506815381796353
40
0.525905932847609
40
0.525905932847609
40
0.564087034950122
40
0.564087034950122
40
0.583177586001379
40
0.583177586001379
40
0.602268137052637
40
0.602268137052637
40
0.64044923915515
40
0.64044923915515
40
0.678630341257663
40
0.678630341257663
40
0.716811443360175
40
0.716811443360175
40
0.754992545462688
40
0.754992545462688
40
0.793173647565201
40
0.793173647565201
40
0.869535851770227
40
0.869535851770227
40
0.945898055975252
40
0.945898055975252
40
0.984079158077766
40
0.984079158077766
40
1
40
1
40
1
40
1
41
1
10
35.4406095106812
20
2.5281100003819
30
0
41
1
10
35.6450775227857
20
2.52881213972634
30
0
41
1
10
35.8487077469248
20
2.5231453069853
30
0
41
1
10
36.3143809070465
20
2.4968007105916
30
0
41
1
10
36.576114870577
20
2.47251103774153
30
0
41
1
10
37.0985784530751
20
2.4075147611529
30
0
41
1
10
37.3595050257768
20
2.365749681599
30
0
41
1
10
37.8820260933458
20
2.26282493658198
30
0
41
1
10
38.1435485774121
20
2.20200550974889
30
0
41
1
10
38.6679877255893
20
2.06586363944763
30
0
41
1
10
38.9309624521362
20
1.98997797850268
30
0
41
1
10
39.4599151888375
20
1.82017323421337
30
0
41
1
10
39.7244294478354
20
1.72780716170769
30
0
41
1
10
40.2520658338086
20
1.53177707632804
30
0
41
1
10
40.5156008031823
20
1.42799242836099
30
0
41
1
10
41.0437159724914
20
1.20795174482555
30
0
41
1
10
41.3087054031587
20
1.09220828978971
30
0
41
1
10
41.8374445183921
20
0.854499632062215
30
0
41
1
10
42.101149062656
20
0.732142813943426
30
0
41
1
10
42.6288104391601
20
0.482167878104292
30
0
41
1
10
42.8926384022313
20
0.354784567434933
30
0
41
1
10
43.4218517391469
20
0.0970041726862689
30
0
41
1
10
43.686199629738
20
-0.0324976363184817
30
0
41
1
10
44.082343481281
20
-0.225180414388973
30
0
41
1
10
44.2143105321599
20
-0.289334531471667
30
0
41
1
10
44.4780148084006
20
-0.41771827070599
30
0
41
1
10
44.6099205732085
20
-0.481491788243005
30
0
41
1
10
45.0061856818268
20
-0.6706559840826
30
0
41
1
10
45.2714316038187
20
-0.795057253432958
30
0
41
1
10
45.6669321438586
20
-0.975758619538567
30
0
41
1
10
45.7984743811303
20
-1.03502167981512
30
0
41
1
10
46.061172167756
20
-1.15172488879475
30
0
41
1
10
46.1923130084045
20
-1.20927898629876
30
0
41
1
10
46.585044583619
20
-1.37665908629299
30
0
41
1
10
46.8463119215841
20
-1.48279560370085
30
0
41
1
10
47.2380922145238
20
-1.63322646931397
30
0
41
1
10
47.3687058769961
20
-1.68172164156491
30
0
41
1
10
47.6298533575153
20
-1.77625099925422
30
0
41
1
10
47.7604389932861
20
-1.82229133305449
30
0
41
1
10
48.1527072572677
20
-1.95438843089539
30
0
41
1
10
48.4147902332253
20
-2.03459820369756
30
0
41
1
10
48.9410894413973
20
-2.17994957103275
30
0
41
1
10
49.2059826451378
20
-2.24554612895201
30
0
41
1
10
49.734359572476
20
-2.35888017029765
30
0
41
1
10
49.9980288113645
20
-2.40641980309945
30
0
41
1
10
50.5254349131757
20
-2.48244841601851
30
0
41
1
10
50.7891493607553
20
-2.51055616902261
30
0
41
1
10
51.3180325128369
20
-2.54722509928888
30
0
41
1
10
51.582259284676
20
-2.55649783414026
30
0
41
1
10
52.3704308703227
20
-2.55543216681667
30
0
41
1
10
52.8916846275845
20
-2.51260731269485
30
0
41
1
10
53.9352229161424
20
-2.35803741956374
30
0
41
1
10
54.4574279452856
20
-2.24319261780059
30
0
41
1
10
55.248593290348
20
-2.01896209626855
30
0
41
1
10
55.513578077279
20
-1.93600728981377
30
0
41
1
10
55.8873151319267
20
-1.80929915477148
30
0
41
1
10
55.9972409894237
20
-1.77069900961695
30
0
41
1
10
56.1071582804324
20
-1.73086712153798
30
0
0
SPLINE
5
E8
100
AcDbEntity
8
1
62
256
6
ByLayer
370
13
48
1
60
0
100
AcDbSpline
70
4
71
3
72
91
73
87
40
0
40
0
40
0
40
0
40
0.0002862327111872
40
0.015132315633967
40
0.0299783985567458
40
0.0522475229409147
40
0.0596705644023043
40
0.0745166473250821
40
0.0893627302478624
40
0.115343375362727
40
0.119054896093422
40
0.126477937554811
40
0.133900979016201
40
0.14874706193898
40
0.15617010340037
40
0.163593144861759
40
0.171016186323149
40
0.178439227784539
40
0.185862269245928
40
0.193285310707318
40
0.208131393630097
40
0.230400518014267
40
0.237823559475656
40
0.252669642398435
40
0.267515725321213
40
0.289784849705383
40
0.297207891166773
40
0.312053974089552
40
0.326900057012331
40
0.3491691813965
40
0.35659222285789
40
0.371438305780668
40
0.386284388703448
40
0.412265033818312
40
0.415976554549007
40
0.423399596010397
40
0.430822637471785
40
0.445668720394566
40
0.453091761855955
40
0.460514803317345
40
0.467937844778735
40
0.475360886240124
40
0.482783927701514
40
0.490206969162904
40
0.505053052085683
40
0.527322176469851
40
0.534745217931241
40
0.549591300854021
40
0.5644373837768
40
0.586706508160969
40
0.594129549622358
40
0.608975632545138
40
0.623821715467917
40
0.64980236058278
40
0.653513881313476
40
0.660936922774865
40
0.668359964236255
40
0.683206047159034
40
0.690629088620424
40
0.698052130081813
40
0.705475171543203
40
0.712898213004592
40
0.720321254465982
40
0.727744295927371
40
0.742590378850151
40
0.76485950323432
40
0.772282544695709
40
0.787128627618491
40
0.801974710541269
40
0.824243834925436
40
0.831666876386826
40
0.846512959309606
40
0.861359042232383
40
0.887339687347248
40
0.891051208077943
40
0.898474249539333
40
0.905897291000723
40
0.920743373923502
40
0.928166415384892
40
0.93558945684628
40
0.943012498307673
40
0.950435539769061
40
0.95785858123045
40
0.965281622691837
40
0.980127705614618
40
1
40
1
40
1
40
1
41
1
10
38.1218567340285
20
-1.01393956997893
30
0
41
1
10
38.1208400065788
20
-1.01403318385996
30
0
41
1
10
38.0670885507782
20
-1.01897910977846
30
0
41
1
10
37.9606083277887
20
-1.0284440736167
30
0
41
1
10
37.7760448824902
20
-1.04373048784012
30
0
41
1
10
37.6178339922675
20
-1.0556572683937
30
0
41
1
10
37.4596257101369
20
-1.0666087050252
30
0
41
1
10
37.3277962552684
20
-1.07508230528927
30
0
41
1
10
37.1300535536231
20
-1.08651991568624
30
0
41
1
10
36.9718388835458
20
-1.09435089829228
30
0
41
1
10
36.8399901305907
20
-1.10006118303062
30
0
41
1
10
36.7740737419875
20
-1.10272792741435
30
0
41
1
10
36.6686086729683
20
-1.10664339492539
30
0
41
1
10
36.5631394054484
20
-1.11006594982496
30
0
41
1
10
36.4576671637496
20
-1.11299793100827
30
0
41
1
10
36.3785651596704
20
-1.11492428558483
30
0
41
1
10
36.2994630839146
20
-1.11659397634799
30
0
41
1
10
36.2203619865991
20
-1.11800945492891
30
0
41
1
10
36.1412614581525
20
-1.11916872633822
30
0
41
1
10
36.0357975355873
20
-1.12034805378528
30
0
41
1
10
35.8776069042569
20
-1.1213073283154
30
0
41
1
10
35.7193959431025
20
-1.12106906783478
30
0
41
1
10
35.5611875734463
20
-1.11980702060748
30
0
41
1
10
35.4293581338973
20
-1.11805211157269
30
0
41
1
10
35.2447946825473
20
-1.1143825557993
30
0
41
1
10
35.0865837764671
20
-1.11001990110606
30
0
41
1
10
34.9283754604176
20
-1.10463786708104
30
0
41
1
10
34.7965460252029
20
-1.09944674302505
30
0
41
1
10
34.6119825259277
20
-1.09098235051769
30
0
41
1
10
34.4537715759764
20
-1.08254208276614
30
0
41
1
10
34.2955632801005
20
-1.07311080504039
30
0
41
1
10
34.1637338703287
20
-1.06455962957284
30
0
41
1
10
33.9659913282189
20
-1.05046845916857
30
0
41
1
10
33.8077768415187
20
-1.03798616808339
30
0
41
1
10
33.6759282304869
20
-1.02683313223028
30
0
41
1
10
33.6100119007851
20
-1.02105208881423
30
0
41
1
10
33.5045468886599
20
-1.01147028662913
30
0
41
1
10
33.3990776249069
20
-1.00145040539243
30
0
41
1
10
33.2936053573574
20
-0.991002160163646
30
0
41
1
10
33.214503340928
20
-0.982912218301493
30
0
41
1
10
33.1354012567208
20
-0.974595358766663
30
0
41
1
10
33.0563001565402
20
-0.966055195396024
30
0
41
1
10
32.9771996207313
20
-0.957292744199094
30
0
41
1
10
32.8717356699942
20
-0.945281521982224
30
0
41
1
10
32.7135449625352
20
-0.926557502283401
30
0
41
1
10
32.5553338786904
20
-0.906903909855572
30
0
41
1
10
32.3971253592906
20
-0.886423104954105
30
0
41
1
10
32.2652957982879
20
-0.868759883196788
30
0
41
1
10
32.0807322291043
20
-0.843091523923817
30
0
41
1
10
31.9225213047798
20
-0.820210807886639
30
0
41
1
10
31.7643130778926
20
-0.796582744746189
30
0
41
1
10
31.6324837312527
20
-0.77634700797006
30
0
41
1
10
31.4347412667832
20
-0.745062920787092
30
0
41
1
10
31.2765268143402
20
-0.719230490930897
30
0
41
1
10
31.1446782018921
20
-0.697202761050676
30
0
41
1
10
31.0787618717539
20
-0.686025040020695
30
0
41
1
10
30.9732968683663
20
-0.667911876985272
30
0
41
1
10
30.8678276263737
20
-0.649521227568243
30
0
41
1
10
30.7623553905404
20
-0.630866445525839
30
0
41
1
10
30.6832533976177
20
-0.616704133079509
30
0
41
1
10
30.6041513358952
20
-0.602399326101533
30
0
41
1
10
30.5250502557809
20
-0.58795568075368
30
0
41
1
10
30.4459497367197
20
-0.57337645425892
30
0
41
1
10
30.3404858037508
20
-0.553727916121801
30
0
41
1
10
30.1822951109376
20
-0.52381951920637
30
0
41
1
10
30.0240840166047
20
-0.493448653021858
30
0
41
1
10
29.865875461504
20
-0.462632127351014
30
0
41
1
10
29.7340458435405
20
-0.436602363579936
30
0
41
1
10
29.5494821505834
20
-0.39969260103507
30
0
41
1
10
29.3912710933083
20
-0.367683036895443
30
0
41
1
10
29.2330627344648
20
-0.335341032849726
30
0
41
1
10
29.1012332832381
20
-0.308115116971777
30
0
41
1
10
28.903490691038
20
-0.266893411010983
30
0
41
1
10
28.7452761886402
20
-0.233699902682702
30
0
41
1
10
28.6134275874675
20
-0.2059037237984
30
0
41
1
10
28.5475112747942
20
-0.191920314099036
30
0
41
1
10
28.4420463232271
20
-0.169474217312285
30
0
41
1
10
28.3365771636847
20
-0.146975359677555
30
0
41
1
10
28.2311050281822
20
-0.124437855242377
30
0
41
1
10
28.1520031141143
20
-0.10748579464763
30
0
41
1
10
28.0729011327976
20
-0.0905088135989729
30
0
41
1
10
27.993800131983
20
-0.0735098154965215
30
0
41
1
10
27.9146996896899
20
-0.0564935963599567
30
0
41
1
10
27.8092358548416
20
-0.0337630745983972
30
0
41
1
10
27.659558333679
20
-0.0014434825168337
30
0
41
1
10
27.5362309979228
20
0.0250999924070356
30
0
41
1
10
27.4656403599298
20
0.0402790672358719
30
0
0
SPLINE
5
E9
100
AcDbEntity
8
1
62
256
6
ByLayer
370
18
48
1
60
0
100
AcDbSpline
70
4
71
3
72
18
73
14
40
0
40
0
40
0
40
0
40
0.160368590010927
40
0.160368590010927
40
0.328294872008742
40
0.328294872008742
40
0.496221154006556
40
0.496221154006556
40
0.664147436004371
40
0.664147436004371
40
0.832073718002185
40
0.832073718002185
40
1
40
1
40
1
40
1
41
1
10
59.555750610849
20
0.200165087503223
30
0
41
1
10
59.5791607059867
20
0.213808229601597
30
0
41
1
10
59.6047805882304
20
0.23322966563876
30
0
41
1
10
59.66190349413
20
0.284817657239358
30
0
41
1
10
59.6935399294555
20
0.31757574138885
30
0
41
1
10
59.7590424827739
20
0.392698458867073
30
0
41
1
10
59.7934763308552
20
0.435664831982592
30
0
41
1
10
59.864346594047
20
0.530546715080078
30
0
41
1
10
59.9001282043706
20
0.581534355297407
30
0
41
1
10
59.9723402398986
20
0.690194217527562
30
0
41
1
10
60.0090561698854
20
0.748352599016272
30
0
41
1
10
60.0803786167619
20
0.867527881464866
30
0
41
1
10
60.1153254533564
20
0.928828414175939
30
0
41
1
10
60.1486561522611
20
0.992326029346543
30
0
0
SPLINE
5
EA
100
AcDbEntity
8
1
62
256
6
ByLayer
370
18
48
1
60
0
100
AcDbSpline
70
4
71
3
72
12
73
8
40
0
40
0
40
0
40
0
40
0.37156853780487
40
0.37156853780487
40
0.685784268902435
40
0.685784268902435
40
1
40
1
40
1
40
1
41
1
10
6.52278294766583
20
1.87278700233134
30
0
41
1
10
6.68069051498563
20
1.8812861348726
30
0
41
1
10
6.83764685324758
20
1.89621004912661
30
0
41
1
10
7.12560650149342
20
1.93471828777052
30
0
41
1
10
7.25764653446208
20
1.95682067193047
30
0
41
1
10
7.51536505950122
20
2.00790694196607
30
0
41
1
10
7.64114864280549
20
2.03684642806672
30
0
41
1
10
7.76388204360273
20
2.06826383262961
30
0
0
SPLINE
5
EB
100
AcDbEntity
8
1
62
256
6
ByLayer
370
18
48
1
60
0
100
AcDbSpline
70
4
71
3
72
8
73
4
40
0
40
0
40
0
40
0
40
1
40
1
40
1
40
1
41
1
10
60.9793357804409
20
-0.114249666457823
30
0
41
1
10
60.7469502970978
20
-0.781546709506102
30
0
41
1
10
60.517751828664
20
-1.4499304113846
30
0
41
1
10
60.2917717706095
20
-2.11941147683294
30
0
0
SPLINE
5
EC
100
AcDbEntity
8
1
62
256
6
ByLayer
370
13
48
1
60
0
100
AcDbSpline
70
4
71
3
72
22
73
18
40
0
40
0
40
0
40
0
40
0.125
40
0.125
40
0.25
40
0.25
40
0.375
40
0.375
40
0.5
40
0.5
40
0.625
40
0.625
40
0.75
40
0.75
40
0.875
40
0.875
40
1
40
1
40
1
40
1
41
1
10
6.68693168030552
20
-0.989306869414861
30
0
41
1
10
6.68689229810502
20
-0.872017385028386
30
0
41
1
10
6.68685597211726
20
-0.751612555876193
30
0
41
1
10
6.68679096898597
20
-0.504617195763359
30
0
41
1
10
6.68676258077045
20
-0.378894136318991
30
0
41
1
10
6.68671549891539
20
-0.127678932372987
30
0
41
1
10
6.68669661851936
20
-0.0015062926543976
30
0
41
1
10
6.68666815604411
20
0.25198568516376
30
0
41
1
10
6.68665865123253
20
0.379611486341958
30
0
41
1
10
6.68664867448038
20
0.627327773995518
30
0
41
1
10
6.68664804617916
20
0.748528402747695
30
0
41
1
10
6.68665374251304
20
0.98561047252187
30
0
41
1
10
6.68666016823573
20
1.10238108623781
30
0
41
1
10
6.68667736955572
20
1.32358780346377
30
0
41
1
10
6.68668810426541
20
1.42856650809347
30
0
41
1
10
6.68671109641556
20
1.62741908815141
30
0
41
1
10
6.68672342271739
20
1.72173275767599
30
0
41
1
10
6.68673494920429
20
1.80907264801311
30
0
0
SPLINE
5
ED
100
AcDbEntity
8
1
62
256
6
ByLayer
370
18
48
1
60
0
100
AcDbSpline
70
4
71
3
72
18
73
14
40
0
40
0
40
0
40
0
40
0.114987833082968
40
0.211821354559305
40
0.286673528350215
40
0.364845590075306
40
0.446288548261438
40
0.527786416714486
40
0.664723657464901
40
0.795954538072871
40
0.847508494042607
40
0.922935762261032
40
1
40
1
40
1
40
1
41
1
10
35.4478669750033
20
2.52816248844832
30
0
41
1
10
35.2348620088608
20
2.52747719798356
30
0
41
1
10
34.8424768063941
20
2.52636275572166
30
0
41
1
10
34.3113816939373
20
2.52374528584397
30
0
41
1
10
33.8485454408431
20
2.52400855610156
30
0
41
1
10
33.4141809083886
20
2.52476245165667
30
0
41
1
10
32.9675054084972
20
2.5236546757495
30
0
41
1
10
32.4119675087232
20
2.52165452423532
30
0
41
1
10
31.76419145614
20
2.51975025306504
30
0
41
1
10
31.171889353171
20
2.52002695913222
30
0
41
1
10
30.6935309972782
20
2.51940747268071
30
0
41
1
10
30.3155736889419
20
2.51774825200553
30
0
41
1
10
30.0330644201942
20
2.51717313245899
30
0
41
1
10
29.8902986767009
20
2.51692190347842
30
0
0
SPLINE
5
EE
100
AcDbEntity
8
1
62
256
6
ByLayer
370
18
48
1
60
0
100
AcDbSpline
70
4
71
3
72
20
73
16
40
0
40
0
40
0
40
0
40
0.0976583908137101
40
0.17983096049346
40
0.24099982275877
40
0.302854439236754
40
0.370527819052432
40
0.437635192496379
40
0.501693874084262
40
0.602036721800026
40
0.693056262378531
40
0.737351877952517
40
0.796079252107964
40
0.886597293620218
40
1
40
1
40
1
40
1
41
1
10
12.7219049977954
20
-2.48632955040497
30
0
41
1
10
12.9296840462616
20
-2.48676727351804
30
0
41
1
10
13.3123385791548
20
-2.48749839230811
30
0
41
1
10
13.8254493549872
20
-2.48859174294319
30
0
41
1
10
14.2621247282929
20
-2.48895395815558
30
0
41
1
10
14.6680399706166
20
-2.49002076844093
30
0
41
1
10
15.0866239848945
20
-2.49123832997799
30
0
41
1
10
15.5098947459155
20
-2.49169245655776
30
0
41
1
10
16.0027123733292
20
-2.49163412087253
30
0
41
1
10
16.5464237439397
20
-2.49496538515285
30
0
41
1
10
17.0480766003416
20
-2.49466177704551
30
0
41
1
10
17.4611329599771
20
-2.49424568509127
30
0
41
1
10
17.8731201348225
20
-2.49485163729423
30
0
41
1
10
18.4322184979621
20
-2.49719717469344
30
0
41
1
10
18.8663044420377
20
-2.49843798783206
30
0
41
1
10
19.1077052067321
20
-2.49915736260167
30
0
0
SPLINE
5
EF
100
AcDbEntity
8
1
62
256
6
ByLayer
370
18
48
1
60
0
100
AcDbSpline
70
4
71
3
72
19
73
15
40
0
40
0
40
0
40
0
40
0.112445775114855
40
0.197442217343433
40
0.261880624219989
40
0.328849109941142
40
0.39881632233102
40
0.468862250938048
40
0.586534740984084
40
0.699206420824505
40
0.743294214103333
40
0.808430074344768
40
0.898012756246973
40
1
40
1
40
1
40
1
41
1
10
45.3755614008095
20
-2.54563946777981
30
0
41
1
10
45.6158576993197
20
-2.54588954496839
30
0
41
1
10
46.0378404807886
20
-2.54643597715372
30
0
41
1
10
46.5979014507495
20
-2.54790118416116
30
0
41
1
10
47.0604236846349
20
-2.54855568924074
30
0
41
1
10
47.4910152530102
20
-2.54867595990217
30
0
41
1
10
47.9335728387338
20
-2.55057198888162
30
0
41
1
10
48.4845544266063
20
-2.55099584359576
30
0
41
1
10
49.126842212286
20
-2.55109662773509
30
0
41
1
10
49.713625834866
20
-2.55290720918146
30
0
41
1
10
50.1880787503865
20
-2.55384214926679
30
0
41
1
10
50.6131598213494
20
-2.55469667877108
30
0
41
1
10
51.1620426000862
20
-2.55414261468786
30
0
41
1
10
51.5716503671928
20
-2.55535574609397
30
0
41
1
10
51.7897154291783
20
-2.55617740979025
30
0
0
SPLINE
5
F0
100
AcDbEntity
8
1
62
256
6
ByLayer
370
18
48
1
60
0
100
AcDbSpline
70
4
71
3
72
17
73
13
40
0
40
0
40
0
40
0
40
0.118573837188476
40
0.219464303323238
40
0.288711334948603
40
0.339143185386827
40
0.389413838772532
40
0.638105741098175
40
0.734307479791589
40
0.82329577605116
40
0.900566863875474
40
1
40
1
40
1
40
1
41
1
10
51.7892739026615
20
2.55617773027291
30
0
41
1
10
51.5693778928758
20
2.55535008583684
30
0
41
1
10
51.162379526873
20
2.55415206678001
30
0
41
1
10
50.6269606126654
20
2.55468523927712
30
0
41
1
10
50.2179123527872
20
2.55390386448698
30
0
41
1
10
49.9027373010091
20
2.55328386397662
30
0
41
1
10
49.254780286003
20
2.55166221536874
30
0
41
1
10
48.5219388757449
20
2.55172468321226
30
0
41
1
10
47.7172975887739
20
2.54948816035832
30
0
41
1
10
47.230556995282
20
2.54859175723234
30
0
41
1
10
46.7378258101168
20
2.54819721240955
30
0
41
1
10
46.4101284918947
20
2.54746428397115
30
0
41
1
10
46.2257339149577
20
2.5470941743161
30
0
0
SPLINE
5
F1
100
AcDbEntity
8
1
62
256
6
ByLayer
370
18
48
1
60
0
100
AcDbSpline
70
4
71
3
72
20
73
16
40
0
40
0
40
0
40
0
40
0.104573517859528
40
0.19427273393831
40
0.259019393579017
40
0.330791465831615
40
0.396871110807372
40
0.461445824058952
40
0.529152920774322
40
0.602650877800145
40
0.706261375619851
40
0.806632265685953
40
0.888354016495236
40
0.995047422641609
40
1
40
1
40
1
40
1
41
1
10
19.1076227869297
20
2.49914893592572
30
0
41
1
10
18.9119070503099
20
2.49846997747952
30
0
41
1
10
18.5483134471722
20
2.49719926627842
30
0
41
1
10
18.0635379765003
20
2.49602682625246
30
0
41
1
10
17.6401580875872
20
2.4941672333893
30
0
41
1
10
17.2609785796661
20
2.49443047756486
30
0
41
1
10
16.8821224075312
20
2.4948511142523
30
0
41
1
10
16.5108710226675
20
2.49448505187536
30
0
41
1
10
16.1257448232881
20
2.49182327217415
30
0
41
1
10
15.6675516593341
20
2.49181503020074
30
0
41
1
10
15.1482267340741
20
2.49144745150841
30
0
41
1
10
14.6135119150641
20
2.48973707279896
30
0
41
1
10
14.0730255148042
20
2.48877712764994
30
0
41
1
10
13.7111288570563
20
2.48835383478638
30
0
41
1
10
13.5021816744995
20
2.48800922107208
30
0
41
1
10
13.4929128562218
20
2.48799374051856
30
0
0
SPLINE
5
F2
100
AcDbEntity
8
1
62
256
6
ByLayer
370
18
48
1
60
0
100
AcDbSpline
70
4
71
2
72
6
73
3
40
0
40
0
40
0
40
1
40
1
40
1
41
1
10
27.484513796597
20
0.0362203765915865
30
0
41
1
10
26.9802106834573
20
0.143723188779489
30
0
41
1
10
26.4819179832596
20
0.386308701414635
30
0
0
SPLINE
5
F3
100
AcDbEntity
8
1
62
256
6
ByLayer
370
18
48
1
60
0
100
AcDbSpline
70
4
71
2
72
6
73
3
40
0
40
0
40
0
40
1
40
1
40
1
41
1
10
52.1594637331328
20
-0.0360583033337036
30
0
41
1
10
52.7205974951648
20
-0.158201842614091
30
0
41
1
10
53.2665787971921
20
-0.43476725930924
30
0
0
SPLINE
5
F4
100
AcDbEntity
8
1
62
256
6
ByLayer
370
18
48
1
60
0
100
AcDbSpline
70
4
71
2
72
6
73
3
40
0
40
0
40
0
40
1
40
1
40
1
41
1
10
35.8093097126889
20
-0.0360143427428454
30
0
41
1
10
36.3634373788776
20
-0.157017928557565
30
0
41
1
10
36.8776760789363
20
-0.418251146944499
30
0
0
SPLINE
5
F5
100
AcDbEntity
8
1
62
256
6
ByLayer
370
18
48
1
60
0
100
AcDbSpline
70
4
71
3
72
19
73
15
40
0
40
0
40
0
40
0
40
0.102309425017671
40
0.182470807636175
40
0.234587373861677
40
0.278938332546519
40
0.324243846243009
40
0.50872107559751
40
0.580379015251569
40
0.651344532425119
40
0.715460054532713
40
0.78347805218167
40
0.881423955624411
40
1
40
1
40
1
40
1
41
1
10
29.0644183499923
20
-2.51563889733211
30
0
41
1
10
29.2821297022087
20
-2.51592686095228
30
0
41
1
10
29.670436817862
20
-2.51663982565918
30
0
41
1
10
30.1697215609843
20
-2.51721989684356
30
0
41
1
10
30.5456226695185
20
-2.51889228719787
30
0
41
1
10
30.8473591338806
20
-2.51963119465276
30
0
41
1
10
31.4307961025131
20
-2.52009754620636
30
0
41
1
10
32.0723518292864
20
-2.52109427141642
30
0
41
1
10
32.7685162585962
20
-2.52273180784005
30
0
41
1
10
33.2085142743714
20
-2.52446168988988
30
0
41
1
10
33.6407691424437
20
-2.52460474891492
30
0
41
1
10
34.1304459757709
20
-2.52318981855936
30
0
41
1
10
34.7360259792175
20
-2.52619646524983
30
0
41
1
10
35.1968457138876
20
-2.52734269153203
30
0
41
1
10
35.4492086954489
20
-2.52817575008197
30
0
0
SPLINE
5
F6
100
AcDbEntity
8
1
62
256
6
ByLayer
370
18
48
1
60
0
100
AcDbSpline
70
4
71
3
72
10
73
6
40
0
40
0
40
0
40
0
40
0.444824029053416
40
0.708111042430553
40
1
40
1
40
1
40
1
41
1
10
43.8341934479049
20
0.0362469797352389
30
0
41
1
10
43.6962410515394
20
0.064189676902771
30
0
41
1
10
43.4638944825525
20
0.127840300626701
30
0
41
1
10
43.1013713399043
20
0.260235789095418
30
0
41
1
10
42.8943795397826
20
0.35318147268751
30
0
41
1
10
42.7831462168782
20
0.407339358690223
30
0
0
SPLINE
5
F7
100
AcDbEntity
8
1
62
256
6
ByLayer
370
18
48
1
60
0
100
AcDbSpline
70
4
71
3
72
11
73
7
40
0
40
0
40
0
40
0
40
0.215715560929176
40
0.465685169529476
40
0.751455445953144
40
1
40
1
40
1
40
1
41
1
10
11.1344469900066
20
0.0362744625336404
30
0
41
1
10
11.076362927394
20
0.0483350641563334
30
0
41
1
10
10.9443890796962
20
0.0798880618861801
30
0
41
1
10
10.7033936942426
20
0.149973092732381
30
0
41
1
10
10.4357569039482
20
0.246302096162196
30
0
41
1
10
10.2455103263455
20
0.331787062638028
30
0
41
1
10
10.1550733858159
20
0.375538920685102
30
0
0
SPLINE
5
F8
100
AcDbEntity
8
1
62
256
6
ByLayer
370
18
48
1
60
0
100
AcDbSpline
70
4
71
2
72
6
73
3
40
0
40
0
40
0
40
1
40
1
40
1
41
1
10
19.4590381195485
20
-0.0359645730860905
30
0
41
1
10
19.98929754128
20
-0.149502137653144
30
0
41
1
10
20.5024754744463
20
-0.407651770122328
30
0
0
SPLINE
5
F9
100
AcDbEntity
8
1
62
256
6
ByLayer
370
18
48
1
60
0
100
AcDbSpline
70
4
71
2
72
6
73
3
40
0
40
0
40
0
40
1
40
1
40
1
41
1
10
59.6846032065374
20
0.179914735090421
30
0
41
1
10
59.4126119879071
20
0.260985492581568
30
0
41
1
10
59.1418385574242
20
0.402909576045232
30
0
0
LINE
5
7B
100
AcDbEntity
8
SK1
62
256
6
ByLayer
370
18
48
1
60
0
100
AcDbLine
10
-34.989637
20
3
30
0
11
-34.989637
21
-3
31
0
39
0
210
0
220
0
230
1
0
LINE
5
7D
100
AcDbEntity
8
SK1
62
256
6
ByLayer
370
18
48
1
60
0
100
AcDbLine
10
0
20
-3
30
0
11
0
21
3
31
0
39
0
210
0
220
0
230
1
0
LINE
5
7E
100
AcDbEntity
8
SK1
62
256
6
ByLayer
370
18
48
1
60
0
100
AcDbLine
10
-36
20
1.25
30
0
11
-36
21
-1.25
31
0
39
0
210
0
220
0
230
1
0
LINE
5
7F
100
AcDbEntity
8
1
62
256
6
ByLayer
370
13
48
1
60
0
100
AcDbLine
10
0.579288
20
2.772033
30
0
11
0.579288
21
-2.772033
31
0
39
0
210
0
220
0
230
1
0
LINE
5
80
100
AcDbEntity
8
1
62
256
6
ByLayer
370
18
48
1
60
0
100
AcDbLine
10
0
20
-3
30
0
11
0
21
3
31
0
39
0
210
0
220
0
230
1
0
LINE
5
81
100
AcDbEntity
8
1
62
256
6
ByLayer
370
18
48
1
60
0
100
AcDbLine
10
59.710921
20
-1.4523
30
0
11
60.519434
21
-0.803204
31
0
39
0
210
0
220
0
230
1
0
LINE
5
82
100
AcDbEntity
8
1
62
256
6
ByLayer
370
13
48
1
60
0
100
AcDbLine
10
1.160106
20
2.544068
30
0
11
1.160106
21
-2.544068
31
0
39
0
210
0
220
0
230
1
0
LINE
5
83
100
AcDbEntity
8
80
62
256
6
ByLayer
370
18
48
1
60
0
100
AcDbLine
10
0
20
0
30
0
11
-5
21
0
31
0
39
0
210
0
220
0
230
1
0
LINE
5
84
100
AcDbEntity
8
4
62
256
6
ByLayer
370
18
48
0.05
60
0
100
AcDbLine
10
61
20
0
30
0
11
0
21
0
31
0
39
0
210
0
220
0
230
1
0
LINE
5
86
100
AcDbEntity
8
SK4
62
256
6
ByLayer
370
18
48
0.05
60
0
100
AcDbLine
10
66
20
0
30
0
11
-41
21
0
31
0
39
0
210
0
220
0
230
1
0
LINE
5
88
100
AcDbEntity
8
1
62
256
6
ByLayer
370
18
48
1
60
0
100
AcDbLine
10
27.864894
20
-2.592136
30
0
11
28.625998
21
-2.593506
31
0
39
0
210
0
220
0
230
1
0
LINE
5
89
100
AcDbEntity
8
1
62
256
6
ByLayer
370
18
48
1
60
0
100
AcDbLine
10
28.625998
20
2.593506
30
0
11
27.864894
21
2.592136
31
0
39
0
210
0
220
0
230
1
0
LINE
5
8A
100
AcDbEntity
8
SK1
62
256
6
ByLayer
370
18
48
1
60
0
100
AcDbLine
10
-36
20
-1.25
30
0
11
-34.989637
21
-3
31
0
39
0
210
0
220
0
230
1
0
LINE
5
8B
100
AcDbEntity
8
SK1
62
256
6
ByLayer
370
18
48
1
60
0
100
AcDbLine
10
-34.989637
20
3
30
0
11
-36
21
1.25
31
0
39
0
210
0
220
0
230
1
0
LINE
5
8C
100
AcDbEntity
8
SK1
62
256
6
ByLayer
370
18
48
1
60
0
100
AcDbLine
10
-34.989637
20
-3
30
0
11
0
21
-3
31
0
39
0
210
0
220
0
230
1
0
LINE
5
8D
100
AcDbEntity
8
SK1
62
256
6
ByLayer
370
18
48
1
60
0
100
AcDbLine
10
0
20
3
30
0
11
-34.989637
21
3
31
0
39
0
210
0
220
0
230
1
0
LINE
5
8E
100
AcDbEntity
8
1
62
256
6
ByLayer
370
18
48
1
60
0
100
AcDbLine
10
1.160106
20
-2.544068
30
0
11
4.438631
21
-2.549969
31
0
39
0
210
0
220
0
230
1
0
LINE
5
8F
100
AcDbEntity
8
1
62
256
6
ByLayer
370
18
48
1
60
0
100
AcDbLine
10
11.505394
20
-2.562689
30
0
11
12.277881
21
-2.56408
31
0
39
0
210
0
220
0
230
1
0
LINE
5
90
100
AcDbEntity
8
1
62
256
6
ByLayer
370
18
48
1
60
0
100
AcDbLine
10
44.22458
20
-2.621584
30
0
11
44.97656
21
-2.622937
31
0
39
0
210
0
220
0
230
1
0
LINE
5
91
100
AcDbEntity
8
1
62
256
6
ByLayer
370
18
48
1
60
0
100
AcDbLine
10
44.97656
20
2.622937
30
0
11
44.22458
21
2.621584
31
0
39
0
210
0
220
0
230
1
0
LINE
5
92
100
AcDbEntity
8
1
62
256
6
ByLayer
370
18
48
1
60
0
100
AcDbLine
10
12.277881
20
2.56408
30
0
11
11.505394
21
2.562689
31
0
39
0
210
0
220
0
230
1
0
LINE
5
93
100
AcDbEntity
8
1
62
256
6
ByLayer
370
18
48
1
60
0
100
AcDbLine
10
4.438631
20
2.549969
30
0
11
1.160106
21
2.544068
31
0
39
0
210
0
220
0
230
1
0
LINE
5
94
100
AcDbEntity
8
81
62
256
6
ByLayer
370
18
48
1
60
0
100
AcDbLine
10
61
20
0
30
0
11
66
21
0
31
0
39
0
210
0
220
0
230
1
0
LINE
5
95
100
AcDbEntity
8
SK2
62
256
6
ByLayer
370
13
48
1
60
0
100
AcDbLine
10
-44.625163
20
32.117107
30
0
11
-44.625163
21
-11.75
31
0
39
0
210
0
220
0
230
1
0
LINE
5
97
100
AcDbEntity
8
SK2
62
256
6
ByLayer
370
13
48
1
60
0
100
AcDbLine
10
-37.5875
20
3
30
0
11
-46.625163
21
3
31
0
39
0
210
0
220
0
230
1
0
LINE
5
98
100
AcDbEntity
8
SK2
62
256
6
ByLayer
370
13
48
1
60
0
100
AcDbLine
10
-37.5875
20
-3
30
0
11
-46.625163
21
-3
31
0
39
0
210
0
220
0
230
1
0
LINE
5
99
100
AcDbEntity
8
1
62
256
6
ByLayer
370
18
48
1
60
1
100
AcDbLine
10
-44.625163
20
3
30
0
11
-45.085946
21
6.499998
31
0
39
0
210
0
220
0
230
1
0
LINE
5
9A
100
AcDbEntity
8
1
62
256
6
ByLayer
370
18
48
1
60
1
100
AcDbLine
10
-45.085946
20
6.499998
30
0
11
-44.164379
21
6.500002
31
0
39
0
210
0
220
0
230
1
0
LINE
5
9B
100
AcDbEntity
8
1
62
256
6
ByLayer
370
18
48
1
60
1
100
AcDbLine
10
-44.164379
20
6.500002
30
0
11
-44.625163
21
3
31
0
39
0
210
0
220
0
230
1
0
LINE
5
9C
100
AcDbEntity
8
1
62
256
6
ByLayer
370
18
48
1
60
1
100
AcDbLine
10
-44.625163
20
-3
30
0
11
-44.164379
21
-6.499998
31
0
39
0
210
0
220
0
230
1
0
LINE
5
9D
100
AcDbEntity
8
1
62
256
6
ByLayer
370
18
48
1
60
1
100
AcDbLine
10
-44.164379
20
-6.499998
30
0
11
-45.085946
21
-6.500002
31
0
39
0
210
0
220
0
230
1
0
LINE
5
9E
100
AcDbEntity
8
1
62
256
6
ByLayer
370
18
48
1
60
1
100
AcDbLine
10
-45.085946
20
-6.500002
30
0
11
-44.625163
21
-3
31
0
39
0
210
0
220
0
230
1
0
LINE
5
9F
100
AcDbEntity
8
2
62
256
6
ByLayer
370
13
48
1
60
0
100
AcDbLine
10
73.083343
20
30.360193
30
0
11
73.083343
21
-11.4
31
0
39
0
210
0
220
0
230
1
0
LINE
5
A1
100
AcDbEntity
8
2
62
256
6
ByLayer
370
13
48
1
60
0
100
AcDbLine
10
61.5988
20
2.65
30
0
11
75.083343
21
2.65
31
0
39
0
210
0
220
0
230
1
0
LINE
5
A2
100
AcDbEntity
8
2
62
256
6
ByLayer
370
13
48
1
60
0
100
AcDbLine
10
61.5988
20
-2.65
30
0
11
75.083343
21
-2.65
31
0
39
0
210
0
220
0
230
1
0
LINE
5
A3
100
AcDbEntity
8
1
62
256
6
ByLayer
370
18
48
1
60
1
100
AcDbLine
10
73.083343
20
2.65
30
0
11
72.622559
21
6.149998
31
0
39
0
210
0
220
0
230
1
0
LINE
5
A4
100
AcDbEntity
8
1
62
256
6
ByLayer
370
18
48
1
60
1
100
AcDbLine
10
72.622559
20
6.149998
30
0
11
73.544126
21
6.150002
31
0
39
0
210
0
220
0
230
1
0
LINE
5
A5
100
AcDbEntity
8
1
62
256
6
ByLayer
370
18
48
1
60
1
100
AcDbLine
10
73.544126
20
6.150002
30
0
11
73.083343
21
2.65
31
0
39
0
210
0
220
0
230
1
0
LINE
5
A6
100
AcDbEntity
8
1
62
256
6
ByLayer
370
18
48
1
60
1
100
AcDbLine
10
73.083343
20
-2.65
30
0
11
73.544126
21
-6.149998
31
0
39
0
210
0
220
0
230
1
0
LINE
5
A7
100
AcDbEntity
8
1
62
256
6
ByLayer
370
18
48
1
60
1
100
AcDbLine
10
73.544126
20
-6.149998
30
0
11
72.622559
21
-6.150002
31
0
39
0
210
0
220
0
230
1
0
LINE
5
A8
100
AcDbEntity
8
1
62
256
6
ByLayer
370
18
48
1
60
1
100
AcDbLine
10
72.622559
20
-6.150002
30
0
11
73.083343
21
-2.65
31
0
39
0
210
0
220
0
230
1
0
LINE
5
100
100
AcDbEntity
8
1
62
256
6
ByLayer
370
18
48
1
60
1
100
AcDbLine
10
-44.625163
20
3
30
0
11
-45.085946
21
6.499998
31
0
39
0
210
0
220
0
230
1
0
LINE
5
101
100
AcDbEntity
8
1
62
256
6
ByLayer
370
18
48
1
60
1
100
AcDbLine
10
-45.085946
20
6.499998
30
0
11
-44.164379
21
6.500002
31
0
39
0
210
0
220
0
230
1
0
LINE
5
102
100
AcDbEntity
8
1
62
256
6
ByLayer
370
18
48
1
60
1
100
AcDbLine
10
-44.164379
20
6.500002
30
0
11
-44.625163
21
3
31
0
39
0
210
0
220
0
230
1
0
LINE
5
104
100
AcDbEntity
8
1
62
256
6
ByLayer
370
18
48
1
60
1
100
AcDbLine
10
-44.625163
20
-3
30
0
11
-44.164379
21
-6.499998
31
0
39
0
210
0
220
0
230
1
0
LINE
5
105
100
AcDbEntity
8
1
62
256
6
ByLayer
370
18
48
1
60
1
100
AcDbLine
10
-44.164379
20
-6.499998
30
0
11
-45.085946
21
-6.500002
31
0
39
0
210
0
220
0
230
1
0
LINE
5
106
100
AcDbEntity
8
1
62
256
6
ByLayer
370
18
48
1
60
1
100
AcDbLine
10
-45.085946
20
-6.500002
30
0
11
-44.625163
21
-3
31
0
39
0
210
0
220
0
230
1
0
LINE
5
10A
100
AcDbEntity
8
1
62
256
6
ByLayer
370
18
48
1
60
1
100
AcDbLine
10
73.083343
20
2.65
30
0
11
72.622559
21
6.149998
31
0
39
0
210
0
220
0
230
1
0
LINE
5
10B
100
AcDbEntity
8
1
62
256
6
ByLayer
370
18
48
1
60
1
100
AcDbLine
10
72.622559
20
6.149998
30
0
11
73.544126
21
6.150002
31
0
39
0
210
0
220
0
230
1
0
LINE
5
10C
100
AcDbEntity
8
1
62
256
6
ByLayer
370
18
48
1
60
1
100
AcDbLine
10
73.544126
20
6.150002
30
0
11
73.083343
21
2.65
31
0
39
0
210
0
220
0
230
1
0
LINE
5
10E
100
AcDbEntity
8
1
62
256
6
ByLayer
370
18
48
1
60
1
100
AcDbLine
10
73.083343
20
-2.65
30
0
11
73.544126
21
-6.149998
31
0
39
0
210
0
220
0
230
1
0
LINE
5
10F
100
AcDbEntity
8
1
62
256
6
ByLayer
370
18
48
1
60
1
100
AcDbLine
10
73.544126
20
-6.149998
30
0
11
72.622559
21
-6.150002
31
0
39
0
210
0
220
0
230
1
0
LINE
5
110
100
AcDbEntity
8
1
62
256
6
ByLayer
370
18
48
1
60
1
100
AcDbLine
10
72.622559
20
-6.150002
30
0
11
73.083343
21
-2.65
31
0
39
0
210
0
220
0
230
1
0
MTEXT
5
FA
100
AcDbEntity
8
SK6
62
256
6
ByLayer
370
13
48
1
60
0
100
AcDbMText
10
-15.793293
20
35.190328
30
0
210
0
220
0
230
1
1
\W0.7433;860.1-0530-047A1-PM P1BM
40
3.5
41
0
44
1.084337
50
0
71
7
72
5
7
iso_b_vert
0
MTEXT
5
FE
100
AcDbEntity
8
SK2
62
256
6
ByLayer
370
18
48
1
60
0
100
AcDbMText
10
-46.189796
20
16.409024
30
0
210
0
220
0
230
1
1
%%c
40
3.5
41
0
44
1.084337
50
90
71
7
72
5
7
iso_b_vert
0
MTEXT
5
FF
100
AcDbEntity
8
SK2
62
256
6
ByLayer
370
18
48
1
60
0
100
AcDbMText
10
-46.189796
20
21.63168
30
0
210
0
220
0
230
1
1
\W0.7317;6,000
40
3.5
41
0
44
1.084337
50
90
71
7
72
5
7
iso_b_vert
0
MTEXT
5
108
100
AcDbEntity
8
2
62
256
6
ByLayer
370
18
48
1
60
0
100
AcDbMText
10
71.518709
20
14.65211
30
0
210
0
220
0
230
1
1
%%c
40
3.5
41
0
44
1.084337
50
90
71
7
72
5
7
iso_b_vert
0
MTEXT
5
109
100
AcDbEntity
8
2
62
256
6
ByLayer
370
18
48
1
60
0
100
AcDbMText
10
71.518709
20
19.874766
30
0
210
0
220
0
230
1
1
\W0.7317;5,300
40
3.5
41
0
44
1.084337
50
90
71
7
72
5
7
iso_b_vert
0
HATCH
5
103
100
AcDbEntity
8
SK2
62
256
6
ByLayer
370
13
48
1
60
0
100
AcDbHatch
10
0
20
0
30
0
210
0
220
0
230
1
2
ANSI31
70
0
71
0
91
1
92
5
93
3
72
1
10
-44.6251625675374
20
3
11
-45.0859463090902
21
6.49999830744682
72
1
10
-45.0859463090902
20
6.49999830744682
11
-44.1643788259847
21
6.50000169255318
72
1
10
-44.1643788259847
20
6.50000169255318
11
-44.6251625675374
21
3
97
0
75
0
76
1
52
0
41
0.0062
77
0
78
1
53
45
43
0
44
0
45
-0.0139193969876572
46
0.0139193969876572
79
0
47
0
98
1
10
0
20
0
0
HATCH
5
107
100
AcDbEntity
8
SK2
62
256
6
ByLayer
370
13
48
1
60
0
100
AcDbHatch
10
0
20
0
30
0
210
0
220
0
230
1
2
ANSI31
70
0
71
0
91
1
92
5
93
3
72
1
10
-44.6251625675374
20
-3
11
-44.1643788259847
21
-6.49999830744682
72
1
10
-44.1643788259847
20
-6.49999830744682
11
-45.0859463090902
21
-6.50000169255318
72
1
10
-45.0859463090902
20
-6.50000169255318
11
-44.6251625675374
21
-3
97
0
75
0
76
1
52
0
41
0.0062
77
0
78
1
53
45
43
0
44
0
45
-0.0139193969876572
46
0.0139193969876572
79
0
47
0
98
1
10
0
20
0
0
HATCH
5
10D
100
AcDbEntity
8
2
62
256
6
ByLayer
370
13
48
1
60
0
100
AcDbHatch
10
0
20
0
30
0
210
0
220
0
230
1
2
ANSI31
70
0
71
0
91
1
92
5
93
3
72
1
10
73.083342615295
20
2.65000000000001
11
72.6225588737422
21
6.14999830744682
72
1
10
72.6225588737422
20
6.14999830744682
11
73.5441263568477
21
6.15000169255319
72
1
10
73.5441263568477
20
6.15000169255319
11
73.083342615295
21
2.65000000000001
97
0
75
0
76
1
52
0
41
0.0062
77
0
78
1
53
45
43
0
44
0
45
-0.0139193969876572
46
0.0139193969876572
79
0
47
0
98
1
10
0
20
0
0
HATCH
5
111
100
AcDbEntity
8
2
62
256
6
ByLayer
370
13
48
1
60
0
100
AcDbHatch
10
0
20
0
30
0
210
0
220
0
230
1
2
ANSI31
70
0
71
0
91
1
92
5
93
3
72
1
10
73.083342615295
20
-2.64999999999998
11
73.5441263568477
21
-6.14999830744679
72
1
10
73.5441263568477
20
-6.14999830744679
11
72.6225588737422
21
-6.15000169255316
72
1
10
72.6225588737422
20
-6.15000169255316
11
73.083342615295
21
-2.64999999999998
97
0
75
0
76
1
52
0
41
0.0062
77
0
78
1
53
45
43
0
44
0
45
-0.0139193969876572
46
0.0139193969876572
79
0
47
0
98
1
10
0
20
0
0
DIMENSION
5
113
100
AcDbEntity
8
2
62
256
6
ByLayer
370
13
48
1
60
0
100
AcDbDimension
2
_U0
10
60.0113
20
-12.863398
30
0
11
30.00565
21
-12.863398
31
0
70
32
71
1
72
1
41
1
210
0
220
0
230
1
3
Standard
100
AcDbAlignedDimension
13
0
23
0
33
0
14
60.0113
24
-2.65
34
0
50
0
100
AcDbRotatedDimension
1001
ACAD
1000
DSTYLE
1002
{
1070
   371
1070
    13
1070
   372
1070
    13
1070
   170
1070
     0
1070
   144
1040
1.0
1070
   277
1070
     2
1070
   278
1070
    44
1070
   146
1040
1.0
1070
   345
1005
16
1070
   347
1005
16
1070
   346
1005
16
1070
   344
1005
0
1070
   343
1005
0
1070
   172
1070
     1
1070
    76
1070
     0
1070
    75
1070
     0
1070
   282
1070
     0
1070
   281
1070
     0
1070
    71
1070
     0
1070
    74
1070
     0
1070
   279
1070
     0
1070
   173
1070
     1
1070
   340
1005
FB
1070
   271
1070
     2
1070
   272
1070
     2
1070
    77
1070
     1
1070
    73
1070
     1
1070
   171
1070
     3
1070
   274
1070
     4
1070
   177
1070
    35
1070
   176
1070
    35
1070
   178
1070
    35
1070
    48
1040
-0.1
1070
    41
1040
3.5
1070
   147
1040
1.75
1070
    42
1040
1.5875
1070
    44
1040
2.0
1070
   140
1040
3.5
1002
}
1001
ACAD_DSTYLE_DIM_LINETYPE
1070
   380
1005
16
1001
ACAD_DSTYLE_DIM_EXT1_LINETYPE
1070
   381
1005
16
1001
ACAD_DSTYLE_DIM_EXT2_LINETYPE
1070
   382
1005
16
0
DIMENSION
5
12C
100
AcDbEntity
8
SK2
62
256
6
ByLayer
370
13
48
1
60
0
100
AcDbDimension
2
_U1
10
61
20
-31.692985
30
0
11
12.5
21
-31.692985
31
0
70
32
71
1
72
1
41
1
210
0
220
0
230
1
3
Standard
100
AcDbAlignedDimension
13
-36
23
-3
33
0
14
61
24
0
34
0
50
0
100
AcDbRotatedDimension
1001
ACAD
1000
DSTYLE
1002
{
1070
   371
1070
    13
1070
   372
1070
    13
1070
   170
1070
     0
1070
   144
1040
1.0
1070
   277
1070
     2
1070
   278
1070
    44
1070
   146
1040
1.0
1070
   345
1005
16
1070
   347
1005
16
1070
   346
1005
16
1070
   344
1005
0
1070
   343
1005
0
1070
   172
1070
     1
1070
    76
1070
     0
1070
    75
1070
     0
1070
   282
1070
     0
1070
   281
1070
     0
1070
    71
1070
     0
1070
    74
1070
     0
1070
   279
1070
     0
1070
   173
1070
     1
1070
   340
1005
FB
1070
   271
1070
     2
1070
   272
1070
     2
1070
    77
1070
     1
1070
    73
1070
     1
1070
   171
1070
     3
1070
   274
1070
     4
1070
   177
1070
    35
1070
   176
1070
    35
1070
   178
1070
    35
1070
    48
1040
-0.1
1070
    41
1040
3.5
1070
   147
1040
1.75
1070
    42
1040
1.5875
1070
    44
1040
2.0
1070
   140
1040
3.5
1002
}
1001
ACAD_DSTYLE_DIM_LINETYPE
1070
   380
1005
16
1001
ACAD_DSTYLE_DIM_EXT1_LINETYPE
1070
   381
1005
16
1001
ACAD_DSTYLE_DIM_EXT2_LINETYPE
1070
   382
1005
16
0
DIMENSION
5
144
100
AcDbEntity
8
SK2
62
256
6
ByLayer
370
13
48
1
60
0
100
AcDbDimension
2
_U2
10
61
20
14.259119
30
0
11
39.305
21
14.259119
31
0
70
32
71
1
72
1
41
1
210
0
220
0
230
1
3
Standard
100
AcDbAlignedDimension
13
17.61
23
2.65
33
0
14
61
24
0
34
0
50
0
100
AcDbRotatedDimension
1001
ACAD
1000
DSTYLE
1002
{
1070
   371
1070
    13
1070
   372
1070
    13
1070
   170
1070
     0
1070
   144
1040
1.0
1070
   277
1070
     2
1070
   278
1070
    44
1070
   146
1040
1.0
1070
   345
1005
16
1070
   347
1005
16
1070
   346
1005
16
1070
   344
1005
0
1070
   343
1005
0
1070
   172
1070
     1
1070
    76
1070
     0
1070
    75
1070
     0
1070
   282
1070
     0
1070
   281
1070
     0
1070
    71
1070
     0
1070
    74
1070
     0
1070
   279
1070
     0
1070
   173
1070
     1
1070
   340
1005
FB
1070
   271
1070
     2
1070
   272
1070
     2
1070
    77
1070
     1
1070
    73
1070
     1
1070
   171
1070
     3
1070
   274
1070
     4
1070
   177
1070
    35
1070
   176
1070
    35
1070
   178
1070
    35
1070
    48
1040
-0.1
1070
    41
1040
3.5
1070
   147
1040
1.75
1070
    42
1040
1.5875
1070
    44
1040
2.0
1070
   140
1040
3.5
1002
}
1001
ACAD_DSTYLE_DIM_LINETYPE
1070
   380
1005
16
1001
ACAD_DSTYLE_DIM_EXT1_LINETYPE
1070
   381
1005
16
1001
ACAD_DSTYLE_DIM_EXT2_LINETYPE
1070
   382
1005
16
0
DIMENSION
5
15C
100
AcDbEntity
8
SK2
62
256
6
ByLayer
370
13
48
1
60
0
100
AcDbDimension
2
_U3
10
60.0113
20
-15.452503
30
0
11
78.5
21
-15.452503
31
0
70
32
71
1
72
1
41
1
210
0
220
0
230
1
3
Standard
100
AcDbAlignedDimension
13
61
23
0
33
0
14
60.0113
24
-2.65
34
0
50
0
100
AcDbRotatedDimension
1001
ACAD
1000
DSTYLE
1002
{
1070
   371
1070
    13
1070
   372
1070
    13
1070
   170
1070
     0
1070
   144
1040
1.0
1070
   277
1070
     2
1070
   278
1070
    44
1070
   146
1040
1.0
1070
   345
1005
16
1070
   347
1005
16
1070
   346
1005
16
1070
   344
1005
0
1070
   343
1005
0
1070
   172
1070
     1
1070
    76
1070
     0
1070
    75
1070
     0
1070
   282
1070
     0
1070
   281
1070
     0
1070
    71
1070
     0
1070
    74
1070
     0
1070
   279
1070
     0
1070
   173
1070
     1
1070
   340
1005
FB
1070
   271
1070
     2
1070
   272
1070
     2
1070
    77
1070
     1
1070
    73
1070
     1
1070
   171
1070
     3
1070
   274
1070
     4
1070
   177
1070
    35
1070
   176
1070
    35
1070
   178
1070
    35
1070
    48
1040
-0.1
1070
    41
1040
3.5
1070
   147
1040
1.75
1070
    42
1040
1.5875
1070
    44
1040
2.0
1070
   140
1040
3.5
1002
}
1001
ACAD_DSTYLE_DIM_LINETYPE
1070
   380
1005
16
1001
ACAD_DSTYLE_DIM_EXT1_LINETYPE
1070
   381
1005
16
1001
ACAD_DSTYLE_DIM_EXT2_LINETYPE
1070
   382
1005
16
0
DIMENSION
5
176
100
AcDbEntity
8
SK2
62
256
6
ByLayer
370
13
48
1
60
0
100
AcDbDimension
2
_U4
10
60.0113
20
-21.343428
30
0
11
12.00565
21
-21.343428
31
0
70
32
71
1
72
1
41
1
210
0
220
0
230
1
3
Standard
100
AcDbAlignedDimension
13
-36
23
-3
33
0
14
60.0113
24
-2.65
34
0
50
0
100
AcDbRotatedDimension
1001
ACAD
1000
DSTYLE
1002
{
1070
   371
1070
    13
1070
   372
1070
    13
1070
   170
1070
     0
1070
   144
1040
1.0
1070
   277
1070
     2
1070
   278
1070
    44
1070
   146
1040
1.0
1070
   345
1005
16
1070
   347
1005
16
1070
   346
1005
16
1070
   344
1005
0
1070
   343
1005
0
1070
   172
1070
     1
1070
    76
1070
     0
1070
    75
1070
     0
1070
   282
1070
     0
1070
   281
1070
     0
1070
    71
1070
     0
1070
    74
1070
     0
1070
   279
1070
     0
1070
   173
1070
     1
1070
   340
1005
FB
1070
   271
1070
     2
1070
   272
1070
     2
1070
    77
1070
     1
1070
    73
1070
     1
1070
   171
1070
     3
1070
   274
1070
     4
1070
   177
1070
    35
1070
   176
1070
    35
1070
   178
1070
    35
1070
    48
1040
-0.1
1070
    41
1040
3.5
1070
   147
1040
1.75
1070
    42
1040
1.5875
1070
    44
1040
2.0
1070
   140
1040
3.5
1002
}
1001
ACAD_DSTYLE_DIM_LINETYPE
1070
   380
1005
16
1001
ACAD_DSTYLE_DIM_EXT1_LINETYPE
1070
   381
1005
16
1001
ACAD_DSTYLE_DIM_EXT2_LINETYPE
1070
   382
1005
16
0
ENDSEC
0
SECTION
2
OBJECTS
0
DICTIONARY
5
1fe
330
0
100
AcDbDictionary
280
0
281
1
3
ACAD_GROUP
350
1ff
3
ACAD_MLINESTYLE
350
200
0
DICTIONARY
5
1ff
330
0
100
AcDbDictionary
280
0
281
1
0
DICTIONARY
5
200
330
0
100
AcDbDictionary
280
0
281
1
3
Standard
350
18
0
MLINESTYLE
5
18
330
200
100
AcDbMlineStyle
2
Standard
70
0
3

62
256
51
90
52
90
71
2
49
-0.5
62
256
6
ByLayer
49
0.5
62
256
6
ByLayer
0
RASTERVARIABLES
5
1ec
330

100
AcDbRasterVariables
90
0
70
1
71
1
72
1
0
ENDSEC
0
EOF
