0
SECTION
2
HEADER
9
$ACADVER
1
AC1015
9
$DWGCODEPAGE
3
ANSI_1252
9
$HANDSEED
5
205
9
$ANGBASE
50
0
9
$ANGDIR
70
0
9
$ATTMODE
70
1
9
$AUNITS
70
0
9
$AUPREC
70
0
9
$CECOLOR
62
256
9
$CELTSCALE
40
1
9
$CELTYPE
6
ByLayer
9
$CELWEIGHT
370
18
9
$CLAYER
8
0
9
$CMLJUST
70
0
9
$CMLSCALE
40
1
9
$CMLSTYLE
2
Standard
9
$DIMSTYLE
2
Standard
9
$TEXTSIZE
40
0.2
9
$TEXTSTYLE
7
Standard
9
$LUNITS
70
2
9
$LUPREC
70
4
9
$EXTNAMES
290
1
9
$INSUNITS
70
4
9
$LTSCALE
40
1
9
$LWDISPLAY
290
1
9
$PDMODE
70
0
9
$PDSIZE
40
0
9
$PLINEGEN
70
0
0
ENDSEC
0
SECTION
2
CLASSES
0
CLASS
1
RASTERVARIABLES
2
AcDbRasterVariables
3
ISM
90
0
280
0
281
0
0
ENDSEC
0
SECTION
2
TABLES
0
TABLE
2
VPORT
5
1fb
100
AcDbSymbolTable
0
VPORT
5
1
100
AcDbSymbolTableRecord
100
AcDbViewportTableRecord
2
*Active
70
0
10
0
20
0
11
1
21
1
12
-1
22
1
13
0
23
0
14
0.5
24
0.5
15
10
25
10
16
0
26
0
36
1
17
0
27
0
37
0
0
ENDTAB
0
TABLE
2
LTYPE
5
1fc
100
AcDbSymbolTable
0
LTYPE
5
14
100
AcDbSymbolTableRecord
100
AcDbLinetypeTableRecord
70
0
2
ByBlock
3

72
65
73
0
40
0
0
LTYPE
5
15
100
AcDbSymbolTableRecord
100
AcDbLinetypeTableRecord
70
0
2
ByLayer
3

72
65
73
0
40
0
0
LTYPE
5
16
100
AcDbSymbolTableRecord
100
AcDbLinetypeTableRecord
70
0
2
Continuous
3
Solid line
72
65
73
0
40
0
0
LTYPE
5
6E
100
AcDbSymbolTableRecord
100
AcDbLinetypeTableRecord
70
0
2
CENTER
3
____ _ ____ _ ____ _ ____
72
65
73
4
40
47.5
49
22
74
0
49
-8.5
74
0
49
8.5
74
0
49
-8.5
74
0
0
LTYPE
5
6F
100
AcDbSymbolTableRecord
100
AcDbLinetypeTableRecord
70
0
2
DASHED
3
__ __ __ __ __ __ __ __ __
72
65
73
2
40
25.72
49
12.86
74
0
49
-12.86
74
0
0
ENDTAB
0
TABLE
2
LAYER
5
1fd
100
AcDbSymbolTable
0
LAYER
5
10
100
AcDbSymbolTableRecord
100
AcDbLayerTableRecord
2
0
70
0
62
7
6
Continuous
290
1
370
-3
390
0
0
LAYER
5
71
100
AcDbSymbolTableRecord
100
AcDbLayerTableRecord
2
80
70
0
62
-6
6
Continuous
290
1
370
-3
390
0
0
LAYER
5
73
100
AcDbSymbolTableRecord
100
AcDbLayerTableRecord
2
81
70
0
62
-3
6
Continuous
290
1
370
-3
390
0
0
LAYER
5
75
100
AcDbSymbolTableRecord
100
AcDbLayerTableRecord
2
1
70
0
62
4
6
Continuous
290
1
370
-3
390
0
0
LAYER
5
85
100
AcDbSymbolTableRecord
100
AcDbLayerTableRecord
2
4
70
0
62
-2
6
CENTER
290
1
370
-3
390
0
0
LAYER
5
9E
100
AcDbSymbolTableRecord
100
AcDbLayerTableRecord
2
2
70
0
62
7
6
Continuous
290
1
370
-3
390
0
0
LAYER
5
110
100
AcDbSymbolTableRecord
100
AcDbLayerTableRecord
2
Defpoints
70
0
62
7
6
Continuous
290
0
370
-3
390
0
0
LAYER
5
1e7
100
AcDbSymbolTableRecord
100
AcDbLayerTableRecord
2
SK1
70
0
62
4
6
Continuous
290
1
370
-3
390
0
0
LAYER
5
1e8
100
AcDbSymbolTableRecord
100
AcDbLayerTableRecord
2
SK4
70
0
62
2
6
CENTER
290
1
370
-3
390
0
0
LAYER
5
1e9
100
AcDbSymbolTableRecord
100
AcDbLayerTableRecord
2
SK2
70
0
62
7
6
Continuous
290
1
370
-3
390
0
0
LAYER
5
1ea
100
AcDbSymbolTableRecord
100
AcDbLayerTableRecord
2
SK6
70
0
62
5
6
Continuous
290
1
370
-3
390
0
0
ENDTAB
0
TABLE
2
STYLE
5
1fe
100
AcDbSymbolTable
0
STYLE
5
11
100
AcDbSymbolTableRecord
100
AcDbTextStyleTableRecord
2
Standard
3
txt
70
0
71
0
40
0
41
1
42
0
50
0
0
STYLE
5
F5
100
AcDbSymbolTableRecord
100
AcDbTextStyleTableRecord
2
iso_b_vert
3
simplex.shx
70
0
71
0
40
0
41
1
42
0
50
0
0
STYLE
5
F6
100
AcDbSymbolTableRecord
100
AcDbTextStyleTableRecord
2
DWGDirectTextStyle
3
simplex
70
0
71
0
40
0
41
1
42
0
50
0
0
ENDTAB
0
TABLE
2
DIMSTYLE
5
1ff
100
AcDbSymbolTable
100
AcDbDimStyleTable
0
DIMSTYLE
105
27
100
AcDbSymbolTableRecord
100
AcDbDimStyleTableRecord
2
Standard
70
0
3
<>
41
0.18
42
0.0625
44
0.18
140
0.18
147
0.09
73
0
74
0
77
1
271
2
275
0
278
52
280
0
340
11
0
ENDTAB
0
TABLE
2
VIEW
5
200
100
AcDbSymbolTable
0
ENDTAB
0
TABLE
2
UCS
5
201
100
AcDbSymbolTable
0
ENDTAB
0
TABLE
2
APPID
5
202
100
AcDbSymbolTable
0
APPID
5
12
100
AcDbSymbolTableRecord
100
AcDbRegAppTableRecord
2
ACAD
70
0
0
APPID
5
10C
100
AcDbSymbolTableRecord
100
AcDbRegAppTableRecord
2
ACAD_DSTYLE_DIMBREAK
70
0
0
APPID
5
1A6
100
AcDbSymbolTableRecord
100
AcDbRegAppTableRecord
2
ACAD_DSTYLE_DIM_LINETYPE
70
0
0
APPID
5
1A7
100
AcDbSymbolTableRecord
100
AcDbRegAppTableRecord
2
ACAD_DSTYLE_DIM_EXT1_LINETYPE
70
0
0
APPID
5
1A8
100
AcDbSymbolTableRecord
100
AcDbRegAppTableRecord
2
ACAD_DSTYLE_DIM_EXT2_LINETYPE
70
0
0
APPID
5
1E3
100
AcDbSymbolTableRecord
100
AcDbRegAppTableRecord
2
ACAD_MLEADERVER
70
0
0
ENDTAB
0
TABLE
2
BLOCK_RECORD
5
203
100
AcDbSymbolTable
0
BLOCK_RECORD
5
1F
100
AcDbSymbolTableRecord
100
AcDbBlockTableRecord
2
*Model_Space
340
0
70
0
0
BLOCK_RECORD
5
1B
100
AcDbSymbolTableRecord
100
AcDbBlockTableRecord
2
*Paper_Space
340
0
70
0
0
BLOCK_RECORD
5
23
100
AcDbSymbolTableRecord
100
AcDbBlockTableRecord
2
*Paper_Space0
340
0
70
0
0
BLOCK_RECORD
5
111
100
AcDbSymbolTableRecord
100
AcDbBlockTableRecord
2
*D1
340
0
70
0
0
BLOCK_RECORD
5
11D
100
AcDbSymbolTableRecord
100
AcDbBlockTableRecord
2
_U0
340
0
70
0
0
BLOCK_RECORD
5
129
100
AcDbSymbolTableRecord
100
AcDbBlockTableRecord
2
*D3
340
0
70
0
0
BLOCK_RECORD
5
135
100
AcDbSymbolTableRecord
100
AcDbBlockTableRecord
2
_U1
340
0
70
0
0
BLOCK_RECORD
5
141
100
AcDbSymbolTableRecord
100
AcDbBlockTableRecord
2
*D5
340
0
70
0
0
BLOCK_RECORD
5
14D
100
AcDbSymbolTableRecord
100
AcDbBlockTableRecord
2
_U2
340
0
70
0
0
BLOCK_RECORD
5
159
100
AcDbSymbolTableRecord
100
AcDbBlockTableRecord
2
*D7
340
0
70
0
0
BLOCK_RECORD
5
167
100
AcDbSymbolTableRecord
100
AcDbBlockTableRecord
2
_U3
340
0
70
0
0
BLOCK_RECORD
5
173
100
AcDbSymbolTableRecord
100
AcDbBlockTableRecord
2
*D9
340
0
70
0
0
BLOCK_RECORD
5
17F
100
AcDbSymbolTableRecord
100
AcDbBlockTableRecord
2
_U4
340
0
70
0
0
ENDTAB
0
ENDSEC
0
SECTION
2
BLOCKS
0
BLOCK
5
20
100
AcDbEntity
8
0
100
AcDbBlockBegin
2
*Model_Space
70
0
10
0
20
0
30
0
3
*Model_Space
0
ENDBLK
5
21
100
AcDbEntity
8
0
100
AcDbBlockEnd
0
BLOCK
5
1C
100
AcDbEntity
8
0
100
AcDbBlockBegin
2
*Paper_Space
70
0
10
0
20
0
30
0
3
*Paper_Space
0
ENDBLK
5
1D
100
AcDbEntity
8
0
100
AcDbBlockEnd
0
BLOCK
5
24
100
AcDbEntity
8
0
100
AcDbBlockBegin
2
*Paper_Space0
70
0
10
0
20
0
30
0
3
*Paper_Space0
0
ENDBLK
5
25
100
AcDbEntity
8
0
100
AcDbBlockEnd
0
BLOCK
5
112
100
AcDbEntity
8
0
100
AcDbBlockBegin
2
*D1
70
1
10
0
20
0
30
0
3
*D1
0
LINE
5
114
100
AcDbEntity
8
0
62
256
6
ByLayer
370
-2
48
1
60
0
100
AcDbLine
10
0
20
-1.5875
30
0
11
0
21
-14.963398
31
0
39
0
210
0
220
0
230
1
0
LINE
5
115
100
AcDbEntity
8
0
62
256
6
ByLayer
370
-2
48
1
60
0
100
AcDbLine
10
49.975
20
-4.3375
30
0
11
49.975
21
-14.963398
31
0
39
0
210
0
220
0
230
1
0
LINE
5
116
100
AcDbEntity
8
0
62
256
6
ByLayer
370
-2
48
1
60
0
100
AcDbLine
10
3.5
20
-12.963398
30
0
11
46.475
21
-12.963398
31
0
39
0
210
0
220
0
230
1
0
SOLID
5
117
100
AcDbEntity
8
0
62
256
6
ByLayer
370
-1
48
1
60
0
100
AcDbTrace
10
3.5
20
-12.380065
30
0
11
3.5
21
-13.546732
31
0
12
0
22
-12.963398
32
0
13
0
23
-12.963398
33
0
39
0
210
0
220
0
230
1
0
SOLID
5
118
100
AcDbEntity
8
0
62
256
6
ByLayer
370
-1
48
1
60
0
100
AcDbTrace
10
46.475
20
-13.546732
30
0
11
46.475
21
-12.380065
31
0
12
49.975
22
-12.963398
32
0
13
49.975
23
-12.963398
33
0
39
0
210
0
220
0
230
1
0
MTEXT
5
119
100
AcDbEntity
8
0
62
256
6
ByLayer
370
18
48
1
60
0
100
AcDbMText
10
24.9875
20
-5.963398
30
0
210
0
220
0
230
1
1
\A1;49.98
40
3.5
41
0
44
1
50
0
71
5
72
5
7
iso_b_vert
0
POINT
5
11A
100
AcDbEntity
8
Defpoints
62
0
6
ByLayer
370
-1
48
1
60
0
100
AcDbPoint
10
0
20
0
30
0
39
0
210
0
220
0
230
1
50
360
0
POINT
5
11B
100
AcDbEntity
8
Defpoints
62
0
6
ByLayer
370
-1
48
1
60
0
100
AcDbPoint
10
49.975
20
-2.75
30
0
39
0
210
0
220
0
230
1
50
360
0
POINT
5
11C
100
AcDbEntity
8
Defpoints
62
0
6
ByLayer
370
-1
48
1
60
0
100
AcDbPoint
10
49.975
20
-12.963398
30
0
39
0
210
0
220
0
230
1
50
360
0
ENDBLK
5
113
100
AcDbEntity
8
0
100
AcDbBlockEnd
0
BLOCK
5
124
100
AcDbEntity
8
0
100
AcDbBlockBegin
2
_U0
70
0
10
0
20
0
30
0
3
_U0
0
MTEXT
5
11E
100
AcDbEntity
8
2
62
256
6
ByLayer
370
13
48
1
60
0
100
AcDbMText
10
19.665935
20
-11.930765
30
0
210
0
220
0
230
1
1
\W0.7581;49,98
40
3.5
41
0
44
1.084337
50
0
71
7
72
5
7
iso_b_vert
0
LINE
5
11F
100
AcDbEntity
8
2
62
256
6
ByLayer
370
13
48
1
60
0
100
AcDbLine
10
0
20
-1.5875
30
0
11
0
21
-14.963398
31
0
39
0
210
0
220
0
230
1
0
LINE
5
120
100
AcDbEntity
8
2
62
256
6
ByLayer
370
13
48
1
60
0
100
AcDbLine
10
49.975
20
-4.3375
30
0
11
49.975
21
-14.963398
31
0
39
0
210
0
220
0
230
1
0
LINE
5
121
100
AcDbEntity
8
2
62
256
6
ByLayer
370
13
48
1
60
0
100
AcDbLine
10
0
20
-12.963398
30
0
11
49.975
21
-12.963398
31
0
39
0
210
0
220
0
230
1
0
SOLID
5
122
100
AcDbEntity
8
2
62
256
6
ByLayer
370
18
48
1
60
0
100
AcDbTrace
10
0
20
-12.963398
30
0
11
3.499998
21
-12.502615
31
0
12
3.500002
22
-13.424182
32
0
13
3.500002
23
-13.424182
33
0
39
0
210
0
220
0
230
1
0
SOLID
5
123
100
AcDbEntity
8
2
62
256
6
ByLayer
370
18
48
1
60
0
100
AcDbTrace
10
49.975
20
-12.963398
30
0
11
46.475002
21
-13.424182
31
0
12
46.474998
22
-12.502615
32
0
13
46.474998
23
-12.502615
33
0
39
0
210
0
220
0
230
1
0
ENDBLK
5
125
100
AcDbEntity
8
0
100
AcDbBlockEnd
0
BLOCK
5
12A
100
AcDbEntity
8
0
100
AcDbBlockBegin
2
*D3
70
1
10
0
20
0
30
0
3
*D3
0
LINE
5
12C
100
AcDbEntity
8
0
62
256
6
ByLayer
370
-2
48
1
60
0
100
AcDbLine
10
-36
20
-4.5875
30
0
11
-36
21
-33.692985
31
0
39
0
210
0
220
0
230
1
0
LINE
5
12D
100
AcDbEntity
8
0
62
256
6
ByLayer
370
-2
48
1
60
0
100
AcDbLine
10
51
20
-1.5875
30
0
11
51
21
-33.692985
31
0
39
0
210
0
220
0
230
1
0
LINE
5
12E
100
AcDbEntity
8
0
62
256
6
ByLayer
370
-2
48
1
60
0
100
AcDbLine
10
-32.5
20
-31.692985
30
0
11
47.5
21
-31.692985
31
0
39
0
210
0
220
0
230
1
0
SOLID
5
12F
100
AcDbEntity
8
0
62
256
6
ByLayer
370
-1
48
1
60
0
100
AcDbTrace
10
-32.5
20
-31.109652
30
0
11
-32.5
21
-32.276319
31
0
12
-36
22
-31.692985
32
0
13
-36
23
-31.692985
33
0
39
0
210
0
220
0
230
1
0
SOLID
5
130
100
AcDbEntity
8
0
62
256
6
ByLayer
370
-1
48
1
60
0
100
AcDbTrace
10
47.5
20
-32.276319
30
0
11
47.5
21
-31.109652
31
0
12
51
22
-31.692985
32
0
13
51
23
-31.692985
33
0
39
0
210
0
220
0
230
1
0
MTEXT
5
131
100
AcDbEntity
8
0
62
256
6
ByLayer
370
18
48
1
60
0
100
AcDbMText
10
7.5
20
-24.692985
30
0
210
0
220
0
230
1
1
\A1;87.00
40
3.5
41
0
44
1
50
0
71
5
72
5
7
iso_b_vert
0
POINT
5
132
100
AcDbEntity
8
Defpoints
62
0
6
ByLayer
370
-1
48
1
60
0
100
AcDbPoint
10
-36
20
-3
30
0
39
0
210
0
220
0
230
1
50
360
0
POINT
5
133
100
AcDbEntity
8
Defpoints
62
0
6
ByLayer
370
-1
48
1
60
0
100
AcDbPoint
10
51
20
0
30
0
39
0
210
0
220
0
230
1
50
360
0
POINT
5
134
100
AcDbEntity
8
Defpoints
62
0
6
ByLayer
370
-1
48
1
60
0
100
AcDbPoint
10
51
20
-31.692985
30
0
39
0
210
0
220
0
230
1
50
360
0
ENDBLK
5
12B
100
AcDbEntity
8
0
100
AcDbBlockEnd
0
BLOCK
5
13C
100
AcDbEntity
8
0
100
AcDbBlockBegin
2
_U1
70
0
10
0
20
0
30
0
3
_U1
0
MTEXT
5
136
100
AcDbEntity
8
SK2
62
256
6
ByLayer
370
13
48
1
60
0
100
AcDbMText
10
2.362701
20
-30.660352
30
0
210
0
220
0
230
1
1
\W0.7317;87,00
40
3.5
41
0
44
1.084337
50
0
71
7
72
5
7
iso_b_vert
0
LINE
5
137
100
AcDbEntity
8
SK2
62
256
6
ByLayer
370
13
48
1
60
0
100
AcDbLine
10
-36
20
-4.5875
30
0
11
-36
21
-33.692985
31
0
39
0
210
0
220
0
230
1
0
LINE
5
138
100
AcDbEntity
8
SK2
62
256
6
ByLayer
370
13
48
1
60
0
100
AcDbLine
10
51
20
-1.5875
30
0
11
51
21
-33.692985
31
0
39
0
210
0
220
0
230
1
0
LINE
5
139
100
AcDbEntity
8
SK2
62
256
6
ByLayer
370
13
48
1
60
0
100
AcDbLine
10
-36
20
-31.692985
30
0
11
51
21
-31.692985
31
0
39
0
210
0
220
0
230
1
0
SOLID
5
13A
100
AcDbEntity
8
SK2
62
256
6
ByLayer
370
18
48
1
60
0
100
AcDbTrace
10
-36
20
-31.692985
30
0
11
-32.500002
21
-31.232202
31
0
12
-32.499998
22
-32.153769
32
0
13
-32.499998
23
-32.153769
33
0
39
0
210
0
220
0
230
1
0
SOLID
5
13B
100
AcDbEntity
8
SK2
62
256
6
ByLayer
370
18
48
1
60
0
100
AcDbTrace
10
51
20
-31.692985
30
0
11
47.500002
21
-32.153769
31
0
12
47.499998
22
-31.232202
32
0
13
47.499998
23
-31.232202
33
0
39
0
210
0
220
0
230
1
0
ENDBLK
5
13D
100
AcDbEntity
8
0
100
AcDbBlockEnd
0
BLOCK
5
142
100
AcDbEntity
8
0
100
AcDbBlockBegin
2
*D5
70
1
10
0
20
0
30
0
3
*D5
0
LINE
5
144
100
AcDbEntity
8
0
62
256
6
ByLayer
370
-2
48
1
60
0
100
AcDbLine
10
22.48
20
4.3375
30
0
11
22.48
21
16.359119
31
0
39
0
210
0
220
0
230
1
0
LINE
5
145
100
AcDbEntity
8
0
62
256
6
ByLayer
370
-2
48
1
60
0
100
AcDbLine
10
51
20
1.5875
30
0
11
51
21
16.359119
31
0
39
0
210
0
220
0
230
1
0
LINE
5
146
100
AcDbEntity
8
0
62
256
6
ByLayer
370
-2
48
1
60
0
100
AcDbLine
10
25.98
20
14.359119
30
0
11
47.5
21
14.359119
31
0
39
0
210
0
220
0
230
1
0
SOLID
5
147
100
AcDbEntity
8
0
62
256
6
ByLayer
370
-1
48
1
60
0
100
AcDbTrace
10
25.98
20
14.942453
30
0
11
25.98
21
13.775786
31
0
12
22.48
22
14.359119
32
0
13
22.48
23
14.359119
33
0
39
0
210
0
220
0
230
1
0
SOLID
5
148
100
AcDbEntity
8
0
62
256
6
ByLayer
370
-1
48
1
60
0
100
AcDbTrace
10
47.5
20
13.775786
30
0
11
47.5
21
14.942453
31
0
12
51
22
14.359119
32
0
13
51
23
14.359119
33
0
39
0
210
0
220
0
230
1
0
MTEXT
5
149
100
AcDbEntity
8
0
62
256
6
ByLayer
370
18
48
1
60
0
100
AcDbMText
10
36.74
20
21.359119
30
0
210
0
220
0
230
1
1
\A1;28.52
40
3.5
41
0
44
1
50
0
71
5
72
5
7
iso_b_vert
0
POINT
5
14A
100
AcDbEntity
8
Defpoints
62
0
6
ByLayer
370
-1
48
1
60
0
100
AcDbPoint
10
22.48
20
2.75
30
0
39
0
210
0
220
0
230
1
50
360
0
POINT
5
14B
100
AcDbEntity
8
Defpoints
62
0
6
ByLayer
370
-1
48
1
60
0
100
AcDbPoint
10
51
20
0
30
0
39
0
210
0
220
0
230
1
50
360
0
POINT
5
14C
100
AcDbEntity
8
Defpoints
62
0
6
ByLayer
370
-1
48
1
60
0
100
AcDbPoint
10
51
20
14.359119
30
0
39
0
210
0
220
0
230
1
50
360
0
ENDBLK
5
143
100
AcDbEntity
8
0
100
AcDbBlockEnd
0
BLOCK
5
154
100
AcDbEntity
8
0
100
AcDbBlockBegin
2
_U2
70
0
10
0
20
0
30
0
3
_U2
0
MTEXT
5
14E
100
AcDbEntity
8
SK2
62
256
6
ByLayer
370
13
48
1
60
0
100
AcDbMText
10
31.602701
20
15.391753
30
0
210
0
220
0
230
1
1
\W0.7317;28,52
40
3.5
41
0
44
1.084337
50
0
71
7
72
5
7
iso_b_vert
0
LINE
5
14F
100
AcDbEntity
8
SK2
62
256
6
ByLayer
370
13
48
1
60
0
100
AcDbLine
10
22.48
20
4.3375
30
0
11
22.48
21
16.359119
31
0
39
0
210
0
220
0
230
1
0
LINE
5
150
100
AcDbEntity
8
SK2
62
256
6
ByLayer
370
13
48
1
60
0
100
AcDbLine
10
51
20
1.5875
30
0
11
51
21
16.359119
31
0
39
0
210
0
220
0
230
1
0
LINE
5
151
100
AcDbEntity
8
SK2
62
256
6
ByLayer
370
13
48
1
60
0
100
AcDbLine
10
22.48
20
14.359119
30
0
11
51
21
14.359119
31
0
39
0
210
0
220
0
230
1
0
SOLID
5
152
100
AcDbEntity
8
SK2
62
256
6
ByLayer
370
18
48
1
60
0
100
AcDbTrace
10
22.48
20
14.359119
30
0
11
25.979998
21
14.819903
31
0
12
25.980002
22
13.898335
32
0
13
25.980002
23
13.898335
33
0
39
0
210
0
220
0
230
1
0
SOLID
5
153
100
AcDbEntity
8
SK2
62
256
6
ByLayer
370
18
48
1
60
0
100
AcDbTrace
10
51
20
14.359119
30
0
11
47.500002
21
13.898335
31
0
12
47.499998
22
14.819903
32
0
13
47.499998
23
14.819903
33
0
39
0
210
0
220
0
230
1
0
ENDBLK
5
155
100
AcDbEntity
8
0
100
AcDbBlockEnd
0
BLOCK
5
15A
100
AcDbEntity
8
0
100
AcDbBlockBegin
2
*D7
70
1
10
0
20
0
30
0
3
*D7
0
LINE
5
15C
100
AcDbEntity
8
0
62
256
6
ByLayer
370
-2
48
1
60
0
100
AcDbLine
10
51
20
-1.5875
30
0
11
51
21
-17.552503
31
0
39
0
210
0
220
0
230
1
0
LINE
5
15D
100
AcDbEntity
8
0
62
256
6
ByLayer
370
-2
48
1
60
0
100
AcDbLine
10
49.975
20
-4.3375
30
0
11
49.975
21
-17.552503
31
0
39
0
210
0
220
0
230
1
0
LINE
5
15E
100
AcDbEntity
8
0
62
256
6
ByLayer
370
-2
48
1
60
0
100
AcDbLine
10
51
20
-15.552503
30
0
11
78.666667
21
-15.552503
31
0
39
0
210
0
220
0
230
1
0
LINE
5
15F
100
AcDbEntity
8
0
62
256
6
ByLayer
370
-2
48
1
60
0
100
AcDbLine
10
54.5
20
-15.552503
30
0
11
58
21
-15.552503
31
0
39
0
210
0
220
0
230
1
0
LINE
5
160
100
AcDbEntity
8
0
62
256
6
ByLayer
370
-2
48
1
60
0
100
AcDbLine
10
46.475
20
-15.552503
30
0
11
42.975
21
-15.552503
31
0
39
0
210
0
220
0
230
1
0
SOLID
5
161
100
AcDbEntity
8
0
62
256
6
ByLayer
370
-1
48
1
60
0
100
AcDbTrace
10
54.5
20
-14.96917
30
0
11
54.5
21
-16.135837
31
0
12
51
22
-15.552503
32
0
13
51
23
-15.552503
33
0
39
0
210
0
220
0
230
1
0
SOLID
5
162
100
AcDbEntity
8
0
62
256
6
ByLayer
370
-1
48
1
60
0
100
AcDbTrace
10
46.475
20
-16.135837
30
0
11
46.475
21
-14.96917
31
0
12
49.975
22
-15.552503
32
0
13
49.975
23
-15.552503
33
0
39
0
210
0
220
0
230
1
0
MTEXT
5
163
100
AcDbEntity
8
0
62
256
6
ByLayer
370
18
48
1
60
0
100
AcDbMText
10
68.333333
20
-8.552503
30
0
210
0
220
0
230
1
1
\A1;1.03
40
3.5
41
0
44
1
50
0
71
5
72
5
7
iso_b_vert
0
POINT
5
164
100
AcDbEntity
8
Defpoints
62
0
6
ByLayer
370
-1
48
1
60
0
100
AcDbPoint
10
51
20
0
30
0
39
0
210
0
220
0
230
1
50
360
0
POINT
5
165
100
AcDbEntity
8
Defpoints
62
0
6
ByLayer
370
-1
48
1
60
0
100
AcDbPoint
10
49.975
20
-2.75
30
0
39
0
210
0
220
0
230
1
50
360
0
POINT
5
166
100
AcDbEntity
8
Defpoints
62
0
6
ByLayer
370
-1
48
1
60
0
100
AcDbPoint
10
49.975
20
-15.552503
30
0
39
0
210
0
220
0
230
1
50
360
0
ENDBLK
5
15B
100
AcDbEntity
8
0
100
AcDbBlockEnd
0
BLOCK
5
16E
100
AcDbEntity
8
0
100
AcDbBlockBegin
2
_U3
70
0
10
0
20
0
30
0
3
_U3
0
MTEXT
5
168
100
AcDbEntity
8
SK2
62
256
6
ByLayer
370
13
48
1
60
0
100
AcDbMText
10
57.589293
20
-14.51987
30
0
210
0
220
0
230
1
1
\W0.6367;1,02
40
3.5
41
0
44
1.084337
50
0
71
7
72
5
7
iso_b_vert
0
LINE
5
169
100
AcDbEntity
8
SK2
62
256
6
ByLayer
370
13
48
1
60
0
100
AcDbLine
10
51
20
-1.5875
30
0
11
51
21
-17.552503
31
0
39
0
210
0
220
0
230
1
0
LINE
5
16A
100
AcDbEntity
8
SK2
62
256
6
ByLayer
370
13
48
1
60
0
100
AcDbLine
10
49.975
20
-4.3375
30
0
11
49.975
21
-17.552503
31
0
39
0
210
0
220
0
230
1
0
LINE
5
16B
100
AcDbEntity
8
SK2
62
256
6
ByLayer
370
13
48
1
60
0
100
AcDbLine
10
41.225
20
-15.552503
30
0
11
64.559058
21
-15.552503
31
0
39
0
210
0
220
0
230
1
0
SOLID
5
16C
100
AcDbEntity
8
SK2
62
256
6
ByLayer
370
18
48
1
60
0
100
AcDbTrace
10
51
20
-15.552503
30
0
11
54.499998
21
-15.091719
31
0
12
54.500002
22
-16.013287
32
0
13
54.500002
23
-16.013287
33
0
39
0
210
0
220
0
230
1
0
SOLID
5
16D
100
AcDbEntity
8
SK2
62
256
6
ByLayer
370
18
48
1
60
0
100
AcDbTrace
10
49.975
20
-15.552503
30
0
11
46.475002
21
-16.013287
31
0
12
46.474998
22
-15.091719
32
0
13
46.474998
23
-15.091719
33
0
39
0
210
0
220
0
230
1
0
ENDBLK
5
16F
100
AcDbEntity
8
0
100
AcDbBlockEnd
0
BLOCK
5
174
100
AcDbEntity
8
0
100
AcDbBlockBegin
2
*D9
70
1
10
0
20
0
30
0
3
*D9
0
LINE
5
176
100
AcDbEntity
8
0
62
256
6
ByLayer
370
-2
48
1
60
0
100
AcDbLine
10
-36
20
-4.5875
30
0
11
-36
21
-23.343428
31
0
39
0
210
0
220
0
230
1
0
LINE
5
177
100
AcDbEntity
8
0
62
256
6
ByLayer
370
-2
48
1
60
0
100
AcDbLine
10
49.975
20
-4.3375
30
0
11
49.975
21
-23.343428
31
0
39
0
210
0
220
0
230
1
0
LINE
5
178
100
AcDbEntity
8
0
62
256
6
ByLayer
370
-2
48
1
60
0
100
AcDbLine
10
-32.5
20
-21.343428
30
0
11
46.475
21
-21.343428
31
0
39
0
210
0
220
0
230
1
0
SOLID
5
179
100
AcDbEntity
8
0
62
256
6
ByLayer
370
-1
48
1
60
0
100
AcDbTrace
10
-32.5
20
-20.760095
30
0
11
-32.5
21
-21.926762
31
0
12
-36
22
-21.343428
32
0
13
-36
23
-21.343428
33
0
39
0
210
0
220
0
230
1
0
SOLID
5
17A
100
AcDbEntity
8
0
62
256
6
ByLayer
370
-1
48
1
60
0
100
AcDbTrace
10
46.475
20
-21.926762
30
0
11
46.475
21
-20.760095
31
0
12
49.975
22
-21.343428
32
0
13
49.975
23
-21.343428
33
0
39
0
210
0
220
0
230
1
0
MTEXT
5
17B
100
AcDbEntity
8
0
62
256
6
ByLayer
370
18
48
1
60
0
100
AcDbMText
10
6.9875
20
-14.343428
30
0
210
0
220
0
230
1
1
\A1;85.98
40
3.5
41
0
44
1
50
0
71
5
72
5
7
iso_b_vert
0
POINT
5
17C
100
AcDbEntity
8
Defpoints
62
0
6
ByLayer
370
-1
48
1
60
0
100
AcDbPoint
10
-36
20
-3
30
0
39
0
210
0
220
0
230
1
50
360
0
POINT
5
17D
100
AcDbEntity
8
Defpoints
62
0
6
ByLayer
370
-1
48
1
60
0
100
AcDbPoint
10
49.975
20
-2.75
30
0
39
0
210
0
220
0
230
1
50
360
0
POINT
5
17E
100
AcDbEntity
8
Defpoints
62
0
6
ByLayer
370
-1
48
1
60
0
100
AcDbPoint
10
49.975
20
-21.343428
30
0
39
0
210
0
220
0
230
1
50
360
0
ENDBLK
5
175
100
AcDbEntity
8
0
100
AcDbBlockEnd
0
BLOCK
5
186
100
AcDbEntity
8
0
100
AcDbBlockBegin
2
_U4
70
0
10
0
20
0
30
0
3
_U4
0
MTEXT
5
180
100
AcDbEntity
8
SK2
62
256
6
ByLayer
370
13
48
1
60
0
100
AcDbMText
10
1.850201
20
-20.310795
30
0
210
0
220
0
230
1
1
\W0.7317;85,98
40
3.5
41
0
44
1.084337
50
0
71
7
72
5
7
iso_b_vert
0
LINE
5
181
100
AcDbEntity
8
SK2
62
256
6
ByLayer
370
13
48
1
60
0
100
AcDbLine
10
-36
20
-4.5875
30
0
11
-36
21
-23.343428
31
0
39
0
210
0
220
0
230
1
0
LINE
5
182
100
AcDbEntity
8
SK2
62
256
6
ByLayer
370
13
48
1
60
0
100
AcDbLine
10
49.975
20
-4.3375
30
0
11
49.975
21
-23.343428
31
0
39
0
210
0
220
0
230
1
0
LINE
5
183
100
AcDbEntity
8
SK2
62
256
6
ByLayer
370
13
48
1
60
0
100
AcDbLine
10
-36
20
-21.343428
30
0
11
49.975
21
-21.343428
31
0
39
0
210
0
220
0
230
1
0
SOLID
5
184
100
AcDbEntity
8
SK2
62
256
6
ByLayer
370
18
48
1
60
0
100
AcDbTrace
10
-36
20
-21.343428
30
0
11
-32.500002
21
-20.882645
31
0
12
-32.499998
22
-21.804212
32
0
13
-32.499998
23
-21.804212
33
0
39
0
210
0
220
0
230
1
0
SOLID
5
185
100
AcDbEntity
8
SK2
62
256
6
ByLayer
370
18
48
1
60
0
100
AcDbTrace
10
49.975
20
-21.343428
30
0
11
46.475002
21
-21.804212
31
0
12
46.474998
22
-20.882645
32
0
13
46.474998
23
-20.882645
33
0
39
0
210
0
220
0
230
1
0
ENDBLK
5
187
100
AcDbEntity
8
0
100
AcDbBlockEnd
0
ENDSEC
0
SECTION
2
ENTITIES
0
ARC
5
A7
100
AcDbEntity
8
1
62
256
6
ByLayer
370
18
48
1
60
0
100
AcDbCircle
39
0
10
1.017491
20
-3.511878
30
0
40
0.849999999999999
210
0
220
0
230
1
100
AcDbArc
50
89.896868
51
126.764284
0
ARC
5
A8
100
AcDbEntity
8
1
62
256
6
ByLayer
370
18
48
1
60
0
100
AcDbCircle
39
0
10
1.017491
20
3.511878
30
0
40
0.849999999999999
210
0
220
0
230
1
100
AcDbArc
50
233.235716
51
270.103132
0
ARC
5
A9
100
AcDbEntity
8
1
62
256
6
ByLayer
370
18
48
1
60
0
100
AcDbCircle
39
0
10
0
20
-2.15
30
0
40
0.849999999999999
210
0
220
0
230
1
100
AcDbArc
50
270
51
306.764284
0
ARC
5
AA
100
AcDbEntity
8
1
62
256
6
ByLayer
370
18
48
1
60
0
100
AcDbCircle
39
0
10
0
20
2.15
30
0
40
0.849999999999999
210
0
220
0
230
1
100
AcDbArc
50
53.235716
51
90
0
ELLIPSE
5
AB
100
AcDbEntity
8
1
62
256
6
ByLayer
370
13
48
1
60
0
100
AcDbEllipse
10
6.333304
20
2.196411
30
0
11
0.101675967967529
21
0.282244570431153
31
0
210
0
220
0
230
1
40
0.369744
41
-3.08259158024225
42
-2.36447334805788
0
ELLIPSE
5
AC
100
AcDbEntity
8
1
62
256
6
ByLayer
370
13
48
1
60
0
100
AcDbEllipse
10
9.637304
20
-60.815963
30
0
11
-51.7443876147865
21
53.7671947155338
31
0
210
0
220
0
230
1
40
0.678639
41
-0.956610229437832
42
-0.877379555620286
0
ELLIPSE
5
AD
100
AcDbEntity
8
1
62
256
6
ByLayer
370
13
48
1
60
0
100
AcDbEllipse
10
95.194174
20
42.658776
30
0
11
-61.3999999999999
21
7.51908301246938E-15
31
0
210
0
220
0
230
1
40
0.99863
41
0.745013493524476
42
0.766835449135936
0
ELLIPSE
5
AE
100
AcDbEntity
8
1
62
256
6
ByLayer
370
18
48
1
60
0
100
AcDbEllipse
10
6.331693
20
3.593962
30
0
11
1
21
0
31
0
210
0
220
0
230
1
40
0.999975
41
-1.96198587965426
42
-1.56790021047889
0
ELLIPSE
5
AF
100
AcDbEntity
8
1
62
256
6
ByLayer
370
18
48
1
60
0
100
AcDbEllipse
10
6.331693
20
-3.593962
30
0
11
1
21
0
31
0
210
0
220
0
230
1
40
0.999975
41
1.56942815195419
42
1.96424464850369
0
POINT
5
70
100
AcDbEntity
8
80
62
256
6
ByLayer
370
18
48
1
60
0
100
AcDbPoint
10
0
20
0
30
0
39
0
210
0
220
0
230
1
50
360
0
POINT
5
72
100
AcDbEntity
8
81
62
256
6
ByLayer
370
18
48
1
60
0
100
AcDbPoint
10
51
20
0
30
0
39
0
210
0
220
0
230
1
50
360
0
POINT
5
74
100
AcDbEntity
8
1
62
256
6
ByLayer
370
18
48
1
60
1
100
AcDbPoint
10
49.975
20
-2.75
30
0
39
0
210
0
220
0
230
1
50
360
0
POINT
5
76
100
AcDbEntity
8
1
62
256
6
ByLayer
370
18
48
1
60
1
100
AcDbPoint
10
-36
20
-3
30
0
39
0
210
0
220
0
230
1
50
360
0
POINT
5
77
100
AcDbEntity
8
1
62
256
6
ByLayer
370
18
48
1
60
1
100
AcDbPoint
10
22.48
20
2.75
30
0
39
0
210
0
220
0
230
1
50
360
0
POINT
5
78
100
AcDbEntity
8
1
62
256
6
ByLayer
370
18
48
1
60
1
100
AcDbPoint
10
49.975
20
-2.75
30
0
39
0
210
0
220
0
230
1
50
360
0
POINT
5
79
100
AcDbEntity
8
1
62
256
6
ByLayer
370
18
48
1
60
1
100
AcDbPoint
10
-36
20
-3
30
0
39
0
210
0
220
0
230
1
50
360
0
POINT
5
7A
100
AcDbEntity
8
1
62
256
6
ByLayer
370
18
48
1
60
1
100
AcDbPoint
10
49.975
20
-2.75
30
0
39
0
210
0
220
0
230
1
50
360
0
SPLINE
5
B0
100
AcDbEntity
8
1
62
256
6
ByLayer
370
18
48
1
60
0
100
AcDbSpline
70
4
71
4
72
10
73
5
40
0
40
0
40
0
40
0
40
0
40
1
40
1
40
1
40
1
40
1
41
1
10
9.63730447847428
20
-1.1321917795361
30
0
41
1
10
9.50161860607588
20
-1.49867676514964
30
0
41
1
10
9.36593273367743
20
-1.86516175076318
30
0
41
1
10
9.230246861279
20
-2.23164673637672
30
0
41
1
10
9.09456098888057
20
-2.59813172199026
30
0
0
SPLINE
5
B1
100
AcDbEntity
8
1
62
256
6
ByLayer
370
18
48
1
60
0
100
AcDbSpline
70
4
71
3
72
28
73
24
40
0
40
0
40
0
40
0
40
0.159373991525686
40
0.159373991525686
40
0.239060987288531
40
0.239060987288531
40
0.318747983051376
40
0.318747983051376
40
0.39843497881422
40
0.39843497881422
40
0.478121974577065
40
0.478121974577065
40
0.637495966102755
40
0.637495966102755
40
0.717182961865602
40
0.717182961865602
40
0.796869957628449
40
0.796869957628449
40
0.876556953391296
40
0.876556953391296
40
0.956243949154143
40
0.956243949154143
40
1
40
1
40
1
40
1
41
1
10
49.6756752778342
20
0.119403762052514
30
0
41
1
10
49.2548804861349
20
0.335032663040096
30
0
41
1
10
48.8346251752898
20
0.548833804610155
30
0
41
1
10
48.2013972675784
20
0.859877321056786
30
0
41
1
10
47.9899663351034
20
0.961769220625342
30
0
41
1
10
47.5684499724972
20
1.16009293025149
30
0
41
1
10
47.3579107126239
20
1.25621642124435
30
0
41
1
10
46.9368363676054
20
1.44162778665301
30
0
41
1
10
46.7260883930367
20
1.53106086816774
30
0
41
1
10
46.3038470960494
20
1.70234764711915
30
0
41
1
10
46.0925620355267
20
1.78387268872865
30
0
41
1
10
45.460069310991
20
2.0139903401716
30
0
41
1
10
45.0393020065868
20
2.14971980235154
30
0
41
1
10
44.4055378055527
20
2.31945884320297
30
0
41
1
10
44.1942203961661
20
2.37058501333033
30
0
41
1
10
43.7725865747994
20
2.46049605117975
30
0
41
1
10
43.5619938020627
20
2.49902450418009
30
0
41
1
10
43.1407365137115
20
2.56258237585931
30
0
41
1
10
42.9298546114287
20
2.58794603210728
30
0
41
1
10
42.5073721699421
20
2.62738949875555
30
0
41
1
10
42.2959841778924
20
2.64115518316635
30
0
41
1
10
41.9692431170101
20
2.65264032509384
30
0
41
1
10
41.8534950682328
20
2.65485736776245
30
0
41
1
10
41.7377583553472
20
2.65509994961801
30
0
0
SPLINE
5
B2
100
AcDbEntity
8
1
62
256
6
ByLayer
370
18
48
1
60
0
100
AcDbSpline
70
4
71
3
72
74
73
70
40
0
40
0
40
0
40
0
40
0.0152962279655815
40
0.0152962279655815
40
0.0460682208416578
40
0.0460682208416578
40
0.076840213717734
40
0.076840213717734
40
0.10761220659381
40
0.10761220659381
40
0.138384199469886
40
0.138384199469886
40
0.169156192345963
40
0.169156192345963
40
0.199928185222039
40
0.199928185222039
40
0.230700178098115
40
0.230700178098115
40
0.261472170974191
40
0.261472170974191
40
0.292244163850268
40
0.292244163850268
40
0.323016156726344
40
0.323016156726344
40
0.35378814960242
40
0.35378814960242
40
0.384560142478496
40
0.384560142478496
40
0.415332135354572
40
0.415332135354572
40
0.446104128230649
40
0.446104128230649
40
0.476876121106725
40
0.476876121106725
40
0.507648113982801
40
0.507648113982801
40
0.538420106858877
40
0.538420106858877
40
0.569192099734953
40
0.569192099734953
40
0.584578096172991
40
0.584578096172991
40
0.599964092611029
40
0.599964092611029
40
0.630736085487104
40
0.630736085487104
40
0.661508078363178
40
0.661508078363178
40
0.692280071239253
40
0.692280071239253
40
0.723052064115328
40
0.723052064115328
40
0.753824056991402
40
0.753824056991402
40
0.784596049867477
40
0.784596049867477
40
0.815368042743552
40
0.815368042743552
40
0.846140035619627
40
0.846140035619627
40
0.876912028495701
40
0.876912028495701
40
0.907684021371776
40
0.907684021371776
40
0.938456014247851
40
0.938456014247851
40
0.969228007123925
40
0.969228007123925
40
1
40
1
40
1
40
1
41
1
10
29.7281557846939
20
-1.77288101804319
30
0
41
1
10
29.6229604671901
20
-1.81202049139827
30
0
41
1
10
29.5177221200416
20
-1.85007875039449
30
0
41
1
10
29.2009620754658
20
-1.9616415455171
30
0
41
1
10
28.9895926098296
20
-2.03176743233013
30
0
41
1
10
28.5671829117069
20
-2.16073514759438
30
0
41
1
10
28.3560699958236
20
-2.21936717607326
30
0
41
1
10
27.9331372143341
20
-2.32599455439376
30
0
41
1
10
27.7211208038224
20
-2.3748404754935
30
0
41
1
10
27.2979046421648
20
-2.45909619345702
30
0
41
1
10
27.0868160633836
20
-2.49457711661782
30
0
41
1
10
26.6644228696643
20
-2.55278008010293
30
0
41
1
10
26.4532037238438
20
-2.57663276287568
30
0
41
1
10
26.0302553149007
20
-2.61129211433189
30
0
41
1
10
25.8181833684808
20
-2.62174314576245
30
0
41
1
10
25.3952710448438
20
-2.6281727084002
30
0
41
1
10
25.1839024692955
20
-2.62584936557028
30
0
41
1
10
24.7613937323981
20
-2.60852015446312
30
0
41
1
10
24.5501223579365
20
-2.59307760104349
30
0
41
1
10
24.1270039550395
20
-2.54825494872745
30
0
41
1
10
23.9148897447774
20
-2.51961933758759
30
0
41
1
10
23.4915411593003
20
-2.45141406931182
30
0
41
1
10
23.2802571650398
20
-2.41129141890554
30
0
41
1
10
22.857619562954
20
-2.31714557751468
30
0
41
1
10
22.6463081604349
20
-2.26440562820838
30
0
41
1
10
22.2228143173474
20
-2.14963762219577
30
0
41
1
10
22.0106051206558
20
-2.08714564570329
30
0
41
1
10
21.5876958624494
20
-1.94962181205906
30
0
41
1
10
21.3764594764003
20
-1.8756672767586
30
0
41
1
10
20.9538677022485
20
-1.72073116580816
30
0
41
1
10
20.7424222481509
20
-1.63957561180231
30
0
41
1
10
20.3190856336951
20
-1.46770277157995
30
0
41
1
10
20.1069802476801
20
-1.3767761930429
30
0
41
1
10
19.6837048518349
20
-1.19068192928628
30
0
41
1
10
19.4722613377447
20
-1.09499842420399
30
0
41
1
10
19.0492494021392
20
-0.898667928410958
30
0
41
1
10
18.8378428216412
20
-0.797056906645309
30
0
41
1
10
18.4139614355689
20
-0.591376450931591
30
0
41
1
10
18.2017784919362
20
-0.486885757515438
30
0
41
1
10
17.8841840210188
20
-0.329286642471601
30
0
41
1
10
17.7784451026042
20
-0.27641808861938
30
0
41
1
10
17.5669849078835
20
-0.170432657062833
30
0
41
1
10
17.4612545716438
20
-0.117335517905133
30
0
41
1
10
17.1440794874752
20
0.0422063864988331
30
0
41
1
10
16.9323972908892
20
0.148387108090048
30
0
41
1
10
16.5084626817366
20
0.360265416846573
30
0
41
1
10
16.2963147908719
20
0.465492495510944
30
0
41
1
10
15.8733160346396
20
0.672582020220943
30
0
41
1
10
15.6618716251468
20
0.774497623330632
30
0
41
1
10
15.2388230787124
20
0.974343957723221
30
0
41
1
10
15.0272511578148
20
1.07231173463862
30
0
41
1
10
14.6031642640695
20
1.26172740192973
30
0
41
1
10
14.3910987986125
20
1.3536193146879
30
0
41
1
10
13.9674970278203
20
1.53019748328956
30
0
41
1
10
13.7559633122071
20
1.6152123047496
30
0
41
1
10
13.3326469112014
20
1.77552098091101
30
0
41
1
10
13.1208708638637
20
1.85112545700147
30
0
41
1
10
12.6964546215356
20
1.99430029119281
30
0
41
1
10
12.4843304160877
20
2.06119508055119
30
0
41
1
10
12.0609917062547
20
2.18357833408894
30
0
41
1
10
11.8494521497245
20
2.23862219469694
30
0
41
1
10
11.4260738288741
20
2.33892652769708
30
0
41
1
10
11.2141933359824
20
2.38365198783183
30
0
41
1
10
10.7895133907636
20
2.46018591086667
30
0
41
1
10
10.5776679368445
20
2.49208029122423
30
0
41
1
10
10.1540720554888
20
2.54419492868269
30
0
41
1
10
9.9425126780373
20
2.56435932308528
30
0
41
1
10
9.51886162024888
20
2.5910811386041
30
0
41
1
10
9.30712286343595
20
2.59769963407447
30
0
41
1
10
9.09456098888046
20
2.5981317219906
30
0
0
SPLINE
5
B3
100
AcDbEntity
8
1
62
256
6
ByLayer
370
13
48
1
60
0
100
AcDbSpline
70
4
71
3
72
40
73
36
40
0
40
0
40
0
40
0
40
0.024142333982942
40
0.024142333982942
40
0.115763810885023
40
0.115763810885023
40
0.161574549336063
40
0.161574549336063
40
0.207385287787103
40
0.207385287787103
40
0.299006764689186
40
0.299006764689186
40
0.39062824159127
40
0.39062824159127
40
0.436438980042312
40
0.436438980042312
40
0.482249718493355
40
0.482249718493355
40
0.528060456944397
40
0.528060456944397
40
0.57387119539544
40
0.57387119539544
40
0.619681933846483
40
0.619681933846483
40
0.665492672297525
40
0.665492672297525
40
0.757114149199611
40
0.757114149199611
40
0.848735626101695
40
0.848735626101695
40
0.894546364552738
40
0.894546364552738
40
0.940357103003781
40
0.940357103003781
40
1
40
1
40
1
40
1
41
1
10
35.3394312006325
20
-2.64386060449579
30
0
41
1
10
35.2198408073359
20
-2.64361562128104
30
0
41
1
10
35.1004324738952
20
-2.64125745696936
30
0
41
1
10
34.528475042952
20
-2.62006064677303
30
0
41
1
10
34.0776836891042
20
-2.57376880149801
30
0
41
1
10
33.3993289564251
20
-2.46108081828078
30
0
41
1
10
33.1729715099335
20
-2.41646558391417
30
0
41
1
10
32.7187387830502
20
-2.31344104974622
30
0
41
1
10
32.4903629385919
20
-2.25479729105535
30
0
41
1
10
31.8054435364688
20
-2.06001777594463
30
0
41
1
10
31.3527475325296
20
-1.90623289689552
30
0
41
1
10
30.4484823213704
20
-1.56006738945257
30
0
41
1
10
29.9972005941994
20
-1.36769546987108
30
0
41
1
10
29.316438320375
20
-1.05797622493742
30
0
41
1
10
29.0890006540238
20
-0.951121365028399
30
0
41
1
10
28.6320407460563
20
-0.731789272503448
30
0
41
1
10
28.4032573852056
20
-0.619655818430061
30
0
41
1
10
27.9460132368959
20
-0.392709327539478
30
0
41
1
10
27.7172197193283
20
-0.277559260946703
30
0
41
1
10
27.2607455566988
20
-0.0471910073064805
30
0
41
1
10
27.0328093493743
20
0.0681326038267116
30
0
41
1
10
26.5768573364407
20
0.297718471710539
30
0
41
1
10
26.3489112358885
20
0.412126580137027
30
0
41
1
10
25.892028379634
20
0.638063709180358
30
0
41
1
10
25.6630248052511
20
0.749538853473979
30
0
41
1
10
24.9799353666205
20
1.07467503322161
30
0
41
1
10
24.527667237312
20
1.28025119915301
30
0
41
1
10
23.6228190264774
20
1.65703691427203
30
0
41
1
10
23.170464782147
20
1.82888981882112
30
0
41
1
10
22.486983571523
20
2.05338908995358
30
0
41
1
10
22.257796688791
20
2.12315074292013
30
0
41
1
10
21.8014158518011
20
2.24922355743271
30
0
41
1
10
21.5739803630009
20
2.30538156547394
30
0
41
1
10
21.0516594844923
20
2.41920848373081
30
0
41
1
10
20.7571528535398
20
2.47212554883475
30
0
41
1
10
20.4625977084455
20
2.51291024678039
30
0
0
SPLINE
5
B4
100
AcDbEntity
8
1
62
256
6
ByLayer
370
18
48
1
60
0
100
AcDbSpline
70
4
71
3
72
18
73
14
40
0
40
0
40
0
40
0
40
0.250000000000004
40
0.250000000000004
40
0.375000000000003
40
0.375000000000003
40
0.500000000000002
40
0.500000000000002
40
0.75
40
0.75
40
0.875
40
0.875
40
1
40
1
40
1
40
1
41
1
10
49.9472954125308
20
-2.5221264291558
30
0
41
1
10
49.9025667452629
20
-2.47631599767269
30
0
41
1
10
49.8625612162909
20
-2.42035835163062
30
0
41
1
10
49.8098038418103
20
-2.32084397101727
30
0
41
1
10
49.7934318248285
20
-2.28506483142178
30
0
41
1
10
49.7632141536747
20
-2.20807890140168
30
0
41
1
10
49.7493106599769
20
-2.16665653492021
30
0
41
1
10
49.7120751584257
20
-2.03541271636337
30
0
41
1
10
49.6932783381637
20
-1.93930673806767
30
0
41
1
10
49.6740847257256
20
-1.78228784263362
30
0
41
1
10
49.6691942810883
20
-1.72779466551918
30
0
41
1
10
49.6625122512292
20
-1.61438120617049
30
0
41
1
10
49.6607232807369
20
-1.55522931388268
30
0
41
1
10
49.6605548031575
20
-1.49442582852222
30
0
0
SPLINE
5
B5
100
AcDbEntity
8
1
62
256
6
ByLayer
370
13
48
1
60
0
100
AcDbSpline
70
4
71
3
72
16
73
12
40
0
40
0
40
0
40
0
40
0.216322898739888
40
0.216322898739888
40
0.432645797479776
40
0.432645797479776
40
0.648968696219664
40
0.648968696219664
40
0.865291594959552
40
0.865291594959552
40
1
40
1
40
1
40
1
41
1
10
6.33399473099729
20
1.96882628366717
30
0
41
1
10
6.33399172486168
20
2.05629165612839
30
0
41
1
10
6.33398280413877
20
2.13525039915712
30
0
41
1
10
6.33395875423912
20
2.27628502052954
30
0
41
1
10
6.33394369264749
20
2.33778809814891
30
0
41
1
10
6.33391318089383
20
2.44098723156938
30
0
41
1
10
6.33389764450504
20
2.48310365469379
30
0
41
1
10
6.3338700787198
20
2.54810368958221
30
0
41
1
10
6.33385807916798
20
2.57083420353081
30
0
41
1
10
6.33384444192785
20
2.59065591178873
30
0
41
1
10
6.33384054566969
20
2.59432347650022
30
0
41
1
10
6.33383813965469
20
2.59405096756305
30
0
0
SPLINE
5
B6
100
AcDbEntity
8
1
62
256
6
ByLayer
370
18
48
1
60
0
100
AcDbSpline
70
4
71
3
72
14
73
10
40
0
40
0
40
0
40
0
40
0.25
40
0.25
40
0.5
40
0.5
40
0.75
40
0.75
40
1
40
1
40
1
40
1
41
1
10
6.33392572808179
20
-2.24718819020882
30
0
41
1
10
6.55544840779015
20
-2.31456222956737
30
0
41
1
10
6.779828968934
20
-2.36858329243339
30
0
41
1
10
7.23285041071381
20
-2.45762389877896
30
0
41
1
10
7.46153586077511
20
-2.4924024646831
30
0
41
1
10
7.92244431212825
20
-2.54673092560105
30
0
41
1
10
8.15446731320819
20
-2.56737474254578
30
0
41
1
10
8.62206172407957
20
-2.5932275288634
30
0
41
1
10
8.85761898049014
20
-2.59851070070505
30
0
41
1
10
9.09456098888066
20
-2.59813172199026
30
0
0
SPLINE
5
B7
100
AcDbEntity
8
1
62
256
6
ByLayer
370
18
48
1
60
0
100
AcDbSpline
70
4
71
3
72
28
73
24
40
0
40
0
40
0
40
0
40
0.0312499999999964
40
0.0312499999999964
40
0.0624999999999928
40
0.0624999999999928
40
0.124999999999991
40
0.124999999999991
40
0.249999999999987
40
0.249999999999987
40
0.312499999999988
40
0.312499999999988
40
0.374999999999989
40
0.374999999999989
40
0.499999999999991
40
0.499999999999991
40
0.624999999999993
40
0.624999999999993
40
0.749999999999996
40
0.749999999999996
40
0.874999999999998
40
0.874999999999998
40
1
40
1
40
1
40
1
41
1
10
4.62599710932662
20
0.556683602812285
30
0
41
1
10
4.64615530097009
20
0.582802463767763
30
0
41
1
10
4.66888041866346
20
0.607373526017369
30
0
41
1
10
4.71721314943036
20
0.652800693530963
30
0
41
1
10
4.74274886548767
20
0.67365840750449
30
0
41
1
10
4.82250416935904
20
0.731997789951976
30
0
41
1
10
4.88022663288422
20
0.765498318251701
30
0
41
1
10
5.05890378742231
20
0.853256442440369
30
0
41
1
10
5.18408889035857
20
0.895092661722117
30
0
41
1
10
5.37703811386331
20
0.944159343667877
30
0
41
1
10
5.44249201300667
20
0.95809782499046
30
0
41
1
10
5.5734010357989
20
0.981523263795651
30
0
41
1
10
5.63897407877792
20
0.991051145747605
30
0
41
1
10
5.83600341421874
20
1.01397990523409
30
0
41
1
10
5.96776655822978
20
1.0217939672367
30
0
41
1
10
6.2320117936805
20
1.02446303497885
30
0
41
1
10
6.36449588636748
20
1.019279960207
30
0
41
1
10
6.63018226941824
20
0.995874007879621
30
0
41
1
10
6.76153899410241
20
0.977783847074591
30
0
41
1
10
7.02054248637103
20
0.928870124793434
30
0
41
1
10
7.14831886739699
20
0.898024484957091
30
0
41
1
10
7.40032737282078
20
0.822710290010207
30
0
41
1
10
7.52485455569689
20
0.778108855687719
30
0
41
1
10
7.64688627161257
20
0.726241878060023
30
0
0
SPLINE
5
B8
100
AcDbEntity
8
1
62
256
6
ByLayer
370
18
48
1
60
0
100
AcDbSpline
70
4
71
3
72
48
73
44
40
0
40
0
40
0
40
0
40
0.0005443998109005
40
0.0005443998109005
40
0.0783169763998542
40
0.0783169763998542
40
0.117203264694331
40
0.117203264694331
40
0.156089552988807
40
0.156089552988807
40
0.194975841283283
40
0.194975841283283
40
0.23386212957776
40
0.23386212957776
40
0.311634706166713
40
0.311634706166713
40
0.389407282755666
40
0.389407282755666
40
0.428293571050142
40
0.428293571050142
40
0.467179859344617
40
0.467179859344617
40
0.506066147639094
40
0.506066147639094
40
0.54495243593357
40
0.54495243593357
40
0.622725012522523
40
0.622725012522523
40
0.661611300817
40
0.661611300817
40
0.700497589111477
40
0.700497589111477
40
0.778270165700431
40
0.778270165700431
40
0.817156453994909
40
0.817156453994909
40
0.856042742289386
40
0.856042742289386
40
0.933815318878342
40
0.933815318878342
40
0.972701607172819
40
0.972701607172819
40
1
40
1
40
1
40
1
41
1
10
18.5635538152829
20
2.69345935894603
30
0
41
1
10
18.566752647031
20
2.69346492793289
30
0
41
1
10
18.5699514150102
20
2.69346896487301
30
0
41
1
10
19.0301143790766
20
2.69382926335695
30
0
41
1
10
19.4851329377846
20
2.6629806679455
30
0
41
1
10
20.169988695555
20
2.57129139091469
30
0
41
1
10
20.3989082344947
20
2.53309956763232
30
0
41
1
10
20.8552434684729
20
2.44239281010209
30
0
41
1
10
21.0830626515538
20
2.38991316663106
30
0
41
1
10
21.5389250502
20
2.27159162046064
30
0
41
1
10
21.7669388388317
20
2.20573641482352
30
0
41
1
10
22.2236407429544
20
2.06101675701157
30
0
41
1
10
22.4521940362239
20
1.98236695225222
30
0
41
1
10
23.1363366557782
20
1.73095433559828
30
0
41
1
10
23.5912391426143
20
1.54134436787231
30
0
41
1
10
24.5056590664921
20
1.12945211745469
30
0
41
1
10
24.9603454806505
20
0.908524612012485
30
0
41
1
10
25.6442950292505
20
0.565010176042705
30
0
41
1
10
25.8729421337102
20
0.448261624623313
30
0
41
1
10
26.329435058944
20
0.212672669528388
30
0
41
1
10
26.5571530781008
20
0.0940113578006958
30
0
41
1
10
27.0126646911483
20
-0.142856444668268
30
0
41
1
10
27.2403805313586
20
-0.261213557110466
30
0
41
1
10
27.6963891068048
20
-0.496504340121874
30
0
41
1
10
27.9249866765024
20
-0.61349358334752
30
0
41
1
10
28.6090238703887
20
-0.956780404184286
30
0
41
1
10
29.0634047962666
20
-1.17702256419881
30
0
41
1
10
29.7480200298118
20
-1.48458824873586
30
0
41
1
10
29.9764195750677
20
-1.58324533208298
30
0
41
1
10
30.4319057913995
20
-1.77061815125651
30
0
41
1
10
30.6593787861242
20
-1.85942527255051
30
0
41
1
10
31.3424356407796
20
-2.1091728167803
30
0
41
1
10
31.7992866755618
20
-2.25416211283016
30
0
41
1
10
32.4821180087322
20
-2.4295266544467
30
0
41
1
10
32.7095842328729
20
-2.48116269809202
30
0
41
1
10
33.1649531683771
20
-2.57013665600732
30
0
41
1
10
33.3932647576773
20
-2.60748358298801
30
0
41
1
10
34.0773543798941
20
-2.69648188917674
30
0
41
1
10
34.5312848824356
20
-2.72530912473329
30
0
41
1
10
35.2147588604557
20
-2.72146625032917
30
0
41
1
10
35.443241340585
20
-2.71233557191172
30
0
41
1
10
35.8307836884414
20
-2.68359041346935
30
0
41
1
10
35.9904067922604
20
-2.66790372562181
30
0
41
1
10
36.1500308389962
20
-2.64848848013887
30
0
0
SPLINE
5
B9
100
AcDbEntity
8
1
62
256
6
ByLayer
370
18
48
1
60
0
100
AcDbSpline
70
4
71
3
72
8
73
4
40
0
40
0
40
0
40
0
40
1
40
1
40
1
40
1
41
1
10
50.0516390385683
20
-2.73757501157371
30
0
41
1
10
50.0309807452306
20
-2.72468223676523
30
0
41
1
10
50.0133580580559
20
-2.70201715739322
30
0
41
1
10
49.9982887962863
20
-2.66935917661385
30
0
0
SPLINE
5
BA
100
AcDbEntity
8
1
62
256
6
ByLayer
370
18
48
1
60
0
100
AcDbSpline
70
4
71
3
72
8
73
4
40
0
40
0
40
0
40
0
40
1
40
1
40
1
40
1
41
1
10
50.9998427903514
20
0.0557422459975783
30
0
41
1
10
51.0000524032158
20
0.0185807486654141
30
0
41
1
10
51.0000524032158
20
-0.0185807486667215
30
0
41
1
10
50.9998427903514
20
-0.0557422459988857
30
0
0
SPLINE
5
BB
100
AcDbEntity
8
1
62
256
6
ByLayer
370
18
48
1
60
0
100
AcDbSpline
70
4
71
3
72
18
73
14
40
0
40
0
40
0
40
0
40
0.181046519612898
40
0.181046519612898
40
0.362093039225796
40
0.362093039225796
40
0.543139558838694
40
0.543139558838694
40
0.633662818645144
40
0.633662818645144
40
0.724186078451594
40
0.724186078451594
40
1
40
1
40
1
40
1
41
1
10
11.0889237119902
20
-0.731299518786528
30
0
41
1
10
11.4985277731371
20
-0.935051151323364
30
0
41
1
10
11.9050949619941
20
-1.12903288303642
30
0
41
1
10
12.7147265979631
20
-1.49384624531547
30
0
41
1
10
13.1183455604105
20
-1.66363143436413
30
0
41
1
10
13.9272007660406
20
-1.97157255954309
30
0
41
1
10
14.3325511661971
20
-2.10953054812029
30
0
41
1
10
14.9455230545809
20
-2.28705006735842
30
0
41
1
10
15.1505235877149
20
-2.3413675760909
30
0
41
1
10
15.5580468813091
20
-2.4381780061436
30
0
41
1
10
15.7609863529425
20
-2.4810338761028
30
0
41
1
10
16.5809330473174
20
-2.63075394032629
30
0
41
1
10
17.1942087316841
20
-2.68978706492129
30
0
41
1
10
17.811457352839
20
-2.69206315270489
30
0
0
SPLINE
5
BC
100
AcDbEntity
8
1
62
256
6
ByLayer
370
18
48
1
60
0
100
AcDbSpline
70
4
71
3
72
48
73
44
40
0
40
0
40
0
40
0
40
0.0428626108320543
40
0.0428626108320543
40
0.10268369765505
40
0.10268369765505
40
0.132594241066548
40
0.132594241066548
40
0.162504784478046
40
0.162504784478046
40
0.192415327889544
40
0.192415327889544
40
0.222325871301043
40
0.222325871301043
40
0.28214695812404
40
0.28214695812404
40
0.312057501535539
40
0.312057501535539
40
0.341968044947038
40
0.341968044947038
40
0.371878588358537
40
0.371878588358537
40
0.401789131770036
40
0.401789131770036
40
0.521431305416028
40
0.521431305416028
40
0.581252392239025
40
0.581252392239025
40
0.641073479062021
40
0.641073479062021
40
0.760715652708013
40
0.760715652708013
40
0.790626196119511
40
0.790626196119511
40
0.820536739531009
40
0.820536739531009
40
0.880357826354006
40
0.880357826354006
40
0.940178913177003
40
0.940178913177003
40
0.970089456588501
40
0.970089456588501
40
1
40
1
40
1
40
1
41
1
10
29.7258395813356
20
1.7762157857037
30
0
41
1
10
30.0149036045682
20
1.89039723680548
30
0
41
1
10
30.3034777956693
20
1.99625143426141
30
0
41
1
10
30.995460400642
20
2.22731610348279
30
0
41
1
10
31.3994818670743
20
2.3431931151585
30
0
41
1
10
32.0097793381744
20
2.48495175468673
30
0
41
1
10
32.2144051668103
20
2.52682731560512
30
0
41
1
10
32.6223354465644
20
2.59856888110099
30
0
41
1
10
32.8259629128817
20
2.62849418522779
30
0
41
1
10
33.2332055234576
20
2.67616761417199
30
0
41
1
10
33.4367363654873
20
2.69394373497388
30
0
41
1
10
33.844488152547
20
2.71706239173915
30
0
41
1
10
34.0488363610189
20
2.72242726022532
30
0
41
1
10
34.6609429917158
20
2.71964216889796
30
0
41
1
10
35.0673955725661
20
2.69270534493833
30
0
41
1
10
35.6786919614297
20
2.61566641303384
30
0
41
1
10
35.8830152812847
20
2.58383129777917
30
0
41
1
10
36.2909386254964
20
2.50840690683407
30
0
41
1
10
36.4946096173174
20
2.46495773429123
30
0
41
1
10
36.9015828741618
20
2.36680461152991
30
0
41
1
10
37.1050970801408
20
2.31229045509804
30
0
41
1
10
37.5123656575502
20
2.19253687168978
30
0
41
1
10
37.716731409117
20
2.12735275507916
30
0
41
1
10
38.7354762076126
20
1.77807893047051
30
0
41
1
10
39.5368985586639
20
1.42725314186151
30
0
41
1
10
40.7469046247102
20
0.841089307793425
30
0
41
1
10
41.1513026647127
20
0.635272455542207
30
0
41
1
10
41.9676032064988
20
0.212213085381592
30
0
41
1
10
42.3721981186629
20
-0.0015511934983863
30
0
41
1
10
43.5812045882278
20
-0.635865930994441
30
0
41
1
10
44.3819681598124
20
-1.04823963407961
30
0
41
1
10
45.3989898658548
20
-1.5077007488286
30
0
41
1
10
45.603162459467
20
-1.59672784405674
30
0
41
1
10
46.0088816766389
20
-1.76589307353731
30
0
41
1
10
46.2109425684804
20
-1.84647832364581
30
0
41
1
10
46.8160713620937
20
-2.0744936134999
30
0
41
1
10
47.2175659843753
20
-2.20889490443881
30
0
41
1
10
48.0220642252237
20
-2.43619690563432
30
0
41
1
10
48.424758515433
20
-2.52944529231905
30
0
41
1
10
49.0332104927852
20
-2.63459382656237
30
0
41
1
10
49.2372256796288
20
-2.66387048075177
30
0
41
1
10
49.6445036635433
20
-2.71005744028798
30
0
41
1
10
49.8480678969164
20
-2.72693652233013
30
0
41
1
10
50.0516390385683
20
-2.73757501157371
30
0
0
SPLINE
5
BD
100
AcDbEntity
8
1
62
256
6
ByLayer
370
18
48
1
60
0
100
AcDbSpline
70
4
71
3
72
8
73
4
40
0
40
0
40
0
40
0
40
1
40
1
40
1
40
1
41
1
10
50.5187568087233
20
-0.80543821963343
30
0
41
1
10
50.5302346791142
20
-0.802416797455805
30
0
41
1
10
50.5419221605628
20
-0.798317173298642
30
0
41
1
10
50.5538260565779
20
-0.793104351123219
30
0
0
SPLINE
5
BE
100
AcDbEntity
8
1
62
256
6
ByLayer
370
13
48
1
60
0
100
AcDbSpline
70
4
71
3
72
30
73
26
40
0
40
0
40
0
40
0
40
0.0517009743731808
40
0.0517009743731808
40
0.103401948746362
40
0.103401948746362
40
0.206803897492726
40
0.206803897492726
40
0.31020584623909
40
0.31020584623909
40
0.361906820612272
40
0.361906820612272
40
0.413607794985454
40
0.413607794985454
40
0.51700974373182
40
0.51700974373182
40
0.620411692478187
40
0.620411692478187
40
0.723813641224553
40
0.723813641224553
40
0.775514615597735
40
0.775514615597735
40
0.827215589970918
40
0.827215589970918
40
1
40
1
40
1
40
1
41
1
10
49.9472954125308
20
-2.5221264291558
30
0
41
1
10
49.7194050829015
20
-2.48332613068044
30
0
41
1
10
49.4916985606052
20
-2.43736316012172
30
0
41
1
10
49.0360670169936
20
-2.33178622108369
30
0
41
1
10
48.8076648907028
20
-2.27201489224677
30
0
41
1
10
48.1251639325055
20
-2.07443950542827
30
0
41
1
10
47.6741020725848
20
-1.91861975174467
30
0
41
1
10
46.7732666124511
20
-1.56857236492266
30
0
41
1
10
46.323579338741
20
-1.37435579243882
30
0
41
1
10
45.6453417159471
20
-1.06192437408401
30
0
41
1
10
45.4186768428337
20
-0.954235618674147
30
0
41
1
10
44.9633804822076
20
-0.733100099135783
30
0
41
1
10
44.7349632799397
20
-0.619779672584428
30
0
41
1
10
44.0520099970146
20
-0.276800345682432
30
0
41
1
10
43.5976943053273
20
-0.0428856743356221
30
0
41
1
10
42.6846707049556
20
0.422296582889544
30
0
41
1
10
42.2321732870658
20
0.650289076955488
30
0
41
1
10
41.3289939562966
20
1.08536240365936
30
0
41
1
10
40.8784710605802
20
1.29258683517526
30
0
41
1
10
40.1991842537112
20
1.57879187848857
30
0
41
1
10
39.9722558340576
20
1.67031987583357
30
0
41
1
10
39.5164808167114
20
1.84384504910261
30
0
41
1
10
39.2880092442289
20
1.92556056148462
30
0
41
1
10
38.3019908550114
20
2.25344146493757
30
0
41
1
10
37.5512732389451
20
2.43876174819781
30
0
41
1
10
36.7940557672365
20
2.54368195922814
30
0
0
SPLINE
5
BF
100
AcDbEntity
8
1
62
256
6
ByLayer
370
13
48
1
60
0
100
AcDbSpline
70
4
71
3
72
28
73
24
40
0
40
0
40
0
40
0
40
0.0286684097310078
40
0.0286684097310078
40
0.136594141983121
40
0.136594141983121
40
0.244519874235233
40
0.244519874235233
40
0.298482740361289
40
0.298482740361289
40
0.352445606487344
40
0.352445606487344
40
0.568297070991565
40
0.568297070991565
40
0.622259937117619
40
0.622259937117619
40
0.676222803243674
40
0.676222803243674
40
0.730185669369728
40
0.730185669369728
40
0.784148535495782
40
0.784148535495782
40
1
40
1
40
1
40
1
41
1
10
18.9875813699084
20
-2.61370201701669
30
0
41
1
10
18.8664053794153
20
-2.61341026747587
30
0
41
1
10
18.7450149841942
20
-2.61099193530859
30
0
41
1
10
18.165403713272
20
-2.58920513324378
30
0
41
1
10
17.7116056663336
20
-2.54181583357905
30
0
41
1
10
16.8054476627972
20
-2.39144149736131
30
0
41
1
10
16.353427852803
20
-2.28826357864301
30
0
41
1
10
15.6719043323177
20
-2.09587130198511
30
0
41
1
10
15.4442214476115
20
-2.02545313340099
30
0
41
1
10
14.9870196692448
20
-1.87260597594707
30
0
41
1
10
14.7577448793602
20
-1.79029798987511
30
0
41
1
10
13.6181824373546
20
-1.3573753773409
30
0
41
1
10
12.7184908057511
20
-0.937041083291177
30
0
41
1
10
11.5775769895978
20
-0.376637291366279
30
0
41
1
10
11.3481295460337
20
-0.26250319261618
30
0
41
1
10
10.8903332826041
20
-0.033944176911632
30
0
41
1
10
10.6617470313541
20
0.0804614286590493
30
0
41
1
10
10.2044692472713
20
0.308080702634527
30
0
41
1
10
9.97580538001861
20
0.421349801141616
30
0
41
1
10
9.51761898306393
20
0.645170346881599
30
0
41
1
10
9.28849233408431
20
0.755414983906491
30
0
41
1
10
8.1485574990383
20
1.29116334500159
30
0
41
1
10
7.24793972276697
20
1.67384385198318
30
0
41
1
10
6.33399473099726
20
1.96882628366717
30
0
0
SPLINE
5
C0
100
AcDbEntity
8
1
62
256
6
ByLayer
370
13
48
1
60
0
100
AcDbSpline
70
4
71
3
72
85
73
81
40
0
40
0
40
0
40
0
40
0.0007361209291104
40
0.0072782236948257
40
0.0203624292262567
40
0.0334466347576877
40
0.0530729430548336
40
0.0596150458205489
40
0.0726992513519804
40
0.0857834568834127
40
0.105409765180557
40
0.111951867946272
40
0.125036073477703
40
0.138120279009133
40
0.15774658730628
40
0.164288690071996
40
0.177372895603425
40
0.190457101134858
40
0.210083409432004
40
0.216625512197719
40
0.229709717729149
40
0.24279392326058
40
0.262420231557727
40
0.268962334323442
40
0.282046539854872
40
0.295130745386304
40
0.314757053683451
40
0.321299156449166
40
0.334383361980595
40
0.347467567512029
40
0.367093875809174
40
0.373635978574889
40
0.38672018410632
40
0.399804389637751
40
0.419430697934897
40
0.425972800700612
40
0.439057006232042
40
0.452141211763474
40
0.47176752006062
40
0.478309622826335
40
0.491393828357766
40
0.504478033889197
40
0.524104342186343
40
0.530646444952059
40
0.54373065048349
40
0.556814856014921
40
0.576441164312066
40
0.582983267077782
40
0.596067472609212
40
0.609151678140644
40
0.628777986437789
40
0.635320089203505
40
0.648404294734936
40
0.661488500266367
40
0.681114808563513
40
0.687656911329228
40
0.700741116860659
40
0.71382532239209
40
0.733451630689237
40
0.739993733454952
40
0.753077938986383
40
0.766162144517813
40
0.78578845281496
40
0.792330555580675
40
0.805414761112106
40
0.818498966643537
40
0.838125274940683
40
0.844667377706398
40
0.857751583237829
40
0.87083578876926
40
0.890462097066406
40
0.897004199832121
40
0.910088405363553
40
0.923172610894983
40
0.942798919192129
40
0.949341021957845
40
0.962425227489276
40
0.975509433020707
40
0.995135741317853
40
1
40
1
40
1
40
1
41
1
10
28.0191387414571
20
-1.03525921485962
30
0
41
1
10
28.0165380847619
20
-1.03548907245917
30
0
41
1
10
27.990824707734
20
-1.03775795176952
30
0
41
1
10
27.9188861766466
20
-1.04400086064754
30
0
41
1
10
27.8033312565519
20
-1.05354905655361
30
0
41
1
10
27.6415526326723
20
-1.06603601759403
30
0
41
1
10
27.502874839867
20
-1.07581686556534
30
0
41
1
10
27.364198986195
20
-1.08483546274576
30
0
41
1
10
27.2486439554888
20
-1.09184198330726
30
0
41
1
10
27.0868651348732
20
-1.10073538397322
30
0
41
1
10
26.9481871714145
20
-1.10741200326424
30
0
41
1
10
26.8095111960838
20
-1.11330856802843
30
0
41
1
10
26.6939561091172
20
-1.11769790549761
30
0
41
1
10
26.5321772820554
20
-1.12291147649569
30
0
41
1
10
26.3934993727683
20
-1.12642563467557
30
0
41
1
10
26.2548234788836
20
-1.12914909676797
30
0
41
1
10
26.139268470823
20
-1.13088240354372
30
0
41
1
10
25.9774897635414
20
-1.13236819657999
30
0
41
1
10
25.8388119569552
20
-1.13268525953131
30
0
41
1
10
25.700136153439
20
-1.13220653663711
30
0
41
1
10
25.5845812110042
20
-1.13126354007127
30
0
41
1
10
25.4228025612968
20
-1.12899997264463
30
0
41
1
10
25.2841247492154
20
-1.12610823025483
30
0
41
1
10
25.1454488746547
20
-1.12242149666884
30
0
41
1
10
25.0298938276901
20
-1.11880156991367
30
0
41
1
10
24.8681149907311
20
-1.11279820808468
30
0
41
1
10
24.7294370209616
20
-1.10671999332141
30
0
41
1
10
24.5907610471908
20
-1.09986361362482
30
0
41
1
10
24.475205964326
20
-1.09361023054476
30
0
41
1
10
24.3134271453542
20
-1.08394523863933
30
0
41
1
10
24.1747492455126
20
-1.07476187513549
30
0
41
1
10
24.0360733623447
20
-1.06482489177671
30
0
41
1
10
23.9205183667136
20
-1.05601682974395
30
0
41
1
10
23.7587396829721
20
-1.04280802931311
30
0
41
1
10
23.6200618991839
20
-1.03062781572939
30
0
41
1
10
23.4813861163672
20
-1.0177248903679
30
0
41
1
10
23.3658311881282
20
-1.00646233814501
30
0
41
1
10
23.2040525549327
20
-0.989857542946254
30
0
41
1
10
23.0653747570275
20
-0.974814452619313
30
0
41
1
10
22.9266989013061
20
-0.959085925234803
30
0
41
1
10
22.8111438695122
20
-0.945490503025326
30
0
41
1
10
22.6493650444908
20
-0.925669024339896
30
0
41
1
10
22.5106870716789
20
-0.90792720646985
30
0
41
1
10
22.3720110794144
20
-0.889548107237601
30
0
41
1
10
22.2564559715454
20
-0.873773596677324
30
0
41
1
10
22.0946771075994
20
-0.85096272262976
30
0
41
1
10
21.9559991656557
20
-0.830727300712368
30
0
41
1
10
21.817323246492
20
-0.809909604004446
30
0
41
1
10
21.7017682249218
20
-0.792137238751565
30
0
41
1
10
21.5399895111879
20
-0.766597926438493
30
0
41
1
10
21.4013117091161
20
-0.744099391463152
30
0
41
1
10
21.2626359143287
20
-0.721079621419278
30
0
41
1
10
21.1470809815739
20
-0.701510997486935
30
0
41
1
10
20.9853023551244
20
-0.67353246415658
30
0
41
1
10
20.8466245781501
20
-0.649025220032939
30
0
41
1
10
20.7079487561186
20
-0.624063532539822
30
0
41
1
10
20.592393770602
20
-0.602919754684763
30
0
41
1
10
20.4306150463493
20
-0.572818332855803
30
0
41
1
10
20.2919371879016
20
-0.546579991244329
30
0
41
1
10
20.153261321373
20
-0.519959937448334
30
0
41
1
10
20.0377063243999
20
-0.497481744275973
30
0
41
1
10
19.8759276097886
20
-0.465601144084246
30
0
41
1
10
19.7372497694245
20
-0.437932306060873
30
0
41
1
10
19.598573907953
20
-0.4099595971513
30
0
41
1
10
19.4830188899437
20
-0.386405566444324
30
0
41
1
10
19.3212401070109
20
-0.353112133201421
30
0
41
1
10
19.1825621911772
20
-0.324329050878561
30
0
41
1
10
19.0438862669882
20
-0.295320515065526
30
0
41
1
10
18.9283312218348
20
-0.27095532681372
30
0
41
1
10
18.7665524426496
20
-0.236620748267399
30
0
41
1
10
18.6278745545948
20
-0.20704370312481
30
0
41
1
10
18.4891986549991
20
-0.177323164916317
30
0
41
1
10
18.3736436308284
20
-0.152419846652577
30
0
41
1
10
18.2118648925444
20
-0.117430639393461
30
0
41
1
10
18.073187054243
20
-0.0873943395263552
30
0
41
1
10
17.9345112211133
20
-0.0572993624952289
30
0
41
1
10
17.8189562551617
20
-0.0321414871838499
30
0
41
1
10
17.657177579049
20
0.0031022455273444
30
0
41
1
10
17.5244275094343
20
0.0319634068930554
30
0
41
1
10
17.4379045224675
20
0.0507576671322738
30
0
41
1
10
17.4207197668058
20
0.0544908851920241
30
0
0
SPLINE
5
C1
100
AcDbEntity
8
1
62
256
6
ByLayer
370
18
48
1
60
0
100
AcDbSpline
70
4
71
3
72
34
73
30
40
0
40
0
40
0
40
0
40
0.125
40
0.125
40
0.249999999999999
40
0.249999999999999
40
0.374999999999999
40
0.374999999999999
40
0.437499999999999
40
0.437499999999999
40
0.499999999999999
40
0.499999999999999
40
0.562499999999999
40
0.562499999999999
40
0.593749999999999
40
0.593749999999999
40
0.624999999999999
40
0.624999999999999
40
0.687499999999999
40
0.687499999999999
40
0.749999999999999
40
0.749999999999999
40
0.812499999999999
40
0.812499999999999
40
0.875
40
0.875
40
0.9375
40
0.9375
40
1
40
1
40
1
40
1
41
1
10
5.95016581785879
20
-2.22023380788082
30
0
41
1
10
5.81167893731777
20
-2.1701790505096
30
0
41
1
10
5.67581748806444
20
-2.114706318348
30
0
41
1
10
5.41058971269484
20
-1.99014065013341
30
0
41
1
10
5.28119974924093
20
-1.92110040734923
30
0
41
1
10
5.0310369628728
20
-1.76465662167519
30
0
41
1
10
4.90941125492813
20
-1.67656708791722
30
0
41
1
10
4.74114179702363
20
-1.52794066545681
30
0
41
1
10
4.68733004890899
20
-1.47560110269569
30
0
41
1
10
4.58525718126614
20
-1.36406668513914
30
0
41
1
10
4.53688273581341
20
-1.30463933532792
30
0
41
1
10
4.44909423207815
20
-1.18006359898092
30
0
41
1
10
4.40941001165481
20
-1.11467779048667
30
0
41
1
10
4.35748672487381
20
-1.0109800694207
30
0
41
1
10
4.3414512921687
20
-0.975473809715055
30
0
41
1
10
4.31222484818872
20
-0.902355029030986
30
0
41
1
10
4.29899319047539
20
-0.864561450765677
30
0
41
1
10
4.26476713611976
20
-0.749981944936849
30
0
41
1
10
4.2489612740363
20
-0.671511327115155
30
0
41
1
10
4.23258340273151
20
-0.510025335651335
30
0
41
1
10
4.23224530668878
20
-0.42650660124761
30
0
41
1
10
4.24715629217945
20
-0.262547823705489
30
0
41
1
10
4.26221188800582
20
-0.181185740458261
30
0
41
1
10
4.30650667430598
20
-0.0196119648688864
30
0
41
1
10
4.33529674705358
20
0.0588313351570093
30
0
41
1
10
4.40297227344055
20
0.209788829530851
30
0
41
1
10
4.44198108430595
20
0.282690980679234
30
0
41
1
10
4.52872758354127
20
0.424146997610848
30
0
41
1
10
4.57611634114176
20
0.492053358611031
30
0
41
1
10
4.62599710932662
20
0.556683602812285
30
0
0
SPLINE
5
C2
100
AcDbEntity
8
1
62
256
6
ByLayer
370
18
48
1
60
0
100
AcDbSpline
70
4
71
3
72
22
73
18
40
0
40
0
40
0
40
0
40
0.0646207392950481
40
0.0646207392950481
40
0.220517282745872
40
0.220517282745872
40
0.376413826196695
40
0.376413826196695
40
0.532310369647518
40
0.532310369647518
40
0.688206913098342
40
0.688206913098342
40
0.844103456549165
40
0.844103456549165
40
0.922051728274582
40
0.922051728274582
40
1
40
1
40
1
40
1
41
1
10
49.5114371474912
20
0.197134572534509
30
0
41
1
10
49.5202762076061
20
0.201227400086395
30
0
41
1
10
49.5296180620765
20
0.206516714648274
30
0
41
1
10
49.5629589456734
20
0.228580542236585
30
0
41
1
10
49.5890441053727
20
0.250859894865783
30
0
41
1
10
49.6462036011818
20
0.309067769758116
30
0
41
1
10
49.6769215972264
20
0.344721055476981
30
0
41
1
10
49.7402870373112
20
0.426500784078598
30
0
41
1
10
49.7735981794631
20
0.473487235037794
30
0
41
1
10
49.8402694544172
20
0.576138604011533
30
0
41
1
10
49.8734723827753
20
0.63139223865366
30
0
41
1
10
49.9381782574681
20
0.75013251918628
30
0
41
1
10
49.9697598245574
20
0.813655753185742
30
0
41
1
10
50.0108024061225
20
0.912449397625295
30
0
41
1
10
50.0234929090706
20
0.946128336482815
30
0
41
1
10
50.0453874552865
20
1.01552518482308
30
0
41
1
10
50.054619770815
20
1.05131080616306
30
0
41
1
10
50.0603383233291
20
1.0877473449151
30
0
0
SPLINE
5
C3
100
AcDbEntity
8
1
62
256
6
ByLayer
370
18
48
1
60
0
100
AcDbSpline
70
4
71
3
72
10
73
6
40
0
40
0
40
0
40
0
40
0.5
40
0.5
40
1
40
1
40
1
40
1
41
1
10
5.95016581785885
20
-2.22023380788167
30
0
41
1
10
6.01467228387617
20
-2.20731172935143
30
0
41
1
10
6.08062701197755
20
-2.20470742990861
30
0
41
1
10
6.20926882488993
20
-2.21538151062191
30
0
41
1
10
6.27213836609749
20
-2.22839614524219
30
0
41
1
10
6.33392572808185
20
-2.24718819020876
30
0
0
SPLINE
5
C4
100
AcDbEntity
8
1
62
256
6
ByLayer
370
13
48
1
60
0
100
AcDbSpline
70
4
71
3
72
85
73
81
40
0
40
0
40
0
40
0
40
0.0001743198570803
40
0.0132309111201045
40
0.0262875023831296
40
0.0458723892776636
40
0.0524006849091755
40
0.0654572761721972
40
0.0785138674352218
40
0.0980987543297566
40
0.10462704996127
40
0.117683641224294
40
0.130740232487319
40
0.150325119381853
40
0.156853415013365
40
0.169910006276389
40
0.182966597539412
40
0.202551484433949
40
0.20907978006546
40
0.222136371328483
40
0.235192962591508
40
0.254777849486042
40
0.261306145117555
40
0.274362736380579
40
0.287419327643602
40
0.307004214538135
40
0.313532510169649
40
0.326589101432674
40
0.339645692695696
40
0.359230579590231
40
0.365758875221744
40
0.378815466484768
40
0.39187205774779
40
0.411456944642326
40
0.417985240273839
40
0.431041831536863
40
0.444098422799886
40
0.463683309694421
40
0.470211605325934
40
0.483268196588958
40
0.496324787851981
40
0.515909674746518
40
0.522437970378029
40
0.535494561641052
40
0.548551152904077
40
0.568136039798611
40
0.574664335430124
40
0.587720926693148
40
0.600777517956171
40
0.620362404850706
40
0.626890700482219
40
0.639947291745243
40
0.653003883008266
40
0.672588769902802
40
0.679117065534313
40
0.692173656797336
40
0.70523024806036
40
0.724815134954897
40
0.731343430586408
40
0.744400021849432
40
0.757456613112455
40
0.777041500006991
40
0.783569795638503
40
0.796626386901527
40
0.80968297816455
40
0.829267865059087
40
0.835796160690598
40
0.848852751953621
40
0.861909343216644
40
0.881494230111181
40
0.888022525742693
40
0.901079117005716
40
0.91413570826874
40
0.933720595163276
40
0.940248890794787
40
0.95330548205781
40
0.966362073320835
40
0.98594696021537
40
0.992475255846882
40
1
40
1
40
1
40
1
41
1.00000000000002
10
42.1350153987335
20
-0.0544437914853112
30
0
41
1.00000000000002
10
42.1343982622468
20
-0.0543095376252998
30
0
41
1.00000000000002
10
42.0875574536395
20
-0.0441197283505794
30
0
41
1.00000000000002
10
41.9944884964216
20
-0.0238880293446751
30
0
41
1.00000000000002
10
41.8326995750307
20
0.011295898517943
30
0
41
1.00000000000002
10
41.6940337127267
20
0.0415066108401157
30
0
41
1.00000000000002
10
41.5553658386631
20
0.071685544307029
30
0
41
1.00000000000002
10
41.4398010410806
20
0.0967514152863756
30
0
41
1.00000000000002
10
41.2780120340937
20
0.131757009470901
30
0
41
1.00000000000002
10
41.1393461027429
20
0.1617124609495
30
0
41
1.00000000000002
10
41.0006781728134
20
0.191550558835954
30
0
41
1.00000000000002
10
40.8851133343867
20
0.216276017891428
30
0
41
1.00000000000002
10
40.7233242882892
20
0.250707841820794
30
0
41
1.00000000000002
10
40.5846583564526
20
0.280071669173079
30
0
41
1.00000000000002
10
40.4459904686165
20
0.309235777158302
30
0
41
1.00000000000002
10
40.3304256896379
20
0.333346007936706
30
0
41
1.00000000000002
10
40.1686367430229
20
0.366821952582365
30
0
41
1.00000000000002
10
40.0299708894646
20
0.395267044671408
30
0
41
1.00000000000002
10
39.8913030433403
20
0.423429050542489
30
0
41
1.00000000000002
10
39.7757382759534
20
0.446650303329016
30
0
41
1.00000000000002
10
39.6139493271153
20
0.47878709412543
30
0
41
1.00000000000002
10
39.4752834707302
20
0.505985965105416
30
0
41
1.00000000000002
10
39.3366156438961
20
0.532822116492944
30
0
41
1.00000000000002
10
39.2210509204693
20
0.554888130725081
30
0
41
1.00000000000002
10
39.0592620657511
20
0.585318297324383
30
0
41
1.00000000000002
10
38.9205962925082
20
0.610960731773465
30
0
41
1.00000000000002
10
38.7819285143665
20
0.63616520779117
30
0
41
1.00000000000002
10
38.6663637939221
20
0.656824613981134
30
0
41
1.00000000000002
10
38.5045748821679
20
0.685201741227321
30
0
41
1.00000000000002
10
38.3659090146925
20
0.708996135340261
30
0
41
1.00000000000002
10
38.2272411291151
20
0.73228262151726
30
0
41
1.00000000000002
10
38.1116763128644
20
0.751300940108553
30
0
41
1.00000000000002
10
37.9498872626819
20
0.777303203614241
30
0
41
1.00000000000002
10
37.8112212834274
20
0.798979833964113
30
0
41
1.00000000000002
10
37.6725533045065
20
0.820084298123549
30
0
41
1.00000000000002
10
37.5569884283494
20
0.837245810371785
30
0
41
1.00000000000002
10
37.3951993428847
20
0.860577995738582
30
0
41
1.00000000000002
10
37.2565333971353
20
0.879890323967559
30
0
41
1.00000000000002
10
37.1178655176941
20
0.89857221963608
30
0
41
1.00000000000002
10
37.0023007652408
20
0.913680959455079
30
0
41
1.00000000000002
10
36.8405118870019
20
0.934076841279861
30
0
41
1.00000000000002
10
36.7018461145661
20
0.950805679888944
30
0
41
1.00000000000002
10
36.5631783550912
20
0.966855076403888
30
0
41
1.00000000000002
10
36.4476136613056
20
0.979742860437667
30
0
41
1.00000000000002
10
36.2858247989613
20
0.996977307635674
30
0
41
1.00000000000002
10
36.1471589779125
20
1.01093888824492
30
0
41
1.00000000000002
10
36.0084911310309
20
1.02417879156592
30
0
41
1.00000000000002
10
35.8929263414822
20
1.03470276056491
30
0
41
1.00000000000002
10
35.7311373214781
20
1.04858319230821
30
0
41
1.00000000000002
10
35.5924713617547
20
1.05961966552557
30
0
41
1.00000000000002
10
35.4538033993466
20
1.06989870799724
30
0
41
1.00000000000002
10
35.3382385340528
20
1.07793740953612
30
0
41
1.00000000000002
10
35.1764494546144
20
1.08830130890983
30
0
41
1.00000000000002
10
35.0377835019793
20
1.09628068997018
30
0
41
1.00000000000002
10
34.8991156026171
20
1.10347335221384
30
0
41
1.00000000000002
10
34.7835508301919
20
1.10892680398116
30
0
41
1.00000000000002
10
34.6217619221478
20
1.11564461128837
30
0
41
1.00000000000002
10
34.4830961201364
20
1.12046950611223
30
0
41
1.00000000000002
10
34.3444283265878
20
1.12449371703955
30
0
41
1.00000000000002
10
34.2288635998157
20
1.1273044218798
30
0
41
1.00000000000002
10
34.0670746868663
20
1.13031188342368
30
0
41
1.00000000000002
10
33.9284088240078
20
1.13194078893086
30
0
41
1.00000000000002
10
33.7897409437871
20
1.13276259434143
30
0
41
1.00000000000002
10
33.6741761348651
20
1.13290663683953
30
0
41
1.00000000000002
10
33.5123871004799
20
1.13217738508156
30
0
41
1.00000000000002
10
33.3737211369235
20
1.13059472050371
30
0
41
1.00000000000002
10
33.2350531715813
20
1.12820458518844
30
0
41
1.00000000000002
10
33.1194883028833
20
1.12567818893883
30
0
41
1.00000000000002
10
32.9576992209792
20
1.12121376775634
30
0
41
1.00000000000002
10
32.8190332733854
20
1.11642765685347
30
0
41
1.00000000000002
10
32.6803653905677
20
1.11083953727912
30
0
41
1.00000000000002
10
32.5648006380693
20
1.10565830447591
30
0
41
1.00000000000002
10
32.4030117639193
20
1.09749134427299
30
0
41
1.00000000000002
10
32.2643459943494
20
1.08954539149742
30
0
41
1.00000000000002
10
32.1256782316331
20
1.08082114681959
30
0
41
1.00000000000002
10
32.0101135311139
20
1.07304940908243
30
0
41
1.00000000000002
10
31.8483246578915
20
1.06128878501947
30
0
41
1.00000000000002
10
31.7096588312432
20
1.05029149249652
30
0
41
1.00000000000002
10
31.5905746936889
20
1.04020521484485
30
0
41
1.00000000000002
10
31.5408219306558
20
1.03584460895807
30
0
41
1.00000000000002
10
31.5141813947942
20
1.03346885897132
30
0
0
SPLINE
5
C5
100
AcDbEntity
8
1
62
256
6
ByLayer
370
18
48
1
60
0
100
AcDbSpline
70
4
71
3
72
8
73
4
40
0
40
0
40
0
40
0
40
1
40
1
40
1
40
1
41
1
10
50.9794181914011
20
-0.11416425476969
30
0
41
1
10
50.7320981310207
20
-0.825264502378786
30
0
41
1
10
50.4882666211322
20
-1.53755253629171
30
0
41
1
10
50.2479589193959
20
-2.25104036108351
30
0
0
SPLINE
5
C6
100
AcDbEntity
8
1
62
256
6
ByLayer
370
18
48
1
60
0
100
AcDbSpline
70
4
71
3
72
50
73
46
40
0
40
0
40
0
40
0
40
0.0075526266158598
40
0.0075526266158598
40
0.0661023736306366
40
0.0661023736306366
40
0.095377247138025
40
0.095377247138025
40
0.124652120645413
40
0.124652120645413
40
0.241751614674969
40
0.241751614674969
40
0.271026488182358
40
0.271026488182358
40
0.300301361689746
40
0.300301361689746
40
0.329576235197135
40
0.329576235197135
40
0.358851108704524
40
0.358851108704524
40
0.417400855719301
40
0.417400855719301
40
0.475950602734079
40
0.475950602734079
40
0.534500349748857
40
0.534500349748857
40
0.593050096763635
40
0.593050096763635
40
0.710149590793193
40
0.710149590793193
40
0.739424464300582
40
0.739424464300582
40
0.768699337807971
40
0.768699337807971
40
0.827249084822748
40
0.827249084822748
40
0.885798831837526
40
0.885798831837526
40
0.915073705344916
40
0.915073705344916
40
0.944348578852306
40
0.944348578852306
40
0.973623452359695
40
0.973623452359695
40
1
40
1
40
1
40
1
41
1
10
13.3663423003222
20
1.75725094534778
30
0
41
1
10
13.4184897852856
20
1.77763205896582
30
0
41
1
10
13.4706464235065
20
1.79775686317268
30
0
41
1
10
13.9272514423941
20
1.97159063377765
30
0
41
1
10
14.3326091942193
20
2.1095496015422
30
0
41
1
10
14.9455926116085
20
2.28706908700909
30
0
41
1
10
15.1505965752011
20
2.34138628815305
30
0
41
1
10
15.558126804429
20
2.43819561870819
30
0
41
1
10
15.7610697504423
20
2.48105072197339
30
0
41
1
10
16.7741463478088
20
2.66602769749494
30
0
41
1
10
17.5776120818809
20
2.72147061161377
30
0
41
1
10
18.5959182232944
20
2.66642793876989
30
0
41
1
10
18.8008501540476
20
2.64919399284767
30
0
41
1
10
19.2096546881015
20
2.60252270776223
30
0
41
1
10
19.4137709347938
20
2.57318604658528
30
0
41
1
10
19.8217402568751
20
2.50274858337829
30
0
41
1
10
20.0256894628849
20
2.4617038122723
30
0
41
1
10
20.4340206527342
20
2.36831624386579
30
0
41
1
10
20.6386751681866
20
2.3158687855838
30
0
41
1
10
21.2521529912227
20
2.14306760556303
30
0
41
1
10
21.6594049703701
20
2.00712502150372
30
0
41
1
10
22.4759019932496
20
1.70071700914895
30
0
41
1
10
22.8853841393023
20
1.52950458045638
30
0
41
1
10
23.7011073131899
20
1.16317968057604
30
0
41
1
10
24.1090119494227
20
0.9676132736206
30
0
41
1
10
24.9265342942148
20
0.560463295116477
30
0
41
1
10
25.3318841501442
20
0.351805902755586
30
0
41
1
10
26.5438480770316
20
-0.277325174406371
30
0
41
1
10
27.3468295503303
20
-0.700029023449076
30
0
41
1
10
28.367594760862
20
-1.18689811994469
30
0
41
1
10
28.5718939958564
20
-1.28207368007853
30
0
41
1
10
28.9782632040842
20
-1.46479545548397
30
0
41
1
10
29.1807120940937
20
-1.55282340022168
30
0
41
1
10
29.7869304644252
20
-1.80529436830008
30
0
41
1
10
30.189533200274
20
-1.95821418937877
30
0
41
1
10
30.9958137836649
20
-2.22742331641979
30
0
41
1
10
31.3998433392654
20
-2.34329080246752
30
0
41
1
10
32.0101547353563
20
-2.4850320791401
30
0
41
1
10
32.214784456056
20
-2.52690149163917
30
0
41
1
10
32.6227214737025
20
-2.59862928510407
30
0
41
1
10
32.8263520810741
20
-2.62854763288618
30
0
41
1
10
33.2336022116027
20
-2.67620614672126
30
0
41
1
10
33.4371366339081
20
-2.69397464735005
30
0
41
1
10
33.8247116732524
20
-2.71593368763538
30
0
41
1
10
34.0087901117584
20
-2.72131251012715
30
0
41
1
10
34.1926771840235
20
-2.72159029442238
30
0
0
SPLINE
5
C7
100
AcDbEntity
8
1
62
256
6
ByLayer
370
18
48
1
60
0
100
AcDbSpline
70
4
71
3
72
16
73
12
40
0
40
0
40
0
40
0
40
0.0846656231681151
40
0.0846656231681151
40
0.389777082112077
40
0.389777082112077
40
0.694888541056038
40
0.694888541056038
40
0.847444270528019
40
0.847444270528019
40
1
40
1
40
1
40
1
41
1
10
46.0770386349782
20
1.79205548616648
30
0
41
1
10
46.1892779256723
20
1.83695470741884
30
0
41
1
10
46.3013325898695
20
1.8805427340458
30
0
41
1
10
46.8167041144681
20
2.07471381674895
30
0
41
1
10
47.2182053289167
20
2.20909729248657
30
0
41
1
10
48.0227185814686
20
2.43636000330662
30
0
41
1
10
48.4254230622828
20
2.52958545173749
30
0
41
1
10
49.0338892784058
20
2.63469843962619
30
0
41
1
10
49.2379502754619
20
2.6639654032721
30
0
41
1
10
49.6450503448187
20
2.71010664582155
30
0
41
1
10
49.8484030104493
20
2.72695403513518
30
0
41
1
10
50.0516390385683
20
2.73757501157371
30
0
0
SPLINE
5
C8
100
AcDbEntity
8
1
62
256
6
ByLayer
370
18
48
1
60
0
100
AcDbSpline
70
4
71
3
72
16
73
12
40
0
40
0
40
0
40
0
40
0.0518606413838856
40
0.0518606413838856
40
0.288895481037914
40
0.288895481037914
40
0.407412900864928
40
0.407412900864928
40
0.525930320691943
40
0.525930320691943
40
1
40
1
40
1
40
1
41
1
10
5.94761602254277
20
2.670746023389
30
0
41
1
10
5.94755720024125
20
2.67074914407763
30
0
41
1
10
5.9474979245712
20
2.67022984295375
30
0
41
1
10
5.94716591234672
20
2.66444041402627
30
0
41
1
10
5.94688459168285
20
2.64895401554952
30
0
41
1
10
5.94643862284596
20
2.6098844498303
30
0
41
1
10
5.94628592703828
20
2.59420932106707
30
0
41
1
10
5.94597010219638
20
2.55745339081042
30
0
41
1
10
5.94580621598831
20
2.53625880107728
30
0
41
1
10
5.94496610068063
20
2.41808543029686
30
0
41
1
10
5.9442269754783
20
2.28531980920422
30
0
41
1
10
5.94334195887015
20
2.11413415217399
30
0
0
SPLINE
5
C9
100
AcDbEntity
8
1
62
256
6
ByLayer
370
18
48
1
60
0
100
AcDbSpline
70
4
71
3
72
8
73
4
40
0
40
0
40
0
40
0
40
1
40
1
40
1
40
1
41
1
10
50.9998427903514
20
0.0557422459975498
30
0
41
1
10
50.9930070961325
20
0.0751938636195462
30
0
41
1
10
50.9861990237113
20
0.0946678519007378
30
0
41
1
10
50.9794181913955
20
0.114164254785777
30
0
0
SPLINE
5
CA
100
AcDbEntity
8
1
62
256
6
ByLayer
370
18
48
1
60
0
100
AcDbSpline
70
4
71
3
72
12
73
8
40
0
40
0
40
0
40
0
40
0.250000000000002
40
0.250000000000002
40
0.500000000000003
40
0.500000000000003
40
1
40
1
40
1
40
1
41
1
10
50.0629418212966
20
1.13279648712651
30
0
41
1
10
50.0593372205914
20
1.22984530500921
30
0
41
1
10
50.0654358847739
20
1.32492424792594
30
0
41
1
10
50.0863292222157
20
1.51331674041094
30
0
41
1
10
50.1013848631916
20
1.60657731150934
30
0
41
1
10
50.1541018282667
20
1.88482627815662
30
0
41
1
10
50.1991112276797
20
2.06832292868128
30
0
41
1
10
50.2479589193973
20
2.25104036108391
30
0
0
SPLINE
5
CB
100
AcDbEntity
8
1
62
256
6
ByLayer
370
18
48
1
60
0
100
AcDbSpline
70
4
71
3
72
16
73
12
40
0
40
0
40
0
40
0
40
0.25
40
0.25
40
0.5
40
0.5
40
0.625
40
0.625
40
0.75
40
0.75
40
1
40
1
40
1
40
1
41
1
10
49.6756752778343
20
0.119403762052514
30
0
41
1
10
49.6508973686131
20
-0.0219452064391135
30
0
41
1
10
49.6316522204977
20
-0.164478730947508
30
0
41
1
10
49.6050474189053
20
-0.44781742898499
30
0
41
1
10
49.5977979459714
20
-0.586858203966102
30
0
41
1
10
49.5958424463733
20
-0.791546283928
30
0
41
1
10
49.596684177998
20
-0.859127041154807
30
0
41
1
10
49.601414724609
20
-0.992965314295105
30
0
41
1
10
49.6053321826329
20
-1.0594485340346
30
0
41
1
10
49.6215137573361
20
-1.25365085003941
30
0
41
1
10
49.6381659258945
20
-1.37702096886193
30
0
41
1
10
49.660554803154
20
-1.4944258285222
30
0
0
SPLINE
5
CC
100
AcDbEntity
8
1
62
256
6
ByLayer
370
18
48
1
60
0
100
AcDbSpline
70
4
71
1
72
4
73
2
40
0
40
0
40
1
40
1
41
1
10
49.9986369434997
20
-2.66739138571572
30
0
41
1
10
50.5538260565782
20
-0.793104351122224
30
0
0
SPLINE
5
CD
100
AcDbEntity
8
1
62
256
6
ByLayer
370
13
48
1
60
0
100
AcDbSpline
70
4
71
3
72
24
73
20
40
0
40
0
40
0
40
0
40
0.0427564444056348
40
0.0740209614911209
40
0.136549995662097
40
0.199079029833073
40
0.292872581089538
40
0.324137098175024
40
0.386666132346
40
0.449195166516976
40
0.54298871777344
40
0.574253234858926
40
0.636782269029902
40
0.699311303200879
40
0.793104854457343
40
0.824369371542829
40
0.886898405713805
40
0.949427439884781
40
1
40
1
40
1
40
1
41
1.00000000000002
10
50.0629420007406
20
1.13279648606659
30
0
41
1.00000000000002
10
50.0313357227134
20
1.13280324920022
30
0
41
1.00000000000002
10
49.9766185573241
20
1.13270840173088
30
0
41
1.00000000000002
10
49.8756783373619
20
1.13218468539268
30
0
41
1.00000000000002
10
49.7601136335948
20
1.13104628953304
30
0
41
1.00000000000002
10
49.5983247562244
20
1.12852300138645
30
0
41
1.00000000000002
10
49.4596589222187
20
1.12540305628157
30
0
41
1.00000000000002
10
49.3209910636518
20
1.12148117378267
30
0
41
1.00000000000002
10
49.2054262654276
20
1.11768534328273
30
0
41
1.00000000000002
10
49.0436372358928
20
1.11145412245396
30
0
41
1.00000000000002
10
48.9049712714721
20
1.10516351578543
30
0
41
1.00000000000002
10
48.7663033079059
20
1.09808412882451
30
0
41
1.00000000000002
10
48.6507384444059
20
1.09167212592454
30
0
41
1.00000000000002
10
48.4889493718902
20
1.081797044624
30
0
41
1.00000000000002
10
48.3502834286302
20
1.07239699049889
30
0
41
1.00000000000002
10
48.2116155401077
20
1.06222657322551
30
0
41
1.00000000000002
10
48.0960507750956
20
1.05325728211939
30
0
41
1.00000000000002
10
47.9662135534173
20
1.04248247981029
30
0
41
1.00000000000002
10
47.8826062708488
20
1.03514825347629
30
0
41
1.00000000000002
10
47.8452221802895
20
1.03178921268194
30
0
0
SPLINE
5
CE
100
AcDbEntity
8
1
62
256
6
ByLayer
370
13
48
1
60
0
100
AcDbSpline
70
4
71
3
72
85
73
81
40
0
40
0
40
0
40
0
40
0.0020367175514978
40
0.0215342578489775
40
0.0280334379481369
40
0.0410317981464555
40
0.0540301583447781
40
0.0735276986422561
40
0.0800268787414156
40
0.0930252389397354
40
0.106023599138055
40
0.125521139435535
40
0.132020319534694
40
0.145018679733013
40
0.158017039931334
40
0.177514580228813
40
0.184013760327973
40
0.197012120526293
40
0.210010480724612
40
0.229508021022092
40
0.236007201121252
40
0.249005561319571
40
0.262003921517891
40
0.28150146181537
40
0.28800064191453
40
0.30099900211285
40
0.31399736231117
40
0.333494902608649
40
0.339994082707809
40
0.352992442906128
40
0.365990803104448
40
0.385488343401928
40
0.391987523501088
40
0.404985883699407
40
0.417984243897727
40
0.437481784195207
40
0.443980964294366
40
0.456979324492685
40
0.469977684691005
40
0.489475224988485
40
0.495974405087645
40
0.508972765285964
40
0.521971125484284
40
0.541468665781764
40
0.547967845880923
40
0.560966206079243
40
0.573964566277563
40
0.593462106575042
40
0.599961286674202
40
0.612959646872523
40
0.625958007070842
40
0.64545554736832
40
0.651954727467481
40
0.6649530876658
40
0.67795144786412
40
0.6974489881616
40
0.703948168260759
40
0.716946528459079
40
0.729944888657398
40
0.749442428954879
40
0.755941609054038
40
0.768939969252358
40
0.781938329450677
40
0.801435869748157
40
0.807935049847317
40
0.820933410045636
40
0.833931770243956
40
0.853429310541435
40
0.859928490640595
40
0.872926850838916
40
0.885925211037235
40
0.905422751334714
40
0.911921931433874
40
0.924920291632194
40
0.937918651830513
40
0.957416192127993
40
0.963915372227153
40
0.976913732425472
40
0.989912092623792
40
1
40
1
40
1
40
1
41
1.00000000000002
10
25.7916046530786
20
-0.0559126392166141
30
0
41
1.00000000000002
10
25.7843617338898
20
-0.0543385646650725
30
0
41
1.00000000000002
10
25.7077825096715
20
-0.0376924128661068
30
0
41
1.00000000000002
10
25.6080961292476
20
-0.0159724899930322
30
0
41
1.00000000000002
10
25.4694283555646
20
0.0142509389475547
30
0
41
1.00000000000002
10
25.3538636436935
20
0.0393817998807145
30
0
41
1.00000000000002
10
25.1920747511256
20
0.0745260848028966
30
0
41
1.00000000000002
10
25.0534089047618
20
0.10464899153598
30
0
41
1.00000000000002
10
24.9147410404558
20
0.134694548421576
30
0
41
1.00000000000002
10
24.799176241329
20
0.159619080090292
30
0
41
1.00000000000002
10
24.637387213492
20
0.194374531788949
30
0
41
1.00000000000002
10
24.4987212510386
20
0.224061649395051
30
0
41
1.00000000000002
10
24.3600532863473
20
0.253586545351762
30
0
41
1.00000000000002
10
24.2444884198041
20
0.278021703653361
30
0
41
1.00000000000002
10
24.082699341401
20
0.31199599995548
30
0
41
1.00000000000002
10
23.9440333930655
20
0.340914641020016
30
0
41
1.00000000000002
10
23.8053655012996
20
0.36958982336642
30
0
41
1.00000000000002
10
23.6898007383437
20
0.393264406216895
30
0
41
1.00000000000002
10
23.5280118518283
20
0.426080965714498
30
0
41
1.00000000000002
10
23.3893460784557
20
0.453909392001968
30
0
41
1.00000000000002
10
23.2506783232748
20
0.481412827565144
30
0
41
1.00000000000002
10
23.1351136364148
20
0.50405865223265
30
0
41
1.00000000000002
10
22.9733247888303
20
0.535342754616059
30
0
41
1.00000000000002
10
22.8346589845782
20
0.561761447560079
30
0
41
1.00000000000002
10
22.6959911562799
20
0.587777675013447
30
0
41
1.00000000000002
10
22.5804263831054
20
0.609135556875022
30
0
41
1.00000000000002
10
22.4186373852848
20
0.638530095301168
30
0
41
1.00000000000002
10
22.2799714411391
20
0.663238386317052
30
0
41
1.00000000000002
10
22.1413034884439
20
0.68747189106411
30
0
41
1.00000000000002
10
22.0257386264372
20
0.707299559994755
30
0
41
1.00000000000002
10
21.8639495413138
20
0.73447159623949
30
0
41
1.00000000000002
10
21.7252835720649
20
0.757190022634279
30
0
41
1.00000000000002
10
21.5866156466219
20
0.779366869209712
30
0
41
1.00000000000002
10
21.4710508373904
20
0.797440265327099
30
0
41
1.00000000000002
10
21.3092618500913
20
0.822082601939416
30
0
41
1.00000000000002
10
21.1705959623296
20
0.842553856768249
30
0
41
1.00000000000002
10
21.031928081385
20
0.86242213514855
30
0
41
1.00000000000002
10
20.9163632836041
20
0.87853540503015
30
0
41
1.00000000000002
10
20.7545742866482
20
0.900366338024398
30
0
41
1.00000000000002
10
20.6159083807839
20
0.91835530522404
30
0
41
1.00000000000002
10
20.4772404947616
20
0.935685952973941
30
0
41
1.00000000000002
10
20.3616757180065
20
0.94965275764558
30
0
41
1.00000000000002
10
20.1998867893745
20
0.968419962984839
30
0
41
1.00000000000002
10
20.0612209589965
20
0.983720181402062
30
0
41
1.00000000000002
10
19.9225531357172
20
0.99831704587261
30
0
41
1.00000000000002
10
19.8069883861262
20
1.00998142949599
30
0
41
1.00000000000002
10
19.6451994537665
20
1.02547800065177
30
0
41
1.00000000000002
10
19.5065335956204
20
1.03792218035106
30
0
41
1.00000000000002
10
19.3678657477553
20
1.0496250111626
30
0
41
1.00000000000002
10
19.252300977182
20
1.05885812520618
30
0
41
1.00000000000002
10
19.0905120039088
20
1.07091141813281
30
0
41
1.00000000000002
10
18.9518460959879
20
1.08035937450488
30
0
41
1.00000000000002
10
18.813178181629
20
1.0890351630821
30
0
41
1.00000000000002
10
18.6976133528147
20
1.09573130651519
30
0
41
1.00000000000002
10
18.5358243173497
20
1.10420149881632
30
0
41
1.00000000000002
10
18.3971583923643
20
1.1105411804473
30
0
41
1.00000000000002
10
18.2584905099704
20
1.11608442856372
30
0
41
1.00000000000002
10
18.1429257439855
20
1.12016027911302
30
0
41
1.00000000000002
10
17.9811368345637
20
1.12494091561929
30
0
41
1.00000000000002
10
17.8424710250964
20
1.12809429512366
30
0
41
1.00000000000002
10
17.7038032246627
20
1.13044164692788
30
0
41
1.00000000000002
10
17.588238495537
20
1.13185480642464
30
0
41
1.00000000000002
10
17.4264495871037
20
1.13290206918476
30
0
41
1.00000000000002
10
17.287783735787
20
1.13284463742128
30
0
41
1.00000000000002
10
17.1491158729526
20
1.1319789234095
30
0
41
1.00000000000002
10
17.0335510798901
20
1.1307193509274
30
0
41
1.00000000000002
10
16.8717620697215
20
1.12802664734069
30
0
41
1.00000000000002
10
16.7330961312345
20
1.12476073401946
30
0
41
1.00000000000002
10
16.5944281965556
20
1.12069172979132
30
0
41
1.00000000000002
10
16.4788633580864
20
1.11677271630795
30
0
41
1.00000000000002
10
16.31707431865
20
1.11036681884896
30
0
41
1.00000000000002
10
16.1784083975803
20
1.10392306462459
30
0
41
1.00000000000002
10
16.0397405215852
20
1.09668722772706
30
0
41
1.00000000000002
10
15.9241757586436
20
1.09014293308404
30
0
41
1.00000000000002
10
15.7623868469054
20
1.08008162878558
30
0
41
1.00000000000002
10
15.6237210298388
20
1.07052380265064
30
0
41
1.00000000000002
10
15.4850532185727
20
1.06020134082634
30
0
41
1.00000000000002
10
15.3694884774396
20
1.05111007636334
30
0
41
1.00000000000002
10
15.2411625478736
20
1.04033081486416
30
0
41
1.00000000000002
10
15.1590663818166
20
1.03305551727807
30
0
41
1.00000000000002
10
15.1231934689884
20
1.02980358722574
30
0
0
SPLINE
5
CF
100
AcDbEntity
8
1
62
256
6
ByLayer
370
18
48
1
60
0
100
AcDbSpline
70
4
71
3
72
8
73
4
40
0
40
0
40
0
40
0
40
1
40
1
40
1
40
1
41
1
10
50.9794181914
20
0.114164254772731
30
0
41
1
10
50.7320997687936
20
0.825259793417189
30
0
41
1
10
50.4882682178333
20
1.53754779559162
30
0
41
1
10
50.247958919396
20
2.2510403610834
30
0
0
SPLINE
5
D0
100
AcDbEntity
8
1
62
256
6
ByLayer
370
18
48
1
60
0
100
AcDbSpline
70
4
71
3
72
8
73
4
40
0
40
0
40
0
40
0
40
1
40
1
40
1
40
1
41
1
10
49.6756752778342
20
0.119403762052514
30
0
41
1
10
49.7975614535878
20
0.0893661201271527
30
0
41
1
10
49.9200617694643
20
0.0632022301680024
30
0
41
1
10
50.0432236224207
20
0.0412110533539476
30
0
0
SPLINE
5
D1
100
AcDbEntity
8
1
62
256
6
ByLayer
370
18
48
1
60
0
100
AcDbSpline
70
4
71
3
72
10
73
6
40
0
40
0
40
0
40
0
40
0.5
40
0.5
40
1
40
1
40
1
40
1
41
1
10
7.64688627161266
20
0.726241878059994
30
0
41
1
10
8.22059800530107
20
0.482397944270502
30
0
41
1
10
8.79459904979677
20
0.239777648964036
30
0
41
1
10
9.94214854104348
20
-0.245587179372222
30
0
41
1
10
10.5157089756573
20
-0.488301814635321
30
0
41
1
10
11.0889237119902
20
-0.7312995187865
30
0
0
SPLINE
5
D2
100
AcDbEntity
8
1
62
256
6
ByLayer
370
18
48
1
60
0
100
AcDbSpline
70
4
71
3
72
16
73
12
40
0
40
0
40
0
40
0
40
0.264491668897681
40
0.264491668897681
40
0.528983337795363
40
0.528983337795363
40
0.793475006693044
40
0.793475006693044
40
0.925720841141885
40
0.925720841141885
40
1
40
1
40
1
40
1
41
1
10
5.95016581785879
20
-2.22023380788082
30
0
41
1
10
5.94999742060315
20
-2.29713947571671
30
0
41
1
10
5.94980851311081
20
-2.36479162505501
30
0
41
1
10
5.94939838805368
20
-2.48145224445256
30
0
41
1
10
5.9491755530737
20
-2.5305597167453
30
0
41
1
10
5.94871455359154
20
-2.60652944074343
30
0
41
1
10
5.94847502135255
20
-2.63393772697822
30
0
41
1
10
5.94809952120482
20
-2.65925792689327
30
0
41
1
10
5.94797159597073
20
-2.66505427677748
30
0
41
1
10
5.94776658091001
20
-2.66987265026913
30
0
41
1
10
5.94769182600797
20
-2.67073970779518
30
0
41
1
10
5.94761632376333
20
-2.67074600284155
30
0
0
SPLINE
5
D3
100
AcDbEntity
8
1
62
256
6
ByLayer
370
18
48
1
60
0
100
AcDbSpline
70
4
71
3
72
8
73
4
40
0
40
0
40
0
40
0
40
1
40
1
40
1
40
1
41
1
10
9.09456098888066
20
2.59813172199017
30
0
41
1
10
9.05654667628335
20
2.59819252427437
30
0
41
1
10
9.01856802587372
20
2.59810758196252
30
0
41
1
10
8.98062658836255
20
2.59786871457337
30
0
0
SPLINE
5
D4
100
AcDbEntity
8
1
62
256
6
ByLayer
370
18
48
1
60
0
100
AcDbSpline
70
4
71
3
72
10
73
6
40
0
40
0
40
0
40
0
40
0.5
40
0.5
40
1
40
1
40
1
40
1
41
1
10
49.9986369435
20
-2.66739138571583
30
0
41
1
10
49.997742365253
20
-2.63111606226318
30
0
41
1
10
49.9913022713441
20
-2.60168941594196
30
0
41
1
10
49.9729543302211
20
-2.55435342481295
30
0
41
1
10
49.9610063159812
20
-2.53616893123424
30
0
41
1
10
49.9472954125309
20
-2.5221264291558
30
0
0
SPLINE
5
D5
100
AcDbEntity
8
1
62
256
6
ByLayer
370
18
48
1
60
0
100
AcDbSpline
70
4
71
3
72
20
73
16
40
0
40
0
40
0
40
0
40
0.125
40
0.125
40
0.249999999999999
40
0.249999999999999
40
0.374999999999999
40
0.374999999999999
40
0.499999999999998
40
0.499999999999998
40
0.624999999999997
40
0.624999999999997
40
0.749999999999997
40
0.749999999999997
40
1
40
1
40
1
40
1
41
1
10
50.518756808724
20
-0.80543821963451
30
0
41
1
10
50.487608403856
20
-0.810473970520604
30
0
41
1
10
50.4574627076288
20
-0.807812079486837
30
0
41
1
10
50.3989473207037
20
-0.78885417275086
30
0
41
1
10
50.3707569092175
20
-0.77244998726124
30
0
41
1
10
50.3181135051769
20
-0.728953592354372
30
0
41
1
10
50.2932683888295
20
-0.701649138417309
30
0
41
1
10
50.2466904517886
20
-0.637822570181356
30
0
41
1
10
50.2253167845779
20
-0.601849022108041
30
0
41
1
10
50.1858004602061
20
-0.523052479570509
30
0
41
1
10
50.1676635070007
20
-0.480217393240878
30
0
41
1
10
50.1343419338619
20
-0.388288543522634
30
0
41
1
10
50.1191373908757
20
-0.339008016245657
30
0
41
1
10
50.0786859650406
20
-0.185917265503008
30
0
41
1
10
50.0580833166761
20
-0.075929426769676
30
0
41
1
10
50.0432236224207
20
0.0412110533539192
30
0
0
SPLINE
5
D6
100
AcDbEntity
8
1
62
256
6
ByLayer
370
13
48
1
60
0
100
AcDbSpline
70
4
71
3
72
14
73
10
40
0
40
0
40
0
40
0
40
0.111753286946128
40
0.111753286946128
40
0.407835524630752
40
0.407835524630752
40
0.703917762315376
40
0.703917762315376
40
1
40
1
40
1
40
1
41
1
10
6.33383814149963
20
-2.59405117572032
30
0
41
1
10
6.33383668271375
20
-2.59388722433167
30
0
41
1
10
6.33383577139398
20
-2.59227578214163
30
0
41
1
10
6.33383456803506
20
-2.58111157471114
30
0
41
1
10
6.33383787446456
20
-2.56251926805697
30
0
41
1
10
6.33385230621104
20
-2.50560553001861
30
0
41
1
10
6.33386335214757
20
-2.46743211971963
30
0
41
1
10
6.3338910920146
20
-2.3719035056431
30
0
41
1
10
6.3339078821536
20
-2.31423195988552
30
0
41
1
10
6.33392572808185
20
-2.24718819020876
30
0
0
SPLINE
5
D7
100
AcDbEntity
8
1
62
256
6
ByLayer
370
18
48
1
60
0
100
AcDbSpline
70
4
71
3
72
8
73
4
40
0
40
0
40
0
40
0
40
1
40
1
40
1
40
1
41
1
10
50.0516390385682
20
2.73757501157374
30
0
41
1
10
50.1163658685558
20
2.57917500866108
30
0
41
1
10
50.1820286737041
20
2.41714906779876
30
0
41
1
10
50.2479589193959
20
2.25104036108314
30
0
0
SPLINE
5
D8
100
AcDbEntity
8
1
62
256
6
ByLayer
370
18
48
1
60
0
100
AcDbSpline
70
4
71
3
72
8
73
4
40
0
40
0
40
0
40
0
40
1
40
1
40
1
40
1
41
1
10
50.0603383233269
20
1.08774734490334
30
0
41
1
10
50.0626592615566
20
1.10253551997289
30
0
41
1
10
50.0635024979756
20
1.11770592496657
30
0
41
1
10
50.062942001283
20
1.13279647147454
30
0
0
SPLINE
5
D9
100
AcDbEntity
8
1
62
256
6
ByLayer
370
13
48
1
60
0
100
AcDbSpline
70
4
71
3
72
10
73
6
40
0
40
0
40
0
40
0
40
0.5
40
0.5
40
1
40
1
40
1
40
1
41
1
10
5.94334195887015
20
2.11413415217393
30
0
41
1
10
6.00585896649494
20
2.08046794441736
30
0
41
1
10
6.07034176852906
20
2.05162864367091
30
0
41
1
10
6.20071309865003
20
2.00344774346775
30
0
41
1
10
6.26691461271272
20
1.98394135234832
30
0
41
1
10
6.33399473099729
20
1.96882628366717
30
0
0
SPLINE
5
DA
100
AcDbEntity
8
1
62
256
6
ByLayer
370
18
48
1
60
0
100
AcDbSpline
70
4
71
3
72
34
73
30
40
0
40
0
40
0
40
0
40
0.101435310603292
40
0.101435310603292
40
0.202870621206583
40
0.202870621206583
40
0.304305931809875
40
0.304305931809875
40
0.35502358711152
40
0.35502358711152
40
0.405741242413165
40
0.405741242413165
40
0.45645889771481
40
0.45645889771481
40
0.507176553016455
40
0.507176553016455
40
0.608611863619746
40
0.608611863619746
40
0.659329518921391
40
0.659329518921391
40
0.710047174223036
40
0.710047174223036
40
0.811482484826326
40
0.811482484826326
40
0.862200140127972
40
0.862200140127972
40
0.912917795429618
40
0.912917795429618
40
1
40
1
40
1
40
1
41
1
10
6.23795883480793
20
1.91244055644611
30
0
41
1
10
6.69626633236689
20
1.748777798899
30
0
41
1
10
7.15410862808722
20
1.56253856861713
30
0
41
1
10
8.06660797964153
20
1.15962911350476
30
0
41
1
10
8.52280367207842
20
0.942593481536932
30
0
41
1
10
9.43868231435627
20
0.489223244292049
30
0
41
1
10
9.89436179098948
20
0.254952206821116
30
0
41
1
10
10.5796564321678
20
-0.0978139452687685
30
0
41
1
10
10.8087529900475
20
-0.215848653372404
30
0
41
1
10
11.2660411309364
20
-0.449769457374174
30
0
41
1
10
11.4942245324604
20
-0.565608372914028
30
0
41
1
10
11.9505648015358
20
-0.793347326932718
30
0
41
1
10
12.1787049749195
20
-0.905279302525315
30
0
41
1
10
12.6357790601131
20
-1.12366724081971
30
0
41
1
10
12.8648951141141
20
-1.23025146338702
30
0
41
1
10
13.5501617022253
20
-1.53760366683235
30
0
41
1
10
14.0055866820774
20
-1.72666008138702
30
0
41
1
10
14.6916143216138
20
-1.97853903298701
30
0
41
1
10
14.9203837808193
20
-2.05710832398228
30
0
41
1
10
15.3768266778608
20
-2.20154632873863
30
0
41
1
10
15.6047989510595
20
-2.26757115102058
30
0
41
1
10
16.2891889964707
20
-2.44573813489853
30
0
41
1
10
16.7471220473475
20
-2.5379501593639
30
0
41
1
10
17.4313170796152
20
-2.63053083352193
30
0
41
1
10
17.6591919594203
20
-2.65390682678211
30
0
41
1
10
18.1155314296445
20
-2.685280246579
30
0
41
1
10
18.3443460122196
20
-2.69328487233889
30
0
41
1
10
18.9651166721186
20
-2.69379114511253
30
0
41
1
10
19.3559762774281
20
-2.67111240559686
30
0
41
1
10
19.7476142109509
20
-2.62602251412756
30
0
0
SPLINE
5
DB
100
AcDbEntity
8
1
62
256
6
ByLayer
370
18
48
1
60
0
100
AcDbSpline
70
4
71
3
72
48
73
44
40
0
40
0
40
0
40
0
40
0.0047949333107766
40
0.0047949333107766
40
0.0500315272511967
40
0.0500315272511967
40
0.0952681211916168
40
0.0952681211916168
40
0.140504715132037
40
0.140504715132037
40
0.185741309072457
40
0.185741309072457
40
0.276214496953295
40
0.276214496953295
40
0.366687684834134
40
0.366687684834134
40
0.411924278774553
40
0.411924278774553
40
0.457160872714972
40
0.457160872714972
40
0.502397466655391
40
0.502397466655391
40
0.54763406059581
40
0.54763406059581
40
0.638107248476649
40
0.638107248476649
40
0.683343842417068
40
0.683343842417068
40
0.728580436357487
40
0.728580436357487
40
0.773817030297906
40
0.773817030297906
40
0.819053624238325
40
0.819053624238325
40
0.864290218178745
40
0.864290218178745
40
0.909526812119164
40
0.909526812119164
40
0.954763406059583
40
0.954763406059583
40
0.977381703029791
40
0.977381703029791
40
1
40
1
40
1
40
1
41
1
10
34.9137421552095
20
2.72288888935751
30
0
41
1
10
34.9378810122544
20
2.72293115464268
30
0
41
1
10
34.9620241157933
20
2.72288539027807
30
0
41
1
10
35.2139895481282
20
2.72148797658755
30
0
41
1
10
35.4424665830269
20
2.71237526514318
30
0
41
1
10
35.8978512539486
20
2.67863352646634
30
0
41
1
10
36.1250930204676
20
2.65399013474914
30
0
41
1
10
36.5799624174904
20
2.58974704298456
30
0
41
1
10
36.8075259245879
20
2.55014601289454
30
0
41
1
10
37.2634041508637
20
2.45614902357565
30
0
41
1
10
37.4913512702287
20
2.40178235803592
30
0
41
1
10
38.1738754641492
20
2.21920738887883
30
0
41
1
10
38.6281730950641
20
2.0706747069431
30
0
41
1
10
39.5404003994903
20
1.72821347851661
30
0
41
1
10
39.9941449583325
20
1.53559153189829
30
0
41
1
10
40.6766399300857
20
1.22305479599862
30
0
41
1
10
40.9048039311623
20
1.11470599627731
30
0
41
1
10
41.3602005252436
20
0.892448977416592
30
0
41
1
10
41.5874802834868
20
0.778660927244346
30
0
41
1
10
42.0419473302747
20
0.547145545737351
30
0
41
1
10
42.2691474521176
20
0.429441149707884
30
0
41
1
10
42.724314021374
20
0.191683872807403
30
0
41
1
10
42.9523938426048
20
0.0714938070007065
30
0
41
1
10
43.6346415007795
20
-0.287490062834905
30
0
41
1
10
44.0881763335245
20
-0.525688857311394
30
0
41
1
10
44.7714613515119
20
-0.871948752003306
30
0
41
1
10
44.9991207953034
20
-0.985204203100949
30
0
41
1
10
45.4535272989061
20
-1.20504971306147
30
0
41
1
10
45.6805338054492
20
-1.3117408887249
30
0
41
1
10
46.1349539787338
20
-1.51730433000384
30
0
41
1
10
46.3626068410919
20
-1.61631395904055
30
0
41
1
10
46.8179512804485
20
-1.80466234921011
30
0
41
1
10
47.0450831080283
20
-1.89373530889151
30
0
41
1
10
47.4991346694271
20
-2.06054175150922
30
0
41
1
10
47.7260869572941
20
-2.13823703232799
30
0
41
1
10
48.1805526862397
20
-2.28130729233987
30
0
41
1
10
48.4084826482828
20
-2.34674333727631
30
0
41
1
10
48.8633633215802
20
-2.46351445458978
30
0
41
1
10
49.0903695851833
20
-2.51490439620639
30
0
41
1
10
49.4307851889814
20
-2.58109717653264
30
0
41
1
10
49.5442390298638
20
-2.60134761594028
30
0
41
1
10
49.7711885198716
20
-2.63815454278148
30
0
41
1
10
49.8844939509469
20
-2.65479728289435
30
0
41
1
10
49.9982887962897
20
-2.66935917661095
30
0
0
SPLINE
5
DC
100
AcDbEntity
8
1
62
256
6
ByLayer
370
18
48
1
60
0
100
AcDbSpline
70
4
71
3
72
10
73
6
40
0
40
0
40
0
40
0
40
0.628739729759209
40
0.628739729759209
40
1
40
1
40
1
40
1
41
1
10
50.0432236224206
20
0.0412110533539476
30
0
41
1
10
49.9646211314384
20
0.0736110281484628
30
0
41
1
10
49.8867588486162
20
0.104197892674478
30
0
41
1
10
49.7687406810277
20
0.147313711907913
30
0
41
1
10
49.7260028407491
20
0.162150671886479
30
0
41
1
10
49.6856308962754
20
0.175169985245418
30
0
0
SPLINE
5
DD
100
AcDbEntity
8
1
62
256
6
ByLayer
370
18
48
1
60
0
100
AcDbSpline
70
4
71
3
72
8
73
4
40
0
40
0
40
0
40
0
40
1
40
1
40
1
40
1
41
1
10
50.999842790351
20
-0.0557422459986014
30
0
41
1
10
50.9930053096543
20
-0.0751989472129253
30
0
41
1
10
50.9861972450676
20
-0.0946729658970469
30
0
41
1
10
50.9794181913953
20
-0.114164254786033
30
0
0
SPLINE
5
DE
100
AcDbEntity
8
1
62
256
6
ByLayer
370
18
48
1
60
0
100
AcDbSpline
70
4
71
3
72
8
73
4
40
0
40
0
40
0
40
0
40
1
40
1
40
1
40
1
41
1
10
50.0516390385683
20
-2.73757501157368
30
0
41
1
10
50.1163678893097
20
-2.57917006345664
30
0
41
1
10
50.1820307675566
20
-2.41714379241807
30
0
41
1
10
50.2479589193959
20
-2.25104036108326
30
0
0
SPLINE
5
DF
100
AcDbEntity
8
1
62
256
6
ByLayer
370
18
48
1
60
0
100
AcDbSpline
70
4
71
3
72
8
73
4
40
0
40
0
40
0
40
0
40
1
40
1
40
1
40
1
41
1
10
49.9982887962811
20
-2.66935917663048
30
0
41
1
10
49.9984058499675
20
-2.66870212783172
30
0
41
1
10
49.9985218996491
20
-2.66804619714506
30
0
41
1
10
49.9986369435014
20
-2.66739138570736
30
0
0
SPLINE
5
E0
100
AcDbEntity
8
1
62
256
6
ByLayer
370
18
48
1
60
0
100
AcDbSpline
70
4
71
3
72
12
73
8
40
0
40
0
40
0
40
0
40
0.426570122793037
40
0.426570122793037
40
0.853140245586074
40
0.853140245586074
40
1
40
1
40
1
40
1
41
1
10
9.63730447847419
20
-1.1321917795361
30
0
41
1
10
9.69174041565597
20
-0.985161338545566
30
0
41
1
10
9.75973520792945
20
-0.842987441241746
30
0
41
1
10
9.91074172530185
20
-0.593654887596642
30
0
41
1
10
9.99367003719831
20
-0.486633957938608
30
0
41
1
10
10.105210558663
20
-0.379289767713374
30
0
41
1
10
10.1337715022644
20
-0.355028804754028
30
0
41
1
10
10.1620258877762
20
-0.334189526516639
30
0
0
SPLINE
5
E1
100
AcDbEntity
8
1
62
256
6
ByLayer
370
13
48
1
60
0
100
AcDbSpline
70
4
71
3
72
85
73
81
40
0
40
0
40
0
40
0
40
0.0040073065183466
40
0.0236624444451044
40
0.0302141570873514
40
0.0433175823718529
40
0.056421007656354
40
0.0760761455831084
40
0.0826278582253584
40
0.0957312835098591
40
0.108834708794361
40
0.128489846721114
40
0.135041559363365
40
0.148144984647866
40
0.161248409932366
40
0.180903547859123
40
0.187455260501372
40
0.200558685785873
40
0.213662111070374
40
0.233317248997128
40
0.239868961639379
40
0.252972386923881
40
0.266075812208381
40
0.285730950135135
40
0.292282662777386
40
0.305386088061888
40
0.318489513346391
40
0.338144651273142
40
0.344696363915392
40
0.357799789199892
40
0.370903214484395
40
0.390558352411147
40
0.3971100650534
40
0.410213490337901
40
0.423316915622404
40
0.442972053549155
40
0.449523766191407
40
0.462627191475908
40
0.475730616760409
40
0.495385754687164
40
0.501937467329413
40
0.515040892613914
40
0.528144317898418
40
0.547799455825169
40
0.55435116846742
40
0.567454593751922
40
0.580558019036424
40
0.600213156963174
40
0.606764869605427
40
0.61986829488993
40
0.63297172017443
40
0.652626858101182
40
0.659178570743434
40
0.672281996027936
40
0.685385421312436
40
0.705040559239188
40
0.711592271881441
40
0.724695697165942
40
0.737799122450444
40
0.757454260377195
40
0.764005973019448
40
0.777109398303949
40
0.790212823588451
40
0.809867961515204
40
0.816419674157454
40
0.829523099441956
40
0.842626524726459
40
0.862281662653209
40
0.868833375295461
40
0.881936800579964
40
0.895040225864465
40
0.914695363791217
40
0.921247076433468
40
0.93435050171797
40
0.947453927002471
40
0.967109064929225
40
0.973660777571475
40
0.986764202855976
40
0.999867628140478
40
1
40
1
40
1
40
1
41
1
10
44.3476958798003
20
-1.03717313467925
30
0
41
1
10
44.333559863009
20
-1.0384083961834
30
0
41
1
10
44.2500885826288
20
-1.0456353731357
30
0
41
1
10
44.14349981504
20
-1.05436085986733
30
0
41
1
10
44.0048239432145
20
-1.06496752722282
30
0
41
1
10
43.8892689107624
20
-1.07331097166053
30
0
41
1
10
43.7274901046923
20
-1.08409330277644
30
0
41
1
10
43.5888121668805
20
-1.09240176966378
30
0
41
1
10
43.4501362213663
20
-1.09994133310829
30
0
41
1
10
43.334581158201
20
-1.10570940118333
30
0
41
1
10
43.1728023571945
20
-1.11286320953795
30
0
41
1
10
43.0341244596287
20
-1.11804563156235
30
0
41
1
10
42.8954485646983
20
-1.12244226640752
30
0
41
1
10
42.7798935513587
20
-1.12557531157304
30
0
41
1
10
42.6181148324506
20
-1.12902405222704
30
0
41
1
10
42.4794370100918
20
-1.13102270602471
30
0
41
1
10
42.3407611854401
20
-1.13222632979418
30
0
41
1
10
42.2252062215502
20
-1.13268805480632
30
0
41
1
10
42.0634275432077
20
-1.13238976138322
30
0
41
1
10
41.9247497176616
20
-1.13117688161404
30
0
41
1
10
41.7860738500806
20
-1.12916573400304
30
0
41
1
10
41.670518822918
20
-1.12694207674394
30
0
41
1
10
41.5087400293176
20
-1.12288702849654
30
0
41
1
10
41.3700621037991
20
-1.11846767146685
30
0
41
1
10
41.231386168001
20
-1.11326188816892
30
0
41
1
10
41.1158311115859
20
-1.10838044333838
30
0
41
1
10
40.9540523214255
20
-1.10062361361597
30
0
41
1
10
40.8153744375141
20
-1.09305851511542
30
0
41
1
10
40.6766985640959
20
-1.08472630622316
30
0
41
1
10
40.5611435669195
20
-1.07724838433293
30
0
41
1
10
40.3993648623385
20
-1.06588333274703
30
0
41
1
10
40.2606870474666
20
-1.05526059647204
30
0
41
1
10
40.122011229913
20
-1.04389732309843
30
0
41
1
10
40.0064562735803
20
-1.03390766896254
30
0
41
1
10
39.8446776081112
20
-1.01906153210115
30
0
41
1
10
39.7059997937315
20
-1.00549811581106
30
0
41
1
10
39.5673239340993
20
-0.991227258220732
30
0
41
1
10
39.4517689183337
20
-0.978833445065192
30
0
41
1
10
39.2899901534008
20
-0.960666048347264
30
0
41
1
10
39.1513122607523
20
-0.944309753711764
30
0
41
1
10
39.0126363594064
20
-0.927290435027345
30
0
41
1
10
38.8970813320431
20
-0.91263327808457
30
0
41
1
10
38.7353025693218
20
-0.891354208419443
30
0
41
1
10
38.5966246794886
20
-0.872395367868336
30
0
41
1
10
38.4579487588418
20
-0.852824921999797
30
0
41
1
10
38.3423936875153
20
-0.836073513705287
30
0
41
1
10
38.180614830682
20
-0.811927024534043
30
0
41
1
10
38.0419368577209
20
-0.790582305826604
30
0
41
1
10
37.9032608883968
20
-0.768684024399164
30
0
41
1
10
37.7877058140959
20
-0.750029355019564
30
0
41
1
10
37.6259270142976
20
-0.723290482894242
30
0
41
1
10
37.4872491355582
20
-0.699802692420235
30
0
41
1
10
37.3485732736531
20
-0.675825382901536
30
0
41
1
10
37.2330182951396
20
-0.655479211034361
30
0
41
1
10
37.0712396337373
20
-0.626451241690461
30
0
41
1
10
36.932561866748
20
-0.601086665161631
30
0
41
1
10
36.7938860981622
20
-0.575302220009746
30
0
41
1
10
36.678331179541
20
-0.553495326580077
30
0
41
1
10
36.5165525534175
20
-0.52250775944475
30
0
41
1
10
36.3778747529402
20
-0.495554708991989
30
0
41
1
10
36.2391988849124
20
-0.468256690043603
30
0
41
1
10
36.1236438426301
20
-0.445237683467894
30
0
41
1
10
35.9618650093466
20
-0.412643553396123
30
0
41
1
10
35.8231870356055
20
-0.384407929929551
30
0
41
1
10
35.6845110476394
20
-0.355904124011147
30
0
41
1
10
35.5689559466978
20
-0.331931060410312
30
0
41
1
10
35.4071770975108
20
-0.298094099575195
30
0
41
1
10
35.2684991723601
20
-0.268890389214107
30
0
41
1
10
35.1298232717741
20
-0.23949920602783
30
0
41
1
10
35.0142682665724
20
-0.214840767547344
30
0
41
1
10
34.8524895750117
20
-0.180141946267639
30
0
41
1
10
34.7138117885067
20
-0.150300918621412
30
0
41
1
10
34.5751360034196
20
-0.120356967587327
30
0
41
1
10
34.4595810739406
20
-0.0952949801542786
30
0
41
1
10
34.2978024417899
20
-0.0601330427285518
30
0
41
1
10
34.1591246481887
20
-0.0300000663442006
30
0
41
1
10
34.0204488000647
20
0.0001479955321884
30
0
41
1
10
33.9048937777381
20
0.0253203936896682
30
0
41
1
10
33.8119818035879
20
0.0455443846324215
30
0
41
1
10
33.7652909301266
20
0.0556925899433054
30
0
41
1
10
33.7648239722598
20
0.0557940811856952
30
0
0
SPLINE
5
E2
100
AcDbEntity
8
1
62
256
6
ByLayer
370
13
48
1
60
0
100
AcDbSpline
70
4
71
3
72
21
73
17
40
0
40
0
40
0
40
0
40
0.0598914964537935
40
0.160617407548031
40
0.194192711246109
40
0.261343318642266
40
0.328493926038424
40
0.42921983713266
40
0.46279514083074
40
0.529945748226897
40
0.597096355623056
40
0.697822266717291
40
0.731397570415369
40
0.764972874113447
40
0.865698785207685
40
1
40
1
40
1
40
1
41
1
10
11.7024033436356
20
-1.03231017368546
30
0
41
1
10
11.661177723605
20
-1.03599376312445
30
0
41
1
10
11.5506177864634
20
-1.04560992626943
30
0
41
1
10
11.4169369272346
20
-1.05640134229319
30
0
41
1
10
11.2782609453761
20
-1.06685322057976
30
0
41
1
10
11.1627058558702
20
-1.07506974240397
30
0
41
1
10
11.0009270280734
20
-1.08567817084395
30
0
41
1
10
10.8622491211429
20
-1.09384129294998
30
0
41
1
10
10.72357323113
20
-1.10123734748817
30
0
41
1
10
10.6080182309114
20
-1.10688651432056
30
0
41
1
10
10.4462395435548
20
-1.11387505159513
30
0
41
1
10
10.3075617591535
20
-1.11891671960996
30
0
41
1
10
10.1919943383699
20
-1.12247887811364
30
0
41
1
10
10.0764439291321
20
-1.12564438851453
30
0
41
1
10
9.89156750497042
20
-1.12960449890281
30
0
41
1
10
9.72976488978208
20
-1.13157951051093
30
0
41
1
10
9.63730447847428
20
-1.1321917795361
30
0
0
SPLINE
5
E3
100
AcDbEntity
8
1
62
256
6
ByLayer
370
18
48
1
60
0
100
AcDbSpline
70
4
71
3
72
18
73
14
40
0
40
0
40
0
40
0
40
0.250000000000013
40
0.250000000000013
40
0.375000000000013
40
0.375000000000013
40
0.500000000000013
40
0.500000000000013
40
0.625000000000013
40
0.625000000000013
40
0.750000000000013
40
0.750000000000013
40
1
40
1
40
1
40
1
41
1
10
50.5538260565767
20
-0.793104351123333
30
0
41
1
10
50.5879091294582
20
-0.76221089805523
30
0
41
1
10
50.6239633242822
20
-0.718129754753534
30
0
41
1
10
50.6812051515344
20
-0.633735436218444
30
0
41
1
10
50.7007617983473
20
-0.602545474712372
30
0
41
1
10
50.7396807737895
20
-0.536162932254655
30
0
41
1
10
50.7591983578256
20
-0.500746988757726
30
0
41
1
10
50.7983315426739
20
-0.425638621422564
30
0
41
1
10
50.8180610872008
20
-0.385684835770576
30
0
41
1
10
50.8566189420877
20
-0.303547197491326
30
0
41
1
10
50.8755344760734
20
-0.261218834103516
30
0
41
1
10
50.9311636969343
20
-0.130647151138021
30
0
41
1
10
50.966940293207
20
-0.0382762978412359
30
0
41
1
10
50.9998427903514
20
0.0557422459975498
30
0
0
SPLINE
5
E4
100
AcDbEntity
8
1
62
256
6
ByLayer
370
18
48
1
60
0
100
AcDbSpline
70
4
71
3
72
20
73
16
40
0
40
0
40
0
40
0
40
0.148586679577302
40
0.148586679577302
40
0.297173359154603
40
0.297173359154603
40
0.445760038731905
40
0.445760038731905
40
0.594346718309207
40
0.594346718309207
40
0.742933397886508
40
0.742933397886508
40
0.89152007746381
40
0.89152007746381
40
1
40
1
40
1
40
1
41
1
10
9.09456098888057
20
-2.59813172199026
30
0
41
1
10
9.3071189432122
20
-2.59769964204301
30
0
41
1
10
9.51884573426764
20
-2.5910813471464
30
0
41
1
10
9.94245407299871
20
-2.56436381292903
30
0
41
1
10
10.1539827953278
20
-2.54420351320405
30
0
41
1
10
10.5775005993738
20
-2.49210327423719
30
0
41
1
10
10.7892873301502
20
-2.4602211557401
30
0
41
1
10
11.2138765470826
20
-2.38371456585239
30
0
41
1
10
11.425870363365
20
-2.33897094083267
30
0
41
1
10
11.8492179737442
20
-2.23868146112488
30
0
41
1
10
12.0607114282248
20
-2.18365265751041
30
0
41
1
10
12.4838758314058
20
-2.06133318742405
30
0
41
1
10
12.6957403629806
20
-1.99453132232196
30
0
41
1
10
13.0628640129388
20
-1.87070101055824
30
0
41
1
10
13.2176720886821
20
-1.81626263328997
30
0
41
1
10
13.3723248190633
20
-1.75949198835684
30
0
0
SPLINE
5
E5
100
AcDbEntity
8
1
62
256
6
ByLayer
370
18
48
1
60
0
100
AcDbSpline
70
4
71
3
72
72
73
68
40
0
40
0
40
0
40
0
40
0.0102031053199851
40
0.0102031053199851
40
0.040844143495104
40
0.040844143495104
40
0.0714851816702229
40
0.0714851816702229
40
0.102126219845342
40
0.102126219845342
40
0.132767258020461
40
0.132767258020461
40
0.16340829619558
40
0.16340829619558
40
0.194049334370698
40
0.194049334370698
40
0.224690372545817
40
0.224690372545817
40
0.255331410720936
40
0.255331410720936
40
0.285972448896055
40
0.285972448896055
40
0.316613487071174
40
0.316613487071174
40
0.347254525246293
40
0.347254525246293
40
0.377895563421412
40
0.377895563421412
40
0.408536601596531
40
0.408536601596531
40
0.43917763977165
40
0.43917763977165
40
0.469818677946769
40
0.469818677946769
40
0.500459716121888
40
0.500459716121888
40
0.531100754297007
40
0.531100754297007
40
0.561741792472125
40
0.561741792472125
40
0.592382830647244
40
0.592382830647244
40
0.623023868822363
40
0.623023868822363
40
0.653664906997482
40
0.653664906997482
40
0.684305945172601
40
0.684305945172601
40
0.71494698334772
40
0.71494698334772
40
0.745588021522839
40
0.745588021522839
40
0.776229059697958
40
0.776229059697958
40
0.806870097873077
40
0.806870097873077
40
0.837511136048195
40
0.837511136048195
40
0.868152174223314
40
0.868152174223314
40
0.929434250573552
40
0.929434250573552
40
0.96007528874867
40
0.96007528874867
40
0.990716326923788
40
0.990716326923788
40
1
40
1
40
1
40
1
41
1
10
25.3949454189913
20
2.62629538913717
30
0
41
1
10
25.4652875529439
20
2.62648603184138
30
0
41
1
10
25.5356242292476
20
2.62603387468553
30
0
41
1
10
25.8171667591468
20
2.62177361324012
30
0
41
1
10
26.0287200337106
20
2.61139546234577
30
0
41
1
10
26.4525764287363
20
2.57670651717768
30
0
41
1
10
26.6640746406403
20
2.55282412631971
30
0
41
1
10
27.086739527424
20
2.49459159622575
30
0
41
1
10
27.2977920630759
20
2.45911177793741
30
0
41
1
10
27.7205565547869
20
2.37495962598302
30
0
41
1
10
27.9322359762154
20
2.32621344009041
30
0
41
1
10
28.3559344430915
20
2.21940965975929
30
0
41
1
10
28.5672631208538
20
2.16071238935672
30
0
41
1
10
28.9897035647664
20
2.03173182465855
30
0
41
1
10
29.2008919138073
20
1.96166086992616
30
0
41
1
10
29.6233856617779
20
1.81286945798672
30
0
41
1
10
29.834955577515
20
1.7343641536869
30
0
41
1
10
30.2583242839577
20
1.56747283578451
30
0
41
1
10
30.4696548822304
20
1.47988454211182
30
0
41
1
10
30.8920073328756
20
1.29806812316556
30
0
41
1
10
31.1029528808805
20
1.20428463855748
30
0
41
1
10
31.5254115189417
20
1.01040546251534
30
0
41
1
10
31.7370119917397
20
0.910139865430665
30
0
41
1
10
32.1604759006067
20
0.705995270391384
30
0
41
1
10
32.3716726803552
20
0.602083200432531
30
0
41
1
10
32.7939343598283
20
0.391862906138897
30
0
41
1
10
33.0049530560806
20
0.285439238461464
30
0
41
1
10
33.4274997946225
20
0.0715639738360778
30
0
41
1
10
33.6392504243243
20
-0.0359739044030789
30
0
41
1
10
34.0622058437835
20
-0.250951819631297
30
0
41
1
10
34.2733435476971
20
-0.357563505030697
30
0
41
1
10
34.6952992307646
20
-0.56870848394604
30
0
41
1
10
34.9062645671949
20
-0.673009191818608
30
0
41
1
10
35.3283726895431
20
-0.878829157064558
30
0
41
1
10
35.5399709106155
20
-0.979934694358036
30
0
41
1
10
35.9630061489048
20
-1.17602455638735
30
0
41
1
10
36.174054594941
20
-1.27131804612
30
0
41
1
10
36.5960502130024
20
-1.45599381513594
30
0
41
1
10
36.8068377447131
20
-1.54522023740316
30
0
41
1
10
37.2291866829277
20
-1.71450361194093
30
0
41
1
10
37.4409008048441
20
-1.79513924331613
30
0
41
1
10
37.8636521877936
20
-1.94855022792967
30
0
41
1
10
38.0746185892384
20
-2.02107687382957
30
0
41
1
10
38.4963905390231
20
-2.15369589568675
30
0
41
1
10
38.7073485408948
20
-2.21434831688612
30
0
41
1
10
39.1295829463812
20
-2.32520024148101
30
0
41
1
10
39.3412240232236
20
-2.37624374349835
30
0
41
1
10
39.7636752489117
20
-2.46475007599469
30
0
41
1
10
39.9745552273365
20
-2.50223363500797
30
0
41
1
10
40.3963036110582
20
-2.56589759657035
30
0
41
1
10
40.6068954862762
20
-2.59320240516863
30
0
41
1
10
41.0288298966908
20
-2.63337973800128
30
0
41
1
10
41.2404305326271
20
-2.64586194307969
30
0
41
1
10
41.6629009748431
20
-2.65705927621448
30
0
41
1
10
41.8737783511502
20
-2.65598737774357
30
0
41
1
10
42.2954889048422
20
-2.64118116536412
30
0
41
1
10
42.5063674133244
20
-2.62746025195372
30
0
41
1
10
42.9284126405802
20
-2.58810357506624
30
0
41
1
10
43.1399810737323
20
-2.56268719791959
30
0
41
1
10
43.7727939680955
20
-2.46723797299143
30
0
41
1
10
44.1933931291272
20
-2.37622644175474
30
0
41
1
10
44.8263096010876
20
-2.2067899636186
30
0
41
1
10
45.0377517513416
20
-2.14436763412766
30
0
41
1
10
45.4597467782571
20
-2.00977682892852
30
0
41
1
10
45.6703558625314
20
-1.93747178084493
30
0
41
1
10
45.9448311748287
20
-1.83762432550159
30
0
41
1
10
46.0086497755931
20
-1.8139833588921
30
0
41
1
10
46.0724746891189
20
-1.78992743538254
30
0
0
SPLINE
5
E6
100
AcDbEntity
8
1
62
256
6
ByLayer
370
18
48
1
60
0
100
AcDbSpline
70
4
71
3
72
14
73
10
40
0
40
0
40
0
40
0
40
0.25
40
0.25
40
0.5
40
0.5
40
0.75
40
0.75
40
1
40
1
40
1
40
1
41
1
10
5.94334195886984
20
2.1141341521741
30
0
41
1
10
5.94322296449164
20
2.09111748726625
30
0
41
1
10
5.95938504166597
20
2.06911934626024
30
0
41
1
10
6.00060034711629
20
2.02976776549423
30
0
41
1
10
6.02640418948081
20
2.01202808617714
30
0
41
1
10
6.0813983764109
20
1.97960908933246
30
0
41
1
10
6.11119381220806
20
1.96467078987655
30
0
41
1
10
6.17298843531643
20
1.93697220282698
30
0
41
1
10
6.20499598718814
20
1.92421167205475
30
0
41
1
10
6.23795883482251
20
1.91244055644091
30
0
0
SPLINE
5
E7
100
AcDbEntity
8
1
62
256
6
ByLayer
370
18
48
1
60
0
100
AcDbSpline
70
4
71
2
72
6
73
3
40
0
40
0
40
0
40
1
40
1
40
1
41
1
10
25.7682508659668
20
-0.0508360844747529
30
0
41
1
10
26.346246016177
20
-0.175585438312055
30
0
41
1
10
26.9185897077425
20
-0.473632475800912
30
0
0
SPLINE
5
E8
100
AcDbEntity
8
1
62
256
6
ByLayer
370
18
48
1
60
0
100
AcDbSpline
70
4
71
2
72
6
73
3
40
0
40
0
40
0
40
1
40
1
40
1
41
1
10
17.4361844894232
20
0.0511314061377561
30
0
41
1
10
16.892678441538
20
0.16807629669475
30
0
41
1
10
16.3545230141256
20
0.439265767513547
30
0
0
SPLINE
5
E9
100
AcDbEntity
8
1
62
256
6
ByLayer
370
18
48
1
60
0
100
AcDbSpline
70
4
71
2
72
6
73
3
40
0
40
0
40
0
40
1
40
1
40
1
41
1
10
49.6936821573626
20
0.181131249018676
30
0
41
1
10
49.3808417468832
20
0.264387159715824
30
0
41
1
10
49.0010672943649
20
0.462976596571053
30
0
0
SPLINE
5
EA
100
AcDbEntity
8
1
62
256
6
ByLayer
370
18
48
1
60
0
100
AcDbSpline
70
4
71
3
72
8
73
4
40
0
40
0
40
0
40
0
40
1
40
1
40
1
40
1
41
1
10
19.0206320781944
20
-2.61030961016053
30
0
41
1
10
18.9990592633174
20
-2.60955639281224
30
0
41
1
10
18.9774859891214
20
-2.60864664239128
30
0
41
1
10
18.9559123976554
20
-2.60761946701456
30
0
0
SPLINE
5
EB
100
AcDbEntity
8
1
62
256
6
ByLayer
370
18
48
1
60
0
100
AcDbSpline
70
4
71
3
72
11
73
7
40
0
40
0
40
0
40
0
40
0.317739195067883
40
0.617343455637577
40
0.879838743407045
40
1
40
1
40
1
40
1
41
1
10
9.05102249396293
20
2.59813059149263
30
0
41
1
10
8.76325607733673
20
2.59765664631189
30
0
41
1
10
8.20413211533261
20
2.59682483456146
30
0
41
1
10
7.40719567153658
20
2.59468187240046
30
0
41
1
10
6.78923357515714
20
2.59494579338633
30
0
41
1
10
6.44265862991543
20
2.59413350794048
30
0
41
1
10
6.33382895746752
20
2.59385176855079
30
0
0
SPLINE
5
EC
100
AcDbEntity
8
1
62
256
6
ByLayer
370
18
48
1
60
0
100
AcDbSpline
70
4
71
3
72
9
73
5
40
0
40
0
40
0
40
0
40
0.237331553548347
40
1
40
1
40
1
40
1
41
1
10
21.6957471304594
20
2.22010775240193
30
0
41
1
10
21.7474249545445
20
2.20523267606714
30
0
41
1
10
21.9652039456782
20
2.14068463545539
30
0
41
1
10
22.1831304337356
20
2.06795776088313
30
0
41
1
10
22.3494162569022
20
2.00803708539601
30
0
0
SPLINE
5
ED
100
AcDbEntity
8
1
62
256
6
ByLayer
370
18
48
1
60
0
100
AcDbSpline
70
4
71
3
72
20
73
16
40
0
40
0
40
0
40
0
40
0.110934693729332
40
0.202110137454904
40
0.266944381068804
40
0.316555066753308
40
0.369001930884427
40
0.424536358609541
40
0.479229368422998
40
0.550178967317601
40
0.578835429782118
40
0.625298718795782
40
0.718066071819158
40
0.845849463194453
40
1
40
1
40
1
40
1
41
1
10
18.9899707495155
20
-2.61374264219134
30
0
41
1
10
19.2270506017993
20
-2.6141660090515
30
0
41
1
10
19.6589844729062
20
-2.61501755131465
30
0
41
1
10
20.2293445010384
20
-2.6164908957042
30
0
41
1
10
20.6688614563538
20
-2.6175354479563
30
0
41
1
10
21.0252591983115
20
-2.61767674734955
30
0
41
1
10
21.3620414723154
20
-2.61803789800337
30
0
41
1
10
21.709681479853
20
-2.61972619646636
30
0
41
1
10
22.0968459803138
20
-2.62078147710588
30
0
41
1
10
22.4264900068889
20
-2.62043654640328
30
0
41
1
10
22.7384195517516
20
-2.62081779763435
30
0
41
1
10
23.097249507152
20
-2.62252203395505
30
0
41
1
10
23.6678367427509
20
-2.62314600245486
30
0
41
1
10
24.4685981092076
20
-2.62537551603941
30
0
41
1
10
25.0710345217468
20
-2.62606228712943
30
0
41
1
10
25.4004129131691
20
-2.62635538988133
30
0
0
SPLINE
5
EE
100
AcDbEntity
8
1
62
256
6
ByLayer
370
18
48
1
60
0
100
AcDbSpline
70
4
71
3
72
19
73
15
40
0
40
0
40
0
40
0
40
0.14357317454993
40
0.264445048947882
40
0.350125919468107
40
0.40521375021674
40
0.466345516826666
40
0.540925977023283
40
0.619990853603037
40
0.682703299091754
40
0.732107912042723
40
0.792284311399255
40
0.882365450503738
40
1
40
1
40
1
40
1
41
1
10
41.7357708061909
20
2.65491574104715
30
0
41
1
10
41.4684977289477
20
2.6558241890003
30
0
41
1
10
40.9762144036823
20
2.65666426685894
30
0
41
1
10
40.3244468448581
20
2.6507913215784
30
0
41
1
10
39.8373867844065
20
2.65154206418853
30
0
41
1
10
39.4615437794277
20
2.65113929745661
30
0
41
1
10
39.1063673248833
20
2.64958998365211
30
0
41
1
10
38.7065376142395
20
2.64996423721951
30
0
41
1
10
38.3038013096161
20
2.64993833050792
30
0
41
1
10
37.9478315260906
20
2.64896967685161
30
0
41
1
10
37.6275922214432
20
2.64733540214621
30
0
41
1
10
37.2560308579485
20
2.64684262850727
30
0
41
1
10
36.7573401825702
20
2.64630176788231
30
0
41
1
10
36.3706270433439
20
2.64530224116962
30
0
41
1
10
36.1517194459117
20
2.64487823377465
30
0
0
SPLINE
5
EF
100
AcDbEntity
8
1
62
256
6
ByLayer
370
18
48
1
60
0
100
AcDbSpline
70
4
71
3
72
20
73
16
40
0
40
0
40
0
40
0
40
0.145287933046339
40
0.26545637246062
40
0.349980843500137
40
0.403427026624278
40
0.463572048298102
40
0.538645029614089
40
0.619651120967231
40
0.683715149617922
40
0.733139105570874
40
0.791851344369165
40
0.879660997025295
40
0.996383461818775
40
1
40
1
40
1
40
1
41
1
10
25.3960710847741
20
2.62637361392174
30
0
41
1
10
25.1225846842908
20
2.62645522116514
30
0
41
1
10
24.6228940608446
20
2.62637296469265
30
0
41
1
10
23.9640912417293
20
2.62289010304468
30
0
41
1
10
23.4781676226743
20
2.62354358213091
30
0
41
1
10
23.1052496833029
20
2.62266456429805
30
0
41
1
10
22.7501288087122
20
2.62071823621565
30
0
41
1
10
22.3431003508375
20
2.62040920660146
30
0
41
1
10
21.9287285586912
20
2.62075329892275
30
0
41
1
10
21.5625396603806
20
2.61880911971755
30
0
41
1
10
21.2388883958855
20
2.61774963291725
30
0
41
1
10
20.8701392431857
20
2.61729068509618
30
0
41
1
10
20.3746023301915
20
2.6167750563128
30
0
41
1
10
19.9827531234662
20
2.61559727547098
30
0
41
1
10
19.756312880186
20
2.61507007726152
30
0
41
1
10
19.7495077826984
20
2.61505436938182
30
0
0
SPLINE
5
F0
100
AcDbEntity
8
1
62
256
6
ByLayer
370
18
48
1
60
0
100
AcDbSpline
70
4
71
3
72
21
73
17
40
0
40
0
40
0
40
0
40
0.120238926800358
40
0.212234712577405
40
0.275874100561512
40
0.323301033263746
40
0.37492559520028
40
0.431058167336503
40
0.487322560100279
40
0.532831422264054
40
0.567087986864847
40
0.604985956465999
40
0.668432945594313
40
0.757455814913645
40
0.871662487973548
40
1
40
1
40
1
40
1
41
1
10
35.3024820006826
20
-2.64381099850434
30
0
41
1
10
35.5602919877688
20
-2.64410714809503
30
0
41
1
10
36.0153572877788
20
-2.64474995423558
30
0
41
1
10
36.6067944358425
20
-2.64621805002415
30
0
41
1
10
37.0422449538847
20
-2.64700274394895
30
0
41
1
10
37.3909327431349
20
-2.64721431487996
30
0
41
1
10
37.7236673481752
20
-2.64774134084024
30
0
41
1
10
38.0753518102552
20
-2.6495704757053
30
0
41
1
10
38.4138991596057
20
-2.64989535818361
30
0
41
1
10
38.7055161552276
20
-2.64994607256634
30
0
41
1
10
38.9575516831967
20
-2.6497146416956
30
0
41
1
10
39.2482061695172
20
-2.64999843969497
30
0
41
1
10
39.656410426819
20
-2.65178615344411
30
0
41
1
10
40.2281901531824
20
-2.65031221023767
30
0
41
1
10
40.9390731298097
20
-2.65649667394237
30
0
41
1
10
41.4590692993247
20
-2.65570740085198
30
0
41
1
10
41.7342089174341
20
-2.65490571888759
30
0
0
SPLINE
5
F1
100
AcDbEntity
8
1
62
256
6
ByLayer
370
18
48
1
60
0
100
AcDbSpline
70
4
71
2
72
6
73
3
40
0
40
0
40
0
40
1
40
1
40
1
41
1
10
33.7859364402833
20
0.0512043930441166
30
0
41
1
10
33.2020651755707
20
0.180496438844926
30
0
41
1
10
32.6505311501231
20
0.463308221586914
30
0
0
SPLINE
5
F2
100
AcDbEntity
8
1
62
256
6
ByLayer
370
18
48
1
60
0
100
AcDbSpline
70
4
71
3
72
11
73
7
40
0
40
0
40
0
40
0
40
0.118002861616605
40
0.375783081264177
40
0.670005704280594
40
1
40
1
40
1
40
1
41
1
10
6.33382895746749
20
-2.59385176855082
30
0
41
1
10
6.4426586299154
20
-2.59413350794054
30
0
41
1
10
6.78923356311969
20
-2.59494566540991
30
0
41
1
10
7.40719577472919
20
-2.59468296951653
30
0
41
1
10
8.22069923668616
20
-2.59686454456022
30
0
41
1
10
8.7963892807733
20
-2.59771700761823
30
0
41
1
10
9.10072103789784
20
-2.59821741034469
30
0
0
SPLINE
5
F3
100
AcDbEntity
8
1
62
256
6
ByLayer
370
18
48
1
60
0
100
AcDbSpline
70
4
71
3
72
10
73
6
40
0
40
0
40
0
40
0
40
0.294569049656625
40
0.559470023882733
40
1
40
1
40
1
40
1
41
1
10
42.1185724351394
20
-0.050867026257805
30
0
41
1
10
42.2351899292511
20
-0.0762501127531152
30
0
41
1
10
42.457035144361
20
-0.134560781531917
30
0
41
1
10
42.8543289847469
20
-0.272870008714165
30
0
41
1
10
43.1364939399985
20
-0.401325992722462
30
0
41
1
10
43.3133129975605
20
-0.493529649968508
30
0
0
LINE
5
7B
100
AcDbEntity
8
SK1
62
256
6
ByLayer
370
18
48
1
60
0
100
AcDbLine
10
-34.989637
20
3
30
0
11
-34.989637
21
-3
31
0
39
0
210
0
220
0
230
1
0
LINE
5
7D
100
AcDbEntity
8
SK1
62
256
6
ByLayer
370
18
48
1
60
0
100
AcDbLine
10
0
20
-3
30
0
11
0
21
3
31
0
39
0
210
0
220
0
230
1
0
LINE
5
7E
100
AcDbEntity
8
SK1
62
256
6
ByLayer
370
18
48
1
60
0
100
AcDbLine
10
-36
20
1.25
30
0
11
-36
21
-1.25
31
0
39
0
210
0
220
0
230
1
0
LINE
5
7F
100
AcDbEntity
8
1
62
256
6
ByLayer
370
13
48
1
60
0
100
AcDbLine
10
0.508746
20
2.830939
30
0
11
0.508746
21
-2.830939
31
0
39
0
210
0
220
0
230
1
0
LINE
5
80
100
AcDbEntity
8
1
62
256
6
ByLayer
370
18
48
1
60
0
100
AcDbLine
10
0
20
-3
30
0
11
0
21
3
31
0
39
0
210
0
220
0
230
1
0
LINE
5
81
100
AcDbEntity
8
1
62
256
6
ByLayer
370
18
48
1
60
0
100
AcDbLine
10
49.660555
20
-1.494426
30
0
11
50.518757
21
-0.805438
31
0
39
0
210
0
220
0
230
1
0
LINE
5
82
100
AcDbEntity
8
1
62
256
6
ByLayer
370
13
48
1
60
0
100
AcDbLine
10
1.019021
20
2.661879
30
0
11
1.019021
21
-2.661879
31
0
39
0
210
0
220
0
230
1
0
LINE
5
83
100
AcDbEntity
8
80
62
256
6
ByLayer
370
18
48
1
60
0
100
AcDbLine
10
0
20
0
30
0
11
-5
21
0
31
0
39
0
210
0
220
0
230
1
0
LINE
5
84
100
AcDbEntity
8
4
62
256
6
ByLayer
370
18
48
0.05
60
0
100
AcDbLine
10
51
20
0
30
0
11
0
21
0
31
0
39
0
210
0
220
0
230
1
0
LINE
5
86
100
AcDbEntity
8
SK4
62
256
6
ByLayer
370
18
48
0.05
60
0
100
AcDbLine
10
56
20
0
30
0
11
-41
21
0
31
0
39
0
210
0
220
0
230
1
0
LINE
5
88
100
AcDbEntity
8
SK1
62
256
6
ByLayer
370
18
48
1
60
0
100
AcDbLine
10
-34.989637
20
-3
30
0
11
0
21
-3
31
0
39
0
210
0
220
0
230
1
0
LINE
5
89
100
AcDbEntity
8
SK1
62
256
6
ByLayer
370
18
48
1
60
0
100
AcDbLine
10
0
20
3
30
0
11
-34.989637
21
3
31
0
39
0
210
0
220
0
230
1
0
LINE
5
8A
100
AcDbEntity
8
SK1
62
256
6
ByLayer
370
18
48
1
60
0
100
AcDbLine
10
-36
20
-1.25
30
0
11
-34.989637
21
-3
31
0
39
0
210
0
220
0
230
1
0
LINE
5
8B
100
AcDbEntity
8
SK1
62
256
6
ByLayer
370
18
48
1
60
0
100
AcDbLine
10
-34.989637
20
3
30
0
11
-36
21
1.25
31
0
39
0
210
0
220
0
230
1
0
LINE
5
8C
100
AcDbEntity
8
1
62
256
6
ByLayer
370
18
48
1
60
0
100
AcDbLine
10
1.019021
20
-2.661879
30
0
11
5.947604
21
-2.670751
31
0
39
0
210
0
220
0
230
1
0
LINE
5
8D
100
AcDbEntity
8
1
62
256
6
ByLayer
370
18
48
1
60
0
100
AcDbLine
10
17.829394
20
-2.692138
30
0
11
18.562527
21
-2.693458
31
0
39
0
210
0
220
0
230
1
0
LINE
5
8E
100
AcDbEntity
8
1
62
256
6
ByLayer
370
18
48
1
60
0
100
AcDbLine
10
34.189153
20
-2.721585
30
0
11
34.913385
21
-2.722889
31
0
39
0
210
0
220
0
230
1
0
LINE
5
8F
100
AcDbEntity
8
1
62
256
6
ByLayer
370
18
48
1
60
0
100
AcDbLine
10
34.913385
20
2.722889
30
0
11
34.189153
21
2.721585
31
0
39
0
210
0
220
0
230
1
0
LINE
5
90
100
AcDbEntity
8
1
62
256
6
ByLayer
370
18
48
1
60
0
100
AcDbLine
10
18.562527
20
2.693458
30
0
11
17.829394
21
2.692138
31
0
39
0
210
0
220
0
230
1
0
LINE
5
91
100
AcDbEntity
8
1
62
256
6
ByLayer
370
18
48
1
60
0
100
AcDbLine
10
5.947604
20
2.670751
30
0
11
1.019021
21
2.661879
31
0
39
0
210
0
220
0
230
1
0
LINE
5
92
100
AcDbEntity
8
81
62
256
6
ByLayer
370
18
48
1
60
0
100
AcDbLine
10
51
20
0
30
0
11
56
21
0
31
0
39
0
210
0
220
0
230
1
0
LINE
5
93
100
AcDbEntity
8
SK2
62
256
6
ByLayer
370
13
48
1
60
0
100
AcDbLine
10
-44.625163
20
32.117107
30
0
11
-44.625163
21
-11.75
31
0
39
0
210
0
220
0
230
1
0
LINE
5
95
100
AcDbEntity
8
SK2
62
256
6
ByLayer
370
13
48
1
60
0
100
AcDbLine
10
-37.5875
20
3
30
0
11
-46.625163
21
3
31
0
39
0
210
0
220
0
230
1
0
LINE
5
96
100
AcDbEntity
8
SK2
62
256
6
ByLayer
370
13
48
1
60
0
100
AcDbLine
10
-37.5875
20
-3
30
0
11
-46.625163
21
-3
31
0
39
0
210
0
220
0
230
1
0
LINE
5
97
100
AcDbEntity
8
1
62
256
6
ByLayer
370
18
48
1
60
1
100
AcDbLine
10
-44.625163
20
3
30
0
11
-45.085946
21
6.499998
31
0
39
0
210
0
220
0
230
1
0
LINE
5
98
100
AcDbEntity
8
1
62
256
6
ByLayer
370
18
48
1
60
1
100
AcDbLine
10
-45.085946
20
6.499998
30
0
11
-44.164379
21
6.500002
31
0
39
0
210
0
220
0
230
1
0
LINE
5
99
100
AcDbEntity
8
1
62
256
6
ByLayer
370
18
48
1
60
1
100
AcDbLine
10
-44.164379
20
6.500002
30
0
11
-44.625163
21
3
31
0
39
0
210
0
220
0
230
1
0
LINE
5
9A
100
AcDbEntity
8
1
62
256
6
ByLayer
370
18
48
1
60
1
100
AcDbLine
10
-44.625163
20
-3
30
0
11
-44.164379
21
-6.499998
31
0
39
0
210
0
220
0
230
1
0
LINE
5
9B
100
AcDbEntity
8
1
62
256
6
ByLayer
370
18
48
1
60
1
100
AcDbLine
10
-44.164379
20
-6.499998
30
0
11
-45.085946
21
-6.500002
31
0
39
0
210
0
220
0
230
1
0
LINE
5
9C
100
AcDbEntity
8
1
62
256
6
ByLayer
370
18
48
1
60
1
100
AcDbLine
10
-45.085946
20
-6.500002
30
0
11
-44.625163
21
-3
31
0
39
0
210
0
220
0
230
1
0
LINE
5
9D
100
AcDbEntity
8
2
62
256
6
ByLayer
370
13
48
1
60
0
100
AcDbLine
10
63.083343
20
30.460193
30
0
11
63.083343
21
-11.5
31
0
39
0
210
0
220
0
230
1
0
LINE
5
9F
100
AcDbEntity
8
2
62
256
6
ByLayer
370
13
48
1
60
0
100
AcDbLine
10
51.5625
20
2.75
30
0
11
65.083343
21
2.75
31
0
39
0
210
0
220
0
230
1
0
LINE
5
A0
100
AcDbEntity
8
2
62
256
6
ByLayer
370
13
48
1
60
0
100
AcDbLine
10
51.5625
20
-2.75
30
0
11
65.083343
21
-2.75
31
0
39
0
210
0
220
0
230
1
0
LINE
5
A1
100
AcDbEntity
8
1
62
256
6
ByLayer
370
18
48
1
60
1
100
AcDbLine
10
63.083343
20
2.75
30
0
11
62.622559
21
6.249998
31
0
39
0
210
0
220
0
230
1
0
LINE
5
A2
100
AcDbEntity
8
1
62
256
6
ByLayer
370
18
48
1
60
1
100
AcDbLine
10
62.622559
20
6.249998
30
0
11
63.544126
21
6.250002
31
0
39
0
210
0
220
0
230
1
0
LINE
5
A3
100
AcDbEntity
8
1
62
256
6
ByLayer
370
18
48
1
60
1
100
AcDbLine
10
63.544126
20
6.250002
30
0
11
63.083343
21
2.75
31
0
39
0
210
0
220
0
230
1
0
LINE
5
A4
100
AcDbEntity
8
1
62
256
6
ByLayer
370
18
48
1
60
1
100
AcDbLine
10
63.083343
20
-2.75
30
0
11
63.544126
21
-6.249998
31
0
39
0
210
0
220
0
230
1
0
LINE
5
A5
100
AcDbEntity
8
1
62
256
6
ByLayer
370
18
48
1
60
1
100
AcDbLine
10
63.544126
20
-6.249998
30
0
11
62.622559
21
-6.250002
31
0
39
0
210
0
220
0
230
1
0
LINE
5
A6
100
AcDbEntity
8
1
62
256
6
ByLayer
370
18
48
1
60
1
100
AcDbLine
10
62.622559
20
-6.250002
30
0
11
63.083343
21
-2.75
31
0
39
0
210
0
220
0
230
1
0
LINE
5
FA
100
AcDbEntity
8
1
62
256
6
ByLayer
370
18
48
1
60
1
100
AcDbLine
10
-44.625163
20
3
30
0
11
-45.085946
21
6.499998
31
0
39
0
210
0
220
0
230
1
0
LINE
5
FB
100
AcDbEntity
8
1
62
256
6
ByLayer
370
18
48
1
60
1
100
AcDbLine
10
-45.085946
20
6.499998
30
0
11
-44.164379
21
6.500002
31
0
39
0
210
0
220
0
230
1
0
LINE
5
FC
100
AcDbEntity
8
1
62
256
6
ByLayer
370
18
48
1
60
1
100
AcDbLine
10
-44.164379
20
6.500002
30
0
11
-44.625163
21
3
31
0
39
0
210
0
220
0
230
1
0
LINE
5
FE
100
AcDbEntity
8
1
62
256
6
ByLayer
370
18
48
1
60
1
100
AcDbLine
10
-44.625163
20
-3
30
0
11
-44.164379
21
-6.499998
31
0
39
0
210
0
220
0
230
1
0
LINE
5
FF
100
AcDbEntity
8
1
62
256
6
ByLayer
370
18
48
1
60
1
100
AcDbLine
10
-44.164379
20
-6.499998
30
0
11
-45.085946
21
-6.500002
31
0
39
0
210
0
220
0
230
1
0
LINE
5
100
100
AcDbEntity
8
1
62
256
6
ByLayer
370
18
48
1
60
1
100
AcDbLine
10
-45.085946
20
-6.500002
30
0
11
-44.625163
21
-3
31
0
39
0
210
0
220
0
230
1
0
LINE
5
104
100
AcDbEntity
8
1
62
256
6
ByLayer
370
18
48
1
60
1
100
AcDbLine
10
63.083343
20
2.75
30
0
11
62.622559
21
6.249998
31
0
39
0
210
0
220
0
230
1
0
LINE
5
105
100
AcDbEntity
8
1
62
256
6
ByLayer
370
18
48
1
60
1
100
AcDbLine
10
62.622559
20
6.249998
30
0
11
63.544126
21
6.250002
31
0
39
0
210
0
220
0
230
1
0
LINE
5
106
100
AcDbEntity
8
1
62
256
6
ByLayer
370
18
48
1
60
1
100
AcDbLine
10
63.544126
20
6.250002
30
0
11
63.083343
21
2.75
31
0
39
0
210
0
220
0
230
1
0
LINE
5
108
100
AcDbEntity
8
1
62
256
6
ByLayer
370
18
48
1
60
1
100
AcDbLine
10
63.083343
20
-2.75
30
0
11
63.544126
21
-6.249998
31
0
39
0
210
0
220
0
230
1
0
LINE
5
109
100
AcDbEntity
8
1
62
256
6
ByLayer
370
18
48
1
60
1
100
AcDbLine
10
63.544126
20
-6.249998
30
0
11
62.622559
21
-6.250002
31
0
39
0
210
0
220
0
230
1
0
LINE
5
10A
100
AcDbEntity
8
1
62
256
6
ByLayer
370
18
48
1
60
1
100
AcDbLine
10
62.622559
20
-6.250002
30
0
11
63.083343
21
-2.75
31
0
39
0
210
0
220
0
230
1
0
MTEXT
5
F4
100
AcDbEntity
8
SK6
62
256
6
ByLayer
370
13
48
1
60
0
100
AcDbMText
10
-21.04646
20
35.290328
30
0
210
0
220
0
230
1
1
\W0.7492;860.1-0550-037A0-PM P1BM
40
3.5
41
0
44
1.084337
50
0
71
7
72
5
7
iso_b_vert
0
MTEXT
5
F8
100
AcDbEntity
8
SK2
62
256
6
ByLayer
370
18
48
1
60
0
100
AcDbMText
10
-46.189796
20
16.409024
30
0
210
0
220
0
230
1
1
%%c
40
3.5
41
0
44
1.084337
50
90
71
7
72
5
7
iso_b_vert
0
MTEXT
5
F9
100
AcDbEntity
8
SK2
62
256
6
ByLayer
370
18
48
1
60
0
100
AcDbMText
10
-46.189796
20
21.63168
30
0
210
0
220
0
230
1
1
\W0.7317;6,000
40
3.5
41
0
44
1.084337
50
90
71
7
72
5
7
iso_b_vert
0
MTEXT
5
102
100
AcDbEntity
8
2
62
256
6
ByLayer
370
18
48
1
60
0
100
AcDbMText
10
61.518709
20
14.75211
30
0
210
0
220
0
230
1
1
%%c
40
3.5
41
0
44
1.084337
50
90
71
7
72
5
7
iso_b_vert
0
MTEXT
5
103
100
AcDbEntity
8
2
62
256
6
ByLayer
370
18
48
1
60
0
100
AcDbMText
10
61.518709
20
19.974766
30
0
210
0
220
0
230
1
1
\W0.7317;5,500
40
3.5
41
0
44
1.084337
50
90
71
7
72
5
7
iso_b_vert
0
HATCH
5
FD
100
AcDbEntity
8
SK2
62
256
6
ByLayer
370
13
48
1
60
0
100
AcDbHatch
10
0
20
0
30
0
210
0
220
0
230
1
2
ANSI31
70
0
71
0
91
1
92
5
93
3
72
1
10
-44.6251625675374
20
3
11
-45.0859463090902
21
6.49999830744682
72
1
10
-45.0859463090902
20
6.49999830744682
11
-44.1643788259847
21
6.50000169255318
72
1
10
-44.1643788259847
20
6.50000169255318
11
-44.6251625675374
21
3
97
0
75
0
76
1
52
0
41
0.0062
77
0
78
1
53
45
43
0
44
0
45
-0.0139193969876572
46
0.0139193969876572
79
0
47
0
98
1
10
0
20
0
0
HATCH
5
101
100
AcDbEntity
8
SK2
62
256
6
ByLayer
370
13
48
1
60
0
100
AcDbHatch
10
0
20
0
30
0
210
0
220
0
230
1
2
ANSI31
70
0
71
0
91
1
92
5
93
3
72
1
10
-44.6251625675374
20
-3
11
-44.1643788259847
21
-6.49999830744682
72
1
10
-44.1643788259847
20
-6.49999830744682
11
-45.0859463090902
21
-6.50000169255318
72
1
10
-45.0859463090902
20
-6.50000169255318
11
-44.6251625675374
21
-3
97
0
75
0
76
1
52
0
41
0.0062
77
0
78
1
53
45
43
0
44
0
45
-0.0139193969876572
46
0.0139193969876572
79
0
47
0
98
1
10
0
20
0
0
HATCH
5
107
100
AcDbEntity
8
2
62
256
6
ByLayer
370
13
48
1
60
0
100
AcDbHatch
10
0
20
0
30
0
210
0
220
0
230
1
2
ANSI31
70
0
71
0
91
1
92
5
93
3
72
1
10
63.083342615295
20
2.75
11
62.6225588737423
21
6.24999830744682
72
1
10
62.6225588737423
20
6.24999830744682
11
63.5441263568478
21
6.25000169255318
72
1
10
63.5441263568478
20
6.25000169255318
11
63.083342615295
21
2.75
97
0
75
0
76
1
52
0
41
0.0062
77
0
78
1
53
45
43
0
44
0
45
-0.0139193969876572
46
0.0139193969876572
79
0
47
0
98
1
10
0
20
0
0
HATCH
5
10B
100
AcDbEntity
8
2
62
256
6
ByLayer
370
13
48
1
60
0
100
AcDbHatch
10
0
20
0
30
0
210
0
220
0
230
1
2
ANSI31
70
0
71
0
91
1
92
5
93
3
72
1
10
63.083342615295
20
-2.75
11
63.5441263568478
21
-6.24999830744682
72
1
10
63.5441263568478
20
-6.24999830744682
11
62.6225588737423
21
-6.25000169255318
72
1
10
62.6225588737423
20
-6.25000169255318
11
63.083342615295
21
-2.75
97
0
75
0
76
1
52
0
41
0.0062
77
0
78
1
53
45
43
0
44
0
45
-0.0139193969876572
46
0.0139193969876572
79
0
47
0
98
1
10
0
20
0
0
DIMENSION
5
10D
100
AcDbEntity
8
2
62
256
6
ByLayer
370
13
48
1
60
0
100
AcDbDimension
2
_U0
10
49.975
20
-12.963398
30
0
11
24.9875
21
-12.963398
31
0
70
32
71
1
72
1
41
1
210
0
220
0
230
1
3
Standard
100
AcDbAlignedDimension
13
0
23
0
33
0
14
49.975
24
-2.75
34
0
50
0
100
AcDbRotatedDimension
1001
ACAD
1000
DSTYLE
1002
{
1070
   371
1070
    13
1070
   372
1070
    13
1070
   170
1070
     0
1070
   144
1040
1.0
1070
   277
1070
     2
1070
   278
1070
    44
1070
   146
1040
1.0
1070
   345
1005
16
1070
   347
1005
16
1070
   346
1005
16
1070
   344
1005
0
1070
   343
1005
0
1070
   172
1070
     1
1070
    76
1070
     0
1070
    75
1070
     0
1070
   282
1070
     0
1070
   281
1070
     0
1070
    71
1070
     0
1070
    74
1070
     0
1070
   279
1070
     0
1070
   173
1070
     1
1070
   340
1005
F5
1070
   271
1070
     2
1070
   272
1070
     2
1070
    77
1070
     1
1070
    73
1070
     1
1070
   171
1070
     3
1070
   274
1070
     4
1070
   177
1070
    35
1070
   176
1070
    35
1070
   178
1070
    35
1070
    48
1040
-0.1
1070
    41
1040
3.5
1070
   147
1040
1.75
1070
    42
1040
1.5875
1070
    44
1040
2.0
1070
   140
1040
3.5
1002
}
1001
ACAD_DSTYLE_DIM_LINETYPE
1070
   380
1005
16
1001
ACAD_DSTYLE_DIM_EXT1_LINETYPE
1070
   381
1005
16
1001
ACAD_DSTYLE_DIM_EXT2_LINETYPE
1070
   382
1005
16
0
DIMENSION
5
126
100
AcDbEntity
8
SK2
62
256
6
ByLayer
370
13
48
1
60
0
100
AcDbDimension
2
_U1
10
51
20
-31.692985
30
0
11
7.5
21
-31.692985
31
0
70
32
71
1
72
1
41
1
210
0
220
0
230
1
3
Standard
100
AcDbAlignedDimension
13
-36
23
-3
33
0
14
51
24
0
34
0
50
0
100
AcDbRotatedDimension
1001
ACAD
1000
DSTYLE
1002
{
1070
   371
1070
    13
1070
   372
1070
    13
1070
   170
1070
     0
1070
   144
1040
1.0
1070
   277
1070
     2
1070
   278
1070
    44
1070
   146
1040
1.0
1070
   345
1005
16
1070
   347
1005
16
1070
   346
1005
16
1070
   344
1005
0
1070
   343
1005
0
1070
   172
1070
     1
1070
    76
1070
     0
1070
    75
1070
     0
1070
   282
1070
     0
1070
   281
1070
     0
1070
    71
1070
     0
1070
    74
1070
     0
1070
   279
1070
     0
1070
   173
1070
     1
1070
   340
1005
F5
1070
   271
1070
     2
1070
   272
1070
     2
1070
    77
1070
     1
1070
    73
1070
     1
1070
   171
1070
     3
1070
   274
1070
     4
1070
   177
1070
    35
1070
   176
1070
    35
1070
   178
1070
    35
1070
    48
1040
-0.1
1070
    41
1040
3.5
1070
   147
1040
1.75
1070
    42
1040
1.5875
1070
    44
1040
2.0
1070
   140
1040
3.5
1002
}
1001
ACAD_DSTYLE_DIM_LINETYPE
1070
   380
1005
16
1001
ACAD_DSTYLE_DIM_EXT1_LINETYPE
1070
   381
1005
16
1001
ACAD_DSTYLE_DIM_EXT2_LINETYPE
1070
   382
1005
16
0
DIMENSION
5
13E
100
AcDbEntity
8
SK2
62
256
6
ByLayer
370
13
48
1
60
0
100
AcDbDimension
2
_U2
10
51
20
14.359119
30
0
11
36.74
21
14.359119
31
0
70
32
71
1
72
1
41
1
210
0
220
0
230
1
3
Standard
100
AcDbAlignedDimension
13
22.48
23
2.75
33
0
14
51
24
0
34
0
50
0
100
AcDbRotatedDimension
1001
ACAD
1000
DSTYLE
1002
{
1070
   371
1070
    13
1070
   372
1070
    13
1070
   170
1070
     0
1070
   144
1040
1.0
1070
   277
1070
     2
1070
   278
1070
    44
1070
   146
1040
1.0
1070
   345
1005
16
1070
   347
1005
16
1070
   346
1005
16
1070
   344
1005
0
1070
   343
1005
0
1070
   172
1070
     1
1070
    76
1070
     0
1070
    75
1070
     0
1070
   282
1070
     0
1070
   281
1070
     0
1070
    71
1070
     0
1070
    74
1070
     0
1070
   279
1070
     0
1070
   173
1070
     1
1070
   340
1005
F5
1070
   271
1070
     2
1070
   272
1070
     2
1070
    77
1070
     1
1070
    73
1070
     1
1070
   171
1070
     3
1070
   274
1070
     4
1070
   177
1070
    35
1070
   176
1070
    35
1070
   178
1070
    35
1070
    48
1040
-0.1
1070
    41
1040
3.5
1070
   147
1040
1.75
1070
    42
1040
1.5875
1070
    44
1040
2.0
1070
   140
1040
3.5
1002
}
1001
ACAD_DSTYLE_DIM_LINETYPE
1070
   380
1005
16
1001
ACAD_DSTYLE_DIM_EXT1_LINETYPE
1070
   381
1005
16
1001
ACAD_DSTYLE_DIM_EXT2_LINETYPE
1070
   382
1005
16
0
DIMENSION
5
156
100
AcDbEntity
8
SK2
62
256
6
ByLayer
370
13
48
1
60
0
100
AcDbDimension
2
_U3
10
49.975
20
-15.552503
30
0
11
68.333333
21
-15.552503
31
0
70
32
71
1
72
1
41
1
210
0
220
0
230
1
3
Standard
100
AcDbAlignedDimension
13
51
23
0
33
0
14
49.975
24
-2.75
34
0
50
0
100
AcDbRotatedDimension
1001
ACAD
1000
DSTYLE
1002
{
1070
   371
1070
    13
1070
   372
1070
    13
1070
   170
1070
     0
1070
   144
1040
1.0
1070
   277
1070
     2
1070
   278
1070
    44
1070
   146
1040
1.0
1070
   345
1005
16
1070
   347
1005
16
1070
   346
1005
16
1070
   344
1005
0
1070
   343
1005
0
1070
   172
1070
     1
1070
    76
1070
     0
1070
    75
1070
     0
1070
   282
1070
     0
1070
   281
1070
     0
1070
    71
1070
     0
1070
    74
1070
     0
1070
   279
1070
     0
1070
   173
1070
     1
1070
   340
1005
F5
1070
   271
1070
     2
1070
   272
1070
     2
1070
    77
1070
     1
1070
    73
1070
     1
1070
   171
1070
     3
1070
   274
1070
     4
1070
   177
1070
    35
1070
   176
1070
    35
1070
   178
1070
    35
1070
    48
1040
-0.1
1070
    41
1040
3.5
1070
   147
1040
1.75
1070
    42
1040
1.5875
1070
    44
1040
2.0
1070
   140
1040
3.5
1002
}
1001
ACAD_DSTYLE_DIM_LINETYPE
1070
   380
1005
16
1001
ACAD_DSTYLE_DIM_EXT1_LINETYPE
1070
   381
1005
16
1001
ACAD_DSTYLE_DIM_EXT2_LINETYPE
1070
   382
1005
16
0
DIMENSION
5
170
100
AcDbEntity
8
SK2
62
256
6
ByLayer
370
13
48
1
60
0
100
AcDbDimension
2
_U4
10
49.975
20
-21.343428
30
0
11
6.9875
21
-21.343428
31
0
70
32
71
1
72
1
41
1
210
0
220
0
230
1
3
Standard
100
AcDbAlignedDimension
13
-36
23
-3
33
0
14
49.975
24
-2.75
34
0
50
0
100
AcDbRotatedDimension
1001
ACAD
1000
DSTYLE
1002
{
1070
   371
1070
    13
1070
   372
1070
    13
1070
   170
1070
     0
1070
   144
1040
1.0
1070
   277
1070
     2
1070
   278
1070
    44
1070
   146
1040
1.0
1070
   345
1005
16
1070
   347
1005
16
1070
   346
1005
16
1070
   344
1005
0
1070
   343
1005
0
1070
   172
1070
     1
1070
    76
1070
     0
1070
    75
1070
     0
1070
   282
1070
     0
1070
   281
1070
     0
1070
    71
1070
     0
1070
    74
1070
     0
1070
   279
1070
     0
1070
   173
1070
     1
1070
   340
1005
F5
1070
   271
1070
     2
1070
   272
1070
     2
1070
    77
1070
     1
1070
    73
1070
     1
1070
   171
1070
     3
1070
   274
1070
     4
1070
   177
1070
    35
1070
   176
1070
    35
1070
   178
1070
    35
1070
    48
1040
-0.1
1070
    41
1040
3.5
1070
   147
1040
1.75
1070
    42
1040
1.5875
1070
    44
1040
2.0
1070
   140
1040
3.5
1002
}
1001
ACAD_DSTYLE_DIM_LINETYPE
1070
   380
1005
16
1001
ACAD_DSTYLE_DIM_EXT1_LINETYPE
1070
   381
1005
16
1001
ACAD_DSTYLE_DIM_EXT2_LINETYPE
1070
   382
1005
16
0
ENDSEC
0
SECTION
2
OBJECTS
0
DICTIONARY
5
1f8
330
0
100
AcDbDictionary
280
0
281
1
3
ACAD_GROUP
350
1f9
3
ACAD_MLINESTYLE
350
1fa
0
DICTIONARY
5
1f9
330
0
100
AcDbDictionary
280
0
281
1
0
DICTIONARY
5
1fa
330
0
100
AcDbDictionary
280
0
281
1
3
Standard
350
18
0
MLINESTYLE
5
18
330
1fa
100
AcDbMlineStyle
2
Standard
70
0
3

62
256
51
90
52
90
71
2
49
-0.5
62
256
6
ByLayer
49
0.5
62
256
6
ByLayer
0
RASTERVARIABLES
5
1e6
330

100
AcDbRasterVariables
90
0
70
1
71
1
72
1
0
ENDSEC
0
EOF
