0
SECTION
2
HEADER
9
$ACADVER
1
AC1015
9
$DWGCODEPAGE
3
ANSI_1252
9
$HANDSEED
5
1f6
9
$ANGBASE
50
0
9
$ANGDIR
70
0
9
$ATTMODE
70
1
9
$AUNITS
70
0
9
$AUPREC
70
0
9
$CECOLOR
62
256
9
$CELTSCALE
40
1
9
$CELTYPE
6
ByLayer
9
$CELWEIGHT
370
18
9
$CLAYER
8
0
9
$CMLJUST
70
0
9
$CMLSCALE
40
1
9
$CMLSTYLE
2
Standard
9
$DIMSTYLE
2
Standard
9
$TEXTSIZE
40
0.2
9
$TEXTSTYLE
7
Standard
9
$LUNITS
70
2
9
$LUPREC
70
4
9
$EXTNAMES
290
1
9
$INSUNITS
70
4
9
$LTSCALE
40
1
9
$LWDISPLAY
290
1
9
$PDMODE
70
0
9
$PDSIZE
40
0
9
$PLINEGEN
70
0
0
ENDSEC
0
SECTION
2
CLASSES
0
CLASS
1
RASTERVARIABLES
2
AcDbRasterVariables
3
ISM
90
0
280
0
281
0
0
ENDSEC
0
SECTION
2
TABLES
0
TABLE
2
VPORT
5
1ec
100
AcDbSymbolTable
0
VPORT
5
1
100
AcDbSymbolTableRecord
100
AcDbViewportTableRecord
2
*Active
70
0
10
0
20
0
11
1
21
1
12
-1
22
1
13
0
23
0
14
0.5
24
0.5
15
10
25
10
16
0
26
0
36
1
17
0
27
0
37
0
0
ENDTAB
0
TABLE
2
LTYPE
5
1ed
100
AcDbSymbolTable
0
LTYPE
5
14
100
AcDbSymbolTableRecord
100
AcDbLinetypeTableRecord
70
0
2
ByBlock
3

72
65
73
0
40
0
0
LTYPE
5
15
100
AcDbSymbolTableRecord
100
AcDbLinetypeTableRecord
70
0
2
ByLayer
3

72
65
73
0
40
0
0
LTYPE
5
16
100
AcDbSymbolTableRecord
100
AcDbLinetypeTableRecord
70
0
2
Continuous
3
Solid line
72
65
73
0
40
0
0
LTYPE
5
6E
100
AcDbSymbolTableRecord
100
AcDbLinetypeTableRecord
70
0
2
CENTER
3
____ _ ____ _ ____ _ ____
72
65
73
4
40
47.5
49
22
74
0
49
-8.5
74
0
49
8.5
74
0
49
-8.5
74
0
0
LTYPE
5
6F
100
AcDbSymbolTableRecord
100
AcDbLinetypeTableRecord
70
0
2
DASHED
3
__ __ __ __ __ __ __ __ __
72
65
73
2
40
25.72
49
12.86
74
0
49
-12.86
74
0
0
ENDTAB
0
TABLE
2
LAYER
5
1ee
100
AcDbSymbolTable
0
LAYER
5
10
100
AcDbSymbolTableRecord
100
AcDbLayerTableRecord
2
0
70
0
62
7
6
Continuous
290
1
370
-3
390
0
0
LAYER
5
71
100
AcDbSymbolTableRecord
100
AcDbLayerTableRecord
2
80
70
0
62
-6
6
Continuous
290
1
370
-3
390
0
0
LAYER
5
73
100
AcDbSymbolTableRecord
100
AcDbLayerTableRecord
2
81
70
0
62
-3
6
Continuous
290
1
370
-3
390
0
0
LAYER
5
75
100
AcDbSymbolTableRecord
100
AcDbLayerTableRecord
2
1
70
0
62
4
6
Continuous
290
1
370
-3
390
0
0
LAYER
5
85
100
AcDbSymbolTableRecord
100
AcDbLayerTableRecord
2
4
70
0
62
-2
6
CENTER
290
1
370
-3
390
0
0
LAYER
5
9C
100
AcDbSymbolTableRecord
100
AcDbLayerTableRecord
2
2
70
0
62
7
6
Continuous
290
1
370
-3
390
0
0
LAYER
5
101
100
AcDbSymbolTableRecord
100
AcDbLayerTableRecord
2
Defpoints
70
0
62
7
6
Continuous
290
0
370
-3
390
0
0
LAYER
5
1d8
100
AcDbSymbolTableRecord
100
AcDbLayerTableRecord
2
SK1
70
0
62
4
6
Continuous
290
1
370
-3
390
0
0
LAYER
5
1d9
100
AcDbSymbolTableRecord
100
AcDbLayerTableRecord
2
SK4
70
0
62
2
6
CENTER
290
1
370
-3
390
0
0
LAYER
5
1da
100
AcDbSymbolTableRecord
100
AcDbLayerTableRecord
2
SK2
70
0
62
7
6
Continuous
290
1
370
-3
390
0
0
LAYER
5
1db
100
AcDbSymbolTableRecord
100
AcDbLayerTableRecord
2
SK6
70
0
62
5
6
Continuous
290
1
370
-3
390
0
0
ENDTAB
0
TABLE
2
STYLE
5
1ef
100
AcDbSymbolTable
0
STYLE
5
11
100
AcDbSymbolTableRecord
100
AcDbTextStyleTableRecord
2
Standard
3
txt
70
0
71
0
40
0
41
1
42
0
50
0
0
STYLE
5
E6
100
AcDbSymbolTableRecord
100
AcDbTextStyleTableRecord
2
iso_b_vert
3
simplex.shx
70
0
71
0
40
0
41
1
42
0
50
0
0
STYLE
5
E7
100
AcDbSymbolTableRecord
100
AcDbTextStyleTableRecord
2
DWGDirectTextStyle
3
simplex
70
0
71
0
40
0
41
1
42
0
50
0
0
ENDTAB
0
TABLE
2
DIMSTYLE
5
1f0
100
AcDbSymbolTable
100
AcDbDimStyleTable
0
DIMSTYLE
105
27
100
AcDbSymbolTableRecord
100
AcDbDimStyleTableRecord
2
Standard
70
0
3
<>
41
0.18
42
0.0625
44
0.18
140
0.18
147
0.09
73
0
74
0
77
1
271
2
275
0
278
52
280
0
340
11
0
ENDTAB
0
TABLE
2
VIEW
5
1f1
100
AcDbSymbolTable
0
ENDTAB
0
TABLE
2
UCS
5
1f2
100
AcDbSymbolTable
0
ENDTAB
0
TABLE
2
APPID
5
1f3
100
AcDbSymbolTable
0
APPID
5
12
100
AcDbSymbolTableRecord
100
AcDbRegAppTableRecord
2
ACAD
70
0
0
APPID
5
FD
100
AcDbSymbolTableRecord
100
AcDbRegAppTableRecord
2
ACAD_DSTYLE_DIMBREAK
70
0
0
APPID
5
197
100
AcDbSymbolTableRecord
100
AcDbRegAppTableRecord
2
ACAD_DSTYLE_DIM_LINETYPE
70
0
0
APPID
5
198
100
AcDbSymbolTableRecord
100
AcDbRegAppTableRecord
2
ACAD_DSTYLE_DIM_EXT1_LINETYPE
70
0
0
APPID
5
199
100
AcDbSymbolTableRecord
100
AcDbRegAppTableRecord
2
ACAD_DSTYLE_DIM_EXT2_LINETYPE
70
0
0
APPID
5
1D4
100
AcDbSymbolTableRecord
100
AcDbRegAppTableRecord
2
ACAD_MLEADERVER
70
0
0
ENDTAB
0
TABLE
2
BLOCK_RECORD
5
1f4
100
AcDbSymbolTable
0
BLOCK_RECORD
5
1F
100
AcDbSymbolTableRecord
100
AcDbBlockTableRecord
2
*Model_Space
340
0
70
0
0
BLOCK_RECORD
5
1B
100
AcDbSymbolTableRecord
100
AcDbBlockTableRecord
2
*Paper_Space
340
0
70
0
0
BLOCK_RECORD
5
23
100
AcDbSymbolTableRecord
100
AcDbBlockTableRecord
2
*Paper_Space0
340
0
70
0
0
BLOCK_RECORD
5
102
100
AcDbSymbolTableRecord
100
AcDbBlockTableRecord
2
*D1
340
0
70
0
0
BLOCK_RECORD
5
10E
100
AcDbSymbolTableRecord
100
AcDbBlockTableRecord
2
_U0
340
0
70
0
0
BLOCK_RECORD
5
11A
100
AcDbSymbolTableRecord
100
AcDbBlockTableRecord
2
*D3
340
0
70
0
0
BLOCK_RECORD
5
126
100
AcDbSymbolTableRecord
100
AcDbBlockTableRecord
2
_U1
340
0
70
0
0
BLOCK_RECORD
5
132
100
AcDbSymbolTableRecord
100
AcDbBlockTableRecord
2
*D5
340
0
70
0
0
BLOCK_RECORD
5
13E
100
AcDbSymbolTableRecord
100
AcDbBlockTableRecord
2
_U2
340
0
70
0
0
BLOCK_RECORD
5
14A
100
AcDbSymbolTableRecord
100
AcDbBlockTableRecord
2
*D7
340
0
70
0
0
BLOCK_RECORD
5
158
100
AcDbSymbolTableRecord
100
AcDbBlockTableRecord
2
_U3
340
0
70
0
0
BLOCK_RECORD
5
164
100
AcDbSymbolTableRecord
100
AcDbBlockTableRecord
2
*D9
340
0
70
0
0
BLOCK_RECORD
5
170
100
AcDbSymbolTableRecord
100
AcDbBlockTableRecord
2
_U4
340
0
70
0
0
ENDTAB
0
ENDSEC
0
SECTION
2
BLOCKS
0
BLOCK
5
20
100
AcDbEntity
8
0
100
AcDbBlockBegin
2
*Model_Space
70
0
10
0
20
0
30
0
3
*Model_Space
0
ENDBLK
5
21
100
AcDbEntity
8
0
100
AcDbBlockEnd
0
BLOCK
5
1C
100
AcDbEntity
8
0
100
AcDbBlockBegin
2
*Paper_Space
70
0
10
0
20
0
30
0
3
*Paper_Space
0
ENDBLK
5
1D
100
AcDbEntity
8
0
100
AcDbBlockEnd
0
BLOCK
5
24
100
AcDbEntity
8
0
100
AcDbBlockBegin
2
*Paper_Space0
70
0
10
0
20
0
30
0
3
*Paper_Space0
0
ENDBLK
5
25
100
AcDbEntity
8
0
100
AcDbBlockEnd
0
BLOCK
5
103
100
AcDbEntity
8
0
100
AcDbBlockBegin
2
*D1
70
1
10
0
20
0
30
0
3
*D1
0
LINE
5
105
100
AcDbEntity
8
0
62
256
6
ByLayer
370
-2
48
1
60
0
100
AcDbLine
10
0
20
-1.5875
30
0
11
0
21
-15.063398
31
0
39
0
210
0
220
0
230
1
0
LINE
5
106
100
AcDbEntity
8
0
62
256
6
ByLayer
370
-2
48
1
60
0
100
AcDbLine
10
34.9388
20
-4.4375
30
0
11
34.9388
21
-15.063398
31
0
39
0
210
0
220
0
230
1
0
LINE
5
107
100
AcDbEntity
8
0
62
256
6
ByLayer
370
-2
48
1
60
0
100
AcDbLine
10
3.5
20
-13.063398
30
0
11
31.4388
21
-13.063398
31
0
39
0
210
0
220
0
230
1
0
SOLID
5
108
100
AcDbEntity
8
0
62
256
6
ByLayer
370
-1
48
1
60
0
100
AcDbTrace
10
3.5
20
-12.480065
30
0
11
3.5
21
-13.646732
31
0
12
0
22
-13.063398
32
0
13
0
23
-13.063398
33
0
39
0
210
0
220
0
230
1
0
SOLID
5
109
100
AcDbEntity
8
0
62
256
6
ByLayer
370
-1
48
1
60
0
100
AcDbTrace
10
31.4388
20
-13.646732
30
0
11
31.4388
21
-12.480065
31
0
12
34.9388
22
-13.063398
32
0
13
34.9388
23
-13.063398
33
0
39
0
210
0
220
0
230
1
0
MTEXT
5
10A
100
AcDbEntity
8
0
62
256
6
ByLayer
370
18
48
1
60
0
100
AcDbMText
10
17.4694
20
-6.063398
30
0
210
0
220
0
230
1
1
\A1;34.94
40
3.5
41
0
44
1
50
0
71
5
72
5
7
iso_b_vert
0
POINT
5
10B
100
AcDbEntity
8
Defpoints
62
0
6
ByLayer
370
-1
48
1
60
0
100
AcDbPoint
10
0
20
0
30
0
39
0
210
0
220
0
230
1
50
360
0
POINT
5
10C
100
AcDbEntity
8
Defpoints
62
0
6
ByLayer
370
-1
48
1
60
0
100
AcDbPoint
10
34.9388
20
-2.85
30
0
39
0
210
0
220
0
230
1
50
360
0
POINT
5
10D
100
AcDbEntity
8
Defpoints
62
0
6
ByLayer
370
-1
48
1
60
0
100
AcDbPoint
10
34.9388
20
-13.063398
30
0
39
0
210
0
220
0
230
1
50
360
0
ENDBLK
5
104
100
AcDbEntity
8
0
100
AcDbBlockEnd
0
BLOCK
5
115
100
AcDbEntity
8
0
100
AcDbBlockBegin
2
_U0
70
0
10
0
20
0
30
0
3
_U0
0
MTEXT
5
10F
100
AcDbEntity
8
2
62
256
6
ByLayer
370
13
48
1
60
0
100
AcDbMText
10
11.963568
20
-12.030765
30
0
210
0
220
0
230
1
1
\W0.7756;34,94
40
3.5
41
0
44
1.084337
50
0
71
7
72
5
7
iso_b_vert
0
LINE
5
110
100
AcDbEntity
8
2
62
256
6
ByLayer
370
13
48
1
60
0
100
AcDbLine
10
0
20
-1.5875
30
0
11
0
21
-15.063398
31
0
39
0
210
0
220
0
230
1
0
LINE
5
111
100
AcDbEntity
8
2
62
256
6
ByLayer
370
13
48
1
60
0
100
AcDbLine
10
34.9388
20
-4.4375
30
0
11
34.9388
21
-15.063398
31
0
39
0
210
0
220
0
230
1
0
LINE
5
112
100
AcDbEntity
8
2
62
256
6
ByLayer
370
13
48
1
60
0
100
AcDbLine
10
0
20
-13.063398
30
0
11
34.9388
21
-13.063398
31
0
39
0
210
0
220
0
230
1
0
SOLID
5
113
100
AcDbEntity
8
2
62
256
6
ByLayer
370
18
48
1
60
0
100
AcDbTrace
10
0
20
-13.063398
30
0
11
3.499998
21
-12.602615
31
0
12
3.500002
22
-13.524182
32
0
13
3.500002
23
-13.524182
33
0
39
0
210
0
220
0
230
1
0
SOLID
5
114
100
AcDbEntity
8
2
62
256
6
ByLayer
370
18
48
1
60
0
100
AcDbTrace
10
34.9388
20
-13.063398
30
0
11
31.438802
21
-13.524182
31
0
12
31.438798
22
-12.602615
32
0
13
31.438798
23
-12.602615
33
0
39
0
210
0
220
0
230
1
0
ENDBLK
5
116
100
AcDbEntity
8
0
100
AcDbBlockEnd
0
BLOCK
5
11B
100
AcDbEntity
8
0
100
AcDbBlockBegin
2
*D3
70
1
10
0
20
0
30
0
3
*D3
0
LINE
5
11D
100
AcDbEntity
8
0
62
256
6
ByLayer
370
-2
48
1
60
0
100
AcDbLine
10
-36
20
-4.5875
30
0
11
-36
21
-33.692985
31
0
39
0
210
0
220
0
230
1
0
LINE
5
11E
100
AcDbEntity
8
0
62
256
6
ByLayer
370
-2
48
1
60
0
100
AcDbLine
10
36
20
-1.5875
30
0
11
36
21
-33.692985
31
0
39
0
210
0
220
0
230
1
0
LINE
5
11F
100
AcDbEntity
8
0
62
256
6
ByLayer
370
-2
48
1
60
0
100
AcDbLine
10
-32.5
20
-31.692985
30
0
11
32.5
21
-31.692985
31
0
39
0
210
0
220
0
230
1
0
SOLID
5
120
100
AcDbEntity
8
0
62
256
6
ByLayer
370
-1
48
1
60
0
100
AcDbTrace
10
-32.5
20
-31.109652
30
0
11
-32.5
21
-32.276319
31
0
12
-36
22
-31.692985
32
0
13
-36
23
-31.692985
33
0
39
0
210
0
220
0
230
1
0
SOLID
5
121
100
AcDbEntity
8
0
62
256
6
ByLayer
370
-1
48
1
60
0
100
AcDbTrace
10
32.5
20
-32.276319
30
0
11
32.5
21
-31.109652
31
0
12
36
22
-31.692985
32
0
13
36
23
-31.692985
33
0
39
0
210
0
220
0
230
1
0
MTEXT
5
122
100
AcDbEntity
8
0
62
256
6
ByLayer
370
18
48
1
60
0
100
AcDbMText
10
0
20
-24.692985
30
0
210
0
220
0
230
1
1
\A1;72.00
40
3.5
41
0
44
1
50
0
71
5
72
5
7
iso_b_vert
0
POINT
5
123
100
AcDbEntity
8
Defpoints
62
0
6
ByLayer
370
-1
48
1
60
0
100
AcDbPoint
10
-36
20
-3
30
0
39
0
210
0
220
0
230
1
50
360
0
POINT
5
124
100
AcDbEntity
8
Defpoints
62
0
6
ByLayer
370
-1
48
1
60
0
100
AcDbPoint
10
36
20
0
30
0
39
0
210
0
220
0
230
1
50
360
0
POINT
5
125
100
AcDbEntity
8
Defpoints
62
0
6
ByLayer
370
-1
48
1
60
0
100
AcDbPoint
10
36
20
-31.692985
30
0
39
0
210
0
220
0
230
1
50
360
0
ENDBLK
5
11C
100
AcDbEntity
8
0
100
AcDbBlockEnd
0
BLOCK
5
12D
100
AcDbEntity
8
0
100
AcDbBlockBegin
2
_U1
70
0
10
0
20
0
30
0
3
_U1
0
MTEXT
5
127
100
AcDbEntity
8
SK2
62
256
6
ByLayer
370
13
48
1
60
0
100
AcDbMText
10
-5.137299
20
-30.660352
30
0
210
0
220
0
230
1
1
\W0.7317;72,00
40
3.5
41
0
44
1.084337
50
0
71
7
72
5
7
iso_b_vert
0
LINE
5
128
100
AcDbEntity
8
SK2
62
256
6
ByLayer
370
13
48
1
60
0
100
AcDbLine
10
-36
20
-4.5875
30
0
11
-36
21
-33.692985
31
0
39
0
210
0
220
0
230
1
0
LINE
5
129
100
AcDbEntity
8
SK2
62
256
6
ByLayer
370
13
48
1
60
0
100
AcDbLine
10
36
20
-1.5875
30
0
11
36
21
-33.692985
31
0
39
0
210
0
220
0
230
1
0
LINE
5
12A
100
AcDbEntity
8
SK2
62
256
6
ByLayer
370
13
48
1
60
0
100
AcDbLine
10
-36
20
-31.692985
30
0
11
36
21
-31.692985
31
0
39
0
210
0
220
0
230
1
0
SOLID
5
12B
100
AcDbEntity
8
SK2
62
256
6
ByLayer
370
18
48
1
60
0
100
AcDbTrace
10
-36
20
-31.692985
30
0
11
-32.500002
21
-31.232202
31
0
12
-32.499998
22
-32.153769
32
0
13
-32.499998
23
-32.153769
33
0
39
0
210
0
220
0
230
1
0
SOLID
5
12C
100
AcDbEntity
8
SK2
62
256
6
ByLayer
370
18
48
1
60
0
100
AcDbTrace
10
36
20
-31.692985
30
0
11
32.500002
21
-32.153769
31
0
12
32.499998
22
-31.232202
32
0
13
32.499998
23
-31.232202
33
0
39
0
210
0
220
0
230
1
0
ENDBLK
5
12E
100
AcDbEntity
8
0
100
AcDbBlockEnd
0
BLOCK
5
133
100
AcDbEntity
8
0
100
AcDbBlockBegin
2
*D5
70
1
10
0
20
0
30
0
3
*D5
0
LINE
5
135
100
AcDbEntity
8
0
62
256
6
ByLayer
370
-2
48
1
60
0
100
AcDbLine
10
17.84
20
4.4375
30
0
11
17.84
21
16.459119
31
0
39
0
210
0
220
0
230
1
0
LINE
5
136
100
AcDbEntity
8
0
62
256
6
ByLayer
370
-2
48
1
60
0
100
AcDbLine
10
36
20
1.5875
30
0
11
36
21
16.459119
31
0
39
0
210
0
220
0
230
1
0
LINE
5
137
100
AcDbEntity
8
0
62
256
6
ByLayer
370
-2
48
1
60
0
100
AcDbLine
10
21.34
20
14.459119
30
0
11
32.5
21
14.459119
31
0
39
0
210
0
220
0
230
1
0
SOLID
5
138
100
AcDbEntity
8
0
62
256
6
ByLayer
370
-1
48
1
60
0
100
AcDbTrace
10
21.34
20
15.042453
30
0
11
21.34
21
13.875786
31
0
12
17.84
22
14.459119
32
0
13
17.84
23
14.459119
33
0
39
0
210
0
220
0
230
1
0
SOLID
5
139
100
AcDbEntity
8
0
62
256
6
ByLayer
370
-1
48
1
60
0
100
AcDbTrace
10
32.5
20
13.875786
30
0
11
32.5
21
15.042453
31
0
12
36
22
14.459119
32
0
13
36
23
14.459119
33
0
39
0
210
0
220
0
230
1
0
MTEXT
5
13A
100
AcDbEntity
8
0
62
256
6
ByLayer
370
18
48
1
60
0
100
AcDbMText
10
26.92
20
21.459119
30
0
210
0
220
0
230
1
1
\A1;18.16
40
3.5
41
0
44
1
50
0
71
5
72
5
7
iso_b_vert
0
POINT
5
13B
100
AcDbEntity
8
Defpoints
62
0
6
ByLayer
370
-1
48
1
60
0
100
AcDbPoint
10
17.84
20
2.85
30
0
39
0
210
0
220
0
230
1
50
360
0
POINT
5
13C
100
AcDbEntity
8
Defpoints
62
0
6
ByLayer
370
-1
48
1
60
0
100
AcDbPoint
10
36
20
0
30
0
39
0
210
0
220
0
230
1
50
360
0
POINT
5
13D
100
AcDbEntity
8
Defpoints
62
0
6
ByLayer
370
-1
48
1
60
0
100
AcDbPoint
10
36
20
14.459119
30
0
39
0
210
0
220
0
230
1
50
360
0
ENDBLK
5
134
100
AcDbEntity
8
0
100
AcDbBlockEnd
0
BLOCK
5
145
100
AcDbEntity
8
0
100
AcDbBlockBegin
2
_U2
70
0
10
0
20
0
30
0
3
_U2
0
MTEXT
5
13F
100
AcDbEntity
8
SK2
62
256
6
ByLayer
370
13
48
1
60
0
100
AcDbMText
10
22.657568
20
15.491753
30
0
210
0
220
0
230
1
1
\W0.6110;18,16
40
3.5
41
0
44
1.084337
50
0
71
7
72
5
7
iso_b_vert
0
LINE
5
140
100
AcDbEntity
8
SK2
62
256
6
ByLayer
370
13
48
1
60
0
100
AcDbLine
10
17.84
20
4.4375
30
0
11
17.84
21
16.459119
31
0
39
0
210
0
220
0
230
1
0
LINE
5
141
100
AcDbEntity
8
SK2
62
256
6
ByLayer
370
13
48
1
60
0
100
AcDbLine
10
36
20
1.5875
30
0
11
36
21
16.459119
31
0
39
0
210
0
220
0
230
1
0
LINE
5
142
100
AcDbEntity
8
SK2
62
256
6
ByLayer
370
13
48
1
60
0
100
AcDbLine
10
17.84
20
14.459119
30
0
11
36
21
14.459119
31
0
39
0
210
0
220
0
230
1
0
SOLID
5
143
100
AcDbEntity
8
SK2
62
256
6
ByLayer
370
18
48
1
60
0
100
AcDbTrace
10
17.84
20
14.459119
30
0
11
21.339998
21
14.919903
31
0
12
21.340002
22
13.998335
32
0
13
21.340002
23
13.998335
33
0
39
0
210
0
220
0
230
1
0
SOLID
5
144
100
AcDbEntity
8
SK2
62
256
6
ByLayer
370
18
48
1
60
0
100
AcDbTrace
10
36
20
14.459119
30
0
11
32.500002
21
13.998335
31
0
12
32.499998
22
14.919903
32
0
13
32.499998
23
14.919903
33
0
39
0
210
0
220
0
230
1
0
ENDBLK
5
146
100
AcDbEntity
8
0
100
AcDbBlockEnd
0
BLOCK
5
14B
100
AcDbEntity
8
0
100
AcDbBlockBegin
2
*D7
70
1
10
0
20
0
30
0
3
*D7
0
LINE
5
14D
100
AcDbEntity
8
0
62
256
6
ByLayer
370
-2
48
1
60
0
100
AcDbLine
10
36
20
-1.5875
30
0
11
36
21
-17.652503
31
0
39
0
210
0
220
0
230
1
0
LINE
5
14E
100
AcDbEntity
8
0
62
256
6
ByLayer
370
-2
48
1
60
0
100
AcDbLine
10
34.9388
20
-4.4375
30
0
11
34.9388
21
-17.652503
31
0
39
0
210
0
220
0
230
1
0
LINE
5
14F
100
AcDbEntity
8
0
62
256
6
ByLayer
370
-2
48
1
60
0
100
AcDbLine
10
36
20
-15.652503
30
0
11
63.666667
21
-15.652503
31
0
39
0
210
0
220
0
230
1
0
LINE
5
150
100
AcDbEntity
8
0
62
256
6
ByLayer
370
-2
48
1
60
0
100
AcDbLine
10
39.5
20
-15.652503
30
0
11
43
21
-15.652503
31
0
39
0
210
0
220
0
230
1
0
LINE
5
151
100
AcDbEntity
8
0
62
256
6
ByLayer
370
-2
48
1
60
0
100
AcDbLine
10
31.4388
20
-15.652503
30
0
11
27.9388
21
-15.652503
31
0
39
0
210
0
220
0
230
1
0
SOLID
5
152
100
AcDbEntity
8
0
62
256
6
ByLayer
370
-1
48
1
60
0
100
AcDbTrace
10
39.5
20
-15.06917
30
0
11
39.5
21
-16.235837
31
0
12
36
22
-15.652503
32
0
13
36
23
-15.652503
33
0
39
0
210
0
220
0
230
1
0
SOLID
5
153
100
AcDbEntity
8
0
62
256
6
ByLayer
370
-1
48
1
60
0
100
AcDbTrace
10
31.4388
20
-16.235837
30
0
11
31.4388
21
-15.06917
31
0
12
34.9388
22
-15.652503
32
0
13
34.9388
23
-15.652503
33
0
39
0
210
0
220
0
230
1
0
MTEXT
5
154
100
AcDbEntity
8
0
62
256
6
ByLayer
370
18
48
1
60
0
100
AcDbMText
10
53.333333
20
-8.652503
30
0
210
0
220
0
230
1
1
\A1;1.06
40
3.5
41
0
44
1
50
0
71
5
72
5
7
iso_b_vert
0
POINT
5
155
100
AcDbEntity
8
Defpoints
62
0
6
ByLayer
370
-1
48
1
60
0
100
AcDbPoint
10
36
20
0
30
0
39
0
210
0
220
0
230
1
50
360
0
POINT
5
156
100
AcDbEntity
8
Defpoints
62
0
6
ByLayer
370
-1
48
1
60
0
100
AcDbPoint
10
34.9388
20
-2.85
30
0
39
0
210
0
220
0
230
1
50
360
0
POINT
5
157
100
AcDbEntity
8
Defpoints
62
0
6
ByLayer
370
-1
48
1
60
0
100
AcDbPoint
10
34.9388
20
-15.652503
30
0
39
0
210
0
220
0
230
1
50
360
0
ENDBLK
5
14C
100
AcDbEntity
8
0
100
AcDbBlockEnd
0
BLOCK
5
15F
100
AcDbEntity
8
0
100
AcDbBlockBegin
2
_U3
70
0
10
0
20
0
30
0
3
_U3
0
MTEXT
5
159
100
AcDbEntity
8
SK2
62
256
6
ByLayer
370
13
48
1
60
0
100
AcDbMText
10
42.589293
20
-14.61987
30
0
210
0
220
0
230
1
1
\W0.6367;1,06
40
3.5
41
0
44
1.084337
50
0
71
7
72
5
7
iso_b_vert
0
LINE
5
15A
100
AcDbEntity
8
SK2
62
256
6
ByLayer
370
13
48
1
60
0
100
AcDbLine
10
36
20
-1.5875
30
0
11
36
21
-17.652503
31
0
39
0
210
0
220
0
230
1
0
LINE
5
15B
100
AcDbEntity
8
SK2
62
256
6
ByLayer
370
13
48
1
60
0
100
AcDbLine
10
34.9388
20
-4.4375
30
0
11
34.9388
21
-17.652503
31
0
39
0
210
0
220
0
230
1
0
LINE
5
15C
100
AcDbEntity
8
SK2
62
256
6
ByLayer
370
13
48
1
60
0
100
AcDbLine
10
26.1888
20
-15.652503
30
0
11
49.559058
21
-15.652503
31
0
39
0
210
0
220
0
230
1
0
SOLID
5
15D
100
AcDbEntity
8
SK2
62
256
6
ByLayer
370
18
48
1
60
0
100
AcDbTrace
10
36
20
-15.652503
30
0
11
39.499998
21
-15.191719
31
0
12
39.500002
22
-16.113287
32
0
13
39.500002
23
-16.113287
33
0
39
0
210
0
220
0
230
1
0
SOLID
5
15E
100
AcDbEntity
8
SK2
62
256
6
ByLayer
370
18
48
1
60
0
100
AcDbTrace
10
34.9388
20
-15.652503
30
0
11
31.438802
21
-16.113287
31
0
12
31.438798
22
-15.191719
32
0
13
31.438798
23
-15.191719
33
0
39
0
210
0
220
0
230
1
0
ENDBLK
5
160
100
AcDbEntity
8
0
100
AcDbBlockEnd
0
BLOCK
5
165
100
AcDbEntity
8
0
100
AcDbBlockBegin
2
*D9
70
1
10
0
20
0
30
0
3
*D9
0
LINE
5
167
100
AcDbEntity
8
0
62
256
6
ByLayer
370
-2
48
1
60
0
100
AcDbLine
10
-36
20
-4.5875
30
0
11
-36
21
-23.343428
31
0
39
0
210
0
220
0
230
1
0
LINE
5
168
100
AcDbEntity
8
0
62
256
6
ByLayer
370
-2
48
1
60
0
100
AcDbLine
10
34.9388
20
-4.4375
30
0
11
34.9388
21
-23.343428
31
0
39
0
210
0
220
0
230
1
0
LINE
5
169
100
AcDbEntity
8
0
62
256
6
ByLayer
370
-2
48
1
60
0
100
AcDbLine
10
-32.5
20
-21.343428
30
0
11
31.4388
21
-21.343428
31
0
39
0
210
0
220
0
230
1
0
SOLID
5
16A
100
AcDbEntity
8
0
62
256
6
ByLayer
370
-1
48
1
60
0
100
AcDbTrace
10
-32.5
20
-20.760095
30
0
11
-32.5
21
-21.926762
31
0
12
-36
22
-21.343428
32
0
13
-36
23
-21.343428
33
0
39
0
210
0
220
0
230
1
0
SOLID
5
16B
100
AcDbEntity
8
0
62
256
6
ByLayer
370
-1
48
1
60
0
100
AcDbTrace
10
31.4388
20
-21.926762
30
0
11
31.4388
21
-20.760095
31
0
12
34.9388
22
-21.343428
32
0
13
34.9388
23
-21.343428
33
0
39
0
210
0
220
0
230
1
0
MTEXT
5
16C
100
AcDbEntity
8
0
62
256
6
ByLayer
370
18
48
1
60
0
100
AcDbMText
10
-0.5306
20
-14.343428
30
0
210
0
220
0
230
1
1
\A1;70.94
40
3.5
41
0
44
1
50
0
71
5
72
5
7
iso_b_vert
0
POINT
5
16D
100
AcDbEntity
8
Defpoints
62
0
6
ByLayer
370
-1
48
1
60
0
100
AcDbPoint
10
-36
20
-3
30
0
39
0
210
0
220
0
230
1
50
360
0
POINT
5
16E
100
AcDbEntity
8
Defpoints
62
0
6
ByLayer
370
-1
48
1
60
0
100
AcDbPoint
10
34.9388
20
-2.85
30
0
39
0
210
0
220
0
230
1
50
360
0
POINT
5
16F
100
AcDbEntity
8
Defpoints
62
0
6
ByLayer
370
-1
48
1
60
0
100
AcDbPoint
10
34.9388
20
-21.343428
30
0
39
0
210
0
220
0
230
1
50
360
0
ENDBLK
5
166
100
AcDbEntity
8
0
100
AcDbBlockEnd
0
BLOCK
5
177
100
AcDbEntity
8
0
100
AcDbBlockBegin
2
_U4
70
0
10
0
20
0
30
0
3
_U4
0
MTEXT
5
171
100
AcDbEntity
8
SK2
62
256
6
ByLayer
370
13
48
1
60
0
100
AcDbMText
10
-5.852165
20
-20.310795
30
0
210
0
220
0
230
1
1
\W0.7495;70,94
40
3.5
41
0
44
1.084337
50
0
71
7
72
5
7
iso_b_vert
0
LINE
5
172
100
AcDbEntity
8
SK2
62
256
6
ByLayer
370
13
48
1
60
0
100
AcDbLine
10
-36
20
-4.5875
30
0
11
-36
21
-23.343428
31
0
39
0
210
0
220
0
230
1
0
LINE
5
173
100
AcDbEntity
8
SK2
62
256
6
ByLayer
370
13
48
1
60
0
100
AcDbLine
10
34.9388
20
-4.4375
30
0
11
34.9388
21
-23.343428
31
0
39
0
210
0
220
0
230
1
0
LINE
5
174
100
AcDbEntity
8
SK2
62
256
6
ByLayer
370
13
48
1
60
0
100
AcDbLine
10
-36
20
-21.343428
30
0
11
34.9388
21
-21.343428
31
0
39
0
210
0
220
0
230
1
0
SOLID
5
175
100
AcDbEntity
8
SK2
62
256
6
ByLayer
370
18
48
1
60
0
100
AcDbTrace
10
-36
20
-21.343428
30
0
11
-32.500002
21
-20.882645
31
0
12
-32.499998
22
-21.804212
32
0
13
-32.499998
23
-21.804212
33
0
39
0
210
0
220
0
230
1
0
SOLID
5
176
100
AcDbEntity
8
SK2
62
256
6
ByLayer
370
18
48
1
60
0
100
AcDbTrace
10
34.9388
20
-21.343428
30
0
11
31.438802
21
-21.804212
31
0
12
31.438798
22
-20.882645
32
0
13
31.438798
23
-20.882645
33
0
39
0
210
0
220
0
230
1
0
ENDBLK
5
178
100
AcDbEntity
8
0
100
AcDbBlockEnd
0
ENDSEC
0
SECTION
2
ENTITIES
0
ARC
5
A5
100
AcDbEntity
8
1
62
256
6
ByLayer
370
18
48
1
60
0
100
AcDbCircle
39
0
10
0.821037
20
-3.638589
30
0
40
0.85
210
0
220
0
230
1
100
AcDbArc
50
89.896868
51
118.879092
0
ARC
5
A6
100
AcDbEntity
8
1
62
256
6
ByLayer
370
18
48
1
60
0
100
AcDbCircle
39
0
10
0.821037
20
3.638589
30
0
40
0.85
210
0
220
0
230
1
100
AcDbArc
50
241.120908
51
270.103132
0
ARC
5
A7
100
AcDbEntity
8
1
62
256
6
ByLayer
370
18
48
1
60
0
100
AcDbCircle
39
0
10
0
20
-2.15
30
0
40
0.85
210
0
220
0
230
1
100
AcDbArc
50
270
51
298.879092
0
ARC
5
A8
100
AcDbEntity
8
1
62
256
6
ByLayer
370
18
48
1
60
0
100
AcDbCircle
39
0
10
0
20
2.15
30
0
40
0.85
210
0
220
0
230
1
100
AcDbArc
50
61.120908
51
90
0
ELLIPSE
5
A9
100
AcDbEntity
8
1
62
256
6
ByLayer
370
13
48
1
60
0
100
AcDbEllipse
10
8.98956
20
1.708872
30
0
11
0.129344712292257
21
0.270684217127695
31
0
210
0
220
0
230
1
40
0.28481
41
-2.83418394242403
42
-2.10455215493522
0
ELLIPSE
5
AA
100
AcDbEntity
8
1
62
256
6
ByLayer
370
13
48
1
60
0
100
AcDbEllipse
10
12.632594
20
-71.980255
30
0
11
-32.7358541840607
21
67.0578610458708
31
0
210
0
220
0
230
1
40
0.800762
41
-0.547474711225918
42
-0.466410129877629
0
ELLIPSE
5
AB
100
AcDbEntity
8
1
62
256
6
ByLayer
370
13
48
1
60
0
100
AcDbEllipse
10
80.194174
20
42.658776
30
0
11
-61.4
21
7.5190830124694E-15
31
0
210
0
220
0
230
1
40
0.99863
41
0.742467278918831
42
0.766837245247314
0
ELLIPSE
5
AC
100
AcDbEntity
8
1
62
256
6
ByLayer
370
18
48
1
60
0
100
AcDbEllipse
10
8.988246
20
3.723344
30
0
11
1
21
0
31
0
210
0
220
0
230
1
40
1
41
-1.96762831403378
42
-1.56786413587314
0
ELLIPSE
5
AD
100
AcDbEntity
8
1
62
256
6
ByLayer
370
18
48
1
60
0
100
AcDbEllipse
10
8.988246
20
-3.723344
30
0
11
1
21
0
31
0
210
0
220
0
230
1
40
1
41
1.57142162280554
42
1.9703606466019
0
POINT
5
70
100
AcDbEntity
8
80
62
256
6
ByLayer
370
18
48
1
60
0
100
AcDbPoint
10
0
20
0
30
0
39
0
210
0
220
0
230
1
50
360
0
POINT
5
72
100
AcDbEntity
8
81
62
256
6
ByLayer
370
18
48
1
60
0
100
AcDbPoint
10
36
20
0
30
0
39
0
210
0
220
0
230
1
50
360
0
POINT
5
74
100
AcDbEntity
8
1
62
256
6
ByLayer
370
18
48
1
60
1
100
AcDbPoint
10
34.9388
20
-2.85
30
0
39
0
210
0
220
0
230
1
50
360
0
POINT
5
76
100
AcDbEntity
8
1
62
256
6
ByLayer
370
18
48
1
60
1
100
AcDbPoint
10
-36
20
-3
30
0
39
0
210
0
220
0
230
1
50
360
0
POINT
5
77
100
AcDbEntity
8
1
62
256
6
ByLayer
370
18
48
1
60
1
100
AcDbPoint
10
17.84
20
2.85
30
0
39
0
210
0
220
0
230
1
50
360
0
POINT
5
78
100
AcDbEntity
8
1
62
256
6
ByLayer
370
18
48
1
60
1
100
AcDbPoint
10
34.9388
20
-2.85
30
0
39
0
210
0
220
0
230
1
50
360
0
POINT
5
79
100
AcDbEntity
8
1
62
256
6
ByLayer
370
18
48
1
60
1
100
AcDbPoint
10
-36
20
-3
30
0
39
0
210
0
220
0
230
1
50
360
0
POINT
5
7A
100
AcDbEntity
8
1
62
256
6
ByLayer
370
18
48
1
60
1
100
AcDbPoint
10
34.9388
20
-2.85
30
0
39
0
210
0
220
0
230
1
50
360
0
SPLINE
5
AE
100
AcDbEntity
8
1
62
256
6
ByLayer
370
13
48
1
60
0
100
AcDbSpline
70
4
71
3
72
10
73
6
40
0
40
0
40
0
40
0
40
0.397326686827499
40
0.397326686827499
40
1
40
1
40
1
40
1
41
1
10
8.9894049755562
20
-2.72334558194388
30
0
41
1
10
8.98940303933404
20
-2.72310656619791
30
0
41
1
10
8.98940258764733
20
-2.71826098988649
30
0
41
1
10
8.98940395060441
20
-2.6945887318289
30
0
41
1
10
8.98940708825535
20
-2.66965514541158
30
0
41
1
10
8.98941083997448
20
-2.63405758360105
30
0
0
SPLINE
5
AF
100
AcDbEntity
8
1
62
256
6
ByLayer
370
18
48
1
60
0
100
AcDbSpline
70
4
71
3
72
30
73
26
40
0
40
0
40
0
40
0
40
0.0887236007164337
40
0.0887236007164337
40
0.177447201432867
40
0.177447201432867
40
0.266170802149301
40
0.266170802149301
40
0.354894402865735
40
0.354894402865735
40
0.443618003582168
40
0.443618003582168
40
0.532341604298602
40
0.532341604298602
40
0.621065205015036
40
0.621065205015036
40
0.709788805731469
40
0.709788805731469
40
0.798512406447903
40
0.798512406447903
40
0.887236007164337
40
0.887236007164337
40
0.97595960788077
40
0.97595960788077
40
1
40
1
40
1
40
1
41
1
10
34.6285031350212
20
0.118320247518852
30
0
41
1
10
34.3939861278769
20
0.243137847395104
30
0
41
1
10
34.1595512739418
20
0.367109752341207
30
0
41
1
10
33.6901426850754
20
0.612084736278661
30
0
41
1
10
33.4553692240607
20
0.733436380269836
30
0
41
1
10
32.9844363586955
20
0.971328540079782
30
0
41
1
10
32.7493252869815
20
1.0872631397504
30
0
41
1
10
32.2800083835402
20
1.3111202588866
30
0
41
1
10
32.0452984693908
20
1.41932837901422
30
0
41
1
10
31.5753295333326
20
1.62714366690531
30
0
41
1
10
31.3396993606351
20
1.72718397967964
30
0
41
1
10
30.8695329597788
20
1.91369329163044
30
0
41
1
10
30.6349412844029
20
2.00079794611335
30
0
41
1
10
30.1654869044444
20
2.16363701115429
30
0
41
1
10
29.9305931736922
20
2.23895751806145
30
0
41
1
10
29.4600787640247
20
2.37549413124225
30
0
41
1
10
29.2247642905118
20
2.43560672065513
30
0
41
1
10
28.7548804052184
20
2.54175901433686
30
0
41
1
10
28.5202262004426
20
2.58767445533687
30
0
41
1
10
28.0504002289351
20
2.66289523167663
30
0
41
1
10
27.8148398993308
20
2.69220463607007
30
0
41
1
10
27.3442647265351
20
2.7329821854708
30
0
41
1
10
27.1092356302902
20
2.74596070563209
30
0
41
1
10
26.8105411926612
20
2.75203901892124
30
0
41
1
10
26.7468741778599
20
2.75275902789073
30
0
41
1
10
26.6832063009833
20
2.75285558819485
30
0
0
SPLINE
5
B0
100
AcDbEntity
8
1
62
256
6
ByLayer
370
18
48
1
60
0
100
AcDbSpline
70
4
71
3
72
14
73
10
40
0
40
0
40
0
40
0
40
0.193772429323694
40
0.193772429323694
40
0.462514952882463
40
0.462514952882463
40
0.731257476441232
40
0.731257476441232
40
1
40
1
40
1
40
1
41
1
10
14.6583728719473
20
-1.84401560004036
30
0
41
1
10
14.488643195168
20
-1.90934666575009
30
0
41
1
10
14.3193428503878
20
-1.9713951367342
30
0
41
1
10
13.9152653736107
20
-2.11262927524979
30
0
41
1
10
13.6807376272737
20
-2.18932989424607
30
0
41
1
10
13.2118427920063
20
-2.32775811265509
30
0
41
1
10
12.9773323175498
20
-2.38888759757032
30
0
41
1
10
12.5071265431508
20
-2.49687842483451
30
0
41
1
10
12.2715750936384
20
-2.54445999443024
30
0
41
1
10
12.0348124387822
20
-2.58410075616035
30
0
0
SPLINE
5
B1
100
AcDbEntity
8
1
62
256
6
ByLayer
370
18
48
1
60
0
100
AcDbSpline
70
4
71
3
72
8
73
4
40
0
40
0
40
0
40
0
40
1
40
1
40
1
40
1
41
1
10
35.999848171256
20
-0.0557955904152152
30
0
41
1
10
35.9930345834275
20
-0.0752081645916007
30
0
41
1
10
35.9862502224944
20
-0.0946379634551135
30
0
41
1
10
35.979494711195
20
-0.11408494906388
30
0
0
SPLINE
5
B2
100
AcDbEntity
8
1
62
256
6
ByLayer
370
18
48
1
60
0
100
AcDbSpline
70
4
71
3
72
30
73
26
40
0
40
0
40
0
40
0
40
0.125
40
0.125
40
0.25
40
0.25
40
0.374999999999999
40
0.374999999999999
40
0.499999999999999
40
0.499999999999999
40
0.562499999999999
40
0.562499999999999
40
0.624999999999999
40
0.624999999999999
40
0.687499999999999
40
0.687499999999999
40
0.75
40
0.75
40
0.8125
40
0.8125
40
0.875
40
0.875
40
0.9375
40
0.9375
40
1
40
1
40
1
40
1
41
1
10
8.59924442753831
20
-2.65594573724491
30
0
41
1
10
8.46915051287399
20
-2.62614993532361
30
0
41
1
10
8.34160498194066
20
-2.59090307040412
30
0
41
1
10
8.09303961770422
20
-2.50615076086885
30
0
41
1
10
7.9712990173042
20
-2.4563225880469
30
0
41
1
10
7.74110001080956
20
-2.33873345105084
30
0
41
1
10
7.63250415898582
20
-2.27116016448107
30
0
41
1
10
7.43414568264896
20
-2.11081561099778
30
0
41
1
10
7.34688130490144
20
-2.02012276324535
30
0
41
1
10
7.24088844580308
20
-1.86179046377362
30
0
41
1
10
7.20953540458595
20
-1.80465964903087
30
0
41
1
10
7.15866513076674
20
-1.68428365114778
30
0
41
1
10
7.13908749873477
20
-1.62122525658759
30
0
41
1
10
7.11282460579304
20
-1.48875634727483
30
0
41
1
10
7.1062360365147
20
-1.4186077954281
30
0
41
1
10
7.1072554665223
20
-1.27705403401231
30
0
41
1
10
7.11464047969338
20
-1.20524810863509
30
0
41
1
10
7.14253739977841
20
-1.05966065773151
30
0
41
1
10
7.16325487440338
20
-0.985629954378112
30
0
41
1
10
7.21519440615629
20
-0.840897409809372
30
0
41
1
10
7.24649776206593
20
-0.769515426866491
30
0
41
1
10
7.31830545535968
20
-0.628452120478812
30
0
41
1
10
7.35859941850509
20
-0.559282162478468
30
0
41
1
10
7.4449578081165
20
-0.425538387210509
30
0
41
1
10
7.49123717479642
20
-0.360554555182858
30
0
41
1
10
7.54009395496067
20
-0.297141919525444
30
0
0
SPLINE
5
B3
100
AcDbEntity
8
1
62
256
6
ByLayer
370
18
48
1
60
0
100
AcDbSpline
70
4
71
3
72
14
73
10
40
0
40
0
40
0
40
0
40
0.25
40
0.25
40
0.5
40
0.5
40
0.75
40
0.75
40
1
40
1
40
1
40
1
41
1
10
12.0348124387827
20
-2.58410075616027
30
0
41
1
10
11.7717040807382
20
-2.62204140040328
30
0
41
1
10
11.5105428319443
20
-2.65320257506372
30
0
41
1
10
10.9926872107907
20
-2.69947325544885
30
0
41
1
10
10.7358603139569
20
-2.71520422595603
30
0
41
1
10
10.2274858305494
20
-2.72701797131774
30
0
41
1
10
9.9756223905826
20
-2.72458018948294
30
0
41
1
10
9.4775147428175
20
-2.69868765064837
30
0
41
1
10
9.2313833940602
20
-2.67470286337712
30
0
41
1
10
8.98941083997443
20
-2.63405758360108
30
0
0
SPLINE
5
B4
100
AcDbEntity
8
1
62
256
6
ByLayer
370
18
48
1
60
0
100
AcDbSpline
70
4
71
3
72
16
73
12
40
0
40
0
40
0
40
0
40
0.250000000000001
40
0.250000000000001
40
0.500000000000001
40
0.500000000000001
40
0.625000000000001
40
0.625000000000001
40
0.750000000000002
40
0.750000000000002
40
1
40
1
40
1
40
1
41
1
10
34.6285031350212
20
0.11832024751908
30
0
41
1
10
34.603291437951
20
-0.0264220266423081
30
0
41
1
10
34.5836731651085
20
-0.172270156861799
30
0
41
1
10
34.5564138532766
20
-0.462442626677046
30
0
41
1
10
34.5489040683464
20
-0.60483872409938
30
0
41
1
10
34.5466470784787
20
-0.81447332305757
30
0
41
1
10
34.5474030066373
20
-0.883688531333348
30
0
41
1
10
34.5519874736422
20
-1.02076830745347
30
0
41
1
10
34.5558445908458
20
-1.08890428647135
30
0
41
1
10
34.571924736626
20
-1.28830177045853
30
0
41
1
10
34.5885883757688
20
-1.41508228310096
30
0
41
1
10
34.6110605519397
20
-1.5358513728961
30
0
0
SPLINE
5
B5
100
AcDbEntity
8
1
62
256
6
ByLayer
370
18
48
1
60
0
100
AcDbSpline
70
4
71
3
72
10
73
6
40
0
40
0
40
0
40
0
40
0.513343825686905
40
0.513343825686905
40
1
40
1
40
1
40
1
41
1
10
35.0452607544042
20
0.0372461157199382
30
0
41
1
10
34.9672569656816
20
0.069738878849364
30
0
41
1
10
34.889938225417
20
0.10062548666761
30
0
41
1
10
34.7462268944846
20
0.154009749891827
30
0
41
1
10
34.6788722796619
20
0.17710047194592
30
0
41
1
10
34.6192509074678
20
0.194862223583243
30
0
0
SPLINE
5
B6
100
AcDbEntity
8
1
62
256
6
ByLayer
370
18
48
1
60
0
100
AcDbSpline
70
4
71
3
72
32
73
28
40
0
40
0
40
0
40
0
40
0.0670870132629196
40
0.0670870132629196
40
0.134174026525839
40
0.134174026525839
40
0.201261039788759
40
0.201261039788759
40
0.268348053051679
40
0.268348053051679
40
0.335435066314598
40
0.335435066314598
40
0.402522079577518
40
0.402522079577518
40
0.469609092840438
40
0.469609092840438
40
0.536696106103357
40
0.536696106103357
40
0.670870132629196
40
0.670870132629196
40
0.805044159155036
40
0.805044159155036
40
0.872131172417955
40
0.872131172417955
40
0.939218185680875
40
0.939218185680875
40
1
40
1
40
1
40
1
41
1
10
8.88960691968992
20
1.43973002379778
30
0
41
1
10
9.16235612929191
20
1.31389861789034
30
0
41
1
10
9.43514242541005
20
1.18179764589038
30
0
41
1
10
9.97918055319192
20
0.909608504442758
30
0
41
1
10
10.250609530682
20
0.769747584321465
30
0
41
1
10
10.7935634504968
20
0.484838767268656
30
0
41
1
10
11.064989017999
20
0.339605100844409
30
0
41
1
10
11.6094381176019
20
0.0466691767089742
30
0
41
1
10
11.8821128776671
20
-0.100889067266934
30
0
41
1
10
12.4255954958157
20
-0.393448267834572
30
0
41
1
10
12.6970270274145
20
-0.538657369338864
30
0
41
1
10
13.2410557043892
20
-0.823660158154979
30
0
41
1
10
13.5138155953845
20
-0.96408984936366
30
0
41
1
10
14.057600141018
20
-1.23497257408681
30
0
41
1
10
14.3291229500427
20
-1.36557261325447
30
0
41
1
10
14.8725235804076
20
-1.61529523768084
30
0
41
1
10
15.1449928793736
20
-1.73454512964443
30
0
41
1
10
15.9612675345055
20
-2.06888492495958
30
0
41
1
10
16.5031196079044
20
-2.26064802704619
30
0
41
1
10
17.5926854261137
20
-2.56669311650194
30
0
41
1
10
18.1340111796705
20
-2.67931221403435
30
0
41
1
10
18.9503561835646
20
-2.78107824048166
30
0
41
1
10
19.2226240853058
20
-2.8037337674989
30
0
41
1
10
19.7655444108829
20
-2.82595669403619
30
0
41
1
10
20.0366977346375
20
-2.82555938414569
30
0
41
1
10
20.554630113363
20
-2.80281609759547
30
0
41
1
10
20.8014960726857
20
-2.78247996526005
30
0
41
1
10
21.0476948667593
20
-2.75293057197126
30
0
0
SPLINE
5
B7
100
AcDbEntity
8
1
62
256
6
ByLayer
370
13
48
1
60
0
100
AcDbSpline
70
4
71
3
72
32
73
28
40
0
40
0
40
0
40
0
40
0.0692347707311268
40
0.0692347707311268
40
0.140832096059503
40
0.140832096059503
40
0.284026746716256
40
0.284026746716256
40
0.319825409380443
40
0.319825409380443
40
0.35562407204463
40
0.35562407204463
40
0.427221397373003
40
0.427221397373003
40
0.570416048029751
40
0.570416048029751
40
0.642013373358126
40
0.642013373358126
40
0.677812036022314
40
0.677812036022314
40
0.713610698686502
40
0.713610698686502
40
0.856805349343252
40
0.856805349343252
40
0.928402674671626
40
0.928402674671626
40
1
40
1
40
1
40
1
41
1
10
20.3152918083741
20
-2.74138383627104
30
0
41
1
10
20.052800924147
20
-2.74148217313422
30
0
41
1
10
19.7892884391161
20
-2.73121821532635
30
0
41
1
10
19.2563801085374
20
-2.68947798824436
30
0
41
1
10
18.9867073148321
20
-2.65724488566968
30
0
41
1
10
18.1789549977974
20
-2.52867389919001
30
0
41
1
10
17.6422684287506
20
-2.40244692638245
30
0
41
1
10
16.9670384986067
20
-2.196964321824
30
0
41
1
10
16.8317203348578
20
-2.15358579217187
30
0
41
1
10
16.5605283352314
20
-2.06233595834016
30
0
41
1
10
16.4243741352274
20
-2.01436099478781
30
0
41
1
10
16.0165522445822
20
-1.86470824146485
30
0
41
1
10
15.7460623816914
20
-1.75754203649893
30
0
41
1
10
14.936735968343
20
-1.41731368719968
30
0
41
1
10
14.3999929330527
20
-1.16510664772335
30
0
41
1
10
13.5908123734272
20
-0.763691651617194
30
0
41
1
10
13.3204524024848
20
-0.625954466169674
30
0
41
1
10
12.9126809326953
20
-0.415456110858543
30
0
41
1
10
12.77630577321
20
-0.344599860515302
30
0
41
1
10
12.5047193819588
20
-0.202876606883507
30
0
41
1
10
12.3692608120896
20
-0.131885160087961
30
0
41
1
10
11.6930867262888
20
0.222573790480482
30
0
41
1
10
11.1558233980542
20
0.504741469900665
30
0
41
1
10
10.3472252825078
20
0.91009267224976
30
0
41
1
10
10.0772000057997
20
1.04214689514799
30
0
41
1
10
9.53508915469953
20
1.29823590075316
30
0
41
1
10
9.26227528435115
20
1.42226966679001
30
0
41
1
10
8.99012363462387
20
1.53944120621401
30
0
0
SPLINE
5
B8
100
AcDbEntity
8
1
62
256
6
ByLayer
370
18
48
1
60
0
100
AcDbSpline
70
4
71
3
72
8
73
4
40
0
40
0
40
0
40
0
40
1
40
1
40
1
40
1
41
1
10
35.9998481712531
20
0.0557955904231733
30
0
41
1
10
36.0000506095818
20
0.0185985301442599
30
0
41
1
10
36.0000506095818
20
-0.0185985301346818
30
0
41
1
10
35.9998481712532
20
-0.0557955904136236
30
0
0
SPLINE
5
B9
100
AcDbEntity
8
1
62
256
6
ByLayer
370
18
48
1
60
0
100
AcDbSpline
70
4
71
2
72
6
73
3
40
0
40
0
40
0
40
1
40
1
40
1
41
0.500000018266976
10
34.9634570082921
20
-2.76785706510943
30
0
41
0.499999981733024
10
34.9631017726563
20
-2.76762056787346
30
0
41
0.500000018266976
10
34.962746807165
20
-2.76738340421626
30
0
0
SPLINE
5
BA
100
AcDbEntity
8
1
62
256
6
ByLayer
370
18
48
1
60
0
100
AcDbSpline
70
4
71
3
72
12
73
8
40
0
40
0
40
0
40
0
40
0.500000000000002
40
0.500000000000002
40
0.750000000000001
40
0.750000000000001
40
1
40
1
40
1
40
1
41
1
10
10.512481944844
20
-0.123416738697557
30
0
41
1
10
11.1162596579774
20
-0.395433073669778
30
0
41
1
10
11.7222550769775
20
-0.654087114381298
30
0
41
1
10
12.6333282190489
20
-1.02625127460939
30
0
41
1
10
12.9373837090967
20
-1.14759245145899
30
0
41
1
10
13.5461923617436
20
-1.38475937160908
30
0
41
1
10
13.8515221603166
20
-1.50080153124901
30
0
41
1
10
14.1559537308062
20
-1.61330705223679
30
0
0
SPLINE
5
BB
100
AcDbEntity
8
1
62
256
6
ByLayer
370
18
48
1
60
0
100
AcDbSpline
70
4
71
3
72
18
73
14
40
0
40
0
40
0
40
0
40
0.261130031608112
40
0.261130031608112
40
0.391695047412168
40
0.391695047412168
40
0.522260063216225
40
0.522260063216225
40
0.652825079020281
40
0.652825079020281
40
0.783390094824337
40
0.783390094824337
40
1
40
1
40
1
40
1
41
1
10
14.1559537308062
20
-1.61330705223676
30
0
41
1
10
14.5923630256771
20
-1.80735271844148
30
0
41
1
10
15.0270740147485
20
-1.98276825653255
30
0
41
1
10
15.6800509539659
20
-2.2135531621997
30
0
41
1
10
15.8982911672972
20
-2.2850140968728
30
0
41
1
10
16.3344635599405
20
-2.41556746832112
30
0
41
1
10
16.5520178431437
20
-2.47460317270358
30
0
41
1
10
16.9870731628285
20
-2.57934170106773
30
0
41
1
10
17.204562232918
20
-2.62507328080039
30
0
41
1
10
17.6399344852044
20
-2.70283202871514
30
0
41
1
10
17.8583078679514
20
-2.73478498788793
30
0
41
1
10
18.4376512126459
20
-2.80024572803057
30
0
41
1
10
18.7978675233094
20
-2.8210873526055
30
0
41
1
10
19.1588936661244
20
-2.82158947974511
30
0
0
SPLINE
5
BC
100
AcDbEntity
8
1
62
256
6
ByLayer
370
18
48
1
60
0
100
AcDbSpline
70
4
71
3
72
14
73
10
40
0
40
0
40
0
40
0
40
0.0209654770772761
40
0.0209654770772761
40
0.184137897564396
40
0.184137897564396
40
0.347310318051517
40
0.347310318051517
40
1
40
1
40
1
40
1
41
1
10
31.0428631270613
20
1.85746347964167
30
0
41
1
10
31.0707708103747
20
1.86903999943766
30
0
41
1
10
31.0986716979835
20
1.88053541259143
30
0
41
1
10
31.3436542462903
20
1.9807699003521
30
0
41
1
10
31.5605978904555
20
2.06453488384469
30
0
41
1
10
31.9949675556695
20
2.22098658427018
30
0
41
1
10
32.2125863049818
20
2.29393068731701
30
0
41
1
10
33.2999748373131
20
2.6274709416183
30
0
41
1
10
34.1546473240278
20
2.79061367059461
30
0
41
1
10
35.0181902014529
20
2.83717549711287
30
0
0
SPLINE
5
BD
100
AcDbEntity
8
1
62
256
6
ByLayer
370
13
48
1
60
0
100
AcDbSpline
70
4
71
3
72
22
73
18
40
0
40
0
40
0
40
0
40
0.157715340011846
40
0.157715340011846
40
0.236573010017769
40
0.236573010017769
40
0.315430680023692
40
0.315430680023692
40
0.473146020035538
40
0.473146020035538
40
0.630861360047383
40
0.630861360047383
40
0.788576700059229
40
0.788576700059229
40
0.946292040071075
40
0.946292040071075
40
1
40
1
40
1
40
1
41
1
10
8.99012363462387
20
1.53944120621401
30
0
41
1
10
8.990049297209
20
1.65527790081992
30
0
41
1
10
8.98997929854229
20
1.76417157325733
30
0
41
1
10
8.98988198349309
20
1.91718122062255
30
0
41
1
10
8.98985078617
20
1.9665164314398
30
0
41
1
10
8.98979186984218
20
2.06043876848165
30
0
41
1
10
8.98976404201056
20
2.10519556232396
30
0
41
1
10
8.98968541313937
20
2.23298427549068
30
0
41
1
10
8.98963947146169
20
2.30957197706451
30
0
41
1
10
8.98956024283638
20
2.44531789158665
30
0
41
1
10
8.98952696986868
20
2.50449293849746
30
0
41
1
10
8.98947401719283
20
2.60117910284723
30
0
41
1
10
8.9894539513646
20
2.63934072426741
30
0
41
1
10
8.98942429546022
20
2.69532908780278
30
0
41
1
10
8.98941469847284
20
2.71313976845653
30
0
41
1
10
8.98940737447225
20
2.72236091010674
30
0
41
1
10
8.98940597778545
20
2.72346788223493
30
0
41
1
10
8.98940497722128
20
2.72334578630526
30
0
0
SPLINE
5
BE
100
AcDbEntity
8
1
62
256
6
ByLayer
370
18
48
1
60
0
100
AcDbSpline
70
4
71
3
72
28
73
24
40
0
40
0
40
0
40
0
40
0.0312500000000025
40
0.0312500000000025
40
0.062500000000005
40
0.062500000000005
40
0.12500000000001
40
0.12500000000001
40
0.250000000000014
40
0.250000000000014
40
0.312500000000013
40
0.312500000000013
40
0.375000000000012
40
0.375000000000012
40
0.500000000000009
40
0.500000000000009
40
0.625000000000007
40
0.625000000000007
40
0.750000000000005
40
0.750000000000005
40
0.875000000000002
40
0.875000000000002
40
1
40
1
40
1
40
1
41
1
10
7.54009395495862
20
-0.297141919524194
30
0
41
1
10
7.56015428718518
20
-0.271105031002918
30
0
41
1
10
7.5826517530929
20
-0.24639586570143
30
0
41
1
10
7.63011293014597
20
-0.200643655258432
30
0
41
1
10
7.65516867478175
20
-0.179438239394898
30
0
41
1
10
7.73344927866478
20
-0.119754608704596
30
0
41
1
10
7.79018839419984
20
-0.0849436445363665
30
0
41
1
10
7.96523957287488
20
0.0065606017809898
30
0
41
1
10
8.08819029457112
20
0.0512149853026926
30
0
41
1
10
8.27809010281163
20
0.103877519404733
30
0
41
1
10
8.34246371592229
20
0.118900243076354
30
0
41
1
10
8.47105368868358
20
0.144209731914799
30
0
41
1
10
8.53550827220428
20
0.154564970097937
30
0
41
1
10
8.72929160885798
20
0.179589779745214
30
0
41
1
10
8.85903544490861
20
0.188283776512321
30
0
41
1
10
9.11950191120295
20
0.191590691993127
30
0
41
1
10
9.25070685392578
20
0.186116591179939
30
0
41
1
10
9.51191344633014
20
0.161239609031185
30
0
41
1
10
9.64091513818178
20
0.141971468669567
30
0
41
1
10
9.89575874760052
20
0.0899384701809254
30
0
41
1
10
10.0215981691403
20
0.0571630843516289
30
0
41
1
10
10.2699882242591
20
-0.0224739163081153
30
0
41
1
10
10.3933302067778
20
-0.0697360241069305
30
0
41
1
10
10.5124819448444
20
-0.123416738696932
30
0
0
SPLINE
5
BF
100
AcDbEntity
8
1
62
256
6
ByLayer
370
18
48
1
60
0
100
AcDbSpline
70
4
71
3
72
8
73
4
40
0
40
0
40
0
40
0
40
1
40
1
40
1
40
1
41
1
10
35.9998481712531
20
0.0557955904231733
30
0
41
1
10
35.9930364161529
20
0.0752029429786489
30
0
41
1
10
35.9862520472744
20
0.094632710489293
30
0
41
1
10
35.9794947111951
20
0.114084949063823
30
0
0
SPLINE
5
C0
100
AcDbEntity
8
1
62
256
6
ByLayer
370
18
48
1
60
0
100
AcDbSpline
70
4
71
3
72
12
73
8
40
0
40
0
40
0
40
0
40
0.25
40
0.25
40
0.5
40
0.5
40
1
40
1
40
1
40
1
41
1
10
34.9544907231515
20
1.20264491437087
30
0
41
1
10
34.9600150681634
20
1.30412864504274
30
0
41
1
10
34.9733000024003
20
1.40379112809157
30
0
41
1
10
35.0070251565297
20
1.60143689862619
30
0
41
1
10
35.0276570158478
20
1.69937521235576
30
0
41
1
10
35.0957947033625
20
1.99172526127012
30
0
41
1
10
35.1493669783419
20
2.18471332855248
30
0
41
1
10
35.2061254076922
20
2.37695367218825
30
0
0
SPLINE
5
C1
100
AcDbEntity
8
1
62
256
6
ByLayer
370
13
48
1
60
0
100
AcDbSpline
70
4
71
3
72
85
73
81
40
0
40
0
40
0
40
0
40
0.0005720187784611
40
0.0103394742951427
40
0.0298743853285062
40
0.0396418408451883
40
0.0494092963618711
40
0.0689442073952333
40
0.0787116629119147
40
0.0884791184285959
40
0.10801402946196
40
0.117781484978641
40
0.127548940495324
40
0.147083851528687
40
0.156851307045368
40
0.16661876256205
40
0.186153673595414
40
0.195921129112095
40
0.205688584628778
40
0.225223495662141
40
0.234990951178822
40
0.244758406695506
40
0.264293317728868
40
0.27406077324555
40
0.283828228762232
40
0.303363139795595
40
0.313130595312276
40
0.322898050828959
40
0.342432961862322
40
0.352200417379004
40
0.361967872895686
40
0.381502783929049
40
0.391270239445731
40
0.401037694962413
40
0.420572605995776
40
0.430340061512458
40
0.44010751702914
40
0.459642428062503
40
0.469409883579185
40
0.479177339095867
40
0.49871225012923
40
0.508479705645912
40
0.518247161162594
40
0.537782072195957
40
0.547549527712639
40
0.557316983229321
40
0.576851894262684
40
0.586619349779366
40
0.596386805296047
40
0.615921716329411
40
0.625689171846093
40
0.635456627362775
40
0.654991538396138
40
0.664758993912821
40
0.674526449429502
40
0.694061360462865
40
0.703828815979547
40
0.713596271496229
40
0.733131182529592
40
0.742898638046274
40
0.752666093562955
40
0.772201004596319
40
0.781968460113001
40
0.791735915629683
40
0.811270826663046
40
0.821038282179728
40
0.83080573769641
40
0.850340648729773
40
0.860108104246455
40
0.869875559763136
40
0.8894104707965
40
0.899177926313182
40
0.908945381829864
40
0.928480292863227
40
0.938247748379909
40
0.948015203896591
40
0.967550114929954
40
0.977317570446636
40
0.987085025963317
40
1
40
1
40
1
40
1
41
1.00000000000001
10
27.0929163764141
20
-0.0694674967243994
30
0
41
1.00000000000001
10
27.0908956294189
20
-0.0690238751598141
30
0
41
1.00000000000001
10
27.0543697004138
20
-0.061005576502566
30
0
41
1.00000000000001
10
26.948827914855
20
-0.0378588821228616
30
0
41
1.00000000000001
10
26.8108073545202
20
-0.0075081395189329
30
0
41
1.00000000000001
10
26.6727930486705
20
0.0228923882466175
30
0
41
1.00000000000001
10
26.5347651988134
20
0.0531886216949144
30
0
41
1.00000000000001
10
26.3967447436042
20
0.083495285613878
30
0
41
1.00000000000001
10
26.2587305312183
20
0.113779934171816
30
0
41
1.00000000000001
10
26.120702753326
20
0.143906339777288
30
0
41
1.00000000000001
10
25.9826823404026
20
0.173972413497551
30
0
41
1.00000000000001
10
25.8446681347357
20
0.203946261961987
30
0
41
1.00000000000001
10
25.7066403428827
20
0.233709852842564
30
0
41
1.00000000000001
10
25.568619900238
20
0.263344082568351
30
0
41
1.00000000000001
10
25.4306056739445
20
0.292817715484573
30
0
41
1.00000000000001
10
25.2925778670956
20
0.322031208599524
30
0
41
1.00000000000001
10
25.1545574238049
20
0.351048283556336
30
0
41
1.00000000000001
10
25.0165432233761
20
0.379838460329663
30
0
41
1.00000000000001
10
24.8785154469491
20
0.408320334330481
30
0
41
1.00000000000001
10
24.7404950164491
20
0.436539150595249
30
0
41
1.00000000000001
10
24.6024807724692
20
0.464463497905141
30
0
41
1.00000000000001
10
24.4644529356321
20
0.492032087903593
30
0
41
1.00000000000001
10
24.3264324300291
20
0.519271629912962
30
0
41
1.00000000000001
10
24.1884181250392
20
0.546151679625606
30
0
41
1.00000000000001
10
24.0503902449981
20
0.572631193153367
30
0
41
1.00000000000001
10
23.9123697310229
20
0.598718330797763
30
0
41
1.00000000000001
10
23.7743554635741
20
0.624383704726594
30
0
41
1.00000000000001
10
23.6363276421006
20
0.649606581952522
30
0
41
1.00000000000001
10
23.4983072185876
20
0.674376602715139
30
0
41
1.00000000000001
10
23.3602930596255
20
0.698665501358132
30
0
41
1.00000000000001
10
23.2222653297241
20
0.722472823930356
30
0
41
1.00000000000001
10
23.0842449528407
20
0.745769670005298
30
0
41
1.00000000000001
10
22.9462307550062
20
0.768528810559356
30
0
41
1.00000000000001
10
22.808202948004
20
0.790770176333832
30
0
41
1.00000000000001
10
22.6701824532439
20
0.812446469205749
30
0
41
1.00000000000001
10
22.5321681448207
20
0.833531748039571
30
0
41
1.00000000000001
10
22.3941402499979
20
0.854066196960612
30
0
41
1.00000000000001
10
22.2561197020295
20
0.873984289860284
30
0
41
1.00000000000001
10
22.1181053809008
20
0.893261416196732
30
0
41
1.00000000000001
10
21.9800774982835
20
0.911957862450147
30
0
41
1.00000000000001
10
21.8420570017989
20
0.929990091016203
30
0
41
1.00000000000001
10
21.7040427718665
20
0.947334866788987
30
0
41
1.00000000000001
10
21.5660149944049
20
0.964072917703158
30
0
41
1.00000000000001
10
21.4279946099246
20
0.980104075338995
30
0
41
1.00000000000001
10
21.2899804643335
20
0.995408201655033
30
0
41
1.00000000000001
10
21.1519527472094
20
1.01008450983132
30
0
41
1.00000000000001
10
21.0139323898514
20
1.02401649895051
30
0
41
1.00000000000001
10
20.8759182322004
20
1.03718547352991
30
0
41
1.00000000000001
10
20.7378904680436
20
1.04970881176595
30
0
41
1.00000000000001
10
20.5998700168884
20
1.06145402494897
30
0
41
1.00000000000001
10
20.4618557370583
20
1.07240388140141
30
0
41
1.00000000000001
10
20.3238278606001
20
1.08269354890691
30
0
41
1.00000000000001
10
20.1858073281435
20
1.09217496775389
30
0
41
1.00000000000001
10
20.0477930495495
20
1.10083244996724
30
0
41
1.00000000000001
10
19.9097652279568
20
1.10881950902199
30
0
41
1.00000000000001
10
19.7717448022605
20
1.11597499438937
30
0
41
1.00000000000001
10
19.6337306203237
20
1.12228781261504
30
0
41
1.00000000000001
10
19.4957028727748
20
1.12792625704244
30
0
41
1.00000000000001
10
19.357682490056
20
1.13271652509399
30
0
41
1.00000000000001
10
19.219668312276
20
1.13664899472757
30
0
41
1.00000000000001
10
19.0816405430662
20
1.13990623449734
30
0
41
1.00000000000001
10
18.9436201140902
20
1.1423022903086
30
0
41
1.00000000000001
10
18.8056058885375
20
1.1438290438524
30
0
41
1.00000000000001
10
18.6675780736379
20
1.14468275436453
30
0
41
1.00000000000001
10
18.5295576101714
20
1.14466584112969
30
0
41
1.00000000000001
10
18.3915433828137
20
1.14377165744343
30
0
41
1.00000000000001
10
18.2535155809128
20
1.142210898628
30
0
41
1.00000000000001
10
18.1154951281372
20
1.13977761771181
30
0
41
1.00000000000001
10
17.977480869821
20
1.13647067625168
30
0
41
1.00000000000001
10
17.8394530236081
20
1.13251048481674
30
0
41
1.00000000000001
10
17.7014325144613
20
1.12768329028935
30
0
41
1.00000000000001
10
17.5634182069633
20
1.12198935104981
30
0
41
1.00000000000001
10
17.4253903230258
20
1.11565812906883
30
0
41
1.00000000000001
10
17.2873698042641
20
1.10846865356285
30
0
41
1.00000000000001
10
17.1493555320039
20
1.10042254058583
30
0
41
1.00000000000001
10
17.0113277056999
20
1.09175759220869
30
0
41
1.00000000000001
10
16.8733072781694
20
1.08224619661535
30
0
41
1.00000000000001
10
16.7352931157971
20
1.07189122814477
30
0
41
1.00000000000001
10
16.6206526101645
20
1.06279537882502
30
0
41
1.00000000000001
10
16.5405223411761
20
1.05606580339318
30
0
41
1.00000000000001
10
16.4948985414696
20
1.05211450226656
30
0
0
SPLINE
5
C2
100
AcDbEntity
8
1
62
256
6
ByLayer
370
13
48
1
60
0
100
AcDbSpline
70
4
71
3
72
85
73
81
40
0
40
0
40
0
40
0
40
0.0077821042729575
40
0.0175850726785011
40
0.0273880410840447
40
0.0469939778951326
40
0.056796946300676
40
0.06659991470622
40
0.0862058515173079
40
0.0960088199228517
40
0.105811788328396
40
0.125417725139483
40
0.135220693545027
40
0.145023661950571
40
0.164629598761659
40
0.174432567167202
40
0.184235535572746
40
0.203841472383834
40
0.213644440789378
40
0.223447409194922
40
0.243053346006009
40
0.252856314411553
40
0.262659282817097
40
0.282265219628185
40
0.292068188033728
40
0.301871156439272
40
0.32147709325036
40
0.331280061655904
40
0.341083030061449
40
0.360688966872535
40
0.370491935278079
40
0.380294903683622
40
0.39990084049471
40
0.409703808900253
40
0.419506777305798
40
0.439112714116886
40
0.448915682522429
40
0.458718650927973
40
0.478324587739061
40
0.488127556144604
40
0.497930524550149
40
0.517536461361236
40
0.527339429766779
40
0.537142398172325
40
0.556748334983412
40
0.566551303388955
40
0.5763542717945
40
0.595960208605587
40
0.60576317701113
40
0.615566145416675
40
0.635172082227762
40
0.644975050633306
40
0.65477801903885
40
0.674383955849937
40
0.684186924255481
40
0.693989892661026
40
0.713595829472113
40
0.723398797877656
40
0.733201766283201
40
0.752807703094288
40
0.762610671499832
40
0.772413639905376
40
0.792019576716463
40
0.801822545122007
40
0.811625513527551
40
0.831231450338639
40
0.841034418744183
40
0.850837387149726
40
0.870443323960814
40
0.880246292366358
40
0.890049260771902
40
0.909655197582989
40
0.919458165988533
40
0.929261134394077
40
0.948867071205165
40
0.958670039610709
40
0.968473008016252
40
0.98807894482734
40
0.997881913232884
40
1
40
1
40
1
40
1
41
1
10
29.2772822587555
20
-1.05503504601342
30
0
41
1
10
29.2498900035563
20
-1.05736278001436
30
0
41
1
10
29.1879914512126
20
-1.06252536778234
30
0
41
1
10
29.0915843416563
20
-1.0702216441689
30
0
41
1
10
28.9535703644547
20
-1.08063794759315
30
0
41
1
10
28.8155490391653
20
-1.09021748738294
30
0
41
1
10
28.6775215373924
20
-1.09895670725692
30
0
41
1
10
28.5395076194588
20
-1.10707195486003
30
0
41
1
10
28.4014863992541
20
-1.11433586873414
30
0
41
1
10
28.2634590071622
20
-1.12074631131287
30
0
41
1
10
28.125445185787
20
-1.12651372597668
30
0
41
1
10
27.9874240411076
20
-1.13141821939084
30
0
41
1
10
27.8493966935087
20
-1.13545909658737
30
0
41
1
10
27.7113828924328
20
-1.13884037767355
30
0
41
1
10
27.5733617288291
20
-1.14135026015029
30
0
41
1
10
27.4353343188074
20
-1.14298953767567
30
0
41
1
10
27.2973204384471
20
-1.14395671548669
30
0
41
1
10
27.1592991833399
20
-1.14405151298311
30
0
41
1
10
27.0212717015914
20
-1.1432804987349
30
0
41
1
10
26.8832577681202
20
-1.14183192240347
30
0
41
1
10
26.7452364861329
20
-1.13951759315486
30
0
41
1
10
26.6072090136935
20
-1.13634562803858
30
0
41
1
10
26.4691951253574
20
-1.13249356090583
30
0
41
1
10
26.3311739359761
20
-1.12778584159349
30
0
41
1
10
26.1931465859277
20
-1.12223215901318
30
0
41
1
10
26.0551328112847
20
-1.11599888445326
30
0
41
1
10
25.9171117055438
20
-1.10892365843867
30
0
41
1
10
25.7790843557342
20
-1.10101780902014
30
0
41
1
10
25.641070527241
20
-1.09243714276681
30
0
41
1
10
25.5030493164286
20
-1.08303514154778
30
0
41
1
10
25.3650218731954
20
-1.07282799672848
30
0
41
1
10
25.2270079727569
20
-1.06195728895895
30
0
41
1
10
25.0889867196664
20
-1.05029277767332
30
0
41
1
10
24.950959269732
20
-1.03785222069922
30
0
41
1
10
24.8129453832702
20
-1.02476261104169
30
0
41
1
10
24.6749241599144
20
-1.01091040611567
30
0
41
1
10
24.5368967306098
20
-0.996314951737446
30
0
41
1
10
24.3988828591383
20
-0.981088274412969
30
0
41
1
10
24.2608616364177
20
-0.965133887749289
30
0
41
1
10
24.1228341812488
20
-0.948472668918924
30
0
41
1
10
23.9848202793583
20
-0.931201957135073
30
0
41
1
10
23.8467990438395
20
-0.913243835915523
30
0
41
1
10
23.7087716321921
20
-0.894622472673575
30
0
41
1
10
23.5707577906864
20
-0.875418438862283
30
0
41
1
10
23.4327366302459
20
-0.855572658997545
30
0
41
1
10
23.2947092795851
20
-0.835110760765531
30
0
41
1
10
23.1566954812664
20
-0.814096293576142
30
0
41
1
10
23.0186743291944
20
-0.79248923530352
30
0
41
1
10
22.8806469409984
20
-0.770316606632122
30
0
41
1
10
22.7426330841199
20
-0.747624725332344
30
0
41
1
10
22.6046118416138
20
-0.724392776624228
30
0
41
1
10
22.4665843449939
20
-0.700649088904754
30
0
41
1
10
22.3285703965989
20
-0.67642265640572
30
0
41
1
10
22.1905491074993
20
-0.651712106170379
30
0
41
1
10
22.0525216497494
20
-0.62654718382592
30
0
41
1
10
21.9145077784353
20
-0.600939246104218
30
0
41
1
10
21.7764866071566
20
-0.574906430877036
30
0
41
1
10
21.6384592599077
20
-0.54847965867944
30
0
41
1
10
21.5004454763339
20
-0.521652539938202
30
0
41
1
10
21.3624243581978
20
-0.494462716162389
30
0
41
1
10
21.2243970236175
20
-0.466942171104734
30
0
41
1
10
21.0863832278211
20
-0.439066747293595
30
0
41
1
10
20.948362058226
20
-0.410893534491009
30
0
41
1
10
20.8103346325325
20
-0.382455482070128
30
0
41
1
10
20.672320731682
20
-0.353710129133873
30
0
41
1
10
20.5342994501893
20
-0.324732829423084
30
0
41
1
10
20.3962719402105
20
-0.295555779970812
30
0
41
1
10
20.2582579790442
20
-0.266119879824288
30
0
41
1
10
20.1202366704153
20
-0.236518589202944
30
0
41
1
10
19.9822091724627
20
-0.20678486204622
30
0
41
1
10
19.8441952582729
20
-0.176843046926223
30
0
41
1
10
19.7061740433629
20
-0.146804507266438
30
0
41
1
10
19.5681466675258
20
-0.116702836970461
30
0
41
1
10
19.4301328656012
20
-0.0864459420187984
30
0
41
1
10
19.292111731981
20
-0.0561628283266487
30
0
41
1
10
19.1540843549153
20
-0.0258876154401833
30
0
41
1
10
19.0160704981595
20
0.0044890841734286
30
0
41
1
10
18.8780492578383
20
0.0348229886805598
30
0
41
1
10
18.7670728964916
20
0.0591522592945068
30
0
41
1
10
18.7251127754163
20
0.0683607791382883
30
0
41
1
10
18.7176575199023
20
0.0699970454266179
30
0
0
SPLINE
5
C3
100
AcDbEntity
8
1
62
256
6
ByLayer
370
13
48
1
60
0
100
AcDbSpline
70
4
71
3
72
32
73
28
40
0
40
0
40
0
40
0
40
0.123459281939752
40
0.123459281939752
40
0.185188922909626
40
0.185188922909626
40
0.246918563879501
40
0.246918563879501
40
0.370377845819252
40
0.370377845819252
40
0.432107486789129
40
0.432107486789129
40
0.493837127759006
40
0.493837127759006
40
0.617296409698758
40
0.617296409698758
40
0.679026050668635
40
0.679026050668635
40
0.709890871153573
40
0.709890871153573
40
0.740755691638511
40
0.740755691638511
40
0.864214973578261
40
0.864214973578261
40
0.987674255518011
40
0.987674255518011
40
1
40
1
40
1
40
1
41
1
10
34.9098324043718
20
-2.61676364595255
30
0
41
1
10
34.3673063348856
20
-2.52168725714651
30
0
41
1
10
33.8280024589857
20
-2.38496491804426
30
0
41
1
10
33.0160305349355
20
-2.12472235645197
30
0
41
1
10
32.7440130573768
20
-2.02853052629354
30
0
41
1
10
32.2032237941612
20
-1.8219813841225
30
0
41
1
10
31.9340795990199
20
-1.71141005300794
30
0
41
1
10
31.1283259629931
20
-1.36119337270026
30
0
41
1
10
30.5929806254416
20
-1.10357938341954
30
0
41
1
10
29.7849346253664
20
-0.694334150285471
30
0
41
1
10
29.5144128314212
20
-0.553981763117037
30
0
41
1
10
28.9712068083324
20
-0.269323791262082
30
0
41
1
10
28.7011370694743
20
-0.126098411847977
30
0
41
1
10
27.8932505525794
20
0.301828539450384
30
0
41
1
10
27.3577452279709
20
0.584703193722135
30
0
41
1
10
26.5510140283911
20
0.990308904183138
30
0
41
1
10
26.2816186160239
20
1.12253054138324
30
0
41
1
10
25.8752073580054
20
1.31340503155963
30
0
41
1
10
25.7391424982436
20
1.37603251237016
30
0
41
1
10
25.4677547219265
20
1.49811542077646
30
0
41
1
10
25.332450183368
20
1.55751886809503
30
0
41
1
10
24.6574255456472
20
1.84572554094447
30
0
41
1
10
24.1222326453158
20
2.04786912306298
30
0
41
1
10
23.0500606704538
20
2.38119018193552
30
0
41
1
10
22.5133327392205
20
2.51314823067523
30
0
41
1
10
21.9158342681193
20
2.61178634968036
30
0
41
1
10
21.8615870265719
20
2.62032006375753
30
0
41
1
10
21.8073380096127
20
2.62842932345563
30
0
0
SPLINE
5
C4
100
AcDbEntity
8
1
62
256
6
ByLayer
370
13
48
1
60
0
100
AcDbSpline
70
4
71
3
72
24
73
20
40
0
40
0
40
0
40
0
40
0.0006320577637168
40
0.0496894273650833
40
0.147804166567818
40
0.196861536169186
40
0.245918905770548
40
0.344033644973285
40
0.393091014574653
40
0.442148384176011
40
0.540263123378752
40
0.589320492980118
40
0.638377862581485
40
0.736492601784219
40
0.785549971385586
40
0.834607340986953
40
0.932722080189687
40
0.981779449791052
40
1
40
1
40
1
40
1
41
1.00000000000001
10
34.9553751226591
20
1.14462271272657
30
0
41
1.00000000000001
10
34.954930555637
20
1.14462278035665
30
0
41
1.00000000000001
10
34.9199807523741
20
1.14462700468257
30
0
41
1.00000000000001
10
34.8160153078031
20
1.14438367909258
30
0
41
1.00000000000001
10
34.6779948890406
20
1.14318857089921
30
0
41
1.00000000000001
10
34.5399807092405
20
1.1411189549222
30
0
41
1.00000000000001
10
34.4019529606157
20
1.13838965984075
30
0
41
1.00000000000001
10
34.2639325754052
20
1.13479093412786
30
0
41
1.00000000000001
10
34.1259183926372
20
1.13032171564549
30
0
41
1.00000000000001
10
33.9878906038036
20
1.12520663512921
30
0
41
1.00000000000001
10
33.8498701293861
20
1.1192279978342
30
0
41
1.00000000000001
10
33.7118558252807
20
1.11238609275687
30
0
41
1.00000000000001
10
33.5738279205214
20
1.10491469019925
30
0
41
1.00000000000001
10
33.4358073558457
20
1.09658877374621
30
0
41
1.00000000000001
10
33.2977930404658
20
1.08741000304618
30
0
41
1.00000000000001
10
33.1597651752748
20
1.07762215490595
30
0
41
1.00000000000001
10
33.0217446967075
20
1.06699672137162
30
0
41
1.00000000000001
10
32.905418939964
20
1.05734161522332
30
0
41
1.00000000000001
10
32.8580971146646
20
1.05327740298989
30
0
41
1.00000000000001
10
32.8452810603616
20
1.05216693664462
30
0
0
SPLINE
5
C5
100
AcDbEntity
8
1
62
256
6
ByLayer
370
18
48
1
60
0
100
AcDbSpline
70
4
71
3
72
8
73
4
40
0
40
0
40
0
40
0
40
1
40
1
40
1
40
1
41
1
10
35.018190201453
20
-2.83717549711287
30
0
41
1
10
34.9970329117519
20
-2.8240055381809
30
0
41
1
10
34.9789519629204
20
-2.80096160987102
30
0
41
1
10
34.9634570082914
20
-2.76785706510788
30
0
0
SPLINE
5
C6
100
AcDbEntity
8
1
62
256
6
ByLayer
370
18
48
1
60
0
100
AcDbSpline
70
4
71
3
72
8
73
4
40
0
40
0
40
0
40
0
40
1
40
1
40
1
40
1
41
1
10
35.5181277021401
20
-0.807633514072194
30
0
41
1
10
35.5275652645
20
-0.805257730797706
30
0
41
1
10
35.5371442551409
20
-0.802150525243007
30
0
41
1
10
35.5468680733612
20
-0.798294317313008
30
0
0
SPLINE
5
C7
100
AcDbEntity
8
1
62
256
6
ByLayer
370
18
48
1
60
0
100
AcDbSpline
70
4
71
3
72
8
73
4
40
0
40
0
40
0
40
0
40
1
40
1
40
1
40
1
41
1
10
34.6285031350212
20
0.11832024751908
30
0
41
1
10
34.7666689189489
20
0.0864455549525474
30
0
41
1
10
34.9055670615167
20
0.0592852504491077
30
0
41
1
10
35.0452607544042
20
0.0372461157199098
30
0
0
SPLINE
5
C8
100
AcDbEntity
8
1
62
256
6
ByLayer
370
18
48
1
60
0
100
AcDbSpline
70
4
71
3
72
8
73
4
40
0
40
0
40
0
40
0
40
1
40
1
40
1
40
1
41
1
10
35.9794947111997
20
-0.114084949050465
30
0
41
1
10
35.7179164270023
20
-0.867086299045269
30
0
41
1
10
35.4601136742684
20
-1.62137145811769
30
0
41
1
10
35.2061254076922
20
-2.37695367218831
30
0
0
SPLINE
5
C9
100
AcDbEntity
8
1
62
256
6
ByLayer
370
18
48
1
60
0
100
AcDbSpline
70
4
71
3
72
12
73
8
40
0
40
0
40
0
40
0
40
0.250000000000008
40
0.250000000000008
40
0.500000000000017
40
0.500000000000017
40
1
40
1
40
1
40
1
41
1
10
8.59471040628461
20
1.70205267897248
30
0
41
1
10
8.59462970449877
20
1.67169157831813
30
0
41
1
10
8.61074814405498
20
1.64296670177455
30
0
41
1
10
8.65183806069624
20
1.59174480992934
30
0
41
1
10
8.67765139719776
20
1.56868198027064
30
0
41
1
10
8.760151473901
20
1.50566579464507
30
0
41
1
10
8.82342404368862
20
1.47026314375216
30
0
41
1
10
8.88960691968995
20
1.43973002379775
30
0
0
SPLINE
5
CA
100
AcDbEntity
8
1
62
256
6
ByLayer
370
18
48
1
60
0
100
AcDbSpline
70
4
71
3
72
8
73
4
40
0
40
0
40
0
40
0
40
1
40
1
40
1
40
1
41
1
10
35.0181902014529
20
-2.83717549711287
30
0
41
1
10
35.0800665844321
20
-2.68740967475802
30
0
41
1
10
35.1428936230885
20
-2.53416628552378
30
0
41
1
10
35.2061254076921
20
-2.37695367218831
30
0
0
SPLINE
5
CB
100
AcDbEntity
8
1
62
256
6
ByLayer
370
13
48
1
60
0
100
AcDbSpline
70
4
71
3
72
8
73
4
40
0
40
0
40
0
40
0
40
1
40
1
40
1
40
1
41
1
10
12.7490728768559
20
-1.06956607515721
30
0
41
1
10
12.7102476718303
20
-1.07259939166619
30
0
41
1
10
12.671421171484
20
-1.07554696221126
30
0
41
1
10
12.6325940606794
20
-1.07840766478921
30
0
0
SPLINE
5
CC
100
AcDbEntity
8
1
62
256
6
ByLayer
370
18
48
1
60
0
100
AcDbSpline
70
4
71
3
72
12
73
8
40
0
40
0
40
0
40
0
40
0.157715972475173
40
0.157715972475173
40
0.578857986237586
40
0.578857986237586
40
1
40
1
40
1
40
1
41
1
10
10.1942921691595
20
2.72411274470764
30
0
41
1
10
10.2888624129289
20
2.72437988307016
30
0
41
1
10
10.3838387567565
20
2.72336145558074
30
0
41
1
10
10.7338098378327
20
2.71531258393731
30
0
41
1
10
10.9917227911565
20
2.6995589639277
30
0
41
1
10
11.5114602259179
20
2.65312106831118
30
0
41
1
10
11.7725888642715
20
2.62191381320869
30
0
41
1
10
12.0348124387822
20
2.58410075616032
30
0
0
SPLINE
5
CD
100
AcDbEntity
8
1
62
256
6
ByLayer
370
18
48
1
60
0
100
AcDbSpline
70
4
71
3
72
44
73
40
40
0
40
0
40
0
40
0
40
0.0290474382789785
40
0.0290474382789785
40
0.0829892472634797
40
0.0829892472634797
40
0.136931056247981
40
0.136931056247981
40
0.190872865232482
40
0.190872865232482
40
0.244814674216983
40
0.244814674216983
40
0.298756483201484
40
0.298756483201484
40
0.352698292185985
40
0.352698292185985
40
0.406640101170486
40
0.406640101170486
40
0.460581910154987
40
0.460581910154987
40
0.514523719139488
40
0.514523719139488
40
0.568465528123989
40
0.568465528123989
40
0.622407337108491
40
0.622407337108491
40
0.676349146092992
40
0.676349146092992
40
0.730290955077493
40
0.730290955077493
40
0.784232764061994
40
0.784232764061994
40
0.892116382030998
40
0.892116382030998
40
0.9460581910155
40
0.9460581910155
40
0.97302909550775
40
0.97302909550775
40
1
40
1
40
1
40
1
41
1
10
19.8693210822236
20
2.82287208545216
30
0
41
1
10
20.0154440647999
20
2.82313979862124
30
0
41
1
10
20.1615969301364
20
2.82006701212387
30
0
41
1
10
20.5796413521993
20
2.80173232624932
30
0
41
1
10
20.8521807379801
20
2.7782121155806
30
0
41
1
10
21.3952965888979
20
2.70880400843976
30
0
41
1
10
21.6664168127221
20
2.66292103553241
30
0
41
1
10
22.2093882034284
20
2.54974860654673
30
0
41
1
10
22.4817186929458
20
2.48222362460766
30
0
41
1
10
23.0251637736446
20
2.32766853304403
30
0
41
1
10
23.2963246646542
20
2.24073181034302
30
0
41
1
10
23.8389071249048
20
2.04913039007406
30
0
41
1
10
24.1106407280287
20
1.94434164816266
30
0
41
1
10
24.654549304761
20
1.71933208127294
30
0
41
1
10
24.9257327958233
20
1.59959554042291
30
0
41
1
10
25.4680485257374
20
1.34798652487322
30
0
41
1
10
25.7391925242034
20
1.21612954872529
30
0
41
1
10
26.2830624151807
20
0.942886570128962
30
0
41
1
10
26.554629579667
20
0.80159989384947
30
0
41
1
10
27.0968893754397
20
0.514364671268027
30
0
41
1
10
27.3678945000829
20
0.368217230699258
30
0
41
1
10
27.9109974784228
20
0.0732941500641573
30
0
41
1
10
28.183111460523
20
-0.0755679132720672
30
0
41
1
10
28.7255277712408
20
-0.370540829497173
30
0
41
1
10
28.9963678966226
20
-0.517003352269938
30
0
41
1
10
29.5389136886109
20
-0.804964182150627
30
0
41
1
10
29.811007965689
20
-0.94695198634372
30
0
41
1
10
30.353640832842
20
-1.22124935947357
30
0
41
1
10
30.6244679021402
20
-1.35369928352728
30
0
41
1
10
31.1665257237223
20
-1.6069646798426
30
0
41
1
10
31.4381805381389
20
-1.72805764240763
30
0
41
1
10
32.2527456261856
20
-2.06837303697384
30
0
41
1
10
32.7930554890072
20
-2.26407363039181
30
0
41
1
10
33.6081891010089
20
-2.50004290327857
30
0
41
1
10
33.879238297152
20
-2.56854035526507
30
0
41
1
10
34.2854662781658
20
-2.65527647159129
30
0
41
1
10
34.4208357943737
20
-2.681527025511
30
0
41
1
10
34.6916601485121
20
-2.72858334207814
30
0
41
1
10
34.8268622283775
20
-2.74949891320861
30
0
41
1
10
34.9627468071662
20
-2.76738340421449
30
0
0
SPLINE
5
CE
100
AcDbEntity
8
1
62
256
6
ByLayer
370
18
48
1
60
0
100
AcDbSpline
70
4
71
3
72
18
73
14
40
0
40
0
40
0
40
0
40
0.25
40
0.25
40
0.375
40
0.375
40
0.5
40
0.5
40
0.625
40
0.625
40
0.75
40
0.75
40
1
40
1
40
1
40
1
41
1
10
35.5468680733618
20
-0.798294317312951
30
0
41
1
10
35.5812247600454
20
-0.768882221846667
30
0
41
1
10
35.6177031706713
20
-0.725672452446616
30
0
41
1
10
35.6758368047066
20
-0.641632676162828
30
0
41
1
10
35.695673260367
20
-0.610487653763073
30
0
41
1
10
35.7352126777689
20
-0.543906604227203
30
0
41
1
10
35.7550654467283
20
-0.508257047682491
30
0
41
1
10
35.7949197373027
20
-0.432406301920196
30
0
41
1
10
35.8149988657731
20
-0.39201220548631
30
0
41
1
10
35.8541909460869
20
-0.308968389439997
30
0
41
1
10
35.8734335380179
20
-0.266087607671039
30
0
41
1
10
35.930067575047
20
-0.133561132417498
30
0
41
1
10
35.9664505414681
20
-0.0397077726880752
30
0
41
1
10
35.9998481712531
20
0.0557955904231733
30
0
0
SPLINE
5
CF
100
AcDbEntity
8
1
62
256
6
ByLayer
370
18
48
1
60
0
100
AcDbSpline
70
4
71
3
72
12
73
8
40
0
40
0
40
0
40
0
40
0.5
40
0.5
40
0.75
40
0.75
40
1
40
1
40
1
40
1
41
1
10
8.98941083997448
20
-2.63405758360105
30
0
41
1
10
8.92722100536315
20
-2.62361126155204
30
0
41
1
10
8.86366485686409
20
-2.61864516240175
30
0
41
1
10
8.76541829021332
20
-2.62276193300534
30
0
41
1
10
8.73192827144516
20
-2.62614236117622
30
0
41
1
10
8.66534550173782
20
-2.63749415407287
30
0
41
1
10
8.63220844634242
20
-2.64543414029268
30
0
41
1
10
8.59924442753953
20
-2.65594573724204
30
0
0
SPLINE
5
D0
100
AcDbEntity
8
1
62
256
6
ByLayer
370
18
48
1
60
0
100
AcDbSpline
70
4
71
3
72
20
73
16
40
0
40
0
40
0
40
0
40
0.0669136278975347
40
0.0669136278975347
40
0.222428023247946
40
0.222428023247946
40
0.377942418598356
40
0.377942418598356
40
0.533456813948767
40
0.533456813948767
40
0.688971209299178
40
0.688971209299178
40
0.844485604649589
40
0.844485604649589
40
1
40
1
40
1
40
1
41
1
10
34.497003160194
20
0.207907674104405
30
0
41
1
10
34.5055194361385
20
0.212552633754939
30
0
41
1
10
34.5145855895018
20
0.218509859993929
30
0
41
1
10
34.5462530119789
20
0.242599525900687
30
0
41
1
10
34.5709147371824
20
0.2662535407066
30
0
41
1
10
34.6249558613495
20
0.327692257799129
30
0
41
1
10
34.653896049372
20
0.365052483389235
30
0
41
1
10
34.7131869584804
20
0.450765741424959
30
0
41
1
10
34.7441671644388
20
0.500047608371091
30
0
41
1
10
34.8046926707769
20
0.607478519893846
30
0
41
1
10
34.8342531119284
20
0.665372496700769
30
0
41
1
10
34.8890006187828
20
0.790424878870198
30
0
41
1
10
34.9141465413688
20
0.85730531470216
30
0
41
1
10
34.9501912746881
20
0.99673816816636
30
0
41
1
10
34.9613623569039
20
1.0705345615585
30
0
41
1
10
34.9553751300558
20
1.14462271272544
30
0
0
SPLINE
5
D1
100
AcDbEntity
8
1
62
256
6
ByLayer
370
18
48
1
60
0
100
AcDbSpline
70
4
71
3
72
18
73
14
40
0
40
0
40
0
40
0
40
0.249999999999996
40
0.249999999999996
40
0.374999999999997
40
0.374999999999997
40
0.499999999999997
40
0.499999999999997
40
0.749999999999999
40
0.749999999999999
40
0.874999999999999
40
0.874999999999999
40
1
40
1
40
1
40
1
41
1
10
34.9098324043718
20
-2.61676364595255
30
0
41
1
10
34.8627974948414
20
-2.56899953725929
30
0
41
1
10
34.8207765956571
20
-2.5104346800905
30
0
41
1
10
34.7654391891103
20
-2.40601376782411
30
0
41
1
10
34.7482815481881
20
-2.36843195122566
30
0
41
1
10
34.7166497154252
20
-2.2874878635468
30
0
41
1
10
34.7021120296484
20
-2.24388012364571
30
0
41
1
10
34.6633208877616
20
-2.10588797296569
30
0
41
1
10
34.6438439964104
20
-2.00474076574378
30
0
41
1
10
34.6241880333955
20
-1.8393148513714
30
0
41
1
10
34.6192370443961
20
-1.78187755675336
30
0
41
1
10
34.6126330350207
20
-1.66227472889025
30
0
41
1
10
34.6109868358704
20
-1.59986854119148
30
0
41
1
10
34.6110605519424
20
-1.53585137289613
30
0
0
SPLINE
5
D2
100
AcDbEntity
8
1
62
256
6
ByLayer
370
18
48
1
60
0
100
AcDbSpline
70
4
71
3
72
10
73
6
40
0
40
0
40
0
40
0
40
0.5
40
0.5
40
1
40
1
40
1
40
1
41
1
10
34.9627468071616
20
-2.76738340422446
30
0
41
1
10
34.9621344578997
20
-2.72947054949808
30
0
41
1
10
34.9554827143522
20
-2.69892245928668
30
0
41
1
10
34.9364920045047
20
-2.64997641188751
30
0
41
1
10
34.9240568171354
20
-2.6312085849147
30
0
41
1
10
34.9098324043669
20
-2.61676364594743
30
0
0
SPLINE
5
D3
100
AcDbEntity
8
1
62
256
6
ByLayer
370
18
48
1
60
0
100
AcDbSpline
70
4
71
4
72
10
73
5
40
0
40
0
40
0
40
0
40
0
40
1
40
1
40
1
40
1
40
1
41
1
10
12.6325940606794
20
-1.07840766478921
30
0
41
1
10
12.4831486552051
20
-1.45483093763195
30
0
41
1
10
12.3337032497308
20
-1.8312542104747
30
0
41
1
10
12.1842578442565
20
-2.20767748331744
30
0
41
1
10
12.0348124387822
20
-2.58410075616015
30
0
0
SPLINE
5
D4
100
AcDbEntity
8
1
62
256
6
ByLayer
370
18
48
1
60
0
100
AcDbSpline
70
4
71
3
72
64
73
60
40
0
40
0
40
0
40
0
40
0.0371857570347938
40
0.0371857570347938
40
0.0743715140695877
40
0.0743715140695877
40
0.111557271104382
40
0.111557271104382
40
0.148743028139175
40
0.148743028139175
40
0.185928785173969
40
0.185928785173969
40
0.223114542208763
40
0.223114542208763
40
0.260300299243557
40
0.260300299243557
40
0.297486056278351
40
0.297486056278351
40
0.334671813313145
40
0.334671813313145
40
0.353264691830541
40
0.353264691830541
40
0.371857570347938
40
0.371857570347938
40
0.409043327382731
40
0.409043327382731
40
0.446229084417524
40
0.446229084417524
40
0.483414841452317
40
0.483414841452317
40
0.52060059848711
40
0.52060059848711
40
0.557786355521903
40
0.557786355521903
40
0.594972112556696
40
0.594972112556696
40
0.632157869591489
40
0.632157869591489
40
0.669343626626282
40
0.669343626626282
40
0.706529383661074
40
0.706529383661074
40
0.725122262178471
40
0.725122262178471
40
0.743715140695867
40
0.743715140695867
40
0.780900897730661
40
0.780900897730661
40
0.818086654765454
40
0.818086654765454
40
0.855272411800246
40
0.855272411800246
40
0.892458168835039
40
0.892458168835039
40
0.929643925869832
40
0.929643925869832
40
0.966829682904625
40
0.966829682904625
40
1
40
1
40
1
40
1
41
1
10
12.0348124387822
20
2.58410075616035
30
0
41
1
10
12.2709496912301
20
2.54456470447357
30
0
41
1
10
12.5062363863227
20
2.49706713124854
30
0
41
1
10
12.9765480015986
20
2.38908340665654
30
0
41
1
10
13.2114608229692
20
2.32788094288637
30
0
41
1
10
13.6820324454539
20
2.18893755103508
30
0
41
1
10
13.918177706588
20
2.11167510989688
30
0
41
1
10
14.3896140196089
20
1.94676897904893
30
0
41
1
10
14.6246423027161
20
1.85897526877656
30
0
41
1
10
15.0949513345594
20
1.67104457505533
30
0
41
1
10
15.3301731994603
20
1.57103814822258
30
0
41
1
10
15.8013778383946
20
1.36174843363574
30
0
41
1
10
16.0375920981921
20
1.25274993479437
30
0
41
1
10
16.5083727897976
20
1.02839138322702
30
0
41
1
10
16.7434039275057
20
0.91254468963453
30
0
41
1
10
17.2137163320712
20
0.67639296816057
30
0
41
1
10
17.4492123460592
20
0.555211155581333
30
0
41
1
10
17.9212483696711
20
0.309903452160029
30
0
41
1
10
18.1568412475595
20
0.18654622696252
30
0
41
1
10
18.5097343740755
20
0.0006987906901657
30
0
41
1
10
18.6272863242829
20
-0.0613835701410892
30
0
41
1
10
18.8624306310071
20
-0.185407453967343
30
0
41
1
10
18.980081442426
20
-0.247229277222317
30
0
41
1
10
19.3334071055941
20
-0.431905973779948
30
0
41
1
10
19.5696187849164
20
-0.554514027541643
30
0
41
1
10
20.0409926271863
20
-0.795211836615323
30
0
41
1
10
20.2762151286584
20
-0.9137989682377
30
0
41
1
10
20.7465775942456
20
-1.14451177804182
30
0
41
1
10
20.9819813131165
20
-1.25607258043098
30
0
41
1
10
21.4537033050401
20
-1.4718857783771
30
0
41
1
10
21.6895862563806
20
-1.57599707726496
30
0
41
1
10
22.160262405724
20
-1.77453860421343
30
0
41
1
10
22.3953398711035
20
-1.86766766513483
30
0
41
1
10
22.8659822670958
20
-2.04198915994021
30
0
41
1
10
23.1020424908385
20
-2.12291720135352
30
0
41
1
10
23.5735712132119
20
-2.27334215261663
30
0
41
1
10
23.80877267673
20
-2.34147588215188
30
0
41
1
10
24.2791493961234
20
-2.46338583974818
30
0
41
1
10
24.5141431197648
20
-2.51716712657029
30
0
41
1
10
24.9853166516024
20
-2.60710456844689
30
0
41
1
10
25.22158933696
20
-2.64415538451794
30
0
41
1
10
25.5747359472915
20
-2.68813142138919
30
0
41
1
10
25.6924068600086
20
-2.70081943776239
30
0
41
1
10
25.9275838332519
20
-2.72260813064418
30
0
41
1
10
26.0450782312434
20
-2.73206667937643
30
0
41
1
10
26.397820839773
20
-2.75228399477786
30
0
41
1
10
26.6331954478573
20
-2.75553007108013
30
0
41
1
10
27.1053679814972
20
-2.74615483414158
30
0
41
1
10
27.3408723319535
20
-2.73319698272348
30
0
41
1
10
27.8112347178291
20
-2.69259504247026
30
0
41
1
10
28.0463832028087
20
-2.66345733756995
30
0
41
1
10
28.5172901906884
20
-2.58822436699694
30
0
41
1
10
28.7534346510829
20
-2.54207130678768
30
0
41
1
10
29.2247767997322
20
-2.43561817159863
30
0
41
1
10
29.4598554785975
20
-2.37555332866515
30
0
41
1
10
29.9302603708366
20
-2.23905968296503
30
0
41
1
10
30.1656704351527
20
-2.16359515653608
30
0
41
1
10
30.6117235000942
20
-2.00883191245791
30
0
41
1
10
30.8220647876388
20
-1.93124162287677
30
0
41
1
10
31.032016253109
20
-1.84904987079699
30
0
0
SPLINE
5
D5
100
AcDbEntity
8
1
62
256
6
ByLayer
370
18
48
1
60
0
100
AcDbSpline
70
4
71
3
72
52
73
48
40
0
40
0
40
0
40
0
40
0.0383676339757768
40
0.0383676339757768
40
0.0704220461765858
40
0.0704220461765858
40
0.102476458377395
40
0.102476458377395
40
0.134530870578204
40
0.134530870578204
40
0.166585282779013
40
0.166585282779013
40
0.23069410718063
40
0.23069410718063
40
0.262748519381439
40
0.262748519381439
40
0.294802931582248
40
0.294802931582248
40
0.326857343783056
40
0.326857343783056
40
0.358911755983865
40
0.358911755983865
40
0.423020580385482
40
0.423020580385482
40
0.4871294047871
40
0.4871294047871
40
0.519183816987908
40
0.519183816987908
40
0.551238229188717
40
0.551238229188717
40
0.583292641389526
40
0.583292641389526
40
0.615347053590334
40
0.615347053590334
40
0.679455877991948
40
0.679455877991948
40
0.711510290192754
40
0.711510290192754
40
0.743564702393561
40
0.743564702393561
40
0.807673526795172
40
0.807673526795172
40
0.839727938995977
40
0.839727938995977
40
0.871782351196783
40
0.871782351196783
40
1
40
1
40
1
40
1
41
1
10
14.6807748595509
20
1.837769170744
30
0
41
1
10
14.9412664840076
20
1.94462876081883
30
0
41
1
10
15.2014813881449
20
2.04439973064706
30
0
41
1
10
15.6794913507399
20
2.21336388010025
30
0
41
1
10
15.8976490848051
20
2.28480949130648
30
0
41
1
10
16.333665220593
20
2.41534089164134
30
0
41
1
10
16.5511400175064
20
2.47437201152476
30
0
41
1
10
16.9860353538256
20
2.57911159064332
30
0
41
1
10
17.2034445842121
20
2.62484838032708
30
0
41
1
10
17.6386558486819
20
2.70262880683239
30
0
41
1
10
17.8569476753074
20
2.73459908787064
30
0
41
1
10
18.510346799371
20
2.80852379674866
30
0
41
1
10
18.9441307830248
20
2.82876086890383
30
0
41
1
10
19.5974877889106
20
2.81465976747322
30
0
41
1
10
19.8156495134107
20
2.80250992303223
30
0
41
1
10
20.2507303419678
20
2.76366724559685
30
0
41
1
10
20.468014232059
20
2.73700072866021
30
0
41
1
10
20.9026384621217
20
2.66945485933127
30
0
41
1
10
21.1199924398297
20
2.6285688846838
30
0
41
1
10
21.5557300312613
20
2.53307751828569
30
0
41
1
10
21.7736762800158
20
2.47855017700303
30
0
41
1
10
22.4256677242175
20
2.29599497708685
30
0
41
1
10
22.8598312705163
20
2.14938570298148
30
0
41
1
10
23.731414797138
20
1.81217897722564
30
0
41
1
10
24.1652140283829
20
1.62365931424364
30
0
41
1
10
24.8172054677467
20
1.3174960401104
30
0
41
1
10
25.0351708769387
20
1.21150487776131
30
0
41
1
10
25.4704634383739
20
0.993646127568695
30
0
41
1
10
25.6876399987328
20
0.88197981951447
30
0
41
1
10
26.1219712362987
20
0.654807355806355
30
0
41
1
10
26.3391019913082
20
0.539262724861345
30
0
41
1
10
26.7737989816457
20
0.305139003142671
30
0
41
1
10
26.9918227701936
20
0.186671190506701
30
0
41
1
10
27.644249288864
20
-0.168167200591284
30
0
41
1
10
28.077476587638
20
-0.40528040276061
30
0
41
1
10
28.7301018796195
20
-0.751911313667847
30
0
41
1
10
28.9479128374288
20
-0.866216240084015
30
0
41
1
10
29.3823618874101
20
-1.08891684486244
30
0
41
1
10
29.5993627989536
20
-1.19751193305871
30
0
41
1
10
30.2504318099533
20
-1.51379212565473
30
0
41
1
10
30.686325297167
20
-1.71163393807649
30
0
41
1
10
31.3373645641047
20
-1.97828952302749
30
0
41
1
10
31.5542282631554
20
-2.06212614871419
30
0
41
1
10
31.9884271884271
20
-2.21874203450307
30
0
41
1
10
32.205916273806
20
-2.29175229833669
30
0
41
1
10
33.2931699264433
20
-2.62590341626375
30
0
41
1
10
34.1500023354698
20
-2.7903632149924
30
0
41
1
10
35.0181902014529
20
-2.83717549711287
30
0
0
SPLINE
5
D6
100
AcDbEntity
8
1
62
256
6
ByLayer
370
18
48
1
60
0
100
AcDbSpline
70
4
71
3
72
18
73
14
40
0
40
0
40
0
40
0
40
0.153949144110813
40
0.153949144110813
40
0.32315931528865
40
0.32315931528865
40
0.492369486466487
40
0.492369486466487
40
0.661579657644325
40
0.661579657644325
40
0.830789828822163
40
0.830789828822163
40
1
40
1
40
1
40
1
41
1
10
8.59811253624628
20
2.80258809116955
30
0
41
1
10
8.59795737645513
20
2.80261496646077
30
0
41
1
10
8.5978077143979
20
2.79341187958184
30
0
41
1
10
8.59749968625212
20
2.75452163058711
30
0
41
1
10
8.59734125359989
20
2.72251470275555
30
0
41
1
10
8.59702804683204
20
2.63778705493564
30
0
41
1
10
8.59687193412017
20
2.58500152261109
30
0
41
1
10
8.59654086405806
20
2.45861346700536
30
0
41
1
10
8.59636417313976
20
2.38421476580515
30
0
41
1
10
8.59597770383473
20
2.21838991947172
30
0
41
1
10
8.59576762567943
20
2.12694486708918
30
0
41
1
10
8.59528929410985
20
1.9272210793734
30
0
41
1
10
8.59501947723584
20
1.81832934083414
30
0
41
1
10
8.59471040628443
20
1.70205267897299
30
0
0
SPLINE
5
D7
100
AcDbEntity
8
1
62
256
6
ByLayer
370
18
48
1
60
0
100
AcDbSpline
70
4
71
3
72
8
73
4
40
0
40
0
40
0
40
0
40
1
40
1
40
1
40
1
41
1
10
35.9794947111996
20
0.114084949050692
30
0
41
1
10
35.7179181856575
20
0.867081236431773
30
0
41
1
10
35.46011538777
20
1.6213663606724
30
0
41
1
10
35.2061254076922
20
2.37695367218825
30
0
0
SPLINE
5
D8
100
AcDbEntity
8
1
62
256
6
ByLayer
370
18
48
1
60
0
100
AcDbSpline
70
4
71
3
72
8
73
4
40
0
40
0
40
0
40
0
40
1
40
1
40
1
40
1
41
1
10
35.0181902014588
20
2.83717549709854
30
0
41
1
10
35.0800647061994
20
2.68741422083906
30
0
41
1
10
35.1428916566988
20
2.53417117454075
30
0
41
1
10
35.2061254076922
20
2.37695367218825
30
0
0
SPLINE
5
D9
100
AcDbEntity
8
1
62
256
6
ByLayer
370
18
48
1
60
0
100
AcDbSpline
70
4
71
3
72
8
73
4
40
0
40
0
40
0
40
0
40
1
40
1
40
1
40
1
41
1
10
34.9553751300558
20
1.14462271272544
30
0
41
1
10
34.9538147183872
20
1.16393182168821
30
0
41
1
10
34.953435989577
20
1.18326916977659
30
0
41
1
10
34.9544907231514
20
1.20264491437061
30
0
0
SPLINE
5
DA
100
AcDbEntity
8
1
62
256
6
ByLayer
370
18
48
1
60
0
100
AcDbSpline
70
4
71
1
72
4
73
2
40
0
40
0
40
1
40
1
41
1
10
34.9634570082918
20
-2.76785706510932
30
0
41
1
10
35.546868073363
20
-0.798294317313292
30
0
0
SPLINE
5
DB
100
AcDbEntity
8
1
62
256
6
ByLayer
370
13
48
1
60
0
100
AcDbSpline
70
4
71
3
72
10
73
6
40
0
40
0
40
0
40
0
40
0.5
40
0.5
40
1
40
1
40
1
40
1
41
1
10
8.9901236346239
20
1.53944120621401
30
0
41
1
10
8.92220103036559
20
1.55987524802168
30
0
41
1
10
8.8551712104728
20
1.58341261895458
30
0
41
1
10
8.72319764489899
20
1.63732507112098
30
0
41
1
10
8.6579256295164
20
1.667873474911
30
0
41
1
10
8.59471040628446
20
1.70205267897256
30
0
0
SPLINE
5
DC
100
AcDbEntity
8
1
62
256
6
ByLayer
370
18
48
1
60
0
100
AcDbSpline
70
4
71
3
72
18
73
14
40
0
40
0
40
0
40
0
40
0.125000000000003
40
0.125000000000003
40
0.250000000000006
40
0.250000000000006
40
0.500000000000003
40
0.500000000000003
40
0.625000000000001
40
0.625000000000001
40
0.749999999999999
40
0.749999999999999
40
1
40
1
40
1
40
1
41
1
10
35.518127702139
20
-0.807633514071227
30
0
41
1
10
35.4871090091901
20
-0.812258548012124
30
0
41
1
10
35.4571659371746
20
-0.809248881365306
30
0
41
1
10
35.3991620828798
20
-0.789869154917227
30
0
41
1
10
35.3710947332168
20
-0.773300742232607
30
0
41
1
10
35.2926190420614
20
-0.70781112101497
30
0
41
1
10
35.2461955891065
20
-0.641973050909172
30
0
41
1
10
35.1872460162559
20
-0.524138141731754
30
0
41
1
10
35.1692282911543
20
-0.48150912906641
30
0
41
1
10
35.1361446395518
20
-0.390191166913752
30
0
41
1
10
35.1210092177756
20
-0.341183282688917
30
0
41
1
10
35.0806218235742
20
-0.188491660190522
30
0
41
1
10
35.0600932977587
20
-0.0790345695744747
30
0
41
1
10
35.0452607544042
20
0.0372461157199382
30
0
0
SPLINE
5
DD
100
AcDbEntity
8
1
62
256
6
ByLayer
370
18
48
1
60
0
100
AcDbSpline
70
4
71
3
72
14
73
10
40
0
40
0
40
0
40
0
40
0.478223585111111
40
0.478223585111111
40
0.717335377666667
40
0.717335377666667
40
0.956447170222222
40
0.956447170222222
40
1
40
1
40
1
40
1
41
1
10
8.59924442753371
20
-2.65594573724437
30
0
41
1
10
8.59906199391841
20
-2.70207434554422
30
0
41
1
10
8.59887705447048
20
-2.73758097056086
30
0
41
1
10
8.59860244941245
20
-2.77452823974605
30
0
41
1
10
8.59851100985108
20
-2.7841200490407
30
0
41
1
10
8.59833229416182
20
-2.79747097898669
30
0
41
1
10
8.59824472729534
20
-2.80128815311926
30
0
41
1
10
8.59814320079377
20
-2.80249386153088
30
0
41
1
10
8.59812761528568
20
-2.80258724514215
30
0
41
1
10
8.59811208484007
20
-2.80258814331776
30
0
0
SPLINE
5
DE
100
AcDbEntity
8
1
62
256
6
ByLayer
370
18
48
1
60
0
100
AcDbSpline
70
4
71
3
72
10
73
6
40
0
40
0
40
0
40
0
40
0.437981232640398
40
0.703335430918158
40
1
40
1
40
1
40
1
41
1
10
18.7356682199579
20
0.0660444532907718
30
0
41
1
10
18.5545492174416
20
0.106210135956928
30
0
41
1
10
18.265888817007
20
0.189101397779069
30
0
41
1
10
17.8610554286263
20
0.349483012132055
30
0
41
1
10
17.6350866739979
20
0.457838957205752
30
0
41
1
10
17.5163262870942
20
0.520190110911386
30
0
0
SPLINE
5
DF
100
AcDbEntity
8
1
62
256
6
ByLayer
370
18
48
1
60
0
100
AcDbSpline
70
4
71
2
72
6
73
3
40
0
40
0
40
0
40
1
40
1
40
1
41
1
10
27.073291435201
20
-0.065159845331408
30
0
41
1
10
27.719564066639
20
-0.208199093543271
30
0
41
1
10
28.3566631104034
20
-0.553328254230792
30
0
0
SPLINE
5
E0
100
AcDbEntity
8
1
62
256
6
ByLayer
370
18
48
1
60
0
100
AcDbSpline
70
4
71
2
72
6
73
3
40
0
40
0
40
0
40
1
40
1
40
1
41
1
10
34.6288069832381
20
0.199602898684333
30
0
41
1
10
34.2654854117762
20
0.304779905840803
30
0
41
1
10
33.9042385736245
20
0.500271337114469
30
0
0
SPLINE
5
E1
100
AcDbEntity
8
1
62
256
6
ByLayer
370
18
48
1
60
0
100
AcDbSpline
70
4
71
3
72
19
73
15
40
0
40
0
40
0
40
0
40
0.107639353396962
40
0.186898323376836
40
0.238637654308323
40
0.282673359914646
40
0.32756317275125
40
0.510539597048609
40
0.581717586921536
40
0.652054704404169
40
0.715469025948835
40
0.782860082434395
40
0.880027691135414
40
1
40
1
40
1
40
1
41
1
10
20.2533756278158
20
-2.74128466951856
30
0
41
1
10
20.4839510159137
20
-2.74185292282752
30
0
41
1
10
20.8843239079424
20
-2.74272412559875
30
0
41
1
10
21.3955964637648
20
-2.74333021806112
30
0
41
1
10
21.7705844471519
20
-2.74394655283473
30
0
41
1
10
22.0719491737668
20
-2.7452347789783
30
0
41
1
10
22.654480416067
20
-2.74633070068452
30
0
41
1
10
23.2951640508007
20
-2.74640326711921
30
0
41
1
10
23.9903645586555
20
-2.74783131978381
30
0
41
1
10
24.4294093276428
20
-2.74952911458715
30
0
41
1
10
24.8603443809363
20
-2.74928527373606
30
0
41
1
10
25.3487602163339
20
-2.74887727854704
30
0
41
1
10
25.9583441699166
20
-2.75105891610991
30
0
41
1
10
26.4235496956676
20
-2.75200422808368
30
0
41
1
10
26.6805810735096
20
-2.75263048434971
30
0
0
SPLINE
5
E2
100
AcDbEntity
8
1
62
256
6
ByLayer
370
18
48
1
60
0
100
AcDbSpline
70
4
71
2
72
6
73
3
40
0
40
0
40
0
40
1
40
1
40
1
41
1
10
10.1986411397865
20
2.72443893877022
30
0
41
1
10
9.59402394176999
20
2.72308765355226
30
0
41
1
10
8.98940428225748
20
2.72317487591363
30
0
0
SPLINE
5
E3
100
AcDbEntity
8
1
62
256
6
ByLayer
370
18
48
1
60
0
100
AcDbSpline
70
4
71
2
72
6
73
3
40
0
40
0
40
0
40
1
40
1
40
1
41
1
10
8.98940429545132
20
-2.72317466369873
30
0
41
1
10
9.59468483512512
20
-2.72308145300309
30
0
41
1
10
10.1999628670018
20
-2.72444694129368
30
0
0
SPLINE
5
E4
100
AcDbEntity
8
1
62
256
6
ByLayer
370
18
48
1
60
0
100
AcDbSpline
70
4
71
3
72
21
73
17
40
0
40
0
40
0
40
0
40
0.121538774616617
40
0.220381371140999
40
0.288235280470878
40
0.35061035032851
40
0.416535772302386
40
0.483784672549628
40
0.551044950678064
40
0.609892891914319
40
0.668742396281526
40
0.727206169496623
40
0.783256653455009
40
0.836719301736789
40
0.907016101356563
40
1
40
1
40
1
40
1
41
1
10
26.6785532853999
20
2.75264307523062
30
0
41
1
10
26.4504514131105
20
2.75239412425799
30
0
41
1
10
26.0368198026065
20
2.75184896521608
30
0
41
1
10
25.4955713935242
20
2.74891683095095
30
0
41
1
10
25.0656634803169
20
2.74912924304488
30
0
41
1
10
24.6974929648107
20
2.74946218214816
30
0
41
1
10
24.3303350282025
20
2.74916458539121
30
0
41
1
10
23.9540317411143
20
2.74773053364612
30
0
41
1
10
23.5910073518832
20
2.74723783125992
30
0
41
1
10
23.2437559364276
20
2.74609091732708
30
0
41
1
10
22.9130178476401
20
2.74604706246848
30
0
41
1
10
22.5875312188007
20
2.7460005998168
30
0
41
1
10
22.272160463298
20
2.74574209136986
30
0
41
1
10
21.9345663411323
20
2.74464973829458
30
0
41
1
10
21.5276784057432
20
2.74336209089069
30
0
41
1
10
21.2211157763246
20
2.74309724510726
30
0
41
1
10
21.0465463401419
20
2.74286570781584
30
0
0
LINE
5
7B
100
AcDbEntity
8
SK1
62
256
6
ByLayer
370
18
48
1
60
0
100
AcDbLine
10
0
20
-3
30
0
11
0
21
3
31
0
39
0
210
0
220
0
230
1
0
LINE
5
7D
100
AcDbEntity
8
SK1
62
256
6
ByLayer
370
18
48
1
60
0
100
AcDbLine
10
-36
20
1.25
30
0
11
-36
21
-1.25
31
0
39
0
210
0
220
0
230
1
0
LINE
5
7E
100
AcDbEntity
8
SK1
62
256
6
ByLayer
370
18
48
1
60
0
100
AcDbLine
10
-34.989637
20
3
30
0
11
-34.989637
21
-3
31
0
39
0
210
0
220
0
230
1
0
LINE
5
7F
100
AcDbEntity
8
1
62
256
6
ByLayer
370
18
48
1
60
0
100
AcDbLine
10
34.611061
20
-1.535851
30
0
11
35.518128
21
-0.807634
31
0
39
0
210
0
220
0
230
1
0
LINE
5
80
100
AcDbEntity
8
1
62
256
6
ByLayer
370
13
48
1
60
0
100
AcDbLine
10
0.410518
20
2.894295
30
0
11
0.410518
21
-2.894295
31
0
39
0
210
0
220
0
230
1
0
LINE
5
81
100
AcDbEntity
8
1
62
256
6
ByLayer
370
13
48
1
60
0
100
AcDbLine
10
0.822567
20
2.788591
30
0
11
0.822567
21
-2.788591
31
0
39
0
210
0
220
0
230
1
0
LINE
5
82
100
AcDbEntity
8
1
62
256
6
ByLayer
370
18
48
1
60
0
100
AcDbLine
10
0
20
-3
30
0
11
0
21
3
31
0
39
0
210
0
220
0
230
1
0
LINE
5
83
100
AcDbEntity
8
80
62
256
6
ByLayer
370
18
48
1
60
0
100
AcDbLine
10
0
20
0
30
0
11
-5
21
0
31
0
39
0
210
0
220
0
230
1
0
LINE
5
84
100
AcDbEntity
8
4
62
256
6
ByLayer
370
18
48
0.05
60
0
100
AcDbLine
10
36
20
0
30
0
11
0
21
0
31
0
39
0
210
0
220
0
230
1
0
LINE
5
86
100
AcDbEntity
8
SK4
62
256
6
ByLayer
370
18
48
0.05
60
0
100
AcDbLine
10
41
20
0
30
0
11
-41
21
0
31
0
39
0
210
0
220
0
230
1
0
LINE
5
88
100
AcDbEntity
8
SK1
62
256
6
ByLayer
370
18
48
1
60
0
100
AcDbLine
10
-36
20
-1.25
30
0
11
-34.989637
21
-3
31
0
39
0
210
0
220
0
230
1
0
LINE
5
89
100
AcDbEntity
8
SK1
62
256
6
ByLayer
370
18
48
1
60
0
100
AcDbLine
10
-34.989637
20
3
30
0
11
-36
21
1.25
31
0
39
0
210
0
220
0
230
1
0
LINE
5
8A
100
AcDbEntity
8
SK1
62
256
6
ByLayer
370
18
48
1
60
0
100
AcDbLine
10
-34.989637
20
-3
30
0
11
0
21
-3
31
0
39
0
210
0
220
0
230
1
0
LINE
5
8B
100
AcDbEntity
8
SK1
62
256
6
ByLayer
370
18
48
1
60
0
100
AcDbLine
10
0
20
3
30
0
11
-34.989637
21
3
31
0
39
0
210
0
220
0
230
1
0
LINE
5
8C
100
AcDbEntity
8
1
62
256
6
ByLayer
370
18
48
1
60
0
100
AcDbLine
10
0.822567
20
-2.788591
30
0
11
8.598103
21
-2.802587
31
0
39
0
210
0
220
0
230
1
0
LINE
5
8D
100
AcDbEntity
8
1
62
256
6
ByLayer
370
18
48
1
60
0
100
AcDbLine
10
19.154457
20
-2.821588
30
0
11
19.869453
21
-2.822875
31
0
39
0
210
0
220
0
230
1
0
LINE
5
8E
100
AcDbEntity
8
1
62
256
6
ByLayer
370
18
48
1
60
0
100
AcDbLine
10
19.869453
20
2.822875
30
0
11
19.154457
21
2.821588
31
0
39
0
210
0
220
0
230
1
0
LINE
5
8F
100
AcDbEntity
8
1
62
256
6
ByLayer
370
18
48
1
60
0
100
AcDbLine
10
8.598103
20
2.802587
30
0
11
0.822567
21
2.788591
31
0
39
0
210
0
220
0
230
1
0
LINE
5
90
100
AcDbEntity
8
81
62
256
6
ByLayer
370
18
48
1
60
0
100
AcDbLine
10
36
20
0
30
0
11
41
21
0
31
0
39
0
210
0
220
0
230
1
0
LINE
5
91
100
AcDbEntity
8
SK2
62
256
6
ByLayer
370
13
48
1
60
0
100
AcDbLine
10
-44.625163
20
32.117107
30
0
11
-44.625163
21
-11.75
31
0
39
0
210
0
220
0
230
1
0
LINE
5
93
100
AcDbEntity
8
SK2
62
256
6
ByLayer
370
13
48
1
60
0
100
AcDbLine
10
-37.5875
20
3
30
0
11
-46.625163
21
3
31
0
39
0
210
0
220
0
230
1
0
LINE
5
94
100
AcDbEntity
8
SK2
62
256
6
ByLayer
370
13
48
1
60
0
100
AcDbLine
10
-37.5875
20
-3
30
0
11
-46.625163
21
-3
31
0
39
0
210
0
220
0
230
1
0
LINE
5
95
100
AcDbEntity
8
1
62
256
6
ByLayer
370
18
48
1
60
1
100
AcDbLine
10
-44.625163
20
3
30
0
11
-45.085946
21
6.499998
31
0
39
0
210
0
220
0
230
1
0
LINE
5
96
100
AcDbEntity
8
1
62
256
6
ByLayer
370
18
48
1
60
1
100
AcDbLine
10
-45.085946
20
6.499998
30
0
11
-44.164379
21
6.500002
31
0
39
0
210
0
220
0
230
1
0
LINE
5
97
100
AcDbEntity
8
1
62
256
6
ByLayer
370
18
48
1
60
1
100
AcDbLine
10
-44.164379
20
6.500002
30
0
11
-44.625163
21
3
31
0
39
0
210
0
220
0
230
1
0
LINE
5
98
100
AcDbEntity
8
1
62
256
6
ByLayer
370
18
48
1
60
1
100
AcDbLine
10
-44.625163
20
-3
30
0
11
-44.164379
21
-6.499998
31
0
39
0
210
0
220
0
230
1
0
LINE
5
99
100
AcDbEntity
8
1
62
256
6
ByLayer
370
18
48
1
60
1
100
AcDbLine
10
-44.164379
20
-6.499998
30
0
11
-45.085946
21
-6.500002
31
0
39
0
210
0
220
0
230
1
0
LINE
5
9A
100
AcDbEntity
8
1
62
256
6
ByLayer
370
18
48
1
60
1
100
AcDbLine
10
-45.085946
20
-6.500002
30
0
11
-44.625163
21
-3
31
0
39
0
210
0
220
0
230
1
0
LINE
5
9B
100
AcDbEntity
8
2
62
256
6
ByLayer
370
13
48
1
60
0
100
AcDbLine
10
48.083343
20
30.560193
30
0
11
48.083343
21
-11.6
31
0
39
0
210
0
220
0
230
1
0
LINE
5
9D
100
AcDbEntity
8
2
62
256
6
ByLayer
370
13
48
1
60
0
100
AcDbLine
10
36.5263
20
2.85
30
0
11
50.083343
21
2.85
31
0
39
0
210
0
220
0
230
1
0
LINE
5
9E
100
AcDbEntity
8
2
62
256
6
ByLayer
370
13
48
1
60
0
100
AcDbLine
10
36.5263
20
-2.85
30
0
11
50.083343
21
-2.85
31
0
39
0
210
0
220
0
230
1
0
LINE
5
9F
100
AcDbEntity
8
1
62
256
6
ByLayer
370
18
48
1
60
1
100
AcDbLine
10
48.083343
20
2.85
30
0
11
47.622559
21
6.349998
31
0
39
0
210
0
220
0
230
1
0
LINE
5
A0
100
AcDbEntity
8
1
62
256
6
ByLayer
370
18
48
1
60
1
100
AcDbLine
10
47.622559
20
6.349998
30
0
11
48.544126
21
6.350002
31
0
39
0
210
0
220
0
230
1
0
LINE
5
A1
100
AcDbEntity
8
1
62
256
6
ByLayer
370
18
48
1
60
1
100
AcDbLine
10
48.544126
20
6.350002
30
0
11
48.083343
21
2.85
31
0
39
0
210
0
220
0
230
1
0
LINE
5
A2
100
AcDbEntity
8
1
62
256
6
ByLayer
370
18
48
1
60
1
100
AcDbLine
10
48.083343
20
-2.85
30
0
11
48.544126
21
-6.349998
31
0
39
0
210
0
220
0
230
1
0
LINE
5
A3
100
AcDbEntity
8
1
62
256
6
ByLayer
370
18
48
1
60
1
100
AcDbLine
10
48.544126
20
-6.349998
30
0
11
47.622559
21
-6.350002
31
0
39
0
210
0
220
0
230
1
0
LINE
5
A4
100
AcDbEntity
8
1
62
256
6
ByLayer
370
18
48
1
60
1
100
AcDbLine
10
47.622559
20
-6.350002
30
0
11
48.083343
21
-2.85
31
0
39
0
210
0
220
0
230
1
0
LINE
5
EB
100
AcDbEntity
8
1
62
256
6
ByLayer
370
18
48
1
60
1
100
AcDbLine
10
-44.625163
20
3
30
0
11
-45.085946
21
6.499998
31
0
39
0
210
0
220
0
230
1
0
LINE
5
EC
100
AcDbEntity
8
1
62
256
6
ByLayer
370
18
48
1
60
1
100
AcDbLine
10
-45.085946
20
6.499998
30
0
11
-44.164379
21
6.500002
31
0
39
0
210
0
220
0
230
1
0
LINE
5
ED
100
AcDbEntity
8
1
62
256
6
ByLayer
370
18
48
1
60
1
100
AcDbLine
10
-44.164379
20
6.500002
30
0
11
-44.625163
21
3
31
0
39
0
210
0
220
0
230
1
0
LINE
5
EF
100
AcDbEntity
8
1
62
256
6
ByLayer
370
18
48
1
60
1
100
AcDbLine
10
-44.625163
20
-3
30
0
11
-44.164379
21
-6.499998
31
0
39
0
210
0
220
0
230
1
0
LINE
5
F0
100
AcDbEntity
8
1
62
256
6
ByLayer
370
18
48
1
60
1
100
AcDbLine
10
-44.164379
20
-6.499998
30
0
11
-45.085946
21
-6.500002
31
0
39
0
210
0
220
0
230
1
0
LINE
5
F1
100
AcDbEntity
8
1
62
256
6
ByLayer
370
18
48
1
60
1
100
AcDbLine
10
-45.085946
20
-6.500002
30
0
11
-44.625163
21
-3
31
0
39
0
210
0
220
0
230
1
0
LINE
5
F5
100
AcDbEntity
8
1
62
256
6
ByLayer
370
18
48
1
60
1
100
AcDbLine
10
48.083343
20
2.85
30
0
11
47.622559
21
6.349998
31
0
39
0
210
0
220
0
230
1
0
LINE
5
F6
100
AcDbEntity
8
1
62
256
6
ByLayer
370
18
48
1
60
1
100
AcDbLine
10
47.622559
20
6.349998
30
0
11
48.544126
21
6.350002
31
0
39
0
210
0
220
0
230
1
0
LINE
5
F7
100
AcDbEntity
8
1
62
256
6
ByLayer
370
18
48
1
60
1
100
AcDbLine
10
48.544126
20
6.350002
30
0
11
48.083343
21
2.85
31
0
39
0
210
0
220
0
230
1
0
LINE
5
F9
100
AcDbEntity
8
1
62
256
6
ByLayer
370
18
48
1
60
1
100
AcDbLine
10
48.083343
20
-2.85
30
0
11
48.544126
21
-6.349998
31
0
39
0
210
0
220
0
230
1
0
LINE
5
FA
100
AcDbEntity
8
1
62
256
6
ByLayer
370
18
48
1
60
1
100
AcDbLine
10
48.544126
20
-6.349998
30
0
11
47.622559
21
-6.350002
31
0
39
0
210
0
220
0
230
1
0
LINE
5
FB
100
AcDbEntity
8
1
62
256
6
ByLayer
370
18
48
1
60
1
100
AcDbLine
10
47.622559
20
-6.350002
30
0
11
48.083343
21
-2.85
31
0
39
0
210
0
220
0
230
1
0
MTEXT
5
E5
100
AcDbEntity
8
SK6
62
256
6
ByLayer
370
13
48
1
60
0
100
AcDbMText
10
-28.109026
20
35.390328
30
0
210
0
220
0
230
1
1
\W0.7386;860.1-0570-019A0-PM P1BM
40
3.5
41
0
44
1.084337
50
0
71
7
72
5
7
iso_b_vert
0
MTEXT
5
E9
100
AcDbEntity
8
SK2
62
256
6
ByLayer
370
18
48
1
60
0
100
AcDbMText
10
-46.189796
20
16.409024
30
0
210
0
220
0
230
1
1
%%c
40
3.5
41
0
44
1.084337
50
90
71
7
72
5
7
iso_b_vert
0
MTEXT
5
EA
100
AcDbEntity
8
SK2
62
256
6
ByLayer
370
18
48
1
60
0
100
AcDbMText
10
-46.189796
20
21.63168
30
0
210
0
220
0
230
1
1
\W0.7317;6,000
40
3.5
41
0
44
1.084337
50
90
71
7
72
5
7
iso_b_vert
0
MTEXT
5
F3
100
AcDbEntity
8
2
62
256
6
ByLayer
370
18
48
1
60
0
100
AcDbMText
10
46.518709
20
14.85211
30
0
210
0
220
0
230
1
1
%%c
40
3.5
41
0
44
1.084337
50
90
71
7
72
5
7
iso_b_vert
0
MTEXT
5
F4
100
AcDbEntity
8
2
62
256
6
ByLayer
370
18
48
1
60
0
100
AcDbMText
10
46.518709
20
20.074766
30
0
210
0
220
0
230
1
1
\W0.7317;5,700
40
3.5
41
0
44
1.084337
50
90
71
7
72
5
7
iso_b_vert
0
HATCH
5
EE
100
AcDbEntity
8
SK2
62
256
6
ByLayer
370
13
48
1
60
0
100
AcDbHatch
10
0
20
0
30
0
210
0
220
0
230
1
2
ANSI31
70
0
71
0
91
1
92
5
93
3
72
1
10
-44.6251625675374
20
3
11
-45.0859463090902
21
6.49999830744682
72
1
10
-45.0859463090902
20
6.49999830744682
11
-44.1643788259847
21
6.50000169255318
72
1
10
-44.1643788259847
20
6.50000169255318
11
-44.6251625675374
21
3
97
0
75
0
76
1
52
0
41
0.0062
77
0
78
1
53
45
43
0
44
0
45
-0.0139193969876572
46
0.0139193969876572
79
0
47
0
98
1
10
0
20
0
0
HATCH
5
F2
100
AcDbEntity
8
SK2
62
256
6
ByLayer
370
13
48
1
60
0
100
AcDbHatch
10
0
20
0
30
0
210
0
220
0
230
1
2
ANSI31
70
0
71
0
91
1
92
5
93
3
72
1
10
-44.6251625675374
20
-3
11
-44.1643788259847
21
-6.49999830744682
72
1
10
-44.1643788259847
20
-6.49999830744682
11
-45.0859463090902
21
-6.50000169255318
72
1
10
-45.0859463090902
20
-6.50000169255318
11
-44.6251625675374
21
-3
97
0
75
0
76
1
52
0
41
0.0062
77
0
78
1
53
45
43
0
44
0
45
-0.0139193969876572
46
0.0139193969876572
79
0
47
0
98
1
10
0
20
0
0
HATCH
5
F8
100
AcDbEntity
8
2
62
256
6
ByLayer
370
13
48
1
60
0
100
AcDbHatch
10
0
20
0
30
0
210
0
220
0
230
1
2
ANSI31
70
0
71
0
91
1
92
5
93
3
72
1
10
48.083342615295
20
2.84999999999999
11
47.6225588737423
21
6.34999830744681
72
1
10
47.6225588737423
20
6.34999830744681
11
48.5441263568478
21
6.35000169255318
72
1
10
48.5441263568478
20
6.35000169255318
11
48.083342615295
21
2.84999999999999
97
0
75
0
76
1
52
0
41
0.0062
77
0
78
1
53
45
43
0
44
0
45
-0.0139193969876572
46
0.0139193969876572
79
0
47
0
98
1
10
0
20
0
0
HATCH
5
FC
100
AcDbEntity
8
2
62
256
6
ByLayer
370
13
48
1
60
0
100
AcDbHatch
10
0
20
0
30
0
210
0
220
0
230
1
2
ANSI31
70
0
71
0
91
1
92
5
93
3
72
1
10
48.083342615295
20
-2.84999999999999
11
48.5441263568478
21
-6.34999830744681
72
1
10
48.5441263568478
20
-6.34999830744681
11
47.6225588737423
21
-6.35000169255318
72
1
10
47.6225588737423
20
-6.35000169255318
11
48.083342615295
21
-2.84999999999999
97
0
75
0
76
1
52
0
41
0.0062
77
0
78
1
53
45
43
0
44
0
45
-0.0139193969876572
46
0.0139193969876572
79
0
47
0
98
1
10
0
20
0
0
DIMENSION
5
FE
100
AcDbEntity
8
2
62
256
6
ByLayer
370
13
48
1
60
0
100
AcDbDimension
2
_U0
10
34.9388
20
-13.063398
30
0
11
17.4694
21
-13.063398
31
0
70
32
71
1
72
1
41
1
210
0
220
0
230
1
3
Standard
100
AcDbAlignedDimension
13
0
23
0
33
0
14
34.9388
24
-2.85
34
0
50
0
100
AcDbRotatedDimension
1001
ACAD
1000
DSTYLE
1002
{
1070
   371
1070
    13
1070
   372
1070
    13
1070
   170
1070
     0
1070
   144
1040
1.0
1070
   277
1070
     2
1070
   278
1070
    44
1070
   146
1040
1.0
1070
   345
1005
16
1070
   347
1005
16
1070
   346
1005
16
1070
   344
1005
0
1070
   343
1005
0
1070
   172
1070
     1
1070
    76
1070
     0
1070
    75
1070
     0
1070
   282
1070
     0
1070
   281
1070
     0
1070
    71
1070
     0
1070
    74
1070
     0
1070
   279
1070
     0
1070
   173
1070
     1
1070
   340
1005
E6
1070
   271
1070
     2
1070
   272
1070
     2
1070
    77
1070
     1
1070
    73
1070
     1
1070
   171
1070
     3
1070
   274
1070
     4
1070
   177
1070
    35
1070
   176
1070
    35
1070
   178
1070
    35
1070
    48
1040
-0.1
1070
    41
1040
3.5
1070
   147
1040
1.75
1070
    42
1040
1.5875
1070
    44
1040
2.0
1070
   140
1040
3.5
1002
}
1001
ACAD_DSTYLE_DIM_LINETYPE
1070
   380
1005
16
1001
ACAD_DSTYLE_DIM_EXT1_LINETYPE
1070
   381
1005
16
1001
ACAD_DSTYLE_DIM_EXT2_LINETYPE
1070
   382
1005
16
0
DIMENSION
5
117
100
AcDbEntity
8
SK2
62
256
6
ByLayer
370
13
48
1
60
0
100
AcDbDimension
2
_U1
10
36
20
-31.692985
30
0
11
0
21
-31.692985
31
0
70
32
71
1
72
1
41
1
210
0
220
0
230
1
3
Standard
100
AcDbAlignedDimension
13
-36
23
-3
33
0
14
36
24
0
34
0
50
0
100
AcDbRotatedDimension
1001
ACAD
1000
DSTYLE
1002
{
1070
   371
1070
    13
1070
   372
1070
    13
1070
   170
1070
     0
1070
   144
1040
1.0
1070
   277
1070
     2
1070
   278
1070
    44
1070
   146
1040
1.0
1070
   345
1005
16
1070
   347
1005
16
1070
   346
1005
16
1070
   344
1005
0
1070
   343
1005
0
1070
   172
1070
     1
1070
    76
1070
     0
1070
    75
1070
     0
1070
   282
1070
     0
1070
   281
1070
     0
1070
    71
1070
     0
1070
    74
1070
     0
1070
   279
1070
     0
1070
   173
1070
     1
1070
   340
1005
E6
1070
   271
1070
     2
1070
   272
1070
     2
1070
    77
1070
     1
1070
    73
1070
     1
1070
   171
1070
     3
1070
   274
1070
     4
1070
   177
1070
    35
1070
   176
1070
    35
1070
   178
1070
    35
1070
    48
1040
-0.1
1070
    41
1040
3.5
1070
   147
1040
1.75
1070
    42
1040
1.5875
1070
    44
1040
2.0
1070
   140
1040
3.5
1002
}
1001
ACAD_DSTYLE_DIM_LINETYPE
1070
   380
1005
16
1001
ACAD_DSTYLE_DIM_EXT1_LINETYPE
1070
   381
1005
16
1001
ACAD_DSTYLE_DIM_EXT2_LINETYPE
1070
   382
1005
16
0
DIMENSION
5
12F
100
AcDbEntity
8
SK2
62
256
6
ByLayer
370
13
48
1
60
0
100
AcDbDimension
2
_U2
10
36
20
14.459119
30
0
11
26.92
21
14.459119
31
0
70
32
71
1
72
1
41
1
210
0
220
0
230
1
3
Standard
100
AcDbAlignedDimension
13
17.84
23
2.85
33
0
14
36
24
0
34
0
50
0
100
AcDbRotatedDimension
1001
ACAD
1000
DSTYLE
1002
{
1070
   371
1070
    13
1070
   372
1070
    13
1070
   170
1070
     0
1070
   144
1040
1.0
1070
   277
1070
     2
1070
   278
1070
    44
1070
   146
1040
1.0
1070
   345
1005
16
1070
   347
1005
16
1070
   346
1005
16
1070
   344
1005
0
1070
   343
1005
0
1070
   172
1070
     1
1070
    76
1070
     0
1070
    75
1070
     0
1070
   282
1070
     0
1070
   281
1070
     0
1070
    71
1070
     0
1070
    74
1070
     0
1070
   279
1070
     0
1070
   173
1070
     1
1070
   340
1005
E6
1070
   271
1070
     2
1070
   272
1070
     2
1070
    77
1070
     1
1070
    73
1070
     1
1070
   171
1070
     3
1070
   274
1070
     4
1070
   177
1070
    35
1070
   176
1070
    35
1070
   178
1070
    35
1070
    48
1040
-0.1
1070
    41
1040
3.5
1070
   147
1040
1.75
1070
    42
1040
1.5875
1070
    44
1040
2.0
1070
   140
1040
3.5
1002
}
1001
ACAD_DSTYLE_DIM_LINETYPE
1070
   380
1005
16
1001
ACAD_DSTYLE_DIM_EXT1_LINETYPE
1070
   381
1005
16
1001
ACAD_DSTYLE_DIM_EXT2_LINETYPE
1070
   382
1005
16
0
DIMENSION
5
147
100
AcDbEntity
8
SK2
62
256
6
ByLayer
370
13
48
1
60
0
100
AcDbDimension
2
_U3
10
34.9388
20
-15.652503
30
0
11
53.333333
21
-15.652503
31
0
70
32
71
1
72
1
41
1
210
0
220
0
230
1
3
Standard
100
AcDbAlignedDimension
13
36
23
0
33
0
14
34.9388
24
-2.85
34
0
50
0
100
AcDbRotatedDimension
1001
ACAD
1000
DSTYLE
1002
{
1070
   371
1070
    13
1070
   372
1070
    13
1070
   170
1070
     0
1070
   144
1040
1.0
1070
   277
1070
     2
1070
   278
1070
    44
1070
   146
1040
1.0
1070
   345
1005
16
1070
   347
1005
16
1070
   346
1005
16
1070
   344
1005
0
1070
   343
1005
0
1070
   172
1070
     1
1070
    76
1070
     0
1070
    75
1070
     0
1070
   282
1070
     0
1070
   281
1070
     0
1070
    71
1070
     0
1070
    74
1070
     0
1070
   279
1070
     0
1070
   173
1070
     1
1070
   340
1005
E6
1070
   271
1070
     2
1070
   272
1070
     2
1070
    77
1070
     1
1070
    73
1070
     1
1070
   171
1070
     3
1070
   274
1070
     4
1070
   177
1070
    35
1070
   176
1070
    35
1070
   178
1070
    35
1070
    48
1040
-0.1
1070
    41
1040
3.5
1070
   147
1040
1.75
1070
    42
1040
1.5875
1070
    44
1040
2.0
1070
   140
1040
3.5
1002
}
1001
ACAD_DSTYLE_DIM_LINETYPE
1070
   380
1005
16
1001
ACAD_DSTYLE_DIM_EXT1_LINETYPE
1070
   381
1005
16
1001
ACAD_DSTYLE_DIM_EXT2_LINETYPE
1070
   382
1005
16
0
DIMENSION
5
161
100
AcDbEntity
8
SK2
62
256
6
ByLayer
370
13
48
1
60
0
100
AcDbDimension
2
_U4
10
34.9388
20
-21.343428
30
0
11
-0.5306
21
-21.343428
31
0
70
32
71
1
72
1
41
1
210
0
220
0
230
1
3
Standard
100
AcDbAlignedDimension
13
-36
23
-3
33
0
14
34.9388
24
-2.85
34
0
50
0
100
AcDbRotatedDimension
1001
ACAD
1000
DSTYLE
1002
{
1070
   371
1070
    13
1070
   372
1070
    13
1070
   170
1070
     0
1070
   144
1040
1.0
1070
   277
1070
     2
1070
   278
1070
    44
1070
   146
1040
1.0
1070
   345
1005
16
1070
   347
1005
16
1070
   346
1005
16
1070
   344
1005
0
1070
   343
1005
0
1070
   172
1070
     1
1070
    76
1070
     0
1070
    75
1070
     0
1070
   282
1070
     0
1070
   281
1070
     0
1070
    71
1070
     0
1070
    74
1070
     0
1070
   279
1070
     0
1070
   173
1070
     1
1070
   340
1005
E6
1070
   271
1070
     2
1070
   272
1070
     2
1070
    77
1070
     1
1070
    73
1070
     1
1070
   171
1070
     3
1070
   274
1070
     4
1070
   177
1070
    35
1070
   176
1070
    35
1070
   178
1070
    35
1070
    48
1040
-0.1
1070
    41
1040
3.5
1070
   147
1040
1.75
1070
    42
1040
1.5875
1070
    44
1040
2.0
1070
   140
1040
3.5
1002
}
1001
ACAD_DSTYLE_DIM_LINETYPE
1070
   380
1005
16
1001
ACAD_DSTYLE_DIM_EXT1_LINETYPE
1070
   381
1005
16
1001
ACAD_DSTYLE_DIM_EXT2_LINETYPE
1070
   382
1005
16
0
ENDSEC
0
SECTION
2
OBJECTS
0
DICTIONARY
5
1e9
330
0
100
AcDbDictionary
280
0
281
1
3
ACAD_GROUP
350
1ea
3
ACAD_MLINESTYLE
350
1eb
0
DICTIONARY
5
1ea
330
0
100
AcDbDictionary
280
0
281
1
0
DICTIONARY
5
1eb
330
0
100
AcDbDictionary
280
0
281
1
3
Standard
350
18
0
MLINESTYLE
5
18
330
1eb
100
AcDbMlineStyle
2
Standard
70
0
3

62
256
51
90
52
90
71
2
49
-0.5
62
256
6
ByLayer
49
0.5
62
256
6
ByLayer
0
RASTERVARIABLES
5
1d7
330

100
AcDbRasterVariables
90
0
70
1
71
1
72
1
0
ENDSEC
0
EOF
