0
SECTION
2
HEADER
9
$ACADVER
1
AC1015
9
$DWGCODEPAGE
3
ANSI_1252
9
$HANDSEED
5
20a
9
$ANGBASE
50
0
9
$ANGDIR
70
0
9
$ATTMODE
70
1
9
$AUNITS
70
0
9
$AUPREC
70
0
9
$CECOLOR
62
256
9
$CELTSCALE
40
1
9
$CELTYPE
6
ByLayer
9
$CELWEIGHT
370
18
9
$CLAYER
8
0
9
$CMLJUST
70
0
9
$CMLSCALE
40
1
9
$CMLSTYLE
2
Standard
9
$DIMSTYLE
2
Standard
9
$TEXTSIZE
40
0.2
9
$TEXTSTYLE
7
Standard
9
$LUNITS
70
2
9
$LUPREC
70
4
9
$EXTNAMES
290
1
9
$INSUNITS
70
4
9
$LTSCALE
40
1
9
$LWDISPLAY
290
1
9
$PDMODE
70
0
9
$PDSIZE
40
0
9
$PLINEGEN
70
0
0
ENDSEC
0
SECTION
2
CLASSES
0
CLASS
1
RASTERVARIABLES
2
AcDbRasterVariables
3
ISM
90
0
280
0
281
0
0
ENDSEC
0
SECTION
2
TABLES
0
TABLE
2
VPORT
5
200
100
AcDbSymbolTable
0
VPORT
5
1
100
AcDbSymbolTableRecord
100
AcDbViewportTableRecord
2
*Active
70
0
10
0
20
0
11
1
21
1
12
-1
22
1
13
0
23
0
14
0.5
24
0.5
15
10
25
10
16
0
26
0
36
1
17
0
27
0
37
0
0
ENDTAB
0
TABLE
2
LTYPE
5
201
100
AcDbSymbolTable
0
LTYPE
5
14
100
AcDbSymbolTableRecord
100
AcDbLinetypeTableRecord
70
0
2
ByBlock
3

72
65
73
0
40
0
0
LTYPE
5
15
100
AcDbSymbolTableRecord
100
AcDbLinetypeTableRecord
70
0
2
ByLayer
3

72
65
73
0
40
0
0
LTYPE
5
16
100
AcDbSymbolTableRecord
100
AcDbLinetypeTableRecord
70
0
2
Continuous
3
Solid line
72
65
73
0
40
0
0
LTYPE
5
6E
100
AcDbSymbolTableRecord
100
AcDbLinetypeTableRecord
70
0
2
CENTER
3
____ _ ____ _ ____ _ ____
72
65
73
4
40
47.5
49
22
74
0
49
-8.5
74
0
49
8.5
74
0
49
-8.5
74
0
0
LTYPE
5
6F
100
AcDbSymbolTableRecord
100
AcDbLinetypeTableRecord
70
0
2
DASHED
3
__ __ __ __ __ __ __ __ __
72
65
73
2
40
25.72
49
12.86
74
0
49
-12.86
74
0
0
ENDTAB
0
TABLE
2
LAYER
5
202
100
AcDbSymbolTable
0
LAYER
5
10
100
AcDbSymbolTableRecord
100
AcDbLayerTableRecord
2
0
70
0
62
7
6
Continuous
290
1
370
-3
390
0
0
LAYER
5
71
100
AcDbSymbolTableRecord
100
AcDbLayerTableRecord
2
80
70
0
62
-6
6
Continuous
290
1
370
-3
390
0
0
LAYER
5
73
100
AcDbSymbolTableRecord
100
AcDbLayerTableRecord
2
81
70
0
62
-3
6
Continuous
290
1
370
-3
390
0
0
LAYER
5
75
100
AcDbSymbolTableRecord
100
AcDbLayerTableRecord
2
1
70
0
62
4
6
Continuous
290
1
370
-3
390
0
0
LAYER
5
85
100
AcDbSymbolTableRecord
100
AcDbLayerTableRecord
2
4
70
0
62
-2
6
CENTER
290
1
370
-3
390
0
0
LAYER
5
A0
100
AcDbSymbolTableRecord
100
AcDbLayerTableRecord
2
2
70
0
62
7
6
Continuous
290
1
370
-3
390
0
0
LAYER
5
115
100
AcDbSymbolTableRecord
100
AcDbLayerTableRecord
2
Defpoints
70
0
62
7
6
Continuous
290
0
370
-3
390
0
0
LAYER
5
1ec
100
AcDbSymbolTableRecord
100
AcDbLayerTableRecord
2
SK1
70
0
62
4
6
Continuous
290
1
370
-3
390
0
0
LAYER
5
1ed
100
AcDbSymbolTableRecord
100
AcDbLayerTableRecord
2
SK4
70
0
62
2
6
CENTER
290
1
370
-3
390
0
0
LAYER
5
1ee
100
AcDbSymbolTableRecord
100
AcDbLayerTableRecord
2
SK2
70
0
62
7
6
Continuous
290
1
370
-3
390
0
0
LAYER
5
1ef
100
AcDbSymbolTableRecord
100
AcDbLayerTableRecord
2
SK6
70
0
62
5
6
Continuous
290
1
370
-3
390
0
0
ENDTAB
0
TABLE
2
STYLE
5
203
100
AcDbSymbolTable
0
STYLE
5
11
100
AcDbSymbolTableRecord
100
AcDbTextStyleTableRecord
2
Standard
3
txt
70
0
71
0
40
0
41
1
42
0
50
0
0
STYLE
5
FA
100
AcDbSymbolTableRecord
100
AcDbTextStyleTableRecord
2
iso_b_vert
3
simplex.shx
70
0
71
0
40
0
41
1
42
0
50
0
0
STYLE
5
FB
100
AcDbSymbolTableRecord
100
AcDbTextStyleTableRecord
2
DWGDirectTextStyle
3
simplex
70
0
71
0
40
0
41
1
42
0
50
0
0
ENDTAB
0
TABLE
2
DIMSTYLE
5
204
100
AcDbSymbolTable
100
AcDbDimStyleTable
0
DIMSTYLE
105
27
100
AcDbSymbolTableRecord
100
AcDbDimStyleTableRecord
2
Standard
70
0
3
<>
41
0.18
42
0.0625
44
0.18
140
0.18
147
0.09
73
0
74
0
77
1
271
2
275
0
278
52
280
0
340
11
0
ENDTAB
0
TABLE
2
VIEW
5
205
100
AcDbSymbolTable
0
ENDTAB
0
TABLE
2
UCS
5
206
100
AcDbSymbolTable
0
ENDTAB
0
TABLE
2
APPID
5
207
100
AcDbSymbolTable
0
APPID
5
12
100
AcDbSymbolTableRecord
100
AcDbRegAppTableRecord
2
ACAD
70
0
0
APPID
5
111
100
AcDbSymbolTableRecord
100
AcDbRegAppTableRecord
2
ACAD_DSTYLE_DIMBREAK
70
0
0
APPID
5
1AB
100
AcDbSymbolTableRecord
100
AcDbRegAppTableRecord
2
ACAD_DSTYLE_DIM_LINETYPE
70
0
0
APPID
5
1AC
100
AcDbSymbolTableRecord
100
AcDbRegAppTableRecord
2
ACAD_DSTYLE_DIM_EXT1_LINETYPE
70
0
0
APPID
5
1AD
100
AcDbSymbolTableRecord
100
AcDbRegAppTableRecord
2
ACAD_DSTYLE_DIM_EXT2_LINETYPE
70
0
0
APPID
5
1E8
100
AcDbSymbolTableRecord
100
AcDbRegAppTableRecord
2
ACAD_MLEADERVER
70
0
0
ENDTAB
0
TABLE
2
BLOCK_RECORD
5
208
100
AcDbSymbolTable
0
BLOCK_RECORD
5
1F
100
AcDbSymbolTableRecord
100
AcDbBlockTableRecord
2
*Model_Space
340
0
70
0
0
BLOCK_RECORD
5
1B
100
AcDbSymbolTableRecord
100
AcDbBlockTableRecord
2
*Paper_Space
340
0
70
0
0
BLOCK_RECORD
5
23
100
AcDbSymbolTableRecord
100
AcDbBlockTableRecord
2
*Paper_Space0
340
0
70
0
0
BLOCK_RECORD
5
116
100
AcDbSymbolTableRecord
100
AcDbBlockTableRecord
2
*D1
340
0
70
0
0
BLOCK_RECORD
5
122
100
AcDbSymbolTableRecord
100
AcDbBlockTableRecord
2
_U0
340
0
70
0
0
BLOCK_RECORD
5
12E
100
AcDbSymbolTableRecord
100
AcDbBlockTableRecord
2
*D3
340
0
70
0
0
BLOCK_RECORD
5
13A
100
AcDbSymbolTableRecord
100
AcDbBlockTableRecord
2
_U1
340
0
70
0
0
BLOCK_RECORD
5
146
100
AcDbSymbolTableRecord
100
AcDbBlockTableRecord
2
*D5
340
0
70
0
0
BLOCK_RECORD
5
152
100
AcDbSymbolTableRecord
100
AcDbBlockTableRecord
2
_U2
340
0
70
0
0
BLOCK_RECORD
5
15E
100
AcDbSymbolTableRecord
100
AcDbBlockTableRecord
2
*D7
340
0
70
0
0
BLOCK_RECORD
5
16C
100
AcDbSymbolTableRecord
100
AcDbBlockTableRecord
2
_U3
340
0
70
0
0
BLOCK_RECORD
5
178
100
AcDbSymbolTableRecord
100
AcDbBlockTableRecord
2
*D9
340
0
70
0
0
BLOCK_RECORD
5
184
100
AcDbSymbolTableRecord
100
AcDbBlockTableRecord
2
_U4
340
0
70
0
0
ENDTAB
0
ENDSEC
0
SECTION
2
BLOCKS
0
BLOCK
5
20
100
AcDbEntity
8
0
100
AcDbBlockBegin
2
*Model_Space
70
0
10
0
20
0
30
0
3
*Model_Space
0
ENDBLK
5
21
100
AcDbEntity
8
0
100
AcDbBlockEnd
0
BLOCK
5
1C
100
AcDbEntity
8
0
100
AcDbBlockBegin
2
*Paper_Space
70
0
10
0
20
0
30
0
3
*Paper_Space
0
ENDBLK
5
1D
100
AcDbEntity
8
0
100
AcDbBlockEnd
0
BLOCK
5
24
100
AcDbEntity
8
0
100
AcDbBlockBegin
2
*Paper_Space0
70
0
10
0
20
0
30
0
3
*Paper_Space0
0
ENDBLK
5
25
100
AcDbEntity
8
0
100
AcDbBlockEnd
0
BLOCK
5
117
100
AcDbEntity
8
0
100
AcDbBlockBegin
2
*D1
70
1
10
0
20
0
30
0
3
*D1
0
LINE
5
119
100
AcDbEntity
8
0
62
256
6
ByLayer
370
-2
48
1
60
0
100
AcDbLine
10
0
20
-1.5875
30
0
11
0
21
-14.763398
31
0
39
0
210
0
220
0
230
1
0
LINE
5
11A
100
AcDbEntity
8
0
62
256
6
ByLayer
370
-2
48
1
60
0
100
AcDbLine
10
60.0476
20
-4.1375
30
0
11
60.0476
21
-14.763398
31
0
39
0
210
0
220
0
230
1
0
LINE
5
11B
100
AcDbEntity
8
0
62
256
6
ByLayer
370
-2
48
1
60
0
100
AcDbLine
10
3.5
20
-12.763398
30
0
11
56.5476
21
-12.763398
31
0
39
0
210
0
220
0
230
1
0
SOLID
5
11C
100
AcDbEntity
8
0
62
256
6
ByLayer
370
-1
48
1
60
0
100
AcDbTrace
10
3.5
20
-12.180065
30
0
11
3.5
21
-13.346732
31
0
12
0
22
-12.763398
32
0
13
0
23
-12.763398
33
0
39
0
210
0
220
0
230
1
0
SOLID
5
11D
100
AcDbEntity
8
0
62
256
6
ByLayer
370
-1
48
1
60
0
100
AcDbTrace
10
56.5476
20
-13.346732
30
0
11
56.5476
21
-12.180065
31
0
12
60.0476
22
-12.763398
32
0
13
60.0476
23
-12.763398
33
0
39
0
210
0
220
0
230
1
0
MTEXT
5
11E
100
AcDbEntity
8
0
62
256
6
ByLayer
370
18
48
1
60
0
100
AcDbMText
10
30.0238
20
-5.763398
30
0
210
0
220
0
230
1
1
\A1;60.05
40
3.5
41
0
44
1
50
0
71
5
72
5
7
iso_b_vert
0
POINT
5
11F
100
AcDbEntity
8
Defpoints
62
0
6
ByLayer
370
-1
48
1
60
0
100
AcDbPoint
10
0
20
0
30
0
39
0
210
0
220
0
230
1
50
360
0
POINT
5
120
100
AcDbEntity
8
Defpoints
62
0
6
ByLayer
370
-1
48
1
60
0
100
AcDbPoint
10
60.0476
20
-2.55
30
0
39
0
210
0
220
0
230
1
50
360
0
POINT
5
121
100
AcDbEntity
8
Defpoints
62
0
6
ByLayer
370
-1
48
1
60
0
100
AcDbPoint
10
60.0476
20
-12.763398
30
0
39
0
210
0
220
0
230
1
50
360
0
ENDBLK
5
118
100
AcDbEntity
8
0
100
AcDbBlockEnd
0
BLOCK
5
129
100
AcDbEntity
8
0
100
AcDbBlockBegin
2
_U0
70
0
10
0
20
0
30
0
3
_U0
0
MTEXT
5
123
100
AcDbEntity
8
2
62
256
6
ByLayer
370
13
48
1
60
0
100
AcDbMText
10
24.886501
20
-11.730765
30
0
210
0
220
0
230
1
1
\W0.7317;60,05
40
3.5
41
0
44
1.084337
50
0
71
7
72
5
7
iso_b_vert
0
LINE
5
124
100
AcDbEntity
8
2
62
256
6
ByLayer
370
13
48
1
60
0
100
AcDbLine
10
0
20
-1.5875
30
0
11
0
21
-14.763398
31
0
39
0
210
0
220
0
230
1
0
LINE
5
125
100
AcDbEntity
8
2
62
256
6
ByLayer
370
13
48
1
60
0
100
AcDbLine
10
60.0476
20
-4.1375
30
0
11
60.0476
21
-14.763398
31
0
39
0
210
0
220
0
230
1
0
LINE
5
126
100
AcDbEntity
8
2
62
256
6
ByLayer
370
13
48
1
60
0
100
AcDbLine
10
0
20
-12.763398
30
0
11
60.0476
21
-12.763398
31
0
39
0
210
0
220
0
230
1
0
SOLID
5
127
100
AcDbEntity
8
2
62
256
6
ByLayer
370
18
48
1
60
0
100
AcDbTrace
10
0
20
-12.763398
30
0
11
3.499998
21
-12.302615
31
0
12
3.500002
22
-13.224182
32
0
13
3.500002
23
-13.224182
33
0
39
0
210
0
220
0
230
1
0
SOLID
5
128
100
AcDbEntity
8
2
62
256
6
ByLayer
370
18
48
1
60
0
100
AcDbTrace
10
60.0476
20
-12.763398
30
0
11
56.547602
21
-13.224182
31
0
12
56.547598
22
-12.302615
32
0
13
56.547598
23
-12.302615
33
0
39
0
210
0
220
0
230
1
0
ENDBLK
5
12A
100
AcDbEntity
8
0
100
AcDbBlockEnd
0
BLOCK
5
12F
100
AcDbEntity
8
0
100
AcDbBlockBegin
2
*D3
70
1
10
0
20
0
30
0
3
*D3
0
LINE
5
131
100
AcDbEntity
8
0
62
256
6
ByLayer
370
-2
48
1
60
0
100
AcDbLine
10
-36
20
-4.5875
30
0
11
-36
21
-33.692985
31
0
39
0
210
0
220
0
230
1
0
LINE
5
132
100
AcDbEntity
8
0
62
256
6
ByLayer
370
-2
48
1
60
0
100
AcDbLine
10
61
20
-1.5875
30
0
11
61
21
-33.692985
31
0
39
0
210
0
220
0
230
1
0
LINE
5
133
100
AcDbEntity
8
0
62
256
6
ByLayer
370
-2
48
1
60
0
100
AcDbLine
10
-32.5
20
-31.692985
30
0
11
57.5
21
-31.692985
31
0
39
0
210
0
220
0
230
1
0
SOLID
5
134
100
AcDbEntity
8
0
62
256
6
ByLayer
370
-1
48
1
60
0
100
AcDbTrace
10
-32.5
20
-31.109652
30
0
11
-32.5
21
-32.276319
31
0
12
-36
22
-31.692985
32
0
13
-36
23
-31.692985
33
0
39
0
210
0
220
0
230
1
0
SOLID
5
135
100
AcDbEntity
8
0
62
256
6
ByLayer
370
-1
48
1
60
0
100
AcDbTrace
10
57.5
20
-32.276319
30
0
11
57.5
21
-31.109652
31
0
12
61
22
-31.692985
32
0
13
61
23
-31.692985
33
0
39
0
210
0
220
0
230
1
0
MTEXT
5
136
100
AcDbEntity
8
0
62
256
6
ByLayer
370
18
48
1
60
0
100
AcDbMText
10
12.5
20
-24.692985
30
0
210
0
220
0
230
1
1
\A1;97.00
40
3.5
41
0
44
1
50
0
71
5
72
5
7
iso_b_vert
0
POINT
5
137
100
AcDbEntity
8
Defpoints
62
0
6
ByLayer
370
-1
48
1
60
0
100
AcDbPoint
10
-36
20
-3
30
0
39
0
210
0
220
0
230
1
50
360
0
POINT
5
138
100
AcDbEntity
8
Defpoints
62
0
6
ByLayer
370
-1
48
1
60
0
100
AcDbPoint
10
61
20
0
30
0
39
0
210
0
220
0
230
1
50
360
0
POINT
5
139
100
AcDbEntity
8
Defpoints
62
0
6
ByLayer
370
-1
48
1
60
0
100
AcDbPoint
10
61
20
-31.692985
30
0
39
0
210
0
220
0
230
1
50
360
0
ENDBLK
5
130
100
AcDbEntity
8
0
100
AcDbBlockEnd
0
BLOCK
5
141
100
AcDbEntity
8
0
100
AcDbBlockBegin
2
_U1
70
0
10
0
20
0
30
0
3
_U1
0
MTEXT
5
13B
100
AcDbEntity
8
SK2
62
256
6
ByLayer
370
13
48
1
60
0
100
AcDbMText
10
7.362701
20
-30.660352
30
0
210
0
220
0
230
1
1
\W0.7317;97,00
40
3.5
41
0
44
1.084337
50
0
71
7
72
5
7
iso_b_vert
0
LINE
5
13C
100
AcDbEntity
8
SK2
62
256
6
ByLayer
370
13
48
1
60
0
100
AcDbLine
10
-36
20
-4.5875
30
0
11
-36
21
-33.692985
31
0
39
0
210
0
220
0
230
1
0
LINE
5
13D
100
AcDbEntity
8
SK2
62
256
6
ByLayer
370
13
48
1
60
0
100
AcDbLine
10
61
20
-1.5875
30
0
11
61
21
-33.692985
31
0
39
0
210
0
220
0
230
1
0
LINE
5
13E
100
AcDbEntity
8
SK2
62
256
6
ByLayer
370
13
48
1
60
0
100
AcDbLine
10
-36
20
-31.692985
30
0
11
61
21
-31.692985
31
0
39
0
210
0
220
0
230
1
0
SOLID
5
13F
100
AcDbEntity
8
SK2
62
256
6
ByLayer
370
18
48
1
60
0
100
AcDbTrace
10
-36
20
-31.692985
30
0
11
-32.500002
21
-31.232202
31
0
12
-32.499998
22
-32.153769
32
0
13
-32.499998
23
-32.153769
33
0
39
0
210
0
220
0
230
1
0
SOLID
5
140
100
AcDbEntity
8
SK2
62
256
6
ByLayer
370
18
48
1
60
0
100
AcDbTrace
10
61
20
-31.692985
30
0
11
57.500002
21
-32.153769
31
0
12
57.499998
22
-31.232202
32
0
13
57.499998
23
-31.232202
33
0
39
0
210
0
220
0
230
1
0
ENDBLK
5
142
100
AcDbEntity
8
0
100
AcDbBlockEnd
0
BLOCK
5
147
100
AcDbEntity
8
0
100
AcDbBlockBegin
2
*D5
70
1
10
0
20
0
30
0
3
*D5
0
LINE
5
149
100
AcDbEntity
8
0
62
256
6
ByLayer
370
-2
48
1
60
0
100
AcDbLine
10
19.25
20
4.1375
30
0
11
19.25
21
16.159119
31
0
39
0
210
0
220
0
230
1
0
LINE
5
14A
100
AcDbEntity
8
0
62
256
6
ByLayer
370
-2
48
1
60
0
100
AcDbLine
10
61
20
1.5875
30
0
11
61
21
16.159119
31
0
39
0
210
0
220
0
230
1
0
LINE
5
14B
100
AcDbEntity
8
0
62
256
6
ByLayer
370
-2
48
1
60
0
100
AcDbLine
10
22.75
20
14.159119
30
0
11
57.5
21
14.159119
31
0
39
0
210
0
220
0
230
1
0
SOLID
5
14C
100
AcDbEntity
8
0
62
256
6
ByLayer
370
-1
48
1
60
0
100
AcDbTrace
10
22.75
20
14.742453
30
0
11
22.75
21
13.575786
31
0
12
19.25
22
14.159119
32
0
13
19.25
23
14.159119
33
0
39
0
210
0
220
0
230
1
0
SOLID
5
14D
100
AcDbEntity
8
0
62
256
6
ByLayer
370
-1
48
1
60
0
100
AcDbTrace
10
57.5
20
13.575786
30
0
11
57.5
21
14.742453
31
0
12
61
22
14.159119
32
0
13
61
23
14.159119
33
0
39
0
210
0
220
0
230
1
0
MTEXT
5
14E
100
AcDbEntity
8
0
62
256
6
ByLayer
370
18
48
1
60
0
100
AcDbMText
10
40.125
20
21.159119
30
0
210
0
220
0
230
1
1
\A1;41.75
40
3.5
41
0
44
1
50
0
71
5
72
5
7
iso_b_vert
0
POINT
5
14F
100
AcDbEntity
8
Defpoints
62
0
6
ByLayer
370
-1
48
1
60
0
100
AcDbPoint
10
19.25
20
2.55
30
0
39
0
210
0
220
0
230
1
50
360
0
POINT
5
150
100
AcDbEntity
8
Defpoints
62
0
6
ByLayer
370
-1
48
1
60
0
100
AcDbPoint
10
61
20
0
30
0
39
0
210
0
220
0
230
1
50
360
0
POINT
5
151
100
AcDbEntity
8
Defpoints
62
0
6
ByLayer
370
-1
48
1
60
0
100
AcDbPoint
10
61
20
14.159119
30
0
39
0
210
0
220
0
230
1
50
360
0
ENDBLK
5
148
100
AcDbEntity
8
0
100
AcDbBlockEnd
0
BLOCK
5
159
100
AcDbEntity
8
0
100
AcDbBlockBegin
2
_U2
70
0
10
0
20
0
30
0
3
_U2
0
MTEXT
5
153
100
AcDbEntity
8
SK2
62
256
6
ByLayer
370
13
48
1
60
0
100
AcDbMText
10
35.240868
20
15.191753
30
0
210
0
220
0
230
1
1
\W0.6977;41,75
40
3.5
41
0
44
1.084337
50
0
71
7
72
5
7
iso_b_vert
0
LINE
5
154
100
AcDbEntity
8
SK2
62
256
6
ByLayer
370
13
48
1
60
0
100
AcDbLine
10
19.25
20
4.1375
30
0
11
19.25
21
16.159119
31
0
39
0
210
0
220
0
230
1
0
LINE
5
155
100
AcDbEntity
8
SK2
62
256
6
ByLayer
370
13
48
1
60
0
100
AcDbLine
10
61
20
1.5875
30
0
11
61
21
16.159119
31
0
39
0
210
0
220
0
230
1
0
LINE
5
156
100
AcDbEntity
8
SK2
62
256
6
ByLayer
370
13
48
1
60
0
100
AcDbLine
10
19.25
20
14.159119
30
0
11
61
21
14.159119
31
0
39
0
210
0
220
0
230
1
0
SOLID
5
157
100
AcDbEntity
8
SK2
62
256
6
ByLayer
370
18
48
1
60
0
100
AcDbTrace
10
19.25
20
14.159119
30
0
11
22.749998
21
14.619903
31
0
12
22.750002
22
13.698335
32
0
13
22.750002
23
13.698335
33
0
39
0
210
0
220
0
230
1
0
SOLID
5
158
100
AcDbEntity
8
SK2
62
256
6
ByLayer
370
18
48
1
60
0
100
AcDbTrace
10
61
20
14.159119
30
0
11
57.500002
21
13.698335
31
0
12
57.499998
22
14.619903
32
0
13
57.499998
23
14.619903
33
0
39
0
210
0
220
0
230
1
0
ENDBLK
5
15A
100
AcDbEntity
8
0
100
AcDbBlockEnd
0
BLOCK
5
15F
100
AcDbEntity
8
0
100
AcDbBlockBegin
2
*D7
70
1
10
0
20
0
30
0
3
*D7
0
LINE
5
161
100
AcDbEntity
8
0
62
256
6
ByLayer
370
-2
48
1
60
0
100
AcDbLine
10
61
20
-1.5875
30
0
11
61
21
-17.352503
31
0
39
0
210
0
220
0
230
1
0
LINE
5
162
100
AcDbEntity
8
0
62
256
6
ByLayer
370
-2
48
1
60
0
100
AcDbLine
10
60.0476
20
-4.1375
30
0
11
60.0476
21
-17.352503
31
0
39
0
210
0
220
0
230
1
0
LINE
5
163
100
AcDbEntity
8
0
62
256
6
ByLayer
370
-2
48
1
60
0
100
AcDbLine
10
61
20
-15.352503
30
0
11
89.166667
21
-15.352503
31
0
39
0
210
0
220
0
230
1
0
LINE
5
164
100
AcDbEntity
8
0
62
256
6
ByLayer
370
-2
48
1
60
0
100
AcDbLine
10
64.5
20
-15.352503
30
0
11
68
21
-15.352503
31
0
39
0
210
0
220
0
230
1
0
LINE
5
165
100
AcDbEntity
8
0
62
256
6
ByLayer
370
-2
48
1
60
0
100
AcDbLine
10
56.5476
20
-15.352503
30
0
11
53.0476
21
-15.352503
31
0
39
0
210
0
220
0
230
1
0
SOLID
5
166
100
AcDbEntity
8
0
62
256
6
ByLayer
370
-1
48
1
60
0
100
AcDbTrace
10
64.5
20
-14.76917
30
0
11
64.5
21
-15.935837
31
0
12
61
22
-15.352503
32
0
13
61
23
-15.352503
33
0
39
0
210
0
220
0
230
1
0
SOLID
5
167
100
AcDbEntity
8
0
62
256
6
ByLayer
370
-1
48
1
60
0
100
AcDbTrace
10
56.5476
20
-15.935837
30
0
11
56.5476
21
-14.76917
31
0
12
60.0476
22
-15.352503
32
0
13
60.0476
23
-15.352503
33
0
39
0
210
0
220
0
230
1
0
MTEXT
5
168
100
AcDbEntity
8
0
62
256
6
ByLayer
370
18
48
1
60
0
100
AcDbMText
10
78.583333
20
-8.352503
30
0
210
0
220
0
230
1
1
\A1;0.95
40
3.5
41
0
44
1
50
0
71
5
72
5
7
iso_b_vert
0
POINT
5
169
100
AcDbEntity
8
Defpoints
62
0
6
ByLayer
370
-1
48
1
60
0
100
AcDbPoint
10
61
20
0
30
0
39
0
210
0
220
0
230
1
50
360
0
POINT
5
16A
100
AcDbEntity
8
Defpoints
62
0
6
ByLayer
370
-1
48
1
60
0
100
AcDbPoint
10
60.0476
20
-2.55
30
0
39
0
210
0
220
0
230
1
50
360
0
POINT
5
16B
100
AcDbEntity
8
Defpoints
62
0
6
ByLayer
370
-1
48
1
60
0
100
AcDbPoint
10
60.0476
20
-15.352503
30
0
39
0
210
0
220
0
230
1
50
360
0
ENDBLK
5
160
100
AcDbEntity
8
0
100
AcDbBlockEnd
0
BLOCK
5
173
100
AcDbEntity
8
0
100
AcDbBlockBegin
2
_U3
70
0
10
0
20
0
30
0
3
_U3
0
MTEXT
5
16D
100
AcDbEntity
8
SK2
62
256
6
ByLayer
370
13
48
1
60
0
100
AcDbMText
10
67.15186
20
-14.31987
30
0
210
0
220
0
230
1
1
\W0.7150;0,95
40
3.5
41
0
44
1.084337
50
0
71
7
72
5
7
iso_b_vert
0
LINE
5
16E
100
AcDbEntity
8
SK2
62
256
6
ByLayer
370
13
48
1
60
0
100
AcDbLine
10
61
20
-1.5875
30
0
11
61
21
-17.352503
31
0
39
0
210
0
220
0
230
1
0
LINE
5
16F
100
AcDbEntity
8
SK2
62
256
6
ByLayer
370
13
48
1
60
0
100
AcDbLine
10
60.0476
20
-4.1375
30
0
11
60.0476
21
-17.352503
31
0
39
0
210
0
220
0
230
1
0
LINE
5
170
100
AcDbEntity
8
SK2
62
256
6
ByLayer
370
13
48
1
60
0
100
AcDbLine
10
51.2976
20
-15.352503
30
0
11
74.996491
21
-15.352503
31
0
39
0
210
0
220
0
230
1
0
SOLID
5
171
100
AcDbEntity
8
SK2
62
256
6
ByLayer
370
18
48
1
60
0
100
AcDbTrace
10
61
20
-15.352503
30
0
11
64.499998
21
-14.891719
31
0
12
64.500002
22
-15.813287
32
0
13
64.500002
23
-15.813287
33
0
39
0
210
0
220
0
230
1
0
SOLID
5
172
100
AcDbEntity
8
SK2
62
256
6
ByLayer
370
18
48
1
60
0
100
AcDbTrace
10
60.0476
20
-15.352503
30
0
11
56.547602
21
-15.813287
31
0
12
56.547598
22
-14.891719
32
0
13
56.547598
23
-14.891719
33
0
39
0
210
0
220
0
230
1
0
ENDBLK
5
174
100
AcDbEntity
8
0
100
AcDbBlockEnd
0
BLOCK
5
179
100
AcDbEntity
8
0
100
AcDbBlockBegin
2
*D9
70
1
10
0
20
0
30
0
3
*D9
0
LINE
5
17B
100
AcDbEntity
8
0
62
256
6
ByLayer
370
-2
48
1
60
0
100
AcDbLine
10
-36
20
-4.5875
30
0
11
-36
21
-23.343428
31
0
39
0
210
0
220
0
230
1
0
LINE
5
17C
100
AcDbEntity
8
0
62
256
6
ByLayer
370
-2
48
1
60
0
100
AcDbLine
10
60.0476
20
-4.1375
30
0
11
60.0476
21
-23.343428
31
0
39
0
210
0
220
0
230
1
0
LINE
5
17D
100
AcDbEntity
8
0
62
256
6
ByLayer
370
-2
48
1
60
0
100
AcDbLine
10
-32.5
20
-21.343428
30
0
11
56.5476
21
-21.343428
31
0
39
0
210
0
220
0
230
1
0
SOLID
5
17E
100
AcDbEntity
8
0
62
256
6
ByLayer
370
-1
48
1
60
0
100
AcDbTrace
10
-32.5
20
-20.760095
30
0
11
-32.5
21
-21.926762
31
0
12
-36
22
-21.343428
32
0
13
-36
23
-21.343428
33
0
39
0
210
0
220
0
230
1
0
SOLID
5
17F
100
AcDbEntity
8
0
62
256
6
ByLayer
370
-1
48
1
60
0
100
AcDbTrace
10
56.5476
20
-21.926762
30
0
11
56.5476
21
-20.760095
31
0
12
60.0476
22
-21.343428
32
0
13
60.0476
23
-21.343428
33
0
39
0
210
0
220
0
230
1
0
MTEXT
5
180
100
AcDbEntity
8
0
62
256
6
ByLayer
370
18
48
1
60
0
100
AcDbMText
10
12.0238
20
-14.343428
30
0
210
0
220
0
230
1
1
\A1;96.05
40
3.5
41
0
44
1
50
0
71
5
72
5
7
iso_b_vert
0
POINT
5
181
100
AcDbEntity
8
Defpoints
62
0
6
ByLayer
370
-1
48
1
60
0
100
AcDbPoint
10
-36
20
-3
30
0
39
0
210
0
220
0
230
1
50
360
0
POINT
5
182
100
AcDbEntity
8
Defpoints
62
0
6
ByLayer
370
-1
48
1
60
0
100
AcDbPoint
10
60.0476
20
-2.55
30
0
39
0
210
0
220
0
230
1
50
360
0
POINT
5
183
100
AcDbEntity
8
Defpoints
62
0
6
ByLayer
370
-1
48
1
60
0
100
AcDbPoint
10
60.0476
20
-21.343428
30
0
39
0
210
0
220
0
230
1
50
360
0
ENDBLK
5
17A
100
AcDbEntity
8
0
100
AcDbBlockEnd
0
BLOCK
5
18B
100
AcDbEntity
8
0
100
AcDbBlockBegin
2
_U4
70
0
10
0
20
0
30
0
3
_U4
0
MTEXT
5
185
100
AcDbEntity
8
SK2
62
256
6
ByLayer
370
13
48
1
60
0
100
AcDbMText
10
6.886501
20
-20.310795
30
0
210
0
220
0
230
1
1
\W0.7317;96,05
40
3.5
41
0
44
1.084337
50
0
71
7
72
5
7
iso_b_vert
0
LINE
5
186
100
AcDbEntity
8
SK2
62
256
6
ByLayer
370
13
48
1
60
0
100
AcDbLine
10
-36
20
-4.5875
30
0
11
-36
21
-23.343428
31
0
39
0
210
0
220
0
230
1
0
LINE
5
187
100
AcDbEntity
8
SK2
62
256
6
ByLayer
370
13
48
1
60
0
100
AcDbLine
10
60.0476
20
-4.1375
30
0
11
60.0476
21
-23.343428
31
0
39
0
210
0
220
0
230
1
0
LINE
5
188
100
AcDbEntity
8
SK2
62
256
6
ByLayer
370
13
48
1
60
0
100
AcDbLine
10
-36
20
-21.343428
30
0
11
60.0476
21
-21.343428
31
0
39
0
210
0
220
0
230
1
0
SOLID
5
189
100
AcDbEntity
8
SK2
62
256
6
ByLayer
370
18
48
1
60
0
100
AcDbTrace
10
-36
20
-21.343428
30
0
11
-32.500002
21
-20.882645
31
0
12
-32.499998
22
-21.804212
32
0
13
-32.499998
23
-21.804212
33
0
39
0
210
0
220
0
230
1
0
SOLID
5
18A
100
AcDbEntity
8
SK2
62
256
6
ByLayer
370
18
48
1
60
0
100
AcDbTrace
10
60.0476
20
-21.343428
30
0
11
56.547602
21
-21.804212
31
0
12
56.547598
22
-20.882645
32
0
13
56.547598
23
-20.882645
33
0
39
0
210
0
220
0
230
1
0
ENDBLK
5
18C
100
AcDbEntity
8
0
100
AcDbBlockEnd
0
ENDSEC
0
SECTION
2
ENTITIES
0
ARC
5
A9
100
AcDbEntity
8
1
62
256
6
ByLayer
370
18
48
1
60
0
100
AcDbCircle
39
0
10
1.25732
20
-3.294179
30
0
40
0.849999999999998
210
0
220
0
230
1
100
AcDbArc
50
89.896868
51
137.697375
0
ARC
5
AA
100
AcDbEntity
8
1
62
256
6
ByLayer
370
18
48
1
60
0
100
AcDbCircle
39
0
10
1.25732
20
3.294179
30
0
40
0.849999999999998
210
0
220
0
230
1
100
AcDbArc
50
222.302625
51
270.103132
0
ARC
5
AB
100
AcDbEntity
8
1
62
256
6
ByLayer
370
18
48
1
60
0
100
AcDbCircle
39
0
10
0
20
-2.15
30
0
40
0.850000000000003
210
0
220
0
230
1
100
AcDbArc
50
270
51
317.697375
0
ARC
5
AC
100
AcDbEntity
8
1
62
256
6
ByLayer
370
18
48
1
60
0
100
AcDbCircle
39
0
10
0
20
2.15
30
0
40
0.850000000000003
210
0
220
0
230
1
100
AcDbArc
50
42.302625
51
90
0
ELLIPSE
5
AD
100
AcDbEntity
8
1
62
256
6
ByLayer
370
13
48
1
60
0
100
AcDbEllipse
10
9.647385
20
-63.620754
30
0
11
49.7107490259033
21
55.652801443333
31
0
210
0
220
0
230
1
40
0.729268
41
0.956242400807096
42
0.962830657294833
0
ELLIPSE
5
AE
100
AcDbEntity
8
1
62
256
6
ByLayer
370
13
48
1
60
0
100
AcDbEllipse
10
10.494663
20
64.377568
30
0
11
-49.7107490259032
21
55.6528014433331
31
0
210
0
220
0
230
1
40
0.729268
41
2.21434668448998
42
2.25548117327756
0
ELLIPSE
5
AF
100
AcDbEntity
8
1
62
256
6
ByLayer
370
13
48
1
60
0
100
AcDbEllipse
10
105.194174
20
42.658776
30
0
11
-61.3999999999999
21
7.51908301246938E-15
31
0
210
0
220
0
230
1
40
0.99863
41
0.74888784457838
42
0.766831425452127
0
ELLIPSE
5
B0
100
AcDbEntity
8
1
62
256
6
ByLayer
370
13
48
1
60
0
100
AcDbEllipse
10
7.05985
20
-1.219016
30
0
11
0.125111252084705
21
0.272666783092106
31
0
210
0
220
0
230
1
40
0.206984
41
1.14308673738802
42
1.83946031278483
0
POINT
5
70
100
AcDbEntity
8
80
62
256
6
ByLayer
370
18
48
1
60
0
100
AcDbPoint
10
0
20
0
30
0
39
0
210
0
220
0
230
1
50
360
0
POINT
5
72
100
AcDbEntity
8
81
62
256
6
ByLayer
370
18
48
1
60
0
100
AcDbPoint
10
61
20
0
30
0
39
0
210
0
220
0
230
1
50
360
0
POINT
5
74
100
AcDbEntity
8
1
62
256
6
ByLayer
370
18
48
1
60
1
100
AcDbPoint
10
60.0476
20
-2.55
30
0
39
0
210
0
220
0
230
1
50
360
0
POINT
5
76
100
AcDbEntity
8
1
62
256
6
ByLayer
370
18
48
1
60
1
100
AcDbPoint
10
-36
20
-3
30
0
39
0
210
0
220
0
230
1
50
360
0
POINT
5
77
100
AcDbEntity
8
1
62
256
6
ByLayer
370
18
48
1
60
1
100
AcDbPoint
10
19.25
20
2.55
30
0
39
0
210
0
220
0
230
1
50
360
0
POINT
5
78
100
AcDbEntity
8
1
62
256
6
ByLayer
370
18
48
1
60
1
100
AcDbPoint
10
60.0476
20
-2.55
30
0
39
0
210
0
220
0
230
1
50
360
0
POINT
5
79
100
AcDbEntity
8
1
62
256
6
ByLayer
370
18
48
1
60
1
100
AcDbPoint
10
-36
20
-3
30
0
39
0
210
0
220
0
230
1
50
360
0
POINT
5
7A
100
AcDbEntity
8
1
62
256
6
ByLayer
370
18
48
1
60
1
100
AcDbPoint
10
60.0476
20
-2.55
30
0
39
0
210
0
220
0
230
1
50
360
0
SPLINE
5
B1
100
AcDbEntity
8
1
62
256
6
ByLayer
370
13
48
1
60
0
100
AcDbSpline
70
4
71
3
72
87
73
83
40
0
40
0
40
0
40
0
40
0.0095594461475216
40
0.0243602975307444
40
0.0465615746055787
40
0.0539620002971901
40
0.0687628516804129
40
0.0835637030636352
40
0.105764980138469
40
0.113165405830081
40
0.127966257213302
40
0.142767108596526
40
0.164968385671362
40
0.172368811362972
40
0.187169662746194
40
0.201970514129419
40
0.224171791204256
40
0.231572216895863
40
0.246373068279086
40
0.261173919662309
40
0.283375196737145
40
0.290775622428754
40
0.305576473811974
40
0.320377325195201
40
0.342578602270033
40
0.349979027961645
40
0.364779879344868
40
0.379580730728092
40
0.405482220648729
40
0.409182433494536
40
0.41658285918615
40
0.423983284877759
40
0.438784136260981
40
0.446184561952593
40
0.453584987644208
40
0.460985413335816
40
0.468385839027426
40
0.47578626471904
40
0.483186690410649
40
0.49798754179387
40
0.520188818868706
40
0.527589244560318
40
0.542390095943541
40
0.557190947326766
40
0.579392224401598
40
0.586792650093209
40
0.601593501476429
40
0.616394352859652
40
0.642295842780293
40
0.6459960556261
40
0.65339648131771
40
0.660796907009322
40
0.675597758392545
40
0.682998184084156
40
0.690398609775768
40
0.697799035467379
40
0.705199461158991
40
0.712599886850602
40
0.720000312542218
40
0.734801163925433
40
0.757002441000268
40
0.764402866691882
40
0.779203718075104
40
0.794004569458328
40
0.81620584653316
40
0.823606272224773
40
0.838407123607997
40
0.853207974991218
40
0.879109464911859
40
0.882809677757664
40
0.890210103449276
40
0.897610529140887
40
0.912411380524109
40
0.919811806215719
40
0.927212231907333
40
0.934612657598941
40
0.942013083290555
40
0.949413508982165
40
0.956813934673778
40
0.971614786056998
40
0.993816063131833
40
1
40
1
40
1
40
1
41
1.00000000000001
10
52.2042528131048
20
-0.0226397822027023
30
0
41
1.00000000000001
10
52.1701923447705
20
-0.0153797802187511
30
0
41
1.00000000000001
10
52.0833943082078
20
0.0031127834610629
30
0
41
1.00000000000001
10
51.917492692378
20
0.0384552759212223
30
0
41
1.00000000000001
10
51.7592975491086
20
0.0722010870449019
30
0
41
1.00000000000001
10
51.6010997191061
20
0.105877782827888
30
0
41
1.00000000000001
10
51.4692572348018
20
0.133813534510209
30
0
41
1.00000000000001
10
51.2846800778188
20
0.172772693281841
30
0
41
1.00000000000001
10
51.1264849214154
20
0.206059603415978
30
0
41
1.00000000000001
10
50.9682871575385
20
0.239153754394065
30
0
41
1.00000000000001
10
50.836444767025
20
0.266522691285244
30
0
41
1.00000000000001
10
50.651867763303
20
0.304546799594786
30
0
41
1.00000000000001
10
50.4936727256517
20
0.336885138341782
30
0
41
1.00000000000001
10
50.3354750252249
20
0.368907294883595
30
0
41
1.00000000000001
10
50.2036326392051
20
0.395302429212873
30
0
41
1.00000000000001
10
50.0190555698962
20
0.431823597587307
30
0
41
1.00000000000001
10
49.8608604243632
20
0.462729570577348
30
0
41
1.00000000000001
10
49.7026626041347
20
0.493202163675757
30
0
41
1.00000000000001
10
49.5708201186872
20
0.518231225458801
30
0
41
1.00000000000001
10
49.3862429222653
20
0.552708581946997
30
0
41
1.00000000000001
10
49.2280476906298
20
0.581725750189486
30
0
41
1.00000000000001
10
49.0698498164297
20
0.610198843353681
30
0
41
1.00000000000001
10
48.9380072907919
20
0.633492154440597
30
0
41
1.00000000000001
10
48.7534300375312
20
0.665416524792812
30
0
41
1.00000000000001
10
48.5952347690603
20
0.692116693520739
30
0
41
1.00000000000001
10
48.4370368731736
20
0.71817074530403
30
0
41
1.00000000000001
10
48.3051944060751
20
0.739385510868254
30
0
41
1.00000000000001
10
48.1074292022776
20
0.770320949700015
30
0
41
1.00000000000001
10
47.9492377404378
20
0.794249974026279
30
0
41
1.00000000000001
10
47.8174147453566
20
0.813613419306726
30
0
41
1.00000000000001
10
47.7514951866044
20
0.823115259733633
30
0
41
1.00000000000001
10
47.6460227432776
20
0.838048235282791
30
0
41
1.00000000000001
10
47.5405545589148
20
0.852629757403654
30
0
41
1.00000000000001
10
47.4350893793658
20
0.86684982528731
30
0
41
1.00000000000001
10
47.3559882816414
20
0.877290104531645
30
0
41
1.00000000000001
10
47.2768872443427
20
0.887528136628155
30
0
41
1.00000000000001
10
47.1977852066926
20
0.897561545603813
30
0
41
1.00000000000001
10
47.1186825892463
20
0.907388090724985
30
0
41
1.00000000000001
10
47.0132089523302
20
0.920179061576667
30
0
41
1.00000000000001
10
46.8549931961213
20
0.938684229265212
30
0
41
1.00000000000001
10
46.6967979772519
20
0.956255612660604
30
0
41
1.00000000000001
10
46.5386001578803
20
0.972937433389765
30
0
41
1.00000000000001
10
46.4067576642474
20
0.986201117150008
30
0
41
1.00000000000001
10
46.2221803989185
20
1.00371037978706
30
0
41
1.00000000000001
10
46.0639850674429
20
1.01765360367184
30
0
41
1.00000000000001
10
45.9057870714809
20
1.03064765380653
30
0
41
1.00000000000001
10
45.773944492469
20
1.04080700394163
30
0
41
1.00000000000001
10
45.5761790770365
20
1.05481951623545
30
0
41
1.00000000000001
10
45.4179874211214
20
1.06482086327894
30
0
41
1.00000000000001
10
45.2861642732015
20
1.07236136666022
30
0
41
1.00000000000001
10
45.2202446389917
20
1.07592493958579
30
0
41
1.00000000000001
10
45.1147720766677
20
1.08128316856388
30
0
41
1.00000000000001
10
45.0093037785892
20
1.08616892715093
30
0
41
1.00000000000001
10
44.9038385002763
20
1.09057647219722
30
0
41
1.00000000000001
10
44.8247373430286
20
1.09361150985577
30
0
41
1.00000000000001
10
44.7456362623171
20
1.0963934153002
30
0
41
1.00000000000001
10
44.6665341991846
20
1.09892002306073
30
0
41
1.00000000000001
10
44.5874315796967
20
1.10119150580268
30
0
41
1.00000000000001
10
44.4819579717836
20
1.10385759589257
30
0
41
1.00000000000001
10
44.3237423205061
20
1.10705946749018
30
0
41
1.00000000000001
10
44.1655472805406
20
1.10909022829693
30
0
41
1.00000000000001
10
44.007349665276
20
1.11008978366427
30
0
41
1.00000000000001
10
43.8755073482448
20
1.11022812028619
30
0
41
1.00000000000001
10
43.6909303163927
20
1.10923339737854
30
0
41
1.00000000000001
10
43.5327351451158
20
1.10716272030739
30
0
41
1.00000000000001
10
43.3745372456378
20
1.10406255468174
30
0
41
1.00000000000001
10
43.242694711951
20
1.10079515890486
30
0
41
1.00000000000001
10
43.0449293188889
20
1.09461641606591
30
0
41
1.00000000000001
10
42.8867376421524
20
1.08836057418246
30
0
41
1.00000000000001
10
42.7549144678053
20
1.08232416065655
30
0
41
1.00000000000001
10
42.6889948177051
20
1.07912100763817
30
0
41
1.00000000000001
10
42.5835222234411
20
1.07365991483942
30
0
41
1.00000000000001
10
42.4780538855597
20
1.06771689484028
30
0
41
1.00000000000001
10
42.372588567115
20
1.06129187492214
30
0
41
1.00000000000001
10
42.293487384777
20
1.05622045400994
30
0
41
1.00000000000001
10
42.2143862843005
20
1.05090479291706
30
0
41
1.00000000000001
10
42.1352842087596
20
1.04534345725118
30
0
41
1.00000000000001
10
42.0561815778313
20
1.03953901420902
30
0
41
1.00000000000001
10
41.9507079474389
20
1.03147103438197
30
0
41
1.00000000000001
10
41.7924922523145
20
1.01864284214056
30
0
41
1.00000000000001
10
41.6386312038682
20
1.00506186154248
30
0
41
1.00000000000001
10
41.5375002772043
20
0.995562274219727
30
0
41
1.00000000000001
10
41.5154676893007
20
0.993465231845837
30
0
0
SPLINE
5
B2
100
AcDbEntity
8
1
62
256
6
ByLayer
370
13
48
1
60
0
100
AcDbSpline
70
4
71
3
72
80
73
76
40
0
40
0
40
0
40
0
40
0.009051350632653
40
0.0178208077066992
40
0.0353597218547939
40
0.052898636002888
40
0.0835917357620557
40
0.0879764642990782
40
0.0967459213731255
40
0.105515378447173
40
0.123054292595268
40
0.131823749669315
40
0.140593206743362
40
0.14936266381741
40
0.158132120891457
40
0.166901577965504
40
0.175671035039552
40
0.193209949187645
40
0.219518320409788
40
0.228287777483835
40
0.245826691631931
40
0.263365605780024
40
0.289673977002167
40
0.298443434076214
40
0.315982348224309
40
0.333521262372403
40
0.364214362131568
40
0.368599090668593
40
0.37736854774264
40
0.386138004816687
40
0.403676918964782
40
0.412446376038829
40
0.421215833112877
40
0.429985290186924
40
0.438754747260971
40
0.447524204335019
40
0.456293661409066
40
0.47383257555716
40
0.500140946779302
40
0.50891040385335
40
0.526449318001444
40
0.543988232149539
40
0.570296603371681
40
0.579066060445729
40
0.596604974593823
40
0.614143888741917
40
0.644836988501083
40
0.649221717038107
40
0.657991174112154
40
0.666760631186202
40
0.684299545334296
40
0.693069002408344
40
0.701838459482391
40
0.710607916556438
40
0.719377373630485
40
0.728146830704533
40
0.73691628777858
40
0.754455201926675
40
0.780763573148817
40
0.789533030222864
40
0.807071944370959
40
0.824610858519054
40
0.850919229741195
40
0.859688686815243
40
0.877227600963337
40
0.894766515111432
40
0.925459614870598
40
0.929844343407622
40
0.938613800481668
40
0.947383257555716
40
0.958345078898275
40
0.964922171703811
40
0.971499264509346
40
0.982461085851905
40
1
40
1
40
1
40
1
41
1.00000000000001
10
19.5147691936629
20
-0.0248181146037607
30
0
41
1.00000000000001
10
19.4875554860833
20
-0.0190083733159552
30
0
41
1.00000000000001
10
19.4339757796524
20
-0.007565907772772
30
0
41
1.00000000000001
10
19.327662956749
20
0.0151418653215102
30
0
41
1.00000000000001
10
19.1958203721265
20
0.0432260584835827
30
0
41
1.00000000000001
10
18.9980548471361
20
0.0852640692116601
30
0
41
1.00000000000001
10
18.8398630257595
20
0.118914682543702
30
0
41
1.00000000000001
10
18.7080397295419
20
0.146893513274704
30
0
41
1.00000000000001
10
18.6421200205381
20
0.160808336208162
30
0
41
1.00000000000001
10
18.5366473417392
20
0.183005028845257
30
0
41
1.00000000000001
10
18.4311789378415
20
0.205148694590433
30
0
41
1.00000000000001
10
18.3257135759931
20
0.227227538691663
30
0
41
1.00000000000001
10
18.2466123687357
20
0.243710217358282
30
0
41
1.00000000000001
10
18.1675112526442
20
0.260137154102066
30
0
41
1.00000000000001
10
18.0884091708971
20
0.276506643849044
30
0
41
1.00000000000001
10
18.0093065498904
20
0.292814063805705
30
0
41
1.00000000000001
10
17.9038329581105
20
0.314435504069164
30
0
41
1.00000000000001
10
17.7456173671013
20
0.3466056853141
30
0
41
1.00000000000001
10
17.5874224293588
20
0.378524069944515
30
0
41
1.00000000000001
10
17.4292249274951
20
0.410089313616392
30
0
41
1.00000000000001
10
17.2973827083113
20
0.436079841209302
30
0
41
1.00000000000001
10
17.1128058044948
20
0.471992626867173
30
0
41
1.00000000000001
10
16.9546107158218
20
0.502333168743088
30
0
41
1.00000000000001
10
16.7964128564082
20
0.53220419266466
30
0
41
1.00000000000001
10
16.6645703220595
20
0.556708985817944
30
0
41
1.00000000000001
10
16.4668048713069
20
0.592788017594353
30
0
41
1.00000000000001
10
16.3086131029137
20
0.621056548369688
30
0
41
1.00000000000001
10
16.1767898418976
20
0.644169236982998
30
0
41
1.00000000000001
10
16.1108701473546
20
0.65556972302374
30
0
41
1.00000000000001
10
16.0053974820056
20
0.673590744266073
30
0
41
1.00000000000001
10
15.899929075906
20
0.691336401720258
30
0
41
1.00000000000001
10
15.7944636967209
20
0.708795385823088
30
0
41
1.00000000000001
10
15.7153624725414
20
0.721699897646823
30
0
41
1.00000000000001
10
15.6362613353435
20
0.734437752181542
30
0
41
1.00000000000001
10
15.5571592291578
20
0.747006610976193
30
0
41
1.00000000000001
10
15.4780565766492
20
0.759403311077414
30
0
41
1.00000000000001
10
15.3725829300696
20
0.775664449545694
30
0
41
1.00000000000001
10
15.2143672340395
20
0.799471246835445
30
0
41
1.00000000000001
10
15.056172167157
20
0.822510353120769
30
0
41
1.00000000000001
10
14.897974533933
20
0.84478284516981
30
0
41
1.00000000000001
10
14.7661322065658
20
0.862774513183346
30
0
41
1.00000000000001
10
14.5815551680545
20
0.887033045650148
30
0
41
1.00000000000001
10
14.4233599982392
20
0.906903191073204
30
0
41
1.00000000000001
10
14.2651621034195
20
0.925927039125716
30
0
41
1.00000000000001
10
14.1333195855738
20
0.941165776808637
30
0
41
1.00000000000001
10
13.9355542431351
20
0.962908106244518
30
0
41
1.00000000000001
10
13.7773626252018
20
0.979226243349635
30
0
41
1.00000000000001
10
13.6455395009081
20
0.992101366759831
30
0
41
1.00000000000001
10
13.5796198752224
20
0.998337824288049
30
0
41
1.00000000000001
10
13.4741473171825
20
1.00799454052758
30
0
41
1.00000000000001
10
13.3686790101952
20
1.01721754650835
30
0
41
1.00000000000001
10
13.2632137170451
20
1.02599917640403
30
0
41
1.00000000000001
10
13.184112552148
20
1.03232686669806
30
0
41
1.00000000000001
10
13.1050114664557
20
1.03841623271011
30
0
41
1.00000000000001
10
13.0259094023109
20
1.04426497784063
30
0
41
1.00000000000001
10
12.9468067781138
20
1.04987226367367
30
0
41
1.00000000000001
10
12.841333150277
20
1.05699799593517
30
0
41
1.00000000000001
10
12.683117445734
20
1.06691654114288
30
0
41
1.00000000000001
10
12.5249223265902
20
1.0757323660104
30
0
41
1.00000000000001
10
12.3667246268586
20
1.0835472710872
30
0
41
1.00000000000001
10
12.234882240081
20
1.08936862687954
30
0
41
1.00000000000001
10
12.050305126383
20
1.09634908807589
30
0
41
1.00000000000001
10
11.8921099165484
20
1.10114234515438
30
0
41
1.00000000000001
10
11.7339120213936
20
1.10490783612606
30
0
41
1.00000000000001
10
11.6020695227927
20
1.10734627232022
30
0
41
1.00000000000001
10
11.4043042255526
20
1.1097082319027
30
0
41
1.00000000000001
10
11.246112649768
20
1.11028984376377
30
0
41
1.00000000000001
10
11.1142895502686
20
1.10994016234345
30
0
41
1.00000000000001
10
11.0483699299871
20
1.10956564974261
30
0
41
1.00000000000001
10
10.9626762414159
20
1.10880790329968
30
0
41
1.00000000000001
10
10.8835760927165
20
1.10782845872398
30
0
41
1.00000000000001
10
10.8110673101398
20
1.10669774249367
30
0
41
1.00000000000001
10
10.7385553181069
20
1.10537825032647
30
0
41
1.00000000000001
10
10.6330815192071
20
1.1031088635122
30
0
41
1.00000000000001
10
10.5473932943576
20
1.10085508094041
30
0
41
1.00000000000001
10
10.4946627049398
20
1.09930316024675
30
0
0
SPLINE
5
B3
100
AcDbEntity
8
1
62
256
6
ByLayer
370
18
48
1
60
0
100
AcDbSpline
70
4
71
3
72
44
73
40
40
0
40
0
40
0
40
0
40
0.0555617305931859
40
0.0555617305931859
40
0.111123461186372
40
0.111123461186372
40
0.166685191779558
40
0.166685191779558
40
0.222246922372743
40
0.222246922372743
40
0.277808652965929
40
0.277808652965929
40
0.333370383559115
40
0.333370383559115
40
0.388932114152301
40
0.388932114152301
40
0.444493844745487
40
0.444493844745487
40
0.500055575338673
40
0.500055575338673
40
0.555617305931859
40
0.555617305931859
40
0.611179036525045
40
0.611179036525045
40
0.666740767118231
40
0.666740767118231
40
0.722302497711417
40
0.722302497711417
40
0.777864228304602
40
0.777864228304602
40
0.833425958897788
40
0.833425958897788
40
0.861206824194381
40
0.861206824194381
40
0.888987689490974
40
0.888987689490974
40
0.944549420084159
40
0.944549420084159
40
1
40
1
40
1
40
1
41
1
10
9.19466772651387
20
0.803536933380855
30
0
41
1
10
9.45983759609584
20
0.689500713429396
30
0
41
1
10
9.72413843515477
20
0.572180398334069
30
0
41
1
10
10.2526827612191
20
0.33493881174482
30
0
41
1
10
10.5165854423281
20
0.214274813984048
30
0
41
1
10
11.045311238915
20
-0.0280412963126935
30
0
41
1
10
11.3107609880752
20
-0.149921812653247
30
0
41
1
10
11.8388946673924
20
-0.391163414454326
30
0
41
1
10
12.1018037453598
20
-0.510515055184044
30
0
41
1
10
12.6264198465154
20
-0.742568830744688
30
0
41
1
10
12.8879202519844
20
-0.856030969113675
30
0
41
1
10
13.410763887871
20
-1.07619559838795
30
0
41
1
10
13.6718893568247
20
-1.18316233020863
30
0
41
1
10
14.1949290539015
20
-1.38635633754751
30
0
41
1
10
14.4569479711856
20
-1.48262632811219
30
0
41
1
10
14.9822735744339
20
-1.66564881633076
30
0
41
1
10
15.2457088147589
20
-1.75188942012926
30
0
41
1
10
15.7756890548305
20
-1.90939829190444
30
0
41
1
10
16.0399588914956
20
-1.98049399976387
30
0
41
1
10
16.5682590874046
20
-2.1077129676643
30
0
41
1
10
16.8319067188569
20
-2.16558606642917
30
0
41
1
10
17.3604851147165
20
-2.2594380483732
30
0
41
1
10
17.6256947782021
20
-2.29719442458494
30
0
41
1
10
18.1547732984754
20
-2.35639893732568
30
0
41
1
10
18.4188560362744
20
-2.37814030236024
30
0
41
1
10
18.947041163826
20
-2.40136002425649
30
0
41
1
10
19.2109607883836
20
-2.40488470369576
30
0
41
1
10
19.7403220934011
20
-2.38978648878174
30
0
41
1
10
20.0055301015668
20
-2.37224669842044
30
0
41
1
10
20.534174170526
20
-2.32062767755775
30
0
41
1
10
20.7981796482338
20
-2.28718894432618
30
0
41
1
10
21.1944052325587
20
-2.22243450916179
30
0
41
1
10
21.3266083458286
20
-2.19857638135557
30
0
41
1
10
21.5911473114686
20
-2.14700865010531
30
0
41
1
10
21.7235773696343
20
-2.11907776356705
30
0
41
1
10
22.1208057989511
20
-2.02818935253885
30
0
41
1
10
22.384953996179
20
-1.95865262857507
30
0
41
1
10
22.912678930782
20
-1.80707647936103
30
0
41
1
10
23.1761875574915
20
-1.72531643096644
30
0
41
1
10
23.4399764955429
20
-1.63634496836818
30
0
0
SPLINE
5
B4
100
AcDbEntity
8
1
62
256
6
ByLayer
370
18
48
1
60
0
100
AcDbSpline
70
4
71
3
72
60
73
56
40
0
40
0
40
0
40
0
40
0.0294931093693366
40
0.0294931093693366
40
0.0676915414826889
40
0.0676915414826889
40
0.105889973596041
40
0.105889973596041
40
0.144088405709394
40
0.144088405709394
40
0.182286837822746
40
0.182286837822746
40
0.220485269936099
40
0.220485269936099
40
0.258683702049451
40
0.258683702049451
40
0.296882134162803
40
0.296882134162803
40
0.335080566276156
40
0.335080566276156
40
0.373278998389508
40
0.373278998389508
40
0.411477430502861
40
0.411477430502861
40
0.430576646559536
40
0.430576646559536
40
0.449675862616212
40
0.449675862616212
40
0.487874294729561
40
0.487874294729561
40
0.52607272684291
40
0.52607272684291
40
0.564271158956259
40
0.564271158956259
40
0.602469591069608
40
0.602469591069608
40
0.640668023182958
40
0.640668023182958
40
0.717064887409656
40
0.717064887409656
40
0.755263319523005
40
0.755263319523005
40
0.793461751636354
40
0.793461751636354
40
0.831660183749703
40
0.831660183749703
40
0.869858615863052
40
0.869858615863052
40
0.908057047976401
40
0.908057047976401
40
0.946255480089751
40
0.946255480089751
40
0.9844539122031
40
0.9844539122031
40
1
40
1
40
1
40
1
41
1
10
35.491011046749
20
2.42990587914542
30
0
41
1
10
35.6950091007064
20
2.43048985484708
30
0
41
1
10
35.8991633810423
20
2.42526120190189
30
0
41
1
10
36.368680324135
20
2.39943494571497
30
0
41
1
10
36.6323495337282
20
2.37542521234198
30
0
41
1
10
37.1578759917054
20
2.31171670014396
30
0
41
1
10
37.4198234931614
20
2.27155028380523
30
0
41
1
10
37.9431517257318
20
2.1722164723021
30
0
41
1
10
38.2044645847769
20
2.11347549671245
30
0
41
1
10
38.7276142667549
20
1.98186471468529
30
0
41
1
10
38.989352444975
20
1.9093279114106
30
0
41
1
10
39.5143796200996
20
1.74712229707205
30
0
41
1
10
39.7778322359825
20
1.65849736663938
30
0
41
1
10
40.3067574499813
20
1.46908066138931
30
0
41
1
10
40.5714428249164
20
1.36890953740624
30
0
41
1
10
41.0993401463753
20
1.15742655466531
30
0
41
1
10
41.3630856024736
20
1.04656444217943
30
0
41
1
10
41.8912813416228
20
0.818022746387896
30
0
41
1
10
42.1558559169602
20
0.699960855095242
30
0
41
1
10
42.6846102690403
20
0.459059169718501
30
0
41
1
10
42.9483688941185
20
0.336611624683684
30
0
41
1
10
43.4756717305762
20
0.0896231955624103
30
0
41
1
10
43.7393519767611
20
-0.0346207048450253
30
0
41
1
10
44.135822615903
20
-0.219941465523789
30
0
41
1
10
44.2681825870445
20
-0.281771949194507
30
0
41
1
10
44.5323570866749
20
-0.405229791129642
30
0
41
1
10
44.6641596499854
20
-0.466644143727507
30
0
41
1
10
45.0585273083296
20
-0.647738714802358
30
0
41
1
10
45.3203170578203
20
-0.765770995860805
30
0
41
1
10
45.8427843098384
20
-0.995195413316708
30
0
41
1
10
46.1036101601051
20
-1.10643037045819
30
0
41
1
10
46.624889655921
20
-1.32117596996403
30
0
41
1
10
46.8856368994448
20
-1.42311850781786
30
0
41
1
10
47.4081269330352
20
-1.61622345110015
30
0
41
1
10
47.6698135630926
20
-1.70745764678185
30
0
41
1
10
48.1950843719611
20
-1.87809684625969
30
0
41
1
10
48.4596380797326
20
-1.95607788022903
30
0
41
1
10
49.2516587032527
20
-2.16641143128018
30
0
41
1
10
49.7774763544552
20
-2.27678147276228
30
0
41
1
10
50.5696550227524
20
-2.38689069535434
30
0
41
1
10
50.8339506237605
20
-2.41412216614404
30
0
41
1
10
51.3612587667395
20
-2.44936201327749
30
0
41
1
10
51.6244646107409
20
-2.45828477781293
30
0
41
1
10
52.1515362715586
20
-2.45785045639505
30
0
41
1
10
52.4157793946631
20
-2.44770079442597
30
0
41
1
10
52.9437921364502
20
-2.40746015424057
30
0
41
1
10
53.2073167371515
20
-2.37814903611016
30
0
41
1
10
53.7341593269049
20
-2.30265267601734
30
0
41
1
10
53.9974285419445
20
-2.25575088090025
30
0
41
1
10
54.5251350694178
20
-2.14431521050469
30
0
41
1
10
54.7896482406928
20
-2.07989993814275
30
0
41
1
10
55.3149331301957
20
-1.93586532916194
30
0
41
1
10
55.5766423582128
20
-1.85671084720155
30
0
41
1
10
55.9439735756523
20
-1.73666719768309
30
0
41
1
10
56.0501452858268
20
-1.70077353573967
30
0
41
1
10
56.156274325162
20
-1.66378275960574
30
0
0
SPLINE
5
B5
100
AcDbEntity
8
1
62
256
6
ByLayer
370
18
48
1
60
0
100
AcDbSpline
70
4
71
3
72
24
73
20
40
0
40
0
40
0
40
0
40
0.0625000000000024
40
0.0625000000000024
40
0.125000000000005
40
0.125000000000005
40
0.250000000000009
40
0.250000000000009
40
0.312500000000012
40
0.312500000000012
40
0.375000000000014
40
0.375000000000014
40
0.500000000000013
40
0.500000000000013
40
0.625000000000011
40
0.625000000000011
40
0.750000000000009
40
0.750000000000009
40
1
40
1
40
1
40
1
41
1
10
4.72879886576376
20
-2.0754934043679
30
0
41
1
10
4.76976799857948
20
-2.04596714487693
30
0
41
1
10
4.82167841575944
20
-2.01898009465145
30
0
41
1
10
4.93242751025059
20
-1.97148190809978
30
0
41
1
10
4.99250344333984
20
-1.95035819567406
30
0
41
1
10
5.17859806308542
20
-1.89383722246254
30
0
41
1
10
5.30860607593985
20
-1.86540426177527
30
0
41
1
10
5.50849195034277
20
-1.83169754961907
30
0
41
1
10
5.57622350434724
20
-1.82200622420885
30
0
41
1
10
5.71181181987521
20
-1.80564056161583
30
0
41
1
10
5.77968739620576
20
-1.79895149417447
30
0
41
1
10
5.98352628959287
20
-1.78293128999769
30
0
41
1
10
6.11969945749183
20
-1.77762021801703
30
0
41
1
10
6.39253495839972
20
-1.77667892482009
30
0
41
1
10
6.5291987655923
20
-1.78107266145602
30
0
41
1
10
6.80301274177239
20
-1.7992366562998
30
0
41
1
10
6.9395087689515
20
-1.81302074732372
30
0
41
1
10
7.34168124469204
20
-1.86661194260623
30
0
41
1
10
7.60246590945724
20
-1.91906909773149
30
0
41
1
10
7.85562179602158
20
-1.98279645201527
30
0
0
SPLINE
5
B6
100
AcDbEntity
8
1
62
256
6
ByLayer
370
18
48
1
60
0
100
AcDbSpline
70
4
71
3
72
20
73
16
40
0
40
0
40
0
40
0
40
0.126358359319783
40
0.126358359319783
40
0.252716718639567
40
0.252716718639567
40
0.37907507795935
40
0.37907507795935
40
0.505433437279133
40
0.505433437279133
40
0.631791796598917
40
0.631791796598917
40
0.7581501559187
40
0.7581501559187
40
1
40
1
40
1
40
1
41
1
10
6.97222682299014
20
-1.26642694939756
30
0
41
1
10
7.25042159285215
20
-1.37907705057805
30
0
41
1
10
7.52866672492246
20
-1.48652436789683
30
0
41
1
10
8.08381280633171
20
-1.68742755229363
30
0
41
1
10
8.36083320546655
20
-1.78078219107107
30
0
41
1
10
8.91497565475251
20
-1.95164105176772
30
0
41
1
10
9.19198001253039
20
-2.02929973556712
30
0
41
1
10
9.74726622090668
20
-2.16709009269752
30
0
41
1
10
10.0253667142036
20
-2.22708551350272
30
0
41
1
10
10.5799340408366
20
-2.32727365354916
30
0
41
1
10
10.8568461964619
20
-2.36766978531412
30
0
41
1
10
11.411280109556
20
-2.42811899693044
30
0
41
1
10
11.6893273086144
20
-2.44817467022827
30
0
41
1
10
12.4983263122301
20
-2.47584637499043
30
0
41
1
10
13.0273094952051
20
-2.45543240599756
30
0
41
1
10
13.5586459168673
20
-2.39714190341923
30
0
0
SPLINE
5
B7
100
AcDbEntity
8
1
62
256
6
ByLayer
370
18
48
1
60
0
100
AcDbSpline
70
4
71
3
72
42
73
38
40
0
40
0
40
0
40
0
40
0.0424385021923963
40
0.0424385021923963
40
0.0896974728965279
40
0.0896974728965279
40
0.184215414304791
40
0.184215414304791
40
0.278733355713053
40
0.278733355713053
40
0.325992326417184
40
0.325992326417184
40
0.373251297121315
40
0.373251297121315
40
0.420510267825445
40
0.420510267825445
40
0.467769238529576
40
0.467769238529576
40
0.515028209233706
40
0.515028209233706
40
0.562287179937837
40
0.562287179937837
40
0.609546150641967
40
0.609546150641967
40
0.656805121346098
40
0.656805121346098
40
0.751323062754357
40
0.751323062754357
40
0.845841004162616
40
0.845841004162616
40
0.893099974866744
40
0.893099974866744
40
0.940358945570873
40
0.940358945570873
40
0.987617916275001
40
0.987617916275001
40
1
40
1
40
1
40
1
41
1
10
28.6749434500623
20
2.49352874674739
30
0
41
1
10
28.9232286717018
20
2.49389142840093
30
0
41
1
10
29.1713949071165
20
2.48574637274294
30
0
41
1
10
29.6964933708307
20
2.45059277315889
30
0
41
1
10
29.9740307066188
20
2.42145238368198
30
0
41
1
10
30.8044849814895
20
2.3039386816281
30
0
41
1
10
31.3559787659742
20
2.18520349063437
30
0
41
1
10
32.4650053886572
20
1.87638838874224
30
0
41
1
10
33.0164496597407
20
1.68826235032927
30
0
41
1
10
33.846404312383
20
1.36645990336308
30
0
41
1
10
34.1237483550847
20
1.25253096188996
30
0
41
1
10
34.6767564385237
20
1.01595973076582
30
0
41
1
10
34.952809915686
20
0.8929131532268
30
0
41
1
10
35.5054054326378
20
0.639974515145724
30
0
41
1
10
35.7823393926176
20
0.509812193641295
30
0
41
1
10
36.3359616009674
20
0.246159072930595
30
0
41
1
10
36.6120892467649
20
0.112983737679684
30
0
41
1
10
37.1644348379315
20
-0.153022681198735
30
0
41
1
10
37.4405592494172
20
-0.286049076351418
30
0
41
1
10
37.9939553846217
20
-0.54955125329144
30
0
41
1
10
38.2707573607958
20
-0.679950867587053
30
0
41
1
10
38.823145831284
20
-0.93269148978257
30
0
41
1
10
39.0991518071837
20
-1.05538956932796
30
0
41
1
10
39.6516047783229
20
-1.29184450077997
30
0
41
1
10
39.928691282442
20
-1.40556686696797
30
0
41
1
10
40.7581612711301
20
-1.72643718257146
30
0
41
1
10
41.3087003255473
20
-1.91431528847298
30
0
41
1
10
42.4161788697027
20
-2.22128457076786
30
0
41
1
10
42.9670221162663
20
-2.33899450435169
30
0
41
1
10
43.7958047732427
20
-2.45462814683017
30
0
41
1
10
44.0728552494146
20
-2.48301547053737
30
0
41
1
10
44.6252179423225
20
-2.51844599763743
30
0
41
1
10
44.900887314712
20
-2.52560479835302
30
0
41
1
10
45.4526839289854
20
-2.51861288964082
30
0
41
1
10
45.7291520127888
20
-2.50442593822171
30
0
41
1
10
46.0781074538089
20
-2.47320448145393
30
0
41
1
10
46.15050805731
20
-2.46600616541514
30
0
41
1
10
46.2228731619206
20
-2.45809843153694
30
0
0
SPLINE
5
B8
100
AcDbEntity
8
1
62
256
6
ByLayer
370
13
48
1
60
0
100
AcDbSpline
70
4
71
3
72
91
73
87
40
0
40
0
40
0
40
0
40
0.0066268276949322
40
0.0214342291756822
40
0.0362416306564313
40
0.0584527328775558
40
0.0658564336179298
40
0.0806638350986783
40
0.0954712365794283
40
0.121384189170741
40
0.125086039540928
40
0.132489740281302
40
0.139893441021677
40
0.154700842502427
40
0.162104543242802
40
0.169508243983176
40
0.176911944723551
40
0.184315645463926
40
0.191719346204301
40
0.199123046944675
40
0.213930448425424
40
0.23614155064655
40
0.243545251386924
40
0.258352652867673
40
0.273160054348421
40
0.295371156569547
40
0.302774857309921
40
0.317582258790671
40
0.332389660271421
40
0.354600762492544
40
0.362004463232919
40
0.376811864713667
40
0.391619266194417
40
0.41753221878573
40
0.421234069155917
40
0.428637769896292
40
0.436041470636666
40
0.450848872117415
40
0.45825257285779
40
0.465656273598166
40
0.47305997433854
40
0.480463675078915
40
0.487867375819289
40
0.495271076559664
40
0.510078478040414
40
0.532289580261537
40
0.539693281001913
40
0.554500682482662
40
0.569308083963412
40
0.591519186184535
40
0.59892288692491
40
0.61373028840566
40
0.628537689886409
40
0.654450642477721
40
0.658152492847908
40
0.665556193588283
40
0.672959894328658
40
0.687767295809407
40
0.695170996549781
40
0.702574697290156
40
0.709978398030531
40
0.717382098770906
40
0.724785799511281
40
0.732189500251655
40
0.746996901732405
40
0.769208003953529
40
0.776611704693904
40
0.791419106174656
40
0.806226507655404
40
0.828437609876526
40
0.835841310616901
40
0.850648712097651
40
0.865456113578399
40
0.891369066169712
40
0.895070916539899
40
0.902474617280274
40
0.909878318020649
40
0.924685719501398
40
0.932089420241773
40
0.939493120982146
40
0.946896821722524
40
0.954300522462897
40
0.961704223203272
40
0.969107923943644
40
0.983915325424395
40
1
40
1
40
1
40
1
41
1
10
38.194760801159
20
-0.994946399548041
30
0
41
1
10
38.1711594722371
20
-0.997181620101657
30
0
41
1
10
38.0948222948103
20
-1.00431294292733
30
0
41
1
10
37.9657594890298
20
-1.0158030862552
30
0
41
1
10
37.7811960994389
20
-1.03112872168501
30
0
41
1
10
37.6229851301968
20
-1.04310492393748
30
0
41
1
10
37.4647767972921
20
-1.054117547961
30
0
41
1
10
37.3329474040772
20
-1.06264867241853
30
0
41
1
10
37.1352048140664
20
-1.07418695647161
30
0
41
1
10
36.9769900456659
20
-1.0821160855501
30
0
41
1
10
36.8451411840786
20
-1.08791791283252
30
0
41
1
10
36.7792248160749
20
-1.09063146506023
30
0
41
1
10
36.6737597889314
20
-1.09462538340767
30
0
41
1
10
36.5682905216233
20
-1.09813228422485
30
0
41
1
10
36.4628182505891
20
-1.10115439054485
30
0
41
1
10
36.3837162440092
20
-1.10315079620094
30
0
41
1
10
36.3046141638213
20
-1.1048932163821
30
0
41
1
10
36.2255130694951
20
-1.10638403314545
30
0
41
1
10
36.1464125483537
20
-1.10762126330911
30
0
41
1
10
36.040948668442
20
-1.10890767647851
30
0
41
1
10
35.8827581510554
20
-1.11003483038263
30
0
41
1
10
35.7245471116472
20
-1.10997914070953
30
0
41
1
10
35.56633868671
20
-1.1089096045427
30
0
41
1
10
35.4345093017521
20
-1.10732037525131
30
0
41
1
10
35.249945904306
20
-1.10389441328636
30
0
41
1
10
35.0917349162842
20
-1.09975399611432
30
0
41
1
10
34.9335265455589
20
-1.09460364694149
30
0
41
1
10
34.8016971682158
20
-1.08961054666514
30
0
41
1
10
34.6171337299687
20
-1.08143429277973
30
0
41
1
10
34.4589227046789
20
-1.07325344490198
30
0
41
1
10
34.300714358377
20
-1.06409000167221
30
0
41
1
10
34.1688850079693
20
-1.05576629527261
30
0
41
1
10
33.9711425707004
20
-1.04202627324085
30
0
41
1
10
33.8129279784526
20
-1.02983756346225
30
0
41
1
10
33.6810792537168
20
-1.01893574081996
30
0
41
1
10
33.615162942345
20
-1.01328072976676
30
0
41
1
10
33.5096979690284
20
-1.00390284546683
30
0
41
1
10
33.4042287031812
20
-0.994090790705457
30
0
41
1
10
33.2987564048321
20
-0.983854070334274
30
0
41
1
10
33.2196543854343
20
-0.97592418229263
30
0
41
1
10
33.1405522969117
20
-0.967768983149909
30
0
41
1
10
33.0614512004162
20
-0.959392000538486
30
0
41
1
10
32.9823506731317
20
-0.950794239500681
30
0
41
1
10
32.8768867672523
20
-0.939004266177761
30
0
41
1
10
32.7186961782326
20
-0.920615990855566
30
0
41
1
10
32.5604850221757
20
-0.901306685199188
30
0
41
1
10
32.4022764542397
20
-0.881175081669966
30
0
41
1
10
32.2704469538569
20
-0.86380506111314
30
0
41
1
10
32.0858834466292
20
-0.838552627613495
30
0
41
1
10
31.9276724455145
20
-0.816034731496018
30
0
41
1
10
31.7694641661273
20
-0.792773083898652
30
0
41
1
10
31.6376348768249
20
-0.772844124789628
30
0
41
1
10
31.4398925138464
20
-0.742024079382759
30
0
41
1
10
31.2816779533677
20
-0.716568277177942
30
0
41
1
10
31.1498292258111
20
-0.69485659593974
30
0
41
1
10
31.0839129133443
20
-0.683836704018091
30
0
41
1
10
30.978447947668
20
-0.665976659854181
30
0
41
1
10
30.8729787024387
20
-0.647840352270947
30
0
41
1
10
30.767506434583
20
-0.629440899444916
30
0
41
1
10
30.6884044377641
20
-0.615470247616372
30
0
41
1
10
30.6093023708419
20
-0.601357388677627
30
0
41
1
10
30.530201293621
20
-0.587105900747389
30
0
41
1
10
30.4511007824466
20
-0.572719013416133
30
0
41
1
10
30.3456368937375
20
-0.553326912492253
30
0
41
1
10
30.187446319099
20
-0.523803188945749
30
0
41
1
10
30.029235153572
20
-0.493818136225656
30
0
41
1
10
29.8710265522176
20
-0.463386823409706
30
0
41
1
10
29.7391969979839
20
-0.437677121843962
30
0
41
1
10
29.5546333732018
20
-0.401214351678533
30
0
41
1
10
29.3964222455878
20
-0.369586806809195
30
0
41
1
10
29.2382138406076
20
-0.337624859923352
30
0
41
1
10
29.1063844517251
20
-0.310713966948924
30
0
41
1
10
28.9086419670957
20
-0.269961773259183
30
0
41
1
10
28.7504273590798
20
-0.237140792443199
30
0
41
1
10
28.6185786423987
20
-0.209652355881389
30
0
41
1
10
28.5526623467222
20
-0.1958220434704
30
0
41
1
10
28.4471974309253
20
-0.173619675575395
30
0
41
1
10
28.3417282651329
20
-0.151362786067239
30
0
41
1
10
28.2362560938854
20
-0.129065277515991
30
0
41
1
10
28.157154172801
20
-0.11229208202775
30
0
41
1
10
28.0780521829564
20
-0.0954928553209413
30
0
41
1
10
27.9989511816061
20
-0.0786704477194178
30
0
41
1
10
27.9198507437898
20
-0.0618296160593843
30
0
41
1
10
27.8143869487985
20
-0.0393312340310388
30
0
41
1
10
27.6780131196746
20
-0.0101810936938023
30
0
41
1
10
27.5679923915788
20
0.0132711356759785
30
0
41
1
10
27.5107070145172
20
0.0254723578405276
30
0
0
SPLINE
5
B9
100
AcDbEntity
8
1
62
256
6
ByLayer
370
18
48
1
60
0
100
AcDbSpline
70
4
71
3
72
8
73
4
40
0
40
0
40
0
40
0
40
1
40
1
40
1
40
1
41
1
10
60.1185365802323
20
2.53837304654323
30
0
41
1
10
60.1912477706255
20
2.35626820189145
30
0
41
1
10
60.2648429760705
20
2.17046541976259
30
0
41
1
10
60.3381838257371
20
1.98029289380642
30
0
0
SPLINE
5
BA
100
AcDbEntity
8
1
62
256
6
ByLayer
370
18
48
1
60
0
100
AcDbSpline
70
4
71
3
72
10
73
6
40
0
40
0
40
0
40
0
40
0.489487295114549
40
0.489487295114549
40
1
40
1
40
1
40
1
41
1
10
10.0809088161167
20
0.40904889117607
30
0
41
1
10
10.1576074233699
20
0.479832817530479
30
0
41
1
10
10.2339959909468
20
0.576766460785052
30
0
41
1
10
10.3766073911836
20
0.812151522023584
30
0
41
1
10
10.4421721931851
20
0.952074689476405
30
0
41
1
10
10.4946627049398
20
1.09930316024671
30
0
0
SPLINE
5
BB
100
AcDbEntity
8
1
62
256
6
ByLayer
370
18
48
1
60
0
100
AcDbSpline
70
4
71
4
72
10
73
5
40
0
40
0
40
0
40
0
40
0
40
1
40
1
40
1
40
1
40
1
41
1
10
10.9751808687372
20
2.44708873269173
30
0
41
1
10
10.8550513277879
20
2.11014233958048
30
0
41
1
10
10.7349217868385
20
1.77319594646923
30
0
41
1
10
10.6147922458892
20
1.43624955335798
30
0
41
1
10
10.4946627049398
20
1.09930316024673
30
0
0
SPLINE
5
BC
100
AcDbEntity
8
1
62
256
6
ByLayer
370
13
48
1
60
0
100
AcDbSpline
70
4
71
3
72
32
73
28
40
0
40
0
40
0
40
0
40
0.127145664484701
40
0.127145664484701
40
0.254291328969402
40
0.254291328969402
40
0.317864161211752
40
0.317864161211752
40
0.381436993454103
40
0.381436993454103
40
0.508582657938806
40
0.508582657938806
40
0.540369074059984
40
0.540369074059984
40
0.572155490181162
40
0.572155490181162
40
0.63572832242352
40
0.63572832242352
40
0.762873986908239
40
0.762873986908239
40
0.826446819150599
40
0.826446819150599
40
0.858233235271777
40
0.858233235271777
40
0.890019651392956
40
0.890019651392956
40
1
40
1
40
1
40
1
41
1
10
60.0185731117573
20
-2.32878634607638
30
0
41
1
10
59.4654127436228
20
-2.23893479837827
30
0
41
1
10
58.9167750558824
20
-2.11092299638187
30
0
41
1
10
57.8199457102861
20
-1.7893554423309
30
0
41
1
10
57.2711510518897
20
-1.59620943869143
30
0
41
1
10
56.4405250281184
20
-1.26842552756764
30
0
41
1
10
56.1645840890515
20
-1.15362082864809
30
0
41
1
10
55.6149449827456
20
-0.916734503299608
30
0
41
1
10
55.3409736553035
20
-0.794492920483805
30
0
41
1
10
54.5199618363577
20
-0.419815920338465
30
0
41
1
10
53.9737430008757
20
-0.159521445514997
30
0
41
1
10
53.2860934302486
20
0.165487104308795
30
0
41
1
10
53.1483188138898
20
0.230463793450497
30
0
41
1
10
52.8721516926457
20
0.360093351738897
30
0
41
1
10
52.7335152449821
20
0.424853639923015
30
0
41
1
10
52.3183586638169
20
0.617189316346725
30
0
41
1
10
52.0430020138117
20
0.74255825693109
30
0
41
1
10
51.219139232741
20
1.10655380031278
30
0
41
1
10
50.6729057724103
20
1.33321103882784
30
0
41
1
10
49.8508467936305
20
1.63531342272475
30
0
41
1
10
49.5763660507665
20
1.72969772338217
30
0
41
1
10
49.1630071895437
20
1.86027918145879
30
0
41
1
10
49.0249472730851
20
1.90197455163312
30
0
41
1
10
48.7481425413035
20
1.98145215711514
30
0
41
1
10
48.6093814585781
20
2.01922375842375
30
0
41
1
10
47.9929551487616
20
2.17719217516998
30
0
41
1
10
47.5183570295938
20
2.27227891887844
30
0
41
1
10
47.0441526623764
20
2.33828544439285
30
0
0
SPLINE
5
BD
100
AcDbEntity
8
1
62
256
6
ByLayer
370
13
48
1
60
0
100
AcDbSpline
70
4
71
3
72
32
73
28
40
0
40
0
40
0
40
0
40
0.0345890665443169
40
0.0345890665443169
40
0.0903742881752483
40
0.0903742881752483
40
0.14615950980618
40
0.14615950980618
40
0.369300396329908
40
0.369300396329908
40
0.480870839591773
40
0.480870839591773
40
0.592441282853638
40
0.592441282853638
40
0.648226504484569
40
0.648226504484569
40
0.704011726115501
40
0.704011726115501
40
0.759796947746433
40
0.759796947746433
40
0.815582169377365
40
0.815582169377365
40
0.927152612639228
40
0.927152612639228
40
0.982937834270159
40
0.982937834270159
40
1
40
1
40
1
40
1
41
1
10
29.1192573805009
20
-2.4176322816038
30
0
41
1
10
28.9488661688857
20
-2.41733405087041
30
0
41
1
10
28.7784056826116
20
-2.41313525916945
30
0
41
1
10
28.3324615666893
20
-2.39187934892149
30
0
41
1
10
28.0565755778958
20
-2.36867188495106
30
0
41
1
10
27.5025448029972
20
-2.30228688216192
30
0
41
1
10
27.2240367661552
20
-2.25903824256793
30
0
41
1
10
25.8415188778599
20
-1.99662390689818
30
0
41
1
10
24.7513682958643
20
-1.63959934183839
30
0
41
1
10
23.0833524898972
20
-0.966830671272561
30
0
41
1
10
22.532064774478
20
-0.72478840745859
30
0
41
1
10
21.4320838902279
20
-0.225790636742971
30
0
41
1
10
20.8828313306252
20
0.0309905061656082
30
0
41
1
10
20.0529040314164
20
0.411119453353877
30
0
41
1
10
19.7745930912132
20
0.537407893624675
30
0
41
1
10
19.2189105483493
20
0.783762262211241
30
0
41
1
10
18.9415507302351
20
0.903745094955326
30
0
41
1
10
18.3866020128041
20
1.13504819492323
30
0
41
1
10
18.1087241580718
20
1.2461814590857
30
0
41
1
10
17.5522923495471
20
1.45736032973329
30
0
41
1
10
17.2755006030881
20
1.55678475670661
30
0
41
1
10
16.4473688567088
20
1.83268371758155
30
0
41
1
10
15.8980435025996
20
1.98736028667932
30
0
41
1
10
15.0715090434662
20
2.16630357532466
30
0
41
1
10
14.7955042538293
20
2.21701380788386
30
0
41
1
10
14.4337496609689
20
2.27113495637582
30
0
41
1
10
14.3488447795167
20
2.282938534599
30
0
41
1
10
14.2638627886075
20
2.29383657996436
30
0
0
SPLINE
5
BE
100
AcDbEntity
8
1
62
256
6
ByLayer
370
18
48
1
60
0
100
AcDbSpline
70
4
71
3
72
10
73
6
40
0
40
0
40
0
40
0
40
0.332860790182139
40
0.332860790182139
40
1
40
1
40
1
40
1
41
1
10
6.6669785046775
20
1.79021261861101
30
0
41
1
10
6.80359282194965
20
1.79929525539825
30
0
41
1
10
6.93979363280928
20
1.81305870664605
30
0
41
1
10
7.34168124469204
20
1.86661194260623
30
0
41
1
10
7.60246590945724
20
1.91906909773149
30
0
41
1
10
7.85562179602158
20
1.98279645201527
30
0
0
SPLINE
5
BF
100
AcDbEntity
8
1
62
256
6
ByLayer
370
18
48
1
60
0
100
AcDbSpline
70
4
71
3
72
8
73
4
40
0
40
0
40
0
40
0
40
1
40
1
40
1
40
1
41
1
10
60.1185365802323
20
-2.53837304654323
30
0
41
1
10
60.0986850068922
20
-2.52591157908651
30
0
41
1
10
60.0818459023184
20
-2.50368230680229
30
0
41
1
10
60.0675423450054
20
-2.47137023167517
30
0
0
SPLINE
5
C0
100
AcDbEntity
8
1
62
256
6
ByLayer
370
13
48
1
60
0
100
AcDbSpline
70
4
71
3
72
10
73
6
40
0
40
0
40
0
40
0
40
0.5
40
0.5
40
1
40
1
40
1
40
1
41
1
10
7.06039080333301
20
-1.08235421825142
30
0
41
1
10
6.99489297171553
20
-1.06365530924535
30
0
41
1
10
6.93024860236176
20
-1.04833856607462
30
0
41
1
10
6.80289792307576
20
-1.02353428501124
30
0
41
1
10
6.7399154662975
20
-1.01401933881834
30
0
41
1
10
6.67871968815351
20
-1.00736805559353
30
0
0
SPLINE
5
C1
100
AcDbEntity
8
1
62
256
6
ByLayer
370
18
48
1
60
0
100
AcDbSpline
70
4
71
3
72
8
73
4
40
0
40
0
40
0
40
0
40
1
40
1
40
1
40
1
41
1
10
60.9998307970169
20
0.0556233786058158
30
0
41
1
10
61.0000564009932
20
0.0185411262057187
30
0
41
1
10
61.0000564009932
20
-0.0185411261943784
30
0
41
1
10
60.999830797017
20
-0.0556233785944755
30
0
0
SPLINE
5
C2
100
AcDbEntity
8
1
62
256
6
ByLayer
370
18
48
1
60
0
100
AcDbSpline
70
4
71
1
72
4
73
2
40
0
40
0
40
1
40
1
41
1
10
60.0675423449971
20
-2.47137023170595
30
0
41
1
10
60.56810793914
20
-0.781489106581603
30
0
0
SPLINE
5
C3
100
AcDbEntity
8
1
62
256
6
ByLayer
370
18
48
1
60
0
100
AcDbSpline
70
4
71
3
72
18
73
14
40
0
40
0
40
0
40
0
40
0.125000000000001
40
0.125000000000001
40
0.250000000000002
40
0.250000000000002
40
0.500000000000002
40
0.500000000000002
40
0.625000000000002
40
0.625000000000002
40
0.750000000000002
40
0.750000000000002
40
1
40
1
40
1
40
1
41
1
10
59.7705734776844
20
0.112700503999292
30
0
41
1
10
59.7588243913911
20
0.0458309317199905
30
0
41
1
10
59.7484299079553
20
-0.0211748688008697
30
0
41
1
10
59.730380543258
20
-0.155461983204276
30
0
41
1
10
59.722704659376
20
-0.222997288471078
30
0
41
1
10
59.7040955786731
20
-0.423927568579927
30
0
41
1
10
59.6975260054888
20
-0.555365637599181
30
0
41
1
10
59.6962957281561
20
-0.748805868120655
30
0
41
1
10
59.6973300778529
20
-0.812663408240212
30
0
41
1
10
59.7023532323102
20
-0.939105154840746
30
0
41
1
10
59.7063657687139
20
-1.00177882105032
30
0
41
1
10
59.7226343482578
20
-1.18444892668029
30
0
41
1
10
59.7391139224737
20
-1.30029048591544
30
0
41
1
10
59.7611110969854
20
-1.4103160747608
30
0
0
SPLINE
5
C4
100
AcDbEntity
8
1
62
256
6
ByLayer
370
18
48
1
60
0
100
AcDbSpline
70
4
71
3
72
12
73
8
40
0
40
0
40
0
40
0
40
0.25
40
0.25
40
0.5
40
0.5
40
1
40
1
40
1
40
1
41
1
10
60.2822980725945
20
1.11006626777336
30
0
41
1
10
60.270042843003
20
1.18434518324233
30
0
41
1
10
60.265420630991
20
1.25782974906326
30
0
41
1
10
60.2645017898392
20
1.40393245746517
30
0
41
1
10
60.2683179067706
20
1.47653886683557
30
0
41
1
10
60.2875801221851
20
1.69354492498536
30
0
41
1
10
60.3106127547461
20
1.83715506154223
30
0
41
1
10
60.3381838257371
20
1.98029289380642
30
0
0
SPLINE
5
C5
100
AcDbEntity
8
1
62
256
6
ByLayer
370
18
48
1
60
0
100
AcDbSpline
70
4
71
3
72
18
73
14
40
0
40
0
40
0
40
0
40
0.124999999999998
40
0.124999999999998
40
0.249999999999996
40
0.249999999999996
40
0.374999999999994
40
0.374999999999994
40
0.499999999999993
40
0.499999999999993
40
0.749999999999996
40
0.749999999999996
40
1
40
1
40
1
40
1
41
1
10
60.5201626637707
20
-0.800929099858223
30
0
41
1
10
60.4887875389064
20
-0.806813664926523
30
0
41
1
10
60.4582589829556
20
-0.804895924154181
30
0
41
1
10
60.3987399460369
20
-0.786884949949666
30
0
41
1
10
60.3704768742284
20
-0.770961323594008
30
0
41
1
10
60.3171902005933
20
-0.727949602720145
30
0
41
1
10
60.2918492603916
20
-0.700508642708314
30
0
41
1
10
60.2449711750607
20
-0.637029542806374
30
0
41
1
10
60.2233900416389
20
-0.60108347217971
30
0
41
1
10
60.163420070478
20
-0.482437666607609
30
0
41
1
10
60.1295396758533
20
-0.387853053381178
30
0
41
1
10
60.0752916397054
20
-0.183015498584325
30
0
41
1
10
60.0544666565779
20
-0.0721254644680585
30
0
41
1
10
60.0394729470025
20
0.0466067574868134
30
0
0
SPLINE
5
C6
100
AcDbEntity
8
1
62
256
6
ByLayer
370
18
48
1
60
0
100
AcDbSpline
70
4
71
3
72
14
73
10
40
0
40
0
40
0
40
0
40
0.25
40
0.25
40
0.5
40
0.5
40
0.75
40
0.75
40
1
40
1
40
1
40
1
41
1
10
6.67871968817133
20
-1.00736805559049
30
0
41
1
10
6.67867089676963
20
-1.04080871777231
30
0
41
1
10
6.6949183861303
20
-1.07138839797892
30
0
41
1
10
6.73630965148072
20
-1.12426269697656
30
0
41
1
10
6.7620339025525
20
-1.1470243969494
30
0
41
1
10
6.81689352061815
20
-1.18768461977399
30
0
41
1
10
6.84660341611294
20
-1.20583127941023
30
0
41
1
10
6.90788904518951
20
-1.23856093296536
30
0
41
1
10
6.93959752583049
20
-1.2532142868148
30
0
41
1
10
6.97222682299008
20
-1.26642694939756
30
0
0
SPLINE
5
C7
100
AcDbEntity
8
1
62
256
6
ByLayer
370
18
48
1
60
0
100
AcDbSpline
70
4
71
3
72
18
73
14
40
0
40
0
40
0
40
0
40
0.116869488349304
40
0.116869488349304
40
0.293495590679443
40
0.293495590679443
40
0.470121693009582
40
0.470121693009582
40
0.646747795339721
40
0.646747795339721
40
0.823373897669861
40
0.823373897669861
40
1
40
1
40
1
40
1
41
1
10
59.5934052140158
20
0.19891027292951
30
0
41
1
10
59.6111643751763
20
0.20981804771597
30
0
41
1
10
59.6299838290072
20
0.223389812286939
30
0
41
1
10
59.6800339374809
20
0.264085556686894
30
0
41
1
10
59.7127542255353
20
0.29476514775422
30
0
41
1
10
59.7807336731007
20
0.365183604382224
30
0
41
1
10
59.8163818433712
20
0.405247857226925
30
0
41
1
10
59.8912673899287
20
0.494430240180236
30
0
41
1
10
59.9294080920374
20
0.54225207548825
30
0
41
1
10
60.0079314906124
20
0.643280191676979
30
0
41
1
10
60.0486335440512
20
0.697035662375725
30
0
41
1
10
60.1322157236905
20
0.805591550744992
30
0
41
1
10
60.1747853151015
20
0.860620847913907
30
0
41
1
10
60.2219584508703
20
0.913435106693498
30
0
0
SPLINE
5
C8
100
AcDbEntity
8
1
62
256
6
ByLayer
370
18
48
1
60
0
100
AcDbSpline
70
4
71
3
72
44
73
40
40
0
40
0
40
0
40
0
40
0.0739886727734162
40
0.0739886727734162
40
0.121145157633842
40
0.121145157633842
40
0.168301642494268
40
0.168301642494268
40
0.215458127354694
40
0.215458127354694
40
0.262614612215119
40
0.262614612215119
40
0.356927581935972
40
0.356927581935972
40
0.404084066796398
40
0.404084066796398
40
0.451240551656824
40
0.451240551656824
40
0.498397036517251
40
0.498397036517251
40
0.545553521377677
40
0.545553521377677
40
0.63986649109853
40
0.63986649109853
40
0.687022975958956
40
0.687022975958956
40
0.734179460819383
40
0.734179460819383
40
0.781335945679809
40
0.781335945679809
40
0.828492430540235
40
0.828492430540235
40
0.875648915400662
40
0.875648915400662
40
0.922805400261088
40
0.922805400261088
40
0.969961885121515
40
0.969961885121515
40
1
40
1
40
1
40
1
41
1
10
12.3254001766451
20
2.4640867611632
30
0
41
1
10
12.7602924059009
20
2.4647774044542
30
0
41
1
10
13.1942955244582
20
2.43964607065155
30
0
41
1
10
13.9077321599631
20
2.35686070288159
30
0
41
1
10
14.1853567242671
20
2.31436271852394
30
0
41
1
10
14.7394213480586
20
2.21026987648949
30
0
41
1
10
15.0162426135424
20
2.14865735395611
30
0
41
1
10
15.570646945005
20
2.00745201717436
30
0
41
1
10
15.8486768087985
20
1.92761744601253
30
0
41
1
10
16.4032334048385
20
1.7525439021677
30
0
41
1
10
16.6800578474311
20
1.65740281121475
30
0
41
1
10
17.5106715112662
20
1.35154776490555
30
0
41
1
10
18.0665421929731
20
1.11998023608467
30
0
41
1
10
18.8969654143368
20
0.750775406619653
30
0
41
1
10
19.1736033204407
20
0.623987607501618
30
0
41
1
10
19.7278667206118
20
0.365641739555201
30
0
41
1
10
20.0057735875364
20
0.233889935751847
30
0
41
1
10
20.5598186851818
20
-0.0296828732033703
30
0
41
1
10
20.8364324832086
20
-0.161692215070019
30
0
41
1
10
21.3899245651734
20
-0.423872162659563
30
0
41
1
10
21.6671778523699
20
-0.55406598571588
30
0
41
1
10
22.499476531596
20
-0.936163265497612
30
0
41
1
10
23.0515388824481
20
-1.17801990079599
30
0
41
1
10
23.8828734335689
20
-1.50723218034037
30
0
41
1
10
24.1604920934247
20
-1.6111845826143
30
0
41
1
10
24.7139897410087
20
-1.80402531964091
30
0
41
1
10
24.9903932692803
20
-1.89312547151724
30
0
41
1
10
25.5437921937397
20
-2.05485929196433
30
0
41
1
10
25.8213316089839
20
-2.12756161625998
30
0
41
1
10
26.3755514742685
20
-2.25416502433313
30
0
41
1
10
26.6519904464211
20
-2.30808118040343
30
0
41
1
10
27.2049539663714
20
-2.39600248280689
30
0
41
1
10
27.481476857375
20
-2.43001732909053
30
0
41
1
10
28.0358726020777
20
-2.47730782594263
30
0
41
1
10
28.3129767586373
20
-2.49049019229693
30
0
41
1
10
28.8660017862985
20
-2.49564581014917
30
0
41
1
10
29.1423111693875
20
-2.48767125022999
30
0
41
1
10
29.5951796237992
20
-2.4573894647406
30
0
41
1
10
29.7717571066575
20
-2.44129774526462
30
0
41
1
10
29.9482785235139
20
-2.42104939416177
30
0
0
SPLINE
5
C9
100
AcDbEntity
8
1
62
256
6
ByLayer
370
18
48
1
60
0
100
AcDbSpline
70
4
71
3
72
42
73
38
40
0
40
0
40
0
40
0
40
0.0100099938420865
40
0.0100099938420865
40
0.0650094386286372
40
0.0650094386286372
40
0.120008883415188
40
0.120008883415188
40
0.175008328201738
40
0.175008328201738
40
0.230007772988289
40
0.230007772988289
40
0.28500721777484
40
0.28500721777484
40
0.340006662561391
40
0.340006662561391
40
0.450005552134493
40
0.450005552134493
40
0.560004441707594
40
0.560004441707594
40
0.615003886494145
40
0.615003886494145
40
0.670003331280696
40
0.670003331280696
40
0.725002776067246
40
0.725002776067246
40
0.780002220853797
40
0.780002220853797
40
0.835001665640348
40
0.835001665640348
40
0.890001110426898
40
0.890001110426898
40
0.945000555213449
40
0.945000555213449
40
0.972500277606725
40
0.972500277606725
40
1
40
1
40
1
40
1
41
1
10
45.024680123241
20
2.52295732154374
30
0
41
1
10
45.0748813876426
20
2.5230332545963
30
0
41
1
10
45.1250857237654
20
2.52275687699048
30
0
41
1
10
45.4511843747283
20
2.51867004021824
30
0
41
1
10
45.7276366727381
20
2.50452287228563
30
0
41
1
10
46.2806374067044
20
2.45512231942726
30
0
41
1
10
46.5564659967652
20
2.41998578373099
30
0
41
1
10
47.1079529895151
20
2.32961904368003
30
0
41
1
10
47.3836088794246
20
2.27436618554495
30
0
41
1
10
47.9363216691124
20
2.14496574659319
30
0
41
1
10
48.2130143508785
20
2.0708113181779
30
0
41
1
10
48.7646732705787
20
1.90592646812973
30
0
41
1
10
49.0401584365684
20
1.81510449068571
30
0
41
1
10
49.5918471190127
20
1.61862810006036
30
0
41
1
10
49.8685981981714
20
1.51278224797122
30
0
41
1
10
50.6968896984171
20
1.17788113629504
30
0
41
1
10
51.2467661285119
20
0.931567098746513
30
0
41
1
10
52.3525263861569
20
0.412588581730546
30
0
41
1
10
52.9025749056083
20
0.14273076972492
30
0
41
1
10
53.7302076003299
20
-0.260570678390962
30
0
41
1
10
54.0068792993336
20
-0.394868379147311
30
0
41
1
10
54.5583458029148
20
-0.658368382784062
30
0
41
1
10
54.8336594148362
20
-0.787733810690355
30
0
41
1
10
55.3847311116746
20
-1.03916553373551
30
0
41
1
10
55.6609013326996
20
-1.16139776096188
30
0
41
1
10
56.2130474244314
20
-1.39524747615926
30
0
41
1
10
56.4884380224597
20
-1.50650620220503
30
0
41
1
10
57.0392002829879
20
-1.7155160621821
30
0
41
1
10
57.3146104273092
20
-1.81321151056042
30
0
41
1
10
57.8666696397588
20
-1.99313959765396
30
0
41
1
10
58.1426964867993
20
-2.07530429558534
30
0
41
1
10
58.6926646261947
20
-2.2208302655267
30
0
41
1
10
58.9671539529443
20
-2.28440643024419
30
0
41
1
10
59.3789828875055
20
-2.3652550475887
30
0
41
1
10
59.516272439438
20
-2.3897862755762
30
0
41
1
10
59.7910286005934
20
-2.43387036684939
30
0
41
1
10
59.9283076387745
20
-2.45352010587828
30
0
41
1
10
60.0661523850214
20
-2.4704012043351
30
0
0
SPLINE
5
CA
100
AcDbEntity
8
1
62
256
6
ByLayer
370
18
48
1
60
0
100
AcDbSpline
70
4
71
3
72
8
73
4
40
0
40
0
40
0
40
0
40
1
40
1
40
1
40
1
41
1
10
59.7705734776845
20
0.112700503999292
30
0
41
1
10
59.8598146769317
20
0.0882815112935305
30
0
41
1
10
59.9494421800315
20
0.0662158231673118
30
0
41
1
10
60.0394729470025
20
0.0466067574853071
30
0
0
SPLINE
5
CB
100
AcDbEntity
8
1
62
256
6
ByLayer
370
18
48
1
60
0
100
AcDbSpline
70
4
71
3
72
10
73
6
40
0
40
0
40
0
40
0
40
0.5
40
0.5
40
1
40
1
40
1
40
1
41
1
10
7.06002783767241
20
1.62813909374822
30
0
41
1
10
7.40871772386288
20
1.49781199414085
30
0
41
1
10
7.76164433656362
20
1.3627424722163
30
0
41
1
10
8.47363473915792
20
1.08715558883336
30
0
41
1
10
8.83263861061207
20
0.946763667349842
30
0
41
1
10
9.19466772651393
20
0.803536933380798
30
0
0
SPLINE
5
CC
100
AcDbEntity
8
1
62
256
6
ByLayer
370
18
48
1
60
0
100
AcDbSpline
70
4
71
3
72
10
73
6
40
0
40
0
40
0
40
0
40
0.671966937944887
40
0.671966937944887
40
1
40
1
40
1
40
1
41
1
10
60.0394729470027
20
0.0466067574852786
30
0
41
1
10
59.9598971546335
20
0.0786394982825129
30
0
41
1
10
59.8812016170546
20
0.108862364142936
30
0
41
1
10
59.769913861558
20
0.148028072559953
30
0
41
1
10
59.7342655830507
20
0.159968253955697
30
0
41
1
10
59.700234725205
20
0.170629783036276
30
0
0
SPLINE
5
CD
100
AcDbEntity
8
1
62
256
6
ByLayer
370
18
48
1
60
0
100
AcDbSpline
70
4
71
3
72
8
73
4
40
0
40
0
40
0
40
0
40
1
40
1
40
1
40
1
41
1
10
60.5201626637708
20
-0.800929099857854
30
0
41
1
10
60.535752145558
20
-0.79645783710771
30
0
41
1
10
60.5517271987296
20
-0.790012175162332
30
0
41
1
10
60.5681079391361
20
-0.78148910658723
30
0
0
SPLINE
5
CE
100
AcDbEntity
8
1
62
256
6
ByLayer
370
18
48
1
60
0
100
AcDbSpline
70
4
71
3
72
8
73
4
40
0
40
0
40
0
40
0
40
1
40
1
40
1
40
1
41
1
10
60.9792467707645
20
-0.11434191750223
30
0
41
1
10
60.7626825184547
20
-0.735343250100556
30
0
41
1
10
60.548985755026
20
-1.35732379617474
30
0
41
1
10
60.338183825737
20
-1.98029289380653
30
0
0
SPLINE
5
CF
100
AcDbEntity
8
1
62
256
6
ByLayer
370
18
48
1
60
0
100
AcDbSpline
70
4
71
3
72
8
73
4
40
0
40
0
40
0
40
0
40
1
40
1
40
1
40
1
41
1
10
60.1185365802323
20
-2.53837304654323
30
0
41
1
10
60.1912501428
20
-2.356262260791
30
0
41
1
10
60.2648454197284
20
-2.17045908336772
30
0
41
1
10
60.338183825737
20
-1.98029289380653
30
0
0
SPLINE
5
D0
100
AcDbEntity
8
1
62
256
6
ByLayer
370
13
48
1
60
0
100
AcDbSpline
70
4
71
3
72
22
73
18
40
0
40
0
40
0
40
0
40
0.125
40
0.125
40
0.25
40
0.25
40
0.375
40
0.375
40
0.5
40
0.5
40
0.625
40
0.625
40
0.75
40
0.75
40
0.875
40
0.875
40
1
40
1
40
1
40
1
41
1
10
7.06039080333298
20
-1.0823542182514
30
0
41
1
10
7.06034737430855
20
-0.973266309959655
30
0
41
1
10
7.06030620122658
20
-0.860653741247944
30
0
41
1
10
7.06022992898809
20
-0.628428558034784
30
0
41
1
10
7.06019515606064
20
-0.509641747567798
30
0
41
1
10
7.06013420957743
20
-0.271102452746675
30
0
41
1
10
7.06010782187451
20
-0.150720913351279
30
0
41
1
10
7.06006345329678
20
0.0922985591275278
30
0
41
1
10
7.06004551937278
20
0.215263759776036
30
0
41
1
10
7.06001872836751
20
0.455134053761697
30
0
41
1
10
7.06000964769521
20
0.573092080454956
30
0
41
1
10
7.0599987750827
20
0.805052617003611
30
0
41
1
10
7.05999702258617
20
0.919954200832109
30
0
41
1
10
7.05999914715119
20
1.13904105805156
30
0
41
1
10
7.06000294405388
20
1.24369743085808
30
0
41
1
10
7.06001365092158
20
1.44337020256938
30
0
41
1
10
7.06002060231574
20
1.53877419986173
30
0
41
1
10
7.06002783766743
20
1.62813909374395
30
0
0
SPLINE
5
D1
100
AcDbEntity
8
1
62
256
6
ByLayer
370
13
48
1
60
0
100
AcDbSpline
70
4
71
3
72
40
73
36
40
0
40
0
40
0
40
0
40
0.0211134000560827
40
0.0211134000560827
40
0.0494918785875192
40
0.0494918785875192
40
0.0778703571189559
40
0.0778703571189559
40
0.134627314181829
40
0.134627314181829
40
0.248141228307577
40
0.248141228307577
40
0.30489818537045
40
0.30489818537045
40
0.361655142433323
40
0.361655142433323
40
0.475169056559069
40
0.475169056559069
40
0.531926013621944
40
0.531926013621944
40
0.588682970684818
40
0.588682970684818
40
0.645439927747692
40
0.645439927747692
40
0.702196884810567
40
0.702196884810567
40
0.815710798936315
40
0.815710798936315
40
0.872467755999189
40
0.872467755999189
40
0.929224713062063
40
0.929224713062063
40
0.985981670124938
40
0.985981670124938
40
1
40
1
40
1
40
1
41
1
10
45.4805442973794
20
-2.44768090161293
30
0
41
1
10
45.3779387989017
20
-2.44766614578626
30
0
41
1
10
45.2751922162711
20
-2.44623050770409
30
0
41
1
10
45.0339415807029
20
-2.43951140828392
30
0
41
1
10
44.8950895618921
20
-2.43301680320064
30
0
41
1
10
44.6183547815416
20
-2.41478169652541
30
0
41
1
10
44.4802553450007
20
-2.40305128617555
30
0
41
1
10
44.066652919633
20
-2.36059179260712
30
0
41
1
10
43.7918917761655
20
-2.32252830972368
30
0
41
1
10
42.9686373535515
20
-2.1800580068425
30
0
41
1
10
42.4211586706672
20
-2.046832002667
30
0
41
1
10
41.5945267754494
20
-1.79859311559767
30
0
41
1
10
41.3175675591086
20
-1.70762405505206
30
0
41
1
10
40.7632191211267
20
-1.51170120785221
30
0
41
1
10
40.4874444524828
20
-1.40716783656271
30
0
41
1
10
39.6619154607546
20
-1.07899117802802
30
0
41
1
10
39.1144150754186
20
-0.839892832708671
30
0
41
1
10
38.2900669670098
20
-0.465271778617307
30
0
41
1
10
38.0148742398578
20
-0.337650338348851
30
0
41
1
10
37.4620982455018
20
-0.079912877336227
30
0
41
1
10
37.1840589164065
20
0.0505829995489933
30
0
41
1
10
36.6298081006661
20
0.30863754166927
30
0
41
1
10
36.3531478311011
20
0.436764712219059
30
0
41
1
10
35.7994324076586
20
0.688311595942366
30
0
41
1
10
35.522095236817
20
0.811820065723481
30
0
41
1
10
34.6892866795674
20
1.17030128972093
30
0
41
1
10
34.1368870634741
20
1.39182029798704
30
0
41
1
10
33.3049651824403
20
1.6845111799972
30
0
41
1
10
33.026933556347
20
1.77529864028429
30
0
41
1
10
32.4726268764018
20
1.94032861187631
30
0
41
1
10
32.195856522875
20
2.01480978075497
30
0
41
1
10
31.6417228024685
20
2.14620509099399
30
0
41
1
10
31.3638137933559
20
2.20332932308267
30
0
41
1
10
31.0179579716096
20
2.26224448984692
30
0
41
1
10
30.9495308531042
20
2.27328886806953
30
0
41
1
10
30.8811703032001
20
2.28371553279851
30
0
0
SPLINE
5
D2
100
AcDbEntity
8
1
62
256
6
ByLayer
370
13
48
1
60
0
100
AcDbSpline
70
4
71
3
72
18
73
14
40
0
40
0
40
0
40
0
40
0.128284040605141
40
0.128284040605141
40
0.418856027070096
40
0.418856027070096
40
0.491499023686332
40
0.491499023686332
40
0.564142020302569
40
0.564142020302569
40
0.709428013535046
40
0.709428013535046
40
1
40
1
40
1
40
1
41
1
10
12.7591637381633
20
-2.38853118826174
30
0
41
1
10
12.5158188732219
20
-2.38780499168658
30
0
41
1
10
12.2728243889257
20
-2.37924332060703
30
0
41
1
10
11.479244271529
20
-2.32571967211345
30
0
41
1
10
10.928523676419
20
-2.24914990178073
30
0
41
1
10
10.233679920524
20
-2.10613221059523
30
0
41
1
10
10.094224146951
20
-2.07513352712345
30
0
41
1
10
9.81638314738822
20
-2.0090458470265
30
0
41
1
10
9.67779923946881
20
-1.97391447044018
30
0
41
1
10
9.26278461791549
20
-1.86261602005774
30
0
41
1
10
8.98708824406805
20
-1.78055909258842
30
0
41
1
10
8.16121689033574
20
-1.51329985191987
30
0
41
1
10
7.61239629464109
20
-1.30740349329366
30
0
41
1
10
7.06039080333295
20
-1.08235421825142
30
0
0
SPLINE
5
D3
100
AcDbEntity
8
1
62
256
6
ByLayer
370
13
48
1
60
0
100
AcDbSpline
70
4
71
3
72
27
73
23
40
0
40
0
40
0
40
0
40
0.045971107232722
40
0.143492054318927
40
0.175999036680995
40
0.241013001405129
40
0.306026966129266
40
0.40354791321547
40
0.436054895577538
40
0.501068860301675
40
0.566082825025809
40
0.679857263293048
40
0.696110754474082
40
0.72861773683615
40
0.761124719198218
40
0.826138683922355
40
0.858645666284423
40
0.891152648646489
40
0.923659631008557
40
0.956166613370625
40
0.988673595732694
40
1
40
1
40
1
40
1
41
1.00000000000001
10
60.2822980725774
20
1.11006626777347
30
0
41
1.00000000000001
10
60.2450074597619
20
1.1100660514211
30
0
41
1.00000000000001
10
60.1286102495814
20
1.10979855020226
30
0
41
1.00000000000001
10
59.9858605410592
20
1.10852925690616
30
0
41
1.00000000000001
10
59.8276628732381
20
1.10609569602439
30
0
41
1.00000000000001
10
59.6958204749017
20
1.10338402313538
30
0
41
1.00000000000001
10
59.51124327799
20
1.09841090728638
30
0
41
1.00000000000001
10
59.3530479309302
20
1.09293692077019
30
0
41
1.00000000000001
10
59.1948498529348
20
1.08644897015769
30
0
41
1.00000000000001
10
59.0630071738686
20
1.08037687045784
30
0
41
1.00000000000001
10
58.8652415963374
20
1.07001755441555
30
0
41
1.00000000000001
10
58.7070498388557
20
1.06042981047121
30
0
41
1.00000000000001
10
58.5752266693231
20
1.05162907309763
30
0
41
1.00000000000001
10
58.509307036328
20
1.04705280886812
30
0
41
1.00000000000001
10
58.4038344964322
20
1.03940422404604
30
0
41
1.00000000000001
10
58.2983662459214
20
1.03128340883577
30
0
41
1.00000000000001
10
58.1929010238416
20
1.02269277130158
30
0
41
1.00000000000001
10
58.1137999063027
20
1.01600821092594
30
0
41
1.00000000000001
10
58.0346988612896
20
1.00908856660504
30
0
41
1.00000000000001
10
57.9555968277944
20
1.0019329176155
30
0
41
1.00000000000001
10
57.8936745247187
20
0.996149255310561
30
0
41
1.00000000000001
10
57.8581189679408
20
0.992757715524667
30
0
41
1.00000000000001
10
57.8489314813223
20
0.991876662754399
30
0
0
SPLINE
5
D4
100
AcDbEntity
8
1
62
256
6
ByLayer
370
13
48
1
60
0
100
AcDbSpline
70
4
71
3
72
91
73
87
40
0
40
0
40
0
40
0
40
0.0054302643606361
40
0.0201924380383626
40
0.0349546117160897
40
0.0570978722326785
40
0.0644789590715417
40
0.0792411327492672
40
0.0940033064269943
40
0.119837110363017
40
0.123527653782448
40
0.130908740621311
40
0.138289827460173
40
0.1530520011379
40
0.160433087976764
40
0.167814174815627
40
0.17519526165449
40
0.182576348493353
40
0.189957435332216
40
0.19733852217108
40
0.212100695848806
40
0.234243956365395
40
0.241625043204259
40
0.256387216881986
40
0.271149390559712
40
0.293292651076302
40
0.300673737915165
40
0.315435911592891
40
0.330198085270618
40
0.356031889206639
40
0.35972243262607
40
0.367103519464934
40
0.374484606303797
40
0.389246779981524
40
0.396627866820387
40
0.40400895365925
40
0.411390040498113
40
0.418771127336977
40
0.42615221417584
40
0.433533301014703
40
0.44829547469243
40
0.470438735209019
40
0.477819822047882
40
0.492581995725611
40
0.507344169403336
40
0.529487429919924
40
0.536868516758788
40
0.551630690436514
40
0.56639286411424
40
0.592226668050261
40
0.595917211469694
40
0.603298298308557
40
0.61067938514742
40
0.625441558825147
40
0.63282264566401
40
0.640203732502871
40
0.647584819341738
40
0.654965906180599
40
0.662346993019462
40
0.669728079858323
40
0.684490253536051
40
0.706633514052641
40
0.714014600891505
40
0.728776774569231
40
0.743538948246959
40
0.765682208763549
40
0.773063295602411
40
0.787825469280136
40
0.802587642957865
40
0.828421446893884
40
0.832111990313317
40
0.839493077152181
40
0.846874163991043
40
0.86163633766877
40
0.869017424507632
40
0.876398511346497
40
0.883779598185359
40
0.891160685024223
40
0.898541771863086
40
0.905922858701948
40
0.920685032379675
40
0.942828292896264
40
0.950209379735128
40
0.964971553412854
40
0.979733727090581
40
1
40
1
40
1
40
1
41
1.00000000000001
10
35.8653465576003
20
-0.0250120212065779
30
0
41
1.00000000000001
10
35.845948871506
20
-0.0208718834717557
30
0
41
1.00000000000001
10
35.77381802642
20
-0.005476297933967
30
0
41
1.00000000000001
10
35.6489447258718
20
0.0211271234993545
30
0
41
1.00000000000001
10
35.4643675372434
20
0.0604242409676766
30
0
41
1.00000000000001
10
35.3061723147301
20
0.0941273722483791
30
0
41
1.00000000000001
10
35.1479744124901
20
0.127741981115206
30
0
41
1.00000000000001
10
35.0161318860989
20
0.155612943030859
30
0
41
1.00000000000001
10
34.818366507723
20
0.197205756725223
30
0
41
1.00000000000001
10
34.6601748531182
20
0.230371319174479
30
0
41
1.00000000000001
10
34.5283517063265
20
0.257863698609296
30
0
41
1.00000000000001
10
34.4624320797159
20
0.271516460829273
30
0
41
1.00000000000001
10
34.3569595519653
20
0.29325974592575
30
0
41
1.00000000000001
10
34.2514913179421
20
0.314900877912888
30
0
41
1.00000000000001
10
34.1460261172591
20
0.336427170393673
30
0
41
1.00000000000001
10
34.0669250117798
20
0.352468846944501
30
0
41
1.00000000000001
10
33.9878239754519
20
0.368428926477574
30
0
41
1.00000000000001
10
33.9087219468352
20
0.384305339362097
30
0
41
1.00000000000001
10
33.8296193488521
20
0.400093493306254
30
0
41
1.00000000000001
10
33.7241457534058
20
0.420987187398818
30
0
41
1.00000000000001
10
33.5659300889633
20
0.451987894664167
30
0
41
1.00000000000001
10
33.4077349972128
20
0.48261666482406
30
0
41
1.00000000000001
10
33.2495373166297
20
0.512794253841231
30
0
41
1.00000000000001
10
33.1176949402303
20
0.537566292627384
30
0
41
1.00000000000001
10
32.9331178205915
20
0.571664184443615
30
0
41
1.00000000000001
10
32.7749225739022
20
0.600335604667601
30
0
41
1.00000000000001
10
32.6167246047396
20
0.628446582096979
30
0
41
1.00000000000001
10
32.4848820172363
20
0.651427947669242
30
0
41
1.00000000000001
10
32.2871165645654
20
0.685113768254518
30
0
41
1.00000000000001
10
32.1289248781953
20
0.711351934615743
30
0
41
1.00000000000001
10
31.9971017342339
20
0.732703510078061
30
0
41
1.00000000000001
10
31.9311821087229
20
0.743210552925767
30
0
41
1.00000000000001
10
31.8257095733365
20
0.75977562173636
30
0
41
1.00000000000001
10
31.7202413186968
20
0.776025466087127
30
0
41
1.00000000000001
10
31.6147760875196
20
0.791949197626416
30
0
41
1.00000000000001
10
31.5356749594611
20
0.803683446141001
30
0
41
1.00000000000001
10
31.4565739015321
20
0.815232013950172
30
0
41
1.00000000000001
10
31.3774718536401
20
0.826592486569005
30
0
41
1.00000000000001
10
31.2983692395455
20
0.837762101019784
30
0
41
1.00000000000001
10
31.1928956269267
20
0.85236344573834
30
0
41
1.00000000000001
10
31.0346799480986
20
0.873627789221096
30
0
41
1.00000000000001
10
30.8764848658131
20
0.894034511923926
30
0
41
1.00000000000001
10
30.718287218644
20
0.913606485300241
30
0
41
1.00000000000001
10
30.5864448960949
20
0.929308481216188
30
0
41
1.00000000000001
10
30.401867894015
20
0.950289838349752
30
0
41
1.00000000000001
10
30.2436727738331
20
0.96727497929526
30
0
41
1.00000000000001
10
30.0854749302716
20
0.983359710990063
30
0
41
1.00000000000001
10
29.953632442355
20
0.996120217079399
30
0
41
1.00000000000001
10
29.7558671113425
20
1.01408654504009
30
0
41
1.00000000000001
10
29.5976754725106
20
1.02731401826639
30
0
41
1.00000000000001
10
29.4658523176693
20
1.03757529967614
30
0
41
1.00000000000001
10
29.3999326753645
20
1.04250115491916
30
0
41
1.00000000000001
10
29.2944600900904
20
1.05004858215348
30
0
41
1.00000000000001
10
29.1889917560018
20
1.05714105114568
30
0
41
1.00000000000001
10
29.0835264282031
20
1.06377178271852
30
0
41
1.00000000000001
10
29.0044252244006
20
1.06847909564401
30
0
41
1.00000000000001
10
28.9253240893849
20
1.07293960863062
30
0
41
1.00000000000001
10
28.8462219656137
20
1.07715106908502
30
0
41
1.00000000000001
10
28.7671192781534
20
1.08111313105967
30
0
41
1.00000000000001
10
28.6616455718071
20
1.08603736380325
30
0
41
1.00000000000001
10
28.5034297671098
20
1.09263515590245
30
0
41
1.00000000000001
10
28.3452346007528
20
1.09808645974995
30
0
41
1.00000000000001
10
28.1870369237654
20
1.10251074047092
30
0
41
1.00000000000001
10
28.0551946109421
20
1.1054970722072
30
0
41
1.00000000000001
10
27.8706176708523
20
1.10848822061378
30
0
41
1.00000000000001
10
27.7124226428105
20
1.10984000821707
30
0
41
1.00000000000001
10
27.5542249064368
20
1.1101602906454
30
0
41
1.00000000000001
10
27.4223825131863
20
1.10973425143597
30
0
41
1.00000000000001
10
27.2246173204779
20
1.10780634718977
30
0
41
1.00000000000001
10
27.0664257733937
20
1.10495156392911
30
0
41
1.00000000000001
10
26.9346026674826
20
1.10174213868716
30
0
41
1.00000000000001
10
26.8686830439614
20
1.09994460758539
30
0
41
1.00000000000001
10
26.763210477403
20
1.09672540337288
30
0
41
1.00000000000001
10
26.657742146569
20
1.09301862136603
30
0
41
1.00000000000001
10
26.5522768131856
20
1.08882312512468
30
0
41
1.00000000000001
10
26.4731756041894
20
1.08541598082419
30
0
41
1.00000000000001
10
26.394074462345
20
1.08175891222509
30
0
41
1.00000000000001
10
26.3149723303265
20
1.07785033862176
30
0
41
1.00000000000001
10
26.2358696311311
20
1.07369239852962
30
0
41
1.00000000000001
10
26.1303959021289
20
1.06780702770697
30
0
41
1.00000000000001
10
25.9721800491529
20
1.05822454077874
30
0
41
1.00000000000001
10
25.8139848125799
20
1.04747602321412
30
0
41
1.00000000000001
10
25.6557870515499
20
1.035749006498
30
0
41
1.00000000000001
10
25.5239446494048
20
1.02534741421373
30
0
41
1.00000000000001
10
25.3460728918605
20
1.01025328220344
30
0
41
1.00000000000001
10
25.2209477775288
20
0.99877487449614
30
0
41
1.00000000000001
10
25.1485541395267
20
0.991843166690009
30
0
0
SPLINE
5
D5
100
AcDbEntity
8
1
62
256
6
ByLayer
370
18
48
1
60
0
100
AcDbSpline
70
4
71
3
72
18
73
14
40
0
40
0
40
0
40
0
40
0.250000000000014
40
0.250000000000014
40
0.375000000000014
40
0.375000000000014
40
0.500000000000014
40
0.500000000000014
40
0.625000000000014
40
0.625000000000014
40
0.750000000000014
40
0.750000000000014
40
1
40
1
40
1
40
1
41
1
10
60.568107939139
20
-0.781489106580693
30
0
41
1
10
60.6015618142178
20
-0.747817360572753
30
0
41
1
10
60.6367056633717
20
-0.702172097398773
30
0
41
1
10
60.6921093231505
20
-0.617280223624704
30
0
41
1
10
60.7110694237984
20
-0.586093523394084
30
0
41
1
10
60.748727509514
20
-0.520206756526676
30
0
41
1
10
60.7675702253989
20
-0.48529643102188
30
0
41
1
10
60.8052639809848
20
-0.411720118270608
30
0
41
1
10
60.8242295100631
20
-0.37280198929443
30
0
41
1
10
60.8615283802105
20
-0.292493507291368
30
0
41
1
10
60.8797980089096
20
-0.25126790398366
30
0
41
1
10
60.9334519017618
20
-0.124561075327534
30
0
41
1
10
60.9679276901882
20
-0.0353903733002596
30
0
41
1
10
60.9998307970169
20
0.0556233786058442
30
0
0
SPLINE
5
D6
100
AcDbEntity
8
1
62
256
6
ByLayer
370
18
48
1
60
0
100
AcDbSpline
70
4
71
3
72
22
73
18
40
0
40
0
40
0
40
0
40
0.125
40
0.125
40
0.1875
40
0.1875
40
0.25
40
0.25
40
0.5
40
0.5
40
0.75
40
0.75
40
0.8125
40
0.8125
40
0.875
40
0.875
40
1
40
1
40
1
40
1
41
1
10
6.68101123627545
20
1.78768208755469
30
0
41
1
10
6.68088890115248
20
1.70071222536518
30
0
41
1
10
6.68077023245749
20
1.60735241704984
30
0
41
1
10
6.68060282842802
20
1.45787454877765
30
0
41
1
10
6.68054875261538
20
1.40646854158754
30
0
41
1
10
6.68044443190448
20
1.30043493854941
30
0
41
1
10
6.68039399050966
20
1.24556162876752
30
0
41
1
10
6.68015498980384
20
0.967029375132228
30
0
41
1
10
6.68000718532895
20
0.729857135571308
30
0
41
1
10
6.679734803299
20
0.227985527453257
30
0
41
1
10
6.67961593310059
20
-0.0241746610664961
30
0
41
1
10
6.67940297737104
20
-0.34089018424541
30
0
41
1
10
6.67935699118294
20
-0.404270923555799
30
0
41
1
10
6.67925739992904
20
-0.528939676110383
30
0
41
1
10
6.67920361290606
20
-0.590514426195824
30
0
41
1
10
6.67902681722808
20
-0.773002619088743
30
0
41
1
10
6.67888846281653
20
-0.891693250270492
30
0
41
1
10
6.6787196881715
20
-1.00736805558662
30
0
0
SPLINE
5
D7
100
AcDbEntity
8
1
62
256
6
ByLayer
370
18
48
1
60
0
100
AcDbSpline
70
4
71
3
72
10
73
6
40
0
40
0
40
0
40
0
40
0.5
40
0.5
40
1
40
1
40
1
40
1
41
1
10
7.85562179602158
20
-1.98279645201521
30
0
41
1
10
8.37179062427063
20
-2.11273249353678
30
0
41
1
10
8.89468763610375
20
-2.21565633306264
30
0
41
1
10
9.9361597847697
20
-2.37031296734878
30
0
41
1
10
10.4561288382858
20
-2.42245161976109
30
0
41
1
10
10.9751808687374
20
-2.44708873269175
30
0
0
SPLINE
5
D8
100
AcDbEntity
8
1
62
256
6
ByLayer
370
18
48
1
60
0
100
AcDbSpline
70
4
71
3
72
18
73
14
40
0
40
0
40
0
40
0
40
0.375956576849458
40
0.375956576849458
40
0.563934865274188
40
0.563934865274188
40
0.751913153698917
40
0.751913153698917
40
0.845902297911279
40
0.845902297911279
40
0.939891442123642
40
0.939891442123642
40
1
40
1
40
1
40
1
41
1
10
6.68101123629344
20
1.78768208755466
30
0
41
1
10
6.36133258706445
20
1.90564186463442
30
0
41
1
10
6.04977185254589
20
2.01776367145857
30
0
41
1
10
5.60125664230659
20
2.1704408077585
30
0
41
1
10
5.45451487962654
20
2.21883935983078
30
0
41
1
10
5.17189676880605
20
2.3070732480596
30
0
41
1
10
5.03735236034666
20
2.34654958045752
30
0
41
1
10
4.85100800355067
20
2.39461232570719
30
0
41
1
10
4.79201857439531
20
2.40859880517363
30
0
41
1
10
4.68307748316434
20
2.43113879092559
30
0
41
1
10
4.63291536489189
20
2.43975588127029
30
0
41
1
10
4.55983996142055
20
2.44814681495944
30
0
41
1
10
4.53353735004328
20
2.44995485376484
30
0
41
1
10
4.51039258376943
20
2.45001352963115
30
0
0
SPLINE
5
D9
100
AcDbEntity
8
1
62
256
6
ByLayer
370
18
48
1
60
0
100
AcDbSpline
70
4
71
3
72
12
73
8
40
0
40
0
40
0
40
0
40
0.500000000000027
40
0.500000000000027
40
0.750000000000014
40
0.750000000000014
40
1
40
1
40
1
40
1
41
1
10
60.2219584508612
20
0.913435106683323
30
0
41
1
10
60.2455455157701
20
0.939842792531266
30
0
41
1
10
60.264945422558
20
0.970783466570282
30
0
41
1
10
60.2810079348711
20
1.021532824903
30
0
41
1
10
60.2842605937889
20
1.03939610372697
30
0
41
1
10
60.2863078590768
20
1.07470378353003
30
0
41
1
10
60.2852166531069
20
1.09237675857364
30
0
41
1
10
60.2822980725755
20
1.11006626777345
30
0
0
SPLINE
5
DA
100
AcDbEntity
8
1
62
256
6
ByLayer
370
18
48
1
60
0
100
AcDbSpline
70
4
71
3
72
8
73
4
40
0
40
0
40
0
40
0
40
1
40
1
40
1
40
1
41
1
10
60.9998307970195
20
-0.0556233785985967
30
0
41
1
10
60.9929397693115
20
-0.0751787202241871
30
0
41
1
10
60.9860785834271
20
-0.0947515893558091
30
0
41
1
10
60.97924677076
20
-0.114341917515219
30
0
0
SPLINE
5
DB
100
AcDbEntity
8
1
62
256
6
ByLayer
370
18
48
1
60
0
100
AcDbSpline
70
4
71
3
72
28
73
24
40
0
40
0
40
0
40
0
40
0.198649126740666
40
0.198649126740666
40
0.24831140842583
40
0.24831140842583
40
0.297973690110994
40
0.297973690110994
40
0.397298253481318
40
0.397298253481318
40
0.446960535166481
40
0.446960535166481
40
0.496622816851643
40
0.496622816851643
40
0.595947380221967
40
0.595947380221967
40
0.794596506962615
40
0.794596506962615
40
0.893921070332939
40
0.893921070332939
40
0.993245633703264
40
0.993245633703264
40
1
40
1
40
1
40
1
41
1
10
59.7705734776844
20
0.112700503999321
30
0
41
1
10
59.2462000760045
20
0.361568943397884
30
0
41
1
10
58.7248468777631
20
0.606845858274909
30
0
41
1
10
58.0722789889934
20
0.898223277673821
30
0
41
1
10
57.941666569487
20
0.955602131434176
30
0
41
1
10
57.6803518891442
20
1.06858394576562
30
0
41
1
10
57.5495911496222
20
1.12408404511766
30
0
41
1
10
57.1564611705992
20
1.2870363007064
30
0
41
1
10
56.8936950135721
20
1.39191556129577
30
0
41
1
10
56.4976980085851
20
1.54155935604609
30
0
41
1
10
56.3651682762972
20
1.59031532631983
30
0
41
1
10
56.100832127585
20
1.68376950976275
30
0
41
1
10
55.9690582310246
20
1.72847049287012
30
0
41
1
10
55.5747153187497
20
1.85733870665311
30
0
41
1
10
55.3126496699484
20
1.93651296307371
30
0
41
1
10
54.5284080937617
20
2.15148959293643
30
0
41
1
10
54.0079822407668
20
2.26275960609596
30
0
41
1
10
53.2242724104904
20
2.37603280100481
30
0
41
1
10
52.9625525381067
20
2.40553034409209
30
0
41
1
10
52.437312468534
20
2.44652279549405
30
0
41
1
10
52.173183823753
20
2.45731465415162
30
0
41
1
10
51.8902500151562
20
2.45808063164719
30
0
41
1
10
51.8722379978103
20
2.45808629721608
30
0
41
1
10
51.854228970998
20
2.45804906430496
30
0
0
SPLINE
5
DC
100
AcDbEntity
8
1
62
256
6
ByLayer
370
18
48
1
60
0
100
AcDbSpline
70
4
71
3
72
70
73
66
40
0
40
0
40
0
40
0
40
0.0263053208613218
40
0.0263053208613218
40
0.0645885054772544
40
0.0645885054772544
40
0.102871690093187
40
0.102871690093187
40
0.141154874709119
40
0.141154874709119
40
0.179438059325052
40
0.179438059325052
40
0.198579651633018
40
0.198579651633018
40
0.217721243940984
40
0.217721243940984
40
0.256004428556915
40
0.256004428556915
40
0.294287613172846
40
0.294287613172846
40
0.332570797788777
40
0.332570797788777
40
0.370853982404708
40
0.370853982404708
40
0.409137167020639
40
0.409137167020639
40
0.428278759328604
40
0.428278759328604
40
0.447420351636568
40
0.447420351636568
40
0.485703536252499
40
0.485703536252499
40
0.52398672086843
40
0.52398672086843
40
0.562269905484361
40
0.562269905484361
40
0.600553090100292
40
0.600553090100292
40
0.638836274716223
40
0.638836274716223
40
0.657977867024188
40
0.657977867024188
40
0.677119459332152
40
0.677119459332152
40
0.715402643948082
40
0.715402643948082
40
0.734544236256046
40
0.734544236256046
40
0.75368582856401
40
0.75368582856401
40
0.791969013179938
40
0.791969013179938
40
0.830252197795865
40
0.830252197795865
40
0.868535382411793
40
0.868535382411793
40
0.887676974719756
40
0.887676974719756
40
0.90681856702772
40
0.90681856702772
40
0.945101751643646
40
0.945101751643646
40
0.983384936259572
40
0.983384936259572
40
1
40
1
40
1
40
1
41
1
10
39.8075152923809
20
-1.64631167054702
30
0
41
1
10
39.6253168762416
20
-1.70912175902186
30
0
41
1
10
39.4429806042826
20
-1.76904580745725
30
0
41
1
10
38.9972334557267
20
-1.90708105181
30
0
41
1
10
38.7342554644905
20
-1.98009228405988
30
0
41
1
10
38.2092891569388
20
-2.11236124044086
30
0
41
1
10
37.947417716334
20
-2.17131475904455
30
0
41
1
10
37.423781579381
20
-2.27088953810372
30
0
41
1
10
37.1621171520741
20
-2.31110469586267
30
0
41
1
10
36.6378630630753
20
-2.37485287171973
30
0
41
1
10
36.375160542431
20
-2.39888633807885
30
0
41
1
10
35.9797930755408
20
-2.42091793123362
30
0
41
1
10
35.8477628354527
20
-2.42590512069123
30
0
41
1
10
35.5830803041429
20
-2.43070920158485
30
0
41
1
10
35.4502582823988
20
-2.43043610561355
30
0
41
1
10
35.0529114150883
20
-2.42274046640611
30
0
41
1
10
34.7893043324229
20
-2.40833446045465
30
0
41
1
10
34.2634094094844
20
-2.3609300955805
30
0
41
1
10
34.0009677243603
20
-2.33015476065989
30
0
41
1
10
33.4769191521863
20
-2.24939809232845
30
0
41
1
10
33.2150744981617
20
-2.19950519976604
30
0
41
1
10
32.6907493374957
20
-2.08279511701224
30
0
41
1
10
32.4283313198842
20
-2.01664099339476
30
0
41
1
10
31.9015686151888
20
-1.86887062070548
30
0
41
1
10
31.6374542693858
20
-1.78820597177995
30
0
41
1
10
31.2391540718603
20
-1.65645442656586
30
0
41
1
10
31.1065940234703
20
-1.61070994012277
30
0
41
1
10
30.8422487855375
20
-1.51641939623102
30
0
41
1
10
30.7104003496729
20
-1.46756965908918
30
0
41
1
10
30.3157728093629
20
-1.31678425805578
30
0
41
1
10
30.0531819863258
20
-1.21258754861537
30
0
41
1
10
29.5290655580586
20
-0.995826554200249
30
0
41
1
10
29.26734902766
20
-0.883593585706649
30
0
41
1
10
28.7437105549155
20
-0.652076988585321
30
0
41
1
10
28.4818600718285
20
-0.533323999341775
30
0
41
1
10
27.9563341915123
20
-0.292798708176065
30
0
41
1
10
27.6930717844568
20
-0.170782205922705
30
0
41
1
10
27.1642711859492
20
0.074700163216761
30
0
41
1
10
26.8981823720982
20
0.198319284193644
30
0
41
1
10
26.5009899675259
20
0.381044277645088
30
0
41
1
10
26.3686500752745
20
0.441344653145649
30
0
41
1
10
26.1040044877113
20
0.561266405086457
30
0
41
1
10
25.9717407715104
20
0.620867727460706
30
0
41
1
10
25.5746054742795
20
0.797275866394926
30
0
41
1
10
25.3098018335548
20
0.912542551381733
30
0
41
1
10
24.9115620482522
20
1.07914310633089
30
0
41
1
10
24.778997226535
20
1.13355395443068
30
0
41
1
10
24.514406032911
20
1.23987497720992
30
0
41
1
10
24.3822853052016
20
1.29178613218701
30
0
41
1
10
23.9867740665476
20
1.44396899698535
30
0
41
1
10
23.7238611464243
20
1.54015716686197
30
0
41
1
10
23.1993277638783
20
1.7179155201946
30
0
41
1
10
22.9372814997926
20
1.79955762706007
30
0
41
1
10
22.4129040860674
20
1.95103407951464
30
0
41
1
10
22.1506742336416
20
2.0205949008224
30
0
41
1
10
21.7562231640182
20
2.11192347912507
30
0
41
1
10
21.6246402541378
20
2.14008123803419
30
0
41
1
10
21.3608716113231
20
2.19220540652179
30
0
41
1
10
21.228721596566
20
2.21637789338277
30
0
41
1
10
20.8315616072476
20
2.28247639281841
30
0
41
1
10
20.565017871323
20
2.3169243006933
30
0
41
1
10
20.0356138375797
20
2.36992548158369
30
0
41
1
10
19.7717461887311
20
2.38799198624679
30
0
41
1
10
19.3944579215674
20
2.39996470631016
30
0
41
1
10
19.2804242193932
20
2.40151462479608
30
0
41
1
10
19.1664610556812
20
2.40123524509846
30
0
0
SPLINE
5
DD
100
AcDbEntity
8
1
62
256
6
ByLayer
370
18
48
1
60
0
100
AcDbSpline
70
4
71
3
72
10
73
6
40
0
40
0
40
0
40
0
40
0.5
40
0.5
40
1
40
1
40
1
40
1
41
1
10
6.68101123629347
20
1.78768208755466
30
0
41
1
10
6.7439888904988
20
1.75784152808802
30
0
41
1
10
6.807290746104
20
1.72974563870119
30
0
41
1
10
6.93443747625224
20
1.6764139024896
30
0
41
1
10
6.99784478934939
20
1.65138076680401
30
0
41
1
10
7.06002783767045
20
1.62813909374904
30
0
0
SPLINE
5
DE
100
AcDbEntity
8
1
62
256
6
ByLayer
370
18
48
1
60
0
100
AcDbSpline
70
4
71
3
72
10
73
6
40
0
40
0
40
0
40
0
40
0.5
40
0.5
40
1
40
1
40
1
40
1
41
1
10
60.0661523850177
20
-2.47040120434306
30
0
41
1
10
60.0654622914943
20
-2.43549854752078
30
0
41
1
10
60.0596805462959
20
-2.4068708197147
30
0
41
1
10
60.0426915235494
20
-2.36048386627337
30
0
41
1
10
60.0315248277689
20
-2.34262220232006
30
0
41
1
10
60.018573111753
20
-2.32878634607187
30
0
0
SPLINE
5
DF
100
AcDbEntity
8
1
62
256
6
ByLayer
370
18
48
1
60
0
100
AcDbSpline
70
4
71
3
72
8
73
4
40
0
40
0
40
0
40
0
40
1
40
1
40
1
40
1
41
1
10
60.9998307970169
20
0.0556233786058158
30
0
41
1
10
60.9929414636618
20
0.0751739120014179
30
0
41
1
10
60.9860802701616
20
0.0947467526187609
30
0
41
1
10
60.97924677076
20
0.114341917515105
30
0
0
SPLINE
5
E0
100
AcDbEntity
8
1
62
256
6
ByLayer
370
18
48
1
60
0
100
AcDbSpline
70
4
71
3
72
8
73
4
40
0
40
0
40
0
40
0
40
1
40
1
40
1
40
1
41
1
10
60.9792467707658
20
0.114341917498763
30
0
41
1
10
60.7626838881016
20
0.735339322617108
30
0
41
1
10
60.5489870924705
20
1.35731984371287
30
0
41
1
10
60.3381838257371
20
1.98029289380642
30
0
0
SPLINE
5
E1
100
AcDbEntity
8
1
62
256
6
ByLayer
370
18
48
1
60
0
100
AcDbSpline
70
4
71
3
72
32
73
28
40
0
40
0
40
0
40
0
40
0.250000000000001
40
0.250000000000001
40
0.375000000000002
40
0.375000000000002
40
0.500000000000002
40
0.500000000000002
40
0.562500000000003
40
0.562500000000003
40
0.625000000000003
40
0.625000000000003
40
0.687500000000003
40
0.687500000000003
40
0.718750000000003
40
0.718750000000003
40
0.750000000000002
40
0.750000000000002
40
0.812500000000001
40
0.812500000000001
40
0.84375
40
0.84375
40
0.874999999999999
40
0.874999999999999
40
0.9375
40
0.9375
40
1
40
1
40
1
40
1
41
1
10
6.68101123629432
20
-1.78768208755434
30
0
41
1
10
6.36133258706522
20
-1.90564186463413
30
0
41
1
10
6.0497718525466
20
-2.01776367145831
30
0
41
1
10
5.60125664230716
20
-2.17044080775832
30
0
41
1
10
5.45451487962703
20
-2.21883935983061
30
0
41
1
10
5.17189676880651
20
-2.30707324805945
30
0
41
1
10
5.03735236034706
20
-2.34654958045741
30
0
41
1
10
4.85100800355102
20
-2.3946123257071
30
0
41
1
10
4.79201857439563
20
-2.40859880517357
30
0
41
1
10
4.68307748316457
20
-2.43113879092553
30
0
41
1
10
4.63291536489209
20
-2.43975588127026
30
0
41
1
10
4.54377328759765
20
-2.44999168188116
30
0
41
1
10
4.50458558459579
20
-2.45152763819323
30
0
41
1
10
4.45936199192175
20
-2.44682787172459
30
0
41
1
10
4.44643744016295
20
-2.44411584435821
30
0
41
1
10
4.4252903875304
20
-2.43617393365406
30
0
41
1
10
4.41703602644975
20
-2.43090082843361
30
0
41
1
10
4.40033406363762
20
-2.41118546862788
30
0
41
1
10
4.39994874856254
20
-2.39312319686473
30
0
41
1
10
4.41511520890151
20
-2.35878384789572
30
0
41
1
10
4.42288505271318
20
-2.3460276811586
30
0
41
1
10
4.44320156783803
20
-2.31870903846095
30
0
41
1
10
4.45571277762039
20
-2.30414746232569
30
0
41
1
10
4.49960518884041
20
-2.25802403700706
30
0
41
1
10
4.53777585300452
20
-2.22368043312142
30
0
41
1
10
4.62547122618506
20
-2.15184710599854
30
0
41
1
10
4.67496303909837
20
-2.11429262902348
30
0
41
1
10
4.72879886576445
20
-2.07549340436802
30
0
0
SPLINE
5
E2
100
AcDbEntity
8
1
62
256
6
ByLayer
370
18
48
1
60
0
100
AcDbSpline
70
4
71
3
72
10
73
6
40
0
40
0
40
0
40
0
40
0.5
40
0.5
40
1
40
1
40
1
40
1
41
1
10
7.85562179602158
20
1.98279645201521
30
0
41
1
10
8.3717906242706
20
2.11273249353678
30
0
41
1
10
8.89468763610375
20
2.21565633306264
30
0
41
1
10
9.9361597847697
20
2.37031296734878
30
0
41
1
10
10.4561288382858
20
2.42245161976109
30
0
41
1
10
10.9751808687374
20
2.44708873269175
30
0
0
SPLINE
5
E3
100
AcDbEntity
8
1
62
256
6
ByLayer
370
13
48
1
60
0
100
AcDbSpline
70
4
71
3
72
87
73
83
40
0
40
0
40
0
40
0
40
0.0021063071903452
40
0.0095267623424333
40
0.024367672646609
40
0.0466290381028721
40
0.0540494932549597
40
0.0688904035591354
40
0.083731313863311
40
0.105992679319574
40
0.113413134471662
40
0.128254044775837
40
0.143094955080013
40
0.16906654811232
40
0.172776775688364
40
0.180197230840452
40
0.18761768599254
40
0.202458596296715
40
0.209879051448803
40
0.217299506600891
40
0.224719961752979
40
0.232140416905066
40
0.239560872057154
40
0.246981327209242
40
0.261822237513418
40
0.284083602969681
40
0.291504058121768
40
0.306344968425944
40
0.32118587873012
40
0.343447244186383
40
0.35086769933847
40
0.365708609642646
40
0.380549519946822
40
0.402810885403085
40
0.410231340555173
40
0.425072250859347
40
0.439913161163524
40
0.462174526619789
40
0.469594981771875
40
0.484435892076051
40
0.499276802380228
40
0.521538167836494
40
0.528958622988577
40
0.543799533292753
40
0.558640443596929
40
0.580901809053194
40
0.588322264205279
40
0.603163174509452
40
0.618004084813632
40
0.640265450269893
40
0.647685905421982
40
0.662526815726157
40
0.677367726030334
40
0.703339319062638
40
0.707049546638684
40
0.714470001790774
40
0.721890456942859
40
0.736731367247035
40
0.744151822399123
40
0.751572277551215
40
0.758992732703298
40
0.766413187855386
40
0.773833643007476
40
0.781254098159561
40
0.796095008463735
40
0.81835637392
40
0.825776829072088
40
0.840617739376264
40
0.855458649680442
40
0.877720015136703
40
0.88514047028879
40
0.899981380592964
40
0.914822290897139
40
0.940793883929447
40
0.944504111505492
40
0.951924566657579
40
0.959345021809667
40
0.974185932113844
40
0.98160638726593
40
0.989026842418019
40
0.996447297570107
40
1
40
1
40
1
40
1
41
1
10
54.5204287377553
20
-0.997344853088578
30
0
41
1
10
54.5129445358691
20
-0.998045973351367
30
0
41
1
10
54.4790938446113
20
-1.00120275479017
30
0
41
1
10
54.3925119439517
20
-1.0091086476431
30
0
41
1
10
54.2343214345625
20
-1.02283519747374
30
0
41
1
10
54.0761103271115
20
-1.03542512745403
30
0
41
1
10
53.9179017705884
20
-1.04706184442586
30
0
41
1
10
53.7860722489469
20
-1.05612126867254
30
0
41
1
10
53.6015086639898
20
-1.06765331333
30
0
41
1
10
53.4432975612878
20
-1.07634666988127
30
0
41
1
10
53.2850891710529
20
-1.08405383739617
30
0
41
1
10
53.1532597891551
20
-1.08981087638116
30
0
41
1
10
52.955517305129
20
-1.09716275353671
30
0
41
1
10
52.7973026853508
20
-1.10173222739456
30
0
41
1
10
52.66545395044
20
-1.10472412312348
30
0
41
1
10
52.5995376428699
20
-1.10602472656382
30
0
41
1
10
52.4940727016061
20
-1.10775173312172
30
0
41
1
10
52.3886035026887
20
-1.10898785373189
30
0
41
1
10
52.2831312878379
20
-1.10973641344367
30
0
41
1
10
52.204029324897
20
-1.11002329601999
30
0
41
1
10
52.1249272871197
20
-1.11005412881488
30
0
41
1
10
52.0458262335133
20
-1.10983149859351
30
0
41
1
10
51.966725743895
20
-1.10935383665688
30
0
41
1
10
51.8612618856728
20
-1.10834983018893
30
0
41
1
10
51.7030713578991
20
-1.10603564131614
30
0
41
1
10
51.5448602369862
20
-1.10254974315464
30
0
41
1
10
51.3866516725757
20
-1.09805314022148
30
0
41
1
10
51.2548221522119
20
-1.09360536275125
30
0
41
1
10
51.0702585748502
20
-1.08619035134819
30
0
41
1
10
50.9120474703285
20
-1.07865736960315
30
0
41
1
10
50.7538390517949
20
-1.0701377794523
30
0
41
1
10
50.6220096592967
20
-1.06234862759044
30
0
41
1
10
50.4374461893957
20
-1.05029187713535
30
0
41
1
10
50.2792350979934
20
-1.03882844688278
30
0
41
1
10
50.1210266133352
20
-1.02641452570722
30
0
41
1
10
49.9891971270541
20
-1.01539904608597
30
0
41
1
10
49.8046335039077
20
-0.99887641315533
30
0
41
1
10
49.6464222937682
20
-0.983649838226881
30
0
41
1
10
49.4882137456699
20
-0.96752557853597
30
0
41
1
10
49.3563842548987
20
-0.953449225709136
30
0
41
1
10
49.1718206973367
20
-0.93271106259553
30
0
41
1
10
49.0136095950703
20
-0.913952465651903
30
0
41
1
10
48.8554011667627
20
-0.894360719667617
30
0
41
1
10
48.7235717754097
20
-0.877433900086999
30
0
41
1
10
48.5390083449474
20
-0.852788075955573
30
0
41
1
10
48.3807973287741
20
-0.830774560988687
30
0
41
1
10
48.222588954432
20
-0.808004614619421
30
0
41
1
10
48.0907596032616
20
-0.788477392944714
30
0
41
1
10
47.9061962296224
20
-0.760287962846689
30
0
41
1
10
47.7479852502708
20
-0.735344346025158
30
0
41
1
10
47.5897768976057
20
-0.709731538977593
30
0
41
1
10
47.4579474879079
20
-0.687890991470567
30
0
41
1
10
47.2602048760828
20
-0.654302835409709
30
0
41
1
10
47.1019900911009
20
-0.626742712613208
30
0
41
1
10
46.9701412146811
20
-0.603345547305679
30
0
41
1
10
46.9042248354627
20
-0.591496498083302
30
0
41
1
10
46.7987597777368
20
-0.572338551004691
30
0
41
1
10
46.693290462238
20
-0.552946555399643
30
0
41
1
10
46.5878181427591
20
-0.533333849900885
30
0
41
1
10
46.5087161156097
20
-0.518475746104201
30
0
41
1
10
46.4296140280611
20
-0.503497398786152
30
0
41
1
10
46.3505129406021
20
-0.488402245451482
30
0
41
1
10
46.2714124327836
20
-0.47319385878734
30
0
41
1
10
46.1659485683766
20
-0.452737432221312
30
0
41
1
10
46.0077580711242
20
-0.421686887569905
30
0
41
1
10
45.8495470421806
20
-0.390285601846074
30
0
41
1
10
45.6913386130209
20
-0.358530178356489
30
0
41
1
10
45.5595092298573
20
-0.331778520070458
30
0
41
1
10
45.3749458682985
20
-0.29397034087765
30
0
41
1
10
45.2167349519576
20
-0.26130922796122
30
0
41
1
10
45.0585266993695
20
-0.22841502781074
30
0
41
1
10
44.9266974015823
20
-0.20079582164422
30
0
41
1
10
44.7289550013799
20
-0.159113786464815
30
0
41
1
10
44.5707404104572
20
-0.125685086396317
30
0
41
1
10
44.4388916868612
20
-0.0977744252329842
30
0
41
1
10
44.3729753830925
20
-0.0837528464590491
30
0
41
1
10
44.2675104443497
20
-0.061280875640108
30
0
41
1
10
44.1620412425509
20
-0.0388052133564258
30
0
41
1
10
44.0565690218216
20
-0.0163395715439094
30
0
41
1
10
43.9774670541863
20
0.0005313688943147
30
0
41
1
10
43.9121084233643
20
0.0144706411680886
30
0
41
1
10
43.8731174985494
20
0.0227852940318769
30
0
41
1
10
43.8604937094481
20
0.0254770587608277
30
0
0
SPLINE
5
E4
100
AcDbEntity
8
1
62
256
6
ByLayer
370
13
48
1
60
0
100
AcDbSpline
70
4
71
3
72
92
73
88
40
0
40
0
40
0
40
0
40
0.0111295124795301
40
0.0185181457843072
40
0.033295412393862
40
0.0480726790034167
40
0.0702385789177486
40
0.0776272122225262
40
0.0924044788320804
40
0.107181745441635
40
0.133041962008356
40
0.136736278660745
40
0.144124911965522
40
0.151513545270299
40
0.166290811879854
40
0.173679445184631
40
0.181068078489408
40
0.188456711794186
40
0.195845345098963
40
0.203233978403742
40
0.210622611708518
40
0.225399878318073
40
0.247565778232405
40
0.254954411537182
40
0.269731678146736
40
0.284508944756291
40
0.306674844670624
40
0.3140634779754
40
0.328840744584955
40
0.343618011194508
40
0.369478227761231
40
0.373172544413619
40
0.380561177718396
40
0.387949811023174
40
0.402727077632728
40
0.410115710937505
40
0.417504344242283
40
0.42489297754706
40
0.432281610851837
40
0.439670244156614
40
0.447058877461392
40
0.461836144070946
40
0.484002043985279
40
0.491390677290056
40
0.506167943899611
40
0.520945210509165
40
0.543111110423496
40
0.550499743728275
40
0.565277010337829
40
0.580054276947384
40
0.605914493514105
40
0.609608810166493
40
0.61699744347127
40
0.624386076776048
40
0.639163343385602
40
0.64655197669038
40
0.653940609995157
40
0.661329243299934
40
0.668717876604711
40
0.676106509909489
40
0.683495143214266
40
0.698272409823821
40
0.720438309738152
40
0.72782694304293
40
0.742604209652484
40
0.757381476262039
40
0.779547376176371
40
0.786936009481149
40
0.801713276090703
40
0.816490542700258
40
0.842350759266978
40
0.846045075919367
40
0.853433709224145
40
0.860822342528922
40
0.875599609138476
40
0.882988242443254
40
0.890376875748031
40
0.897765509052809
40
0.905154142357586
40
0.912542775662363
40
0.91993140896714
40
0.934708675576695
40
0.956874575491027
40
0.964263208795804
40
0.979040475405359
40
0.993817742014914
40
1
40
1
40
1
40
1
41
1
10
21.8690917710795
20
-0.992704773871367
30
0
41
1
10
21.8293734731584
20
-0.996497248511758
30
0
41
1
10
21.7632864301966
20
-1.00266565451801
30
0
41
1
10
21.6444639495584
20
-1.01332561313677
30
0
41
1
10
21.5126345708174
20
-1.02454545030926
30
0
41
1
10
21.3280711653563
20
-1.03913968063813
30
0
41
1
10
21.1698601813628
20
-1.05048434143501
30
0
41
1
10
21.0116518561039
20
-1.06086289606273
30
0
41
1
10
20.8798225090407
20
-1.06886312086846
30
0
41
1
10
20.6820800629995
20
-1.0796013555541
30
0
41
1
10
20.5238654579783
20
-1.0868882600698
30
0
41
1
10
20.3920167294285
20
-1.09215116907683
30
0
41
1
10
20.3261004220526
20
-1.09459330495972
30
0
41
1
10
20.220635469796
20
-1.0981506901062
30
0
41
1
10
20.1151662400276
20
-1.10121837500094
30
0
41
1
10
20.009693974693
20
-1.1037980691558
30
0
41
1
10
19.9305919703918
20
-1.10546028263227
30
0
41
1
10
19.8514898862604
20
-1.10686640299861
30
0
41
1
10
19.7723887817166
20
-1.10801866936569
30
0
41
1
10
19.6932882302846
20
-1.10891498826686
30
0
41
1
10
19.5878242718015
20
-1.10974365804142
30
0
41
1
10
19.429633566154
20
-1.11017843563184
30
0
41
1
10
19.271422255579
20
-1.10942765499061
30
0
41
1
10
19.1132135329623
20
-1.10766295065415
30
0
41
1
10
18.9813839070529
20
-1.10549409904459
30
0
41
1
10
18.7968202427327
20
-1.10126158845662
30
0
41
1
10
18.6386091434935
20
-1.09643975381127
30
0
41
1
10
18.4804008141475
20
-1.09061876648127
30
0
41
1
10
18.3485715219596
20
-1.08507340899212
30
0
41
1
10
18.1508292312891
20
-1.07547334334933
30
0
41
1
10
17.9926148058012
20
-1.06655189098902
30
0
41
1
10
17.8607662304817
20
-1.05834408972254
30
0
41
1
10
17.7948500014968
20
-1.05403396979722
30
0
41
1
10
17.6893851792141
20
-1.04679635776941
30
0
41
1
10
17.5839160832225
20
-1.0391037626639
30
0
41
1
10
17.4784439460205
20
-1.03096369356899
30
0
41
1
10
17.3993420283905
20
-1.02459575777075
30
0
41
1
10
17.3202400196251
20
-1.01799053065477
30
0
41
1
10
17.2411389762576
20
-1.0111511934
30
0
41
1
10
17.1620384719987
20
-1.0040780095579
30
0
41
1
10
17.0565745624598
20
-0.994303915317971
30
0
41
1
10
16.8983839000251
20
-0.978899817329221
30
0
41
1
10
16.7401725899849
20
-0.96249946532572
30
0
41
1
10
16.5819638433516
20
-0.945219115621029
30
0
41
1
10
16.4501341857682
20
-0.930190026907411
30
0
41
1
10
16.2655704627345
20
-0.908141833149472
30
0
41
1
10
16.1073593036146
20
-0.888288212226513
30
0
41
1
10
15.9491509144884
20
-0.867624430376623
30
0
41
1
10
15.8173215720391
20
-0.849818588572731
30
0
41
1
10
15.6195792071503
20
-0.822094018743002
30
0
41
1
10
15.4613647286938
20
-0.799013082064249
30
0
41
1
10
15.3295161181836
20
-0.779217562170601
30
0
41
1
10
15.2635998747429
20
-0.769143871811281
30
0
41
1
10
15.1581350390163
20
-0.752771256209712
30
0
41
1
10
15.0526659452302
20
-0.736082676068918
30
0
41
1
10
14.947193825367
20
-0.719090516561295
30
0
41
1
10
14.868091924661
20
-0.70615415522937
30
0
41
1
10
14.7889899370033
20
-0.693054540140594
30
0
41
1
10
14.7098889180757
20
-0.679795258783344
30
0
41
1
10
14.6307884453186
20
-0.6663790741311
30
0
41
1
10
14.5253245905768
20
-0.648251345450461
30
0
41
1
10
14.3671340331541
20
-0.620556454298935
30
0
41
1
10
14.2089228522386
20
-0.592289548411628
30
0
41
1
10
14.0507142369481
20
-0.56348426687569
30
0
41
1
10
13.9188846875321
20
-0.53906872544141
30
0
41
1
10
13.7343210991701
20
-0.504306586324134
30
0
41
1
10
13.5761100211736
20
-0.47402116056341
30
0
41
1
10
13.4179016674374
20
-0.443307386824216
30
0
41
1
10
13.2860723084775
20
-0.417374152269531
30
0
41
1
10
13.0883298352745
20
-0.377965321119888
30
0
41
1
10
12.9301152063675
20
-0.346090176298901
30
0
41
1
10
12.7982664591456
20
-0.319309108965825
30
0
41
1
10
12.7323501468529
20
-0.305813864343094
30
0
41
1
10
12.6268852038256
20
-0.28411264079287
30
0
41
1
10
12.5214160109344
20
-0.262307630414085
30
0
41
1
10
12.4159438050416
20
-0.24041269267849
30
0
41
1
10
12.3368418450573
20
-0.223914016013879
30
0
41
1
10
12.2577398058976
20
-0.207363391814283
30
0
41
1
10
12.1786387449323
20
-0.190763847687037
30
0
41
1
10
12.0995382438656
20
-0.174119869308612
30
0
41
1
10
11.9940743703813
20
-0.151846600895368
30
0
41
1
10
11.8358838214683
20
-0.118287628298873
30
0
41
1
10
11.6776726928073
20
-0.0847106822552917
30
0
41
1
10
11.5194641440167
20
-0.0510604362650042
30
0
41
1
10
11.3876346540054
20
-0.0229197368638552
30
0
41
1
10
11.2601085036067
20
0.0043153694372222
30
0
41
1
10
11.1853110997552
20
0.0202645080320281
30
0
41
1
10
11.1632485174719
20
0.0249669399279355
30
0
0
SPLINE
5
E5
100
AcDbEntity
8
1
62
256
6
ByLayer
370
18
48
1
60
0
100
AcDbSpline
70
4
71
3
72
8
73
4
40
0
40
0
40
0
40
0
40
1
40
1
40
1
40
1
41
1
10
10.9751808687374
20
-2.44708873269184
30
0
41
1
10
11.1651232849463
20
-2.45720945710301
30
0
41
1
10
11.3543760939499
20
-2.46238270886366
30
0
41
1
10
11.5431174366025
20
-2.46269749718732
30
0
0
SPLINE
5
E6
100
AcDbEntity
8
1
62
256
6
ByLayer
370
18
48
1
60
0
100
AcDbSpline
70
4
71
3
72
50
73
46
40
0
40
0
40
0
40
0
40
0.0662136169420663
40
0.0662136169420663
40
0.0846679092895313
40
0.0846679092895313
40
0.103122201636996
40
0.103122201636996
40
0.140030786331926
40
0.140030786331926
40
0.176939371026855
40
0.176939371026855
40
0.213847955721784
40
0.213847955721784
40
0.250756540416713
40
0.250756540416713
40
0.287665125111642
40
0.287665125111642
40
0.361482294501501
40
0.361482294501501
40
0.398390879196432
40
0.398390879196432
40
0.435299463891362
40
0.435299463891362
40
0.509116633281222
40
0.509116633281222
40
0.546025217976152
40
0.546025217976152
40
0.582933802671081
40
0.582933802671081
40
0.656750972060939
40
0.656750972060939
40
0.693659556755868
40
0.693659556755868
40
0.730568141450797
40
0.730568141450797
40
0.767476726145726
40
0.767476726145726
40
0.804385310840655
40
0.804385310840655
40
0.841293895535584
40
0.841293895535584
40
0.878202480230513
40
0.878202480230513
40
1
40
1
40
1
40
1
41
1
10
23.4398836165929
20
1.62702807772186
30
0
41
1
10
23.8958706402349
20
1.79195298944109
30
0
41
1
10
24.3522777880178
20
1.93844387948155
30
0
41
1
10
24.9401950798938
20
2.09612793150643
30
0
41
1
10
25.0684751092216
20
2.12884864669763
30
0
41
1
10
25.325885546562
20
2.19024963190137
30
0
41
1
10
25.4547880301137
20
2.21894131649651
30
0
41
1
10
25.8404464466536
20
2.29897476875757
30
0
41
1
10
26.0971706149494
20
2.34394618657873
30
0
41
1
10
26.6105168737861
20
2.41670083070912
30
0
41
1
10
26.8673730237508
20
2.44435215382552
30
0
41
1
10
27.3818724845281
20
2.48185216737193
30
0
41
1
10
27.6393231308323
20
2.49155587477102
30
0
41
1
10
28.1530746508946
20
2.49269714374844
30
0
41
1
10
28.4095315510137
20
2.48416892237177
30
0
41
1
10
28.9230439196145
20
2.44907471373537
30
0
41
1
10
29.1803644586923
20
2.42246794518482
30
0
41
1
10
29.9522875778205
20
2.31625213938838
30
0
41
1
10
30.4642844859282
20
2.21050954524333
30
0
41
1
10
31.2351833934987
20
2.00576034973935
30
0
41
1
10
31.4929133009373
20
1.92953840305739
30
0
41
1
10
32.0051915879143
20
1.7647976840918
30
0
41
1
10
32.2602569046221
20
1.67604947791207
30
0
41
1
10
33.0232990665981
20
1.3925106821568
30
0
41
1
10
33.5300497815262
20
1.1819718191008
30
0
41
1
10
34.2925830417521
20
0.84380687936013
30
0
41
1
10
34.5472158650767
20
0.727464226719263
30
0
41
1
10
35.0582870504795
20
0.489224782599791
30
0
41
1
10
35.315317060953
20
0.366966631089951
30
0
41
1
10
36.0864380206465
20
-0.001877141115358
30
0
41
1
10
36.5980724320339
20
-0.250726228289693
30
0
41
1
10
37.3682603896439
20
-0.615041740296789
30
0
41
1
10
37.6257773460507
20
-0.734725062612853
30
0
41
1
10
38.1388370880006
20
-0.967911965534086
30
0
41
1
10
38.3949471321461
20
-1.08135488263523
30
0
41
1
10
38.9077568658207
20
-1.29927088355183
30
0
41
1
10
39.16418764417
20
-1.40423827775226
30
0
41
1
10
39.6785375199067
20
-1.60354101174516
30
0
41
1
10
39.9350106195706
20
-1.697493469916
30
0
41
1
10
40.4475747757691
20
-1.87245278074513
30
0
41
1
10
40.7036343487133
20
-1.95350526186232
30
0
41
1
10
41.2164767506916
20
-2.10109131441652
30
0
41
1
10
41.4739684581016
20
-2.16768987529892
30
0
41
1
10
42.5751345559687
20
-2.4177938325808
30
0
41
1
10
43.4075746756004
20
-2.51869662467837
30
0
41
1
10
44.2457022729002
20
-2.52147486021161
30
0
0
SPLINE
5
E7
100
AcDbEntity
8
1
62
256
6
ByLayer
370
18
48
1
60
0
100
AcDbSpline
70
4
71
3
72
18
73
14
40
0
40
0
40
0
40
0
40
0.0345613181577728
40
0.0345613181577728
40
0.227649054526218
40
0.227649054526218
40
0.420736790894664
40
0.420736790894664
40
0.61382452726311
40
0.61382452726311
40
0.806912263631555
40
0.806912263631555
40
1
40
1
40
1
40
1
41
1
10
56.1473189149295
20
1.66162082903688
30
0
41
1
10
56.192688148746
20
1.67844183361393
30
0
41
1
10
56.2380697852883
20
1.69508445443483
30
0
41
1
10
56.5370832217372
20
1.80351107528938
30
0
41
1
10
56.7911995933645
20
1.88969791874732
30
0
41
1
10
57.3018363301651
20
2.04825744850171
30
0
41
1
10
57.5586647481019
20
2.12107842927253
30
0
41
1
10
58.0707886613732
20
2.25029993134228
30
0
41
1
10
58.3265223350897
20
2.30688695819964
30
0
41
1
10
58.8382730206564
20
2.40316705844128
30
0
41
1
10
59.0946093167229
20
2.44291130918467
30
0
41
1
10
59.6070390516526
20
2.50427907895846
30
0
41
1
10
59.8627618145179
20
2.52591278565228
30
0
41
1
10
60.1185365802323
20
2.53837304654323
30
0
0
SPLINE
5
E8
100
AcDbEntity
8
1
62
256
6
ByLayer
370
18
48
1
60
0
100
AcDbSpline
70
4
71
2
72
6
73
3
40
0
40
0
40
0
40
1
40
1
40
1
41
0.500000072369333
10
60.0675423450074
20
-2.4713702316776
30
0
41
0.499999927630667
10
60.0668467708623
20
-2.47088716906281
30
0
41
0.500000072369333
10
60.0661523850203
20
-2.47040120433676
30
0
0
SPLINE
5
E9
100
AcDbEntity
8
1
62
256
6
ByLayer
370
18
48
1
60
0
100
AcDbSpline
70
4
71
3
72
12
73
8
40
0
40
0
40
0
40
0
40
0.249999999999999
40
0.249999999999999
40
0.499999999999997
40
0.499999999999997
40
1
40
1
40
1
40
1
41
1
10
60.0185731117573
20
-2.32878634607638
30
0
41
1
10
59.9790697541956
20
-2.28658631822438
30
0
41
1
10
59.9436911980827
20
-2.23563373131248
30
0
41
1
10
59.8813478726232
20
-2.11587505193057
30
0
41
1
10
59.8543067566224
20
-2.04682793549361
30
0
41
1
10
59.7874469158187
20
-1.81195521129584
30
0
41
1
10
59.763448779331
20
-1.62613918441207
30
0
41
1
10
59.7611110969881
20
-1.41031607476083
30
0
0
SPLINE
5
EA
100
AcDbEntity
8
1
62
256
6
ByLayer
370
18
48
1
60
0
100
AcDbSpline
70
4
71
3
72
44
73
40
40
0
40
0
40
0
40
0
40
0.0909297589317481
40
0.0909297589317481
40
0.181859517863496
40
0.181859517863496
40
0.22732439732937
40
0.22732439732937
40
0.272789276795243
40
0.272789276795243
40
0.318254156261117
40
0.318254156261117
40
0.36371903572699
40
0.36371903572699
40
0.454648794658738
40
0.454648794658738
40
0.500113674124612
40
0.500113674124612
40
0.545578553590486
40
0.545578553590486
40
0.59104343305636
40
0.59104343305636
40
0.613775872789297
40
0.613775872789297
40
0.636508312522234
40
0.636508312522234
40
0.727438071453982
40
0.727438071453982
40
0.818367830385728
40
0.818367830385728
40
0.841100270118665
40
0.841100270118665
40
0.863832709851602
40
0.863832709851602
40
0.909297589317474
40
0.909297589317474
40
0.954762468783345
40
0.954762468783345
40
1
40
1
40
1
40
1
41
1
10
10.9751808687374
20
2.44708873269181
30
0
41
1
10
11.491359976038
20
2.47459236561409
30
0
41
1
10
12.0024459231312
20
2.46555824706448
30
0
41
1
10
13.0215838874512
20
2.37798798919758
30
0
41
1
10
13.5297675218215
20
2.29939736741608
30
0
41
1
10
14.2959665196202
20
2.13320062589898
30
0
41
1
10
14.5519237212294
20
2.06966091632665
30
0
41
1
10
15.0660985120403
20
1.92717123650644
30
0
41
1
10
15.3245659484343
20
1.84829025879967
30
0
41
1
10
15.8392572731468
20
1.67783932027035
30
0
41
1
10
16.0963967640354
20
1.5864788562815
30
0
41
1
10
16.6106630128885
20
1.39213946939438
30
0
41
1
10
16.8679113621172
20
1.28933420283639
30
0
41
1
10
17.6420497514147
20
0.967587198947825
30
0
41
1
10
18.1551356833772
20
0.736112871034635
30
0
41
1
10
18.9269965767488
20
0.376967432478267
30
0
41
1
10
19.1850259139512
20
0.254892751745643
30
0
41
1
10
19.6998994386291
20
0.0102519924227238
30
0
41
1
10
19.9568737156648
20
-0.112310393186874
30
0
41
1
10
20.4709034957489
20
-0.355798382379675
30
0
41
1
10
20.7278669553052
20
-0.476916266997364
30
0
41
1
10
21.1142473263674
20
-0.65552765304875
30
0
41
1
10
21.2432690183631
20
-0.714706469633256
30
0
41
1
10
21.5004048341802
20
-0.83134278566402
30
0
41
1
10
21.6287557768723
20
-0.888640688191174
30
0
41
1
10
22.2686770678655
20
-1.17167769724642
30
0
41
1
10
22.7771417991487
20
-1.38203104652988
30
0
41
1
10
23.7939461544266
20
-1.75897651612763
30
0
41
1
10
24.3024542549041
20
-1.92519850532267
30
0
41
1
10
24.9433318320745
20
-2.0969393637638
30
0
41
1
10
25.0716443293166
20
-2.12963832435261
30
0
41
1
10
25.3291252618015
20
-2.19098784969316
30
0
41
1
10
25.4580489114662
20
-2.21965190434847
30
0
41
1
10
25.8437858702919
20
-2.2995987125027
30
0
41
1
10
26.1005657733463
20
-2.34450555589817
30
0
41
1
10
26.6140302981876
20
-2.41711952995198
30
0
41
1
10
26.8709436335995
20
-2.44469743015497
30
0
41
1
10
27.3842855509564
20
-2.48194223810708
30
0
41
1
10
27.6404962506551
20
-2.49155669306535
30
0
41
1
10
27.8961471772027
20
-2.49212638994243
30
0
0
SPLINE
5
EB
100
AcDbEntity
8
1
62
256
6
ByLayer
370
18
48
1
60
0
100
AcDbSpline
70
4
71
3
72
48
73
44
40
0
40
0
40
0
40
0
40
0.0192018852046894
40
0.0192018852046894
40
0.0569248896198942
40
0.0569248896198942
40
0.0946478940350993
40
0.0946478940350993
40
0.245539911695915
40
0.245539911695915
40
0.28326291611112
40
0.28326291611112
40
0.320985920526324
40
0.320985920526324
40
0.358708924941528
40
0.358708924941528
40
0.396431929356732
40
0.396431929356732
40
0.47187793818714
40
0.47187793818714
40
0.509600942602344
40
0.509600942602344
40
0.547323947017549
40
0.547323947017549
40
0.585046951432753
40
0.585046951432753
40
0.622769955847957
40
0.622769955847957
40
0.660492960263161
40
0.660492960263161
40
0.698215964678365
40
0.698215964678365
40
0.773661973508773
40
0.773661973508773
40
0.811384977923978
40
0.811384977923978
40
0.849107982339182
40
0.849107982339182
40
0.886830986754386
40
0.886830986754386
40
0.92455399116959
40
0.92455399116959
40
1
40
1
40
1
40
1
41
1
10
39.8061888824587
20
1.64882636127265
30
0
41
1
10
39.9368343475024
20
1.69656550323984
30
0
41
1
10
40.0673643173808
20
1.74272602715755
30
0
41
1
10
40.4541827928645
20
1.87459657921073
30
0
41
1
10
40.7102958392842
20
1.95555542760366
30
0
41
1
10
41.2232740045555
20
2.10291077497874
30
0
41
1
10
41.480821772493
20
2.16939177877182
30
0
41
1
10
42.7614500572773
20
2.45951976263285
30
0
41
1
10
43.7674098576667
20
2.5577786201132
30
0
41
1
10
45.0426078254586
20
2.49752371090119
30
0
41
1
10
45.2989893912722
20
2.4763606406888
30
0
41
1
10
45.8126573234043
20
2.41592126012387
30
0
41
1
10
46.068786398309
20
2.37677885662578
30
0
41
1
10
46.5810708400501
20
2.28177315101797
30
0
41
1
10
46.8370493764743
20
2.22578411635641
30
0
41
1
10
47.3497632469669
20
2.09769347594866
30
0
41
1
10
47.606979231481
20
2.02563719218466
30
0
41
1
10
48.3760594649636
20
1.7884539771967
30
0
41
1
10
48.8868701952785
20
1.60202445111159
30
0
41
1
10
49.6573084496451
20
1.29067256316503
30
0
41
1
10
49.9136996298174
20
1.18168306228768
30
0
41
1
10
50.4258089712458
20
0.95644773869131
30
0
41
1
10
50.6816385215616
20
0.839965142374325
30
0
41
1
10
51.1937828193604
20
0.601030557379659
30
0
41
1
10
51.4507493473185
20
0.478743945554726
30
0
41
1
10
51.9634550686879
20
0.231562043053259
30
0
41
1
10
52.2193247356101
20
0.106946018113462
30
0
41
1
10
52.7311234074207
20
-0.142217330887775
30
0
41
1
10
52.9869685013921
20
-0.266938053619924
30
0
41
1
10
53.4999637133531
20
-0.513737286800421
30
0
41
1
10
53.7565137353835
20
-0.636047838787022
30
0
41
1
10
54.5213041406885
20
-0.992734503513191
30
0
41
1
10
55.0273168876198
20
-1.2179191865944
30
0
41
1
10
55.7866089408118
20
-1.52584359833165
30
0
41
1
10
56.0398408259899
20
-1.62336968755639
30
0
41
1
10
56.5472286526467
20
-1.80701730174866
30
0
41
1
10
56.8014246382814
20
-1.89305463181614
30
0
41
1
10
57.3122286434472
20
-2.0512952130168
30
0
41
1
10
57.5692518044045
20
-2.1239439733082
30
0
41
1
10
58.0805851616358
20
-2.25256976106221
30
0
41
1
10
58.3355006580991
20
-2.30874379854862
30
0
41
1
10
59.0993091862122
20
-2.45193498934634
30
0
41
1
10
59.6072771442333
20
-2.51346665697932
30
0
41
1
10
60.1185365802322
20
-2.53837304654323
30
0
0
SPLINE
5
EC
100
AcDbEntity
8
1
62
256
6
ByLayer
370
18
48
1
60
0
100
AcDbSpline
70
4
71
3
72
16
73
12
40
0
40
0
40
0
40
0
40
0.139500837699446
40
0.247292783947284
40
0.315295306289192
40
0.373168721065142
40
0.602139085547975
40
0.847818540933603
40
0.893771282709356
40
0.954149478326397
40
1
40
1
40
1
40
1
41
1
10
35.4949566931814
20
2.42992154114626
30
0
41
1
10
35.2369139999654
20
2.42895632661023
30
0
41
1
10
34.7794816457262
20
2.4277714853304
30
0
41
1
10
34.1962597755774
20
2.42589456660363
30
0
41
1
10
33.7640279312001
20
2.42701022993282
30
0
41
1
10
33.1076426619312
20
2.42636961323464
30
0
41
1
10
32.1226054975058
20
2.42152493370881
30
0
41
1
10
31.1596038491853
20
2.42316045103715
30
0
41
1
10
30.508467693255
20
2.42017620845078
30
0
41
1
10
30.2269803633027
20
2.4195022420287
30
0
41
1
10
30.0304789526428
20
2.41922260713531
30
0
41
1
10
29.945665385858
20
2.4191097954168
30
0
0
SPLINE
5
ED
100
AcDbEntity
8
1
62
256
6
ByLayer
370
18
48
1
60
0
100
AcDbSpline
70
4
71
3
72
19
73
15
40
0
40
0
40
0
40
0
40
0.101054700181454
40
0.181131660876366
40
0.233345108252829
40
0.277825809982977
40
0.323039002774362
40
0.507018145070015
40
0.578564839228422
40
0.649232956831823
40
0.713082281314003
40
0.780891178432183
40
0.878652830667571
40
1
40
1
40
1
40
1
41
1
10
12.7746303666057
20
-2.38850884126273
30
0
41
1
10
12.9894509384723
20
-2.38883186984896
30
0
41
1
10
13.3745081187076
20
-2.38945608641802
30
0
41
1
10
13.8706034164717
20
-2.390928304315
30
0
41
1
10
14.246413211936
20
-2.39139593609593
30
0
41
1
10
14.5481100271334
20
-2.39166906977897
30
0
41
1
10
15.1299378997049
20
-2.39289890074858
30
0
41
1
10
15.7693097070579
20
-2.39465615982289
30
0
41
1
10
16.4627997332942
20
-2.39450850519609
30
0
41
1
10
16.9008849356544
20
-2.39766249278225
30
0
41
1
10
17.3310337136623
20
-2.39739750626498
30
0
41
1
10
17.8187800482656
20
-2.39677436827421
30
0
41
1
10
18.4287643660646
20
-2.39894856157088
30
0
41
1
10
18.8945872055171
20
-2.40030952954154
30
0
41
1
10
19.152569581588
20
-2.40128221746332
30
0
0
SPLINE
5
EE
100
AcDbEntity
8
1
62
256
6
ByLayer
370
18
48
1
60
0
100
AcDbSpline
70
4
71
3
72
20
73
16
40
0
40
0
40
0
40
0
40
0.109392494530409
40
0.19513953863931
40
0.25942932539834
40
0.325206305189243
40
0.395868194391742
40
0.45992147806674
40
0.517672115953926
40
0.608704623753756
40
0.69347977631212
40
0.735991309575258
40
0.794126795140507
40
0.885588559179639
40
1
40
1
40
1
40
1
41
1
10
45.4282903996254
20
-2.4475799715423
30
0
41
1
10
45.6618530664604
20
-2.44773681465011
30
0
41
1
10
46.0785325712132
20
-2.4481720518726
30
0
41
1
10
46.6327394345883
20
-2.44977329204235
30
0
41
1
10
47.0936038536245
20
-2.45038925062224
30
0
41
1
10
47.52235309022
20
-2.45056986542102
30
0
41
1
10
47.9505958566254
20
-2.45212232924919
30
0
41
1
10
48.3616964489472
20
-2.45289625110436
30
0
41
1
10
48.8163093287491
20
-2.45285628949875
30
0
41
1
10
49.3151801276322
20
-2.45348663475465
30
0
41
1
10
49.7815012968433
20
-2.45479400017823
30
0
41
1
10
50.1775565837089
20
-2.45560318527242
30
0
41
1
10
50.5878930712248
20
-2.45653503500677
30
0
41
1
10
51.1518039012104
20
-2.45623107409466
30
0
41
1
10
51.5915405205577
20
-2.45735208101675
30
0
41
1
10
51.8359186444819
20
-2.45810392314107
30
0
0
SPLINE
5
EF
100
AcDbEntity
8
1
62
256
6
ByLayer
370
18
48
1
60
0
100
AcDbSpline
70
4
71
3
72
20
73
16
40
0
40
0
40
0
40
0
40
0.115732531315642
40
0.211611545799126
40
0.280357976411209
40
0.344868616897281
40
0.413006802257126
40
0.482464817723254
40
0.551948283803063
40
0.621431364150369
40
0.690908422754611
40
0.759070375162787
40
0.823658429570773
40
0.89481928323235
40
1
40
1
40
1
40
1
41
1
10
19.1507827893703
20
2.401274165964
30
0
41
1
10
18.9350582484095
20
2.40054898901227
30
0
41
1
10
18.5405971626148
20
2.39939896700909
30
0
41
1
10
18.0178078127927
20
2.39699605968019
30
0
41
1
10
17.5906917663526
20
2.39713511589929
30
0
41
1
10
17.2152550360345
20
2.39748924710798
30
0
41
1
10
16.8384102434953
20
2.39733144459552
30
0
41
1
10
16.4523202998832
20
2.39458227340668
30
0
41
1
10
16.0637094249539
20
2.39458920730388
30
0
41
1
10
15.6750665962189
20
2.39421310008243
30
0
41
1
10
15.2888859987726
20
2.39370969095074
30
0
41
1
10
14.9118351947156
20
2.39242588190206
30
0
41
1
10
14.5316409955787
20
2.39161004091326
30
0
41
1
10
14.0824382143136
20
2.39132152455696
30
0
41
1
10
13.7536527906269
20
2.39046757215559
30
0
41
1
10
13.5575501166345
20
2.39002711966569
30
0
0
SPLINE
5
F0
100
AcDbEntity
8
1
62
256
6
ByLayer
370
18
48
1
60
0
100
AcDbSpline
70
4
71
3
72
17
73
13
40
0
40
0
40
0
40
0
40
0.116500993907348
40
0.201276160809496
40
0.254875835802475
40
0.306677919280368
40
0.476000461926848
40
0.67525960875675
40
0.725623165382807
40
0.784801416219139
40
0.878605209413172
40
1
40
1
40
1
40
1
41
1
10
29.1182353872794
20
-2.41774742572065
30
0
41
1
10
29.3658598195941
20
-2.41814750377051
30
0
41
1
10
29.7936859852168
20
-2.41902321395241
30
0
41
1
10
30.3354819723468
20
-2.41947278048968
30
0
41
1
10
30.7397386110098
20
-2.4213099280141
30
0
41
1
10
31.3237286095679
20
-2.42276864809395
30
0
41
1
10
32.2173541051108
20
-2.42203830528567
30
0
41
1
10
33.1079103924084
20
-2.42636795073449
30
0
41
1
10
33.7643384010457
20
-2.42701046568547
30
0
41
1
10
34.1965958199188
20
-2.4258933843146
30
0
41
1
10
34.7798443710751
20
-2.4277741148862
30
0
41
1
10
35.2372955821737
20
-2.42895822846685
30
0
41
1
10
35.4953461022521
20
-2.42992280057052
30
0
0
SPLINE
5
F1
100
AcDbEntity
8
1
62
256
6
ByLayer
370
18
48
1
60
0
100
AcDbSpline
70
4
71
3
72
20
73
16
40
0
40
0
40
0
40
0
40
0.102374006229452
40
0.191782746143979
40
0.256295213328915
40
0.327484510397556
40
0.391531588785375
40
0.452614203577883
40
0.515213535889135
40
0.581814131921423
40
0.68022564630178
40
0.791577920578495
40
0.880159959383651
40
0.989570751471941
40
1
40
1
40
1
40
1
41
1
10
51.8362644677529
20
2.45807355811226
30
0
41
1
10
51.6445145669354
20
2.45731837547129
30
0
41
1
10
51.2852985147682
20
2.45623565015299
30
0
41
1
10
50.805243595735
20
2.4566775298664
30
0
41
1
10
50.383602942921
20
2.45605230781959
30
0
41
1
10
50.0094623674582
20
2.45527365768913
30
0
41
1
10
49.6417475061885
20
2.45443088511311
30
0
41
1
10
49.2901216456507
20
2.45352139639186
30
0
41
1
10
48.933713360102
20
2.45290826902908
30
0
41
1
10
48.5073847716073
20
2.45294315348238
30
0
41
1
10
47.9897382671158
20
2.45236589652924
30
0
41
1
10
47.4309223166705
20
2.45043281393652
30
0
41
1
10
46.8515005987936
20
2.45026670263235
30
0
41
1
10
46.4611223953181
20
2.44920111386642
30
0
41
1
10
46.2366641984074
20
2.44874650719004
30
0
41
1
10
46.2171304396479
20
2.4487080657824
30
0
0
SPLINE
5
F2
100
AcDbEntity
8
1
62
256
6
ByLayer
370
18
48
1
60
0
100
AcDbSpline
70
4
71
2
72
6
73
3
40
0
40
0
40
0
40
1
40
1
40
1
41
1
10
35.847428035306
20
-0.0211876234727981
30
0
41
1
10
36.3549017477717
20
-0.130495779790095
30
0
41
1
10
36.828318803621
20
-0.361971244723236
30
0
0
SPLINE
5
F3
100
AcDbEntity
8
1
62
256
6
ByLayer
370
18
48
1
60
0
100
AcDbSpline
70
4
71
2
72
6
73
3
40
0
40
0
40
0
40
1
40
1
40
1
41
1
10
19.4972682226824
20
-0.0210816431576291
30
0
41
1
10
19.9797718509719
20
-0.122362139468493
30
0
41
1
10
20.4584214382228
20
-0.35335441466168
30
0
0
SPLINE
5
F4
100
AcDbEntity
8
1
62
256
6
ByLayer
370
18
48
1
60
0
100
AcDbSpline
70
4
71
2
72
6
73
3
40
0
40
0
40
0
40
1
40
1
40
1
41
1
10
11.1797383756903
20
0.0214519069342316
30
0
41
1
10
10.7737492948177
20
0.100732738700373
30
0
41
1
10
10.2838638855258
20
0.324625925238564
30
0
0
SPLINE
5
F5
100
AcDbEntity
8
1
62
256
6
ByLayer
370
18
48
1
60
0
100
AcDbSpline
70
4
71
3
72
13
73
9
40
0
40
0
40
0
40
0
40
0.291228621225364
40
0.482903762154062
40
0.551908537974416
40
0.65756282810419
40
0.806829680516502
40
1
40
1
40
1
40
1
41
1
10
52.1974920364138
20
-0.0211987628122472
30
0
41
1
10
52.3009045887793
20
-0.0435580644927427
30
0
41
1
10
52.4673803984797
20
-0.0856091650248345
30
0
41
1
10
52.6552973711498
20
-0.146289273877784
30
0
41
1
10
52.7702020614763
20
-0.187064882059957
30
0
41
1
10
52.8803733079088
20
-0.228621247530071
30
0
41
1
10
53.0343419185357
20
-0.292105766839057
30
0
41
1
10
53.1533111040612
20
-0.346731868762021
30
0
41
1
10
53.2208666303452
20
-0.379495749859075
30
0
0
SPLINE
5
F6
100
AcDbEntity
8
1
62
256
6
ByLayer
370
18
48
1
60
0
100
AcDbSpline
70
4
71
2
72
6
73
3
40
0
40
0
40
0
40
1
40
1
40
1
41
1
10
27.5296732574981
20
0.02143236462706
30
0
41
1
10
27.0709641390948
20
0.117826167755453
30
0
41
1
10
26.6155511868694
20
0.331452437553025
30
0
0
SPLINE
5
F7
100
AcDbEntity
8
1
62
256
6
ByLayer
370
18
48
1
60
0
100
AcDbSpline
70
4
71
2
72
6
73
3
40
0
40
0
40
0
40
1
40
1
40
1
41
1
10
43.8795456566431
20
0.0214144762813362
30
0
41
1
10
43.4218539164636
20
0.1158403587701
30
0
41
1
10
42.9105379583228
20
0.35393026734684
30
0
0
SPLINE
5
F8
100
AcDbEntity
8
1
62
256
6
ByLayer
370
18
48
1
60
0
100
AcDbSpline
70
4
71
2
72
6
73
3
40
0
40
0
40
0
40
1
40
1
40
1
41
1
10
59.7058310768283
20
0.170779187832608
30
0
41
1
10
59.4830220900162
20
0.239832376708932
30
0
41
1
10
59.2609719426269
20
0.353526033374067
30
0
0
LINE
5
7B
100
AcDbEntity
8
SK1
62
256
6
ByLayer
370
18
48
1
60
0
100
AcDbLine
10
-36
20
1.25
30
0
11
-36
21
-1.25
31
0
39
0
210
0
220
0
230
1
0
LINE
5
7D
100
AcDbEntity
8
SK1
62
256
6
ByLayer
370
18
48
1
60
0
100
AcDbLine
10
-34.989637
20
3
30
0
11
-34.989637
21
-3
31
0
39
0
210
0
220
0
230
1
0
LINE
5
7E
100
AcDbEntity
8
SK1
62
256
6
ByLayer
370
18
48
1
60
0
100
AcDbLine
10
0
20
-3
30
0
11
0
21
3
31
0
39
0
210
0
220
0
230
1
0
LINE
5
7F
100
AcDbEntity
8
1
62
256
6
ByLayer
370
18
48
1
60
0
100
AcDbLine
10
59.761111
20
-1.410316
30
0
11
60.520163
21
-0.800929
31
0
39
0
210
0
220
0
230
1
0
LINE
5
80
100
AcDbEntity
8
1
62
256
6
ByLayer
370
18
48
1
60
0
100
AcDbLine
10
0
20
-3
30
0
11
0
21
3
31
0
39
0
210
0
220
0
230
1
0
LINE
5
81
100
AcDbEntity
8
1
62
256
6
ByLayer
370
13
48
1
60
0
100
AcDbLine
10
1.25885
20
2.44418
30
0
11
1.25885
21
-2.44418
31
0
39
0
210
0
220
0
230
1
0
LINE
5
82
100
AcDbEntity
8
1
62
256
6
ByLayer
370
13
48
1
60
0
100
AcDbLine
10
0.62866
20
2.722089
30
0
11
0.62866
21
-2.722089
31
0
39
0
210
0
220
0
230
1
0
LINE
5
83
100
AcDbEntity
8
80
62
256
6
ByLayer
370
18
48
1
60
0
100
AcDbLine
10
0
20
0
30
0
11
-5
21
0
31
0
39
0
210
0
220
0
230
1
0
LINE
5
84
100
AcDbEntity
8
4
62
256
6
ByLayer
370
18
48
0.05
60
0
100
AcDbLine
10
61
20
0
30
0
11
0
21
0
31
0
39
0
210
0
220
0
230
1
0
LINE
5
86
100
AcDbEntity
8
SK4
62
256
6
ByLayer
370
18
48
0.05
60
0
100
AcDbLine
10
66
20
0
30
0
11
-41
21
0
31
0
39
0
210
0
220
0
230
1
0
LINE
5
88
100
AcDbEntity
8
SK1
62
256
6
ByLayer
370
18
48
1
60
0
100
AcDbLine
10
-36
20
-1.25
30
0
11
-34.989637
21
-3
31
0
39
0
210
0
220
0
230
1
0
LINE
5
89
100
AcDbEntity
8
SK1
62
256
6
ByLayer
370
18
48
1
60
0
100
AcDbLine
10
-34.989637
20
3
30
0
11
-36
21
1.25
31
0
39
0
210
0
220
0
230
1
0
LINE
5
8A
100
AcDbEntity
8
SK1
62
256
6
ByLayer
370
18
48
1
60
0
100
AcDbLine
10
-34.989637
20
-3
30
0
11
0
21
-3
31
0
39
0
210
0
220
0
230
1
0
LINE
5
8B
100
AcDbEntity
8
SK1
62
256
6
ByLayer
370
18
48
1
60
0
100
AcDbLine
10
0
20
3
30
0
11
-34.989637
21
3
31
0
39
0
210
0
220
0
230
1
0
LINE
5
8C
100
AcDbEntity
8
1
62
256
6
ByLayer
370
18
48
1
60
0
100
AcDbLine
10
1.25885
20
-2.44418
30
0
11
4.514218
21
-2.45004
31
0
39
0
210
0
220
0
230
1
0
LINE
5
8D
100
AcDbEntity
8
1
62
256
6
ByLayer
370
18
48
1
60
0
100
AcDbLine
10
11.541808
20
-2.46269
30
0
11
12.323453
21
-2.464097
31
0
39
0
210
0
220
0
230
1
0
LINE
5
8E
100
AcDbEntity
8
1
62
256
6
ByLayer
370
18
48
1
60
0
100
AcDbLine
10
27.900767
20
-2.492136
30
0
11
28.671494
21
-2.493523
31
0
39
0
210
0
220
0
230
1
0
LINE
5
8F
100
AcDbEntity
8
1
62
256
6
ByLayer
370
18
48
1
60
0
100
AcDbLine
10
44.259912
20
-2.521582
30
0
11
45.021082
21
-2.522952
31
0
39
0
210
0
220
0
230
1
0
LINE
5
90
100
AcDbEntity
8
1
62
256
6
ByLayer
370
18
48
1
60
0
100
AcDbLine
10
45.021082
20
2.522952
30
0
11
44.259912
21
2.521582
31
0
39
0
210
0
220
0
230
1
0
LINE
5
91
100
AcDbEntity
8
1
62
256
6
ByLayer
370
18
48
1
60
0
100
AcDbLine
10
28.671494
20
2.493523
30
0
11
27.900767
21
2.492136
31
0
39
0
210
0
220
0
230
1
0
LINE
5
92
100
AcDbEntity
8
1
62
256
6
ByLayer
370
18
48
1
60
0
100
AcDbLine
10
12.323453
20
2.464097
30
0
11
11.541808
21
2.46269
31
0
39
0
210
0
220
0
230
1
0
LINE
5
93
100
AcDbEntity
8
1
62
256
6
ByLayer
370
18
48
1
60
0
100
AcDbLine
10
4.514218
20
2.45004
30
0
11
1.25885
21
2.44418
31
0
39
0
210
0
220
0
230
1
0
LINE
5
94
100
AcDbEntity
8
81
62
256
6
ByLayer
370
18
48
1
60
0
100
AcDbLine
10
61
20
0
30
0
11
66
21
0
31
0
39
0
210
0
220
0
230
1
0
LINE
5
95
100
AcDbEntity
8
SK2
62
256
6
ByLayer
370
13
48
1
60
0
100
AcDbLine
10
-44.625163
20
32.117107
30
0
11
-44.625163
21
-11.75
31
0
39
0
210
0
220
0
230
1
0
LINE
5
97
100
AcDbEntity
8
SK2
62
256
6
ByLayer
370
13
48
1
60
0
100
AcDbLine
10
-37.5875
20
3
30
0
11
-46.625163
21
3
31
0
39
0
210
0
220
0
230
1
0
LINE
5
98
100
AcDbEntity
8
SK2
62
256
6
ByLayer
370
13
48
1
60
0
100
AcDbLine
10
-37.5875
20
-3
30
0
11
-46.625163
21
-3
31
0
39
0
210
0
220
0
230
1
0
LINE
5
99
100
AcDbEntity
8
1
62
256
6
ByLayer
370
18
48
1
60
1
100
AcDbLine
10
-44.625163
20
3
30
0
11
-45.085946
21
6.499998
31
0
39
0
210
0
220
0
230
1
0
LINE
5
9A
100
AcDbEntity
8
1
62
256
6
ByLayer
370
18
48
1
60
1
100
AcDbLine
10
-45.085946
20
6.499998
30
0
11
-44.164379
21
6.500002
31
0
39
0
210
0
220
0
230
1
0
LINE
5
9B
100
AcDbEntity
8
1
62
256
6
ByLayer
370
18
48
1
60
1
100
AcDbLine
10
-44.164379
20
6.500002
30
0
11
-44.625163
21
3
31
0
39
0
210
0
220
0
230
1
0
LINE
5
9C
100
AcDbEntity
8
1
62
256
6
ByLayer
370
18
48
1
60
1
100
AcDbLine
10
-44.625163
20
-3
30
0
11
-44.164379
21
-6.499998
31
0
39
0
210
0
220
0
230
1
0
LINE
5
9D
100
AcDbEntity
8
1
62
256
6
ByLayer
370
18
48
1
60
1
100
AcDbLine
10
-44.164379
20
-6.499998
30
0
11
-45.085946
21
-6.500002
31
0
39
0
210
0
220
0
230
1
0
LINE
5
9E
100
AcDbEntity
8
1
62
256
6
ByLayer
370
18
48
1
60
1
100
AcDbLine
10
-45.085946
20
-6.500002
30
0
11
-44.625163
21
-3
31
0
39
0
210
0
220
0
230
1
0
LINE
5
9F
100
AcDbEntity
8
2
62
256
6
ByLayer
370
13
48
1
60
0
100
AcDbLine
10
73.083343
20
29.385327
30
0
11
73.083343
21
-11.3
31
0
39
0
210
0
220
0
230
1
0
LINE
5
A1
100
AcDbEntity
8
2
62
256
6
ByLayer
370
13
48
1
60
0
100
AcDbLine
10
61.6351
20
2.55
30
0
11
75.083343
21
2.55
31
0
39
0
210
0
220
0
230
1
0
LINE
5
A2
100
AcDbEntity
8
2
62
256
6
ByLayer
370
13
48
1
60
0
100
AcDbLine
10
61.6351
20
-2.55
30
0
11
75.083343
21
-2.55
31
0
39
0
210
0
220
0
230
1
0
LINE
5
A3
100
AcDbEntity
8
1
62
256
6
ByLayer
370
18
48
1
60
1
100
AcDbLine
10
73.083343
20
2.55
30
0
11
72.622559
21
6.049998
31
0
39
0
210
0
220
0
230
1
0
LINE
5
A4
100
AcDbEntity
8
1
62
256
6
ByLayer
370
18
48
1
60
1
100
AcDbLine
10
72.622559
20
6.049998
30
0
11
73.544126
21
6.050002
31
0
39
0
210
0
220
0
230
1
0
LINE
5
A5
100
AcDbEntity
8
1
62
256
6
ByLayer
370
18
48
1
60
1
100
AcDbLine
10
73.544126
20
6.050002
30
0
11
73.083343
21
2.55
31
0
39
0
210
0
220
0
230
1
0
LINE
5
A6
100
AcDbEntity
8
1
62
256
6
ByLayer
370
18
48
1
60
1
100
AcDbLine
10
73.083343
20
-2.55
30
0
11
73.544126
21
-6.049998
31
0
39
0
210
0
220
0
230
1
0
LINE
5
A7
100
AcDbEntity
8
1
62
256
6
ByLayer
370
18
48
1
60
1
100
AcDbLine
10
73.544126
20
-6.049998
30
0
11
72.622559
21
-6.050002
31
0
39
0
210
0
220
0
230
1
0
LINE
5
A8
100
AcDbEntity
8
1
62
256
6
ByLayer
370
18
48
1
60
1
100
AcDbLine
10
72.622559
20
-6.050002
30
0
11
73.083343
21
-2.55
31
0
39
0
210
0
220
0
230
1
0
LINE
5
FF
100
AcDbEntity
8
1
62
256
6
ByLayer
370
18
48
1
60
1
100
AcDbLine
10
-44.625163
20
3
30
0
11
-45.085946
21
6.499998
31
0
39
0
210
0
220
0
230
1
0
LINE
5
100
100
AcDbEntity
8
1
62
256
6
ByLayer
370
18
48
1
60
1
100
AcDbLine
10
-45.085946
20
6.499998
30
0
11
-44.164379
21
6.500002
31
0
39
0
210
0
220
0
230
1
0
LINE
5
101
100
AcDbEntity
8
1
62
256
6
ByLayer
370
18
48
1
60
1
100
AcDbLine
10
-44.164379
20
6.500002
30
0
11
-44.625163
21
3
31
0
39
0
210
0
220
0
230
1
0
LINE
5
103
100
AcDbEntity
8
1
62
256
6
ByLayer
370
18
48
1
60
1
100
AcDbLine
10
-44.625163
20
-3
30
0
11
-44.164379
21
-6.499998
31
0
39
0
210
0
220
0
230
1
0
LINE
5
104
100
AcDbEntity
8
1
62
256
6
ByLayer
370
18
48
1
60
1
100
AcDbLine
10
-44.164379
20
-6.499998
30
0
11
-45.085946
21
-6.500002
31
0
39
0
210
0
220
0
230
1
0
LINE
5
105
100
AcDbEntity
8
1
62
256
6
ByLayer
370
18
48
1
60
1
100
AcDbLine
10
-45.085946
20
-6.500002
30
0
11
-44.625163
21
-3
31
0
39
0
210
0
220
0
230
1
0
LINE
5
109
100
AcDbEntity
8
1
62
256
6
ByLayer
370
18
48
1
60
1
100
AcDbLine
10
73.083343
20
2.55
30
0
11
72.622559
21
6.049998
31
0
39
0
210
0
220
0
230
1
0
LINE
5
10A
100
AcDbEntity
8
1
62
256
6
ByLayer
370
18
48
1
60
1
100
AcDbLine
10
72.622559
20
6.049998
30
0
11
73.544126
21
6.050002
31
0
39
0
210
0
220
0
230
1
0
LINE
5
10B
100
AcDbEntity
8
1
62
256
6
ByLayer
370
18
48
1
60
1
100
AcDbLine
10
73.544126
20
6.050002
30
0
11
73.083343
21
2.55
31
0
39
0
210
0
220
0
230
1
0
LINE
5
10D
100
AcDbEntity
8
1
62
256
6
ByLayer
370
18
48
1
60
1
100
AcDbLine
10
73.083343
20
-2.55
30
0
11
73.544126
21
-6.049998
31
0
39
0
210
0
220
0
230
1
0
LINE
5
10E
100
AcDbEntity
8
1
62
256
6
ByLayer
370
18
48
1
60
1
100
AcDbLine
10
73.544126
20
-6.049998
30
0
11
72.622559
21
-6.050002
31
0
39
0
210
0
220
0
230
1
0
LINE
5
10F
100
AcDbEntity
8
1
62
256
6
ByLayer
370
18
48
1
60
1
100
AcDbLine
10
72.622559
20
-6.050002
30
0
11
73.083343
21
-2.55
31
0
39
0
210
0
220
0
230
1
0
MTEXT
5
F9
100
AcDbEntity
8
SK6
62
256
6
ByLayer
370
13
48
1
60
0
100
AcDbMText
10
-15.35586
20
35.090328
30
0
210
0
220
0
230
1
1
\W0.7326;860.1-0510-047A1-PM P1BM
40
3.5
41
0
44
1.084337
50
0
71
7
72
5
7
iso_b_vert
0
MTEXT
5
FD
100
AcDbEntity
8
SK2
62
256
6
ByLayer
370
18
48
1
60
0
100
AcDbMText
10
-46.189796
20
16.409024
30
0
210
0
220
0
230
1
1
%%c
40
3.5
41
0
44
1.084337
50
90
71
7
72
5
7
iso_b_vert
0
MTEXT
5
FE
100
AcDbEntity
8
SK2
62
256
6
ByLayer
370
18
48
1
60
0
100
AcDbMText
10
-46.189796
20
21.63168
30
0
210
0
220
0
230
1
1
\W0.7317;6,000
40
3.5
41
0
44
1.084337
50
90
71
7
72
5
7
iso_b_vert
0
MTEXT
5
107
100
AcDbEntity
8
2
62
256
6
ByLayer
370
18
48
1
60
0
100
AcDbMText
10
71.518709
20
14.55211
30
0
210
0
220
0
230
1
1
%%c
40
3.5
41
0
44
1.084337
50
90
71
7
72
5
7
iso_b_vert
0
MTEXT
5
108
100
AcDbEntity
8
2
62
256
6
ByLayer
370
18
48
1
60
0
100
AcDbMText
10
71.518709
20
19.774766
30
0
210
0
220
0
230
1
1
\W0.6713;5,100
40
3.5
41
0
44
1.084337
50
90
71
7
72
5
7
iso_b_vert
0
HATCH
5
102
100
AcDbEntity
8
SK2
62
256
6
ByLayer
370
13
48
1
60
0
100
AcDbHatch
10
0
20
0
30
0
210
0
220
0
230
1
2
ANSI31
70
0
71
0
91
1
92
5
93
3
72
1
10
-44.6251625675374
20
3
11
-45.0859463090902
21
6.49999830744682
72
1
10
-45.0859463090902
20
6.49999830744682
11
-44.1643788259847
21
6.50000169255318
72
1
10
-44.1643788259847
20
6.50000169255318
11
-44.6251625675374
21
3
97
0
75
0
76
1
52
0
41
0.0062
77
0
78
1
53
45
43
0
44
0
45
-0.0139193969876572
46
0.0139193969876572
79
0
47
0
98
1
10
0
20
0
0
HATCH
5
106
100
AcDbEntity
8
SK2
62
256
6
ByLayer
370
13
48
1
60
0
100
AcDbHatch
10
0
20
0
30
0
210
0
220
0
230
1
2
ANSI31
70
0
71
0
91
1
92
5
93
3
72
1
10
-44.6251625675374
20
-3
11
-44.1643788259847
21
-6.49999830744682
72
1
10
-44.1643788259847
20
-6.49999830744682
11
-45.0859463090902
21
-6.50000169255318
72
1
10
-45.0859463090902
20
-6.50000169255318
11
-44.6251625675374
21
-3
97
0
75
0
76
1
52
0
41
0.0062
77
0
78
1
53
45
43
0
44
0
45
-0.0139193969876572
46
0.0139193969876572
79
0
47
0
98
1
10
0
20
0
0
HATCH
5
10C
100
AcDbEntity
8
2
62
256
6
ByLayer
370
13
48
1
60
0
100
AcDbHatch
10
0
20
0
30
0
210
0
220
0
230
1
2
ANSI31
70
0
71
0
91
1
92
5
93
3
72
1
10
73.083342615295
20
2.55000000000001
11
72.6225588737422
21
6.04999830744683
72
1
10
72.6225588737422
20
6.04999830744683
11
73.5441263568477
21
6.0500016925532
72
1
10
73.5441263568477
20
6.0500016925532
11
73.083342615295
21
2.55000000000001
97
0
75
0
76
1
52
0
41
0.0062
77
0
78
1
53
45
43
0
44
0
45
-0.0139193969876572
46
0.0139193969876572
79
0
47
0
98
1
10
0
20
0
0
HATCH
5
110
100
AcDbEntity
8
2
62
256
6
ByLayer
370
13
48
1
60
0
100
AcDbHatch
10
0
20
0
30
0
210
0
220
0
230
1
2
ANSI31
70
0
71
0
91
1
92
5
93
3
72
1
10
73.083342615295
20
-2.54999999999998
11
73.5441263568477
21
-6.0499983074468
72
1
10
73.5441263568477
20
-6.0499983074468
11
72.6225588737422
21
-6.05000169255317
72
1
10
72.6225588737422
20
-6.05000169255317
11
73.083342615295
21
-2.54999999999998
97
0
75
0
76
1
52
0
41
0.0062
77
0
78
1
53
45
43
0
44
0
45
-0.0139193969876572
46
0.0139193969876572
79
0
47
0
98
1
10
0
20
0
0
DIMENSION
5
112
100
AcDbEntity
8
2
62
256
6
ByLayer
370
13
48
1
60
0
100
AcDbDimension
2
_U0
10
60.0476
20
-12.763398
30
0
11
30.0238
21
-12.763398
31
0
70
32
71
1
72
1
41
1
210
0
220
0
230
1
3
Standard
100
AcDbAlignedDimension
13
0
23
0
33
0
14
60.0476
24
-2.55
34
0
50
0
100
AcDbRotatedDimension
1001
ACAD
1000
DSTYLE
1002
{
1070
   371
1070
    13
1070
   372
1070
    13
1070
   170
1070
     0
1070
   144
1040
1.0
1070
   277
1070
     2
1070
   278
1070
    44
1070
   146
1040
1.0
1070
   345
1005
16
1070
   347
1005
16
1070
   346
1005
16
1070
   344
1005
0
1070
   343
1005
0
1070
   172
1070
     1
1070
    76
1070
     0
1070
    75
1070
     0
1070
   282
1070
     0
1070
   281
1070
     0
1070
    71
1070
     0
1070
    74
1070
     0
1070
   279
1070
     0
1070
   173
1070
     1
1070
   340
1005
FA
1070
   271
1070
     2
1070
   272
1070
     2
1070
    77
1070
     1
1070
    73
1070
     1
1070
   171
1070
     3
1070
   274
1070
     4
1070
   177
1070
    35
1070
   176
1070
    35
1070
   178
1070
    35
1070
    48
1040
-0.1
1070
    41
1040
3.5
1070
   147
1040
1.75
1070
    42
1040
1.5875
1070
    44
1040
2.0
1070
   140
1040
3.5
1002
}
1001
ACAD_DSTYLE_DIM_LINETYPE
1070
   380
1005
16
1001
ACAD_DSTYLE_DIM_EXT1_LINETYPE
1070
   381
1005
16
1001
ACAD_DSTYLE_DIM_EXT2_LINETYPE
1070
   382
1005
16
0
DIMENSION
5
12B
100
AcDbEntity
8
SK2
62
256
6
ByLayer
370
13
48
1
60
0
100
AcDbDimension
2
_U1
10
61
20
-31.692985
30
0
11
12.5
21
-31.692985
31
0
70
32
71
1
72
1
41
1
210
0
220
0
230
1
3
Standard
100
AcDbAlignedDimension
13
-36
23
-3
33
0
14
61
24
0
34
0
50
0
100
AcDbRotatedDimension
1001
ACAD
1000
DSTYLE
1002
{
1070
   371
1070
    13
1070
   372
1070
    13
1070
   170
1070
     0
1070
   144
1040
1.0
1070
   277
1070
     2
1070
   278
1070
    44
1070
   146
1040
1.0
1070
   345
1005
16
1070
   347
1005
16
1070
   346
1005
16
1070
   344
1005
0
1070
   343
1005
0
1070
   172
1070
     1
1070
    76
1070
     0
1070
    75
1070
     0
1070
   282
1070
     0
1070
   281
1070
     0
1070
    71
1070
     0
1070
    74
1070
     0
1070
   279
1070
     0
1070
   173
1070
     1
1070
   340
1005
FA
1070
   271
1070
     2
1070
   272
1070
     2
1070
    77
1070
     1
1070
    73
1070
     1
1070
   171
1070
     3
1070
   274
1070
     4
1070
   177
1070
    35
1070
   176
1070
    35
1070
   178
1070
    35
1070
    48
1040
-0.1
1070
    41
1040
3.5
1070
   147
1040
1.75
1070
    42
1040
1.5875
1070
    44
1040
2.0
1070
   140
1040
3.5
1002
}
1001
ACAD_DSTYLE_DIM_LINETYPE
1070
   380
1005
16
1001
ACAD_DSTYLE_DIM_EXT1_LINETYPE
1070
   381
1005
16
1001
ACAD_DSTYLE_DIM_EXT2_LINETYPE
1070
   382
1005
16
0
DIMENSION
5
143
100
AcDbEntity
8
SK2
62
256
6
ByLayer
370
13
48
1
60
0
100
AcDbDimension
2
_U2
10
61
20
14.159119
30
0
11
40.125
21
14.159119
31
0
70
32
71
1
72
1
41
1
210
0
220
0
230
1
3
Standard
100
AcDbAlignedDimension
13
19.25
23
2.55
33
0
14
61
24
0
34
0
50
0
100
AcDbRotatedDimension
1001
ACAD
1000
DSTYLE
1002
{
1070
   371
1070
    13
1070
   372
1070
    13
1070
   170
1070
     0
1070
   144
1040
1.0
1070
   277
1070
     2
1070
   278
1070
    44
1070
   146
1040
1.0
1070
   345
1005
16
1070
   347
1005
16
1070
   346
1005
16
1070
   344
1005
0
1070
   343
1005
0
1070
   172
1070
     1
1070
    76
1070
     0
1070
    75
1070
     0
1070
   282
1070
     0
1070
   281
1070
     0
1070
    71
1070
     0
1070
    74
1070
     0
1070
   279
1070
     0
1070
   173
1070
     1
1070
   340
1005
FA
1070
   271
1070
     2
1070
   272
1070
     2
1070
    77
1070
     1
1070
    73
1070
     1
1070
   171
1070
     3
1070
   274
1070
     4
1070
   177
1070
    35
1070
   176
1070
    35
1070
   178
1070
    35
1070
    48
1040
-0.1
1070
    41
1040
3.5
1070
   147
1040
1.75
1070
    42
1040
1.5875
1070
    44
1040
2.0
1070
   140
1040
3.5
1002
}
1001
ACAD_DSTYLE_DIM_LINETYPE
1070
   380
1005
16
1001
ACAD_DSTYLE_DIM_EXT1_LINETYPE
1070
   381
1005
16
1001
ACAD_DSTYLE_DIM_EXT2_LINETYPE
1070
   382
1005
16
0
DIMENSION
5
15B
100
AcDbEntity
8
SK2
62
256
6
ByLayer
370
13
48
1
60
0
100
AcDbDimension
2
_U3
10
60.0476
20
-15.352503
30
0
11
78.583333
21
-15.352503
31
0
70
32
71
1
72
1
41
1
210
0
220
0
230
1
3
Standard
100
AcDbAlignedDimension
13
61
23
0
33
0
14
60.0476
24
-2.55
34
0
50
0
100
AcDbRotatedDimension
1001
ACAD
1000
DSTYLE
1002
{
1070
   371
1070
    13
1070
   372
1070
    13
1070
   170
1070
     0
1070
   144
1040
1.0
1070
   277
1070
     2
1070
   278
1070
    44
1070
   146
1040
1.0
1070
   345
1005
16
1070
   347
1005
16
1070
   346
1005
16
1070
   344
1005
0
1070
   343
1005
0
1070
   172
1070
     1
1070
    76
1070
     0
1070
    75
1070
     0
1070
   282
1070
     0
1070
   281
1070
     0
1070
    71
1070
     0
1070
    74
1070
     0
1070
   279
1070
     0
1070
   173
1070
     1
1070
   340
1005
FA
1070
   271
1070
     2
1070
   272
1070
     2
1070
    77
1070
     1
1070
    73
1070
     1
1070
   171
1070
     3
1070
   274
1070
     4
1070
   177
1070
    35
1070
   176
1070
    35
1070
   178
1070
    35
1070
    48
1040
-0.1
1070
    41
1040
3.5
1070
   147
1040
1.75
1070
    42
1040
1.5875
1070
    44
1040
2.0
1070
   140
1040
3.5
1002
}
1001
ACAD_DSTYLE_DIM_LINETYPE
1070
   380
1005
16
1001
ACAD_DSTYLE_DIM_EXT1_LINETYPE
1070
   381
1005
16
1001
ACAD_DSTYLE_DIM_EXT2_LINETYPE
1070
   382
1005
16
0
DIMENSION
5
175
100
AcDbEntity
8
SK2
62
256
6
ByLayer
370
13
48
1
60
0
100
AcDbDimension
2
_U4
10
60.0476
20
-21.343428
30
0
11
12.0238
21
-21.343428
31
0
70
32
71
1
72
1
41
1
210
0
220
0
230
1
3
Standard
100
AcDbAlignedDimension
13
-36
23
-3
33
0
14
60.0476
24
-2.55
34
0
50
0
100
AcDbRotatedDimension
1001
ACAD
1000
DSTYLE
1002
{
1070
   371
1070
    13
1070
   372
1070
    13
1070
   170
1070
     0
1070
   144
1040
1.0
1070
   277
1070
     2
1070
   278
1070
    44
1070
   146
1040
1.0
1070
   345
1005
16
1070
   347
1005
16
1070
   346
1005
16
1070
   344
1005
0
1070
   343
1005
0
1070
   172
1070
     1
1070
    76
1070
     0
1070
    75
1070
     0
1070
   282
1070
     0
1070
   281
1070
     0
1070
    71
1070
     0
1070
    74
1070
     0
1070
   279
1070
     0
1070
   173
1070
     1
1070
   340
1005
FA
1070
   271
1070
     2
1070
   272
1070
     2
1070
    77
1070
     1
1070
    73
1070
     1
1070
   171
1070
     3
1070
   274
1070
     4
1070
   177
1070
    35
1070
   176
1070
    35
1070
   178
1070
    35
1070
    48
1040
-0.1
1070
    41
1040
3.5
1070
   147
1040
1.75
1070
    42
1040
1.5875
1070
    44
1040
2.0
1070
   140
1040
3.5
1002
}
1001
ACAD_DSTYLE_DIM_LINETYPE
1070
   380
1005
16
1001
ACAD_DSTYLE_DIM_EXT1_LINETYPE
1070
   381
1005
16
1001
ACAD_DSTYLE_DIM_EXT2_LINETYPE
1070
   382
1005
16
0
ENDSEC
0
SECTION
2
OBJECTS
0
DICTIONARY
5
1fd
330
0
100
AcDbDictionary
280
0
281
1
3
ACAD_GROUP
350
1fe
3
ACAD_MLINESTYLE
350
1ff
0
DICTIONARY
5
1fe
330
0
100
AcDbDictionary
280
0
281
1
0
DICTIONARY
5
1ff
330
0
100
AcDbDictionary
280
0
281
1
3
Standard
350
18
0
MLINESTYLE
5
18
330
1ff
100
AcDbMlineStyle
2
Standard
70
0
3

62
256
51
90
52
90
71
2
49
-0.5
62
256
6
ByLayer
49
0.5
62
256
6
ByLayer
0
RASTERVARIABLES
5
1eb
330

100
AcDbRasterVariables
90
0
70
1
71
1
72
1
0
ENDSEC
0
EOF
