0
SECTION
2
HEADER
9
$ACADVER
1
AC1015
9
$DWGCODEPAGE
3
ANSI_1252
9
$HANDSEED
5
209
9
$ANGBASE
50
0
9
$ANGDIR
70
0
9
$ATTMODE
70
1
9
$AUNITS
70
0
9
$AUPREC
70
0
9
$CECOLOR
62
256
9
$CELTSCALE
40
1
9
$CELTYPE
6
ByLayer
9
$CELWEIGHT
370
18
9
$CLAYER
8
0
9
$CMLJUST
70
0
9
$CMLSCALE
40
1
9
$CMLSTYLE
2
Standard
9
$DIMSTYLE
2
Standard
9
$TEXTSIZE
40
0.2
9
$TEXTSTYLE
7
Standard
9
$LUNITS
70
2
9
$LUPREC
70
4
9
$EXTNAMES
290
1
9
$INSUNITS
70
4
9
$LTSCALE
40
1
9
$LWDISPLAY
290
1
9
$PDMODE
70
0
9
$PDSIZE
40
0
9
$PLINEGEN
70
0
0
ENDSEC
0
SECTION
2
CLASSES
0
CLASS
1
RASTERVARIABLES
2
AcDbRasterVariables
3
ISM
90
0
280
0
281
0
0
ENDSEC
0
SECTION
2
TABLES
0
TABLE
2
VPORT
5
1ff
100
AcDbSymbolTable
0
VPORT
5
1
100
AcDbSymbolTableRecord
100
AcDbViewportTableRecord
2
*Active
70
0
10
0
20
0
11
1
21
1
12
-1
22
1
13
0
23
0
14
0.5
24
0.5
15
10
25
10
16
0
26
0
36
1
17
0
27
0
37
0
0
ENDTAB
0
TABLE
2
LTYPE
5
200
100
AcDbSymbolTable
0
LTYPE
5
14
100
AcDbSymbolTableRecord
100
AcDbLinetypeTableRecord
70
0
2
ByBlock
3

72
65
73
0
40
0
0
LTYPE
5
15
100
AcDbSymbolTableRecord
100
AcDbLinetypeTableRecord
70
0
2
ByLayer
3

72
65
73
0
40
0
0
LTYPE
5
16
100
AcDbSymbolTableRecord
100
AcDbLinetypeTableRecord
70
0
2
Continuous
3
Solid line
72
65
73
0
40
0
0
LTYPE
5
6E
100
AcDbSymbolTableRecord
100
AcDbLinetypeTableRecord
70
0
2
CENTER
3
____ _ ____ _ ____ _ ____
72
65
73
4
40
47.5
49
22
74
0
49
-8.5
74
0
49
8.5
74
0
49
-8.5
74
0
0
LTYPE
5
6F
100
AcDbSymbolTableRecord
100
AcDbLinetypeTableRecord
70
0
2
DASHED
3
__ __ __ __ __ __ __ __ __
72
65
73
2
40
25.72
49
12.86
74
0
49
-12.86
74
0
0
ENDTAB
0
TABLE
2
LAYER
5
201
100
AcDbSymbolTable
0
LAYER
5
10
100
AcDbSymbolTableRecord
100
AcDbLayerTableRecord
2
0
70
0
62
7
6
Continuous
290
1
370
-3
390
0
0
LAYER
5
71
100
AcDbSymbolTableRecord
100
AcDbLayerTableRecord
2
80
70
0
62
-6
6
Continuous
290
1
370
-3
390
0
0
LAYER
5
73
100
AcDbSymbolTableRecord
100
AcDbLayerTableRecord
2
81
70
0
62
-3
6
Continuous
290
1
370
-3
390
0
0
LAYER
5
75
100
AcDbSymbolTableRecord
100
AcDbLayerTableRecord
2
1
70
0
62
4
6
Continuous
290
1
370
-3
390
0
0
LAYER
5
86
100
AcDbSymbolTableRecord
100
AcDbLayerTableRecord
2
4
70
0
62
-2
6
CENTER
290
1
370
-3
390
0
0
LAYER
5
9F
100
AcDbSymbolTableRecord
100
AcDbLayerTableRecord
2
2
70
0
62
7
6
Continuous
290
1
370
-3
390
0
0
LAYER
5
114
100
AcDbSymbolTableRecord
100
AcDbLayerTableRecord
2
Defpoints
70
0
62
7
6
Continuous
290
0
370
-3
390
0
0
LAYER
5
1eb
100
AcDbSymbolTableRecord
100
AcDbLayerTableRecord
2
SK1
70
0
62
4
6
Continuous
290
1
370
-3
390
0
0
LAYER
5
1ec
100
AcDbSymbolTableRecord
100
AcDbLayerTableRecord
2
SK4
70
0
62
2
6
CENTER
290
1
370
-3
390
0
0
LAYER
5
1ed
100
AcDbSymbolTableRecord
100
AcDbLayerTableRecord
2
SK2
70
0
62
7
6
Continuous
290
1
370
-3
390
0
0
LAYER
5
1ee
100
AcDbSymbolTableRecord
100
AcDbLayerTableRecord
2
SK6
70
0
62
5
6
Continuous
290
1
370
-3
390
0
0
ENDTAB
0
TABLE
2
STYLE
5
202
100
AcDbSymbolTable
0
STYLE
5
11
100
AcDbSymbolTableRecord
100
AcDbTextStyleTableRecord
2
Standard
3
txt
70
0
71
0
40
0
41
1
42
0
50
0
0
STYLE
5
F9
100
AcDbSymbolTableRecord
100
AcDbTextStyleTableRecord
2
iso_b_vert
3
simplex.shx
70
0
71
0
40
0
41
1
42
0
50
0
0
STYLE
5
FA
100
AcDbSymbolTableRecord
100
AcDbTextStyleTableRecord
2
DWGDirectTextStyle
3
simplex
70
0
71
0
40
0
41
1
42
0
50
0
0
ENDTAB
0
TABLE
2
DIMSTYLE
5
203
100
AcDbSymbolTable
100
AcDbDimStyleTable
0
DIMSTYLE
105
27
100
AcDbSymbolTableRecord
100
AcDbDimStyleTableRecord
2
Standard
70
0
3
<>
41
0.18
42
0.0625
44
0.18
140
0.18
147
0.09
73
0
74
0
77
1
271
2
275
0
278
52
280
0
340
11
0
ENDTAB
0
TABLE
2
VIEW
5
204
100
AcDbSymbolTable
0
ENDTAB
0
TABLE
2
UCS
5
205
100
AcDbSymbolTable
0
ENDTAB
0
TABLE
2
APPID
5
206
100
AcDbSymbolTable
0
APPID
5
12
100
AcDbSymbolTableRecord
100
AcDbRegAppTableRecord
2
ACAD
70
0
0
APPID
5
110
100
AcDbSymbolTableRecord
100
AcDbRegAppTableRecord
2
ACAD_DSTYLE_DIMBREAK
70
0
0
APPID
5
1AA
100
AcDbSymbolTableRecord
100
AcDbRegAppTableRecord
2
ACAD_DSTYLE_DIM_LINETYPE
70
0
0
APPID
5
1AB
100
AcDbSymbolTableRecord
100
AcDbRegAppTableRecord
2
ACAD_DSTYLE_DIM_EXT1_LINETYPE
70
0
0
APPID
5
1AC
100
AcDbSymbolTableRecord
100
AcDbRegAppTableRecord
2
ACAD_DSTYLE_DIM_EXT2_LINETYPE
70
0
0
APPID
5
1E7
100
AcDbSymbolTableRecord
100
AcDbRegAppTableRecord
2
ACAD_MLEADERVER
70
0
0
ENDTAB
0
TABLE
2
BLOCK_RECORD
5
207
100
AcDbSymbolTable
0
BLOCK_RECORD
5
1F
100
AcDbSymbolTableRecord
100
AcDbBlockTableRecord
2
*Model_Space
340
0
70
0
0
BLOCK_RECORD
5
1B
100
AcDbSymbolTableRecord
100
AcDbBlockTableRecord
2
*Paper_Space
340
0
70
0
0
BLOCK_RECORD
5
23
100
AcDbSymbolTableRecord
100
AcDbBlockTableRecord
2
*Paper_Space0
340
0
70
0
0
BLOCK_RECORD
5
115
100
AcDbSymbolTableRecord
100
AcDbBlockTableRecord
2
*D1
340
0
70
0
0
BLOCK_RECORD
5
121
100
AcDbSymbolTableRecord
100
AcDbBlockTableRecord
2
_U0
340
0
70
0
0
BLOCK_RECORD
5
12D
100
AcDbSymbolTableRecord
100
AcDbBlockTableRecord
2
*D3
340
0
70
0
0
BLOCK_RECORD
5
139
100
AcDbSymbolTableRecord
100
AcDbBlockTableRecord
2
_U1
340
0
70
0
0
BLOCK_RECORD
5
145
100
AcDbSymbolTableRecord
100
AcDbBlockTableRecord
2
*D5
340
0
70
0
0
BLOCK_RECORD
5
151
100
AcDbSymbolTableRecord
100
AcDbBlockTableRecord
2
_U2
340
0
70
0
0
BLOCK_RECORD
5
15D
100
AcDbSymbolTableRecord
100
AcDbBlockTableRecord
2
*D7
340
0
70
0
0
BLOCK_RECORD
5
16B
100
AcDbSymbolTableRecord
100
AcDbBlockTableRecord
2
_U3
340
0
70
0
0
BLOCK_RECORD
5
177
100
AcDbSymbolTableRecord
100
AcDbBlockTableRecord
2
*D9
340
0
70
0
0
BLOCK_RECORD
5
183
100
AcDbSymbolTableRecord
100
AcDbBlockTableRecord
2
_U4
340
0
70
0
0
ENDTAB
0
ENDSEC
0
SECTION
2
BLOCKS
0
BLOCK
5
20
100
AcDbEntity
8
0
100
AcDbBlockBegin
2
*Model_Space
70
0
10
0
20
0
30
0
3
*Model_Space
0
ENDBLK
5
21
100
AcDbEntity
8
0
100
AcDbBlockEnd
0
BLOCK
5
1C
100
AcDbEntity
8
0
100
AcDbBlockBegin
2
*Paper_Space
70
0
10
0
20
0
30
0
3
*Paper_Space
0
ENDBLK
5
1D
100
AcDbEntity
8
0
100
AcDbBlockEnd
0
BLOCK
5
24
100
AcDbEntity
8
0
100
AcDbBlockBegin
2
*Paper_Space0
70
0
10
0
20
0
30
0
3
*Paper_Space0
0
ENDBLK
5
25
100
AcDbEntity
8
0
100
AcDbBlockEnd
0
BLOCK
5
116
100
AcDbEntity
8
0
100
AcDbBlockBegin
2
*D1
70
1
10
0
20
0
30
0
3
*D1
0
LINE
5
118
100
AcDbEntity
8
0
62
256
6
ByLayer
370
-2
48
1
60
0
100
AcDbLine
10
0
20
-1.5875
30
0
11
0
21
-14.513398
31
0
39
0
210
0
220
0
230
1
0
LINE
5
119
100
AcDbEntity
8
0
62
256
6
ByLayer
370
-2
48
1
60
0
100
AcDbLine
10
37.0636
20
-3.8875
30
0
11
37.0636
21
-14.513398
31
0
39
0
210
0
220
0
230
1
0
LINE
5
11A
100
AcDbEntity
8
0
62
256
6
ByLayer
370
-2
48
1
60
0
100
AcDbLine
10
3.5
20
-12.513398
30
0
11
33.5636
21
-12.513398
31
0
39
0
210
0
220
0
230
1
0
SOLID
5
11B
100
AcDbEntity
8
0
62
256
6
ByLayer
370
-1
48
1
60
0
100
AcDbTrace
10
3.5
20
-11.930065
30
0
11
3.5
21
-13.096732
31
0
12
0
22
-12.513398
32
0
13
0
23
-12.513398
33
0
39
0
210
0
220
0
230
1
0
SOLID
5
11C
100
AcDbEntity
8
0
62
256
6
ByLayer
370
-1
48
1
60
0
100
AcDbTrace
10
33.5636
20
-13.096732
30
0
11
33.5636
21
-11.930065
31
0
12
37.0636
22
-12.513398
32
0
13
37.0636
23
-12.513398
33
0
39
0
210
0
220
0
230
1
0
MTEXT
5
11D
100
AcDbEntity
8
0
62
256
6
ByLayer
370
18
48
1
60
0
100
AcDbMText
10
18.5318
20
-5.513398
30
0
210
0
220
0
230
1
1
\A1;37.06
40
3.5
41
0
44
1
50
0
71
5
72
5
7
iso_b_vert
0
POINT
5
11E
100
AcDbEntity
8
Defpoints
62
0
6
ByLayer
370
-1
48
1
60
0
100
AcDbPoint
10
0
20
0
30
0
39
0
210
0
220
0
230
1
50
360
0
POINT
5
11F
100
AcDbEntity
8
Defpoints
62
0
6
ByLayer
370
-1
48
1
60
0
100
AcDbPoint
10
37.0636
20
-2.3
30
0
39
0
210
0
220
0
230
1
50
360
0
POINT
5
120
100
AcDbEntity
8
Defpoints
62
0
6
ByLayer
370
-1
48
1
60
0
100
AcDbPoint
10
37.0636
20
-12.513398
30
0
39
0
210
0
220
0
230
1
50
360
0
ENDBLK
5
117
100
AcDbEntity
8
0
100
AcDbBlockEnd
0
BLOCK
5
128
100
AcDbEntity
8
0
100
AcDbBlockBegin
2
_U0
70
0
10
0
20
0
30
0
3
_U0
0
MTEXT
5
122
100
AcDbEntity
8
2
62
256
6
ByLayer
370
13
48
1
60
0
100
AcDbMText
10
13.394501
20
-11.480765
30
0
210
0
220
0
230
1
1
\W0.7317;37,06
40
3.5
41
0
44
1.084337
50
0
71
7
72
5
7
iso_b_vert
0
LINE
5
123
100
AcDbEntity
8
2
62
256
6
ByLayer
370
13
48
1
60
0
100
AcDbLine
10
0
20
-1.5875
30
0
11
0
21
-14.513398
31
0
39
0
210
0
220
0
230
1
0
LINE
5
124
100
AcDbEntity
8
2
62
256
6
ByLayer
370
13
48
1
60
0
100
AcDbLine
10
37.0636
20
-3.8875
30
0
11
37.0636
21
-14.513398
31
0
39
0
210
0
220
0
230
1
0
LINE
5
125
100
AcDbEntity
8
2
62
256
6
ByLayer
370
13
48
1
60
0
100
AcDbLine
10
0
20
-12.513398
30
0
11
37.0636
21
-12.513398
31
0
39
0
210
0
220
0
230
1
0
SOLID
5
126
100
AcDbEntity
8
2
62
256
6
ByLayer
370
18
48
1
60
0
100
AcDbTrace
10
0
20
-12.513398
30
0
11
3.499998
21
-12.052615
31
0
12
3.500002
22
-12.974182
32
0
13
3.500002
23
-12.974182
33
0
39
0
210
0
220
0
230
1
0
SOLID
5
127
100
AcDbEntity
8
2
62
256
6
ByLayer
370
18
48
1
60
0
100
AcDbTrace
10
37.0636
20
-12.513398
30
0
11
33.563602
21
-12.974182
31
0
12
33.563598
22
-12.052615
32
0
13
33.563598
23
-12.052615
33
0
39
0
210
0
220
0
230
1
0
ENDBLK
5
129
100
AcDbEntity
8
0
100
AcDbBlockEnd
0
BLOCK
5
12E
100
AcDbEntity
8
0
100
AcDbBlockBegin
2
*D3
70
1
10
0
20
0
30
0
3
*D3
0
LINE
5
130
100
AcDbEntity
8
0
62
256
6
ByLayer
370
-2
48
1
60
0
100
AcDbLine
10
-36
20
-4.5875
30
0
11
-36
21
-33.692985
31
0
39
0
210
0
220
0
230
1
0
LINE
5
131
100
AcDbEntity
8
0
62
256
6
ByLayer
370
-2
48
1
60
0
100
AcDbLine
10
38
20
-1.5875
30
0
11
38
21
-33.692985
31
0
39
0
210
0
220
0
230
1
0
LINE
5
132
100
AcDbEntity
8
0
62
256
6
ByLayer
370
-2
48
1
60
0
100
AcDbLine
10
-32.5
20
-31.692985
30
0
11
34.5
21
-31.692985
31
0
39
0
210
0
220
0
230
1
0
SOLID
5
133
100
AcDbEntity
8
0
62
256
6
ByLayer
370
-1
48
1
60
0
100
AcDbTrace
10
-32.5
20
-31.109652
30
0
11
-32.5
21
-32.276319
31
0
12
-36
22
-31.692985
32
0
13
-36
23
-31.692985
33
0
39
0
210
0
220
0
230
1
0
SOLID
5
134
100
AcDbEntity
8
0
62
256
6
ByLayer
370
-1
48
1
60
0
100
AcDbTrace
10
34.5
20
-32.276319
30
0
11
34.5
21
-31.109652
31
0
12
38
22
-31.692985
32
0
13
38
23
-31.692985
33
0
39
0
210
0
220
0
230
1
0
MTEXT
5
135
100
AcDbEntity
8
0
62
256
6
ByLayer
370
18
48
1
60
0
100
AcDbMText
10
1
20
-24.692985
30
0
210
0
220
0
230
1
1
\A1;74.00
40
3.5
41
0
44
1
50
0
71
5
72
5
7
iso_b_vert
0
POINT
5
136
100
AcDbEntity
8
Defpoints
62
0
6
ByLayer
370
-1
48
1
60
0
100
AcDbPoint
10
-36
20
-3
30
0
39
0
210
0
220
0
230
1
50
360
0
POINT
5
137
100
AcDbEntity
8
Defpoints
62
0
6
ByLayer
370
-1
48
1
60
0
100
AcDbPoint
10
38
20
0
30
0
39
0
210
0
220
0
230
1
50
360
0
POINT
5
138
100
AcDbEntity
8
Defpoints
62
0
6
ByLayer
370
-1
48
1
60
0
100
AcDbPoint
10
38
20
-31.692985
30
0
39
0
210
0
220
0
230
1
50
360
0
ENDBLK
5
12F
100
AcDbEntity
8
0
100
AcDbBlockEnd
0
BLOCK
5
140
100
AcDbEntity
8
0
100
AcDbBlockBegin
2
_U1
70
0
10
0
20
0
30
0
3
_U1
0
MTEXT
5
13A
100
AcDbEntity
8
SK2
62
256
6
ByLayer
370
13
48
1
60
0
100
AcDbMText
10
-4.321565
20
-30.660352
30
0
210
0
220
0
230
1
1
\W0.7581;74,00
40
3.5
41
0
44
1.084337
50
0
71
7
72
5
7
iso_b_vert
0
LINE
5
13B
100
AcDbEntity
8
SK2
62
256
6
ByLayer
370
13
48
1
60
0
100
AcDbLine
10
-36
20
-4.5875
30
0
11
-36
21
-33.692985
31
0
39
0
210
0
220
0
230
1
0
LINE
5
13C
100
AcDbEntity
8
SK2
62
256
6
ByLayer
370
13
48
1
60
0
100
AcDbLine
10
38
20
-1.5875
30
0
11
38
21
-33.692985
31
0
39
0
210
0
220
0
230
1
0
LINE
5
13D
100
AcDbEntity
8
SK2
62
256
6
ByLayer
370
13
48
1
60
0
100
AcDbLine
10
-36
20
-31.692985
30
0
11
38
21
-31.692985
31
0
39
0
210
0
220
0
230
1
0
SOLID
5
13E
100
AcDbEntity
8
SK2
62
256
6
ByLayer
370
18
48
1
60
0
100
AcDbTrace
10
-36
20
-31.692985
30
0
11
-32.500002
21
-31.232202
31
0
12
-32.499998
22
-32.153769
32
0
13
-32.499998
23
-32.153769
33
0
39
0
210
0
220
0
230
1
0
SOLID
5
13F
100
AcDbEntity
8
SK2
62
256
6
ByLayer
370
18
48
1
60
0
100
AcDbTrace
10
38
20
-31.692985
30
0
11
34.500002
21
-32.153769
31
0
12
34.499998
22
-31.232202
32
0
13
34.499998
23
-31.232202
33
0
39
0
210
0
220
0
230
1
0
ENDBLK
5
141
100
AcDbEntity
8
0
100
AcDbBlockEnd
0
BLOCK
5
146
100
AcDbEntity
8
0
100
AcDbBlockBegin
2
*D5
70
1
10
0
20
0
30
0
3
*D5
0
LINE
5
148
100
AcDbEntity
8
0
62
256
6
ByLayer
370
-2
48
1
60
0
100
AcDbLine
10
14.06
20
3.8875
30
0
11
14.06
21
15.909119
31
0
39
0
210
0
220
0
230
1
0
LINE
5
149
100
AcDbEntity
8
0
62
256
6
ByLayer
370
-2
48
1
60
0
100
AcDbLine
10
38
20
1.5875
30
0
11
38
21
15.909119
31
0
39
0
210
0
220
0
230
1
0
LINE
5
14A
100
AcDbEntity
8
0
62
256
6
ByLayer
370
-2
48
1
60
0
100
AcDbLine
10
17.56
20
13.909119
30
0
11
34.5
21
13.909119
31
0
39
0
210
0
220
0
230
1
0
SOLID
5
14B
100
AcDbEntity
8
0
62
256
6
ByLayer
370
-1
48
1
60
0
100
AcDbTrace
10
17.56
20
14.492453
30
0
11
17.56
21
13.325786
31
0
12
14.06
22
13.909119
32
0
13
14.06
23
13.909119
33
0
39
0
210
0
220
0
230
1
0
SOLID
5
14C
100
AcDbEntity
8
0
62
256
6
ByLayer
370
-1
48
1
60
0
100
AcDbTrace
10
34.5
20
13.325786
30
0
11
34.5
21
14.492453
31
0
12
38
22
13.909119
32
0
13
38
23
13.909119
33
0
39
0
210
0
220
0
230
1
0
MTEXT
5
14D
100
AcDbEntity
8
0
62
256
6
ByLayer
370
18
48
1
60
0
100
AcDbMText
10
26.03
20
20.909119
30
0
210
0
220
0
230
1
1
\A1;23.94
40
3.5
41
0
44
1
50
0
71
5
72
5
7
iso_b_vert
0
POINT
5
14E
100
AcDbEntity
8
Defpoints
62
0
6
ByLayer
370
-1
48
1
60
0
100
AcDbPoint
10
14.06
20
2.3
30
0
39
0
210
0
220
0
230
1
50
360
0
POINT
5
14F
100
AcDbEntity
8
Defpoints
62
0
6
ByLayer
370
-1
48
1
60
0
100
AcDbPoint
10
38
20
0
30
0
39
0
210
0
220
0
230
1
50
360
0
POINT
5
150
100
AcDbEntity
8
Defpoints
62
0
6
ByLayer
370
-1
48
1
60
0
100
AcDbPoint
10
38
20
13.909119
30
0
39
0
210
0
220
0
230
1
50
360
0
ENDBLK
5
147
100
AcDbEntity
8
0
100
AcDbBlockEnd
0
BLOCK
5
158
100
AcDbEntity
8
0
100
AcDbBlockBegin
2
_U2
70
0
10
0
20
0
30
0
3
_U2
0
MTEXT
5
152
100
AcDbEntity
8
SK2
62
256
6
ByLayer
370
13
48
1
60
0
100
AcDbMText
10
20.708435
20
14.941753
30
0
210
0
220
0
230
1
1
\W0.7495;23,94
40
3.5
41
0
44
1.084337
50
0
71
7
72
5
7
iso_b_vert
0
LINE
5
153
100
AcDbEntity
8
SK2
62
256
6
ByLayer
370
13
48
1
60
0
100
AcDbLine
10
14.06
20
3.8875
30
0
11
14.06
21
15.909119
31
0
39
0
210
0
220
0
230
1
0
LINE
5
154
100
AcDbEntity
8
SK2
62
256
6
ByLayer
370
13
48
1
60
0
100
AcDbLine
10
38
20
1.5875
30
0
11
38
21
15.909119
31
0
39
0
210
0
220
0
230
1
0
LINE
5
155
100
AcDbEntity
8
SK2
62
256
6
ByLayer
370
13
48
1
60
0
100
AcDbLine
10
14.06
20
13.909119
30
0
11
38
21
13.909119
31
0
39
0
210
0
220
0
230
1
0
SOLID
5
156
100
AcDbEntity
8
SK2
62
256
6
ByLayer
370
18
48
1
60
0
100
AcDbTrace
10
14.06
20
13.909119
30
0
11
17.559998
21
14.369903
31
0
12
17.560002
22
13.448335
32
0
13
17.560002
23
13.448335
33
0
39
0
210
0
220
0
230
1
0
SOLID
5
157
100
AcDbEntity
8
SK2
62
256
6
ByLayer
370
18
48
1
60
0
100
AcDbTrace
10
38
20
13.909119
30
0
11
34.500002
21
13.448335
31
0
12
34.499998
22
14.369903
32
0
13
34.499998
23
14.369903
33
0
39
0
210
0
220
0
230
1
0
ENDBLK
5
159
100
AcDbEntity
8
0
100
AcDbBlockEnd
0
BLOCK
5
15E
100
AcDbEntity
8
0
100
AcDbBlockBegin
2
*D7
70
1
10
0
20
0
30
0
3
*D7
0
LINE
5
160
100
AcDbEntity
8
0
62
256
6
ByLayer
370
-2
48
1
60
0
100
AcDbLine
10
38
20
-1.5875
30
0
11
38
21
-17.102503
31
0
39
0
210
0
220
0
230
1
0
LINE
5
161
100
AcDbEntity
8
0
62
256
6
ByLayer
370
-2
48
1
60
0
100
AcDbLine
10
37.0636
20
-3.8875
30
0
11
37.0636
21
-17.102503
31
0
39
0
210
0
220
0
230
1
0
LINE
5
162
100
AcDbEntity
8
0
62
256
6
ByLayer
370
-2
48
1
60
0
100
AcDbLine
10
38
20
-15.102503
30
0
11
66.333333
21
-15.102503
31
0
39
0
210
0
220
0
230
1
0
LINE
5
163
100
AcDbEntity
8
0
62
256
6
ByLayer
370
-2
48
1
60
0
100
AcDbLine
10
41.5
20
-15.102503
30
0
11
45
21
-15.102503
31
0
39
0
210
0
220
0
230
1
0
LINE
5
164
100
AcDbEntity
8
0
62
256
6
ByLayer
370
-2
48
1
60
0
100
AcDbLine
10
33.5636
20
-15.102503
30
0
11
30.0636
21
-15.102503
31
0
39
0
210
0
220
0
230
1
0
SOLID
5
165
100
AcDbEntity
8
0
62
256
6
ByLayer
370
-1
48
1
60
0
100
AcDbTrace
10
41.5
20
-14.51917
30
0
11
41.5
21
-15.685837
31
0
12
38
22
-15.102503
32
0
13
38
23
-15.102503
33
0
39
0
210
0
220
0
230
1
0
SOLID
5
166
100
AcDbEntity
8
0
62
256
6
ByLayer
370
-1
48
1
60
0
100
AcDbTrace
10
33.5636
20
-15.685837
30
0
11
33.5636
21
-14.51917
31
0
12
37.0636
22
-15.102503
32
0
13
37.0636
23
-15.102503
33
0
39
0
210
0
220
0
230
1
0
MTEXT
5
167
100
AcDbEntity
8
0
62
256
6
ByLayer
370
18
48
1
60
0
100
AcDbMText
10
55.666667
20
-8.102503
30
0
210
0
220
0
230
1
1
\A1;0.94
40
3.5
41
0
44
1
50
0
71
5
72
5
7
iso_b_vert
0
POINT
5
168
100
AcDbEntity
8
Defpoints
62
0
6
ByLayer
370
-1
48
1
60
0
100
AcDbPoint
10
38
20
0
30
0
39
0
210
0
220
0
230
1
50
360
0
POINT
5
169
100
AcDbEntity
8
Defpoints
62
0
6
ByLayer
370
-1
48
1
60
0
100
AcDbPoint
10
37.0636
20
-2.3
30
0
39
0
210
0
220
0
230
1
50
360
0
POINT
5
16A
100
AcDbEntity
8
Defpoints
62
0
6
ByLayer
370
-1
48
1
60
0
100
AcDbPoint
10
37.0636
20
-15.102503
30
0
39
0
210
0
220
0
230
1
50
360
0
ENDBLK
5
15F
100
AcDbEntity
8
0
100
AcDbBlockEnd
0
BLOCK
5
172
100
AcDbEntity
8
0
100
AcDbBlockBegin
2
_U3
70
0
10
0
20
0
30
0
3
_U3
0
MTEXT
5
16C
100
AcDbEntity
8
SK2
62
256
6
ByLayer
370
13
48
1
60
0
100
AcDbMText
10
43.967593
20
-14.06987
30
0
210
0
220
0
230
1
1
\W0.7383;0,94
40
3.5
41
0
44
1.084337
50
0
71
7
72
5
7
iso_b_vert
0
LINE
5
16D
100
AcDbEntity
8
SK2
62
256
6
ByLayer
370
13
48
1
60
0
100
AcDbLine
10
38
20
-1.5875
30
0
11
38
21
-17.102503
31
0
39
0
210
0
220
0
230
1
0
LINE
5
16E
100
AcDbEntity
8
SK2
62
256
6
ByLayer
370
13
48
1
60
0
100
AcDbLine
10
37.0636
20
-3.8875
30
0
11
37.0636
21
-17.102503
31
0
39
0
210
0
220
0
230
1
0
LINE
5
16F
100
AcDbEntity
8
SK2
62
256
6
ByLayer
370
13
48
1
60
0
100
AcDbLine
10
28.3136
20
-15.102503
30
0
11
52.180758
21
-15.102503
31
0
39
0
210
0
220
0
230
1
0
SOLID
5
170
100
AcDbEntity
8
SK2
62
256
6
ByLayer
370
18
48
1
60
0
100
AcDbTrace
10
38
20
-15.102503
30
0
11
41.499998
21
-14.641719
31
0
12
41.500002
22
-15.563287
32
0
13
41.500002
23
-15.563287
33
0
39
0
210
0
220
0
230
1
0
SOLID
5
171
100
AcDbEntity
8
SK2
62
256
6
ByLayer
370
18
48
1
60
0
100
AcDbTrace
10
37.0636
20
-15.102503
30
0
11
33.563602
21
-15.563287
31
0
12
33.563598
22
-14.641719
32
0
13
33.563598
23
-14.641719
33
0
39
0
210
0
220
0
230
1
0
ENDBLK
5
173
100
AcDbEntity
8
0
100
AcDbBlockEnd
0
BLOCK
5
178
100
AcDbEntity
8
0
100
AcDbBlockBegin
2
*D9
70
1
10
0
20
0
30
0
3
*D9
0
LINE
5
17A
100
AcDbEntity
8
0
62
256
6
ByLayer
370
-2
48
1
60
0
100
AcDbLine
10
-36
20
-4.5875
30
0
11
-36
21
-23.343428
31
0
39
0
210
0
220
0
230
1
0
LINE
5
17B
100
AcDbEntity
8
0
62
256
6
ByLayer
370
-2
48
1
60
0
100
AcDbLine
10
37.0636
20
-3.8875
30
0
11
37.0636
21
-23.343428
31
0
39
0
210
0
220
0
230
1
0
LINE
5
17C
100
AcDbEntity
8
0
62
256
6
ByLayer
370
-2
48
1
60
0
100
AcDbLine
10
-32.5
20
-21.343428
30
0
11
33.5636
21
-21.343428
31
0
39
0
210
0
220
0
230
1
0
SOLID
5
17D
100
AcDbEntity
8
0
62
256
6
ByLayer
370
-1
48
1
60
0
100
AcDbTrace
10
-32.5
20
-20.760095
30
0
11
-32.5
21
-21.926762
31
0
12
-36
22
-21.343428
32
0
13
-36
23
-21.343428
33
0
39
0
210
0
220
0
230
1
0
SOLID
5
17E
100
AcDbEntity
8
0
62
256
6
ByLayer
370
-1
48
1
60
0
100
AcDbTrace
10
33.5636
20
-21.926762
30
0
11
33.5636
21
-20.760095
31
0
12
37.0636
22
-21.343428
32
0
13
37.0636
23
-21.343428
33
0
39
0
210
0
220
0
230
1
0
MTEXT
5
17F
100
AcDbEntity
8
0
62
256
6
ByLayer
370
18
48
1
60
0
100
AcDbMText
10
0.5318
20
-14.343428
30
0
210
0
220
0
230
1
1
\A1;73.06
40
3.5
41
0
44
1
50
0
71
5
72
5
7
iso_b_vert
0
POINT
5
180
100
AcDbEntity
8
Defpoints
62
0
6
ByLayer
370
-1
48
1
60
0
100
AcDbPoint
10
-36
20
-3
30
0
39
0
210
0
220
0
230
1
50
360
0
POINT
5
181
100
AcDbEntity
8
Defpoints
62
0
6
ByLayer
370
-1
48
1
60
0
100
AcDbPoint
10
37.0636
20
-2.3
30
0
39
0
210
0
220
0
230
1
50
360
0
POINT
5
182
100
AcDbEntity
8
Defpoints
62
0
6
ByLayer
370
-1
48
1
60
0
100
AcDbPoint
10
37.0636
20
-21.343428
30
0
39
0
210
0
220
0
230
1
50
360
0
ENDBLK
5
179
100
AcDbEntity
8
0
100
AcDbBlockEnd
0
BLOCK
5
18A
100
AcDbEntity
8
0
100
AcDbBlockBegin
2
_U4
70
0
10
0
20
0
30
0
3
_U4
0
MTEXT
5
184
100
AcDbEntity
8
SK2
62
256
6
ByLayer
370
13
48
1
60
0
100
AcDbMText
10
-4.605499
20
-20.310795
30
0
210
0
220
0
230
1
1
\W0.7317;73,06
40
3.5
41
0
44
1.084337
50
0
71
7
72
5
7
iso_b_vert
0
LINE
5
185
100
AcDbEntity
8
SK2
62
256
6
ByLayer
370
13
48
1
60
0
100
AcDbLine
10
-36
20
-4.5875
30
0
11
-36
21
-23.343428
31
0
39
0
210
0
220
0
230
1
0
LINE
5
186
100
AcDbEntity
8
SK2
62
256
6
ByLayer
370
13
48
1
60
0
100
AcDbLine
10
37.0636
20
-3.8875
30
0
11
37.0636
21
-23.343428
31
0
39
0
210
0
220
0
230
1
0
LINE
5
187
100
AcDbEntity
8
SK2
62
256
6
ByLayer
370
13
48
1
60
0
100
AcDbLine
10
-36
20
-21.343428
30
0
11
37.0636
21
-21.343428
31
0
39
0
210
0
220
0
230
1
0
SOLID
5
188
100
AcDbEntity
8
SK2
62
256
6
ByLayer
370
18
48
1
60
0
100
AcDbTrace
10
-36
20
-21.343428
30
0
11
-32.500002
21
-20.882645
31
0
12
-32.499998
22
-21.804212
32
0
13
-32.499998
23
-21.804212
33
0
39
0
210
0
220
0
230
1
0
SOLID
5
189
100
AcDbEntity
8
SK2
62
256
6
ByLayer
370
18
48
1
60
0
100
AcDbTrace
10
37.0636
20
-21.343428
30
0
11
33.563602
21
-21.804212
31
0
12
33.563598
22
-20.882645
32
0
13
33.563598
23
-20.882645
33
0
39
0
210
0
220
0
230
1
0
ENDBLK
5
18B
100
AcDbEntity
8
0
100
AcDbBlockEnd
0
ENDSEC
0
SECTION
2
ENTITIES
0
ARC
5
A8
100
AcDbEntity
8
1
62
256
6
ByLayer
370
18
48
1
60
0
100
AcDbCircle
39
0
10
1.419225
20
-3.085842
30
0
40
0.850000000000003
210
0
220
0
230
1
100
AcDbArc
50
89.896868
51
146.599021
0
ARC
5
A9
100
AcDbEntity
8
1
62
256
6
ByLayer
370
18
48
1
60
0
100
AcDbCircle
39
0
10
1.419225
20
3.085842
30
0
40
0.850000000000003
210
0
220
0
230
1
100
AcDbArc
50
213.400979
51
270.103132
0
ARC
5
AA
100
AcDbEntity
8
1
62
256
6
ByLayer
370
18
48
1
60
0
100
AcDbCircle
39
0
10
0
20
-2.15
30
0
40
0.849999999999997
210
0
220
0
230
1
100
AcDbArc
50
270
51
326.599021
0
ARC
5
AB
100
AcDbEntity
8
1
62
256
6
ByLayer
370
18
48
1
60
0
100
AcDbCircle
39
0
10
0
20
2.15
30
0
40
0.849999999999997
210
0
220
0
230
1
100
AcDbArc
50
33.400979
51
90
0
ELLIPSE
5
AC
100
AcDbEntity
8
1
62
256
6
ByLayer
370
13
48
1
60
0
100
AcDbEllipse
10
6.561172
20
-12.572353
30
0
11
-59.7325790277837
21
44.6643743595092
31
0
210
0
220
0
230
1
40
0.126798
41
-1.47626681546842
42
-1.41516998283297
0
ELLIPSE
5
AD
100
AcDbEntity
8
1
62
256
6
ByLayer
370
13
48
1
60
0
100
AcDbEllipse
10
82.194174
20
43.317348
30
0
11
-61.7
21
7.55582120308407E-15
31
0
210
0
220
0
230
1
40
0.99863
41
0.760883513597484
42
0.768610609531823
0
ELLIPSE
5
AE
100
AcDbEntity
8
1
62
256
6
ByLayer
370
13
48
1
60
0
100
AcDbEllipse
10
7.583897
20
-11.204598
30
0
11
-59.7325790277837
21
44.6643743595092
31
0
210
0
220
0
230
1
40
0.126798
41
-1.47626681546842
42
-1.4452777458288
0
ELLIPSE
5
AF
100
AcDbEntity
8
1
62
256
6
ByLayer
370
13
48
1
60
0
100
AcDbEllipse
10
4.967313
20
-2.471128
30
0
11
0.00432837192934206
21
0.299968773702266
31
0
210
0
220
0
230
1
40
0.567734
41
0.0224650016406488
42
0.695536088062186
0
POINT
5
70
100
AcDbEntity
8
80
62
256
6
ByLayer
370
18
48
1
60
0
100
AcDbPoint
10
0
20
0
30
0
39
0
210
0
220
0
230
1
50
360
0
POINT
5
72
100
AcDbEntity
8
81
62
256
6
ByLayer
370
18
48
1
60
0
100
AcDbPoint
10
38
20
0
30
0
39
0
210
0
220
0
230
1
50
360
0
POINT
5
74
100
AcDbEntity
8
1
62
256
6
ByLayer
370
18
48
1
60
1
100
AcDbPoint
10
37.0636
20
-2.3
30
0
39
0
210
0
220
0
230
1
50
360
0
POINT
5
76
100
AcDbEntity
8
1
62
256
6
ByLayer
370
18
48
1
60
1
100
AcDbPoint
10
-36
20
-3
30
0
39
0
210
0
220
0
230
1
50
360
0
POINT
5
77
100
AcDbEntity
8
1
62
256
6
ByLayer
370
18
48
1
60
1
100
AcDbPoint
10
14.06
20
2.3
30
0
39
0
210
0
220
0
230
1
50
360
0
POINT
5
78
100
AcDbEntity
8
1
62
256
6
ByLayer
370
18
48
1
60
1
100
AcDbPoint
10
37.0636
20
-2.3
30
0
39
0
210
0
220
0
230
1
50
360
0
POINT
5
79
100
AcDbEntity
8
1
62
256
6
ByLayer
370
18
48
1
60
1
100
AcDbPoint
10
-36
20
-3
30
0
39
0
210
0
220
0
230
1
50
360
0
POINT
5
7A
100
AcDbEntity
8
1
62
256
6
ByLayer
370
18
48
1
60
1
100
AcDbPoint
10
37.0636
20
-2.3
30
0
39
0
210
0
220
0
230
1
50
360
0
SPLINE
5
B0
100
AcDbEntity
8
1
62
256
6
ByLayer
370
18
48
1
60
0
100
AcDbSpline
70
4
71
3
72
8
73
4
40
0
40
0
40
0
40
0
40
1
40
1
40
1
40
1
41
1
10
37.1360808435747
20
-2.25239754061499
30
0
41
1
10
37.1211669824661
20
-2.22683977680208
30
0
41
1
10
37.1092229515323
20
-2.19095496718805
30
0
41
1
10
37.0999410684174
20
-2.14508762251597
30
0
0
SPLINE
5
B1
100
AcDbEntity
8
1
62
256
6
ByLayer
370
18
48
1
60
0
100
AcDbSpline
70
4
71
3
72
14
73
10
40
0
40
0
40
0
40
0
40
0.25
40
0.25
40
0.5
40
0.5
40
0.75
40
0.75
40
1
40
1
40
1
40
1
41
1
10
6.56117234719994
20
-0.816357213953438
30
0
41
1
10
6.62210738633399
20
-0.714537514171155
30
0
41
1
10
6.7004995037176
20
-0.593078311591967
30
0
41
1
10
6.87682975920376
20
-0.334691987710187
30
0
41
1
10
6.97464915256586
20
-0.197938869541048
30
0
41
1
10
7.17041977560913
20
0.063877944865169
30
0
41
1
10
7.26823916897121
20
0.188765327799615
30
0
41
1
10
7.44456942445743
20
0.402014891439251
30
0
41
1
10
7.522961541841
20
0.490233465115466
30
0
41
1
10
7.58389658097508
20
0.551398564418889
30
0
0
SPLINE
5
B2
100
AcDbEntity
8
1
62
256
6
ByLayer
370
18
48
1
60
0
100
AcDbSpline
70
4
71
1
72
4
73
2
40
0
40
0
40
1
40
1
41
1
10
37.0999410684188
20
-2.14508762252785
30
0
41
1
10
37.5961872173059
20
-0.469788700195664
30
0
0
SPLINE
5
B3
100
AcDbEntity
8
1
62
256
6
ByLayer
370
18
48
1
60
0
100
AcDbSpline
70
4
71
3
72
10
73
6
40
0
40
0
40
0
40
0
40
0.5
40
0.5
40
1
40
1
40
1
40
1
41
1
10
5.72483584346841
20
1.90131110259645
30
0
41
1
10
6.10918184320732
20
1.79036168693591
30
0
41
1
10
6.49513096131727
20
1.65996885383891
30
0
41
1
10
7.26921083525195
20
1.36474437965796
30
0
41
1
10
7.65735283937303
20
1.19986663062195
30
0
41
1
10
8.04658121731001
20
1.01583006605978
30
0
0
SPLINE
5
B4
100
AcDbEntity
8
1
62
256
6
ByLayer
370
18
48
1
60
0
100
AcDbSpline
70
4
71
3
72
8
73
4
40
0
40
0
40
0
40
0
40
1
40
1
40
1
40
1
41
1
10
37.4520783346028
20
-0.0630591933589244
30
0
41
1
10
37.3987263385023
20
-0.0411552149437853
30
0
41
1
10
37.349583624301
20
-0.0226647021661393
30
0
41
1
10
37.3094945643302
20
-0.0098612530732396
30
0
0
SPLINE
5
B5
100
AcDbEntity
8
1
62
256
6
ByLayer
370
18
48
1
60
0
100
AcDbSpline
70
4
71
3
72
10
73
6
40
0
40
0
40
0
40
0
40
0.5
40
0.5
40
1
40
1
40
1
40
1
41
1
10
4.96771901765305
20
-1.01996131433305
30
0
41
1
10
5.15800105068411
20
-1.12070707675687
30
0
41
1
10
5.35001419075167
20
-1.21352728071758
30
0
41
1
10
5.73693951203992
20
-1.38611992772005
30
0
41
1
10
5.93181697444612
20
-1.46607669546862
30
0
41
1
10
6.12800867171529
20
-1.54015416265858
30
0
0
SPLINE
5
B6
100
AcDbEntity
8
1
62
256
6
ByLayer
370
18
48
1
60
0
100
AcDbSpline
70
4
71
3
72
8
73
4
40
0
40
0
40
0
40
0
40
1
40
1
40
1
40
1
41
1
10
36.9628860765879
20
0.0489494059301308
30
0
41
1
10
37.1246630531589
20
0.0039305257083981
30
0
41
1
10
37.2876582740395
20
-0.0338167259112652
30
0
41
1
10
37.4520783345938
20
-0.0630591933555422
30
0
0
SPLINE
5
B7
100
AcDbEntity
8
1
62
256
6
ByLayer
370
18
48
1
60
0
100
AcDbSpline
70
4
71
3
72
20
73
16
40
0
40
0
40
0
40
0
40
0.25
40
0.25
40
0.375
40
0.375
40
0.5
40
0.5
40
0.625
40
0.625
40
0.75
40
0.75
40
0.875
40
0.875
40
1
40
1
40
1
40
1
41
1
10
4.59974276681612
20
-0.880210902427763
30
0
41
1
10
4.59946914917992
20
-1.06699057459733
30
0
41
1
10
4.59927339350318
20
-1.23925375247185
30
0
41
1
10
4.59909445305584
20
-1.47540406886876
30
0
41
1
10
4.59905339008935
20
-1.55084235229495
30
0
41
1
10
4.59900281051182
20
-1.69004892537842
30
0
41
1
10
4.59899276168426
20
-1.75426990271137
30
0
41
1
10
4.5989893951955
20
-1.87211346956781
30
0
41
1
10
4.59899612990142
20
-1.92573719659498
30
0
41
1
10
4.59900915193566
20
-2.02196721230737
30
0
41
1
10
4.59901515164543
20
-2.06361212654301
30
0
41
1
10
4.59900604860687
20
-2.13401919114511
30
0
41
1
10
4.59899101496663
20
-2.16286212357227
30
0
41
1
10
4.59891814836988
20
-2.20768207882011
30
0
41
1
10
4.59885973097499
20
-2.22365992917349
30
0
41
1
10
4.59876941469537
20
-2.23267613357001
30
0
0
SPLINE
5
B8
100
AcDbEntity
8
1
62
256
6
ByLayer
370
18
48
1
60
0
100
AcDbSpline
70
4
71
3
72
34
73
30
40
0
40
0
40
0
40
0
40
0.124999999999996
40
0.124999999999996
40
0.249999999999992
40
0.249999999999992
40
0.374999999999988
40
0.374999999999988
40
0.437499999999988
40
0.437499999999988
40
0.499999999999988
40
0.499999999999988
40
0.562499999999988
40
0.562499999999988
40
0.624999999999988
40
0.624999999999988
40
0.687499999999988
40
0.687499999999988
40
0.718749999999989
40
0.718749999999989
40
0.74999999999999
40
0.74999999999999
40
0.812499999999992
40
0.812499999999992
40
0.874999999999995
40
0.874999999999995
40
0.937499999999997
40
0.937499999999997
40
1
40
1
40
1
40
1
41
1
10
4.59974276681609
20
-0.880210902427763
30
0
41
1
10
4.46383187068639
20
-0.800995555005585
30
0
41
1
10
4.32901871684368
20
-0.717392574832758
30
0
41
1
10
4.06206902002771
20
-0.539322375595845
30
0
41
1
10
3.92938259419515
20
-0.444392912571203
30
0
41
1
10
3.67356088345144
20
-0.245023997014158
30
0
41
1
10
3.54980136878908
20
-0.140277355599409
30
0
41
1
10
3.37240295504535
20
0.0269080088430371
30
0
41
1
10
3.31465492987647
20
0.0843279017162786
30
0
41
1
10
3.20250681466001
20
0.203260448040623
30
0
41
1
10
3.14792286519241
20
0.265022616734086
30
0
41
1
10
3.04493586724806
20
0.391193024389452
30
0
41
1
10
2.99631438189999
20
0.455794675263974
30
0
41
1
10
2.90606269758661
20
0.588675183723666
30
0
41
1
10
2.86413405384732
20
0.657556476907786
30
0
41
1
10
2.79119676459646
20
0.796064795318728
30
0
41
1
10
2.76003533401266
20
0.865765855084817
30
0
41
1
10
2.72256905447671
20
0.971075601178086
30
0
41
1
10
2.71163202862129
20
1.0063056583154
30
0
41
1
10
2.69317445093708
20
1.07704133976026
30
0
41
1
10
2.68562844902686
20
1.11278312192502
30
0
41
1
10
2.66903707695877
20
1.21797742547795
30
0
41
1
10
2.66582146131452
20
1.28575986978623
30
0
41
1
10
2.67518516950071
20
1.41657076983483
30
0
41
1
10
2.68800164059556
20
1.47950685792864
30
0
41
1
10
2.72731784807428
20
1.59523138368476
30
0
41
1
10
2.7540159340096
20
1.649135334997
30
0
41
1
10
2.81872454056693
20
1.74815967585886
30
0
41
1
10
2.85615343375062
20
1.79260715252511
30
0
41
1
10
2.89761473539374
20
1.83303589642577
30
0
0
SPLINE
5
B9
100
AcDbEntity
8
1
62
256
6
ByLayer
370
18
48
1
60
0
100
AcDbSpline
70
4
71
3
72
20
73
16
40
0
40
0
40
0
40
0
40
0.0718166172918557
40
0.0718166172918557
40
0.226513847743213
40
0.226513847743213
40
0.381211078194571
40
0.381211078194571
40
0.535908308645928
40
0.535908308645928
40
0.690605539097285
40
0.690605539097285
40
0.845302769548643
40
0.845302769548643
40
1
40
1
40
1
40
1
41
1
10
37.1863468634601
20
0.0526932661510386
30
0
41
1
10
37.1788281052389
20
0.0604831012284421
30
0
41
1
10
37.1727944623554
20
0.0688897360976455
30
0
41
1
10
37.1584971953708
20
0.0976691048402358
30
0
41
1
10
37.1553235310771
20
0.120766917160324
30
0
41
1
10
37.1603889117685
20
0.176785674701904
30
0
41
1
10
37.1684912301493
20
0.208725120233794
30
0
41
1
10
37.1936157318165
20
0.281842325564156
30
0
41
1
10
37.2108979435702
20
0.323480342511886
30
0
41
1
10
37.2519198482074
20
0.41294007957643
30
0
41
1
10
37.2757934465321
20
0.461241458324139
30
0
41
1
10
37.3304255938709
20
0.564282997858726
30
0
41
1
10
37.3601771617309
20
0.617312709375938
30
0
41
1
10
37.4272770712374
20
0.724694009553417
30
0
41
1
10
37.4647553789004
20
0.779808747158853
30
0
41
1
10
37.5093644409713
20
0.829706168703808
30
0
0
SPLINE
5
BA
100
AcDbEntity
8
1
62
256
6
ByLayer
370
18
48
1
60
0
100
AcDbSpline
70
4
71
3
72
12
73
8
40
0
40
0
40
0
40
0
40
0.500000000000001
40
0.500000000000001
40
0.75
40
0.75
40
1
40
1
40
1
40
1
41
1
10
36.962886076588
20
0.0489494059301308
30
0
41
1
10
36.9330231079179
20
-0.133141379139886
30
0
41
1
10
36.9146441958757
20
-0.313598632588708
30
0
41
1
10
36.9046013782121
20
-0.581791618335899
30
0
41
1
10
36.9042600885005
20
-0.670929008429226
30
0
41
1
10
36.9096293724274
20
-0.843533326016484
30
0
41
1
10
36.9152994815117
20
-0.927614384297328
30
0
41
1
10
36.9239615522662
20
-1.00946951030983
30
0
0
SPLINE
5
BB
100
AcDbEntity
8
1
62
256
6
ByLayer
370
18
48
1
60
0
100
AcDbSpline
70
4
71
3
72
26
73
22
40
0
40
0
40
0
40
0
40
0.03125
40
0.03125
40
0.0625
40
0.0625
40
0.125
40
0.125
40
0.1875
40
0.1875
40
0.25
40
0.25
40
0.375
40
0.375
40
0.5
40
0.5
40
0.75
40
0.75
40
0.875
40
0.875
40
1
40
1
40
1
40
1
41
1
10
2.89761473539232
20
1.83303589642682
30
0
41
1
10
2.91383430699028
20
1.84885153366741
30
0
41
1
10
2.9328708104855
20
1.86353853084842
30
0
41
1
10
2.97424788087494
20
1.89013802427601
30
0
41
1
10
2.9966269807062
20
1.90214463378555
30
0
41
1
10
3.06778963703616
20
1.9352342948346
30
0
41
1
10
3.12092329516173
20
1.95348486658196
30
0
41
1
10
3.23068622496567
20
1.98406277518168
30
0
41
1
10
3.28781569026316
20
1.99659260815312
30
0
41
1
10
3.40535283718498
20
2.01805549869303
30
0
41
1
10
3.46605715314578
20
2.02698720212118
30
0
41
1
10
3.6490347375161
20
2.04941907363892
30
0
41
1
10
3.77286004856885
20
2.05887734325361
30
0
41
1
10
4.02323826361126
20
2.07103604546188
30
0
41
1
10
4.15057299929623
20
2.07362929320988
30
0
41
1
10
4.53075151922164
20
2.07238753125634
30
0
41
1
10
4.77936830323335
20
2.06026861741714
30
0
41
1
10
5.14534819640085
20
2.02022755293581
30
0
41
1
10
5.26680443111957
20
2.00290786198454
30
0
41
1
10
5.50119692880551
20
1.95935566807168
30
0
41
1
10
5.61474417972696
20
1.93309133647298
30
0
41
1
10
5.72483584346841
20
1.90131110259645
30
0
0
SPLINE
5
BC
100
AcDbEntity
8
1
62
256
6
ByLayer
370
18
48
1
60
0
100
AcDbSpline
70
4
71
4
72
10
73
5
40
0
40
0
40
0
40
0
40
0
40
1
40
1
40
1
40
1
40
1
41
1
10
6.56117234720006
20
-0.816357213953523
30
0
41
1
10
6.45288142832882
20
-0.997306451129788
30
0
41
1
10
6.34459050945759
20
-1.17825568830605
30
0
41
1
10
6.23629959058638
20
-1.35920492548232
30
0
41
1
10
6.12800867171518
20
-1.54015416265861
30
0
0
SPLINE
5
BD
100
AcDbEntity
8
1
62
256
6
ByLayer
370
18
48
1
60
0
100
AcDbSpline
70
4
71
3
72
8
73
4
40
0
40
0
40
0
40
0
40
1
40
1
40
1
40
1
41
1
10
37.5865934741868
20
1.08919773098947
30
0
41
1
10
37.580070673799
20
1.13378835103524
30
0
41
1
10
37.5765349769598
20
1.17803748523807
30
0
41
1
10
37.5750386848581
20
1.22205347457853
30
0
0
SPLINE
5
BE
100
AcDbEntity
8
1
62
256
6
ByLayer
370
13
48
1
60
0
100
AcDbSpline
70
4
71
3
72
115
73
111
40
0
40
0
40
0
40
0
40
0.0121948107997706
40
0.0160471086381553
40
0.0237517043149223
40
0.0314562999916893
40
0.0430131935068393
40
0.0468654913452215
40
0.0545700870219872
40
0.0622746826987559
40
0.0719054272947157
40
0.0776838740522882
40
0.0834623208098636
40
0.0930930654058217
40
0.108502256759353
40
0.135468341628037
40
0.139320639466421
40
0.147025235143186
40
0.154729830819954
40
0.166286724335105
40
0.170139022173488
40
0.177843617850254
40
0.185548213527022
40
0.19710510704217
40
0.200957404880554
40
0.208662000557319
40
0.216366596234088
40
0.227923489749236
40
0.23177578758762
40
0.239480383264389
40
0.247184978941154
40
0.256815723537112
40
0.262594170294687
40
0.26837261705226
40
0.27800336164822
40
0.293412553001755
40
0.320378637870434
40
0.32423093570882
40
0.331935531385587
40
0.339640127062355
40
0.351197020577503
40
0.355049318415886
40
0.362753914092651
40
0.370458509769419
40
0.382015403284569
40
0.385867701122953
40
0.393572296799719
40
0.401276892476487
40
0.412833785991636
40
0.416686083830019
40
0.424390679506787
40
0.432095275183555
40
0.441726019779509
40
0.447504466537086
40
0.453282913294661
40
0.462913657890619
40
0.478322849244152
40
0.505288934112836
40
0.509141231951219
40
0.516845827627985
40
0.524550423304753
40
0.536107316819902
40
0.539959614658285
40
0.547664210335053
40
0.555368806011817
40
0.566925699526968
40
0.570777997365352
40
0.578482593042118
40
0.586187188718885
40
0.597744082234036
40
0.601596380072418
40
0.609300975749186
40
0.617005571425954
40
0.626636316021909
40
0.632414762779485
40
0.638193209537061
40
0.64782395413302
40
0.66323314548655
40
0.690199230355235
40
0.694051528193618
40
0.701756123870383
40
0.709460719547151
40
0.721017613062299
40
0.724869910900684
40
0.732574506577451
40
0.740279102254217
40
0.749909846850175
40
0.755688293607751
40
0.761466740365325
40
0.771097484961283
40
0.786506676314817
40
0.809620463345117
40
0.817325059021884
40
0.832734250375416
40
0.84814344172895
40
0.875109526597634
40
0.878961824436016
40
0.886666420112783
40
0.894371015789549
40
0.905927909304699
40
0.909780207143083
40
0.91748480281985
40
0.925189398496616
40
0.934820143092574
40
0.940598589850149
40
0.946377036607724
40
0.956007781203683
40
0.971416972557216
40
0.998383057425899
40
1
40
1
40
1
40
1
41
1.00000000000001
10
32.0126429577064
20
-0.0086004229090973
30
0
41
1.00000000000001
10
31.981215949186
20
0.0009785781622042
30
0
41
1.00000000000001
10
31.9398622860576
20
0.0135951668971186
30
0
41
1.00000000000001
10
31.8786546144254
20
0.0322785742343679
30
0
41
1.00000000000001
10
31.8290113944141
20
0.0473655382012617
30
0
41
1.00000000000001
10
31.7595117077145
20
0.0684678063504966
30
0
41
1.00000000000001
10
31.6999434129966
20
0.0865558513469284
30
0
41
1.00000000000001
10
31.6403739999906
20
0.104621339779895
30
0
41
1.00000000000001
10
31.5907305941835
20
0.119636488242376
30
0
41
1.00000000000001
10
31.5261957169228
20
0.139123066418561
30
0
41
1.00000000000001
10
31.4666265050398
20
0.157079277509749
30
0
41
1.00000000000001
10
31.4120211063208
20
0.173506269635479
30
0
41
1.00000000000001
10
31.3574127527393
20
0.189876856016181
30
0
41
1.00000000000001
10
31.2779803983172
20
0.213589375751721
30
0
41
1.00000000000001
10
31.1439336731381
20
0.253323379023381
30
0
41
1.00000000000001
10
31.0248026135142
20
0.288464847947889
30
0
41
1.00000000000001
10
30.9255293930125
20
0.317518852486013
30
0
41
1.00000000000001
10
30.8758860126247
20
0.331922393972856
30
0
41
1.00000000000001
10
30.8063860448232
20
0.351977614445696
30
0
41
1.00000000000001
10
30.7468174695623
20
0.36907477060833
30
0
41
1.00000000000001
10
30.6872477622163
20
0.386071192784493
30
0
41
1.00000000000001
10
30.637604143745
20
0.400144842418365
30
0
41
1.00000000000001
10
30.5681040771214
20
0.419717117607172
30
0
41
1.00000000000001
10
30.5085355815484
20
0.436378350294711
30
0
41
1.00000000000001
10
30.4489660528595
20
0.452920669008756
30
0
41
1.00000000000001
10
30.3993226079071
20
0.466604419243872
30
0
41
1.00000000000001
10
30.3298227772292
20
0.485610264760418
30
0
41
1.00000000000001
10
30.2702544577313
20
0.5017638989492
30
0
41
1.00000000000001
10
30.2106850580805
20
0.517779913685977
30
0
41
1.00000000000001
10
30.1610416696864
20
0.531013260308007
30
0
41
1.00000000000001
10
30.096506818819
20
0.548064477902293
30
0
41
1.00000000000001
10
30.0369376379119
20
0.563648956019214
30
0
41
1.00000000000001
10
29.9823322740803
20
0.577799401639104
30
0
41
1.00000000000001
10
29.927723964431
20
0.591813477597319
30
0
41
1.00000000000001
10
29.8482916969864
20
0.611949689916165
30
0
41
1.00000000000001
10
29.7142451742943
20
0.645245869023276
30
0
41
1.00000000000001
10
29.5951143640729
20
0.674093333361914
30
0
41
1.00000000000001
10
29.4958413778925
20
0.697548462330606
30
0
41
1.00000000000001
10
29.4461981201486
20
0.709081094443367
30
0
41
1.00000000000001
10
29.3766983272546
20
0.724996905710431
30
0
41
1.00000000000001
10
29.3171298965089
20
0.738418362511272
30
0
41
1.00000000000001
10
29.2575603190777
20
0.751634647144318
30
0
41
1.00000000000001
10
29.2079167960107
20
0.762493751644332
30
0
41
1.00000000000001
10
29.1384168344379
20
0.777449850565393
30
0
41
1.00000000000001
10
29.0788483955206
20
0.790030536096697
30
0
41
1.00000000000001
10
29.0192788924892
20
0.802391575071187
30
0
41
1.00000000000001
10
28.9696354556545
20
0.812529502392454
30
0
41
1.00000000000001
10
28.900135627171
20
0.826460273836818
30
0
41
1.00000000000001
10
28.8405673077386
20
0.838144959784233
30
0
41
1.00000000000001
10
28.7809979182351
20
0.849596450860974
30
0
41
1.00000000000001
10
28.7313545401781
20
0.858968641022744
30
0
41
1.00000000000001
10
28.6668196959451
20
0.87090315822134
30
0
41
1.00000000000001
10
28.6072505113614
20
0.881663191869722
30
0
41
1.00000000000001
10
28.5526451323215
20
0.891308573505528
30
0
41
1.00000000000001
10
28.498036798615
20
0.900758033732403
30
0
41
1.00000000000001
10
28.4186044847272
20
0.914143394503797
30
0
41
1.00000000000001
10
28.2845578625583
20
0.935748660745859
30
0
41
1.00000000000001
10
28.165426959089
20
0.953748062275467
30
0
41
1.00000000000001
10
28.0661539209515
20
0.967902778680966
30
0
41
1.00000000000001
10
28.0165106432585
20
0.974744775098785
30
0
41
1.00000000000001
10
27.947010829753
20
0.984010487147217
30
0
41
1.00000000000001
10
27.887442384416
20
0.991639821037112
30
0
41
1.00000000000001
10
27.8278727898613
20
0.998992600810127
30
0
41
1.00000000000001
10
27.7782292429522
20
1.00492582631621
30
0
41
1.00000000000001
10
27.7087292293293
20
1.01290969875852
30
0
41
1.00000000000001
10
27.6491607335998
20
1.01942909702341
30
0
41
1.00000000000001
10
27.5895911718217
20
1.02566368356243
30
0
41
1.00000000000001
10
27.5399476900222
20
1.03066109793703
30
0
41
1.00000000000001
10
27.4704478101222
20
1.03732655765562
30
0
41
1.00000000000001
10
27.4108794588755
20
1.04270617592392
30
0
41
1.00000000000001
10
27.3513100477643
20
1.04779426169936
30
0
41
1.00000000000001
10
27.3016666588783
20
1.05183337974857
30
0
41
1.00000000000001
10
27.2371318100526
20
1.05677728480556
30
0
41
1.00000000000001
10
27.1775626272229
20
1.06102366141091
30
0
41
1.00000000000001
10
27.1229572510104
20
1.06464983303799
30
0
41
1.00000000000001
10
27.0683489178903
20
1.06805128630795
30
0
41
1.00000000000001
10
26.9889166010361
20
1.07258418517152
30
0
41
1.00000000000001
10
26.8548699791796
20
1.07910372855925
30
0
41
1.00000000000001
10
26.735739120239
20
1.08341883468087
30
0
41
1.00000000000001
10
26.6364661837077
20
1.0860334224479
30
0
41
1.00000000000001
10
26.5868229767386
20
1.08710013473673
30
0
41
1.00000000000001
10
26.5173233047996
20
1.08824366511278
30
0
41
1.00000000000001
10
26.4577550221142
20
1.08886586064066
30
0
41
1.00000000000001
10
26.398185620449
20
1.0891824131689
30
0
41
1.00000000000001
10
26.3485422413231
20
1.08924241873784
30
0
41
1.00000000000001
10
26.2840074475637
20
1.08900179600876
30
0
41
1.00000000000001
10
26.2244383631566
20
1.08844999859203
30
0
41
1.00000000000001
10
26.1698331260305
20
1.08766964009304
30
0
41
1.00000000000001
10
26.1152249549269
20
1.086665887297
30
0
41
1.00000000000001
10
26.0357928676796
20
1.08479270546884
30
0
41
1.00000000000001
10
25.9116787629206
20
1.08084401293296
30
0
41
1.00000000000001
10
25.7925450452582
20
1.07565293987308
30
0
41
1.00000000000001
10
25.6734089909786
20
1.0692684131531
30
0
41
1.00000000000001
10
25.5741195644258
20
1.06316575706596
30
0
41
1.00000000000001
10
25.425184029891
20
1.05254567746339
30
0
41
1.00000000000001
10
25.30605285826
20
1.04252765795941
30
0
41
1.00000000000001
10
25.206779560588
20
1.03323137408465
30
0
41
1.00000000000001
10
25.1571361684042
20
1.02837828944818
30
0
41
1.00000000000001
10
25.0876362461967
20
1.02125679106878
30
0
41
1.00000000000001
10
25.028067761021
20
1.01480918933429
30
0
41
1.00000000000001
10
24.9684981729528
20
1.00807617043425
30
0
41
1.00000000000001
10
24.9188546345529
20
1.00228433847762
30
0
41
1.00000000000001
10
24.8543196153765
20
0.994460071689801
30
0
41
1.00000000000001
10
24.7947503090931
20
0.986930657956365
30
0
41
1.00000000000001
10
24.7401448591874
20
0.979774901475978
30
0
41
1.00000000000001
10
24.6855364818729
20
0.97242401337401
30
0
41
1.00000000000001
10
24.6061041388753
20
0.961368846173472
30
0
41
1.00000000000001
10
24.4720575388956
20
0.941733350910611
30
0
41
1.00000000000001
10
24.3586873253399
20
0.923785652573217
30
0
41
1.00000000000001
10
24.2850292322566
20
0.911538121796399
30
0
41
1.00000000000001
10
24.2808623621465
20
0.910843378229446
30
0
0
SPLINE
5
BF
100
AcDbEntity
8
1
62
256
6
ByLayer
370
13
48
1
60
0
100
AcDbSpline
70
4
71
3
72
36
73
32
40
0
40
0
40
0
40
0
40
0.0113540448181337
40
0.0422492309175667
40
0.0731444170169981
40
0.11948719616615
40
0.134934789215866
40
0.165829975315301
40
0.196725161414732
40
0.243067940563884
40
0.2585155336136
40
0.289410719713033
40
0.320305905812466
40
0.366648684961616
40
0.382096278011334
40
0.412991464110767
40
0.4438866502102
40
0.482505632834491
40
0.505677022409066
40
0.528848411983643
40
0.567467394607934
40
0.6292577668068
40
0.737390918154817
40
0.752838511204534
40
0.783733697303967
40
0.8146288834034
40
0.857109764290122
40
0.876419255602266
40
0.895728746914412
40
0.938209627801134
40
1
40
1
40
1
40
1
41
1.00000000000001
10
9.51203348158362
20
-0.0083822101581744
30
0
41
1.00000000000001
10
9.50473683615139
20
-0.0061559053120845
30
0
41
1.00000000000001
10
9.47758529447158
20
0.0021274418842267
30
0
41
1.00000000000001
10
9.43057306623582
20
0.0164189822775425
30
0
41
1.00000000000001
10
9.36107323978332
20
0.0375388306434838
30
0
41
1.00000000000001
10
9.30150478440352
20
0.0556536619810394
30
0
41
1.00000000000001
10
9.24193519099877
20
0.0737557044990343
30
0
41
1.00000000000001
10
9.19229166493587
20
0.0888076741026099
30
0
41
1.00000000000001
10
9.12279171808463
20
0.109848372340706
30
0
41
1.00000000000001
10
9.06322330697135
20
0.127870845274201
30
0
41
1.00000000000001
10
9.00365383896149
20
0.14585988919171
30
0
41
1.00000000000001
10
8.95401042918168
20
0.160804168058943
30
0
41
1.00000000000001
10
8.88451062633802
20
0.181670840385064
30
0
41
1.00000000000001
10
8.82494231392416
20
0.199520141323515
30
0
41
1.00000000000001
10
8.76537291596764
20
0.217315853480184
30
0
41
1.00000000000001
10
8.71572952385335
20
0.23208589581861
30
0
41
1.00000000000001
10
8.65119465712919
20
0.251221756144016
30
0
41
1.00000000000001
10
8.59162545182283
20
0.268821024966168
30
0
41
1.00000000000001
10
8.53702005869513
20
0.284893303039861
30
0
41
1.00000000000001
10
8.48241171725112
20
0.300887241126868
30
0
41
1.00000000000001
10
8.40297940353974
20
0.324011203509992
30
0
41
1.00000000000001
10
8.26893280483398
20
0.362641346295386
30
0
41
1.00000000000001
10
8.14980193808412
20
0.396647712131107
30
0
41
1.00000000000001
10
8.05052892021416
20
0.424658037323348
30
0
41
1.00000000000001
10
8.00088564850489
20
0.438518760278577
30
0
41
1.00000000000001
10
7.93386836005607
20
0.457096382282025
30
0
41
1.00000000000001
10
7.87429956997758
20
0.473481853873658
30
0
41
1.00000000000001
10
7.82217687998406
20
0.487714856972666
30
0
41
1.00000000000001
10
7.77005041362268
20
0.501836187306417
30
0
41
1.00000000000001
10
7.69061864671597
20
0.523144104728253
30
0
41
1.00000000000001
10
7.6236069374171
20
0.540940303334046
30
0
41
1.00000000000001
10
7.58389658097509
20
0.551398564418938
30
0
0
SPLINE
5
C0
100
AcDbEntity
8
1
62
256
6
ByLayer
370
18
48
1
60
0
100
AcDbSpline
70
4
71
3
72
10
73
6
40
0
40
0
40
0
40
0
40
0.5
40
0.5
40
1
40
1
40
1
40
1
41
1
10
37.6096545343278
20
-0.381751543327937
30
0
41
1
10
37.574926853013
20
-0.348127443442763
30
0
41
1
10
37.5451613291023
20
-0.3027749326167
30
0
41
1
10
37.4929169067848
20
-0.194847454818358
30
0
41
1
10
37.4703880278695
20
-0.131341828989662
30
0
41
1
10
37.4520783345955
20
-0.0630591933565086
30
0
0
SPLINE
5
C1
100
AcDbEntity
8
1
62
256
6
ByLayer
370
18
48
1
60
0
100
AcDbSpline
70
4
71
3
72
12
73
8
40
0
40
0
40
0
40
0
40
0.500000000000006
40
0.500000000000006
40
0.750000000000003
40
0.750000000000003
40
1
40
1
40
1
40
1
41
1
10
37.1360808435747
20
-2.25239754061505
30
0
41
1
10
37.2060801424125
20
-2.09847528725822
30
0
41
1
10
37.2785858841953
20
-1.93641627810743
30
0
41
1
10
37.389567829506
20
-1.67852716673349
30
0
41
1
10
37.4270661801044
20
-1.5897875488341
30
0
41
1
10
37.501781669555
20
-1.40811370530156
30
0
41
1
10
37.5387479489585
20
-1.31587584976853
30
0
41
1
10
37.575038684858
20
-1.22205347457881
30
0
0
SPLINE
5
C2
100
AcDbEntity
8
1
62
256
6
ByLayer
370
18
48
1
60
0
100
AcDbSpline
70
4
71
3
72
8
73
4
40
0
40
0
40
0
40
0
40
1
40
1
40
1
40
1
41
1
10
37.9997511016937
20
-0.0626201013519108
30
0
41
1
10
37.9443877671488
20
-0.202271339344918
30
0
41
1
10
37.8910497083266
20
-0.343464500341838
30
0
41
1
10
37.8394518159525
20
-0.4861674105737
30
0
0
SPLINE
5
C3
100
AcDbEntity
8
1
62
256
6
ByLayer
370
18
48
1
60
0
100
AcDbSpline
70
4
71
3
72
22
73
18
40
0
40
0
40
0
40
0
40
0.125
40
0.125
40
0.25
40
0.25
40
0.375
40
0.375
40
0.5
40
0.5
40
0.625
40
0.625
40
0.75
40
0.75
40
0.875
40
0.875
40
1
40
1
40
1
40
1
41
1
10
37.6193496083803
20
-0.39159377836981
30
0
41
1
10
37.6291776032794
20
-0.400644774950479
30
0
41
1
10
37.6400366148605
20
-0.405887123334878
30
0
41
1
10
37.6639797023617
20
-0.408735212443872
30
0
41
1
10
37.6771868670824
20
-0.406281971023617
30
0
41
1
10
37.7055846882162
20
-0.393397052447853
30
0
41
1
10
37.7205844845718
20
-0.383118511416399
30
0
41
1
10
37.7522710940495
20
-0.355102790060414
30
0
41
1
10
37.7691467068801
20
-0.337112168282942
30
0
41
1
10
37.8035963422111
20
-0.294777012386675
30
0
41
1
10
37.8211823447724
20
-0.270496990744277
30
0
41
1
10
37.8570873635521
20
-0.215977737175081
30
0
41
1
10
37.8754892823888
20
-0.185546574541434
30
0
41
1
10
37.9117015971096
20
-0.121048118569092
30
0
41
1
10
37.9296711781893
20
-0.0867587508333827
30
0
41
1
10
37.9653047112661
20
-0.0142597411149268
30
0
41
1
10
37.9829022995551
20
0.0238616473005493
30
0
41
1
10
37.9997511016939
20
0.0626201013522234
30
0
0
SPLINE
5
C4
100
AcDbEntity
8
1
62
256
6
ByLayer
370
18
48
1
60
0
100
AcDbSpline
70
4
71
4
72
10
73
5
40
0
40
0
40
0
40
0
40
0
40
1
40
1
40
1
40
1
40
1
41
1
10
8.04658121730986
20
1.01583006605975
30
0
41
1
10
7.93091005822617
20
0.899722190649527
30
0
41
1
10
7.81523889914249
20
0.783614315239333
30
0
41
1
10
7.69956774005877
20
0.667506439829111
30
0
41
1
10
7.58389658097508
20
0.551398564418889
30
0
0
SPLINE
5
C5
100
AcDbEntity
8
1
62
256
6
ByLayer
370
18
48
1
60
0
100
AcDbSpline
70
4
71
3
72
12
73
8
40
0
40
0
40
0
40
0
40
0.25
40
0.25
40
0.5
40
0.5
40
1
40
1
40
1
40
1
41
1
10
37.5093644409785
20
0.829706168711766
30
0
41
1
10
37.5249693189539
20
0.847160989288454
30
0
41
1
10
37.5389541050249
20
0.86605148739531
30
0
41
1
10
37.5622415139969
20
0.90626920742838
30
0
41
1
10
37.5717283025478
20
0.928057329115404
30
0
41
1
10
37.5915321304508
20
0.995041920537545
30
0
41
1
10
37.5934024480158
20
1.04265079609385
30
0
41
1
10
37.5865934741851
20
1.08919773098955
30
0
0
SPLINE
5
C6
100
AcDbEntity
8
1
62
256
6
ByLayer
370
18
48
1
60
0
100
AcDbSpline
70
4
71
2
72
6
73
3
40
0
40
0
40
0
40
1
40
1
40
1
41
0.500000309018069
10
37.0999410684202
20
-2.14508762252861
30
0
41
0.499999690981931
10
37.0988349101084
20
-2.14378020785436
30
0
41
0.500000309018069
10
37.0977337177871
20
-2.14246219547281
30
0
0
SPLINE
5
C7
100
AcDbEntity
8
1
62
256
6
ByLayer
370
18
48
1
60
0
100
AcDbSpline
70
4
71
3
72
16
73
12
40
0
40
0
40
0
40
0
40
0.25
40
0.25
40
0.375
40
0.375
40
0.5
40
0.5
40
0.75
40
0.75
40
1
40
1
40
1
40
1
41
1
10
37.0619580362027
20
-1.97787911632398
30
0
41
1
10
37.0328369758354
20
-1.92546782942477
30
0
41
1
10
37.0078510151825
20
-1.86559601778166
30
0
41
1
10
36.9766665503415
20
-1.76443184020158
30
0
41
1
10
36.9673251122575
20
-1.7288099387562
30
0
41
1
10
36.9508210530742
20
-1.65363512593814
30
0
41
1
10
36.9436327244686
20
-1.6138916772492
30
0
41
1
10
36.9257059851307
20
-1.48988229553916
30
0
41
1
10
36.9186262229461
20
-1.40156857604612
30
0
41
1
10
36.9140117745545
20
-1.21388848733369
30
0
41
1
10
36.9165161645603
20
-1.11400090935601
30
0
41
1
10
36.9239615522662
20
-1.00946951030983
30
0
0
SPLINE
5
C8
100
AcDbEntity
8
1
62
256
6
ByLayer
370
13
48
1
60
0
100
AcDbSpline
70
4
71
3
72
114
73
110
40
0
40
0
40
0
40
0
40
0.0060819445811177
40
0.017680682772802
40
0.0215469288366966
40
0.0292794209644863
40
0.0370119130922756
40
0.0486106512839599
40
0.0524768973478545
40
0.0602093894756442
40
0.0679418816034334
40
0.0795406197951177
40
0.0834068658590123
40
0.0911393579868042
40
0.0988718501145917
40
0.110470588306273
40
0.11433683437017
40
0.122069326497963
40
0.129801818625747
40
0.141400556817433
40
0.145266802881328
40
0.152999295009121
40
0.160731787136906
40
0.172330525328593
40
0.176196771392486
40
0.183929263520274
40
0.191661755648063
40
0.201327370807802
40
0.207126739903644
40
0.212926108999487
40
0.222591724159221
40
0.238056708414802
40
0.265120430862064
40
0.268986676925959
40
0.276719169053749
40
0.284451661181538
40
0.296050399373222
40
0.299916645437117
40
0.307649137564907
40
0.315381629692699
40
0.32698036788438
40
0.330846613948275
40
0.338579106076066
40
0.346311598203854
40
0.357910336395537
40
0.361776582459433
40
0.369509074587221
40
0.37724156671501
40
0.386907181874749
40
0.39270655097059
40
0.398505920066434
40
0.408171535226168
40
0.42363651948175
40
0.45070024192901
40
0.454566487992906
40
0.462298980120696
40
0.470031472248484
40
0.481630210440168
40
0.485496456504064
40
0.493228948631853
40
0.500961440759642
40
0.51062705591938
40
0.516426425015221
40
0.522225794111064
40
0.531891409270799
40
0.54735639352638
40
0.570553869909749
40
0.578286362037537
40
0.593751346293116
40
0.609216330548695
40
0.636280052995957
40
0.640146299059853
40
0.647878791187643
40
0.655611283315431
40
0.667210021507116
40
0.671076267571011
40
0.6788087596988
40
0.686541251826589
40
0.696206866986327
40
0.702006236082168
40
0.707805605178012
40
0.717471220337747
40
0.732936204593327
40
0.756133680976694
40
0.763866173104484
40
0.779331157360063
40
0.794796141615642
40
0.821859864062906
40
0.8257261101268
40
0.833458602254589
40
0.841191094382378
40
0.852789832574062
40
0.856656078637958
40
0.864388570765746
40
0.872121062893536
40
0.881786678053273
40
0.887586047149115
40
0.893385416244957
40
0.903051031404694
40
0.918516015660273
40
0.945579738107536
40
0.949445984171431
40
0.95717847629922
40
0.96491096842701
40
0.976509706618694
40
0.980375952682589
40
0.988108444810378
40
0.995840936938167
40
1
40
1
40
1
40
1
41
1
10
22.4537333777112
20
-0.915270045044338
30
0
41
1
10
22.4381154629962
20
-0.917843534769275
30
0
41
1
10
22.3927126551419
20
-0.925248224978077
30
0
41
1
10
22.3373791706206
20
-0.934004543130754
30
0
41
1
10
22.2778081852925
20
-0.943178395197293
30
0
41
1
10
22.2281679427947
20
-0.950655385369231
30
0
41
1
10
22.1586706633636
20
-0.960811894306147
30
0
41
1
10
22.0990985954361
20
-0.96919212877296
30
0
41
1
10
22.0395275238386
20
-0.97730959194763
30
0
41
1
10
21.9898870873445
20
-0.98389876051445
30
0
41
1
10
21.920389416731
20
-0.992801421538729
30
0
41
1
10
21.8608169893539
20
-1.00009723864383
30
0
41
1
10
21.801245661779
20
-1.00712108173931
30
0
41
1
10
21.7516051403583
20
-1.0127916263904
30
0
41
1
10
21.6821075634933
20
-1.02039842526631
30
0
41
1
10
21.6225353680167
20
-1.0265757109548
30
0
41
1
10
21.5629643132753
20
-1.0324742437331
30
0
41
1
10
21.5133239788113
20
-1.03720149411865
30
0
41
1
10
21.4438265473645
20
-1.04348048352514
30
0
41
1
10
21.3842543695376
20
-1.0485139392616
30
0
41
1
10
21.3246832578108
20
-1.05326279789139
30
0
41
1
10
21.2750428500642
20
-1.0570269573021
30
0
41
1
10
21.2055452995906
20
-1.06195133201788
30
0
41
1
10
21.1459730128349
20
-1.06581889019208
30
0
41
1
10
21.0864017999617
20
-1.06939675816079
30
0
41
1
10
21.0367613439374
20
-1.07218060250113
30
0
41
1
10
20.9722272035245
20
-1.07547794136047
30
0
41
1
10
20.9126557846002
20
-1.07819413339081
30
0
41
1
10
20.8580489394055
20
-1.08041740820582
30
0
41
1
10
20.8034450461214
20
-1.08242110431189
30
0
41
1
10
20.7240232101265
20
-1.08491450337647
30
0
41
1
10
20.5900034493285
20
-1.08797475913636
30
0
41
1
10
20.4708531191311
20
-1.0891705011538
30
0
41
1
10
20.3715584589191
20
-1.08920538636863
30
0
41
1
10
20.3219178862498
20
-1.08898631475196
30
0
41
1
10
20.2524203064908
20
-1.08832378835294
30
0
41
1
10
20.1928481237766
20
-1.08739890175642
30
0
41
1
10
20.1332770829186
20
-1.08617755802328
30
0
41
1
10
20.0836367597838
20
-1.08495351309963
30
0
41
1
10
20.0141393401026
20
-1.08288491322435
30
0
41
1
10
19.9545671624293
20
-1.08075744710842
30
0
41
1
10
19.8949960372747
20
-1.07833459971431
30
0
41
1
10
19.8453556007573
20
-1.07610909015977
30
0
41
1
10
19.7758579737536
20
-1.07264116097556
30
0
41
1
10
19.7162855888413
20
-1.06931921676107
30
0
41
1
10
19.6567142580285
20
-1.06570564528235
30
0
41
1
10
19.6070736921387
20
-1.06248959729564
30
0
41
1
10
19.5425393962507
20
-1.05799335821732
30
0
41
1
10
19.4829678289958
20
-1.05352554038697
30
0
41
1
10
19.4283608523509
20
-1.04917183105113
30
0
41
1
10
19.3737568344273
20
-1.04459723758461
30
0
41
1
10
19.2943348306393
20
-1.03753007622024
30
0
41
1
10
19.1603148283886
20
-1.02449157708477
30
0
41
1
10
19.0411643569461
20
-1.01153313461643
30
0
41
1
10
18.9418696349437
20
-0.999862572821229
30
0
41
1
10
18.8922290396384
20
-0.993788274237886
30
0
41
1
10
18.8227314376413
20
-0.984961607791092
30
0
41
1
10
18.7631592431087
20
-0.977082527855515
30
0
41
1
10
18.7035881909672
20
-0.96893763868033
30
0
41
1
10
18.6539478711916
20
-0.961959516198448
30
0
41
1
10
18.5894138735377
20
-0.952605347702132
30
0
41
1
10
18.5298425469036
20
-0.943688287592437
30
0
41
1
10
18.475235743909
20
-0.935284146282896
30
0
41
1
10
18.4206318747366
20
-0.926677202091412
30
0
41
1
10
18.3412100809292
20
-0.913785386005401
30
0
41
1
10
18.2171149640674
20
-0.892750336348058
30
0
41
1
10
18.0979677311469
20
-0.871472509938513
30
0
41
1
10
17.978822692044
20
-0.849240104735372
30
0
41
1
10
17.8795444445916
20
-0.830023002127177
30
0
41
1
10
17.73062832352
20
-0.800004436984693
30
0
41
1
10
17.611478054656
20
-0.774936080652878
30
0
41
1
10
17.5121834590304
20
-0.753394307754746
30
0
41
1
10
17.4625429011127
20
-0.742418295999983
30
0
41
1
10
17.3930452941167
20
-0.726810968809644
30
0
41
1
10
17.3334730459577
20
-0.713210544596791
30
0
41
1
10
17.2739019116426
20
-0.6994150220184
30
0
41
1
10
17.2242615162341
20
-0.687772504891541
30
0
41
1
10
17.1597274182076
20
-0.672438518664961
30
0
41
1
10
17.1001559981181
20
-0.658089310137342
30
0
41
1
10
17.0455491118327
20
-0.644777026650956
30
0
41
1
10
16.9909451577904
20
-0.631315261914807
30
0
41
1
10
16.91152323143
20
-0.611471145997882
30
0
41
1
10
16.7874278977789
20
-0.579858343510892
30
0
41
1
10
16.668280469708
20
-0.548863315670786
30
0
41
1
10
16.5491352793163
20
-0.5172720473727
30
0
41
1
10
16.4498569307877
20
-0.490487783207357
30
0
41
1
10
16.3009406918712
20
-0.449598675757699
30
0
41
1
10
16.181790360628
20
-0.41636278949963
30
0
41
1
10
16.0824957249708
20
-0.388342798251131
30
0
41
1
10
16.0328551483932
20
-0.374194789134265
30
0
41
1
10
15.9633575156469
20
-0.35426779011334
30
0
41
1
10
15.9037852445771
20
-0.337091750226989
30
0
41
1
10
15.8442140844314
20
-0.319822648257912
30
0
41
1
10
15.7945736717712
20
-0.305353268411352
30
0
41
1
10
15.7300395692525
20
-0.286459775839262
30
0
41
1
10
15.6704681671841
20
-0.268943167128896
30
0
41
1
10
15.6158613211546
20
-0.252823430723311
30
0
41
1
10
15.5612574172808
20
-0.236630672541594
30
0
41
1
10
15.4818355555724
20
-0.212964075040134
30
0
41
1
10
15.3478157342832
20
-0.17275160488515
30
0
41
1
10
15.2286653545433
20
-0.136921186151341
30
0
41
1
10
15.1293706867539
20
-0.106987453602699
30
0
41
1
10
15.0797301225469
20
-0.0919398071048931
30
0
41
1
10
15.0102325766713
20
-0.0708454319174336
30
0
41
1
10
14.9506604383561
20
-0.0527629692732035
30
0
41
1
10
14.891089445951
20
-0.0346649026793955
30
0
41
1
10
14.8414491563731
20
-0.0195576881789066
30
0
41
1
10
14.7910562367606
20
-0.0042188692225125
30
0
41
1
10
14.7605187778269
20
0.0050688760243531
30
0
41
1
10
14.7498382679331
20
0.008316625276052
30
0
0
SPLINE
5
C9
100
AcDbEntity
8
1
62
256
6
ByLayer
370
18
48
1
60
0
100
AcDbSpline
70
4
71
3
72
30
73
26
40
0
40
0
40
0
40
0
40
0.124672751737915
40
0.124672751737915
40
0.249345503475831
40
0.249345503475831
40
0.311681879344789
40
0.311681879344789
40
0.374018255213748
40
0.374018255213748
40
0.436354631082707
40
0.436354631082707
40
0.498691006951665
40
0.498691006951665
40
0.623363758689585
40
0.623363758689585
40
0.685700134558544
40
0.685700134558544
40
0.748036510427502
40
0.748036510427502
40
0.872709262165418
40
0.872709262165418
40
0.997382013903333
40
0.997382013903333
40
1
40
1
40
1
40
1
41
1
10
8.04658121731006
20
1.01583006605975
30
0
41
1
10
8.35116452949188
20
0.845203353618359
30
0
41
1
10
8.65313419953506
20
0.665581618872352
30
0
41
1
10
9.25660942618649
20
0.296004442588327
30
0
41
1
10
9.55795411891268
20
0.105775332311538
30
0
41
1
10
10.0140098559263
20
-0.180437371682018
30
0
41
1
10
10.1662949492377
20
-0.276113927132229
30
0
41
1
10
10.4701936295404
20
-0.464249887452496
30
0
41
1
10
10.6218310267409
20
-0.557467267971248
30
0
41
1
10
10.9255690589289
20
-0.740496443964332
30
0
41
1
10
11.077765612062
20
-0.830749512115801
30
0
41
1
10
11.3820353931079
20
-1.00547271945001
30
0
41
1
10
11.5336535874931
20
-1.09045424893279
30
0
41
1
10
11.9891079942292
20
-1.33526797799121
30
0
41
1
10
12.2934595173907
20
-1.48696841346597
30
0
41
1
10
12.7488756714761
20
-1.68692062835734
30
0
41
1
10
12.9004481346325
20
-1.74926416945439
30
0
41
1
10
13.2041641477551
20
-1.8642447259154
30
0
41
1
10
13.3565150356783
20
-1.91704443262142
30
0
41
1
10
13.812369754331
20
-2.05926308767593
30
0
41
1
10
14.1150055544939
20
-2.13261153912887
30
0
41
1
10
14.7235295382164
20
-2.23268002424908
30
0
41
1
10
15.0264253596315
20
-2.25896080128013
30
0
41
1
10
15.3362299099944
20
-2.26086496515211
30
0
41
1
10
15.3426028442379
20
-2.26089335227218
30
0
41
1
10
15.3489768758078
20
-2.26091096775505
30
0
0
SPLINE
5
CA
100
AcDbEntity
8
1
62
256
6
ByLayer
370
18
48
1
60
0
100
AcDbSpline
70
4
71
3
72
58
73
54
40
0
40
0
40
0
40
0
40
0.013649843033533
40
0.013649843033533
40
0.0794065201646299
40
0.0794065201646299
40
0.112284858730179
40
0.112284858730179
40
0.145163197295727
40
0.145163197295727
40
0.178041535861276
40
0.178041535861276
40
0.210919874426824
40
0.210919874426824
40
0.27667655155792
40
0.27667655155792
40
0.309554890123469
40
0.309554890123469
40
0.342433228689018
40
0.342433228689018
40
0.408189905820116
40
0.408189905820116
40
0.473946582951214
40
0.473946582951214
40
0.506824921516765
40
0.506824921516765
40
0.539703260082315
40
0.539703260082315
40
0.572581598647865
40
0.572581598647865
40
0.605459937213415
40
0.605459937213415
40
0.638338275778965
40
0.638338275778965
40
0.671216614344515
40
0.671216614344515
40
0.704094952910065
40
0.704094952910065
40
0.736973291475615
40
0.736973291475615
40
0.802729968606713
40
0.802729968606713
40
0.835608307172261
40
0.835608307172261
40
0.868486645737809
40
0.868486645737809
40
0.901364984303356
40
0.901364984303356
40
0.934243322868904
40
0.934243322868904
40
0.967121661434452
40
0.967121661434452
40
1
40
1
40
1
40
1
41
1
10
23.3308906626816
20
1.38659044996959
30
0
41
1
10
23.393886185557
20
1.41837701880658
30
0
41
1
10
23.4568900331715
20
1.4495276748699
30
0
41
1
10
23.8231665640567
20
1.62662187573869
30
0
41
1
10
24.1250311682364
20
1.75695797361686
30
0
41
1
10
24.5802273717864
20
1.92306755766143
30
0
41
1
10
24.7318504503419
20
1.9734957828291
30
0
41
1
10
25.0344511233473
20
2.06327958183715
30
0
41
1
10
25.1857890867586
20
2.10262426009467
30
0
41
1
10
25.4886490588933
20
2.17015680834498
30
0
41
1
10
25.6405697080098
20
2.19829703325797
30
0
41
1
10
25.9434281939048
20
2.24256150289307
30
0
41
1
10
26.094782409423
20
2.25863799358442
30
0
41
1
10
26.5483952289161
20
2.28884558744707
30
0
41
1
10
26.8523937546056
20
2.28458293897685
30
0
41
1
10
27.3057511171646
20
2.24161031832
30
0
41
1
10
27.4570550192626
20
2.22133775733261
30
0
41
1
10
27.7597998659204
20
2.16883670860659
30
0
41
1
10
27.9116545232258
20
2.13659730093747
30
0
41
1
10
28.3657686759634
20
2.02323971410553
30
0
41
1
10
28.6675504939544
20
1.92524630177112
30
0
41
1
10
29.2742577936953
20
1.68950228634233
30
0
41
1
10
29.5757277286774
20
1.55257193896526
30
0
41
1
10
30.0298660104301
20
1.32392493782743
30
0
41
1
10
30.1814696647691
20
1.24353444109244
30
0
41
1
10
30.4841154189738
20
1.07759242971363
30
0
41
1
10
30.6350805317148
20
0.991427590267307
30
0
41
1
10
30.9373599754712
20
0.814184513391837
30
0
41
1
10
31.0888980316974
20
0.722988342668032
30
0
41
1
10
31.3918136379701
20
0.537021644986993
30
0
41
1
10
31.5427806516803
20
0.44237171987956
30
0
41
1
10
31.8450780699384
20
0.251828126445844
30
0
41
1
10
31.9961350094482
20
0.155512850095818
30
0
41
1
10
32.2987908576644
20
-0.0380906590723669
30
0
41
1
10
32.4502527608362
20
-0.135339975791567
30
0
41
1
10
32.7524954897277
20
-0.327717329786452
30
0
41
1
10
32.9034187328809
20
-0.423235657146449
30
0
41
1
10
33.205641999076
20
-0.611733665889119
30
0
41
1
10
33.3572529772187
20
-0.70483585938328
30
0
41
1
10
33.8112237185345
20
-0.977556231269546
30
0
41
1
10
34.1124477066916
20
-1.1503066475594
30
0
41
1
10
34.5664557574334
20
-1.38975896310799
30
0
41
1
10
34.7179015472308
20
-1.46590667316482
30
0
41
1
10
35.0199143465068
20
-1.60995983109095
30
0
41
1
10
35.1707971416008
20
-1.67783801418852
30
0
41
1
10
35.4727712834821
20
-1.80473898965101
30
0
41
1
10
35.62446708866
20
-1.86349122124767
30
0
41
1
10
35.9268733514606
20
-1.97086486136632
30
0
41
1
10
36.0779143776822
20
-2.01933262341362
30
0
41
1
10
36.3801425070289
20
-2.10546343724917
30
0
41
1
10
36.531767818831
20
-2.14303015942073
30
0
41
1
10
36.8338753777039
20
-2.20664148441136
30
0
41
1
10
36.9849863506802
20
-2.23247287013396
30
0
41
1
10
37.1360808435748
20
-2.25239754061499
30
0
0
SPLINE
5
CB
100
AcDbEntity
8
1
62
256
6
ByLayer
370
18
48
1
60
0
100
AcDbSpline
70
4
71
3
72
8
73
4
40
0
40
0
40
0
40
0
40
1
40
1
40
1
40
1
41
1
10
4.96781481194677
20
-2.17118020952981
30
0
41
1
10
4.84112337172166
20
-2.16997458256674
30
0
41
1
10
4.71750369237276
20
-2.19030948216917
30
0
41
1
10
4.59876941469531
20
-2.23267613357513
30
0
0
SPLINE
5
CC
100
AcDbEntity
8
1
62
256
6
ByLayer
370
18
48
1
60
0
100
AcDbSpline
70
4
71
3
72
8
73
4
40
0
40
0
40
0
40
0
40
1
40
1
40
1
40
1
41
1
10
37.8394518159611
20
-0.48616741055028
30
0
41
1
10
37.7508224068985
20
-0.731287395561651
30
0
41
1
10
37.6626839924611
20
-0.976582499123765
30
0
41
1
10
37.575038684858
20
-1.22205347457881
30
0
0
SPLINE
5
CD
100
AcDbEntity
8
1
62
256
6
ByLayer
370
18
48
1
60
0
100
AcDbSpline
70
4
71
3
72
8
73
4
40
0
40
0
40
0
40
0
40
1
40
1
40
1
40
1
41
1
10
37.609654534331
20
-0.381751543331376
30
0
41
1
10
37.6128858245095
20
-0.385032683471365
30
0
41
1
10
37.616117515917
20
-0.388313428526374
30
0
41
1
10
37.6193496083846
20
-0.391593778373107
30
0
0
SPLINE
5
CE
100
AcDbEntity
8
1
62
256
6
ByLayer
370
18
48
1
60
0
100
AcDbSpline
70
4
71
1
72
4
73
2
40
0
40
0
40
1
40
1
41
1
10
37.5961872173037
20
-0.469788700194982
30
0
41
1
10
37.6193496083845
20
-0.391593778373363
30
0
0
SPLINE
5
CF
100
AcDbEntity
8
1
62
256
6
ByLayer
370
13
48
1
60
0
100
AcDbSpline
70
4
71
3
72
114
73
110
40
0
40
0
40
0
40
0
40
0.0049446763073947
40
0.0126742759031012
40
0.0242686752966587
40
0.0281334750945086
40
0.0358630746902081
40
0.0435926742859169
40
0.0532546737805489
40
0.059051873477327
40
0.0648490731741091
40
0.074511072668734
40
0.089970271860148
40
0.113159070647259
40
0.120888670242963
40
0.136347869434372
40
0.151807068625779
40
0.178860667210749
40
0.1827254670086
40
0.190455066604304
40
0.198184666200012
40
0.209779065593566
40
0.213643865391418
40
0.221373464987121
40
0.229103064582825
40
0.238765064077459
40
0.244562263774236
40
0.250359463471016
40
0.260021462965645
40
0.275480662157056
40
0.298669460944169
40
0.306399060539873
40
0.321858259731283
40
0.337317458922691
40
0.364371057507656
40
0.368235857305509
40
0.375965456901214
40
0.383695056496919
40
0.395289455890476
40
0.399154255688328
40
0.406883855284031
40
0.414613454879738
40
0.42427545437437
40
0.430072654071146
40
0.435869853767924
40
0.445531853262555
40
0.460991052453962
40
0.488044651038929
40
0.491909450836782
40
0.499639050432485
40
0.507368650028191
40
0.518963049421749
40
0.522827849219601
40
0.530557448815305
40
0.538287048411011
40
0.549881447804566
40
0.553746247602419
40
0.561475847198122
40
0.569205446793828
40
0.580799846187383
40
0.584664645985237
40
0.592394245580943
40
0.600123845176646
40
0.609785844671276
40
0.615583044368055
40
0.621380244064832
40
0.631042243559465
40
0.646501442750875
40
0.673555041335836
40
0.677419841133692
40
0.685149440729397
40
0.692879040325103
40
0.704473439718657
40
0.70833823951651
40
0.716067839112213
40
0.723797438707919
40
0.735391838101475
40
0.739256637899328
40
0.746986237495032
40
0.754715837090737
40
0.766310236484294
40
0.770175036282146
40
0.777904635877852
40
0.785634235473557
40
0.795296234968184
40
0.801093434664965
40
0.806890634361744
40
0.816552633856373
40
0.832011833047782
40
0.859065431632749
40
0.862930231430601
40
0.870659831026306
40
0.878389430622011
40
0.889983830015568
40
0.893848629813419
40
0.901578229409124
40
0.909307829004827
40
0.920902228398385
40
0.924767028196237
40
0.932496627791941
40
0.940226227387647
40
0.951820626781204
40
0.955685426579055
40
0.963415026174761
40
0.971144625770467
40
0.980806625265095
40
0.986603824961874
40
0.992401024658654
40
1
40
1
40
1
40
1
41
1
10
33.7037745487565
20
-0.9152394002856
30
0
41
1
10
33.6910718995615
20
-0.917334336006235
30
0
41
1
10
33.6585134253011
20
-0.922658114068099
30
0
41
1
10
33.5961699501695
20
-0.932630185562886
30
0
41
1
10
33.5365977140028
20
-0.941841385561389
30
0
41
1
10
33.4770266077356
20
-0.950797192763105
30
0
41
1
10
33.427386236665
20
-0.958090761194029
30
0
41
1
10
33.3628521647701
20
-0.967282515479241
30
0
41
1
10
33.3032807640826
20
-0.975469444232971
30
0
41
1
10
33.2486738913494
20
-0.982731969370832
30
0
41
1
10
33.1940699510939
20
-0.989801713213041
30
0
41
1
10
33.114648051248
20
-0.999706965596118
30
0
41
1
10
32.9905527714175
20
-1.01423025315367
30
0
41
1
10
32.8714054075287
20
-1.02682336018049
30
0
41
1
10
32.7522602845615
20
-1.03829067683077
30
0
41
1
10
32.6529819923148
20
-1.04709121384863
30
0
41
1
10
32.5040658316306
20
-1.05881463070418
30
0
41
1
10
32.3849155497977
20
-1.06666288190937
30
0
41
1
10
32.2856209401829
20
-1.072250657827
30
0
41
1
10
32.2359803771013
20
-1.07482189513934
30
0
41
1
10
32.1664827685089
20
-1.07806933962317
30
0
41
1
10
32.1069105233809
20
-1.08049479565355
30
0
41
1
10
32.0473393943479
20
-1.08262592512247
30
0
41
1
10
31.9976990027495
20
-1.08419988206225
30
0
41
1
10
31.9331649060673
20
-1.08592124789135
30
0
41
1
10
31.8735934827396
20
-1.0871804756548
30
0
41
1
10
31.8189865885425
20
-1.08806662879502
30
0
41
1
10
31.7643826249784
20
-1.08873029569995
30
0
41
1
10
31.6849606855913
20
-1.0892709556648
30
0
41
1
10
31.5608653282806
20
-1.08906654028138
30
0
41
1
10
31.4417178625627
20
-1.08746755198109
30
0
41
1
10
31.3225726118065
20
-1.08467364415529
30
0
41
1
10
31.2232941854602
20
-1.08152022038243
30
0
41
1
10
31.0743777838789
20
-1.07525224623328
30
0
41
1
10
30.9552272975186
20
-1.06873274079322
30
0
41
1
10
30.8559325427194
20
-1.06236824323125
30
0
41
1
10
30.8062919084024
20
-1.05894346071906
30
0
41
1
10
30.7367941991433
20
-1.05380424715597
30
0
41
1
10
30.6772218690765
20
-1.04905940333157
30
0
41
1
10
30.6176506571752
20
-1.04402953210288
30
0
41
1
10
30.5680102086472
20
-1.03963652206568
30
0
41
1
10
30.503476075448
20
-1.03361874524407
30
0
41
1
10
30.4439046624582
20
-1.02775556924274
30
0
41
1
10
30.3892978216886
20
-1.02213000628993
30
0
41
1
10
30.3346939354583
20
-1.01628783223808
30
0
41
1
10
30.2552721226526
20
-1.00738693667765
30
0
41
1
10
30.1212524401109
20
-0.991283209860171
30
0
41
1
10
30.0021022507912
20
-0.975658126476276
30
0
41
1
10
29.9028077641202
20
-0.961798843915091
30
0
41
1
10
29.853167290179
20
-0.954633894625289
30
0
41
1
10
29.7836698620185
20
-0.944292531859787
30
0
41
1
10
29.7240978124893
20
-0.935129116961832
30
0
41
1
10
29.66452689492
20
-0.925710298418295
30
0
41
1
10
29.6148866590516
20
-0.917676750991063
30
0
41
1
10
29.5453893297071
20
-0.906130715389224
30
0
41
1
10
29.4858172004906
20
-0.895947601776953
30
0
41
1
10
29.4262461042711
20
-0.88551886553779
30
0
41
1
10
29.3766056948903
20
-0.876649732993428
30
0
41
1
10
29.3071081296074
20
-0.863946865820878
30
0
41
1
10
29.2475358243203
20
-0.85278701961343
30
0
41
1
10
29.1879645990661
20
-0.841393548620886
30
0
41
1
10
29.1383241331276
20
-0.831728085495968
30
0
41
1
10
29.0737899735384
20
-0.818919534442983
30
0
41
1
10
29.0142185295753
20
-0.806855126877764
30
0
41
1
10
28.9596116539203
20
-0.795599638548055
30
0
41
1
10
28.9050077237594
20
-0.784165978874739
30
0
41
1
10
28.8255858239789
20
-0.767214098091841
30
0
41
1
10
28.6915659389552
20
-0.737759333909253
30
0
41
1
10
28.5724155002375
20
-0.710666805329339
30
0
41
1
10
28.4731207792486
20
-0.687499266277172
30
0
41
1
10
28.4234801826654
20
-0.675721905833541
30
0
41
1
10
28.3539825795995
20
-0.65901515249098
30
0
41
1
10
28.2944103855567
20
-0.644496223346152
30
0
41
1
10
28.234839338074
20
-0.629801063921633
30
0
41
1
10
28.1851990068021
20
-0.617421116738058
30
0
41
1
10
28.1157015724067
20
-0.599889680599375
30
0
41
1
10
28.0561293865332
20
-0.584683948145056
30
0
41
1
10
27.9965582646534
20
-0.569318051830237
30
0
41
1
10
27.9469178471526
20
-0.556389764033895
30
0
41
1
10
27.8774202796725
20
-0.538110548224438
30
0
41
1
10
27.8178479743181
20
-0.522284791394384
30
0
41
1
10
27.7582767389154
20
-0.506315735145449
30
0
41
1
10
27.7086362626387
20
-0.492896031240832
30
0
41
1
10
27.6441020964127
20
-0.475310788958637
30
0
41
1
10
27.5845306561238
20
-0.458944251529516
30
0
41
1
10
27.529923795675
20
-0.443832048206701
30
0
41
1
10
27.4753198895699
20
-0.428609159060102
30
0
41
1
10
27.3958980362314
20
-0.406279983280797
30
0
41
1
10
27.2618782506852
20
-0.368123012882478
30
0
41
1
10
27.1427279052177
20
-0.333840977674697
30
0
41
1
10
27.0434332361869
20
-0.305021430357641
30
0
41
1
10
26.9937926595531
20
-0.290489857890236
30
0
41
1
10
26.9242950770992
20
-0.270052786068675
30
0
41
1
10
26.8647228976484
20
-0.252467361362193
30
0
41
1
10
26.8051518672908
20
-0.23481179889103
30
0
41
1
10
26.7555115598625
20
-0.220035959640143
30
0
41
1
10
26.6860141775184
20
-0.199280190320053
30
0
41
1
10
26.6264420484576
20
-0.181445418772625
30
0
41
1
10
26.5668709853244
20
-0.163560110327609
30
0
41
1
10
26.5172306127884
20
-0.14860620824652
30
0
41
1
10
26.4477330967249
20
-0.127624800241705
30
0
41
1
10
26.388160823185
20
-0.109620574690553
30
0
41
1
10
26.32858960939
20
-0.0915853680607768
30
0
41
1
10
26.2789491439422
20
-0.0765199584508878
30
0
41
1
10
26.2144149823085
20
-0.0569207153835123
30
0
41
1
10
26.1548435402652
20
-0.0388230877964304
30
0
41
1
10
26.1002366769885
20
-0.0222281807531601
30
0
41
1
10
26.0509323122816
20
-0.0072206602785911
30
0
41
1
10
26.0165206782579
20
0.0032624499508529
30
0
41
1
10
25.9970009024454
20
0.0092104959738322
30
0
0
SPLINE
5
D0
100
AcDbEntity
8
1
62
256
6
ByLayer
370
13
48
1
60
0
100
AcDbSpline
70
4
71
3
72
69
73
65
40
0
40
0
40
0
40
0
40
0.0002831751069569
40
0.0259169398478042
40
0.0707760281442866
40
0.0771844693294983
40
0.0900013516999223
40
0.102818234070346
40
0.122043557625981
40
0.128451998811193
40
0.141268881181617
40
0.15408576355204
40
0.17010686651507
40
0.179719528292888
40
0.189332190070706
40
0.205353293033735
40
0.230987057774581
40
0.269437704885854
40
0.282254587256277
40
0.307888351997124
40
0.333522116737971
40
0.378381205034454
40
0.384789646219666
40
0.397606528590089
40
0.410423410960513
40
0.429648734516148
40
0.43605717570136
40
0.448874058071784
40
0.461690940442207
40
0.477712043405238
40
0.487324705183055
40
0.496937366960873
40
0.512958469923902
40
0.538592234664749
40
0.583451322961232
40
0.589859764146443
40
0.602676646516868
40
0.61549352888729
40
0.634718852442927
40
0.641127293628138
40
0.653944175998562
40
0.666761058368986
40
0.685986381924621
40
0.692394823109833
40
0.705211705480256
40
0.71802858785068
40
0.737253911406315
40
0.743662352591528
40
0.756479234961951
40
0.769296117332374
40
0.785317220295404
40
0.794929882073222
40
0.80454254385104
40
0.820563646814069
40
0.846197411554916
40
0.891056499851399
40
0.897464941036611
40
0.910281823407035
40
0.923098705777459
40
0.94072191903679
40
0.948732470518305
40
0.95674302199982
40
0.974366235259153
40
1
40
1
40
1
40
1
41
1
10
11.2089856269079
20
-0.91442163364826
30
0
41
1
10
11.2085469393247
20
-0.914494060438813
30
0
41
1
10
11.1683970857384
20
-0.921120835628074
30
0
41
1
10
11.0587531693796
20
-0.938738396826636
30
0
41
1
10
10.9396028515272
20
-0.956486744970277
30
0
41
1
10
10.8403082281162
20
-0.97041252186753
30
0
41
1
10
10.7906676593673
20
-0.97719167639508
30
0
41
1
10
10.7211700431576
20
-0.986362643724931
30
0
41
1
10
10.6615977925674
20
-0.993890507245936
30
0
41
1
10
10.6020266592808
20
-1.00114858331324
30
0
41
1
10
10.5523862661775
20
-1.00701604997698
30
0
41
1
10
10.4878521724453
20
-1.01433998525653
30
0
41
1
10
10.4282807569976
20
-1.02078952302932
30
0
41
1
10
10.3736738746246
20
-1.02644863512279
30
0
41
1
10
10.3190699249689
20
-1.03190392430255
30
0
41
1
10
10.2396480077985
20
-1.03944242044983
30
0
41
1
10
10.1155526943333
20
-1.05022738037943
30
0
41
1
10
9.99640529224286
20
-1.05919747232724
30
0
41
1
10
9.87726013076974
20
-1.06700752074602
30
0
41
1
10
9.77798180755394
20
-1.07273120887666
30
0
41
1
10
9.62906560567563
20
-1.07980220783807
30
0
41
1
10
9.50991529944065
20
-1.08391318216317
30
0
41
1
10
9.41062067781701
20
-1.08637764266641
30
0
41
1
10
9.36098010883762
20
-1.08737844258817
30
0
41
1
10
9.29148249039028
20
-1.08842393825449
30
0
41
1
10
9.23191023541318
20
-1.08896140107507
30
0
41
1
10
9.17233909478429
20
-1.08920248632322
30
0
41
1
10
9.12269869979491
20
-1.0891984218022
30
0
41
1
10
9.05816462041616
20
-1.08886814063607
30
0
41
1
10
8.99859323843464
20
-1.08823417537994
30
0
41
1
10
8.94398640815851
20
-1.08738533430846
30
0
41
1
10
8.8893825177521
20
-1.08631210700932
30
0
41
1
10
8.80996067199675
20
-1.08432550176369
30
0
41
1
10
8.67594086741701
20
-1.07981899282927
30
0
41
1
10
8.55679048713074
20
-1.07432973708134
30
0
41
1
10
8.45749580985645
20
-1.06881349195743
30
0
41
1
10
8.40785523657385
20
-1.06581219469743
30
0
41
1
10
8.3383576670679
20
-1.06126206875209
30
0
41
1
10
8.27878549766018
20
-1.05701762010804
30
0
41
1
10
8.21921446615147
20
-1.05248494878788
30
0
41
1
10
8.16957413787583
20
-1.04850453797351
30
0
41
1
10
8.1000766887598
20
-1.04259002642172
30
0
41
1
10
8.04050447508345
20
-1.0371842505993
30
0
41
1
10
7.98093331818396
20
-1.03149589833586
30
0
41
1
10
7.93129287362945
20
-1.02655535666037
30
0
41
1
10
7.86179528051022
20
-1.01930428096571
30
0
41
1
10
7.80222296813704
20
-1.01276211527386
30
0
41
1
10
7.74265174118651
20
-1.00594400032281
30
0
41
1
10
7.69301127896642
20
-1.00006564495675
30
0
41
1
10
7.62847713523084
20
-0.992128730759475
30
0
41
1
10
7.56890571566393
20
-0.984506729459611
30
0
41
1
10
7.51429886930225
20
-0.97727909897614
30
0
41
1
10
7.4596949709337
20
-0.969841344552719
30
0
41
1
10
7.38027311741757
20
-0.958634519303473
30
0
41
1
10
7.24625330840584
20
-0.938683669391679
30
0
41
1
10
7.1271029262175
20
-0.919723388190363
30
0
41
1
10
7.0278082369191
20
-0.903137304700806
30
0
41
1
10
6.97816765430161
20
-0.894616312054097
30
0
41
1
10
6.91115173954648
20
-0.882836602817889
30
0
41
1
10
6.85157990479817
20
-0.872096654903316
30
0
41
1
10
6.79945454807003
20
-0.862499827045696
30
0
41
1
10
6.74733296729278
20
-0.85273442837979
30
0
41
1
10
6.66791056702419
20
-0.837510983747393
30
0
41
1
10
6.60088907374123
20
-0.82431452245811
30
0
41
1
10
6.56117234720006
20
-0.816357213953467
30
0
0
SPLINE
5
D1
100
AcDbEntity
8
1
62
256
6
ByLayer
370
18
48
1
60
0
100
AcDbSpline
70
4
71
3
72
8
73
4
40
0
40
0
40
0
40
0
40
1
40
1
40
1
40
1
41
1
10
4.72053207969293
20
2.2417808911369
30
0
41
1
10
4.76355241798373
20
2.24178041866449
30
0
41
1
10
4.81136928786916
20
2.24073541490483
30
0
41
1
10
4.8615066944308
20
2.23926470791625
30
0
0
SPLINE
5
D2
100
AcDbEntity
8
1
62
256
6
ByLayer
370
18
48
1
60
0
100
AcDbSpline
70
4
71
3
72
40
73
36
40
0
40
0
40
0
40
0
40
0.0854337069616119
40
0.0854337069616119
40
0.170867413923224
40
0.170867413923224
40
0.21358426740403
40
0.21358426740403
40
0.256301120884836
40
0.256301120884836
40
0.341734827846448
40
0.341734827846448
40
0.384451681327253
40
0.384451681327253
40
0.427168534808059
40
0.427168534808059
40
0.512602241769671
40
0.512602241769671
40
0.555319095250476
40
0.555319095250476
40
0.598035948731281
40
0.598035948731281
40
0.683469655692892
40
0.683469655692892
40
0.768903362654503
40
0.768903362654503
40
0.811620216135308
40
0.811620216135308
40
0.854337069616113
40
0.854337069616113
40
0.939770776577726
40
0.939770776577726
40
0.982487630058531
40
0.982487630058531
40
1
40
1
40
1
40
1
41
1
10
4.86150669443069
20
2.23926470791628
30
0
41
1
10
5.2015650428329
20
2.22928959703967
30
0
41
1
10
5.54163196559591
20
2.18851883260913
30
0
41
1
10
6.21579897221397
20
2.0511507645403
30
0
41
1
10
6.55102522509142
20
1.95475682699228
30
0
41
1
10
7.05631446759571
20
1.77246247967179
30
0
41
1
10
7.22513925872315
20
1.70538677061239
30
0
41
1
10
7.56462504525754
20
1.55933567133601
30
0
41
1
10
7.73395373468176
20
1.48096957296977
30
0
41
1
10
8.23952091842546
20
1.23297464059701
30
0
41
1
10
8.57450584881764
20
1.05008427787686
30
0
41
1
10
9.07934402077714
20
0.757074388230251
30
0
41
1
10
9.24799244812175
20
0.656248884030987
30
0
41
1
10
9.58711083339102
20
0.449799220917328
30
0
41
1
10
9.75670303932642
20
0.344722863566602
30
0
41
1
10
10.2618633919957
20
0.0290174211704368
30
0
41
1
10
10.5959184533684
20
-0.183146186176458
30
0
41
1
10
11.0986217566205
20
-0.494760742861899
30
0
41
1
10
11.2663840361068
20
-0.59764709081071
30
0
41
1
10
11.6034571290002
20
-0.799582594622876
30
0
41
1
10
11.7734694500038
20
-0.89905298790103
30
0
41
1
10
12.2809117908612
20
-1.18620377999255
30
0
41
1
10
12.6154742432441
20
-1.36238261016916
30
0
41
1
10
13.2847628754132
20
-1.67516678893932
30
0
41
1
10
13.6194130736463
20
-1.81186302294751
30
0
41
1
10
14.127141973155
20
-1.98029365572589
30
0
41
1
10
14.2967236024392
20
-2.03012592442758
30
0
41
1
10
14.6333158177876
20
-2.11520593088568
30
0
41
1
10
14.8009314532869
20
-2.15070483195288
30
0
41
1
10
15.3030872897052
20
-2.23571817002303
30
0
41
1
10
15.6365441456445
20
-2.26379358247834
30
0
41
1
10
16.1416995224066
20
-2.26091994881551
30
0
41
1
10
16.311336204351
20
-2.25240859259034
30
0
41
1
10
16.549625311116
20
-2.22976837771748
30
0
41
1
10
16.6187683459825
20
-2.22194491573458
30
0
41
1
10
16.6878013250389
20
-2.21290918449449
30
0
0
SPLINE
5
D3
100
AcDbEntity
8
1
62
256
6
ByLayer
370
18
48
1
60
0
100
AcDbSpline
70
4
71
3
72
38
73
34
40
0
40
0
40
0
40
0
40
0.0373403565560434
40
0.0373403565560434
40
0.0880066535794098
40
0.0880066535794098
40
0.189339247626142
40
0.189339247626142
40
0.24000554464951
40
0.24000554464951
40
0.290671841672878
40
0.290671841672878
40
0.392004435719611
40
0.392004435719611
40
0.493337029766344
40
0.493337029766344
40
0.544003326789709
40
0.544003326789709
40
0.594669623813074
40
0.594669623813074
40
0.696002217859807
40
0.696002217859807
40
0.746668514883172
40
0.746668514883172
40
0.797334811906537
40
0.797334811906537
40
0.898667405953267
40
0.898667405953267
40
0.949333702976632
40
0.949333702976632
40
0.974666851488316
40
0.974666851488316
40
1
40
1
40
1
40
1
41
1
10
27.1808077727846
20
2.28221162880561
30
0
41
1
10
27.304247539884
20
2.28245453888377
30
0
41
1
10
27.4279514620004
20
2.27863878617012
30
0
41
1
10
27.7205354403073
20
2.25988240719269
30
0
41
1
10
27.8898556288718
20
2.2413527473941
30
0
41
1
10
28.3939004647098
20
2.16442506604062
30
0
41
1
10
28.7266181966405
20
2.08421530026621
30
0
41
1
10
29.2272012816083
20
1.9251324400349
30
0
41
1
10
29.3942271287334
20
1.86559125275014
30
0
41
1
10
29.7294818873909
20
1.73401527625501
30
0
41
1
10
29.8982497130565
20
1.66175716659737
30
0
41
1
10
30.4047383485385
20
1.42935281816898
30
0
41
1
10
30.738315289596
20
1.25504875636102
30
0
41
1
10
31.4049644491823
20
0.878609000913514
30
0
41
1
10
31.7378044439258
20
0.67611530589906
30
0
41
1
10
32.2427535578422
20
0.359985194204768
30
0
41
1
10
32.4120651143078
20
0.252460100917091
30
0
41
1
10
32.7476400218876
20
0.0381218389304081
30
0
41
1
10
32.9146570876317
20
-0.0690827695360383
30
0
41
1
10
33.4148046631264
20
-0.388604052152715
30
0
41
1
10
33.7470757685031
20
-0.598759601131974
30
0
41
1
10
34.2494555540802
20
-0.900735812149691
30
0
41
1
10
34.4180536896362
20
-0.999498527910873
30
0
41
1
10
34.7552468039859
20
-1.18981460323059
30
0
41
1
10
34.9228245556842
20
-1.2808011723464
30
0
41
1
10
35.4239241283824
20
-1.5397159548917
30
0
41
1
10
35.7558198605747
20
-1.69356979027376
30
0
41
1
10
36.2564952254569
20
-1.88952271860955
30
0
41
1
10
36.4238213214848
20
-1.94908300383906
30
0
41
1
10
36.6760162382383
20
-2.02906946704022
30
0
41
1
10
36.7603932590218
20
-2.05420190959558
30
0
41
1
10
36.929029290265
20
-2.10101713060405
30
0
41
1
10
37.0129052719558
20
-2.12290003350748
30
0
41
1
10
37.0977337177877
20
-2.14246219547246
30
0
0
SPLINE
5
D4
100
AcDbEntity
8
1
62
256
6
ByLayer
370
18
48
1
60
0
100
AcDbSpline
70
4
71
3
72
8
73
4
40
0
40
0
40
0
40
0
40
1
40
1
40
1
40
1
41
1
10
37.8394518159599
20
0.486167410553406
30
0
41
1
10
37.750822746991
20
0.731286454976953
30
0
41
1
10
37.662684329262
20
0.976581555835054
30
0
41
1
10
37.5750386848582
20
1.22205347457853
30
0
0
SPLINE
5
D5
100
AcDbEntity
8
1
62
256
6
ByLayer
370
18
48
1
60
0
100
AcDbSpline
70
4
71
3
72
10
73
6
40
0
40
0
40
0
40
0
40
0.5
40
0.5
40
1
40
1
40
1
40
1
41
1
10
4.59974276681612
20
-0.880210902427763
30
0
41
1
10
4.66115120151392
20
-0.893026500575587
30
0
41
1
10
4.72257760195933
20
-0.911963754688941
30
0
41
1
10
4.84548017574167
20
-0.959317136396834
30
0
41
1
10
4.90713148279499
20
-0.987882944686561
30
0
41
1
10
4.96771901765393
20
-1.01996131433353
30
0
0
SPLINE
5
D6
100
AcDbEntity
8
1
62
256
6
ByLayer
370
13
48
1
60
0
100
AcDbSpline
70
4
71
3
72
19
73
15
40
0
40
0
40
0
40
0
40
0.125
40
0.125
40
0.25
40
0.375
40
0.375
40
0.5
40
0.5
40
0.625
40
0.625
40
0.75
40
0.75
40
1
40
1
40
1
40
1
41
1
10
4.96781481194677
20
-2.17118020952981
30
0
41
1
10
4.9677586459718
20
-2.16938810914112
30
0
41
1
10
4.9677109405431
20
-2.16104498667798
30
0
41
1
10
4.96763327682191
20
-2.13178768883841
30
0
41
1
10
4.96757323182155
20
-2.09014727493101
30
0
41
1
10
4.96754450270612
20
-2.02437774934018
30
0
41
1
10
4.96752941164362
20
-1.94621635136261
30
0
41
1
10
4.96752881173506
20
-1.90099892364196
30
0
41
1
10
4.96753815885029
20
-1.80081146386411
30
0
41
1
10
4.96754804202726
20
-1.74557395940067
30
0
41
1
10
4.96757465845883
20
-1.62483048828671
30
0
41
1
10
4.96759149085418
20
-1.5589834317079
30
0
41
1
10
4.967646268078
20
-1.34772657158632
30
0
41
1
10
4.96768804202216
20
-1.1887510697637
30
0
41
1
10
4.96771901765393
20
-1.01996131433353
30
0
0
SPLINE
5
D7
100
AcDbEntity
8
1
62
256
6
ByLayer
370
13
48
1
60
0
100
AcDbSpline
70
4
71
3
72
39
73
35
40
0
40
0
40
0
40
0
40
0.0189767511971366
40
0.0480882917038583
40
0.0917556024639694
40
0.106311372717352
40
0.135422913224097
40
0.164534453730828
40
0.208201764490947
40
0.222757534744317
40
0.251869075251049
40
0.280980615757805
40
0.324647926517909
40
0.339203696771284
40
0.368315237278032
40
0.397426777784766
40
0.433816203418192
40
0.455649858798249
40
0.477483514178315
40
0.513872939811722
40
0.572096020825211
40
0.673986412598812
40
0.688542182852181
40
0.717653723358928
40
0.74676526386567
40
0.790432574625772
40
0.804988344879146
40
0.834099885385871
40
0.863211425892623
40
0.906878736652742
40
0.921434506906112
40
0.950546047412865
40
0.979657587919591
40
1
40
1
40
1
40
1
41
1.00000000000001
10
37.5865934741826
20
1.08919773098954
30
0
41
1.00000000000001
10
37.5736493745217
20
1.08917108711195
30
0
41
1.00000000000001
10
37.5408478253811
20
1.0890469408156
30
0
41
1.00000000000001
10
37.4782609481839
20
1.08855138852802
30
0
41
1.00000000000001
10
37.4186924808166
20
1.08772168476786
30
0
41
1.00000000000001
10
37.3591228801304
20
1.08658741396111
30
0
41
1.00000000000001
10
37.3094793422854
20
1.08544092003019
30
0
41
1.00000000000001
10
37.2399793668189
20
1.08348926957613
30
0
41
1.00000000000001
10
37.1804109253536
20
1.08145812288107
30
0
41
1.00000000000001
10
37.1208414296073
20
1.07912352309007
30
0
41
1.00000000000001
10
37.0711980012151
20
1.07697911142087
30
0
41
1.00000000000001
10
37.0016981794517
20
1.07363302204381
30
0
41
1.00000000000001
10
36.942129855417
20
1.07040828394064
30
0
41
1.00000000000001
10
36.8825604459355
20
1.06688336454574
30
0
41
1.00000000000001
10
36.83291704493
20
1.06375087594229
30
0
41
1.00000000000001
10
36.7683821688279
20
1.05936733869875
30
0
41
1.00000000000001
10
36.7088129565456
20
1.05499796695672
30
0
41
1.00000000000001
10
36.6542075582204
20
1.050724820799
30
0
41
1.00000000000001
10
36.5995992103711
20
1.04623989580567
30
0
41
1.00000000000001
10
36.5201668826491
20
1.03932327032392
30
0
41
1.00000000000001
10
36.3861202548059
20
1.02658606675409
30
0
41
1.00000000000001
10
36.2669893693168
20
1.01377508890404
30
0
41
1.00000000000001
10
36.1677163565519
20
1.00216858754759
30
0
41
1.00000000000001
10
36.1180730908939
20
0.996170228940784
30
0
41
1.00000000000001
10
36.0485732922597
20
0.98745428239154
30
0
41
1.00000000000001
10
35.9890048602417
20
0.979648215662465
30
0
41
1.00000000000001
10
35.9294352816662
20
0.97156625741026
30
0
41
1.00000000000001
10
35.8797917559519
20
0.96465861670744
30
0
41
1.00000000000001
10
35.8102917868504
20
0.954681101136218
30
0
41
1.00000000000001
10
35.7507233381519
20
0.945803890650937
30
0
41
1.00000000000001
10
35.6911538231904
20
0.936660576320223
30
0
41
1.00000000000001
10
35.6415103771507
20
0.928876361566738
30
0
41
1.00000000000001
10
35.5879205452425
20
0.920245857263312
30
0
41
1.00000000000001
10
35.5541889514367
20
0.914692419091311
30
0
41
1.00000000000001
10
35.5403138446345
20
0.91238744779041
30
0
0
SPLINE
5
D8
100
AcDbEntity
8
1
62
256
6
ByLayer
370
13
48
1
60
0
100
AcDbSpline
70
4
71
3
72
112
73
108
40
0
40
0
40
0
40
0
40
0.0055499394674366
40
0.0093975717974253
40
0.0170928364573993
40
0.0247881011173725
40
0.0344071819423435
40
0.0401786304373231
40
0.0459500789323054
40
0.0555691597572708
40
0.0709596890772227
40
0.0978931153871318
40
0.101740747717119
40
0.109436012377094
40
0.117131277037067
40
0.12867417402703
40
0.132521806357017
40
0.140217071016991
40
0.147912335676965
40
0.157531416501935
40
0.163302864996915
40
0.169074313491897
40
0.178693394316863
40
0.194083923636814
40
0.217169717616738
40
0.224864982276711
40
0.24025551159666
40
0.25564604091661
40
0.282579467226519
40
0.286427099556507
40
0.294122364216483
40
0.301817628876456
40
0.313360525866418
40
0.317208158196405
40
0.32490342285638
40
0.332598687516354
40
0.342217768341323
40
0.347989216836303
40
0.353760665331285
40
0.363379746156252
40
0.378770275476202
40
0.401856069456124
40
0.4095513341161
40
0.424941863436048
40
0.440332392755997
40
0.467265819065909
40
0.471113451395895
40
0.47880871605587
40
0.486503980715844
40
0.498046877705806
40
0.501894510035793
40
0.509589774695767
40
0.517285039355742
40
0.52690412018071
40
0.532675568675691
40
0.538447017170672
40
0.548066097995641
40
0.56345662731559
40
0.5903900536255
40
0.594237685955487
40
0.601932950615462
40
0.609628215275436
40
0.621171112265398
40
0.625018744595385
40
0.63271400925536
40
0.640409273915334
40
0.651952170905296
40
0.655799803235283
40
0.663495067895258
40
0.671190332555232
40
0.682733229545194
40
0.686580861875182
40
0.694276126535156
40
0.701971391195131
40
0.711590472020099
40
0.71736192051508
40
0.723133369010059
40
0.732752449835031
40
0.748142979154978
40
0.775076405464888
40
0.778924037794876
40
0.78661930245485
40
0.794314567114824
40
0.805857464104787
40
0.809705096434773
40
0.817400361094748
40
0.825095625754724
40
0.836638522744683
40
0.840486155074672
40
0.848181419734646
40
0.855876684394621
40
0.867419581384582
40
0.87126721371457
40
0.878962478374544
40
0.88665774303452
40
0.896276823859487
40
0.902048272354467
40
0.907819720849448
40
0.917438801674417
40
0.932829330994365
40
0.959762757304277
40
0.963610389634264
40
0.971305654294238
40
0.979000918954213
40
0.990543815944175
40
0.994391448274162
40
1
40
1
40
1
40
1
41
1.00000000000001
10
20.762110159305
20
-0.0083755956166839
30
0
41
1.00000000000001
10
20.7477895077873
20
-0.0040164816046228
30
0
41
1.00000000000001
10
20.7235408001495
20
0.0033666942815386
30
0
41
1.00000000000001
10
20.6794353991102
20
0.0167970936793436
30
0
41
1.00000000000001
10
20.629792110668
20
0.0318907078964226
30
0
41
1.00000000000001
10
20.5652573960996
20
0.0515059979284722
30
0
41
1.00000000000001
10
20.5056883384848
20
0.0696085333812836
30
0
41
1.00000000000001
10
20.4510830756437
20
0.0861923749908998
30
0
41
1.00000000000001
10
20.3964748537582
20
0.102738031262901
30
0
41
1.00000000000001
10
20.3170426903233
20
0.126738835087137
30
0
41
1.00000000000001
10
20.1829962848631
20
0.167049982916436
30
0
41
1.00000000000001
10
20.0638655073707
20
0.202827131441606
30
0
41
1.00000000000001
10
19.9645925222052
20
0.232487268461025
30
0
41
1.00000000000001
10
19.9149492631841
20
0.247210779493738
30
0
41
1.00000000000001
10
19.8454494692225
20
0.267740230779449
30
0
41
1.00000000000001
10
19.785881038968
20
0.285271143396894
30
0
41
1.00000000000001
10
19.7263114661978
20
0.302723930051964
30
0
41
1.00000000000001
10
19.6766679316351
20
0.317192337114188
30
0
41
1.00000000000001
10
19.6121329188272
20
0.335910645029112
30
0
41
1.00000000000001
10
19.5525636205887
20
0.353098140319725
30
0
41
1.00000000000001
10
19.4979581840969
20
0.368771193126657
30
0
41
1.00000000000001
10
19.4433498134592
20
0.384348845147366
30
0
41
1.00000000000001
10
19.3639174400382
20
0.406835793807028
30
0
41
1.00000000000001
10
19.2398029204309
20
0.441560692565752
30
0
41
1.00000000000001
10
19.1206689040868
20
0.474451020198153
30
0
41
1.00000000000001
10
19.0015326936858
20
0.506812114068417
30
0
41
1.00000000000001
10
18.9022432322005
20
0.533337606393352
30
0
41
1.00000000000001
10
18.7533077897298
20
0.572350660535924
30
0
41
1.00000000000001
10
18.6341768096632
20
0.602880976797414
30
0
41
1.00000000000001
10
18.534903698116
20
0.627806346625127
30
0
41
1.00000000000001
10
18.4852604017045
20
0.64008674636718
30
0
41
1.00000000000001
10
18.4157606127397
20
0.657071866725791
30
0
41
1.00000000000001
10
18.3561922361116
20
0.671433857367608
30
0
41
1.00000000000001
10
18.2966227455167
20
0.685609770847369
30
0
41
1.00000000000001
10
18.2469792865887
20
0.697279960709797
30
0
41
1.00000000000001
10
18.1824443741551
20
0.712249480193198
30
0
41
1.00000000000001
10
18.1228751693733
20
0.725860756308596
30
0
41
1.00000000000001
10
18.068269816173
20
0.73816013568548
30
0
41
1.00000000000001
10
18.0136615304062
20
0.750291886304655
30
0
41
1.00000000000001
10
17.9342292895404
20
0.767631877882781
30
0
41
1.00000000000001
10
17.8101149867272
20
0.793978221634649
30
0
41
1.00000000000001
10
17.6909811655365
20
0.818339405617212
30
0
41
1.00000000000001
10
17.5718451064233
20
0.841785104206468
30
0
41
1.00000000000001
10
17.4725557460106
20
0.860646362123463
30
0
41
1.00000000000001
10
17.3236204213781
20
0.887713034996112
30
0
41
1.00000000000001
10
17.2044895036848
20
0.908195228117295
30
0
41
1.00000000000001
10
17.105216432167
20
0.924460617171563
30
0
41
1.00000000000001
10
17.0555731544149
20
0.932362995661167
30
0
41
1.00000000000001
10
16.9860733912007
20
0.943126038377202
30
0
41
1.00000000000001
10
16.9265050374845
20
0.952053553333188
30
0
41
1.00000000000001
10
16.8669355727221
20
0.960715682236569
30
0
41
1.00000000000001
10
16.8172921310468
20
0.96774575536999
30
0
41
1.00000000000001
10
16.7527572231055
20
0.976603490013574
30
0
41
1.00000000000001
10
16.6931880003016
20
0.984489866039482
30
0
41
1.00000000000001
10
16.6385826068434
20
0.991474209470781
30
0
41
1.00000000000001
10
16.5839742709063
20
0.998245436110054
30
0
41
1.00000000000001
10
16.5045419653887
20
1.00770251681256
30
0
41
1.00000000000001
10
16.3704953789616
20
1.02259159934978
30
0
41
1.00000000000001
10
16.2513645097642
20
1.03447036201383
30
0
41
1.00000000000001
10
16.1520914703879
20
1.04344543661831
30
0
41
1.00000000000001
10
16.1024481802695
20
1.04769090760631
30
0
41
1.00000000000001
10
16.0329483301868
20
1.05329848833502
30
0
41
1.00000000000001
10
15.9733798437141
20
1.05776510190868
30
0
41
1.00000000000001
10
15.913810211205
20
1.06193600238474
30
0
41
1.00000000000001
10
15.8641666464436
20
1.06520922025787
30
0
41
1.00000000000001
10
15.7946666363931
20
1.06945023852704
30
0
41
1.00000000000001
10
15.7350981655438
20
1.07273840856705
30
0
41
1.00000000000001
10
15.6755286378659
20
1.07572614532127
30
0
41
1.00000000000001
10
15.6258851813486
20
1.07801184966947
30
0
41
1.00000000000001
10
15.5563853233291
20
1.08086596134016
30
0
41
1.00000000000001
10
15.4968169771044
20
1.08295934072079
30
0
41
1.00000000000001
10
15.4372475595089
20
1.08474855248535
30
0
41
1.00000000000001
10
15.3876041599436
20
1.08603462706436
30
0
41
1.00000000000001
10
15.3230692984691
20
1.08738775916315
30
0
41
1.00000000000001
10
15.2635001136643
20
1.08830657588324
30
0
41
1.00000000000001
10
15.2088947518211
20
1.08887267589499
30
0
41
1.00000000000001
10
15.1542864535759
20
1.08921151312499
30
0
41
1.00000000000001
10
15.0748542280668
20
1.08928449105669
30
0
41
1.00000000000001
10
14.9408078341708
20
1.08826840832553
30
0
41
1.00000000000001
10
14.821677204098
20
1.08584078649825
30
0
41
1.00000000000001
10
14.7224043850751
20
1.08283592691377
30
0
41
1.00000000000001
10
14.6727612128925
20
1.08110577617133
30
0
41
1.00000000000001
10
14.6032615378056
20
1.07833905395016
30
0
41
1.00000000000001
10
14.5436932007125
20
1.07561118671209
30
0
41
1.00000000000001
10
14.48412370516
20
1.07258282276065
30
0
41
1.00000000000001
10
14.434480236887
20
1.06986320869011
30
0
41
1.00000000000001
10
14.3649803243814
20
1.06571604064028
30
0
41
1.00000000000001
10
14.3054119012347
20
1.06180825382692
30
0
41
1.00000000000001
10
14.2458423960459
20
1.05760406468526
30
0
41
1.00000000000001
10
14.1961989476766
20
1.0539088700546
30
0
41
1.00000000000001
10
14.1266990863671
20
1.04840148968306
30
0
41
1.00000000000001
10
14.0671307215362
20
1.04333207091712
30
0
41
1.00000000000001
10
14.00756127363
20
1.03797116133238
30
0
41
1.00000000000001
10
13.9579178398748
20
1.03331684776761
30
0
41
1.00000000000001
10
13.8933829138373
20
1.02696475976889
30
0
41
1.00000000000001
10
13.8338136458678
20
1.02078795428595
30
0
41
1.00000000000001
10
13.779208186198
20
1.01486653813605
30
0
41
1.00000000000001
10
13.7245997683255
20
1.00874318276335
30
0
41
1.00000000000001
10
13.6451673260179
20
0.99946094422775
30
0
41
1.00000000000001
10
13.5111204871644
20
0.982779879985956
30
0
41
1.00000000000001
10
13.3919894295406
20
0.966506199680013
30
0
41
1.00000000000001
10
13.2927163269489
20
0.952051644306253
30
0
41
1.00000000000001
10
13.2430730308661
20
0.944645023122193
30
0
41
1.00000000000001
10
13.1735732196972
20
0.933973529918817
30
0
41
1.00000000000001
10
13.1140048076496
20
0.924505825751923
30
0
41
1.00000000000001
10
13.0598197330566
20
0.915656225685142
30
0
41
1.00000000000001
10
13.0354185356236
20
0.911606420958081
30
0
41
1.00000000000001
10
13.0209459665532
20
0.909182349016434
30
0
0
SPLINE
5
D9
100
AcDbEntity
8
1
62
256
6
ByLayer
370
18
48
1
60
0
100
AcDbSpline
70
4
71
3
72
58
73
54
40
0
40
0
40
0
40
0
40
0.0357079374870031
40
0.0357079374870031
40
0.0670204037480163
40
0.0670204037480163
40
0.0983328700090294
40
0.0983328700090294
40
0.160957802531057
40
0.160957802531057
40
0.223582735053084
40
0.223582735053084
40
0.254895201314097
40
0.254895201314097
40
0.286207667575111
40
0.286207667575111
40
0.348832600097137
40
0.348832600097137
40
0.38014506635815
40
0.38014506635815
40
0.411457532619163
40
0.411457532619163
40
0.474082465141188
40
0.474082465141188
40
0.536707397663214
40
0.536707397663214
40
0.568019863924227
40
0.568019863924227
40
0.59933233018524
40
0.59933233018524
40
0.630644796446253
40
0.630644796446253
40
0.661957262707266
40
0.661957262707266
40
0.693269728968279
40
0.693269728968279
40
0.724582195229293
40
0.724582195229293
40
0.755894661490306
40
0.755894661490306
40
0.787207127751319
40
0.787207127751319
40
0.849832060273344
40
0.849832060273344
40
0.881144526534357
40
0.881144526534357
40
0.91245699279537
40
0.91245699279537
40
0.943769459056382
40
0.943769459056382
40
0.975081925317395
40
0.975081925317395
40
1
40
1
40
1
40
1
41
1
10
12.0774181560725
20
1.37565415229074
30
0
41
1
10
12.2507511136685
20
1.46234769008726
30
0
41
1
10
12.4241131306086
20
1.54433615327071
30
0
41
1
10
12.7490452387271
20
1.68699176983426
30
0
41
1
10
12.9006228947706
20
1.74933438383087
30
0
41
1
10
13.2043504976052
20
1.86431121543637
30
0
41
1
10
13.3567070443749
20
1.91710875682421
30
0
41
1
10
13.8125770068802
20
2.0593188964869
30
0
41
1
10
14.1152239651709
20
2.13265935766191
30
0
41
1
10
14.7237715484087
20
2.23270791043484
30
0
41
1
10
15.0266758684177
20
2.25897640689769
30
0
41
1
10
15.4818428856815
20
2.26175290982329
30
0
41
1
10
15.634239457658
20
2.25656855173742
30
0
41
1
10
15.9378753289508
20
2.23409236195758
30
0
41
1
10
16.0894272434639
20
2.2168283228041
30
0
41
1
10
16.5442475713404
20
2.1472851553539
30
0
41
1
10
16.8486937331376
20
2.0769624647015
30
0
41
1
10
17.3033807482092
20
1.93947071005638
30
0
41
1
10
17.4549982971378
20
1.88844647636557
30
0
41
1
10
17.7582776251137
20
1.77585372604022
30
0
41
1
10
17.9105855005208
20
1.71464933685809
30
0
41
1
10
18.3655964551729
20
1.51780798958183
30
0
41
1
10
18.6683590587967
20
1.36910311849729
30
0
41
1
10
19.2762122283643
20
1.04412457335229
30
0
41
1
10
19.5783516258795
20
0.869105629954333
30
0
41
1
10
20.0337756730742
20
0.594903193187776
30
0
41
1
10
20.1857843294893
20
0.501214943244037
30
0
41
1
10
20.4889628464962
20
0.312420170210686
30
0
41
1
10
20.6401900254608
20
0.216787901805219
30
0
41
1
10
20.9433513596642
20
0.0253106423392637
30
0
41
1
10
21.0951656022596
20
-0.0712472333451046
30
0
41
1
10
21.3987189344867
20
-0.263298408567238
30
0
41
1
10
21.5501776094122
20
-0.35859507286699
30
0
41
1
10
21.8529573412022
20
-0.54696370140104
30
0
41
1
10
22.0042177443689
20
-0.64012403882947
30
0
41
1
10
22.3078231399049
20
-0.822334823470669
30
0
41
1
10
22.4597542822066
20
-0.911698966603126
30
0
41
1
10
22.7626254105292
20
-1.08474294408319
30
0
41
1
10
22.9139474339059
20
-1.16843292735976
30
0
41
1
10
23.2168425077977
20
-1.32949067900753
30
0
41
1
10
23.3687482992819
20
-1.40692026832707
30
0
41
1
10
23.8237324152433
20
-1.62687741222751
30
0
41
1
10
24.1256086908717
20
-1.75719471553609
30
0
41
1
10
24.5808242381948
20
-1.92327233080943
30
0
41
1
10
24.7324499575848
20
-1.97368853419056
30
0
41
1
10
25.0350617974826
20
-2.06344584040869
30
0
41
1
10
25.1864048078277
20
-2.10277733088702
30
0
41
1
10
25.4892772945914
20
-2.17028105352128
30
0
41
1
10
25.6412030582682
20
-2.19840650780242
30
0
41
1
10
25.9440715245099
20
-2.24263855101373
30
0
41
1
10
26.0954304686782
20
-2.25869863271589
30
0
41
1
10
26.3669714346107
20
-2.27674999004054
30
0
41
1
10
26.4875539580142
20
-2.28088573274422
30
0
41
1
10
26.6081770891165
20
-2.28115899397136
30
0
0
SPLINE
5
DA
100
AcDbEntity
8
1
62
256
6
ByLayer
370
18
48
1
60
0
100
AcDbSpline
70
4
71
3
72
16
73
12
40
0
40
0
40
0
40
0
40
0.111715319932592
40
0.111715319932592
40
0.289372255946076
40
0.289372255946076
40
0.46702919195956
40
0.46702919195956
40
0.644686127973045
40
0.644686127973045
40
1
40
1
40
1
40
1
41
1
10
34.5846080458732
20
1.39776670981442
30
0
41
1
10
34.6797785246356
20
1.4461974797876
30
0
41
1
10
34.7749109033349
20
1.4931100211862
30
0
41
1
10
35.0208825539355
20
1.61040369045389
30
0
41
1
10
35.1717693434732
20
1.67826746535988
30
0
41
1
10
35.473757483909
20
1.80513239738744
30
0
41
1
10
35.625486915127
20
1.86387510604021
30
0
41
1
10
35.9277600820123
20
1.97115778891975
30
0
41
1
10
36.0786468959099
20
2.01955335513154
30
0
41
1
10
36.5312648736358
20
2.14850720312219
30
0
41
1
10
36.8343394650414
20
2.21260722514683
30
0
41
1
10
37.1360808435748
20
2.25239754061499
30
0
0
SPLINE
5
DB
100
AcDbEntity
8
1
62
256
6
ByLayer
370
13
48
1
60
0
100
AcDbSpline
70
4
71
3
72
38
73
34
40
0
40
0
40
0
40
0
40
0.0511345653676342
40
0.0511345653676342
40
0.150627127341908
40
0.150627127341908
40
0.200373408329045
40
0.200373408329045
40
0.250119689316182
40
0.250119689316182
40
0.349612251290455
40
0.349612251290455
40
0.399358532277592
40
0.399358532277592
40
0.449104813264729
40
0.449104813264729
40
0.548597375239003
40
0.548597375239003
40
0.598343656226141
40
0.598343656226141
40
0.648089937213278
40
0.648089937213278
40
0.697836218200416
40
0.697836218200416
40
0.747582499187553
40
0.747582499187553
40
0.847075061161829
40
0.847075061161829
40
0.896821342148967
40
0.896821342148967
40
0.946567623136106
40
0.946567623136106
40
1
40
1
40
1
40
1
41
1
10
27.5762985477763
20
-2.21202608721822
30
0
41
1
10
27.4049352120586
20
-2.21317228695406
30
0
41
1
10
27.2340738267515
20
-2.20672649969833
30
0
41
1
10
26.7308096841076
20
-2.16496329299321
30
0
41
1
10
26.3985701891544
20
-2.11001188392135
30
0
41
1
10
25.8948410451942
20
-1.98492984979487
30
0
41
1
10
25.7267130323792
20
-1.93670204980131
30
0
41
1
10
25.3927001035589
20
-1.8285248559001
30
0
41
1
10
25.2262791974978
20
-1.76843717849727
30
0
41
1
10
24.7271907858698
20
-1.57174038085711
30
0
41
1
10
24.3951371922608
20
-1.41909281195043
30
0
41
1
10
23.892221772751
20
-1.16295818442518
30
0
41
1
10
23.7235217235715
20
-1.07306747239707
30
0
41
1
10
23.3887791509189
20
-0.888109739308476
30
0
41
1
10
23.2220758712098
20
-0.79282278691025
30
0
41
1
10
22.7225351882767
20
-0.500763591121029
30
0
41
1
10
22.3905397524649
20
-0.297603701801961
30
0
41
1
10
21.88836551141
20
0.010981774068199
30
0
41
1
10
21.7198333835361
20
0.114755790815735
30
0
41
1
10
21.3835707157031
20
0.320603059536779
30
0
41
1
10
21.2156956885021
20
0.422563137940983
30
0
41
1
10
20.8795015756376
20
0.622997494841655
30
0
41
1
10
20.7107966342017
20
0.721775043240257
30
0
41
1
10
20.3751985386992
20
0.91316498020845
30
0
41
1
10
20.2080356032929
20
1.00569598982241
30
0
41
1
10
19.7070772034083
20
1.27180948312773
30
0
41
1
10
19.3740658335309
20
1.43482056259828
30
0
41
1
10
18.8701969697306
20
1.64901238331964
30
0
41
1
10
18.7013739702084
20
1.71549873791349
30
0
41
1
10
18.3661187475656
20
1.8361334965137
30
0
41
1
10
18.1990569765586
20
1.89033832579196
30
0
41
1
10
17.8526461167187
20
1.98915047113735
30
0
41
1
10
17.6734708048489
20
2.03317646234928
30
0
41
1
10
17.4938473259767
20
2.06941975816304
30
0
0
SPLINE
5
DC
100
AcDbEntity
8
1
62
256
6
ByLayer
370
13
48
1
60
0
100
AcDbSpline
70
4
71
3
72
8
73
4
40
0
40
0
40
0
40
0
40
1
40
1
40
1
40
1
41
1
10
5.16393027132358
20
-2.1704307053194
30
0
41
1
10
5.12374357397289
20
-2.17125461454839
30
0
41
1
10
5.08355810624909
20
-2.17166716555289
30
0
41
1
10
5.04336772188486
20
-2.17166698407874
30
0
0
SPLINE
5
DD
100
AcDbEntity
8
1
62
256
6
ByLayer
370
18
48
1
60
0
100
AcDbSpline
70
4
71
3
72
8
73
4
40
0
40
0
40
0
40
0
40
1
40
1
40
1
40
1
41
1
10
5.04336772217519
20
-2.17166698407877
30
0
41
1
10
5.0181858529059
20
-2.17166687037476
30
0
41
1
10
4.99300205344662
20
-2.17150472487083
30
0
41
1
10
4.96781481194677
20
-2.17118020952981
30
0
0
SPLINE
5
DE
100
AcDbEntity
8
1
62
256
6
ByLayer
370
18
48
1
60
0
100
AcDbSpline
70
4
71
3
72
30
73
26
40
0
40
0
40
0
40
0
40
0.162100788325794
40
0.162100788325794
40
0.243151182488691
40
0.243151182488691
40
0.324201576651588
40
0.324201576651588
40
0.405251970814484
40
0.405251970814484
40
0.486302364977381
40
0.486302364977381
40
0.567352759140278
40
0.567352759140278
40
0.648403153303175
40
0.648403153303175
40
0.729453547466072
40
0.729453547466072
40
0.810503941628969
40
0.810503941628969
40
0.891554335791866
40
0.891554335791866
40
0.972604729954763
40
0.972604729954763
40
1
40
1
40
1
40
1
41
1
10
6.12800867171524
20
-1.54015416265858
30
0
41
1
10
6.45109908847743
20
-1.67917345646788
30
0
41
1
10
6.77195118698558
20
-1.79772344611661
30
0
41
1
10
7.25528017269252
20
-1.94299422146398
30
0
41
1
10
7.41677905756671
20
-1.98556222423812
30
0
41
1
10
7.73879793610084
20
-2.05841788509494
30
0
41
1
10
7.89937267606066
20
-2.0896164098796
30
0
41
1
10
8.22138248165908
20
-2.13755192966909
30
0
41
1
10
8.38268327268921
20
-2.15431648811224
30
0
41
1
10
8.70517343119849
20
-2.17546470014514
30
0
41
1
10
8.86590751963536
20
-2.18043811828807
30
0
41
1
10
9.18775536350714
20
-2.17687721985794
30
0
41
1
10
9.34859579081979
20
-2.16698225842734
30
0
41
1
10
9.671458995812
20
-2.13521545210386
30
0
41
1
10
9.8325015295917
20
-2.11346281515688
30
0
41
1
10
10.1542145551908
20
-2.05816628774383
30
0
41
1
10
10.3149767894163
20
-2.02259966626582
30
0
41
1
10
10.6374888104679
20
-1.94020570944215
30
0
41
1
10
10.7988996618238
20
-1.89313018572236
30
0
41
1
10
11.1208892857463
20
-1.78965692553004
30
0
41
1
10
11.2815109757691
20
-1.73121958201787
30
0
41
1
10
11.6034626231714
20
-1.60421742113661
30
0
41
1
10
11.7647915239729
20
-1.53564767112979
30
0
41
1
10
11.9804627506385
20
-1.43891810225392
30
0
41
1
10
12.0348659209009
20
-1.41398403523053
30
0
41
1
10
12.0892261174895
20
-1.38848325150195
30
0
0
SPLINE
5
DF
100
AcDbEntity
8
1
62
256
6
ByLayer
370
18
48
1
60
0
100
AcDbSpline
70
4
71
3
72
64
73
60
40
0
40
0
40
0
40
0
40
0.0300474037874785
40
0.0300474037874785
40
0.0634330311559945
40
0.0634330311559945
40
0.0968186585245106
40
0.0968186585245106
40
0.130204285893027
40
0.130204285893027
40
0.163589913261543
40
0.163589913261543
40
0.196975540630059
40
0.196975540630059
40
0.230361167998575
40
0.230361167998575
40
0.263746795367091
40
0.263746795367091
40
0.297132422735608
40
0.297132422735608
40
0.330518050104124
40
0.330518050104124
40
0.36390367747264
40
0.36390367747264
40
0.397289304841156
40
0.397289304841156
40
0.430674932209672
40
0.430674932209672
40
0.464060559578188
40
0.464060559578188
40
0.497446186946704
40
0.497446186946704
40
0.530831814315221
40
0.530831814315221
40
0.564217441683737
40
0.564217441683737
40
0.597603069052253
40
0.597603069052253
40
0.630988696420769
40
0.630988696420769
40
0.664374323789285
40
0.664374323789285
40
0.697759951157801
40
0.697759951157801
40
0.731145578526317
40
0.731145578526317
40
0.764531205894834
40
0.764531205894834
40
0.79791683326335
40
0.79791683326335
40
0.831302460631866
40
0.831302460631866
40
0.898073715368898
40
0.898073715368898
40
0.96484497010593
40
0.96484497010593
40
0.998230597474446
40
0.998230597474446
40
1
40
1
40
1
40
1
41
1
10
20.1706801019789
20
2.19995250356422
30
0
41
1
10
20.3151310459734
20
2.20059208715546
30
0
41
1
10
20.4594965797944
20
2.19532431507165
30
0
41
1
10
20.7650112741919
20
2.1724575215147
30
0
41
1
10
20.9262276426798
20
2.15449589727055
30
0
41
1
10
21.2473905723576
20
2.10622240149925
30
0
41
1
10
21.4078270209958
20
2.07508721720765
30
0
41
1
10
21.7290416827911
20
1.99988874140033
30
0
41
1
10
21.8901867160273
20
1.9562958873625
30
0
41
1
10
22.211575573512
20
1.8586514832333
30
0
41
1
10
22.3719606351093
20
1.80370653516979
30
0
41
1
10
22.6928486102012
20
1.6826291318051
30
0
41
1
10
22.8535576667652
20
1.61687636095246
30
0
41
1
10
23.1752053398994
20
1.47663600134806
30
0
41
1
10
23.3355558096112
20
1.401607068224
30
0
41
1
10
23.656225980388
20
1.24346926897169
30
0
41
1
10
23.8166739560981
20
1.16056410622434
30
0
41
1
10
24.1376203207015
20
0.988397717696699
30
0
41
1
10
24.2984366623492
20
0.898713035888704
30
0
41
1
10
24.6190568971045
20
0.714602031624963
30
0
41
1
10
24.7792449006604
20
0.620088744983804
30
0
41
1
10
25.0998424009609
20
0.428255187504419
30
0
41
1
10
25.2606922950794
20
0.330584786451937
30
0
41
1
10
25.5814931962735
20
0.133547044622304
30
0
41
1
10
25.7415995053445
20
0.0345670492860677
30
0
41
1
10
26.06193191584
20
-0.163170011301958
30
0
41
1
10
26.2220396667093
20
-0.262186164862186
30
0
41
1
10
26.5434578593727
20
-0.457953260594962
30
0
41
1
10
26.703863621628
20
-0.55409508157868
30
0
41
1
10
27.0240944459654
20
-0.743644289438379
30
0
41
1
10
27.1840320195152
20
-0.836975301935894
30
0
41
1
10
27.5049438856666
20
-1.01717853521026
30
0
41
1
10
27.6657037921675
20
-1.10436429465875
30
0
41
1
10
27.9862813766469
20
-1.27182654818901
30
0
41
1
10
28.1463391487276
20
-1.35282333903973
30
0
41
1
10
28.4666908083365
20
-1.50494942624744
30
0
41
1
10
28.6275332149069
20
-1.57628215049516
30
0
41
1
10
28.9485065018512
20
-1.70927814478512
30
0
41
1
10
29.1085082148475
20
-1.77207136346149
30
0
41
1
10
29.4288877800105
20
-1.8848207708437
30
0
41
1
10
29.5894571265945
20
-1.93486180436241
30
0
41
1
10
29.910699518448
20
-2.0243640610515
30
0
41
1
10
30.0709187911832
20
-2.06414751775222
30
0
41
1
10
30.391232113161
20
-2.13073010979906
30
0
41
1
10
30.5514870861323
20
-2.15675838124207
30
0
41
1
10
30.8725618170423
20
-2.19515909969528
30
0
41
1
10
31.0334935769539
20
-2.20773332746626
30
0
41
1
10
31.3540980478095
20
-2.21994508524429
30
0
41
1
10
31.5143042368209
20
-2.21956706631377
30
0
41
1
10
31.8350824008831
20
-2.20635166847873
30
0
41
1
10
31.9959743300068
20
-2.19364807732836
30
0
41
1
10
32.476715983182
20
-2.13519875709326
30
0
41
1
10
32.7966746930303
20
-2.06783556486187
30
0
41
1
10
33.4389261959667
20
-1.88621286532341
30
0
41
1
10
33.7583890445461
20
-1.7716268617892
30
0
41
1
10
34.2398213520332
20
-1.57017873279324
30
0
41
1
10
34.4002468344246
20
-1.49799700945576
30
0
41
1
10
34.5688378183982
20
-1.41761194822439
30
0
41
1
10
34.5773231379484
20
-1.41355454187976
30
0
41
1
10
34.5858083687867
20
-1.40948564144369
30
0
0
SPLINE
5
E0
100
AcDbEntity
8
1
62
256
6
ByLayer
370
18
48
1
60
0
100
AcDbSpline
70
4
71
3
72
10
73
6
40
0
40
0
40
0
40
0
40
0.5
40
0.5
40
1
40
1
40
1
40
1
41
1
10
37.0977337177872
20
-2.14246219547277
30
0
41
1
10
37.0988597813995
20
-2.10533487670111
30
0
41
1
10
37.0949147318854
20
-2.07370388883615
30
0
41
1
10
37.0817900193637
20
-2.01964618281684
30
0
41
1
10
37.0727101592026
20
-1.99723049282557
30
0
41
1
10
37.0619580361995
20
-1.97787911631835
30
0
0
SPLINE
5
E1
100
AcDbEntity
8
1
62
256
6
ByLayer
370
18
48
1
60
0
100
AcDbSpline
70
4
71
3
72
26
73
22
40
0
40
0
40
0
40
0
40
0.0866476369219249
40
0.0866476369219249
40
0.17329527384385
40
0.17329527384385
40
0.346590547687705
40
0.346590547687705
40
0.51988582153156
40
0.51988582153156
40
0.606533458453485
40
0.606533458453485
40
0.69318109537541
40
0.69318109537541
40
0.779828732297335
40
0.779828732297335
40
0.86647636921926
40
0.86647636921926
40
0.953124006141185
40
0.953124006141185
40
1
40
1
40
1
40
1
41
1
10
36.962886076588
20
0.0489494059301308
30
0
41
1
10
36.8028805520601
20
0.148541662364295
30
0
41
1
10
36.6430735337705
20
0.247934269177222
30
0
41
1
10
36.3228196504195
20
0.44477461454602
30
0
41
1
10
36.1620728446347
20
0.542451598347412
30
0
41
1
10
35.6806616429009
20
0.829108158277421
30
0
41
1
10
35.3608982904713
20
1.01168225689912
30
0
41
1
10
34.7183344888794
20
1.35035045757158
30
0
41
1
10
34.3983539745805
20
1.50392791752194
30
0
41
1
10
33.9168241256158
20
1.70528928719241
30
0
41
1
10
33.7558728829845
20
1.7676543476347
30
0
41
1
10
33.435206743903
20
1.88148516741987
30
0
41
1
10
33.274889416565
20
1.93268345819962
30
0
41
1
10
32.9541099360397
20
2.0232301081229
30
0
41
1
10
32.7930858506655
20
2.06271094675975
30
0
41
1
10
32.4724850099645
20
2.12886423400019
30
0
41
1
10
32.3128983358008
20
2.15518030152902
30
0
41
1
10
31.9949992637292
20
2.19370136144929
30
0
41
1
10
31.8362648037517
20
2.20622851770833
30
0
41
1
10
31.5917151579353
20
2.21641713703977
30
0
41
1
10
31.5058608572157
20
2.21821180693698
30
0
41
1
10
31.4199646665263
20
2.21817834680485
30
0
0
SPLINE
5
E2
100
AcDbEntity
8
1
62
256
6
ByLayer
370
18
48
1
60
0
100
AcDbSpline
70
4
71
3
72
70
73
66
40
0
40
0
40
0
40
0
40
0.0219067307815056
40
0.0219067307815056
40
0.0554054306183118
40
0.0554054306183118
40
0.0889041304551182
40
0.0889041304551182
40
0.122402830291925
40
0.122402830291925
40
0.189400229965537
40
0.189400229965537
40
0.222898929802343
40
0.222898929802343
40
0.25639762963915
40
0.25639762963915
40
0.289896329475956
40
0.289896329475956
40
0.323395029312762
40
0.323395029312762
40
0.356893729149568
40
0.356893729149568
40
0.390392428986375
40
0.390392428986375
40
0.423891128823181
40
0.423891128823181
40
0.457389828659987
40
0.457389828659987
40
0.490888528496793
40
0.490888528496793
40
0.5243872283336
40
0.5243872283336
40
0.557885928170406
40
0.557885928170406
40
0.591384628007212
40
0.591384628007212
40
0.624883327844018
40
0.624883327844018
40
0.658382027680824
40
0.658382027680824
40
0.691880727517631
40
0.691880727517631
40
0.708630077436033
40
0.708630077436033
40
0.725379427354436
40
0.725379427354436
40
0.758878127191241
40
0.758878127191241
40
0.775627477109644
40
0.775627477109644
40
0.792376827028047
40
0.792376827028047
40
0.825875526864851
40
0.825875526864851
40
0.859374226701655
40
0.859374226701655
40
0.89287292653846
40
0.89287292653846
40
0.926371626375264
40
0.926371626375264
40
0.959870326212068
40
0.959870326212068
40
0.993369026048873
40
0.993369026048873
40
1
40
1
40
1
40
1
41
1
10
23.3253992162571
20
-1.40504387031834
30
0
41
1
10
23.2203037834485
20
-1.4549015526915
30
0
41
1
10
23.1152529784692
20
-1.50283360394244
30
0
41
1
10
22.8492689061838
20
-1.61865452739127
30
0
41
1
10
22.6877066811417
20
-1.68469282029969
30
0
41
1
10
22.3657289868644
20
-1.80592988783727
30
0
41
1
10
22.2050693902458
20
-1.86078309178743
30
0
41
1
10
21.8837108095759
20
-1.95810211305189
30
0
41
1
10
21.7226654171316
20
-2.00155879429047
30
0
41
1
10
21.2391887909213
20
-2.11420021586332
30
0
41
1
10
20.9207831295722
20
-2.1608925868648
30
0
41
1
10
20.4433569700904
20
-2.19648488748797
30
0
41
1
10
20.2844458860088
20
-2.20163347101464
30
0
41
1
10
19.9659065615086
20
-2.19747709397396
30
0
41
1
10
19.806223692361
20
-2.18860487714588
30
0
41
1
10
19.4858109911735
20
-2.15998265558253
30
0
41
1
10
19.324397898464
20
-2.13894727276858
30
0
41
1
10
19.002539566956
20
-2.08260298828708
30
0
41
1
10
18.8420296078006
20
-2.04752401540733
30
0
41
1
10
18.5204217292714
20
-1.96779613577434
30
0
41
1
10
18.3595155871145
20
-1.92230971679319
30
0
41
1
10
18.0370123951167
20
-1.81773151304753
30
0
41
1
10
17.8768463219933
20
-1.75910961692168
30
0
41
1
10
17.5569457669987
20
-1.63451468053862
30
0
41
1
10
17.397543974752
20
-1.56778142495284
30
0
41
1
10
17.0789818559399
20
-1.42444804650427
30
0
41
1
10
16.9199077208154
20
-1.34740254715283
30
0
41
1
10
16.6011203849072
20
-1.18804464445242
30
0
41
1
10
16.4415567574033
20
-1.10499668138391
30
0
41
1
10
16.121003074099
20
-0.931198214101755
30
0
41
1
10
15.9597349002421
20
-0.839207043284773
30
0
41
1
10
15.6369817867155
20
-0.653289685807607
30
0
41
1
10
15.4758083968321
20
-0.558832138298328
30
0
41
1
10
15.1536834719765
20
-0.366281440966844
30
0
41
1
10
14.9928022679895
20
-0.267822138015134
30
0
41
1
10
14.6695723645552
20
-0.0707411149123232
30
0
41
1
10
14.5081777629362
20
0.0280138846567581
30
0
41
1
10
14.1858217646501
20
0.224676308024556
30
0
41
1
10
14.0248600316742
20
0.322610233191199
30
0
41
1
10
13.7021145906194
20
0.516026749138575
30
0
41
1
10
13.5404064297407
20
0.611892073042895
30
0
41
1
10
13.2982896217344
20
0.751658321039855
30
0
41
1
10
13.2176688369147
20
0.797718568827435
30
0
41
1
10
13.0565591744235
20
0.888343714124062
30
0
41
1
10
12.9760447776488
20
0.932901247258144
30
0
41
1
10
12.7342436733357
20
1.06451567500787
30
0
41
1
10
12.5725386374498
20
1.14979667629737
30
0
41
1
10
12.3302617845645
20
1.27209962436774
30
0
41
1
10
12.2496040364451
20
1.31195181232584
30
0
41
1
10
12.0885363111096
20
1.3892471369922
30
0
41
1
10
12.0080564184874
20
1.4265282548462
30
0
41
1
10
11.7663225435063
20
1.53498852892989
30
0
41
1
10
11.6051442567323
20
1.60353316985504
30
0
41
1
10
11.2818656715597
20
1.73110041931844
30
0
41
1
10
11.1206300841655
20
1.78974796344664
30
0
41
1
10
10.7984895687837
20
1.89325421346697
30
0
41
1
10
10.6375619810105
20
1.94018991906944
30
0
41
1
10
10.3146619908536
20
2.02267718453243
30
0
41
1
10
10.1529533364238
20
2.05842609324265
30
0
41
1
10
9.8307281835506
20
2.11372418803717
30
0
41
1
10
9.66986232618419
20
2.13540739010037
30
0
41
1
10
9.34744343493875
20
2.16706050124785
30
0
41
1
10
9.18594980093883
20
2.17697001557499
30
0
41
1
10
8.99254428096492
20
2.17902197095853
30
0
41
1
10
8.96060696212928
20
2.17909582119478
30
0
41
1
10
8.92868452207557
20
2.17891362198017
30
0
0
SPLINE
5
E3
100
AcDbEntity
8
1
62
256
6
ByLayer
370
18
48
1
60
0
100
AcDbSpline
70
4
71
3
72
8
73
4
40
0
40
0
40
0
40
0
40
1
40
1
40
1
40
1
41
1
10
37.9997511016935
20
0.0626201013519392
30
0
41
1
10
37.9446019221492
20
0.201731144083965
30
0
41
1
10
37.8912556655724
20
0.342894889898559
30
0
41
1
10
37.8394518159526
20
0.486167410573643
30
0
0
SPLINE
5
E4
100
AcDbEntity
8
1
62
256
6
ByLayer
370
18
48
1
60
0
100
AcDbSpline
70
4
71
3
72
8
73
4
40
0
40
0
40
0
40
0
40
1
40
1
40
1
40
1
41
1
10
4.86150669443069
20
-2.23926470791628
30
0
41
1
10
5.08259151301834
20
-2.23277951033504
30
0
41
1
10
5.30367995086007
20
-2.21327762714248
30
0
41
1
10
5.5239498182552
20
-2.18155113865677
30
0
0
SPLINE
5
E5
100
AcDbEntity
8
1
62
256
6
ByLayer
370
18
48
1
60
0
100
AcDbSpline
70
4
71
3
72
42
73
38
40
0
40
0
40
0
40
0
40
0.0030159646125106
40
0.0030159646125106
40
0.0449023379981237
40
0.0449023379981237
40
0.086788711383737
40
0.086788711383737
40
0.170561458154964
40
0.170561458154964
40
0.212447831540577
40
0.212447831540577
40
0.254334204926191
40
0.254334204926191
40
0.33810695169742
40
0.33810695169742
40
0.379993325083035
40
0.379993325083035
40
0.421879698468649
40
0.421879698468649
40
0.589425192011107
40
0.589425192011107
40
0.631311565396721
40
0.631311565396721
40
0.673197938782335
40
0.673197938782335
40
0.756970685553563
40
0.756970685553563
40
0.798857058939178
40
0.798857058939178
40
0.840743432324792
40
0.840743432324792
40
0.924516179096022
40
0.924516179096022
40
0.966402552481639
40
0.966402552481639
40
1
40
1
40
1
40
1
41
1
10
15.9370050296803
20
2.26196822170041
30
0
41
1
10
15.949121036402
20
2.2619768225112
30
0
41
1
10
15.9612411219889
20
2.26194661549852
30
0
41
1
10
16.1417515373844
20
2.26091814121932
30
0
41
1
10
16.3113892514661
20
2.25240513863878
30
0
41
1
10
16.6493977818919
20
2.22028725503236
30
0
41
1
10
16.8175549870794
20
2.19684719735739
30
0
41
1
10
17.320892577376
20
2.1056147435184
30
0
41
1
10
17.6539854709096
20
2.01632828302917
30
0
41
1
10
18.1570224904614
20
1.84438818326422
30
0
41
1
10
18.3250832327673
20
1.78060687233182
30
0
41
1
10
18.6629597169863
20
1.64065599258913
30
0
41
1
10
18.8326018002877
20
1.56467233727202
30
0
41
1
10
19.3373638852528
20
1.32393354808448
30
0
41
1
10
19.6706713541691
20
1.14470157274039
30
0
41
1
10
20.1723203645263
20
0.856864416431506
30
0
41
1
10
20.3396903421345
20
0.75757581901081
30
0
41
1
10
20.6756895608329
20
0.553600358002484
30
0
41
1
10
20.8450446857586
20
0.448703769867507
30
0
41
1
10
21.6903211801831
20
-0.080456254091672
30
0
41
1
10
22.3504209472426
20
-0.513526269695433
30
0
41
1
10
23.1942927581665
20
-1.00523416621522
30
0
41
1
10
23.363831552046
20
-1.10113641209259
30
0
41
1
10
23.6998936971248
20
-1.28356177972782
30
0
41
1
10
23.867200162074
20
-1.37041866653993
30
0
41
1
10
24.3684933935431
20
-1.61622380533362
30
0
41
1
10
24.7013661455231
20
-1.76097942739685
30
0
41
1
10
25.2050193413663
20
-1.94215651094831
30
0
41
1
10
25.3740468244466
20
-1.99683278081176
30
0
41
1
10
25.7117476836216
20
-2.09247431989201
30
0
41
1
10
25.8795726025995
20
-2.13319727149675
30
0
41
1
10
26.3819522690083
20
-2.23357800711904
30
0
41
1
10
26.7143085093425
20
-2.27192144658275
30
0
41
1
10
27.2161112922826
20
-2.28465006010433
30
0
41
1
10
27.3837519354132
20
-2.28147537346024
30
0
41
1
10
27.687307503463
20
-2.26201000076193
30
0
41
1
10
27.822982099763
20
-2.24837182219719
30
0
41
1
10
27.9580946641404
20
-2.23007863340527
30
0
0
SPLINE
5
E6
100
AcDbEntity
8
1
62
256
6
ByLayer
370
18
48
1
60
0
100
AcDbSpline
70
4
71
3
72
12
73
8
40
0
40
0
40
0
40
0
40
0.500000000000006
40
0.500000000000006
40
0.750000000000003
40
0.750000000000003
40
1
40
1
40
1
40
1
41
1
10
37.1360808435747
20
2.25239754061505
30
0
41
1
10
37.2060652397336
20
2.09850805692793
30
0
41
1
10
37.2785671184688
20
1.93645944422829
30
0
41
1
10
37.3895660132026
20
1.67853160718027
30
0
41
1
10
37.4270839622711
20
1.58974481072355
30
0
41
1
10
37.5017872021958
20
1.40809975232452
30
0
41
1
10
37.5387495856211
20
1.31587161850734
30
0
41
1
10
37.5750386848582
20
1.22205347457853
30
0
0
SPLINE
5
E7
100
AcDbEntity
8
1
62
256
6
ByLayer
370
18
48
1
60
0
100
AcDbSpline
70
4
71
3
72
8
73
4
40
0
40
0
40
0
40
0
40
1
40
1
40
1
40
1
41
1
10
37.9997511016937
20
0.0626201013517971
30
0
41
1
10
38.0000829660984
20
0.0208733671172467
30
0
41
1
10
38.0000829660984
20
-0.0208733671172752
30
0
41
1
10
37.9997511016937
20
-0.0626201013518255
30
0
0
SPLINE
5
E8
100
AcDbEntity
8
1
62
256
6
ByLayer
370
18
48
1
60
0
100
AcDbSpline
70
4
71
3
72
12
73
8
40
0
40
0
40
0
40
0
40
0.250000000000009
40
0.250000000000009
40
0.500000000000017
40
0.500000000000017
40
1
40
1
40
1
40
1
41
1
10
4.59876941470804
20
-2.23267613357061
30
0
41
1
10
4.59873753289895
20
-2.23585886993391
30
0
41
1
10
4.61312861542424
20
-2.23799389659931
30
0
41
1
10
4.64940385832557
20
-2.24074674552674
30
0
41
1
10
4.672296070051
20
-2.24141891839716
30
0
41
1
10
4.74560935088607
20
-2.24215922958757
30
0
41
1
10
4.80191914809279
20
-2.2410126208388
30
0
41
1
10
4.86150669443077
20
-2.23926470791625
30
0
0
SPLINE
5
E9
100
AcDbEntity
8
1
62
256
6
ByLayer
370
13
48
1
60
0
100
AcDbSpline
70
4
71
3
72
32
73
28
40
0
40
0
40
0
40
0
40
0.113954132277119
40
0.113954132277119
40
0.227908264554239
40
0.227908264554239
40
0.284885330692796
40
0.284885330692796
40
0.341862396831355
40
0.341862396831355
40
0.45581652910847
40
0.45581652910847
40
0.512793595247028
40
0.512793595247028
40
0.569770661385586
40
0.569770661385586
40
0.683724793662699
40
0.683724793662699
40
0.740701859801255
40
0.740701859801255
40
0.797678925939811
40
0.797678925939811
40
0.911633058216924
40
0.911633058216924
40
0.96861012435548
40
0.96861012435548
40
1
40
1
40
1
40
1
41
1
10
37.0619580362027
20
-1.97787911632398
30
0
41
1
10
36.7270301799789
20
-1.88110585078505
30
0
41
1
10
36.3909141219824
20
-1.75811268759432
30
0
41
1
10
35.725444008646
20
-1.47239687517234
30
0
41
1
10
35.3949367462753
20
-1.30950732611373
30
0
41
1
10
34.8967411861566
20
-1.04230888253519
30
0
41
1
10
34.7302844582737
20
-0.94943312866701
30
0
41
1
10
34.3957102084622
20
-0.757193205662787
30
0
41
1
10
34.2277947418024
20
-0.657944554207205
30
0
41
1
10
33.7277221140409
20
-0.357117072516189
30
0
41
1
10
33.3968332774577
20
-0.150903371275405
30
0
41
1
10
32.8988225313578
20
0.158082015443085
30
0
41
1
10
32.7325328089569
20
0.261009440760375
30
0
41
1
10
32.3985672307629
20
0.465408648815043
30
0
41
1
10
32.230383288747
20
0.567176270863314
30
0
41
1
10
31.7291782297843
20
0.863456829433801
30
0
41
1
10
31.3977938966036
20
1.05046230700401
30
0
41
1
10
30.8996714624198
20
1.30762171316627
30
0
41
1
10
30.733469476907
20
1.38947708547334
30
0
41
1
10
30.3999441176036
20
1.54421860201614
30
0
41
1
10
30.2319927868568
20
1.61723652315482
30
0
41
1
10
29.7291906802799
20
1.81834747681592
30
0
41
1
10
29.3975091541774
20
1.92985006175857
30
0
41
1
10
28.8991040392693
20
2.05672889438228
30
0
41
1
10
28.7329043048067
20
2.09279943089965
30
0
41
1
10
28.4744067859652
20
2.13812659355645
30
0
41
1
10
28.3824031156754
20
2.15212825138241
30
0
41
1
10
28.2901861245195
20
2.16395878659648
30
0
0
SPLINE
5
EA
100
AcDbEntity
8
1
62
256
6
ByLayer
370
13
48
1
60
0
100
AcDbSpline
70
4
71
3
72
40
73
36
40
0
40
0
40
0
40
0
40
0.0250058502451181
40
0.0250058502451181
40
0.120453116880026
40
0.120453116880026
40
0.16817675019748
40
0.16817675019748
40
0.215900383514933
40
0.215900383514933
40
0.31134765014984
40
0.31134765014984
40
0.359071283467293
40
0.359071283467293
40
0.406794916784747
40
0.406794916784747
40
0.502242183419655
40
0.502242183419655
40
0.54996581673711
40
0.54996581673711
40
0.597689450054564
40
0.597689450054564
40
0.693136716689474
40
0.693136716689474
40
0.74086035000693
40
0.74086035000693
40
0.788583983324385
40
0.788583983324385
40
0.884031249959295
40
0.884031249959295
40
0.931754883276749
40
0.931754883276749
40
0.979478516594203
40
0.979478516594203
40
1
40
1
40
1
40
1
41
1
10
16.2850579555715
20
-2.19132139774277
30
0
41
1
10
16.1975944745768
20
-2.19119423014433
30
0
41
1
10
16.1102066116935
20
-2.18907055339295
30
0
41
1
10
15.6891484757475
20
-2.16923849899575
30
0
41
1
10
15.3564636804316
20
-2.12577103751264
30
0
41
1
10
14.8521976625709
20
-2.01838538554532
30
0
41
1
10
14.6831143961201
20
-1.97557937230181
30
0
41
1
10
14.3476064306097
20
-1.87789689990561
30
0
41
1
10
14.1806271624805
20
-1.82281962129784
30
0
41
1
10
13.6798502776653
20
-1.6410271502566
30
0
41
1
10
13.3471679788121
20
-1.49712053685681
30
0
41
1
10
12.843748537304
20
-1.253431696089
30
0
41
1
10
12.6746315137416
20
-1.16723568151661
30
0
41
1
10
12.338271395152
20
-0.988379369515854
30
0
41
1
10
12.1709777141963
20
-0.895658588779128
30
0
41
1
10
11.6695648099354
20
-0.611081234065466
30
0
41
1
10
11.336900451984
20
-0.411384117557844
30
0
41
1
10
10.8341390046621
20
-0.106613906615053
30
0
41
1
10
10.665623466692
20
-0.0039160034383201
30
0
41
1
10
10.3283045131489
20
0.201435424219142
30
0
41
1
10
10.1606555650366
20
0.303387319096999
30
0
41
1
10
9.65850184846778
20
0.603446235582823
30
0
41
1
10
9.3256755535277
20
0.797383145593386
30
0
41
1
10
8.82351499323147
20
1.06971430952012
30
0
41
1
10
8.65562475068739
20
1.15741495764519
30
0
41
1
10
8.31827674569357
20
1.32571271737396
30
0
41
1
10
8.14973851558571
20
1.40572603116996
30
0
41
1
10
7.64675678590396
20
1.62926217884063
30
0
41
1
10
7.31362560062138
20
1.7579001452917
30
0
41
1
10
6.81187050392157
20
1.91454243059661
30
0
41
1
10
6.6442677513281
20
1.96074803994423
30
0
41
1
10
6.30758908085923
20
2.04026845471256
30
0
41
1
10
6.13830383626703
20
2.0734608254802
30
0
41
1
10
5.8981232657849
20
2.11056022079737
30
0
41
1
10
5.82603482763619
20
2.12043563706419
30
0
41
1
10
5.75404595550697
20
2.12902277846666
30
0
0
SPLINE
5
EB
100
AcDbEntity
8
1
62
256
6
ByLayer
370
18
48
1
60
0
100
AcDbSpline
70
4
71
3
72
18
73
14
40
0
40
0
40
0
40
0
40
0.183005806203995
40
0.29488767195064
40
0.368720358958382
40
0.588502770048946
40
0.649771088566413
40
0.710126904948664
40
0.7694891254084
40
0.82764114819007
40
0.887423832236959
40
0.981758315147639
40
1
40
1
40
1
40
1
41
1
10
20.2084919589707
20
2.20009045503136
30
0
41
1
10
19.9931697710376
20
2.19930735476171
30
0
41
1
10
19.6462092819987
20
2.19806046539151
30
0
41
1
10
19.2123743418713
20
2.198427482727
30
0
41
1
10
18.7352775636549
20
2.19539097938735
30
0
41
1
10
18.3177179045304
20
2.19719575308002
30
0
41
1
10
17.9160284523967
20
2.19474687648128
30
0
41
1
10
17.7030815121629
20
2.19435032673758
30
0
41
1
10
17.4938011920198
20
2.19412877132683
30
0
41
1
10
17.2851946813133
20
2.19394468006396
30
0
41
1
10
17.0354431375312
20
2.19294220002308
30
0
41
1
10
16.8326518277629
20
2.1923025438486
30
0
41
1
10
16.7002036438961
20
2.19198240734283
30
0
41
1
10
16.6787420513494
20
2.19193308249245
30
0
0
SPLINE
5
EC
100
AcDbEntity
8
1
62
256
6
ByLayer
370
18
48
1
60
0
100
AcDbSpline
70
4
71
2
72
6
73
3
40
0
40
0
40
0
40
1
40
1
40
1
41
1
10
31.9897418668952
20
-0.0016186067994113
30
0
41
1
10
32.473053677244
20
-0.149740420397421
30
0
41
1
10
32.9514805294959
20
-0.452983581567935
30
0
0
SPLINE
5
ED
100
AcDbEntity
8
1
62
256
6
ByLayer
370
18
48
1
60
0
100
AcDbSpline
70
4
71
2
72
6
73
3
40
0
40
0
40
0
40
1
40
1
40
1
41
1
10
9.49031477252041
20
-0.0017581187785822
30
0
41
1
10
9.94475765284614
20
-0.139233387621232
30
0
41
1
10
10.3897132940362
20
-0.419051288481711
30
0
0
SPLINE
5
EE
100
AcDbEntity
8
1
62
256
6
ByLayer
370
18
48
1
60
0
100
AcDbSpline
70
4
71
3
72
19
73
15
40
0
40
0
40
0
40
0
40
0.123534261819667
40
0.207751630247242
40
0.26112352110027
40
0.313039875003227
40
0.366037041019052
40
0.419921253186508
40
0.474620071905764
40
0.67083419747728
40
0.720244278069775
40
0.778725652053948
40
0.871540397807503
40
1
40
1
40
1
40
1
41
1
10
16.2547324490034
20
-2.19128616528471
30
0
41
1
10
16.4175714094579
20
-2.1914102400394
30
0
41
1
10
16.6914328773467
20
-2.19185647007637
30
0
41
1
10
17.0356765552994
20
-2.19294357302783
30
0
41
1
10
17.2855082634886
20
-2.19394534263966
30
0
41
1
10
17.4941839193777
20
-2.19412904815596
30
0
41
1
10
17.7035344587754
20
-2.19435076507017
30
0
41
1
10
17.9165532688926
20
-2.19474911195363
30
0
41
1
10
18.3183752564108
20
-2.19719863834183
30
0
41
1
10
18.7143123332853
20
-2.19548626996246
30
0
41
1
10
19.1152230021937
20
-2.1977717087486
30
0
41
1
10
19.3798228716697
20
-2.19866395201598
30
0
41
1
10
19.7486384116047
20
-2.19774146063747
30
0
41
1
10
20.0403527319521
20
-2.19907768405065
30
0
41
1
10
20.2097054414794
20
-2.20009437440544
30
0
0
SPLINE
5
EF
100
AcDbEntity
8
1
62
256
6
ByLayer
370
18
48
1
60
0
100
AcDbSpline
70
4
71
2
72
6
73
3
40
0
40
0
40
0
40
1
40
1
40
1
41
1
10
14.7710557170174
20
0.0018638556646238
30
0
41
1
10
14.339928373418
20
0.132233801301453
30
0
41
1
10
13.9163951767033
20
0.391458347927113
30
0
0
SPLINE
5
F0
100
AcDbEntity
8
1
62
256
6
ByLayer
370
18
48
1
60
0
100
AcDbSpline
70
4
71
2
72
6
73
3
40
0
40
0
40
0
40
1
40
1
40
1
41
1
10
37.2490459297666
20
0.0085283796200031
30
0
41
1
10
36.8261069245375
20
0.137869508114449
30
0
41
1
10
36.3647879852446
20
0.418746259609577
30
0
0
SPLINE
5
F1
100
AcDbEntity
8
1
62
256
6
ByLayer
370
18
48
1
60
0
100
AcDbSpline
70
4
71
3
72
18
73
14
40
0
40
0
40
0
40
0
40
0.158920181863752
40
0.271408185788458
40
0.344128632066892
40
0.415538109877545
40
0.491115899812713
40
0.569502232858576
40
0.666467971602298
40
0.764089889757509
40
0.856230945322921
40
0.956220422410494
40
1
40
1
40
1
40
1
41
1
10
8.96035076099528
20
2.17904847288045
30
0
41
1
10
8.77790918249883
20
2.1783681475512
30
0
41
1
10
8.46633135190547
20
2.17726138156675
30
0
41
1
10
8.07125725100877
20
2.17810570544492
30
0
41
1
10
7.77666803803467
20
2.17618297167712
30
0
41
1
10
7.52444601018024
20
2.17566361525385
30
0
41
1
10
7.2657123155044
20
2.17537573565761
30
0
41
1
10
6.97764194922422
20
2.17473337761271
30
0
41
1
10
6.66425937730864
20
2.17423947159563
30
0
41
1
10
6.33509749677734
20
2.17413071716445
30
0
41
1
10
6.0024240313044
20
2.17307203087904
30
0
41
1
10
5.73169950540813
20
2.17262917018627
30
0
41
1
10
5.56731943166406
20
2.1721128681603
30
0
41
1
10
5.51731562242929
20
2.17193605816092
30
0
0
SPLINE
5
F2
100
AcDbEntity
8
1
62
256
6
ByLayer
370
18
48
1
60
0
100
AcDbSpline
70
4
71
3
72
17
73
13
40
0
40
0
40
0
40
0
40
0.138647086873767
40
0.228719410124721
40
0.311771258965133
40
0.399787470858923
40
0.487170930866043
40
0.571641980632636
40
0.652117343940538
40
0.727053055032192
40
0.833402869963048
40
1
40
1
40
1
40
1
41
1
10
5.14082117655576
20
-2.17028151846719
30
0
41
1
10
5.31573478598739
20
-2.17117720446211
30
0
41
1
10
5.6051353186354
20
-2.17242243533613
30
0
41
1
10
6.00219885867278
20
-2.17307121659334
30
0
41
1
10
6.33494088379737
20
-2.17413047534447
30
0
41
1
10
6.66421686781703
20
-2.17424007758032
30
0
41
1
10
6.99531259960122
20
-2.17475876860343
30
0
41
1
10
7.31679465705312
20
-2.17550526237187
30
0
41
1
10
7.62242222764351
20
-2.17564056155442
30
0
41
1
10
7.9559006076108
20
-2.1774429537129
30
0
41
1
10
8.39913473414731
20
-2.17768828340297
30
0
41
1
10
8.74688227506084
20
-2.17857698034547
30
0
41
1
10
8.95913662482738
20
-2.17904074885646
30
0
0
SPLINE
5
F3
100
AcDbEntity
8
1
62
256
6
ByLayer
370
18
48
1
60
0
100
AcDbSpline
70
4
71
3
72
19
73
15
40
0
40
0
40
0
40
0
40
0.142374467074258
40
0.249049691901706
40
0.321288346844611
40
0.396140695446003
40
0.474083521079308
40
0.552136640446549
40
0.630219286986217
40
0.708202295215727
40
0.782982477281631
40
0.856124048737906
40
0.967641199257999
40
1
40
1
40
1
40
1
41
1
10
31.4184665569119
20
2.21823419171648
30
0
41
1
10
31.2541449443642
20
2.2182437537472
30
0
41
1
10
30.9667058025291
20
2.2182862040396
30
0
41
1
10
30.5956607620675
20
2.21939116573196
30
0
41
1
10
30.3029097734147
20
2.21898254097619
30
0
41
1
10
30.043090687913
20
2.21684247782048
30
0
41
1
10
29.7765762980121
20
2.216262345746
30
0
41
1
10
29.5063262005789
20
2.21647540846499
30
0
41
1
10
29.2360304028051
20
2.21633201391333
30
0
41
1
10
28.9695174162472
20
2.21468616713503
30
0
41
1
10
28.7087049713489
20
2.2146040718664
30
0
41
1
10
28.409175473838
20
2.21454952687074
30
0
41
1
10
28.1586403521122
20
2.2135152065064
30
0
41
1
10
27.9925438115767
20
2.21306497952747
30
0
41
1
10
27.955187483425
20
2.21297345167008
30
0
0
SPLINE
5
F4
100
AcDbEntity
8
1
62
256
6
ByLayer
370
18
48
1
60
0
100
AcDbSpline
70
4
71
2
72
6
73
3
40
0
40
0
40
0
40
1
40
1
40
1
41
1
10
20.7400866217774
20
-0.0016709568415081
30
0
41
1
10
21.2021396760258
20
-0.141640270275076
30
0
41
1
10
21.6548015196338
20
-0.426809234958654
30
0
0
SPLINE
5
F5
100
AcDbEntity
8
1
62
256
6
ByLayer
370
18
48
1
60
0
100
AcDbSpline
70
4
71
2
72
6
73
3
40
0
40
0
40
0
40
1
40
1
40
1
41
1
10
26.0208064368406
20
0.0019573592734616
30
0
41
1
10
25.5631256622386
20
0.14284839652413
30
0
41
1
10
25.114752696408
20
0.418799106095435
30
0
0
SPLINE
5
F6
100
AcDbEntity
8
1
62
256
6
ByLayer
370
18
48
1
60
0
100
AcDbSpline
70
4
71
3
72
19
73
15
40
0
40
0
40
0
40
0
40
0.132225117323979
40
0.218804986386685
40
0.275076502483636
40
0.33179445189895
40
0.389747225489925
40
0.448679668615212
40
0.508545785519703
40
0.593738889070962
40
0.67643235793225
40
0.750962655507925
40
0.85730458899667
40
1
40
1
40
1
40
1
41
1
10
27.5056443525652
20
-2.21220102963446
30
0
41
1
10
27.6781039092357
20
-2.21233000866479
30
0
41
1
10
27.9634955908146
20
-2.21267904112003
30
0
41
1
10
28.3222929727155
20
-2.21436170042529
30
0
41
1
10
28.5826153102548
20
-2.21456482253362
30
0
41
1
10
28.8055941053781
20
-2.21460292929612
30
0
41
1
10
29.0320442915747
20
-2.21502237176912
30
0
41
1
10
29.2625976264475
20
-2.21636506775087
30
0
41
1
10
29.528687362668
20
-2.21649882440494
30
0
41
1
10
29.825771043863
20
-2.21603725241624
30
0
41
1
10
30.1419787926779
20
-2.2177731139669
30
0
41
1
10
30.4857729447455
20
-2.21972577638303
30
0
41
1
10
30.9078386773407
20
-2.21835587376344
30
0
41
1
10
31.2326855695721
20
-2.21837409942276
30
0
41
1
10
31.418819357484
20
-2.21823911906395
30
0
0
SPLINE
5
F7
100
AcDbEntity
8
1
62
256
6
ByLayer
370
18
48
1
60
0
100
AcDbSpline
70
4
71
3
72
10
73
6
40
0
40
0
40
0
40
0
40
0.0354749089781439
40
0.785220112166555
40
1
40
1
40
1
40
1
41
1
10
17.588517934183
20
2.01902159860879
30
0
41
1
10
17.5970421761244
20
2.01683658436508
30
0
41
1
10
17.7857373143205
20
1.96808376768377
30
0
41
1
10
18.0264648471661
20
1.89514658256405
30
0
41
1
10
18.259617783193
20
1.79919663517572
30
0
41
1
10
18.3115738362361
20
1.77683757134631
30
0
0
LINE
5
7B
100
AcDbEntity
8
SK1
62
256
6
ByLayer
370
18
48
1
60
0
100
AcDbLine
10
-36
20
1.25
30
0
11
-36
21
-1.25
31
0
39
0
210
0
220
0
230
1
0
LINE
5
7D
100
AcDbEntity
8
SK1
62
256
6
ByLayer
370
18
48
1
60
0
100
AcDbLine
10
-34.989637
20
3
30
0
11
-34.989637
21
-3
31
0
39
0
210
0
220
0
230
1
0
LINE
5
7E
100
AcDbEntity
8
SK1
62
256
6
ByLayer
370
18
48
1
60
0
100
AcDbLine
10
0
20
-3
30
0
11
0
21
3
31
0
39
0
210
0
220
0
230
1
0
LINE
5
7F
100
AcDbEntity
8
1
62
256
6
ByLayer
370
18
48
1
60
0
100
AcDbLine
10
0
20
-3
30
0
11
0
21
3
31
0
39
0
210
0
220
0
230
1
0
LINE
5
80
100
AcDbEntity
8
1
62
256
6
ByLayer
370
13
48
1
60
0
100
AcDbLine
10
1.420755
20
2.235843
30
0
11
1.420755
21
-2.235843
31
0
39
0
210
0
220
0
230
1
0
LINE
5
81
100
AcDbEntity
8
1
62
256
6
ByLayer
370
18
48
1
60
0
100
AcDbLine
10
36.923962
20
-1.00947
30
0
11
37.596187
21
-0.469789
31
0
39
0
210
0
220
0
230
1
0
LINE
5
82
100
AcDbEntity
8
1
62
256
6
ByLayer
370
13
48
1
60
0
100
AcDbLine
10
0.709613
20
2.617921
30
0
11
0.709613
21
-2.617921
31
0
39
0
210
0
220
0
230
1
0
LINE
5
83
100
AcDbEntity
8
1
62
256
6
ByLayer
370
18
48
1
60
0
100
AcDbLine
10
37.596187
20
-0.469789
30
0
11
37.609655
21
-0.381752
31
0
39
0
210
0
220
0
230
1
0
LINE
5
84
100
AcDbEntity
8
80
62
256
6
ByLayer
370
18
48
1
60
0
100
AcDbLine
10
0
20
0
30
0
11
-5
21
0
31
0
39
0
210
0
220
0
230
1
0
LINE
5
85
100
AcDbEntity
8
4
62
256
6
ByLayer
370
18
48
0.05
60
0
100
AcDbLine
10
38
20
0
30
0
11
0
21
0
31
0
39
0
210
0
220
0
230
1
0
LINE
5
87
100
AcDbEntity
8
SK4
62
256
6
ByLayer
370
18
48
0.05
60
0
100
AcDbLine
10
43
20
0
30
0
11
-41
21
0
31
0
39
0
210
0
220
0
230
1
0
LINE
5
89
100
AcDbEntity
8
SK1
62
256
6
ByLayer
370
18
48
1
60
0
100
AcDbLine
10
-34.989637
20
-3
30
0
11
0
21
-3
31
0
39
0
210
0
220
0
230
1
0
LINE
5
8A
100
AcDbEntity
8
SK1
62
256
6
ByLayer
370
18
48
1
60
0
100
AcDbLine
10
0
20
3
30
0
11
-34.989637
21
3
31
0
39
0
210
0
220
0
230
1
0
LINE
5
8B
100
AcDbEntity
8
SK1
62
256
6
ByLayer
370
18
48
1
60
0
100
AcDbLine
10
-36
20
-1.25
30
0
11
-34.989637
21
-3
31
0
39
0
210
0
220
0
230
1
0
LINE
5
8C
100
AcDbEntity
8
SK1
62
256
6
ByLayer
370
18
48
1
60
0
100
AcDbLine
10
-34.989637
20
3
30
0
11
-36
21
1.25
31
0
39
0
210
0
220
0
230
1
0
LINE
5
8D
100
AcDbEntity
8
1
62
256
6
ByLayer
370
18
48
1
60
0
100
AcDbLine
10
1.420755
20
-2.235843
30
0
11
4.725113
21
-2.241791
31
0
39
0
210
0
220
0
230
1
0
LINE
5
8E
100
AcDbEntity
8
1
62
256
6
ByLayer
370
18
48
1
60
0
100
AcDbLine
10
15.355413
20
-2.260925
30
0
11
15.931307
21
-2.261962
31
0
39
0
210
0
220
0
230
1
0
LINE
5
8F
100
AcDbEntity
8
1
62
256
6
ByLayer
370
18
48
1
60
0
100
AcDbLine
10
26.611605
20
-2.281186
30
0
11
27.181428
21
-2.282212
31
0
39
0
210
0
220
0
230
1
0
LINE
5
90
100
AcDbEntity
8
1
62
256
6
ByLayer
370
18
48
1
60
0
100
AcDbLine
10
27.181428
20
2.282212
30
0
11
26.611605
21
2.281186
31
0
39
0
210
0
220
0
230
1
0
LINE
5
91
100
AcDbEntity
8
1
62
256
6
ByLayer
370
18
48
1
60
0
100
AcDbLine
10
15.931307
20
2.261962
30
0
11
15.355413
21
2.260925
31
0
39
0
210
0
220
0
230
1
0
LINE
5
92
100
AcDbEntity
8
1
62
256
6
ByLayer
370
18
48
1
60
0
100
AcDbLine
10
4.725113
20
2.241791
30
0
11
1.420755
21
2.235843
31
0
39
0
210
0
220
0
230
1
0
LINE
5
93
100
AcDbEntity
8
81
62
256
6
ByLayer
370
18
48
1
60
0
100
AcDbLine
10
38
20
0
30
0
11
43
21
0
31
0
39
0
210
0
220
0
230
1
0
LINE
5
94
100
AcDbEntity
8
SK2
62
256
6
ByLayer
370
13
48
1
60
0
100
AcDbLine
10
-44.625163
20
32.117107
30
0
11
-44.625163
21
-11.75
31
0
39
0
210
0
220
0
230
1
0
LINE
5
96
100
AcDbEntity
8
SK2
62
256
6
ByLayer
370
13
48
1
60
0
100
AcDbLine
10
-37.5875
20
3
30
0
11
-46.625163
21
3
31
0
39
0
210
0
220
0
230
1
0
LINE
5
97
100
AcDbEntity
8
SK2
62
256
6
ByLayer
370
13
48
1
60
0
100
AcDbLine
10
-37.5875
20
-3
30
0
11
-46.625163
21
-3
31
0
39
0
210
0
220
0
230
1
0
LINE
5
98
100
AcDbEntity
8
1
62
256
6
ByLayer
370
18
48
1
60
1
100
AcDbLine
10
-44.625163
20
3
30
0
11
-45.085946
21
6.499998
31
0
39
0
210
0
220
0
230
1
0
LINE
5
99
100
AcDbEntity
8
1
62
256
6
ByLayer
370
18
48
1
60
1
100
AcDbLine
10
-45.085946
20
6.499998
30
0
11
-44.164379
21
6.500002
31
0
39
0
210
0
220
0
230
1
0
LINE
5
9A
100
AcDbEntity
8
1
62
256
6
ByLayer
370
18
48
1
60
1
100
AcDbLine
10
-44.164379
20
6.500002
30
0
11
-44.625163
21
3
31
0
39
0
210
0
220
0
230
1
0
LINE
5
9B
100
AcDbEntity
8
1
62
256
6
ByLayer
370
18
48
1
60
1
100
AcDbLine
10
-44.625163
20
-3
30
0
11
-44.164379
21
-6.499998
31
0
39
0
210
0
220
0
230
1
0
LINE
5
9C
100
AcDbEntity
8
1
62
256
6
ByLayer
370
18
48
1
60
1
100
AcDbLine
10
-44.164379
20
-6.499998
30
0
11
-45.085946
21
-6.500002
31
0
39
0
210
0
220
0
230
1
0
LINE
5
9D
100
AcDbEntity
8
1
62
256
6
ByLayer
370
18
48
1
60
1
100
AcDbLine
10
-45.085946
20
-6.500002
30
0
11
-44.625163
21
-3
31
0
39
0
210
0
220
0
230
1
0
LINE
5
9E
100
AcDbEntity
8
2
62
256
6
ByLayer
370
13
48
1
60
0
100
AcDbLine
10
50.083343
20
30.378727
30
0
11
50.083343
21
-11.05
31
0
39
0
210
0
220
0
230
1
0
LINE
5
A0
100
AcDbEntity
8
2
62
256
6
ByLayer
370
13
48
1
60
0
100
AcDbLine
10
38.6511
20
2.3
30
0
11
52.083343
21
2.3
31
0
39
0
210
0
220
0
230
1
0
LINE
5
A1
100
AcDbEntity
8
2
62
256
6
ByLayer
370
13
48
1
60
0
100
AcDbLine
10
38.6511
20
-2.3
30
0
11
52.083343
21
-2.3
31
0
39
0
210
0
220
0
230
1
0
LINE
5
A2
100
AcDbEntity
8
1
62
256
6
ByLayer
370
18
48
1
60
1
100
AcDbLine
10
50.083343
20
2.3
30
0
11
49.622559
21
5.799998
31
0
39
0
210
0
220
0
230
1
0
LINE
5
A3
100
AcDbEntity
8
1
62
256
6
ByLayer
370
18
48
1
60
1
100
AcDbLine
10
49.622559
20
5.799998
30
0
11
50.544126
21
5.800002
31
0
39
0
210
0
220
0
230
1
0
LINE
5
A4
100
AcDbEntity
8
1
62
256
6
ByLayer
370
18
48
1
60
1
100
AcDbLine
10
50.544126
20
5.800002
30
0
11
50.083343
21
2.3
31
0
39
0
210
0
220
0
230
1
0
LINE
5
A5
100
AcDbEntity
8
1
62
256
6
ByLayer
370
18
48
1
60
1
100
AcDbLine
10
50.083343
20
-2.3
30
0
11
50.544126
21
-5.799998
31
0
39
0
210
0
220
0
230
1
0
LINE
5
A6
100
AcDbEntity
8
1
62
256
6
ByLayer
370
18
48
1
60
1
100
AcDbLine
10
50.544126
20
-5.799998
30
0
11
49.622559
21
-5.800002
31
0
39
0
210
0
220
0
230
1
0
LINE
5
A7
100
AcDbEntity
8
1
62
256
6
ByLayer
370
18
48
1
60
1
100
AcDbLine
10
49.622559
20
-5.800002
30
0
11
50.083343
21
-2.3
31
0
39
0
210
0
220
0
230
1
0
LINE
5
FE
100
AcDbEntity
8
1
62
256
6
ByLayer
370
18
48
1
60
1
100
AcDbLine
10
-44.625163
20
3
30
0
11
-45.085946
21
6.499998
31
0
39
0
210
0
220
0
230
1
0
LINE
5
FF
100
AcDbEntity
8
1
62
256
6
ByLayer
370
18
48
1
60
1
100
AcDbLine
10
-45.085946
20
6.499998
30
0
11
-44.164379
21
6.500002
31
0
39
0
210
0
220
0
230
1
0
LINE
5
100
100
AcDbEntity
8
1
62
256
6
ByLayer
370
18
48
1
60
1
100
AcDbLine
10
-44.164379
20
6.500002
30
0
11
-44.625163
21
3
31
0
39
0
210
0
220
0
230
1
0
LINE
5
102
100
AcDbEntity
8
1
62
256
6
ByLayer
370
18
48
1
60
1
100
AcDbLine
10
-44.625163
20
-3
30
0
11
-44.164379
21
-6.499998
31
0
39
0
210
0
220
0
230
1
0
LINE
5
103
100
AcDbEntity
8
1
62
256
6
ByLayer
370
18
48
1
60
1
100
AcDbLine
10
-44.164379
20
-6.499998
30
0
11
-45.085946
21
-6.500002
31
0
39
0
210
0
220
0
230
1
0
LINE
5
104
100
AcDbEntity
8
1
62
256
6
ByLayer
370
18
48
1
60
1
100
AcDbLine
10
-45.085946
20
-6.500002
30
0
11
-44.625163
21
-3
31
0
39
0
210
0
220
0
230
1
0
LINE
5
108
100
AcDbEntity
8
1
62
256
6
ByLayer
370
18
48
1
60
1
100
AcDbLine
10
50.083343
20
2.3
30
0
11
49.622559
21
5.799998
31
0
39
0
210
0
220
0
230
1
0
LINE
5
109
100
AcDbEntity
8
1
62
256
6
ByLayer
370
18
48
1
60
1
100
AcDbLine
10
49.622559
20
5.799998
30
0
11
50.544126
21
5.800002
31
0
39
0
210
0
220
0
230
1
0
LINE
5
10A
100
AcDbEntity
8
1
62
256
6
ByLayer
370
18
48
1
60
1
100
AcDbLine
10
50.544126
20
5.800002
30
0
11
50.083343
21
2.3
31
0
39
0
210
0
220
0
230
1
0
LINE
5
10C
100
AcDbEntity
8
1
62
256
6
ByLayer
370
18
48
1
60
1
100
AcDbLine
10
50.083343
20
-2.3
30
0
11
50.544126
21
-5.799998
31
0
39
0
210
0
220
0
230
1
0
LINE
5
10D
100
AcDbEntity
8
1
62
256
6
ByLayer
370
18
48
1
60
1
100
AcDbLine
10
50.544126
20
-5.799998
30
0
11
49.622559
21
-5.800002
31
0
39
0
210
0
220
0
230
1
0
LINE
5
10E
100
AcDbEntity
8
1
62
256
6
ByLayer
370
18
48
1
60
1
100
AcDbLine
10
49.622559
20
-5.800002
30
0
11
50.083343
21
-2.3
31
0
39
0
210
0
220
0
230
1
0
MTEXT
5
F8
100
AcDbEntity
8
SK6
62
256
6
ByLayer
370
13
48
1
60
0
100
AcDbMText
10
-27.730726
20
34.840328
30
0
210
0
220
0
230
1
1
\W0.7539;860.1-0460-027A0-PM P1BM
40
3.5
41
0
44
1.084337
50
0
71
7
72
5
7
iso_b_vert
0
MTEXT
5
FC
100
AcDbEntity
8
SK2
62
256
6
ByLayer
370
18
48
1
60
0
100
AcDbMText
10
-46.189796
20
16.409024
30
0
210
0
220
0
230
1
1
%%c
40
3.5
41
0
44
1.084337
50
90
71
7
72
5
7
iso_b_vert
0
MTEXT
5
FD
100
AcDbEntity
8
SK2
62
256
6
ByLayer
370
18
48
1
60
0
100
AcDbMText
10
-46.189796
20
21.63168
30
0
210
0
220
0
230
1
1
\W0.7317;6,000
40
3.5
41
0
44
1.084337
50
90
71
7
72
5
7
iso_b_vert
0
MTEXT
5
106
100
AcDbEntity
8
2
62
256
6
ByLayer
370
18
48
1
60
0
100
AcDbMText
10
48.518709
20
14.30211
30
0
210
0
220
0
230
1
1
%%c
40
3.5
41
0
44
1.084337
50
90
71
7
72
5
7
iso_b_vert
0
MTEXT
5
107
100
AcDbEntity
8
2
62
256
6
ByLayer
370
18
48
1
60
0
100
AcDbMText
10
48.518709
20
19.524766
30
0
210
0
220
0
230
1
1
\W0.7581;4,600
40
3.5
41
0
44
1.084337
50
90
71
7
72
5
7
iso_b_vert
0
HATCH
5
101
100
AcDbEntity
8
SK2
62
256
6
ByLayer
370
13
48
1
60
0
100
AcDbHatch
10
0
20
0
30
0
210
0
220
0
230
1
2
ANSI31
70
0
71
0
91
1
92
5
93
3
72
1
10
-44.6251625675374
20
3
11
-45.0859463090902
21
6.49999830744682
72
1
10
-45.0859463090902
20
6.49999830744682
11
-44.1643788259847
21
6.50000169255318
72
1
10
-44.1643788259847
20
6.50000169255318
11
-44.6251625675374
21
3
97
0
75
0
76
1
52
0
41
0.0062
77
0
78
1
53
45
43
0
44
0
45
-0.0139193969876572
46
0.0139193969876572
79
0
47
0
98
1
10
0
20
0
0
HATCH
5
105
100
AcDbEntity
8
SK2
62
256
6
ByLayer
370
13
48
1
60
0
100
AcDbHatch
10
0
20
0
30
0
210
0
220
0
230
1
2
ANSI31
70
0
71
0
91
1
92
5
93
3
72
1
10
-44.6251625675374
20
-3
11
-44.1643788259847
21
-6.49999830744682
72
1
10
-44.1643788259847
20
-6.49999830744682
11
-45.0859463090902
21
-6.50000169255318
72
1
10
-45.0859463090902
20
-6.50000169255318
11
-44.6251625675374
21
-3
97
0
75
0
76
1
52
0
41
0.0062
77
0
78
1
53
45
43
0
44
0
45
-0.0139193969876572
46
0.0139193969876572
79
0
47
0
98
1
10
0
20
0
0
HATCH
5
10B
100
AcDbEntity
8
2
62
256
6
ByLayer
370
13
48
1
60
0
100
AcDbHatch
10
0
20
0
30
0
210
0
220
0
230
1
2
ANSI31
70
0
71
0
91
1
92
5
93
3
72
1
10
50.083342615295
20
2.30000000000001
11
49.6225588737423
21
5.79999830744683
72
1
10
49.6225588737423
20
5.79999830744683
11
50.5441263568478
21
5.8000016925532
72
1
10
50.5441263568478
20
5.8000016925532
11
50.083342615295
21
2.30000000000001
97
0
75
0
76
1
52
0
41
0.0062
77
0
78
1
53
45
43
0
44
0
45
-0.0139193969876572
46
0.0139193969876572
79
0
47
0
98
1
10
0
20
0
0
HATCH
5
10F
100
AcDbEntity
8
2
62
256
6
ByLayer
370
13
48
1
60
0
100
AcDbHatch
10
0
20
0
30
0
210
0
220
0
230
1
2
ANSI31
70
0
71
0
91
1
92
5
93
3
72
1
10
50.083342615295
20
-2.29999999999998
11
50.5441263568478
21
-5.7999983074468
72
1
10
50.5441263568478
20
-5.7999983074468
11
49.6225588737423
21
-5.80000169255317
72
1
10
49.6225588737423
20
-5.80000169255317
11
50.083342615295
21
-2.29999999999998
97
0
75
0
76
1
52
0
41
0.0062
77
0
78
1
53
45
43
0
44
0
45
-0.0139193969876572
46
0.0139193969876572
79
0
47
0
98
1
10
0
20
0
0
DIMENSION
5
111
100
AcDbEntity
8
2
62
256
6
ByLayer
370
13
48
1
60
0
100
AcDbDimension
2
_U0
10
37.0636
20
-12.513398
30
0
11
18.5318
21
-12.513398
31
0
70
32
71
1
72
1
41
1
210
0
220
0
230
1
3
Standard
100
AcDbAlignedDimension
13
0
23
0
33
0
14
37.0636
24
-2.3
34
0
50
0
100
AcDbRotatedDimension
1001
ACAD
1000
DSTYLE
1002
{
1070
   371
1070
    13
1070
   372
1070
    13
1070
   170
1070
     0
1070
   144
1040
1.0
1070
   277
1070
     2
1070
   278
1070
    44
1070
   146
1040
1.0
1070
   345
1005
16
1070
   347
1005
16
1070
   346
1005
16
1070
   344
1005
0
1070
   343
1005
0
1070
   172
1070
     1
1070
    76
1070
     0
1070
    75
1070
     0
1070
   282
1070
     0
1070
   281
1070
     0
1070
    71
1070
     0
1070
    74
1070
     0
1070
   279
1070
     0
1070
   173
1070
     1
1070
   340
1005
F9
1070
   271
1070
     2
1070
   272
1070
     2
1070
    77
1070
     1
1070
    73
1070
     1
1070
   171
1070
     3
1070
   274
1070
     4
1070
   177
1070
    35
1070
   176
1070
    35
1070
   178
1070
    35
1070
    48
1040
-0.1
1070
    41
1040
3.5
1070
   147
1040
1.75
1070
    42
1040
1.5875
1070
    44
1040
2.0
1070
   140
1040
3.5
1002
}
1001
ACAD_DSTYLE_DIM_LINETYPE
1070
   380
1005
16
1001
ACAD_DSTYLE_DIM_EXT1_LINETYPE
1070
   381
1005
16
1001
ACAD_DSTYLE_DIM_EXT2_LINETYPE
1070
   382
1005
16
0
DIMENSION
5
12A
100
AcDbEntity
8
SK2
62
256
6
ByLayer
370
13
48
1
60
0
100
AcDbDimension
2
_U1
10
38
20
-31.692985
30
0
11
1
21
-31.692985
31
0
70
32
71
1
72
1
41
1
210
0
220
0
230
1
3
Standard
100
AcDbAlignedDimension
13
-36
23
-3
33
0
14
38
24
0
34
0
50
0
100
AcDbRotatedDimension
1001
ACAD
1000
DSTYLE
1002
{
1070
   371
1070
    13
1070
   372
1070
    13
1070
   170
1070
     0
1070
   144
1040
1.0
1070
   277
1070
     2
1070
   278
1070
    44
1070
   146
1040
1.0
1070
   345
1005
16
1070
   347
1005
16
1070
   346
1005
16
1070
   344
1005
0
1070
   343
1005
0
1070
   172
1070
     1
1070
    76
1070
     0
1070
    75
1070
     0
1070
   282
1070
     0
1070
   281
1070
     0
1070
    71
1070
     0
1070
    74
1070
     0
1070
   279
1070
     0
1070
   173
1070
     1
1070
   340
1005
F9
1070
   271
1070
     2
1070
   272
1070
     2
1070
    77
1070
     1
1070
    73
1070
     1
1070
   171
1070
     3
1070
   274
1070
     4
1070
   177
1070
    35
1070
   176
1070
    35
1070
   178
1070
    35
1070
    48
1040
-0.1
1070
    41
1040
3.5
1070
   147
1040
1.75
1070
    42
1040
1.5875
1070
    44
1040
2.0
1070
   140
1040
3.5
1002
}
1001
ACAD_DSTYLE_DIM_LINETYPE
1070
   380
1005
16
1001
ACAD_DSTYLE_DIM_EXT1_LINETYPE
1070
   381
1005
16
1001
ACAD_DSTYLE_DIM_EXT2_LINETYPE
1070
   382
1005
16
0
DIMENSION
5
142
100
AcDbEntity
8
SK2
62
256
6
ByLayer
370
13
48
1
60
0
100
AcDbDimension
2
_U2
10
38
20
13.909119
30
0
11
26.03
21
13.909119
31
0
70
32
71
1
72
1
41
1
210
0
220
0
230
1
3
Standard
100
AcDbAlignedDimension
13
14.06
23
2.3
33
0
14
38
24
0
34
0
50
0
100
AcDbRotatedDimension
1001
ACAD
1000
DSTYLE
1002
{
1070
   371
1070
    13
1070
   372
1070
    13
1070
   170
1070
     0
1070
   144
1040
1.0
1070
   277
1070
     2
1070
   278
1070
    44
1070
   146
1040
1.0
1070
   345
1005
16
1070
   347
1005
16
1070
   346
1005
16
1070
   344
1005
0
1070
   343
1005
0
1070
   172
1070
     1
1070
    76
1070
     0
1070
    75
1070
     0
1070
   282
1070
     0
1070
   281
1070
     0
1070
    71
1070
     0
1070
    74
1070
     0
1070
   279
1070
     0
1070
   173
1070
     1
1070
   340
1005
F9
1070
   271
1070
     2
1070
   272
1070
     2
1070
    77
1070
     1
1070
    73
1070
     1
1070
   171
1070
     3
1070
   274
1070
     4
1070
   177
1070
    35
1070
   176
1070
    35
1070
   178
1070
    35
1070
    48
1040
-0.1
1070
    41
1040
3.5
1070
   147
1040
1.75
1070
    42
1040
1.5875
1070
    44
1040
2.0
1070
   140
1040
3.5
1002
}
1001
ACAD_DSTYLE_DIM_LINETYPE
1070
   380
1005
16
1001
ACAD_DSTYLE_DIM_EXT1_LINETYPE
1070
   381
1005
16
1001
ACAD_DSTYLE_DIM_EXT2_LINETYPE
1070
   382
1005
16
0
DIMENSION
5
15A
100
AcDbEntity
8
SK2
62
256
6
ByLayer
370
13
48
1
60
0
100
AcDbDimension
2
_U3
10
37.0636
20
-15.102503
30
0
11
55.666667
21
-15.102503
31
0
70
32
71
1
72
1
41
1
210
0
220
0
230
1
3
Standard
100
AcDbAlignedDimension
13
38
23
0
33
0
14
37.0636
24
-2.3
34
0
50
0
100
AcDbRotatedDimension
1001
ACAD
1000
DSTYLE
1002
{
1070
   371
1070
    13
1070
   372
1070
    13
1070
   170
1070
     0
1070
   144
1040
1.0
1070
   277
1070
     2
1070
   278
1070
    44
1070
   146
1040
1.0
1070
   345
1005
16
1070
   347
1005
16
1070
   346
1005
16
1070
   344
1005
0
1070
   343
1005
0
1070
   172
1070
     1
1070
    76
1070
     0
1070
    75
1070
     0
1070
   282
1070
     0
1070
   281
1070
     0
1070
    71
1070
     0
1070
    74
1070
     0
1070
   279
1070
     0
1070
   173
1070
     1
1070
   340
1005
F9
1070
   271
1070
     2
1070
   272
1070
     2
1070
    77
1070
     1
1070
    73
1070
     1
1070
   171
1070
     3
1070
   274
1070
     4
1070
   177
1070
    35
1070
   176
1070
    35
1070
   178
1070
    35
1070
    48
1040
-0.1
1070
    41
1040
3.5
1070
   147
1040
1.75
1070
    42
1040
1.5875
1070
    44
1040
2.0
1070
   140
1040
3.5
1002
}
1001
ACAD_DSTYLE_DIM_LINETYPE
1070
   380
1005
16
1001
ACAD_DSTYLE_DIM_EXT1_LINETYPE
1070
   381
1005
16
1001
ACAD_DSTYLE_DIM_EXT2_LINETYPE
1070
   382
1005
16
0
DIMENSION
5
174
100
AcDbEntity
8
SK2
62
256
6
ByLayer
370
13
48
1
60
0
100
AcDbDimension
2
_U4
10
37.0636
20
-21.343428
30
0
11
0.5318
21
-21.343428
31
0
70
32
71
1
72
1
41
1
210
0
220
0
230
1
3
Standard
100
AcDbAlignedDimension
13
-36
23
-3
33
0
14
37.0636
24
-2.3
34
0
50
0
100
AcDbRotatedDimension
1001
ACAD
1000
DSTYLE
1002
{
1070
   371
1070
    13
1070
   372
1070
    13
1070
   170
1070
     0
1070
   144
1040
1.0
1070
   277
1070
     2
1070
   278
1070
    44
1070
   146
1040
1.0
1070
   345
1005
16
1070
   347
1005
16
1070
   346
1005
16
1070
   344
1005
0
1070
   343
1005
0
1070
   172
1070
     1
1070
    76
1070
     0
1070
    75
1070
     0
1070
   282
1070
     0
1070
   281
1070
     0
1070
    71
1070
     0
1070
    74
1070
     0
1070
   279
1070
     0
1070
   173
1070
     1
1070
   340
1005
F9
1070
   271
1070
     2
1070
   272
1070
     2
1070
    77
1070
     1
1070
    73
1070
     1
1070
   171
1070
     3
1070
   274
1070
     4
1070
   177
1070
    35
1070
   176
1070
    35
1070
   178
1070
    35
1070
    48
1040
-0.1
1070
    41
1040
3.5
1070
   147
1040
1.75
1070
    42
1040
1.5875
1070
    44
1040
2.0
1070
   140
1040
3.5
1002
}
1001
ACAD_DSTYLE_DIM_LINETYPE
1070
   380
1005
16
1001
ACAD_DSTYLE_DIM_EXT1_LINETYPE
1070
   381
1005
16
1001
ACAD_DSTYLE_DIM_EXT2_LINETYPE
1070
   382
1005
16
0
ENDSEC
0
SECTION
2
OBJECTS
0
DICTIONARY
5
1fc
330
0
100
AcDbDictionary
280
0
281
1
3
ACAD_GROUP
350
1fd
3
ACAD_MLINESTYLE
350
1fe
0
DICTIONARY
5
1fd
330
0
100
AcDbDictionary
280
0
281
1
0
DICTIONARY
5
1fe
330
0
100
AcDbDictionary
280
0
281
1
3
Standard
350
18
0
MLINESTYLE
5
18
330
1fe
100
AcDbMlineStyle
2
Standard
70
0
3

62
256
51
90
52
90
71
2
49
-0.5
62
256
6
ByLayer
49
0.5
62
256
6
ByLayer
0
RASTERVARIABLES
5
1ea
330

100
AcDbRasterVariables
90
0
70
1
71
1
72
1
0
ENDSEC
0
EOF
