0
SECTION
2
HEADER
9
$ACADVER
1
AC1015
9
$DWGCODEPAGE
3
ANSI_1252
9
$HANDSEED
5
208
9
$ANGBASE
50
0
9
$ANGDIR
70
0
9
$ATTMODE
70
1
9
$AUNITS
70
0
9
$AUPREC
70
0
9
$CECOLOR
62
256
9
$CELTSCALE
40
1
9
$CELTYPE
6
ByLayer
9
$CELWEIGHT
370
18
9
$CLAYER
8
0
9
$CMLJUST
70
0
9
$CMLSCALE
40
1
9
$CMLSTYLE
2
Standard
9
$DIMSTYLE
2
Standard
9
$TEXTSIZE
40
0.2
9
$TEXTSTYLE
7
Standard
9
$LUNITS
70
2
9
$LUPREC
70
4
9
$EXTNAMES
290
1
9
$INSUNITS
70
4
9
$LTSCALE
40
1
9
$LWDISPLAY
290
1
9
$PDMODE
70
0
9
$PDSIZE
40
0
9
$PLINEGEN
70
0
0
ENDSEC
0
SECTION
2
CLASSES
0
CLASS
1
RASTERVARIABLES
2
AcDbRasterVariables
3
ISM
90
0
280
0
281
0
0
ENDSEC
0
SECTION
2
TABLES
0
TABLE
2
VPORT
5
1fe
100
AcDbSymbolTable
0
VPORT
5
1
100
AcDbSymbolTableRecord
100
AcDbViewportTableRecord
2
*Active
70
0
10
0
20
0
11
1
21
1
12
-1
22
1
13
0
23
0
14
0.5
24
0.5
15
10
25
10
16
0
26
0
36
1
17
0
27
0
37
0
0
ENDTAB
0
TABLE
2
LTYPE
5
1ff
100
AcDbSymbolTable
0
LTYPE
5
14
100
AcDbSymbolTableRecord
100
AcDbLinetypeTableRecord
70
0
2
ByBlock
3

72
65
73
0
40
0
0
LTYPE
5
15
100
AcDbSymbolTableRecord
100
AcDbLinetypeTableRecord
70
0
2
ByLayer
3

72
65
73
0
40
0
0
LTYPE
5
16
100
AcDbSymbolTableRecord
100
AcDbLinetypeTableRecord
70
0
2
Continuous
3
Solid line
72
65
73
0
40
0
0
LTYPE
5
6E
100
AcDbSymbolTableRecord
100
AcDbLinetypeTableRecord
70
0
2
CENTER
3
____ _ ____ _ ____ _ ____
72
65
73
4
40
47.5
49
22
74
0
49
-8.5
74
0
49
8.5
74
0
49
-8.5
74
0
0
LTYPE
5
6F
100
AcDbSymbolTableRecord
100
AcDbLinetypeTableRecord
70
0
2
DASHED
3
__ __ __ __ __ __ __ __ __
72
65
73
2
40
25.72
49
12.86
74
0
49
-12.86
74
0
0
ENDTAB
0
TABLE
2
LAYER
5
200
100
AcDbSymbolTable
0
LAYER
5
10
100
AcDbSymbolTableRecord
100
AcDbLayerTableRecord
2
0
70
0
62
7
6
Continuous
290
1
370
-3
390
0
0
LAYER
5
71
100
AcDbSymbolTableRecord
100
AcDbLayerTableRecord
2
80
70
0
62
-6
6
Continuous
290
1
370
-3
390
0
0
LAYER
5
73
100
AcDbSymbolTableRecord
100
AcDbLayerTableRecord
2
81
70
0
62
-3
6
Continuous
290
1
370
-3
390
0
0
LAYER
5
75
100
AcDbSymbolTableRecord
100
AcDbLayerTableRecord
2
1
70
0
62
4
6
Continuous
290
1
370
-3
390
0
0
LAYER
5
86
100
AcDbSymbolTableRecord
100
AcDbLayerTableRecord
2
4
70
0
62
-2
6
CENTER
290
1
370
-3
390
0
0
LAYER
5
9F
100
AcDbSymbolTableRecord
100
AcDbLayerTableRecord
2
2
70
0
62
7
6
Continuous
290
1
370
-3
390
0
0
LAYER
5
113
100
AcDbSymbolTableRecord
100
AcDbLayerTableRecord
2
Defpoints
70
0
62
7
6
Continuous
290
0
370
-3
390
0
0
LAYER
5
1ea
100
AcDbSymbolTableRecord
100
AcDbLayerTableRecord
2
SK1
70
0
62
4
6
Continuous
290
1
370
-3
390
0
0
LAYER
5
1eb
100
AcDbSymbolTableRecord
100
AcDbLayerTableRecord
2
SK4
70
0
62
2
6
CENTER
290
1
370
-3
390
0
0
LAYER
5
1ec
100
AcDbSymbolTableRecord
100
AcDbLayerTableRecord
2
SK2
70
0
62
7
6
Continuous
290
1
370
-3
390
0
0
LAYER
5
1ed
100
AcDbSymbolTableRecord
100
AcDbLayerTableRecord
2
SK6
70
0
62
5
6
Continuous
290
1
370
-3
390
0
0
ENDTAB
0
TABLE
2
STYLE
5
201
100
AcDbSymbolTable
0
STYLE
5
11
100
AcDbSymbolTableRecord
100
AcDbTextStyleTableRecord
2
Standard
3
txt
70
0
71
0
40
0
41
1
42
0
50
0
0
STYLE
5
F8
100
AcDbSymbolTableRecord
100
AcDbTextStyleTableRecord
2
iso_b_vert
3
simplex.shx
70
0
71
0
40
0
41
1
42
0
50
0
0
STYLE
5
F9
100
AcDbSymbolTableRecord
100
AcDbTextStyleTableRecord
2
DWGDirectTextStyle
3
simplex
70
0
71
0
40
0
41
1
42
0
50
0
0
ENDTAB
0
TABLE
2
DIMSTYLE
5
202
100
AcDbSymbolTable
100
AcDbDimStyleTable
0
DIMSTYLE
105
27
100
AcDbSymbolTableRecord
100
AcDbDimStyleTableRecord
2
Standard
70
0
3
<>
41
0.18
42
0.0625
44
0.18
140
0.18
147
0.09
73
0
74
0
77
1
271
2
275
0
278
52
280
0
340
11
0
ENDTAB
0
TABLE
2
VIEW
5
203
100
AcDbSymbolTable
0
ENDTAB
0
TABLE
2
UCS
5
204
100
AcDbSymbolTable
0
ENDTAB
0
TABLE
2
APPID
5
205
100
AcDbSymbolTable
0
APPID
5
12
100
AcDbSymbolTableRecord
100
AcDbRegAppTableRecord
2
ACAD
70
0
0
APPID
5
10F
100
AcDbSymbolTableRecord
100
AcDbRegAppTableRecord
2
ACAD_DSTYLE_DIMBREAK
70
0
0
APPID
5
1A9
100
AcDbSymbolTableRecord
100
AcDbRegAppTableRecord
2
ACAD_DSTYLE_DIM_LINETYPE
70
0
0
APPID
5
1AA
100
AcDbSymbolTableRecord
100
AcDbRegAppTableRecord
2
ACAD_DSTYLE_DIM_EXT1_LINETYPE
70
0
0
APPID
5
1AB
100
AcDbSymbolTableRecord
100
AcDbRegAppTableRecord
2
ACAD_DSTYLE_DIM_EXT2_LINETYPE
70
0
0
APPID
5
1E6
100
AcDbSymbolTableRecord
100
AcDbRegAppTableRecord
2
ACAD_MLEADERVER
70
0
0
ENDTAB
0
TABLE
2
BLOCK_RECORD
5
206
100
AcDbSymbolTable
0
BLOCK_RECORD
5
1F
100
AcDbSymbolTableRecord
100
AcDbBlockTableRecord
2
*Model_Space
340
0
70
0
0
BLOCK_RECORD
5
1B
100
AcDbSymbolTableRecord
100
AcDbBlockTableRecord
2
*Paper_Space
340
0
70
0
0
BLOCK_RECORD
5
23
100
AcDbSymbolTableRecord
100
AcDbBlockTableRecord
2
*Paper_Space0
340
0
70
0
0
BLOCK_RECORD
5
114
100
AcDbSymbolTableRecord
100
AcDbBlockTableRecord
2
*D1
340
0
70
0
0
BLOCK_RECORD
5
120
100
AcDbSymbolTableRecord
100
AcDbBlockTableRecord
2
_U0
340
0
70
0
0
BLOCK_RECORD
5
12C
100
AcDbSymbolTableRecord
100
AcDbBlockTableRecord
2
*D3
340
0
70
0
0
BLOCK_RECORD
5
138
100
AcDbSymbolTableRecord
100
AcDbBlockTableRecord
2
_U1
340
0
70
0
0
BLOCK_RECORD
5
144
100
AcDbSymbolTableRecord
100
AcDbBlockTableRecord
2
*D5
340
0
70
0
0
BLOCK_RECORD
5
150
100
AcDbSymbolTableRecord
100
AcDbBlockTableRecord
2
_U2
340
0
70
0
0
BLOCK_RECORD
5
15C
100
AcDbSymbolTableRecord
100
AcDbBlockTableRecord
2
*D7
340
0
70
0
0
BLOCK_RECORD
5
16A
100
AcDbSymbolTableRecord
100
AcDbBlockTableRecord
2
_U3
340
0
70
0
0
BLOCK_RECORD
5
176
100
AcDbSymbolTableRecord
100
AcDbBlockTableRecord
2
*D9
340
0
70
0
0
BLOCK_RECORD
5
182
100
AcDbSymbolTableRecord
100
AcDbBlockTableRecord
2
_U4
340
0
70
0
0
ENDTAB
0
ENDSEC
0
SECTION
2
BLOCKS
0
BLOCK
5
20
100
AcDbEntity
8
0
100
AcDbBlockBegin
2
*Model_Space
70
0
10
0
20
0
30
0
3
*Model_Space
0
ENDBLK
5
21
100
AcDbEntity
8
0
100
AcDbBlockEnd
0
BLOCK
5
1C
100
AcDbEntity
8
0
100
AcDbBlockBegin
2
*Paper_Space
70
0
10
0
20
0
30
0
3
*Paper_Space
0
ENDBLK
5
1D
100
AcDbEntity
8
0
100
AcDbBlockEnd
0
BLOCK
5
24
100
AcDbEntity
8
0
100
AcDbBlockBegin
2
*Paper_Space0
70
0
10
0
20
0
30
0
3
*Paper_Space0
0
ENDBLK
5
25
100
AcDbEntity
8
0
100
AcDbBlockEnd
0
BLOCK
5
115
100
AcDbEntity
8
0
100
AcDbBlockBegin
2
*D1
70
1
10
0
20
0
30
0
3
*D1
0
LINE
5
117
100
AcDbEntity
8
0
62
256
6
ByLayer
370
-2
48
1
60
0
100
AcDbLine
10
0
20
-1.5875
30
0
11
0
21
-14.113398
31
0
39
0
210
0
220
0
230
1
0
LINE
5
118
100
AcDbEntity
8
0
62
256
6
ByLayer
370
-2
48
1
60
0
100
AcDbLine
10
37.2184
20
-3.4875
30
0
11
37.2184
21
-14.113398
31
0
39
0
210
0
220
0
230
1
0
LINE
5
119
100
AcDbEntity
8
0
62
256
6
ByLayer
370
-2
48
1
60
0
100
AcDbLine
10
3.5
20
-12.113398
30
0
11
33.7184
21
-12.113398
31
0
39
0
210
0
220
0
230
1
0
SOLID
5
11A
100
AcDbEntity
8
0
62
256
6
ByLayer
370
-1
48
1
60
0
100
AcDbTrace
10
3.5
20
-11.530065
30
0
11
3.5
21
-12.696732
31
0
12
0
22
-12.113398
32
0
13
0
23
-12.113398
33
0
39
0
210
0
220
0
230
1
0
SOLID
5
11B
100
AcDbEntity
8
0
62
256
6
ByLayer
370
-1
48
1
60
0
100
AcDbTrace
10
33.7184
20
-12.696732
30
0
11
33.7184
21
-11.530065
31
0
12
37.2184
22
-12.113398
32
0
13
37.2184
23
-12.113398
33
0
39
0
210
0
220
0
230
1
0
MTEXT
5
11C
100
AcDbEntity
8
0
62
256
6
ByLayer
370
18
48
1
60
0
100
AcDbMText
10
18.6092
20
-5.113398
30
0
210
0
220
0
230
1
1
\A1;37.22
40
3.5
41
0
44
1
50
0
71
5
72
5
7
iso_b_vert
0
POINT
5
11D
100
AcDbEntity
8
Defpoints
62
0
6
ByLayer
370
-1
48
1
60
0
100
AcDbPoint
10
0
20
0
30
0
39
0
210
0
220
0
230
1
50
360
0
POINT
5
11E
100
AcDbEntity
8
Defpoints
62
0
6
ByLayer
370
-1
48
1
60
0
100
AcDbPoint
10
37.2184
20
-1.9
30
0
39
0
210
0
220
0
230
1
50
360
0
POINT
5
11F
100
AcDbEntity
8
Defpoints
62
0
6
ByLayer
370
-1
48
1
60
0
100
AcDbPoint
10
37.2184
20
-12.113398
30
0
39
0
210
0
220
0
230
1
50
360
0
ENDBLK
5
116
100
AcDbEntity
8
0
100
AcDbBlockEnd
0
BLOCK
5
127
100
AcDbEntity
8
0
100
AcDbBlockBegin
2
_U0
70
0
10
0
20
0
30
0
3
_U0
0
MTEXT
5
121
100
AcDbEntity
8
2
62
256
6
ByLayer
370
13
48
1
60
0
100
AcDbMText
10
13.471901
20
-11.080765
30
0
210
0
220
0
230
1
1
\W0.7317;37,22
40
3.5
41
0
44
1.084337
50
0
71
7
72
5
7
iso_b_vert
0
LINE
5
122
100
AcDbEntity
8
2
62
256
6
ByLayer
370
13
48
1
60
0
100
AcDbLine
10
0
20
-1.5875
30
0
11
0
21
-14.113398
31
0
39
0
210
0
220
0
230
1
0
LINE
5
123
100
AcDbEntity
8
2
62
256
6
ByLayer
370
13
48
1
60
0
100
AcDbLine
10
37.2184
20
-3.4875
30
0
11
37.2184
21
-14.113398
31
0
39
0
210
0
220
0
230
1
0
LINE
5
124
100
AcDbEntity
8
2
62
256
6
ByLayer
370
13
48
1
60
0
100
AcDbLine
10
0
20
-12.113398
30
0
11
37.2184
21
-12.113398
31
0
39
0
210
0
220
0
230
1
0
SOLID
5
125
100
AcDbEntity
8
2
62
256
6
ByLayer
370
18
48
1
60
0
100
AcDbTrace
10
0
20
-12.113398
30
0
11
3.499998
21
-11.652615
31
0
12
3.500002
22
-12.574182
32
0
13
3.500002
23
-12.574182
33
0
39
0
210
0
220
0
230
1
0
SOLID
5
126
100
AcDbEntity
8
2
62
256
6
ByLayer
370
18
48
1
60
0
100
AcDbTrace
10
37.2184
20
-12.113398
30
0
11
33.718402
21
-12.574182
31
0
12
33.718398
22
-11.652615
32
0
13
33.718398
23
-11.652615
33
0
39
0
210
0
220
0
230
1
0
ENDBLK
5
128
100
AcDbEntity
8
0
100
AcDbBlockEnd
0
BLOCK
5
12D
100
AcDbEntity
8
0
100
AcDbBlockBegin
2
*D3
70
1
10
0
20
0
30
0
3
*D3
0
LINE
5
12F
100
AcDbEntity
8
0
62
256
6
ByLayer
370
-2
48
1
60
0
100
AcDbLine
10
-36
20
-4.5875
30
0
11
-36
21
-33.692985
31
0
39
0
210
0
220
0
230
1
0
LINE
5
130
100
AcDbEntity
8
0
62
256
6
ByLayer
370
-2
48
1
60
0
100
AcDbLine
10
38
20
-1.5875
30
0
11
38
21
-33.692985
31
0
39
0
210
0
220
0
230
1
0
LINE
5
131
100
AcDbEntity
8
0
62
256
6
ByLayer
370
-2
48
1
60
0
100
AcDbLine
10
-32.5
20
-31.692985
30
0
11
34.5
21
-31.692985
31
0
39
0
210
0
220
0
230
1
0
SOLID
5
132
100
AcDbEntity
8
0
62
256
6
ByLayer
370
-1
48
1
60
0
100
AcDbTrace
10
-32.5
20
-31.109652
30
0
11
-32.5
21
-32.276319
31
0
12
-36
22
-31.692985
32
0
13
-36
23
-31.692985
33
0
39
0
210
0
220
0
230
1
0
SOLID
5
133
100
AcDbEntity
8
0
62
256
6
ByLayer
370
-1
48
1
60
0
100
AcDbTrace
10
34.5
20
-32.276319
30
0
11
34.5
21
-31.109652
31
0
12
38
22
-31.692985
32
0
13
38
23
-31.692985
33
0
39
0
210
0
220
0
230
1
0
MTEXT
5
134
100
AcDbEntity
8
0
62
256
6
ByLayer
370
18
48
1
60
0
100
AcDbMText
10
1
20
-24.692985
30
0
210
0
220
0
230
1
1
\A1;74.00
40
3.5
41
0
44
1
50
0
71
5
72
5
7
iso_b_vert
0
POINT
5
135
100
AcDbEntity
8
Defpoints
62
0
6
ByLayer
370
-1
48
1
60
0
100
AcDbPoint
10
-36
20
-3
30
0
39
0
210
0
220
0
230
1
50
360
0
POINT
5
136
100
AcDbEntity
8
Defpoints
62
0
6
ByLayer
370
-1
48
1
60
0
100
AcDbPoint
10
38
20
0
30
0
39
0
210
0
220
0
230
1
50
360
0
POINT
5
137
100
AcDbEntity
8
Defpoints
62
0
6
ByLayer
370
-1
48
1
60
0
100
AcDbPoint
10
38
20
-31.692985
30
0
39
0
210
0
220
0
230
1
50
360
0
ENDBLK
5
12E
100
AcDbEntity
8
0
100
AcDbBlockEnd
0
BLOCK
5
13F
100
AcDbEntity
8
0
100
AcDbBlockBegin
2
_U1
70
0
10
0
20
0
30
0
3
_U1
0
MTEXT
5
139
100
AcDbEntity
8
SK2
62
256
6
ByLayer
370
13
48
1
60
0
100
AcDbMText
10
-4.321565
20
-30.660352
30
0
210
0
220
0
230
1
1
\W0.7581;74,00
40
3.5
41
0
44
1.084337
50
0
71
7
72
5
7
iso_b_vert
0
LINE
5
13A
100
AcDbEntity
8
SK2
62
256
6
ByLayer
370
13
48
1
60
0
100
AcDbLine
10
-36
20
-4.5875
30
0
11
-36
21
-33.692985
31
0
39
0
210
0
220
0
230
1
0
LINE
5
13B
100
AcDbEntity
8
SK2
62
256
6
ByLayer
370
13
48
1
60
0
100
AcDbLine
10
38
20
-1.5875
30
0
11
38
21
-33.692985
31
0
39
0
210
0
220
0
230
1
0
LINE
5
13C
100
AcDbEntity
8
SK2
62
256
6
ByLayer
370
13
48
1
60
0
100
AcDbLine
10
-36
20
-31.692985
30
0
11
38
21
-31.692985
31
0
39
0
210
0
220
0
230
1
0
SOLID
5
13D
100
AcDbEntity
8
SK2
62
256
6
ByLayer
370
18
48
1
60
0
100
AcDbTrace
10
-36
20
-31.692985
30
0
11
-32.500002
21
-31.232202
31
0
12
-32.499998
22
-32.153769
32
0
13
-32.499998
23
-32.153769
33
0
39
0
210
0
220
0
230
1
0
SOLID
5
13E
100
AcDbEntity
8
SK2
62
256
6
ByLayer
370
18
48
1
60
0
100
AcDbTrace
10
38
20
-31.692985
30
0
11
34.500002
21
-32.153769
31
0
12
34.499998
22
-31.232202
32
0
13
34.499998
23
-31.232202
33
0
39
0
210
0
220
0
230
1
0
ENDBLK
5
140
100
AcDbEntity
8
0
100
AcDbBlockEnd
0
BLOCK
5
145
100
AcDbEntity
8
0
100
AcDbBlockBegin
2
*D5
70
1
10
0
20
0
30
0
3
*D5
0
LINE
5
147
100
AcDbEntity
8
0
62
256
6
ByLayer
370
-2
48
1
60
0
100
AcDbLine
10
18.22
20
3.4875
30
0
11
18.22
21
15.509119
31
0
39
0
210
0
220
0
230
1
0
LINE
5
148
100
AcDbEntity
8
0
62
256
6
ByLayer
370
-2
48
1
60
0
100
AcDbLine
10
38
20
1.5875
30
0
11
38
21
15.509119
31
0
39
0
210
0
220
0
230
1
0
LINE
5
149
100
AcDbEntity
8
0
62
256
6
ByLayer
370
-2
48
1
60
0
100
AcDbLine
10
21.72
20
13.509119
30
0
11
34.5
21
13.509119
31
0
39
0
210
0
220
0
230
1
0
SOLID
5
14A
100
AcDbEntity
8
0
62
256
6
ByLayer
370
-1
48
1
60
0
100
AcDbTrace
10
21.72
20
14.092453
30
0
11
21.72
21
12.925786
31
0
12
18.22
22
13.509119
32
0
13
18.22
23
13.509119
33
0
39
0
210
0
220
0
230
1
0
SOLID
5
14B
100
AcDbEntity
8
0
62
256
6
ByLayer
370
-1
48
1
60
0
100
AcDbTrace
10
34.5
20
12.925786
30
0
11
34.5
21
14.092453
31
0
12
38
22
13.509119
32
0
13
38
23
13.509119
33
0
39
0
210
0
220
0
230
1
0
MTEXT
5
14C
100
AcDbEntity
8
0
62
256
6
ByLayer
370
18
48
1
60
0
100
AcDbMText
10
28.11
20
20.509119
30
0
210
0
220
0
230
1
1
\A1;19.78
40
3.5
41
0
44
1
50
0
71
5
72
5
7
iso_b_vert
0
POINT
5
14D
100
AcDbEntity
8
Defpoints
62
0
6
ByLayer
370
-1
48
1
60
0
100
AcDbPoint
10
18.22
20
1.9
30
0
39
0
210
0
220
0
230
1
50
360
0
POINT
5
14E
100
AcDbEntity
8
Defpoints
62
0
6
ByLayer
370
-1
48
1
60
0
100
AcDbPoint
10
38
20
0
30
0
39
0
210
0
220
0
230
1
50
360
0
POINT
5
14F
100
AcDbEntity
8
Defpoints
62
0
6
ByLayer
370
-1
48
1
60
0
100
AcDbPoint
10
38
20
13.509119
30
0
39
0
210
0
220
0
230
1
50
360
0
ENDBLK
5
146
100
AcDbEntity
8
0
100
AcDbBlockEnd
0
BLOCK
5
157
100
AcDbEntity
8
0
100
AcDbBlockBegin
2
_U2
70
0
10
0
20
0
30
0
3
_U2
0
MTEXT
5
151
100
AcDbEntity
8
SK2
62
256
6
ByLayer
370
13
48
1
60
0
100
AcDbMText
10
23.410135
20
14.541753
30
0
210
0
220
0
230
1
1
\W0.6713;19,78
40
3.5
41
0
44
1.084337
50
0
71
7
72
5
7
iso_b_vert
0
LINE
5
152
100
AcDbEntity
8
SK2
62
256
6
ByLayer
370
13
48
1
60
0
100
AcDbLine
10
18.22
20
3.4875
30
0
11
18.22
21
15.509119
31
0
39
0
210
0
220
0
230
1
0
LINE
5
153
100
AcDbEntity
8
SK2
62
256
6
ByLayer
370
13
48
1
60
0
100
AcDbLine
10
38
20
1.5875
30
0
11
38
21
15.509119
31
0
39
0
210
0
220
0
230
1
0
LINE
5
154
100
AcDbEntity
8
SK2
62
256
6
ByLayer
370
13
48
1
60
0
100
AcDbLine
10
18.22
20
13.509119
30
0
11
38
21
13.509119
31
0
39
0
210
0
220
0
230
1
0
SOLID
5
155
100
AcDbEntity
8
SK2
62
256
6
ByLayer
370
18
48
1
60
0
100
AcDbTrace
10
18.22
20
13.509119
30
0
11
21.719998
21
13.969903
31
0
12
21.720002
22
13.048335
32
0
13
21.720002
23
13.048335
33
0
39
0
210
0
220
0
230
1
0
SOLID
5
156
100
AcDbEntity
8
SK2
62
256
6
ByLayer
370
18
48
1
60
0
100
AcDbTrace
10
38
20
13.509119
30
0
11
34.500002
21
13.048335
31
0
12
34.499998
22
13.969903
32
0
13
34.499998
23
13.969903
33
0
39
0
210
0
220
0
230
1
0
ENDBLK
5
158
100
AcDbEntity
8
0
100
AcDbBlockEnd
0
BLOCK
5
15D
100
AcDbEntity
8
0
100
AcDbBlockBegin
2
*D7
70
1
10
0
20
0
30
0
3
*D7
0
LINE
5
15F
100
AcDbEntity
8
0
62
256
6
ByLayer
370
-2
48
1
60
0
100
AcDbLine
10
38
20
-1.5875
30
0
11
38
21
-16.702503
31
0
39
0
210
0
220
0
230
1
0
LINE
5
160
100
AcDbEntity
8
0
62
256
6
ByLayer
370
-2
48
1
60
0
100
AcDbLine
10
37.2184
20
-3.4875
30
0
11
37.2184
21
-16.702503
31
0
39
0
210
0
220
0
230
1
0
LINE
5
161
100
AcDbEntity
8
0
62
256
6
ByLayer
370
-2
48
1
60
0
100
AcDbLine
10
38
20
-14.702503
30
0
11
66.166667
21
-14.702503
31
0
39
0
210
0
220
0
230
1
0
LINE
5
162
100
AcDbEntity
8
0
62
256
6
ByLayer
370
-2
48
1
60
0
100
AcDbLine
10
41.5
20
-14.702503
30
0
11
45
21
-14.702503
31
0
39
0
210
0
220
0
230
1
0
LINE
5
163
100
AcDbEntity
8
0
62
256
6
ByLayer
370
-2
48
1
60
0
100
AcDbLine
10
33.7184
20
-14.702503
30
0
11
30.2184
21
-14.702503
31
0
39
0
210
0
220
0
230
1
0
SOLID
5
164
100
AcDbEntity
8
0
62
256
6
ByLayer
370
-1
48
1
60
0
100
AcDbTrace
10
41.5
20
-14.11917
30
0
11
41.5
21
-15.285837
31
0
12
38
22
-14.702503
32
0
13
38
23
-14.702503
33
0
39
0
210
0
220
0
230
1
0
SOLID
5
165
100
AcDbEntity
8
0
62
256
6
ByLayer
370
-1
48
1
60
0
100
AcDbTrace
10
33.7184
20
-15.285837
30
0
11
33.7184
21
-14.11917
31
0
12
37.2184
22
-14.702503
32
0
13
37.2184
23
-14.702503
33
0
39
0
210
0
220
0
230
1
0
MTEXT
5
166
100
AcDbEntity
8
0
62
256
6
ByLayer
370
18
48
1
60
0
100
AcDbMText
10
55.583333
20
-7.702503
30
0
210
0
220
0
230
1
1
\A1;0.78
40
3.5
41
0
44
1
50
0
71
5
72
5
7
iso_b_vert
0
POINT
5
167
100
AcDbEntity
8
Defpoints
62
0
6
ByLayer
370
-1
48
1
60
0
100
AcDbPoint
10
38
20
0
30
0
39
0
210
0
220
0
230
1
50
360
0
POINT
5
168
100
AcDbEntity
8
Defpoints
62
0
6
ByLayer
370
-1
48
1
60
0
100
AcDbPoint
10
37.2184
20
-1.9
30
0
39
0
210
0
220
0
230
1
50
360
0
POINT
5
169
100
AcDbEntity
8
Defpoints
62
0
6
ByLayer
370
-1
48
1
60
0
100
AcDbPoint
10
37.2184
20
-14.702503
30
0
39
0
210
0
220
0
230
1
50
360
0
ENDBLK
5
15E
100
AcDbEntity
8
0
100
AcDbBlockEnd
0
BLOCK
5
171
100
AcDbEntity
8
0
100
AcDbBlockBegin
2
_U3
70
0
10
0
20
0
30
0
3
_U3
0
MTEXT
5
16B
100
AcDbEntity
8
SK2
62
256
6
ByLayer
370
13
48
1
60
0
100
AcDbMText
10
44.15186
20
-13.66987
30
0
210
0
220
0
230
1
1
\W0.7150;0,78
40
3.5
41
0
44
1.084337
50
0
71
7
72
5
7
iso_b_vert
0
LINE
5
16C
100
AcDbEntity
8
SK2
62
256
6
ByLayer
370
13
48
1
60
0
100
AcDbLine
10
38
20
-1.5875
30
0
11
38
21
-16.702503
31
0
39
0
210
0
220
0
230
1
0
LINE
5
16D
100
AcDbEntity
8
SK2
62
256
6
ByLayer
370
13
48
1
60
0
100
AcDbLine
10
37.2184
20
-3.4875
30
0
11
37.2184
21
-16.702503
31
0
39
0
210
0
220
0
230
1
0
LINE
5
16E
100
AcDbEntity
8
SK2
62
256
6
ByLayer
370
13
48
1
60
0
100
AcDbLine
10
28.4684
20
-14.702503
30
0
11
51.996491
21
-14.702503
31
0
39
0
210
0
220
0
230
1
0
SOLID
5
16F
100
AcDbEntity
8
SK2
62
256
6
ByLayer
370
18
48
1
60
0
100
AcDbTrace
10
38
20
-14.702503
30
0
11
41.499998
21
-14.241719
31
0
12
41.500002
22
-15.163287
32
0
13
41.500002
23
-15.163287
33
0
39
0
210
0
220
0
230
1
0
SOLID
5
170
100
AcDbEntity
8
SK2
62
256
6
ByLayer
370
18
48
1
60
0
100
AcDbTrace
10
37.2184
20
-14.702503
30
0
11
33.718402
21
-15.163287
31
0
12
33.718398
22
-14.241719
32
0
13
33.718398
23
-14.241719
33
0
39
0
210
0
220
0
230
1
0
ENDBLK
5
172
100
AcDbEntity
8
0
100
AcDbBlockEnd
0
BLOCK
5
177
100
AcDbEntity
8
0
100
AcDbBlockBegin
2
*D9
70
1
10
0
20
0
30
0
3
*D9
0
LINE
5
179
100
AcDbEntity
8
0
62
256
6
ByLayer
370
-2
48
1
60
0
100
AcDbLine
10
-36
20
-4.5875
30
0
11
-36
21
-23.343428
31
0
39
0
210
0
220
0
230
1
0
LINE
5
17A
100
AcDbEntity
8
0
62
256
6
ByLayer
370
-2
48
1
60
0
100
AcDbLine
10
37.2184
20
-3.4875
30
0
11
37.2184
21
-23.343428
31
0
39
0
210
0
220
0
230
1
0
LINE
5
17B
100
AcDbEntity
8
0
62
256
6
ByLayer
370
-2
48
1
60
0
100
AcDbLine
10
-32.5
20
-21.343428
30
0
11
33.7184
21
-21.343428
31
0
39
0
210
0
220
0
230
1
0
SOLID
5
17C
100
AcDbEntity
8
0
62
256
6
ByLayer
370
-1
48
1
60
0
100
AcDbTrace
10
-32.5
20
-20.760095
30
0
11
-32.5
21
-21.926762
31
0
12
-36
22
-21.343428
32
0
13
-36
23
-21.343428
33
0
39
0
210
0
220
0
230
1
0
SOLID
5
17D
100
AcDbEntity
8
0
62
256
6
ByLayer
370
-1
48
1
60
0
100
AcDbTrace
10
33.7184
20
-21.926762
30
0
11
33.7184
21
-20.760095
31
0
12
37.2184
22
-21.343428
32
0
13
37.2184
23
-21.343428
33
0
39
0
210
0
220
0
230
1
0
MTEXT
5
17E
100
AcDbEntity
8
0
62
256
6
ByLayer
370
18
48
1
60
0
100
AcDbMText
10
0.6092
20
-14.343428
30
0
210
0
220
0
230
1
1
\A1;73.22
40
3.5
41
0
44
1
50
0
71
5
72
5
7
iso_b_vert
0
POINT
5
17F
100
AcDbEntity
8
Defpoints
62
0
6
ByLayer
370
-1
48
1
60
0
100
AcDbPoint
10
-36
20
-3
30
0
39
0
210
0
220
0
230
1
50
360
0
POINT
5
180
100
AcDbEntity
8
Defpoints
62
0
6
ByLayer
370
-1
48
1
60
0
100
AcDbPoint
10
37.2184
20
-1.9
30
0
39
0
210
0
220
0
230
1
50
360
0
POINT
5
181
100
AcDbEntity
8
Defpoints
62
0
6
ByLayer
370
-1
48
1
60
0
100
AcDbPoint
10
37.2184
20
-21.343428
30
0
39
0
210
0
220
0
230
1
50
360
0
ENDBLK
5
178
100
AcDbEntity
8
0
100
AcDbBlockEnd
0
BLOCK
5
189
100
AcDbEntity
8
0
100
AcDbBlockBegin
2
_U4
70
0
10
0
20
0
30
0
3
_U4
0
MTEXT
5
183
100
AcDbEntity
8
SK2
62
256
6
ByLayer
370
13
48
1
60
0
100
AcDbMText
10
-4.528099
20
-20.310795
30
0
210
0
220
0
230
1
1
\W0.7317;73,22
40
3.5
41
0
44
1.084337
50
0
71
7
72
5
7
iso_b_vert
0
LINE
5
184
100
AcDbEntity
8
SK2
62
256
6
ByLayer
370
13
48
1
60
0
100
AcDbLine
10
-36
20
-4.5875
30
0
11
-36
21
-23.343428
31
0
39
0
210
0
220
0
230
1
0
LINE
5
185
100
AcDbEntity
8
SK2
62
256
6
ByLayer
370
13
48
1
60
0
100
AcDbLine
10
37.2184
20
-3.4875
30
0
11
37.2184
21
-23.343428
31
0
39
0
210
0
220
0
230
1
0
LINE
5
186
100
AcDbEntity
8
SK2
62
256
6
ByLayer
370
13
48
1
60
0
100
AcDbLine
10
-36
20
-21.343428
30
0
11
37.2184
21
-21.343428
31
0
39
0
210
0
220
0
230
1
0
SOLID
5
187
100
AcDbEntity
8
SK2
62
256
6
ByLayer
370
18
48
1
60
0
100
AcDbTrace
10
-36
20
-21.343428
30
0
11
-32.500002
21
-20.882645
31
0
12
-32.499998
22
-21.804212
32
0
13
-32.499998
23
-21.804212
33
0
39
0
210
0
220
0
230
1
0
SOLID
5
188
100
AcDbEntity
8
SK2
62
256
6
ByLayer
370
18
48
1
60
0
100
AcDbTrace
10
37.2184
20
-21.343428
30
0
11
33.718402
21
-21.804212
31
0
12
33.718398
22
-20.882645
32
0
13
33.718398
23
-20.882645
33
0
39
0
210
0
220
0
230
1
0
ENDBLK
5
18A
100
AcDbEntity
8
0
100
AcDbBlockEnd
0
ENDSEC
0
SECTION
2
ENTITIES
0
ARC
5
A8
100
AcDbEntity
8
1
62
256
6
ByLayer
370
18
48
1
60
0
100
AcDbCircle
39
0
10
1.613319
20
-2.685912
30
0
40
0.85
210
0
220
0
230
1
100
AcDbArc
50
89.896868
51
161.624547
0
ARC
5
A9
100
AcDbEntity
8
1
62
256
6
ByLayer
370
18
48
1
60
0
100
AcDbCircle
39
0
10
1.613319
20
2.685912
30
0
40
0.85
210
0
220
0
230
1
100
AcDbArc
50
198.375453
51
270.103132
0
ARC
5
AA
100
AcDbEntity
8
1
62
256
6
ByLayer
370
18
48
1
60
0
100
AcDbCircle
39
0
10
0
20
-2.15
30
0
40
0.85
210
0
220
0
230
1
100
AcDbArc
50
270
51
341.624547
0
ARC
5
AB
100
AcDbEntity
8
1
62
256
6
ByLayer
370
18
48
1
60
0
100
AcDbCircle
39
0
10
0
20
2.15
30
0
40
0.85
210
0
220
0
230
1
100
AcDbArc
50
18.375453
51
90
0
ELLIPSE
5
AC
100
AcDbEntity
8
1
62
256
6
ByLayer
370
13
48
1
60
0
100
AcDbEllipse
10
6.770309
20
1.908924
30
0
11
0.0676526325952217
21
0.292272340981722
31
0
210
0
220
0
230
1
40
0.461066
41
-3.1187520388906
42
-2.67248419962981
0
ELLIPSE
5
AD
100
AcDbEntity
8
1
62
256
6
ByLayer
370
13
48
1
60
0
100
AcDbEllipse
10
8.593196
20
-46.791874
30
0
11
-57.7164272605288
21
47.2408865128173
31
0
210
0
220
0
230
1
40
0.51515
41
-1.17176640201464
42
-1.11407477769875
0
ELLIPSE
5
AE
100
AcDbEntity
8
1
62
256
6
ByLayer
370
13
48
1
60
0
100
AcDbEllipse
10
82.194174
20
43.317348
30
0
11
-61.7
21
7.55582120308407E-15
31
0
210
0
220
0
230
1
40
0.99863
41
0.766050002025855
42
0.768547798894504
0
ELLIPSE
5
AF
100
AcDbEntity
8
1
62
256
6
ByLayer
370
13
48
1
60
0
100
AcDbEllipse
10
9.527884
20
-45.649922
30
0
11
-57.7164272605288
21
47.2408865128173
31
0
210
0
220
0
230
1
40
0.51515
41
-1.17176640201464
42
-1.14835361054836
0
ELLIPSE
5
B0
100
AcDbEntity
8
1
62
256
6
ByLayer
370
18
48
1
60
0
100
AcDbEllipse
10
6.76896
20
-2.78368
30
0
11
-1
21
1.22460635382238E-16
31
0
210
0
220
0
230
1
40
1
41
-1.57106105966545
42
-1.22212935594612
0
ELLIPSE
5
B1
100
AcDbEntity
8
1
62
256
6
ByLayer
370
18
48
1
60
0
100
AcDbEllipse
10
6.76896
20
2.78368
30
0
11
-1
21
1.22460635382238E-16
31
0
210
0
220
0
230
1
40
1
41
1.22173807669324
42
1.57297541888657
0
POINT
5
70
100
AcDbEntity
8
80
62
256
6
ByLayer
370
18
48
1
60
0
100
AcDbPoint
10
0
20
0
30
0
39
0
210
0
220
0
230
1
50
360
0
POINT
5
72
100
AcDbEntity
8
81
62
256
6
ByLayer
370
18
48
1
60
0
100
AcDbPoint
10
38
20
0
30
0
39
0
210
0
220
0
230
1
50
360
0
POINT
5
74
100
AcDbEntity
8
1
62
256
6
ByLayer
370
18
48
1
60
1
100
AcDbPoint
10
37.2184
20
-1.9
30
0
39
0
210
0
220
0
230
1
50
360
0
POINT
5
76
100
AcDbEntity
8
1
62
256
6
ByLayer
370
18
48
1
60
1
100
AcDbPoint
10
-36
20
-3
30
0
39
0
210
0
220
0
230
1
50
360
0
POINT
5
77
100
AcDbEntity
8
1
62
256
6
ByLayer
370
18
48
1
60
1
100
AcDbPoint
10
18.22
20
1.9
30
0
39
0
210
0
220
0
230
1
50
360
0
POINT
5
78
100
AcDbEntity
8
1
62
256
6
ByLayer
370
18
48
1
60
1
100
AcDbPoint
10
37.2184
20
-1.9
30
0
39
0
210
0
220
0
230
1
50
360
0
POINT
5
79
100
AcDbEntity
8
1
62
256
6
ByLayer
370
18
48
1
60
1
100
AcDbPoint
10
-36
20
-3
30
0
39
0
210
0
220
0
230
1
50
360
0
POINT
5
7A
100
AcDbEntity
8
1
62
256
6
ByLayer
370
18
48
1
60
1
100
AcDbPoint
10
37.2184
20
-1.9
30
0
39
0
210
0
220
0
230
1
50
360
0
SPLINE
5
B2
100
AcDbEntity
8
1
62
256
6
ByLayer
370
18
48
1
60
0
100
AcDbSpline
70
4
71
3
72
8
73
4
40
0
40
0
40
0
40
0
40
1
40
1
40
1
40
1
41
1
10
37.8367579577538
20
-0.488949625368434
30
0
41
1
10
37.8200066710265
20
-0.534882063861602
30
0
41
1
10
37.8032762087647
20
-0.580822008732497
30
0
41
1
10
37.786566591404
20
-0.626769467347401
30
0
0
SPLINE
5
B3
100
AcDbEntity
8
1
62
256
6
ByLayer
370
18
48
1
60
0
100
AcDbSpline
70
4
71
4
72
10
73
5
40
0
40
0
40
0
40
0
40
0
40
1
40
1
40
1
40
1
40
1
41
1
10
9.816165380695
20
0.0437999625467569
30
0
41
1
10
9.74409491827183
20
0.0581252978652742
30
0
41
1
10
9.67202445584863
20
0.0724506331837631
30
0
41
1
10
9.59995399342546
20
0.0867759685022804
30
0
41
1
10
9.52788353100226
20
0.101101303820769
30
0
0
SPLINE
5
B4
100
AcDbEntity
8
1
62
256
6
ByLayer
370
18
48
1
60
0
100
AcDbSpline
70
4
71
3
72
14
73
10
40
0
40
0
40
0
40
0
40
0.25
40
0.25
40
0.5
40
0.5
40
0.75
40
0.75
40
1
40
1
40
1
40
1
41
1
10
37.6464497358692
20
-0.407751113450075
30
0
41
1
10
37.6672103061618
20
-0.413001119636505
30
0
41
1
10
37.6909940502504
20
-0.405584637787683
30
0
41
1
10
37.7458201102558
20
-0.364910310570565
30
0
41
1
10
37.7753037340481
20
-0.332831054640252
30
0
41
1
10
37.8388195686805
20
-0.246367380739912
30
0
41
1
10
37.871168484554
20
-0.194273548788971
30
0
41
1
10
37.9369726229053
20
-0.0738286077599071
30
0
41
1
10
37.9688873634606
20
-0.0082671396365868
30
0
41
1
10
37.9997004584345
20
0.0621541340131841
30
0
0
SPLINE
5
B5
100
AcDbEntity
8
1
62
256
6
ByLayer
370
18
48
1
60
0
100
AcDbSpline
70
4
71
3
72
38
73
34
40
0
40
0
40
0
40
0
40
0.007670439799626
40
0.007670439799626
40
0.08715217124614
40
0.08715217124614
40
0.126893036969397
40
0.126893036969397
40
0.166633902692654
40
0.166633902692654
40
0.246115634139168
40
0.246115634139168
40
0.285856499862424
40
0.285856499862424
40
0.325597365585681
40
0.325597365585681
40
0.484560828478708
40
0.484560828478708
40
0.524301694201965
40
0.524301694201965
40
0.564042559925223
40
0.564042559925223
40
0.643524291371738
40
0.643524291371738
40
0.723006022818253
40
0.723006022818253
40
0.762746888541511
40
0.762746888541511
40
0.802487754264768
40
0.802487754264768
40
0.961451217157799
40
0.961451217157799
40
1
40
1
40
1
40
1
41
1
10
16.1677194665156
20
1.86210673438134
30
0
41
1
10
16.1983243181872
20
1.86214086492274
30
0
41
1
10
16.2289324701151
20
1.8619709008629
30
0
41
1
10
16.5767660208423
20
1.85771792350096
30
0
41
1
10
16.8944647438963
20
1.83183545017954
30
0
41
1
10
17.3757450949218
20
1.7602051943839
30
0
41
1
10
17.536513232293
20
1.73077540753741
30
0
41
1
10
17.8558735155173
20
1.66220770022807
30
0
41
1
10
18.014990492878
20
1.62301700463783
30
0
41
1
10
18.4913704732206
20
1.49164419291029
30
0
41
1
10
18.8075557907945
20
1.38546674339597
30
0
41
1
10
19.2838479328985
20
1.20350460301191
30
0
41
1
10
19.4428148369078
20
1.13888650288848
30
0
41
1
10
19.7618760680414
20
1.0026428823038
30
0
41
1
10
19.9225044960159
20
0.930921621536584
30
0
41
1
10
20.7244705946792
20
0.559821233621989
30
0
41
1
10
21.3535182874279
20
0.226737519965155
30
0
41
1
10
22.1484563308198
20
-0.187896727043551
30
0
41
1
10
22.3078117661122
20
-0.270860425376128
30
0
41
1
10
22.6279299496775
20
-0.435553228171756
30
0
41
1
10
22.7887930707247
20
-0.517119079381956
30
0
41
1
10
23.267752519371
20
-0.754893380371499
30
0
41
1
10
23.5843633062493
20
-0.905435603616041
30
0
41
1
10
24.2176046301916
20
-1.18156769156303
30
0
41
1
10
24.5338961788887
20
-1.30770578853134
30
0
41
1
10
25.0119152557092
20
-1.4725987551077
30
0
41
1
10
25.1721047361044
20
-1.5237378560274
30
0
41
1
10
25.4926707427398
20
-1.61662753578375
30
0
41
1
10
25.652187718405
20
-1.65809194084821
30
0
41
1
10
26.4474195428224
20
-1.83981101262785
30
0
41
1
10
27.0752818370249
20
-1.90331666434807
30
0
41
1
10
27.8698338480822
20
-1.8696591069193
30
0
41
1
10
28.0256891373274
20
-1.85771831454792
30
0
41
1
10
28.180476176152
20
-1.84067091190113
30
0
0
SPLINE
5
B6
100
AcDbEntity
8
1
62
256
6
ByLayer
370
18
48
1
60
0
100
AcDbSpline
70
4
71
3
72
8
73
4
40
0
40
0
40
0
40
0
40
1
40
1
40
1
40
1
41
1
10
37.9997004584345
20
0.0621541340132126
30
0
41
1
10
38.0000998471849
20
0.0207180446748225
30
0
41
1
10
38.0000998471849
20
-0.0207180446635675
30
0
41
1
10
37.9997004584346
20
-0.0621541340019292
30
0
0
SPLINE
5
B7
100
AcDbEntity
8
1
62
256
6
ByLayer
370
18
48
1
60
0
100
AcDbSpline
70
4
71
3
72
14
73
10
40
0
40
0
40
0
40
0
40
0.25
40
0.25
40
0.5
40
0.5
40
0.75
40
0.75
40
1
40
1
40
1
40
1
41
1
10
8.59319596044608
20
-1.04085074576011
30
0
41
1
10
8.64888567797601
20
-0.893703857888568
30
0
41
1
10
8.72052975888096
20
-0.74149131303264
30
0
41
1
10
8.8816814092213
20
-0.456774938360581
30
0
41
1
10
8.97108045552864
20
-0.324462842923452
30
0
41
1
10
9.14999903591973
20
-0.105869543919653
30
0
41
1
10
9.23939808222707
20
-0.0197355459729351
30
0
41
1
10
9.40054973256738
20
0.0893212784358468
30
0
41
1
10
9.47219381347236
20
0.112170663591542
30
0
41
1
10
9.52788353100229
20
0.101101303820769
30
0
0
SPLINE
5
B8
100
AcDbEntity
8
1
62
256
6
ByLayer
370
18
48
1
60
0
100
AcDbSpline
70
4
71
2
72
6
73
3
40
0
40
0
40
0
40
1
40
1
40
1
41
0.500000011104332
10
37.247606470813
20
-1.7542234108089
30
0
41
0.499999988895668
10
37.2474010166375
20
-1.75395520764894
30
0
41
0.500000011104332
10
37.2471957893687
20
-1.7536865326671
30
0
0
SPLINE
5
B9
100
AcDbEntity
8
1
62
256
6
ByLayer
370
18
48
1
60
0
100
AcDbSpline
70
4
71
3
72
8
73
4
40
0
40
0
40
0
40
0
40
1
40
1
40
1
40
1
41
1
10
37.2789185812194
20
1.8579469529397
30
0
41
1
10
37.3864372724596
20
1.60400828462028
30
0
41
1
10
37.4982320701807
20
1.33593274099937
30
0
41
1
10
37.6072817594465
20
1.04790429216996
30
0
0
SPLINE
5
BA
100
AcDbEntity
8
1
62
256
6
ByLayer
370
18
48
1
60
0
100
AcDbSpline
70
4
71
3
72
8
73
4
40
0
40
0
40
0
40
0
40
1
40
1
40
1
40
1
41
1
10
37.8367579577596
20
0.488949625352575
30
0
41
1
10
37.8200066861399
20
0.534882022420447
30
0
41
1
10
37.8032762238434
20
0.580821967269458
30
0
41
1
10
37.786566591404
20
0.626769467347344
30
0
0
SPLINE
5
BB
100
AcDbEntity
8
1
62
256
6
ByLayer
370
13
48
1
60
0
100
AcDbSpline
70
4
71
3
72
8
73
4
40
0
40
0
40
0
40
0
40
1
40
1
40
1
40
1
41
1
10
6.42328464175051
20
1.73528317513438
30
0
41
1
10
6.53574334354107
20
1.68359073772513
30
0
41
1
10
6.65204945551062
20
1.65051714815556
30
0
41
1
10
6.77088706891649
20
1.63412350184782
30
0
0
SPLINE
5
BC
100
AcDbEntity
8
1
62
256
6
ByLayer
370
18
48
1
60
0
100
AcDbSpline
70
4
71
3
72
12
73
8
40
0
40
0
40
0
40
0
40
0.24999999999999
40
0.24999999999999
40
0.49999999999998
40
0.49999999999998
40
1
40
1
40
1
40
1
41
1
10
6.42328464175216
20
1.73528317513362
30
0
41
1
10
6.42315776130806
20
1.72402305903324
30
0
41
1
10
6.43763393396196
20
1.71277013588778
30
0
41
1
10
6.47403866019221
20
1.69201521844602
30
0
41
1
10
6.49675279588769
20
1.68231003971573
30
0
41
1
10
6.56924389769452
20
1.65514841176849
30
0
41
1
10
6.62470510246186
20
1.63901566581581
30
0
41
1
10
6.68272878528524
20
1.62493061776743
30
0
0
SPLINE
5
BD
100
AcDbEntity
8
1
62
256
6
ByLayer
370
18
48
1
60
0
100
AcDbSpline
70
4
71
3
72
26
73
22
40
0
40
0
40
0
40
0
40
0.0625000000000023
40
0.0625000000000023
40
0.125000000000005
40
0.125000000000005
40
0.187500000000007
40
0.187500000000007
40
0.250000000000009
40
0.250000000000009
40
0.375000000000008
40
0.375000000000008
40
0.500000000000006
40
0.500000000000006
40
0.625000000000005
40
0.625000000000005
40
0.750000000000003
40
0.750000000000003
40
0.875000000000002
40
0.875000000000002
40
1
40
1
40
1
40
1
41
1
10
4.98155145883658
20
0.726855969679946
30
0
41
1
10
5.01355268382713
20
0.783874589009514
30
0
41
1
10
5.06022799682796
20
0.83092067867392
30
0
41
1
10
5.16537101173742
20
0.910062108092944
30
0
41
1
10
5.22328716984714
20
0.942002602152286
30
0
41
1
10
5.34545087854144
20
0.997270346333067
30
0
41
1
10
5.40889544535622
20
1.02003916388315
30
0
41
1
10
5.53752632715967
20
1.0589323336618
30
0
41
1
10
5.60301202546248
20
1.07510976669423
30
0
41
1
10
5.80217201829115
20
1.11643938588924
30
0
41
1
10
5.93883973601089
20
1.13444953801982
30
0
41
1
10
6.21033964533817
20
1.15653326879459
30
0
41
1
10
6.3462286869225
20
1.16069578097708
30
0
41
1
10
6.61825082607822
20
1.15716320272784
30
0
41
1
10
6.75438480947565
20
1.14942117607302
30
0
41
1
10
7.02689966852114
20
1.12153410148608
30
0
41
1
10
7.16146577095037
20
1.10152296955883
30
0
41
1
10
7.42583999665453
20
1.04895781186909
30
0
41
1
10
7.55588791677809
20
1.01635702234716
30
0
41
1
10
7.81183055463208
20
0.937370153817426
30
0
41
1
10
7.93823001514454
20
0.890729079842771
30
0
41
1
10
8.06150299672112
20
0.837181470901214
30
0
0
SPLINE
5
BE
100
AcDbEntity
8
1
62
256
6
ByLayer
370
13
48
1
60
0
100
AcDbSpline
70
4
71
3
72
26
73
22
40
0
40
0
40
0
40
0
40
0.110005232811625
40
0.110005232811625
40
0.220010465623251
40
0.220010465623251
40
0.440020931246501
40
0.440020931246501
40
0.495023547652316
40
0.495023547652316
40
0.55002616405813
40
0.55002616405813
40
0.660031396869759
40
0.660031396869759
40
0.770036629681389
40
0.770036629681389
40
0.880041862493018
40
0.880041862493018
40
0.990047095304647
40
0.990047095304647
40
1
40
1
40
1
40
1
41
1
10
37.2196325883361
20
-1.60532992627219
30
0
41
1
10
36.9016777820356
20
-1.52539203450883
30
0
41
1
10
36.5855374760826
20
-1.42728767578399
30
0
41
1
10
35.9533423089209
20
-1.20026537764897
30
0
41
1
10
35.6367551552372
20
-1.07120991550147
30
0
41
1
10
34.6820150640743
20
-0.648999158968252
30
0
41
1
10
34.0564191426035
20
-0.328901891597468
30
0
41
1
10
33.2654601035254
20
0.075467791449995
30
0
41
1
10
33.1066987421625
20
0.156588780678618
30
0
41
1
10
32.7882225245347
20
0.318011865142807
30
0
41
1
10
32.6297354635194
20
0.397667423934507
30
0
41
1
10
32.1553108214993
20
0.631314225236508
30
0
41
1
10
31.8405884917205
20
0.780553156506613
30
0
41
1
10
31.2100415091719
20
1.05823538414157
30
0
41
1
10
30.894333268782
20
1.18677397436701
30
0
41
1
10
30.2566300168765
20
1.41359711326194
30
0
41
1
10
29.9406301469764
20
1.51103320367835
30
0
41
1
10
29.3095412979279
20
1.66740946009179
30
0
41
1
10
28.9947120819325
20
1.72746976695996
30
0
41
1
10
28.6493216502712
20
1.76975982694068
30
0
41
1
10
28.6206403938818
20
1.77310370370853
30
0
41
1
10
28.59193922745
20
1.77628103283496
30
0
0
SPLINE
5
BF
100
AcDbEntity
8
1
62
256
6
ByLayer
370
13
48
1
60
0
100
AcDbSpline
70
4
71
3
72
32
73
28
40
0
40
0
40
0
40
0
40
0.0260009827172976
40
0.0260009827172976
40
0.123400884445569
40
0.123400884445569
40
0.22080078617384
40
0.22080078617384
40
0.318200687902112
40
0.318200687902112
40
0.366900638766247
40
0.366900638766247
40
0.415600589630383
40
0.415600589630383
40
0.610400393086922
40
0.610400393086922
40
0.659100343951057
40
0.659100343951057
40
0.707800294815192
40
0.707800294815192
40
0.805200196543461
40
0.805200196543461
40
0.853900147407595
40
0.853900147407595
40
0.90260009827173
40
0.90260009827173
40
1
40
1
40
1
40
1
41
1
10
16.5538673085349
20
-1.79958392491071
30
0
41
1
10
16.4694826863831
20
-1.79954808320735
30
0
41
1
10
16.3850956458504
20
-1.79800499218709
30
0
41
1
10
15.9843364431871
20
-1.78346364625332
30
0
41
1
10
15.6676759234562
20
-1.75110636009845
30
0
41
1
10
15.0285499898825
20
-1.64465292556452
30
0
41
1
10
14.7110604113693
20
-1.57155898481901
30
0
41
1
10
14.0780613353046
20
-1.39108341360259
30
0
41
1
10
13.762244503148
20
-1.28383751502955
30
0
41
1
10
13.2861290131911
20
-1.1014649675875
30
0
41
1
10
13.1269579596842
20
-1.03726427682597
30
0
41
1
10
12.8074306603246
20
-0.902345327439832
30
0
41
1
10
12.6477857060318
20
-0.831891851998108
30
0
41
1
10
11.8530435164472
20
-0.470796300936911
30
0
41
1
10
11.2245296839466
20
-0.149802835892359
30
0
41
1
10
10.4257911799945
20
0.247377927083932
30
0
41
1
10
10.2657672015424
20
0.326326499063384
30
0
41
1
10
9.94756429269299
20
0.481102745039323
30
0
41
1
10
9.78898206842308
20
0.557102452571968
30
0
41
1
10
9.31367835796632
20
0.778810540865607
30
0
41
1
10
8.99760033302428
20
0.918790678989382
30
0
41
1
10
8.5213830487744
20
1.11079958840312
30
0
41
1
10
8.36225660241104
20
1.17177036820115
30
0
41
1
10
8.04280966433655
20
1.28691128696843
30
0
41
1
10
7.88264878000189
20
1.34095892923051
30
0
41
1
10
7.40476851400786
20
1.48925999208251
30
0
41
1
10
7.08799541349356
20
1.57133502134366
30
0
41
1
10
6.77088706891664
20
1.6341235018478
30
0
0
SPLINE
5
C0
100
AcDbEntity
8
1
62
256
6
ByLayer
370
18
48
1
60
0
100
AcDbSpline
70
4
71
3
72
20
73
16
40
0
40
0
40
0
40
0
40
0.150624399627108
40
0.150624399627108
40
0.301248799254217
40
0.301248799254217
40
0.451873198881326
40
0.451873198881326
40
0.602497598508434
40
0.602497598508434
40
0.753121998135543
40
0.753121998135543
40
0.903746397762651
40
0.903746397762651
40
1
40
1
40
1
40
1
41
1
10
9.81616538069522
20
0.0437999625467
30
0
41
1
10
10.1035388965435
20
-0.104986802569527
30
0
41
1
10
10.3898213022022
20
-0.253123107890161
30
0
41
1
10
10.9631031394533
20
-0.542559892927244
30
0
41
1
10
11.2505689068819
20
-0.684561593891232
30
0
41
1
10
11.8238750297434
20
-0.95084577004431
30
0
41
1
10
12.1096994446776
20
-1.07657351695502
30
0
41
1
10
12.6844664611333
20
-1.30521924052289
30
0
41
1
10
12.9706877504185
20
-1.40775630770125
30
0
41
1
10
13.5433981702845
20
-1.5845805806434
30
0
41
1
10
13.8309738653846
20
-1.65877277756701
30
0
41
1
10
14.4037641923699
20
-1.77376507424944
30
0
41
1
10
14.6898251739345
20
-1.81464744293558
30
0
41
1
10
15.1601822772611
20
-1.85296915295754
30
0
41
1
10
15.3433093178057
20
-1.86060300625692
30
0
41
1
10
15.526318770357
20
-1.8609618791636
30
0
0
SPLINE
5
C1
100
AcDbEntity
8
1
62
256
6
ByLayer
370
18
48
1
60
0
100
AcDbSpline
70
4
71
3
72
40
73
36
40
0
40
0
40
0
40
0
40
0.002649076204841
40
0.002649076204841
40
0.0649835089420384
40
0.0649835089420384
40
0.127317941679236
40
0.127317941679236
40
0.189652374416433
40
0.189652374416433
40
0.251986807153631
40
0.251986807153631
40
0.314321239890828
40
0.314321239890828
40
0.376655672628026
40
0.376655672628026
40
0.438990105365223
40
0.438990105365223
40
0.501324538102421
40
0.501324538102421
40
0.563658970839618
40
0.563658970839618
40
0.625993403576815
40
0.625993403576815
40
0.688327836314013
40
0.688327836314013
40
0.75066226905121
40
0.75066226905121
40
0.812996701788408
40
0.812996701788408
40
0.875331134525605
40
0.875331134525605
40
0.937665567262803
40
0.937665567262803
40
1
40
1
40
1
40
1
41
1
10
23.5295101854931
20
1.15431045189484
30
0
41
1
10
23.5416575143654
20
1.15933231127389
30
0
41
1
10
23.55380488674
20
1.16433410769236
30
0
41
1
10
23.8517903066303
20
1.28653263753119
30
0
41
1
10
24.13847560804
20
1.3933481052334
30
0
41
1
10
24.7103812330348
20
1.57709809336876
30
0
41
1
10
24.9956337703578
20
1.6548230829973
30
0
41
1
10
25.5684246467741
20
1.77792997442322
30
0
41
1
10
25.8540888034027
20
1.82280821966353
30
0
41
1
10
26.425342642273
20
1.87721386735524
30
0
41
1
10
26.7122070103596
20
1.88673151930527
30
0
41
1
10
27.2834175052099
20
1.86959375513686
30
0
41
1
10
27.5687118620826
20
1.84316224635521
30
0
41
1
10
28.1412518170957
20
1.75524427284944
30
0
41
1
10
28.4267300381674
20
1.69408398728533
30
0
41
1
10
28.9976944238245
20
1.54074925686837
30
0
41
1
10
29.2842399534086
20
1.44811998997722
30
0
41
1
10
29.8554643913762
20
1.23788730315175
30
0
41
1
10
30.1402260689793
20
1.11967182618133
30
0
41
1
10
30.7127874053942
20
0.863959652549795
30
0
41
1
10
30.9980073024994
20
0.726570405708372
30
0
41
1
10
31.5686113595663
20
0.440480923265085
30
0
41
1
10
31.8550392052059
20
0.291219409204018
30
0
41
1
10
32.4258256103807
20
-0.0090959394395895
30
0
41
1
10
32.710769404644
20
-0.160228041119723
30
0
41
1
10
33.282635724647
20
-0.458962889280201
30
0
41
1
10
33.5678792576044
20
-0.604462961775027
30
0
41
1
10
34.1382453665598
20
-0.882306718706843
30
0
41
1
10
34.4245350604707
20
-1.01469595685546
30
0
41
1
10
34.9949554482123
20
-1.25696680028173
30
0
41
1
10
35.2796090819575
20
-1.36720412691645
30
0
41
1
10
35.8516148721483
20
-1.56046666789885
30
0
41
1
10
36.1365027080674
20
-1.64316592578243
30
0
41
1
10
36.7080933574252
20
-1.77566811931172
30
0
41
1
10
36.9935093477312
20
-1.82571332805733
30
0
41
1
10
37.2789185812194
20
-1.8579469529397
30
0
0
SPLINE
5
C2
100
AcDbEntity
8
1
62
256
6
ByLayer
370
18
48
1
60
0
100
AcDbSpline
70
4
71
3
72
32
73
28
40
0
40
0
40
0
40
0
40
0.0942556075060326
40
0.0942556075060326
40
0.188511215012065
40
0.188511215012065
40
0.235639018765081
40
0.235639018765081
40
0.282766822518098
40
0.282766822518098
40
0.37702243002413
40
0.37702243002413
40
0.471278037530163
40
0.471278037530163
40
0.51840584128318
40
0.51840584128318
40
0.565533645036197
40
0.565533645036197
40
0.754044860048266
40
0.754044860048266
40
0.801172663801282
40
0.801172663801282
40
0.848300467554298
40
0.848300467554298
40
0.942556075060331
40
0.942556075060331
40
1
40
1
40
1
40
1
41
1
10
6.68272878528524
20
1.62493061776743
30
0
41
1
10
7.00487289513987
20
1.54673125080185
30
0
41
1
10
7.32724362957956
20
1.44832299860028
30
0
41
1
10
7.96781970805313
20
1.2210525796246
30
0
41
1
10
8.2864046845304
20
1.09180778120262
30
0
41
1
10
8.76534906003508
20
0.880151631402953
30
0
41
1
10
8.92514896177698
20
0.806591337449248
30
0
41
1
10
9.24576081482155
20
0.654614673974237
30
0
41
1
10
9.40706176313074
20
0.575969796878695
30
0
41
1
10
9.88826801136736
20
0.33662134216425
30
0
41
1
10
10.2061913840525
20
0.172266986547982
30
0
41
1
10
10.8412190968134
20
-0.156234314475625
30
0
41
1
10
11.1581912978627
20
-0.320642530165713
30
0
41
1
10
11.6365608925795
20
-0.560139928014507
30
0
41
1
10
11.7964878136063
20
-0.638815965100832
30
0
41
1
10
12.1179071917493
20
-0.79262473987589
30
0
41
1
10
12.2785905095035
20
-0.86731529960295
30
0
41
1
10
13.0771528368648
20
-1.22503967812307
30
0
41
1
10
13.7069307391101
20
-1.46237314814732
30
0
41
1
10
14.506137139837
20
-1.66525091986506
30
0
41
1
10
14.6671097048635
20
-1.70125620427524
30
0
41
1
10
14.9878586397417
20
-1.76248734067451
30
0
41
1
10
15.1475207806176
20
-1.78774396031707
30
0
41
1
10
15.625067468685
20
-1.84736202860947
30
0
41
1
10
15.9416874124913
20
-1.86545255773592
30
0
41
1
10
16.452200397311
20
-1.85925953165369
30
0
41
1
10
16.6456925926191
20
-1.84874266742546
30
0
41
1
10
16.8399677343775
20
-1.83008423758858
30
0
0
SPLINE
5
C3
100
AcDbEntity
8
1
62
256
6
ByLayer
370
18
48
1
60
0
100
AcDbSpline
70
4
71
3
72
38
73
34
40
0
40
0
40
0
40
0
40
0.0307715008872005
40
0.0307715008872005
40
0.0792329258428434
40
0.0792329258428434
40
0.127694350798486
40
0.127694350798486
40
0.224617200709769
40
0.224617200709769
40
0.273078625665408
40
0.273078625665408
40
0.321540050621047
40
0.321540050621047
40
0.418462900532326
40
0.418462900532326
40
0.515385750443605
40
0.515385750443605
40
0.563847175399246
40
0.563847175399246
40
0.612308600354887
40
0.612308600354887
40
0.806154300177445
40
0.806154300177445
40
0.854615725133084
40
0.854615725133084
40
0.903077150088723
40
0.903077150088723
40
0.951538575044361
40
0.951538575044361
40
0.975769287522181
40
0.975769287522181
40
1
40
1
40
1
40
1
41
1
10
27.4095837696096
20
1.88231135660331
30
0
41
1
10
27.5105813118207
20
1.88256344932694
30
0
41
1
10
27.6117914354178
20
1.88056798473406
30
0
41
1
10
27.8731481092292
20
1.86955281042492
30
0
41
1
10
28.0338403079348
20
1.85710725706667
30
0
41
1
10
28.3528338577309
20
1.82137765888626
30
0
41
1
10
28.5116849395099
20
1.79809656943459
30
0
41
1
10
28.9873445506303
20
1.71291518476005
30
0
41
1
10
29.302815625673
20
1.63530757538544
30
0
41
1
10
29.7778105974331
20
1.49152235640233
30
0
41
1
10
29.9363568610603
20
1.43895587946159
30
0
41
1
10
30.25452936728
20
1.32517485174159
30
0
41
1
10
30.4144269493186
20
1.26386297961307
30
0
41
1
10
30.8950997262645
20
1.06884503648635
30
0
41
1
10
31.2121120033244
20
0.92536216064093
30
0
41
1
10
31.8446506292773
20
0.621010744872621
30
0
41
1
10
32.1601626400995
20
0.460133631595283
30
0
41
1
10
32.6358327913621
20
0.212276965508266
30
0
41
1
10
32.7947563184819
20
0.128503354801836
30
0
41
1
10
33.1139630640925
20
-0.0402019802166365
30
0
41
1
10
33.2744987637801
20
-0.125236300849906
30
0
41
1
10
34.0712037536002
20
-0.544426604098106
30
0
41
1
10
34.6982521970758
20
-0.864242775042527
30
0
41
1
10
35.49281378069
20
-1.20233773733062
30
0
41
1
10
35.6524656252986
20
-1.26697416172627
30
0
41
1
10
35.9725398830397
20
-1.38866640888725
30
0
41
1
10
36.1320531107385
20
-1.44533506352374
30
0
41
1
10
36.4507196809696
20
-1.54958274205239
30
0
41
1
10
36.6098650046837
20
-1.59717804022915
30
0
41
1
10
36.8486676548708
20
-1.66139415704646
30
0
41
1
10
36.9282804175323
20
-1.68160492203722
30
0
41
1
10
37.0875904969096
20
-1.71956404910685
30
0
41
1
10
37.1670555159137
20
-1.73748145591108
30
0
41
1
10
37.2471957893719
20
-1.75368653266196
30
0
0
SPLINE
5
C4
100
AcDbEntity
8
1
62
256
6
ByLayer
370
18
48
1
60
0
100
AcDbSpline
70
4
71
3
72
10
73
6
40
0
40
0
40
0
40
0
40
0.5
40
0.5
40
1
40
1
40
1
40
1
41
1
10
37.2471957893629
20
-1.75368653268083
30
0
41
1
10
37.2484123779753
20
-1.7212295057796
30
0
41
1
10
37.2458145633256
20
-1.69309996619197
30
0
41
1
10
37.2357807219647
20
-1.64373355101802
30
0
41
1
10
37.228502496733
20
-1.62310481232785
30
0
41
1
10
37.2196325883333
20
-1.60532992626656
30
0
0
SPLINE
5
C5
100
AcDbEntity
8
1
62
256
6
ByLayer
370
18
48
1
60
0
100
AcDbSpline
70
4
71
3
72
42
73
38
40
0
40
0
40
0
40
0
40
0.0092007461716424
40
0.0092007461716424
40
0.0683722423815361
40
0.0683722423815361
40
0.12754373859143
40
0.12754373859143
40
0.186715234801324
40
0.186715234801324
40
0.245886731011217
40
0.245886731011217
40
0.305058227221111
40
0.305058227221111
40
0.364229723431005
40
0.364229723431005
40
0.423401219640899
40
0.423401219640899
40
0.482572715850792
40
0.482572715850792
40
0.541744212060686
40
0.541744212060686
40
0.60091570827058
40
0.60091570827058
40
0.660087204480473
40
0.660087204480473
40
0.719258700690367
40
0.719258700690367
40
0.778430196900261
40
0.778430196900261
40
0.837601693110155
40
0.837601693110155
40
0.896773189320048
40
0.896773189320048
40
0.955944685529942
40
0.955944685529942
40
1
40
1
40
1
40
1
41
1
10
12.2632000535151
20
1.13678420654199
30
0
41
1
10
12.3078210555622
20
1.1550973466596
30
0
41
1
10
12.3524707833679
20
1.17314971846366
30
0
41
1
10
12.6845503587342
20
1.30525052325396
30
0
41
1
10
12.9707793123558
20
1.40778792262864
30
0
41
1
10
13.5435065880951
20
1.58461070827082
30
0
41
1
10
13.831090593936
20
1.65880108088871
30
0
41
1
10
14.4038974733142
20
1.773786960233
30
0
41
1
10
14.6899665698946
20
1.81466521360068
30
0
41
1
10
15.2639298719595
20
1.86141559428387
30
0
41
1
10
15.5502797429763
20
1.86689583284766
30
0
41
1
10
16.122792467012
20
1.84231306615322
30
0
41
1
10
16.4101372552241
20
1.81201606629031
30
0
41
1
10
16.9827558222645
20
1.71756784313237
30
0
41
1
10
17.2683874095105
20
1.65335892017703
30
0
41
1
10
17.842375244071
20
1.49413608251382
30
0
41
1
10
18.1282255302945
20
1.39920950234225
30
0
41
1
10
18.7006197694381
20
1.18512090639919
30
0
41
1
10
18.9878275637828
20
1.06500069483678
30
0
41
1
10
19.560040264567
20
0.807137835474947
30
0
41
1
10
19.8456382039155
20
0.669494342007567
30
0
41
1
10
20.4191155837114
20
0.382512935100124
30
0
41
1
10
20.7052032076292
20
0.234544806955398
30
0
41
1
10
21.2768877368102
20
-0.0641623033428971
30
0
41
1
10
21.564138832684
20
-0.214421183563331
30
0
41
1
10
22.1361280430998
20
-0.50806476354731
30
0
41
1
10
22.4215188797784
20
-0.65128458521275
30
0
41
1
10
22.9947219778682
20
-0.923802667288669
30
0
41
1
10
23.2805054169507
20
-1.05226849169858
30
0
41
1
10
23.8521977967872
20
-1.28669008450814
30
0
41
1
10
24.1388921449288
20
-1.39349597280179
30
0
41
1
10
24.7108134148625
20
-1.57722289339642
30
0
41
1
10
24.9960738123957
20
-1.65493526992677
30
0
41
1
10
25.5688846424562
20
-1.77801120011259
30
0
41
1
10
25.8545533984831
20
-1.82287216336877
30
0
41
1
10
26.3528558295271
20
-1.87029560237448
30
0
41
1
10
26.5662073089182
20
-1.8807308417648
30
0
41
1
10
26.7792143455451
20
-1.88119636424315
30
0
0
SPLINE
5
C6
100
AcDbEntity
8
1
62
256
6
ByLayer
370
18
48
1
60
0
100
AcDbSpline
70
4
71
3
72
12
73
8
40
0
40
0
40
0
40
0
40
0.31022715001131
40
0.31022715001131
40
0.655113575005655
40
0.655113575005655
40
1
40
1
40
1
40
1
41
1
10
34.796440737288
20
1.17232134409681
30
0
41
1
10
35.0529118199105
20
1.27927542234923
30
0
41
1
10
35.3090905090478
20
1.37718661070843
30
0
41
1
10
35.8523742888754
20
1.56069911695022
30
0
41
1
10
36.1370910357786
20
1.64331027383866
30
0
41
1
10
36.7079281615804
20
1.77562185285302
30
0
41
1
10
36.993882127926
20
1.82575542920736
30
0
41
1
10
37.2789185812194
20
1.8579469529397
30
0
0
SPLINE
5
C7
100
AcDbEntity
8
1
62
256
6
ByLayer
370
18
48
1
60
0
100
AcDbSpline
70
4
71
3
72
8
73
4
40
0
40
0
40
0
40
0
40
1
40
1
40
1
40
1
41
1
10
37.9997004584345
20
0.0621541340131557
30
0
41
1
10
37.9435733242109
20
0.20240508532541
30
0
41
1
10
37.8893767722774
20
0.344667547158849
30
0
41
1
10
37.8367579577538
20
0.488949625368264
30
0
0
SPLINE
5
C8
100
AcDbEntity
8
1
62
256
6
ByLayer
370
18
48
1
60
0
100
AcDbSpline
70
4
71
3
72
8
73
4
40
0
40
0
40
0
40
0
40
1
40
1
40
1
40
1
41
1
10
37.1504921997097
20
0.0482722939327402
30
0
41
1
10
37.246668458819
20
0.0116196260066488
30
0
41
1
10
37.343524063533
20
-0.0214277394750866
30
0
41
1
10
37.4411323595568
20
-0.0504805552008065
30
0
0
SPLINE
5
C9
100
AcDbEntity
8
1
62
256
6
ByLayer
370
18
48
1
60
0
100
AcDbSpline
70
4
71
3
72
12
73
8
40
0
40
0
40
0
40
0
40
0.208466250645874
40
0.208466250645874
40
0.604233125322937
40
0.604233125322937
40
1
40
1
40
1
40
1
41
1
10
6.42533497523985
20
1.84456471241248
30
0
41
1
10
6.42521511077479
20
1.84457699540766
30
0
41
1
10
6.42509163144197
20
1.84298345101374
30
0
41
1
10
6.42472260159792
20
1.83378283593132
30
0
41
1
10
6.42446590565908
20
1.82209372586701
30
0
41
1
10
6.42390989257251
20
1.78731540516503
30
0
41
1
10
6.42360875358156
20
1.76404676335423
30
0
41
1
10
6.42328464175051
20
1.73528317513382
30
0
0
SPLINE
5
CA
100
AcDbEntity
8
1
62
256
6
ByLayer
370
18
48
1
60
0
100
AcDbSpline
70
4
71
3
72
10
73
6
40
0
40
0
40
0
40
0
40
0.5
40
0.5
40
1
40
1
40
1
40
1
41
1
10
8.06150299672112
20
0.837181470901214
30
0
41
1
10
8.35521155139321
20
0.709599655103233
30
0
41
1
10
8.64831019167798
20
0.579654303159288
30
0
41
1
10
9.23322757822291
20
0.31521450008907
30
0
41
1
10
9.52504638288451
20
0.180715880769696
30
0
41
1
10
9.8161653806952
20
0.0437999625466432
30
0
0
SPLINE
5
CB
100
AcDbEntity
8
1
62
256
6
ByLayer
370
18
48
1
60
0
100
AcDbSpline
70
4
71
3
72
28
73
24
40
0
40
0
40
0
40
0
40
0.162615496170676
40
0.162615496170676
40
0.243923244256018
40
0.243923244256018
40
0.325230992341359
40
0.325230992341359
40
0.4065387404267
40
0.4065387404267
40
0.487846488512041
40
0.487846488512041
40
0.650461984682718
40
0.650461984682718
40
0.731769732768059
40
0.731769732768059
40
0.8130774808534
40
0.8130774808534
40
0.894385228938741
40
0.894385228938741
40
0.975692977024083
40
0.975692977024083
40
1
40
1
40
1
40
1
41
1
10
37.1504921997097
20
0.0482722939327402
30
0
41
1
10
36.851509765232
20
0.201554136272932
30
0
41
1
10
36.553140394159
20
0.353525846060222
30
0
41
1
10
36.1041013042907
20
0.575205137970528
30
0
41
1
10
35.953814394667
20
0.647721026299592
30
0
41
1
10
35.6543425502649
20
0.788831459250446
30
0
41
1
10
35.5048273772472
20
0.857256170121246
30
0
41
1
10
35.2057603978294
20
0.989248251853724
30
0
41
1
10
35.0561241020475
20
1.05274351073277
30
0
41
1
10
34.7565168902249
20
1.17443073165774
30
0
41
1
10
34.6063005111906
20
1.23214163794918
30
0
41
1
10
34.1572767931182
20
1.39493269925504
30
0
41
1
10
33.8582609252547
20
1.4901039364137
30
0
41
1
10
33.4085017293235
20
1.6083444621363
30
0
41
1
10
33.2583595128399
20
1.6434283924074
30
0
41
1
10
32.95900890057
20
1.7050955165993
30
0
41
1
10
32.809360229801
20
1.73141468511804
30
0
41
1
10
32.5101666693788
20
1.77394826426371
30
0
41
1
10
32.3603571567187
20
1.79019265725037
30
0
41
1
10
32.0602516954687
20
1.81435033259473
30
0
41
1
10
31.9101961777649
20
1.82210219924647
30
0
41
1
10
31.7156877374942
20
1.82607762556884
30
0
41
1
10
31.6709299953173
20
1.8265845751942
30
0
41
1
10
31.6261750113833
20
1.82667331732472
30
0
0
SPLINE
5
CC
100
AcDbEntity
8
1
62
256
6
ByLayer
370
18
48
1
60
0
100
AcDbSpline
70
4
71
3
72
68
73
64
40
0
40
0
40
0
40
0
40
0.0222936669066432
40
0.0222936669066432
40
0.0536063557017316
40
0.0536063557017316
40
0.0849190444968202
40
0.0849190444968202
40
0.116231733291909
40
0.116231733291909
40
0.147544422086997
40
0.147544422086997
40
0.178857110882086
40
0.178857110882086
40
0.210169799677174
40
0.210169799677174
40
0.241482488472263
40
0.241482488472263
40
0.272795177267351
40
0.272795177267351
40
0.30410786606244
40
0.30410786606244
40
0.335420554857528
40
0.335420554857528
40
0.366733243652617
40
0.366733243652617
40
0.398045932447705
40
0.398045932447705
40
0.429358621242794
40
0.429358621242794
40
0.460671310037883
40
0.460671310037883
40
0.491983998832971
40
0.491983998832971
40
0.52329668762806
40
0.52329668762806
40
0.554609376423148
40
0.554609376423148
40
0.585922065218237
40
0.585922065218237
40
0.617234754013325
40
0.617234754013325
40
0.648547442808414
40
0.648547442808414
40
0.679860131603502
40
0.679860131603502
40
0.711172820398591
40
0.711172820398591
40
0.742485509193679
40
0.742485509193679
40
0.773798197988768
40
0.773798197988768
40
0.805110886783856
40
0.805110886783856
40
0.836423575578945
40
0.836423575578945
40
0.867736264374033
40
0.867736264374033
40
0.93036164196421
40
0.93036164196421
40
0.992987019554388
40
0.992987019554388
40
1
40
1
40
1
40
1
41
1
10
23.5320945618637
20
-1.15234763139725
30
0
41
1
10
23.4253348057845
20
-1.19412561560856
30
0
41
1
10
23.3185332840749
20
-1.2344460315727
30
0
41
1
10
23.0612536391013
20
-1.32688331294815
30
0
41
1
10
22.910910704811
20
-1.37714319541766
30
0
41
1
10
22.6106783125105
20
-1.47050744823971
30
0
41
1
10
22.4606895881532
20
-1.51395650495246
30
0
41
1
10
22.1607364024329
20
-1.59182750532267
30
0
41
1
10
22.0106793317806
20
-1.62612341267527
30
0
41
1
10
21.7098383814968
20
-1.68642152576547
30
0
41
1
10
21.5594913329593
20
-1.71313710489377
30
0
41
1
10
21.2592780842538
20
-1.75648827528906
30
0
41
1
10
21.1093844062946
20
-1.7728641014412
30
0
41
1
10
20.8092249312465
20
-1.79593831330629
30
0
41
1
10
20.6589935544081
20
-1.80370591504575
30
0
41
1
10
20.3579124845048
20
-1.80963241918096
30
0
41
1
10
20.207840109776
20
-1.80718590979387
30
0
41
1
10
19.9078157471939
20
-1.79244886800464
30
0
41
1
10
19.7578383545504
20
-1.78086359638232
30
0
41
1
10
19.4576800795556
20
-1.74895696277122
30
0
41
1
10
19.3072828949906
20
-1.727942878894
30
0
41
1
10
19.0063259556925
20
-1.67606984447798
30
0
41
1
10
18.8561580316682
20
-1.64587973991826
30
0
41
1
10
18.5559504917426
20
-1.57796156416833
30
0
41
1
10
18.4058676225151
20
-1.53997601082679
30
0
41
1
10
18.105489164381
20
-1.45385033472391
30
0
41
1
10
17.9547966199888
20
-1.40723334646842
30
0
41
1
10
17.6538427523599
20
-1.30775617918363
30
0
41
1
10
17.5036215545457
20
-1.25505516098883
30
0
41
1
10
17.2035262765109
20
-1.14103009974431
30
0
41
1
10
17.0533687676633
20
-1.08086271029566
30
0
41
1
10
16.7528409371573
20
-0.955874854724982
30
0
41
1
10
16.6020171135965
20
-0.891151716826869
30
0
41
1
10
16.3013739541176
20
-0.756384480231048
30
0
41
1
10
16.1513464803637
20
-0.686424221204078
30
0
41
1
10
15.8511384690774
20
-0.54442164522564
30
0
41
1
10
15.7009599033694
20
-0.472204596308188
30
0
41
1
10
15.4004160269804
20
-0.324683819624596
30
0
41
1
10
15.2496122791777
20
-0.249657169466218
30
0
41
1
10
14.9488869235366
20
-0.0991941463513513
30
0
41
1
10
14.7986359276151
20
-0.0238022719606477
30
0
41
1
10
14.4982331356822
20
0.127032774259902
30
0
41
1
10
14.3479430952716
20
0.202182122445123
30
0
41
1
10
14.0469614431094
20
0.351542934002907
30
0
41
1
10
13.8961414693953
20
0.425342304475066
30
0
41
1
10
13.5954692901758
20
0.570479545587318
30
0
41
1
10
13.4451935777278
20
0.641235792563378
30
0
41
1
10
13.1447109323787
20
0.77919255960856
30
0
41
1
10
12.9942675870615
20
0.84633578146989
30
0
41
1
10
12.6930285813176
20
0.976595849697929
30
0
41
1
10
12.5424393255819
20
1.0390835403995
30
0
41
1
10
12.2419901043892
20
1.15742813437382
30
0
41
1
10
12.0916989263328
20
1.21366413947018
30
0
41
1
10
11.7911556552567
20
1.32026004125353
30
0
41
1
10
11.6406303558777
20
1.37028514229482
30
0
41
1
10
11.3392742057615
20
1.46189506703402
30
0
41
1
10
11.1888227546676
20
1.50380220647597
30
0
41
1
10
10.7378207600682
20
1.6183163306487
30
0
41
1
10
10.43691303522
20
1.67721553188008
30
0
41
1
10
9.83408647973334
20
1.76066477628612
30
0
41
1
10
9.5332341733795
20
1.78279477492299
30
0
41
1
10
9.19789609585888
20
1.78742510287972
30
0
41
1
10
9.16414034303776
20
1.78765881785049
30
0
41
1
10
9.1303950378668
20
1.78765549838405
30
0
0
SPLINE
5
CD
100
AcDbEntity
8
1
62
256
6
ByLayer
370
13
48
1
60
0
100
AcDbSpline
70
4
71
3
72
11
73
7
40
0
40
0
40
0
40
0
40
0.333685633078598
40
0.333685633078598
40
0.667371266157197
40
1
40
1
40
1
40
1
41
1
10
6.77088706891664
20
1.63412350184785
30
0
41
1
10
6.77079864338452
20
1.66638739255427
30
0
41
1
10
6.77071369321541
20
1.69367215185625
30
0
41
1
10
6.77055320394589
20
1.73743638074674
30
0
41
1
10
6.77040219150447
20
1.77049337633903
30
0
41
1
10
6.7702670097332
20
1.78278954894225
30
0
41
1
10
6.77020284878031
20
1.78359092168898
30
0
0
SPLINE
5
CE
100
AcDbEntity
8
1
62
256
6
ByLayer
370
18
48
1
60
0
100
AcDbSpline
70
4
71
4
72
10
73
5
40
0
40
0
40
0
40
0
40
0
40
1
40
1
40
1
40
1
40
1
41
1
10
8.59319596044625
20
-1.04085074576014
30
0
41
1
10
8.5268520389709
20
-1.21614884399605
30
0
41
1
10
8.46050811749552
20
-1.39144694223199
30
0
41
1
10
8.39416419602017
20
-1.56674504046791
30
0
41
1
10
8.32782027454479
20
-1.74204313870385
30
0
0
SPLINE
5
CF
100
AcDbEntity
8
1
62
256
6
ByLayer
370
18
48
1
60
0
100
AcDbSpline
70
4
71
3
72
8
73
4
40
0
40
0
40
0
40
0
40
1
40
1
40
1
40
1
41
1
10
37.2789185812194
20
-1.8579469529397
30
0
41
1
10
37.2654871452476
20
-1.83359838308746
30
0
41
1
10
37.2552497654764
20
-1.79906927486752
30
0
41
1
10
37.2476064708093
20
-1.75422341079272
30
0
0
SPLINE
5
D0
100
AcDbEntity
8
1
62
256
6
ByLayer
370
18
48
1
60
0
100
AcDbSpline
70
4
71
1
72
4
73
2
40
0
40
0
40
1
40
1
41
1
10
37.2476064708058
20
-1.7542234108225
30
0
41
1
10
37.6418860276027
20
-0.423157934381635
30
0
0
SPLINE
5
D1
100
AcDbEntity
8
1
62
256
6
ByLayer
370
13
48
1
60
0
100
AcDbSpline
70
4
71
3
72
102
73
98
40
0
40
0
40
0
40
0
40
0.0008018567155726
40
0.0155792590096255
40
0.0229679601566515
40
0.0303566613036779
40
0.0451340635977312
40
0.0525227647447569
40
0.0599114658917849
40
0.0746888681858362
40
0.0820775693328627
40
0.0894662704798891
40
0.0977785592702941
40
0.104243672773942
40
0.110708786277588
40
0.119021075067994
40
0.133798477362046
40
0.155964580803126
40
0.163353281950152
40
0.178130684244204
40
0.192908086538258
40
0.21876854055285
40
0.222462891126363
40
0.22985159227339
40
0.237240293420414
40
0.252017695714468
40
0.259406396861493
40
0.266795098008521
40
0.275107386798926
40
0.281572500302574
40
0.288037613806223
40
0.296349902596626
40
0.311127304890679
40
0.333293408331758
40
0.340682109478784
40
0.355459511772836
40
0.37023691406689
40
0.39609736808148
40
0.399791718654995
40
0.40718041980202
40
0.414569120949047
40
0.4293465232431
40
0.436735224390126
40
0.444123925537153
40
0.452436214327557
40
0.458901327831205
40
0.465366441334854
40
0.473678730125257
40
0.488456132419312
40
0.51062223586039
40
0.518010937007416
40
0.532788339301468
40
0.547565741595521
40
0.573426195610113
40
0.577120546183626
40
0.584509247330652
40
0.591897948477679
40
0.606675350771731
40
0.614064051918758
40
0.621452753065784
40
0.629765041856189
40
0.636230155359837
40
0.642695268863485
40
0.651007557653889
40
0.665784959947943
40
0.687951063389021
40
0.695339764536048
40
0.7101171668301
40
0.724894569124153
40
0.750755023138744
40
0.754449373712258
40
0.761838074859285
40
0.769226776006311
40
0.784004178300364
40
0.79139287944739
40
0.798781580594416
40
0.813558982888469
40
0.820947684035495
40
0.828336385182522
40
0.843113787476574
40
0.8505024886236
40
0.857891189770627
40
0.866203478561032
40
0.872668592064679
40
0.879133705568326
40
0.887445994358732
40
0.902223396652785
40
0.928083850667376
40
0.93177820124089
40
0.939166902387916
40
0.946555603534943
40
0.961333005828995
40
0.968721706976022
40
0.976110408123047
40
0.990887810417101
40
0.998276511564127
40
1
40
1
40
1
40
1
41
1
10
22.7732818333693
20
-0.829965086352615
30
0
41
1
10
22.7711975986796
20
-0.830342650850099
30
0
41
1
10
22.730702985508
20
-0.837670208616771
30
0
41
1
10
22.67100126768
20
-0.848240421656442
30
0
41
1
10
22.5941756833375
20
-0.861410545151472
30
0
41
1
10
22.5173560952741
20
-0.874267067777964
30
0
41
1
10
22.4405328294135
20
-0.886678697130804
30
0
41
1
10
22.3637070835217
20
-0.898640268038093
30
0
41
1
10
22.2868873222047
20
-0.910269902542439
30
0
41
1
10
22.2100638876415
20
-0.921438024187466
30
0
41
1
10
22.1332380721169
20
-0.932141478951877
30
0
41
1
10
22.0732201396872
20
-0.940239135377482
30
0
41
1
10
22.0156021560596
20
-0.947756216298359
30
0
41
1
10
21.9603854441531
20
-0.954729196221393
30
0
41
1
10
21.9051705085748
20
-0.961491409865744
30
0
41
1
10
21.8283521559105
20
-0.970551981242323
30
0
41
1
10
21.7107269132174
20
-0.983600671040932
30
0
41
1
10
21.5954858615258
20
-0.995172863624504
30
0
41
1
10
21.4802469947542
20
-1.00571897194467
30
0
41
1
10
21.3842237368173
20
-1.01380994320297
30
0
41
1
10
21.2401900769547
20
-1.02460121000811
30
0
41
1
10
21.1249460561949
20
-1.03186491999873
30
0
41
1
10
21.0289067557583
20
-1.03706437786673
30
0
41
1
10
20.9808937489752
20
-1.0394565098907
30
0
41
1
10
20.9040738741507
20
-1.04291074374987
30
0
41
1
10
20.8272504581519
20
-1.04584975930771
30
0
41
1
10
20.7504246902675
20
-1.04827626623779
30
0
41
1
10
20.6904067899229
20
-1.04986611516131
30
0
41
1
10
20.6327888382033
20
-1.05110924318481
30
0
41
1
10
20.5775721601802
20
-1.05204606652023
30
0
41
1
10
20.5223572663501
20
-1.05274723401109
30
0
41
1
10
20.445538988027
20
-1.05333442710511
30
0
41
1
10
20.3279138929104
20
-1.05332936998954
30
0
41
1
10
20.212673028122
20
-1.05208196792984
30
0
41
1
10
20.0974343684761
20
-1.04975755001894
30
0
41
1
10
20.0014113015321
20
-1.04706759254046
30
0
41
1
10
19.8573779380688
20
-1.0416396069073
30
0
41
1
10
19.7421341235877
20
-1.03594865414158
30
0
41
1
10
19.646094933201
20
-1.03035965190225
30
0
41
1
10
19.5980819720355
20
-1.02733717128743
30
0
41
1
10
19.5212621565463
20
-1.02212564402856
30
0
41
1
10
19.4444387815463
20
-1.01641532105586
30
0
41
1
10
19.3676130356783
20
-1.01021462644204
30
0
41
1
10
19.3075951342215
20
-1.00506530887435
30
0
41
1
10
19.2499771622061
20
-0.999851350785605
30
0
41
1
10
19.1947604456724
20
-0.994611637386157
30
0
41
1
10
19.1395454962734
20
-0.989144086523453
30
0
41
1
10
19.0627271187507
20
-0.981162205364541
30
0
41
1
10
18.9451018316225
20
-0.968082939106665
30
0
41
1
10
18.8298607510807
20
-0.954168575130922
30
0
41
1
10
18.7146218965245
20
-0.939277609412784
30
0
41
1
10
18.6185986835424
20
-0.926166576229235
30
0
41
1
10
18.474565143829
20
-0.905261706538909
30
0
41
1
10
18.3593212545424
20
-0.887412523445761
30
0
41
1
10
18.2632820613432
20
-0.871832967807507
30
0
41
1
10
18.2152691087012
20
-0.863830381059955
30
0
41
1
10
18.1384493227405
20
-0.850707531575097
30
0
41
1
10
18.0616259970128
20
-0.837181197691649
30
0
41
1
10
17.984800310071
20
-0.823263378369916
30
0
41
1
10
17.924782457816
20
-0.812132936462774
30
0
41
1
10
17.8671645353732
20
-0.801231388583005
30
0
41
1
10
17.8119478673227
20
-0.790589847236134
30
0
41
1
10
17.7567329670991
20
-0.779762974069541
30
0
41
1
10
17.679914658273
20
-0.764394956102166
30
0
41
1
10
17.5622894714878
20
-0.740182362020988
30
0
41
1
10
17.4470484668713
20
-0.715668167096226
30
0
41
1
10
17.3318096515081
20
-0.690422538468255
30
0
41
1
10
17.2357864548957
20
-0.668837226271705
30
0
41
1
10
17.0917529252295
20
-0.635556316946179
30
0
41
1
10
16.9765090330358
20
-0.60819108564462
30
0
41
1
10
16.8804698374971
20
-0.584921639876683
30
0
41
1
10
16.8324568891607
20
-0.573119616754752
30
0
41
1
10
16.755637130534
20
-0.554019617588523
30
0
41
1
10
16.6788138638931
20
-0.534668558081194
30
0
41
1
10
16.6019882432354
20
-0.515081120798129
30
0
41
1
10
16.5251686330655
20
-0.495240646059784
30
0
41
1
10
16.4483453669723
20
-0.475178976252067
30
0
41
1
10
16.3715196343779
20
-0.454911089286668
30
0
41
1
10
16.2946998743331
20
-0.43441281638647
30
0
41
1
10
16.2178764176136
20
-0.413724321430209
30
0
41
1
10
16.1410505556554
20
-0.392860869483144
30
0
41
1
10
16.0810325963969
20
-0.376424593881836
30
0
41
1
10
16.023414598908
20
-0.36054938524876
30
0
41
1
10
15.9681978917877
20
-0.345249508859098
30
0
41
1
10
15.9129829633627
20
-0.329862353759893
30
0
41
1
10
15.8361645928502
20
-0.308311167318322
30
0
41
1
10
15.7089401699331
20
-0.272270823744094
30
0
41
1
10
15.5936960694929
20
-0.239431911956842
30
0
41
1
10
15.4976566956464
20
-0.211909358233413
30
0
41
1
10
15.4496436701873
20
-0.198050817652557
30
0
41
1
10
15.3728238233805
20
-0.175793877997649
30
0
41
1
10
15.2960005120236
20
-0.153474474564746
30
0
41
1
10
15.2191748638979
20
-0.131107374798432
30
0
41
1
10
15.1423552230271
20
-0.108633433050528
30
0
41
1
10
15.0655319273533
20
-0.0861299227710219
30
0
41
1
10
15.0034325278005
20
-0.0679280871625565
30
0
41
1
10
14.9797471415581
20
-0.0609701360947099
30
0
41
1
10
14.9752672919586
20
-0.0596536886503429
30
0
0
SPLINE
5
D2
100
AcDbEntity
8
1
62
256
6
ByLayer
370
18
48
1
60
0
100
AcDbSpline
70
4
71
3
72
12
73
8
40
0
40
0
40
0
40
0
40
0.499999999999995
40
0.499999999999995
40
0.749999999999997
40
0.749999999999997
40
1
40
1
40
1
40
1
41
1
10
6.76948503376019
20
-1.40698185138734
30
0
41
1
10
7.02408253740023
20
-1.49448247909549
30
0
41
1
10
7.28172361032773
20
-1.56276830363964
30
0
41
1
10
7.67147897785333
20
-1.64538249761174
30
0
41
1
10
7.80190331716372
20
-1.66994057108386
30
0
41
1
10
8.06400881222197
20
-1.71121979531983
30
0
41
1
10
8.1956614677851
20
-1.72815133276379
30
0
41
1
10
8.32782027454488
20
-1.74204313870379
30
0
0
SPLINE
5
D3
100
AcDbEntity
8
1
62
256
6
ByLayer
370
18
48
1
60
0
100
AcDbSpline
70
4
71
3
72
8
73
4
40
0
40
0
40
0
40
0
40
1
40
1
40
1
40
1
41
1
10
37.9997004584362
20
-0.0621541340087788
30
0
41
1
10
37.9433912331401
20
-0.202860096012472
30
0
41
1
10
37.8892020750595
20
-0.345146571208943
30
0
41
1
10
37.8367579577538
20
-0.488949625368349
30
0
0
SPLINE
5
D4
100
AcDbEntity
8
1
62
256
6
ByLayer
370
18
48
1
60
0
100
AcDbSpline
70
4
71
3
72
8
73
4
40
0
40
0
40
0
40
0
40
1
40
1
40
1
40
1
41
1
10
37.2789185812194
20
-1.8579469529397
30
0
41
1
10
37.3864504536465
20
-1.60397715316753
30
0
41
1
10
37.4982462760436
20
-1.33589521963927
30
0
41
1
10
37.6072817594465
20
-1.04790429216996
30
0
0
SPLINE
5
D5
100
AcDbEntity
8
1
62
256
6
ByLayer
370
18
48
1
60
0
100
AcDbSpline
70
4
71
1
72
4
73
2
40
0
40
0
40
1
40
1
41
1
10
37.6418860276007
20
-0.423157934381038
30
0
41
1
10
37.6464497358744
20
-0.407751113451724
30
0
0
SPLINE
5
D6
100
AcDbEntity
8
1
62
256
6
ByLayer
370
13
48
1
60
0
100
AcDbSpline
70
4
71
3
72
99
73
95
40
0
40
0
40
0
40
0
40
0.0061941944277533
40
0.0126075739421697
40
0.0208533476035612
40
0.035512500779369
40
0.0575012305430762
40
0.0648308071309819
40
0.0794899603067882
40
0.094149113482596
40
0.119802631540257
40
0.123467419834211
40
0.130796996422115
40
0.138126573010016
40
0.152785726185825
40
0.160115302773729
40
0.167444879361632
40
0.182104032537439
40
0.189433609125343
40
0.196763185713248
40
0.211422338889053
40
0.218751915476956
40
0.22608149206486
40
0.234327265726251
40
0.240740645240668
40
0.247154024755084
40
0.255399798416475
40
0.270058951592281
40
0.292047681355993
40
0.299377257943896
40
0.314036411119703
40
0.32869556429551
40
0.354349082353173
40
0.358013870647125
40
0.365343447235028
40
0.372673023822932
40
0.387332176998739
40
0.394661753586644
40
0.401991330174545
40
0.410237103835938
40
0.416650483350353
40
0.423063862864771
40
0.431309636526161
40
0.445968789701967
40
0.467957519465679
40
0.475287096053582
40
0.489946249229389
40
0.504605402405195
40
0.530258920462859
40
0.533923708756811
40
0.541253285344713
40
0.548582861932619
40
0.563242015108425
40
0.570571591696328
40
0.577901168284232
40
0.586146941945623
40
0.592560321460039
40
0.598973700974455
40
0.607219474635845
40
0.621878627811653
40
0.643867357575364
40
0.651196934163268
40
0.665856087339074
40
0.680515240514882
40
0.706168758572545
40
0.709833546866496
40
0.7171631234544
40
0.724492700042303
40
0.739151853218111
40
0.746481429806014
40
0.753811006393918
40
0.762056780055309
40
0.768470159569725
40
0.77488353908414
40
0.783129312745532
40
0.797788465921339
40
0.81977719568505
40
0.827106772272954
40
0.841765925448761
40
0.856425078624568
40
0.88207859668223
40
0.885743384976182
40
0.893072961564086
40
0.900402538151989
40
0.915061691327796
40
0.9223912679157
40
0.929720844503604
40
0.937966618164995
40
0.944379997679411
40
0.950793377193826
40
0.959039150855218
40
0.973698304031025
40
0.995687033794736
40
1
40
1
40
1
40
1
41
1.00000000000001
10
32.1625113637747
20
0.0616184846522567
30
0
41
1.00000000000001
10
32.146280789806
20
0.0663880314133673
30
0
41
1.00000000000001
10
32.1132451718432
20
0.0760931348666525
30
0
41
1.00000000000001
10
32.0586014347795
20
0.0921196792581888
30
0
41
1.00000000000001
10
31.9817738441547
20
0.114590100382769
30
0
41
1.00000000000001
10
31.8641287435489
20
0.148864921081581
30
0
41
1.00000000000001
10
31.7489009378087
20
0.182392142230752
30
0
41
1.00000000000001
10
31.6336709701119
20
0.215730636413523
30
0
41
1.00000000000001
10
31.5376368485467
20
0.243295271933077
30
0
41
1.00000000000001
10
31.3935844128353
20
0.284291314322812
30
0
41
1.00000000000001
10
31.2783595655769
20
0.316853082479409
30
0
41
1.00000000000001
10
31.1823414728318
20
0.343752657117929
30
0
41
1.00000000000001
10
31.1343257661539
20
0.357080481992878
30
0
41
1.00000000000001
10
31.057499678043
20
0.378261571980769
30
0
41
1.00000000000001
10
30.9806771072996
20
0.399286120371695
30
0
41
1.00000000000001
10
30.9038568988322
20
0.420140283615918
30
0
41
1.00000000000001
10
30.8270306751529
20
0.440773438913478
30
0
41
1.00000000000001
10
30.7502081219635
20
0.461218202277902
30
0
41
1.00000000000001
10
30.6733880477476
20
0.481461022521014
30
0
41
1.00000000000001
10
30.5965619876261
20
0.501460317643616
30
0
41
1.00000000000001
10
30.5197396169731
20
0.521240266474134
30
0
41
1.00000000000001
10
30.4429196398214
20
0.5407874604285
30
0
41
1.00000000000001
10
30.382901793524
20
0.555877751681517
30
0
41
1.00000000000001
10
30.325285429736
20
0.5702186941003
30
0
41
1.00000000000001
10
30.2700692216201
20
0.583824845458049
30
0
41
1.00000000000001
10
30.2148512303017
20
0.597290751160694
30
0
41
1.00000000000001
10
30.1380237605773
20
0.615784968458252
30
0
41
1.00000000000001
10
30.0203788144425
20
0.643552192617131
30
0
41
1.00000000000001
10
29.9051511024834
20
0.67009223791265
30
0
41
1.00000000000001
10
29.7899211699751
20
0.695931451674676
30
0
41
1.00000000000001
10
29.6938870512363
20
0.716918569770422
30
0
41
1.00000000000001
10
29.5498345949806
20
0.747433258995608
30
0
41
1.00000000000001
10
29.4346097176467
20
0.770965193846416
30
0
41
1.00000000000001
10
29.3385916078494
20
0.789949542401467
30
0
41
1.00000000000001
10
29.2905758999523
20
0.799241131711818
30
0
41
1.00000000000001
10
29.2137498365673
20
0.813812375315245
30
0
41
1.00000000000001
10
29.1369273348702
20
0.828003188342245
30
0
41
1.00000000000001
10
29.0601072134493
20
0.841802572112862
30
0
41
1.00000000000001
10
29.0000892730502
20
0.852322532060321
30
0
41
1.00000000000001
10
28.9424728337073
20
0.862194674329139
30
0
41
1.00000000000001
10
28.8872565669651
20
0.871444744408642
30
0
41
1.00000000000001
10
28.832038524555
20
0.880492020401441
30
0
41
1.00000000000001
10
28.7552109890482
20
0.89274329037692
30
0
41
1.00000000000001
10
28.637565957902
20
0.910726528365579
30
0
41
1.00000000000001
10
28.5223381900272
20
0.927329824348924
30
0
41
1.00000000000001
10
28.4071082266326
20
0.942964148043153
30
0
41
1.00000000000001
10
28.3110740988059
20
0.955292238983041
30
0
41
1.00000000000001
10
28.1670216705487
20
0.972516163930173
30
0
41
1.00000000000001
10
28.0517968700573
20
0.985073406571892
30
0
41
1.00000000000001
10
27.9557788664288
20
0.994718572285073
30
0
41
1.00000000000001
10
27.9077632200178
20
0.999314442854533
30
0
41
1.00000000000001
10
27.8309372676193
20
1.00630621524444
30
0
41
1.00000000000001
10
27.7541148870071
20
1.01281056617508
30
0
41
1.00000000000001
10
27.6772948840559
20
1.01882115445669
30
0
41
1.00000000000001
10
27.6172770396634
20
1.02321417475243
30
0
41
1.00000000000001
10
27.5596606952152
20
1.02715626558207
30
0
41
1.00000000000001
10
27.5044445217558
20
1.03068078930976
30
0
41
1.00000000000001
10
27.4492265753291
20
1.03396983309496
30
0
41
1.00000000000001
10
27.3723991748825
20
1.03816405438399
30
0
41
1.00000000000001
10
27.2547543421789
20
1.04370080875071
30
0
41
1.00000000000001
10
27.1395267231857
20
1.04791149354744
30
0
41
1.00000000000001
10
27.0242968339336
20
1.05103215758182
30
0
41
1.00000000000001
10
26.9282627083283
20
1.05288354759178
30
0
41
1.00000000000001
10
26.7842101737871
20
1.05428485622999
30
0
41
1.00000000000001
10
26.668985184872
20
1.05403233368312
30
0
41
1.00000000000001
10
26.572966979346
20
1.05293796822533
30
0
41
1.00000000000001
10
26.5249512218308
20
1.05217292710949
30
0
41
1.00000000000001
10
26.4481250724147
20
1.0505768783837
30
0
41
1.00000000000001
10
26.371302474845
20
1.04846120739054
30
0
41
1.00000000000001
10
26.2944822538603
20
1.04582307044344
30
0
41
1.00000000000001
10
26.2344642444824
20
1.04346184464955
30
0
41
1.00000000000001
10
26.1768477507028
20
1.040911566467
30
0
41
1.00000000000001
10
26.1216314464222
20
1.03820782176043
30
0
41
1.00000000000001
10
26.0664133814624
20
1.03526920734122
30
0
41
1.00000000000001
10
25.9895858352764
20
1.03080724466536
30
0
41
1.00000000000001
10
25.8719408302946
20
1.02310494997589
30
0
41
1.00000000000001
10
25.7567131346632
20
1.01431607533251
30
0
41
1.00000000000001
10
25.6414832571264
20
1.00446871287669
30
0
41
1.00000000000001
10
25.5454491995121
20
0.995570010969821
30
0
41
1.00000000000001
10
25.4013968498921
20
0.980930485177559
30
0
41
1.00000000000001
10
25.2861720633534
20
0.967883444200815
30
0
41
1.00000000000001
10
25.1901540201387
20
0.956184178066642
30
0
41
1.00000000000001
10
25.1421383420001
20
0.950156060746927
30
0
41
1.00000000000001
10
25.065312316398
20
0.940181059407443
30
0
41
1.00000000000001
10
24.9884898376382
20
0.929728418962405
30
0
41
1.00000000000001
10
24.9116697344416
20
0.91880188628209
30
0
41
1.00000000000001
10
24.8516518169305
20
0.910012995301393
30
0
41
1.00000000000001
10
24.7940354065257
20
0.901327202008893
30
0
41
1.00000000000001
10
24.7388191738927
20
0.892777567447233
30
0
41
1.00000000000001
10
24.6836011698623
20
0.884030622328702
30
0
41
1.00000000000001
10
24.606773691193
20
0.871554383098747
30
0
41
1.00000000000001
10
24.4891287518346
20
0.85173165732055
30
0
41
1.00000000000001
10
24.3818050517322
20
0.832638060393258
30
0
41
1.00000000000001
10
24.312889392646
20
0.819913126271779
30
0
41
1.00000000000001
10
24.3015884281412
20
0.817814126421944
30
0
0
SPLINE
5
D7
100
AcDbEntity
8
1
62
256
6
ByLayer
370
13
48
1
60
0
100
AcDbSpline
70
4
71
3
72
12
73
8
40
0
40
0
40
0
40
0
40
0.05393502598225
40
0.181781644092765
40
0.309628262203268
40
0.590890822046382
40
1
40
1
40
1
40
1
41
1.00000000000001
10
9.80955263109062
20
0.01833323707433
30
0
41
1.00000000000001
10
9.80448877595647
20
0.019824218670834
30
0
41
1.00000000000001
10
9.78742166516865
20
0.0248496986512235
30
0
41
1.00000000000001
10
9.75835130651613
20
0.0334110020824025
30
0
41
1.00000000000001
10
9.70793390577104
20
0.0482248522042706
30
0
41
1.00000000000001
10
9.63110638999246
20
0.070760500841771
30
0
41
1.00000000000001
10
9.56629186057746
20
0.0898138876969192
30
0
41
1.00000000000001
10
9.52788353100227
20
0.101101303820768
30
0
0
SPLINE
5
D8
100
AcDbEntity
8
1
62
256
6
ByLayer
370
13
48
1
60
0
100
AcDbSpline
70
4
71
3
72
14
73
10
40
0
40
0
40
0
40
0
40
0.198607458589068
40
0.198607458589068
40
0.398955593941801
40
0.398955593941801
40
0.599303729294534
40
0.599303729294534
40
1
40
1
40
1
40
1
41
1
10
6.77020056107824
20
-1.78361723225939
30
0
41
1
10
6.77013684478663
20
-1.78428659540344
30
0
41
1
10
6.77007702671168
20
-1.77960337922039
30
0
41
1
10
6.76996507254148
20
-1.75990377929074
30
0
41
1
10
6.76991262641454
20
-1.74480710949186
30
0
41
1
10
6.76981343565035
20
-1.70417134880819
30
0
41
1
10
6.76976644902646
20
-1.67844147270489
30
0
41
1
10
6.76963372555326
20
-1.58627758547277
30
0
41
1
10
6.76955561417165
20
-1.50447366413778
30
0
41
1
10
6.76948503376258
20
-1.4069818513882
30
0
0
SPLINE
5
D9
100
AcDbEntity
8
1
62
256
6
ByLayer
370
13
48
1
60
0
100
AcDbSpline
70
4
71
3
72
99
73
95
40
0
40
0
40
0
40
0
40
0.0038907277025416
40
0.0103554692143682
40
0.0168202107261949
40
0.0251320212413994
40
0.0399085732684285
40
0.0620734013089792
40
0.0694616773224948
40
0.0842382293495284
40
0.0990147813765595
40
0.124873747423863
40
0.128567885430621
40
0.135956161444137
40
0.143344437457651
40
0.158120989484685
40
0.165509265498201
40
0.172897541511717
40
0.18120935202692
40
0.187674093538748
40
0.194138835050573
40
0.202450645565781
40
0.217227197592811
40
0.239392025633358
40
0.246780301646875
40
0.261556853673907
40
0.276333405700937
40
0.302192371748242
40
0.305886509755001
40
0.313274785768515
40
0.320663061782035
40
0.335439613809065
40
0.342827889822579
40
0.350216165836096
40
0.358527976351303
40
0.364992717863128
40
0.371457459374955
40
0.37976926989016
40
0.394545821917193
40
0.416710649957737
40
0.424098925971254
40
0.438875477998286
40
0.453652030025318
40
0.479510996072622
40
0.483205134079381
40
0.490593410092898
40
0.497981686106412
40
0.512758238133444
40
0.520146514146961
40
0.527534790160477
40
0.542311342187508
40
0.549699618201025
40
0.557087894214541
40
0.571864446241571
40
0.579252722255086
40
0.586640998268603
40
0.594952808783808
40
0.601417550295634
40
0.607882291807462
40
0.616194102322666
40
0.630970654349698
40
0.653135482390246
40
0.660523758403761
40
0.675300310430793
40
0.690076862457824
40
0.71593582850513
40
0.719629966511888
40
0.727018242525404
40
0.73440651853892
40
0.749183070565951
40
0.756571346579468
40
0.763959622592981
40
0.772271433108188
40
0.778736174620015
40
0.785200916131842
40
0.793512726647046
40
0.808289278674077
40
0.830454106714626
40
0.837842382728141
40
0.852618934755173
40
0.867395486782203
40
0.89325445282951
40
0.896948590836268
40
0.904336866849783
40
0.9117251428633
40
0.926501694890331
40
0.933889970903847
40
0.941278246917363
40
0.949590057432568
40
0.956054798944394
40
0.962519540456221
40
0.970831350971425
40
0.985607902998457
40
1
40
1
40
1
40
1
41
1
10
34.0255175402457
20
-0.82954361826441
30
0
41
1
10
34.0154035396511
20
-0.831377201880287
30
0
41
1
10
33.9884843464317
20
-0.836231360588187
30
0
41
1
10
33.944760246885
20
-0.844003327980204
30
0
41
1
10
33.8895453225634
20
-0.853634719858775
30
0
41
1
10
33.8127269827415
20
-0.866732079510228
30
0
41
1
10
33.6951017566566
20
-0.886059268072472
30
0
41
1
10
33.5798607309667
20
-0.90387982232545
30
0
41
1
10
33.4646219135629
20
-0.920770021510265
30
0
41
1
10
33.3685987331291
20
-0.934223826372289
30
0
41
1
10
33.2245652540163
20
-0.953170398458639
30
0
41
1
10
33.1093214143356
20
-0.967029735515524
30
0
41
1
10
33.0132822535044
20
-0.977768564242467
30
0
41
1
10
32.9652693144976
20
-0.982952953146565
30
0
41
1
10
32.8884495436521
20
-0.990896280435607
30
0
41
1
10
32.8116262225341
20
-0.998342779332745
30
0
41
1
10
32.7348005302067
20
-1.00529127316204
30
0
41
1
10
32.6747826690776
20
-1.01042946475315
30
0
41
1
10
32.6171647318766
20
-1.01508663281859
30
0
41
1
10
32.5619480434062
20
-1.01930179338586
30
0
41
1
10
32.5067331123548
20
-1.02328891854358
30
0
41
1
10
32.4299147402578
20
-1.02846067293788
30
0
41
1
10
32.3122894179681
20
-1.0354980584992
30
0
41
1
10
32.1970482430708
20
-1.04114145575096
30
0
41
1
10
32.0818092550518
20
-1.04571735631796
30
0
41
1
10
31.9857859179065
20
-1.04879570288898
30
0
41
1
10
31.8417522007144
20
-1.05202473075343
30
0
41
1
10
31.7265082036
20
-1.05322871656344
30
0
41
1
10
31.6304689689031
20
-1.05336987461027
30
0
41
1
10
31.5824560067558
20
-1.05321999493478
30
0
41
1
10
31.5056362274338
20
-1.05260032146677
30
0
41
1
10
31.4288129345377
20
-1.05146546975342
30
0
41
1
10
31.3519872924745
20
-1.04982027443552
30
0
41
1
10
31.2919694788113
20
-1.04822421095596
30
0
41
1
10
31.2343515962363
20
-1.04640981472986
30
0
41
1
10
31.179134967726
20
-1.04441731029434
30
0
41
1
10
31.1239201083567
20
-1.04218840996145
30
0
41
1
10
31.0471018582503
20
-1.03869786484503
30
0
41
1
10
30.9294767603899
20
-1.03245308127464
30
0
41
1
10
30.814235826883
20
-1.02513344895277
30
0
41
1
10
30.6989970518279
20
-1.01675964115424
30
0
41
1
10
30.602973872903
20
-1.00903528328738
30
0
41
1
10
30.4589403558681
20
-0.996098714407964
30
0
41
1
10
30.3436964687178
20
-0.984479475957585
30
0
41
1
10
30.2476572867534
20
-0.974002735734189
30
0
41
1
10
30.1996443452203
20
-0.968539579346327
30
0
41
1
10
30.1228245947701
20
-0.959443549587945
30
0
41
1
10
30.0460013328291
20
-0.949885562049445
30
0
41
1
10
29.9691757124893
20
-0.939875795952304
30
0
41
1
10
29.892356097529
20
-0.929465686415512
30
0
41
1
10
29.8155328180319
20
-0.918610090019286
30
0
41
1
10
29.7387070634965
20
-0.90731975190613
30
0
41
1
10
29.6618872850317
20
-0.895639140980478
30
0
41
1
10
29.5850638230741
20
-0.883531247491419
30
0
41
1
10
29.5082379715437
20
-0.871007523327222
30
0
41
1
10
29.448220010571
20
-0.860953678268515
30
0
41
1
10
29.3906020007059
20
-0.8510723397915
30
0
41
1
10
29.3353852666446
20
-0.841396554802117
30
0
41
1
10
29.2801703128895
20
-0.831524850931942
30
0
41
1
10
29.2033519419103
20
-0.8174682237387
30
0
41
1
10
29.0857266896146
20
-0.795220499707284
30
0
41
1
10
28.970485662335
20
-0.772560404490832
30
0
41
1
10
28.8552468520568
20
-0.749110849157518
30
0
41
1
10
28.7592236702658
20
-0.728984567343844
30
0
41
1
10
28.6151901737193
20
-0.697813527549982
30
0
41
1
10
28.4999463166035
20
-0.672049162068106
30
0
41
1
10
28.4039071516622
20
-0.65005909972794
30
0
41
1
10
28.3558942113429
20
-0.63888544628071
30
0
41
1
10
28.2790744361895
20
-0.620767360488117
30
0
41
1
10
28.2022511052716
20
-0.602363964547237
30
0
41
1
10
28.1254253979479
20
-0.583689545212536
30
0
41
1
10
28.0654075310431
20
-0.568908707287846
30
0
41
1
10
28.0077895967128
20
-0.554569455891709
30
0
41
1
10
27.9525729212743
20
-0.540693523172394
30
0
41
1
10
27.8973580186167
20
-0.526686455022514
30
0
41
1
10
27.8205397134297
20
-0.506983335881102
30
0
41
1
10
27.7029145461635
20
-0.4763487177689
30
0
41
1
10
27.587673574808
20
-0.445877701852737
30
0
41
1
10
27.4724347954013
20
-0.414953675884959
30
0
41
1
10
27.3764116226664
20
-0.388821323414447
30
0
41
1
10
27.2323780980557
20
-0.349091303403497
30
0
41
1
10
27.1171341640501
20
-0.316962128325088
30
0
41
1
10
27.0210948929297
20
-0.28997076497393
30
0
41
1
10
26.9730818911254
20
-0.27636328826145
30
0
41
1
10
26.8962620049971
20
-0.254481554216625
30
0
41
1
10
26.8194385530161
20
-0.232500417290567
30
0
41
1
10
26.7426127272527
20
-0.21043422111174
30
0
41
1
10
26.6825947643718
20
-0.193110493428492
30
0
41
1
10
26.6249767351776
20
-0.176432455628941
30
0
41
1
10
26.5697599664821
20
-0.160407111995227
30
0
41
1
10
26.5145449678616
20
-0.144334745678862
30
0
41
1
10
26.4377265276366
20
-0.121896727539649
30
0
41
1
10
26.3403046065938
20
-0.0933260072992255
30
0
41
1
10
26.2644788903759
20
-0.0710954284231491
30
0
41
1
10
26.2270652505736
20
-0.0601214276273936
30
0
0
SPLINE
5
DA
100
AcDbEntity
8
1
62
256
6
ByLayer
370
13
48
1
60
0
100
AcDbSpline
70
4
71
3
72
42
73
38
40
0
40
0
40
0
40
0
40
0.0466752021201167
40
0.0661308102401136
40
0.10504202648011
40
0.143953242720105
40
0.212047871140096
40
0.221775675200095
40
0.241231283320093
40
0.26068689144009
40
0.299598107680085
40
0.319053715800083
40
0.338509323920081
40
0.360396883055079
40
0.377420540160076
40
0.394444197265074
40
0.416331756400071
40
0.455242972640067
40
0.51360979700006
40
0.533065405120057
40
0.571976621360053
40
0.610887837600048
40
0.678982466020039
40
0.688710270080039
40
0.708165878200036
40
0.727621486320034
40
0.766532702560028
40
0.785988310680026
40
0.805443918800023
40
0.844355135040019
40
0.863810743160016
40
0.883266351280014
40
0.910017812445011
40
0.922177567520009
40
0.934337322595008
40
0.961088783760005
40
1
40
1
40
1
40
1
41
1
10
11.554679948232
20
-0.824270163324684
30
0
41
1
10
11.5086040823729
20
-0.832708856794767
30
0
41
1
10
11.4433190314482
20
-0.844378221305561
30
0
41
1
10
11.3396220965355
20
-0.862249754633694
30
0
41
1
10
11.2435988913346
20
-0.878226814194647
30
0
41
1
10
11.099565366838
20
-0.901033875341
30
0
41
1
10
10.9843214892949
20
-0.918039068200841
30
0
41
1
10
10.8882823027191
20
-0.931435941160004
30
0
41
1
10
10.8402693527183
20
-0.937964214930787
30
0
41
1
10
10.7634495682778
20
-0.948075243778135
30
0
41
1
10
10.6866262381225
20
-0.95770832205838
30
0
41
1
10
10.6098005353222
20
-0.966860793112033
30
0
41
1
10
10.5497826629196
20
-0.973734630513235
30
0
41
1
10
10.4921647134206
20
-0.980067656304328
30
0
41
1
10
10.4369480127343
20
-0.985897489568629
30
0
41
1
10
10.3817330716204
20
-0.991508089039627
30
0
41
1
10
10.3049146911374
20
-0.998952960597961
30
0
41
1
10
10.1872893667866
20
-1.00950035044116
30
0
41
1
10
10.0720482016109
20
-1.01860226925123
30
0
41
1
10
9.95680922624427
20
-1.02666013285096
30
0
41
1
10
9.86078590251677
20
-1.03266167338563
30
0
41
1
10
9.71675221666618
20
-1.04029949880601
30
0
41
1
10
9.60150825967654
20
-1.04503443658194
30
0
41
1
10
9.50546907042531
20
-1.04812050034775
30
0
41
1
10
9.45745613693748
20
-1.04944980188222
30
0
41
1
10
9.38063642244822
20
-1.05119935006934
30
0
41
1
10
9.30381322408226
20
-1.05243167590396
30
0
41
1
10
9.22698768139333
20
-1.05314995876918
30
0
41
1
10
9.15016815156864
20
-1.05344901914765
30
0
41
1
10
9.07334496624458
20
-1.05323062302031
30
0
41
1
10
8.99651932020097
20
-1.0524985869325
30
0
41
1
10
8.93170077936176
20
-1.05153864358812
30
0
41
1
10
8.87408208725424
20
-1.05037776382633
30
0
41
1
10
8.82366568315149
20
-1.04913389113355
30
0
41
1
10
8.77325300198092
20
-1.04771237935373
30
0
41
1
10
8.69643467704012
20
-1.0451596703877
30
0
41
1
10
8.63161054247593
20
-1.04255953546223
30
0
41
1
10
8.59319596044625
20
-1.04085074576011
30
0
0
SPLINE
5
DB
100
AcDbEntity
8
1
62
256
6
ByLayer
370
18
48
1
60
0
100
AcDbSpline
70
4
71
3
72
12
73
8
40
0
40
0
40
0
40
0
40
0.499999999999999
40
0.499999999999999
40
0.75
40
0.75
40
1
40
1
40
1
40
1
41
1
10
37.1504921997097
20
0.0482722939327687
30
0
41
1
10
37.1250116997691
20
-0.105194577001441
30
0
41
1
10
37.109379377638
20
-0.257404336296219
30
0
41
1
10
37.101061058365
20
-0.483787622500614
30
0
41
1
10
37.1008904815191
20
-0.558856762359852
30
0
41
1
10
37.1057467838687
20
-0.704053646549767
30
0
41
1
10
37.1107427443918
20
-0.774735595529279
30
0
41
1
10
37.1183166435962
20
-0.843493491331628
30
0
0
SPLINE
5
DC
100
AcDbEntity
8
1
62
256
6
ByLayer
370
18
48
1
60
0
100
AcDbSpline
70
4
71
3
72
8
73
4
40
0
40
0
40
0
40
0
40
1
40
1
40
1
40
1
41
1
10
37.6072817594465
20
1.04790429216996
30
0
41
1
10
37.6635453723961
20
0.899297530678723
30
0
41
1
10
37.7231552513941
20
0.759595468479972
30
0
41
1
10
37.786566591403
20
0.626769467350357
30
0
0
SPLINE
5
DD
100
AcDbEntity
8
1
62
256
6
ByLayer
370
18
48
1
60
0
100
AcDbSpline
70
4
71
3
72
22
73
18
40
0
40
0
40
0
40
0
40
0.0246153742686558
40
0.0246153742686558
40
0.187179478557218
40
0.187179478557218
40
0.34974358284578
40
0.34974358284578
40
0.512307687134342
40
0.512307687134342
40
0.674871791422904
40
0.674871791422904
40
0.837435895711466
40
0.837435895711466
40
0.918717947855733
40
0.918717947855733
40
1
40
1
40
1
40
1
41
1
10
37.2064350778641
20
0.0399922942737305
30
0
41
1
10
37.206049856871
20
0.0419534375147634
30
0
41
1
10
37.2058102293277
20
0.043990247579444
30
0
41
1
10
37.2050824344462
20
0.0600754669430899
30
0
41
1
10
37.210553697158
20
0.077667663167432
30
0
41
1
10
37.232303596057
20
0.12120269749181
30
0
41
1
10
37.2482526814102
20
0.146620702376396
30
0
41
1
10
37.2895437513689
20
0.205330208153697
30
0
41
1
10
37.3150612143667
20
0.238786270299784
30
0
41
1
10
37.3736142247137
20
0.309976739587881
30
0
41
1
10
37.4073015555996
20
0.348581620176532
30
0
41
1
10
37.4833305775593
20
0.427145157208202
30
0
41
1
10
37.5248709438275
20
0.46643909367279
30
0
41
1
10
37.5956319227747
20
0.52187514253697
30
0
41
1
10
37.6208988250563
20
0.539869450264689
30
0
41
1
10
37.6734916664258
20
0.572452124837355
30
0
41
1
10
37.7009237675282
20
0.587149970973258
30
0
41
1
10
37.7297729939315
20
0.599727085830835
30
0
0
SPLINE
5
DE
100
AcDbEntity
8
1
62
256
6
ByLayer
370
18
48
1
60
0
100
AcDbSpline
70
4
71
3
72
26
73
22
40
0
40
0
40
0
40
0
40
0.249999999999993
40
0.249999999999993
40
0.374999999999992
40
0.374999999999992
40
0.499999999999992
40
0.499999999999992
40
0.624999999999991
40
0.624999999999991
40
0.687499999999993
40
0.687499999999993
40
0.749999999999994
40
0.749999999999994
40
0.812499999999996
40
0.812499999999996
40
0.874999999999997
40
0.874999999999997
40
0.937499999999999
40
0.937499999999999
40
1
40
1
40
1
40
1
41
1
10
6.42824750184647
20
-1.3494605940451
30
0
41
1
10
6.21529360196189
20
-1.26264972899358
30
0
41
1
10
6.00791567986656
20
-1.16215050439604
30
0
41
1
10
5.71088875049946
20
-0.98158140183557
30
0
41
1
10
5.61417115378862
20
-0.916330987089538
30
0
41
1
10
5.42695332470416
20
-0.771967838320336
30
0
41
1
10
5.33614110667756
20
-0.692496692866825
30
0
41
1
10
5.16920724449773
20
-0.518252379566974
30
0
41
1
10
5.09183400382346
20
-0.422079135615434
30
0
41
1
10
4.99581035480912
20
-0.265624262339202
30
0
41
1
10
4.96701906817665
20
-0.211319594958695
30
0
41
1
10
4.91749486686194
20
-0.0973093910066325
30
0
41
1
10
4.89694034243973
20
-0.037648662828758
30
0
41
1
10
4.86729580253282
20
0.0828641529114122
30
0
41
1
10
4.85790482410272
20
0.144726222981177
30
0
41
1
10
4.85167212742093
20
0.26916717536335
30
0
41
1
10
4.85482179924318
20
0.330270388204809
30
0
41
1
10
4.8729232138997
20
0.450369017314841
30
0
41
1
10
4.88812020379609
20
0.509773564857596
30
0
41
1
10
4.9280532029654
20
0.622110240855022
30
0
41
1
10
4.95278956036287
20
0.675609064576975
30
0
41
1
10
4.98155145883658
20
0.726855969679946
30
0
0
SPLINE
5
DF
100
AcDbEntity
8
1
62
256
6
ByLayer
370
18
48
1
60
0
100
AcDbSpline
70
4
71
3
72
8
73
4
40
0
40
0
40
0
40
0
40
1
40
1
40
1
40
1
41
1
10
37.7297729939315
20
0.599727085830835
30
0
41
1
10
37.7489261552823
20
0.608077102112929
30
0
41
1
10
37.7678793866728
20
0.617025308840113
30
0
41
1
10
37.7865665914026
20
0.626769467347003
30
0
0
SPLINE
5
E0
100
AcDbEntity
8
1
62
256
6
ByLayer
370
18
48
1
60
0
100
AcDbSpline
70
4
71
3
72
10
73
6
40
0
40
0
40
0
40
0
40
0.5
40
0.5
40
1
40
1
40
1
40
1
41
1
10
37.6445367980511
20
-0.405829591024855
30
0
41
1
10
37.5984807713848
20
-0.379473833774995
30
0
41
1
10
37.5592106786027
20
-0.332084859036058
30
0
41
1
10
37.4908504492149
20
-0.207950539599239
30
0
41
1
10
37.4633729338797
20
-0.133897866961092
30
0
41
1
10
37.4411323595579
20
-0.0504805552005507
30
0
0
SPLINE
5
E1
100
AcDbEntity
8
1
62
256
6
ByLayer
370
18
48
1
60
0
100
AcDbSpline
70
4
71
3
72
17
73
13
40
0
40
0
40
0
40
0
40
0.18270019733742
40
0.18270019733742
40
0.36540039467484
40
0.36540039467484
40
0.54810059201226
40
0.54810059201226
40
0.730800789349681
40
0.913500986687101
40
0.913500986687101
40
1
40
1
40
1
40
1
41
1
10
6.42824750184644
20
-1.3494605940447
30
0
41
1
10
6.42810831511957
20
-1.40713519892597
30
0
41
1
10
6.42795977917092
20
-1.46070548134045
30
0
41
1
10
6.42765341370909
20
-1.55727555629682
30
0
41
1
10
6.42749461066381
20
-1.60068918060631
30
0
41
1
10
6.4271641440248
20
-1.67774920108363
30
0
41
1
10
6.42699106511739
20
-1.71159467682946
30
0
41
1
10
6.42663428155689
20
-1.76774794108502
30
0
41
1
10
6.42626736426209
20
-1.81252582839528
30
0
41
1
10
6.42586503915072
20
-1.83508460122781
30
0
41
1
10
6.42554740584592
20
-1.84324738048667
30
0
41
1
10
6.42544258665828
20
-1.84455471417084
30
0
41
1
10
6.42533484699436
20
-1.84456472494151
30
0
0
SPLINE
5
E2
100
AcDbEntity
8
1
62
256
6
ByLayer
370
13
48
1
60
0
100
AcDbSpline
70
4
71
3
72
34
73
30
40
0
40
0
40
0
40
0
40
0.008851946301837
40
0.008851946301837
40
0.101093380078198
40
0.101093380078198
40
0.193334813854559
40
0.193334813854559
40
0.285576247630919
40
0.285576247630919
40
0.377817681407278
40
0.377817681407278
40
0.470059115183638
40
0.470059115183638
40
0.562300548959997
40
0.562300548959997
40
0.608421265848177
40
0.608421265848177
40
0.654541982736356
40
0.654541982736356
40
0.746783416512712
40
0.746783416512712
40
0.792904133400889
40
0.792904133400889
40
0.839024850289066
40
0.839024850289066
40
0.931266284065419
40
0.931266284065419
40
1
40
1
40
1
40
1
41
1
10
27.816048254035
20
-1.82041138221291
30
0
41
1
10
27.7856006754642
20
-1.82046516268085
30
0
41
1
10
27.7551748590728
20
-1.82031512984648
30
0
41
1
10
27.4080057848212
20
-1.81625188445509
30
0
41
1
10
27.0930592214013
20
-1.79175151687573
30
0
41
1
10
26.4618032737011
20
-1.70085042509044
30
0
41
1
10
26.1457925282608
20
-1.63537232845252
30
0
41
1
10
25.5078295955773
20
-1.46539009260258
30
0
41
1
10
25.1910719936865
20
-1.3627994375081
30
0
41
1
10
24.5593270662842
20
-1.12895576255841
30
0
41
1
10
24.2441526912237
20
-0.997934854244136
30
0
41
1
10
23.610382693027
20
-0.714337544061806
30
0
41
1
10
23.2905457874703
20
-0.561130885107445
30
0
41
1
10
22.6546881792305
20
-0.247234124881174
30
0
41
1
10
22.3378273827453
20
-0.0859935281356456
30
0
41
1
10
21.8604317725818
20
0.155030784148352
30
0
41
1
10
21.7005813459909
20
0.235399328970658
30
0
41
1
10
21.3819275353099
20
0.394038050592087
30
0
41
1
10
21.2230870417104
20
0.472107149327513
30
0
41
1
10
20.747149922699
20
0.700794485881119
30
0
41
1
10
20.4307749388747
20
0.84647355379073
30
0
41
1
10
19.953886524289
20
1.0478055102019
30
0
41
1
10
19.7943036980587
20
1.11224442663337
30
0
41
1
10
19.4751919929127
20
1.23440288676486
30
0
41
1
10
19.3161800465208
20
1.29169727197603
30
0
41
1
10
18.8397359481696
20
1.4508596822788
30
0
41
1
10
18.5233985665964
20
1.5411439269846
30
0
41
1
10
17.9687153573811
20
1.66491252545637
30
0
41
1
10
17.7305972746156
20
1.70757866367183
30
0
41
1
10
17.4932388562904
20
1.73850881286327
30
0
0
SPLINE
5
E3
100
AcDbEntity
8
1
62
256
6
ByLayer
370
18
48
1
60
0
100
AcDbSpline
70
4
71
3
72
8
73
4
40
0
40
0
40
0
40
0
40
1
40
1
40
1
40
1
41
1
10
37.6445367980511
20
-0.405829591024855
30
0
41
1
10
37.645174428641
20
-0.406470113782746
30
0
41
1
10
37.645812074583
20
-0.40711062125817
30
0
41
1
10
37.6464497358759
20
-0.407751113450189
30
0
0
SPLINE
5
E4
100
AcDbEntity
8
1
62
256
6
ByLayer
370
13
48
1
60
0
100
AcDbSpline
70
4
71
3
72
33
73
29
40
0
40
0
40
0
40
0
40
0.0061926581485263
40
0.0379782761750653
40
0.0944860415555967
40
0.193374630971534
40
0.207501572316661
40
0.235755455006919
40
0.264009337697188
40
0.320517103077721
40
0.348770985768002
40
0.377024868458243
40
0.43353263383878
40
0.461786516529043
40
0.490040399219312
40
0.546548164599842
40
0.574802047290098
40
0.603055929980376
40
0.634841548006926
40
0.659563695360902
40
0.684285842714883
40
0.716071460741439
40
0.772579226121963
40
0.857340874192759
40
0.885594756883023
40
0.942102522263536
40
0.998610287644084
40
1
40
1
40
1
40
1
41
1.00000000000001
10
37.6072817594465
20
1.04790429216998
30
0
41
1.00000000000001
10
37.6030721131847
20
1.04776957579923
30
0
41
1.00000000000001
10
37.5772551407241
20
1.04692947911899
30
0
41
1.00000000000001
10
37.5130238106194
20
1.04462691592317
30
0
41
1.00000000000001
10
37.3857720198556
20
1.03909475081169
30
0
41
1.00000000000001
10
37.2705471269225
20
1.03273043362127
30
0
41
1.00000000000001
10
37.1745290506865
20
1.02655029888907
30
0
41
1.00000000000001
10
37.1265133469892
20
1.02325643069556
30
0
41
1.00000000000001
10
37.0496872383672
20
1.01762612598775
30
0
41
1.00000000000001
10
36.972864620981
20
1.01148501820003
30
0
41
1.00000000000001
10
36.8960443742848
20
1.00483399806571
30
0
41
1.00000000000001
10
36.819218136634
20
0.997805868287734
30
0
41
1.00000000000001
10
36.742395593265
20
0.990275697257139
30
0
41
1.00000000000001
10
36.6655755257189
20
0.982244855536656
30
0
41
1.00000000000001
10
36.5887494549753
20
0.973849725100812
30
0
41
1.00000000000001
10
36.5119270532309
20
0.964962606434618
30
0
41
1.00000000000001
10
36.4351070303809
20
0.955585338977151
30
0
41
1.00000000000001
10
36.375089145509
20
0.947993628779152
30
0
41
1.00000000000001
10
36.3174727435209
20
0.940446403975208
30
0
41
1.00000000000001
10
36.262256499621
20
0.932977590569941
30
0
41
1.00000000000001
10
36.2070384769996
20
0.925300773527219
30
0
41
1.00000000000001
10
36.1302109740538
20
0.914295224012044
30
0
41
1.00000000000001
10
36.0125659994067
20
0.896683470060332
30
0
41
1.00000000000001
10
35.897338290761
20
0.878302596211192
30
0
41
1.00000000000001
10
35.7821083820188
20
0.859007411966836
30
0
41
1.00000000000001
10
35.6860742952787
20
0.842358771729515
30
0
41
1.00000000000001
10
35.6083016292144
20
0.828293782810498
30
0
41
1.00000000000001
10
35.5689451098688
20
0.821028934422338
30
0
41
1.00000000000001
10
35.5680004371212
20
0.820854471735651
30
0
0
SPLINE
5
E5
100
AcDbEntity
8
1
62
256
6
ByLayer
370
13
48
1
60
0
100
AcDbSpline
70
4
71
3
72
101
73
97
40
0
40
0
40
0
40
0
40
0.012684944839128
40
0.0383141449923033
40
0.0419754592999012
40
0.0492980879150939
40
0.0566207165302874
40
0.0712659737606744
40
0.0785886023758671
40
0.0859112309910614
40
0.0941491881831535
40
0.100556488221448
40
0.106963788259742
40
0.115201745451834
40
0.129847002682222
40
0.151814888527802
40
0.159137517142994
40
0.173782774373381
40
0.188428031603768
40
0.214057231756944
40
0.217718546064541
40
0.225041174679735
40
0.232363803294927
40
0.247009060525314
40
0.254331689140508
40
0.261654317755701
40
0.269892274947794
40
0.276299574986088
40
0.282706875024382
40
0.290944832216474
40
0.305590089446862
40
0.327557975292441
40
0.334880603907635
40
0.349525861138021
40
0.364171118368408
40
0.389800318521584
40
0.393461632829181
40
0.400784261444375
40
0.408106890059568
40
0.422752147289955
40
0.430074775905148
40
0.437397404520341
40
0.452042661750728
40
0.459365290365922
40
0.466687918981115
40
0.481333176211502
40
0.488655804826695
40
0.495978433441888
40
0.504216390633981
40
0.510623690672275
40
0.517030990710567
40
0.525268947902661
40
0.539914205133049
40
0.565543405286224
40
0.569204719593822
40
0.576527348209014
40
0.583849976824208
40
0.598495234054595
40
0.605817862669788
40
0.613140491284981
40
0.627785748515368
40
0.635108377130561
40
0.642431005745755
40
0.657076262976142
40
0.664398891591334
40
0.671721520206529
40
0.679959477398621
40
0.686366777436915
40
0.69277407747521
40
0.701012034667302
40
0.715657291897689
40
0.737625177743269
40
0.744947806358462
40
0.759593063588849
40
0.774238320819235
40
0.799867520972412
40
0.803528835280008
40
0.810851463895202
40
0.818174092510395
40
0.832819349740782
40
0.840141978355975
40
0.847464606971169
40
0.855702564163261
40
0.862109864201555
40
0.86851716423985
40
0.876755121431942
40
0.891400378662329
40
0.913368264507909
40
0.920690893123102
40
0.935336150353489
40
0.949981407583875
40
0.975610607737052
40
0.979271922044649
40
0.986594550659842
40
0.993917179275036
40
1
40
1
40
1
40
1
41
1.00000000000001
10
20.9206488143851
20
0.0591255932991141
30
0
41
1.00000000000001
10
20.8873767645143
20
0.068882215445455
30
0
41
1.00000000000001
10
20.7868807613299
20
0.0983234475419571
30
0
41
1.00000000000001
10
20.676796910449
20
0.130590328313786
30
0
41
1.00000000000001
10
20.5807788261387
20
0.158660467562326
30
0
41
1.00000000000001
10
20.5327631391135
20
0.172610736103279
30
0
41
1.00000000000001
10
20.4559371161047
20
0.194853645172542
30
0
41
1.00000000000001
10
20.3791146585262
20
0.217033526426659
30
0
41
1.00000000000001
10
20.3022945756827
20
0.239136039600167
30
0
41
1.00000000000001
10
20.2422766698649
20
0.256307613592495
30
0
41
1.00000000000001
10
20.1846602682332
20
0.272728823422168
30
0
41
1.00000000000001
10
20.1294440426052
20
0.288403386906166
30
0
41
1.00000000000001
10
20.0742260469476
20
0.304003851437696
30
0
41
1.00000000000001
10
19.9973985837824
20
0.325571508228504
30
0
41
1.00000000000001
10
19.8797536724901
20
0.358287018881268
30
0
41
1.00000000000001
10
19.7645260137868
20
0.390031319187497
30
0
41
1.00000000000001
10
19.649296125543
20
0.421366442395535
30
0
41
1.00000000000001
10
19.5532620379879
20
0.447116814469208
30
0
41
1.00000000000001
10
19.4092096248986
20
0.485122185551713
30
0
41
1.00000000000001
10
19.2939847797407
20
0.51501390553059
30
0
41
1.00000000000001
10
19.197966698204
20
0.53951801659917
30
0
41
1.00000000000001
10
19.1499510026273
20
0.55161138353085
30
0
41
1.00000000000001
10
19.0731249500344
20
0.570749434816231
30
0
41
1.00000000000001
10
18.996302443116
20
0.589632726881088
30
0
41
1.00000000000001
10
18.9194823012799
20
0.608248365225615
30
0
41
1.00000000000001
10
18.8594643462144
20
0.622592585303006
30
0
41
1.00000000000001
10
18.8018478949742
20
0.636199198515863
30
0
41
1.00000000000001
10
18.7466316208388
20
0.649085243266763
30
0
41
1.00000000000001
10
18.691413575992
20
0.661816867265936
30
0
41
1.00000000000001
10
18.6145860441247
20
0.679267560352452
30
0
41
1.00000000000001
10
18.4969410325078
20
0.705385433832498
30
0
41
1.00000000000001
10
18.3817132979209
20
0.730231406412707
30
0
41
1.00000000000001
10
18.2664833705249
20
0.754314485887556
30
0
41
1.00000000000001
10
18.1704492666124
20
0.773800625768893
30
0
41
1.00000000000001
10
18.026396843461
20
0.801991779597068
30
0
41
1.00000000000001
10
17.9111720011968
20
0.823585781953675
30
0
41
1.00000000000001
10
17.8151539220223
20
0.840908838527007
30
0
41
1.00000000000001
10
17.7671382221507
20
0.849362155094547
30
0
41
1.00000000000001
10
17.6903121422259
20
0.862575269504895
30
0
41
1.00000000000001
10
17.6134895761973
20
0.87538172747508
30
0
41
1.00000000000001
10
17.536669368061
20
0.887771090196388
30
0
41
1.00000000000001
10
17.4598431396009
20
0.899778472759799
30
0
41
1.00000000000001
10
17.3830205730105
20
0.911359044351109
30
0
41
1.00000000000001
10
17.3062004768506
20
0.922502883598945
30
0
41
1.00000000000001
10
17.2293743983094
20
0.93325427577161
30
0
41
1.00000000000001
10
17.1525520224247
20
0.943560263150878
30
0
41
1.00000000000001
10
17.0757320556943
20
0.953411442061586
30
0
41
1.00000000000001
10
17.0157142076517
20
0.960818767332817
30
0
41
1.00000000000001
10
16.9580978314407
20
0.967671738766391
30
0
41
1.00000000000001
10
16.9028815963255
20
0.974000615716612
30
0
41
1.00000000000001
10
16.8476635796369
20
0.980104338348802
30
0
41
1.00000000000001
10
16.7708361094536
20
0.988227991778039
30
0
41
1.00000000000001
10
16.6435845987024
20
1.00073217267052
30
0
41
1.00000000000001
10
16.5283599646938
20
1.01083611779364
30
0
41
1.00000000000001
10
16.43234206392
20
1.01841710709839
30
0
41
1.00000000000001
10
16.3843264412185
20
1.02198063817331
30
0
41
1.00000000000001
10
16.3075004495258
20
1.02731560057972
30
0
41
1.00000000000001
10
16.2306779282273
20
1.03215270215647
30
0
41
1.00000000000001
10
16.1538577475441
20
1.03648596751471
30
0
41
1.00000000000001
10
16.0770315497793
20
1.04040141225123
30
0
41
1.00000000000001
10
16.0002090127757
20
1.04381090267224
30
0
41
1.00000000000001
10
15.923388925892
20
1.04670902347265
30
0
41
1.00000000000001
10
15.8465628203146
20
1.04918918247212
30
0
41
1.00000000000001
10
15.7697403622762
20
1.05115690071334
30
0
41
1.00000000000001
10
15.6929202658947
20
1.05260729213668
30
0
41
1.00000000000001
10
15.6329023178662
20
1.0534339534237
30
0
41
1.00000000000001
10
15.5752858523882
20
1.05394323015093
30
0
41
1.00000000000001
10
15.5200695484669
20
1.05417017702216
30
0
41
1.00000000000001
10
15.4648514662484
20
1.05415788240818
30
0
41
1.00000000000001
10
15.3880238796257
20
1.0537564552502
30
0
41
1.00000000000001
10
15.2703787835141
20
1.05224724806677
30
0
41
1.00000000000001
10
15.1551509873895
20
1.04951209920218
30
0
41
1.00000000000001
10
15.0399210413772
20
1.04567631272578
30
0
41
1.00000000000001
10
14.9438869600586
20
1.04174191002371
30
0
41
1.00000000000001
10
14.7998346364818
20
1.03447695771182
30
0
41
1.00000000000001
10
14.6846099261671
20
1.02728178116077
30
0
41
1.00000000000001
10
14.5885919675522
20
1.02041725453289
30
0
41
1.00000000000001
10
14.5405763361324
20
1.01678462688292
30
0
41
1.00000000000001
10
14.4637503914003
20
1.01061695765065
30
0
41
1.00000000000001
10
14.386927995911
20
1.00394408795184
30
0
41
1.00000000000001
10
14.3101079548595
20
0.996767206200949
30
0
41
1.00000000000001
10
14.2500900642602
20
0.99088138939873
30
0
41
1.00000000000001
10
14.192473658971
20
0.984962471760717
30
0
41
1.00000000000001
10
14.1372574119073
20
0.979045295945432
30
0
41
1.00000000000001
10
14.0820393788999
20
0.972910427009388
30
0
41
1.00000000000001
10
14.0052118430496
20
0.964032574124495
30
0
41
1.00000000000001
10
13.8875667812351
20
0.94963826340625
30
0
41
1.00000000000001
10
13.7723389433596
20
0.934364070678974
30
0
41
1.00000000000001
10
13.6571088871294
20
0.91811916589014
30
0
41
1.00000000000001
10
13.5610746673752
20
0.903965339970675
30
0
41
1.00000000000001
10
13.4170220781659
20
0.88157208499154
30
0
41
1.00000000000001
10
13.3017971334767
20
0.862426975137361
30
0
41
1.00000000000001
10
13.2057790109847
20
0.845726670024498
30
0
41
1.00000000000001
10
13.1577633022052
20
0.837230014024805
30
0
41
1.00000000000001
10
13.1033956468408
20
0.82740579923074
30
0
41
1.00000000000001
10
13.0682355013757
20
0.820932941276021
30
0
41
1.00000000000001
10
13.0522815045161
20
0.817971435878143
30
0
0
SPLINE
5
E6
100
AcDbEntity
8
1
62
256
6
ByLayer
370
18
48
1
60
0
100
AcDbSpline
70
4
71
3
72
8
73
4
40
0
40
0
40
0
40
0
40
1
40
1
40
1
40
1
41
1
10
37.6072817594465
20
-1.04790429216996
30
0
41
1
10
37.6635453723961
20
-0.899297530678751
30
0
41
1
10
37.7231552513941
20
-0.759595468480029
30
0
41
1
10
37.7865665914029
20
-0.626769467350442
30
0
0
SPLINE
5
E7
100
AcDbEntity
8
1
62
256
6
ByLayer
370
18
48
1
60
0
100
AcDbSpline
70
4
71
3
72
10
73
6
40
0
40
0
40
0
40
0
40
0.5
40
0.5
40
1
40
1
40
1
40
1
41
1
10
6.42824750184653
20
-1.34946059404496
30
0
41
1
10
6.48517112190615
20
-1.34771106320144
30
0
41
1
10
6.54219594974225
20
-1.35250623373739
30
0
41
1
10
6.65642231190245
20
-1.37249780111901
30
0
41
1
10
6.71346027594169
20
-1.3877271399069
30
0
41
1
10
6.76948503376261
20
-1.4069818513882
30
0
0
SPLINE
5
E8
100
AcDbEntity
8
1
62
256
6
ByLayer
370
18
48
1
60
0
100
AcDbSpline
70
4
71
3
72
20
73
16
40
0
40
0
40
0
40
0
40
0.114129878634991
40
0.114129878634991
40
0.228259757269982
40
0.228259757269982
40
0.456519514539964
40
0.456519514539964
40
0.684779271809947
40
0.684779271809947
40
0.798909150444938
40
0.798909150444938
40
0.913039029079929
40
0.913039029079929
40
1
40
1
40
1
40
1
41
1
10
8.32782027454482
20
-1.74204313870379
30
0
41
1
10
8.4787512956153
20
-1.75881636182933
30
0
41
1
10
8.62919009218967
20
-1.7713035910057
30
0
41
1
10
8.92999766990096
20
-1.78647093711336
30
0
41
1
10
9.08021151105848
20
-1.78902891514164
30
0
41
1
10
9.53142600077783
20
-1.78286185991138
30
0
41
1
10
9.8332610975159
20
-1.76071547661118
30
0
41
1
10
10.43452788914
20
-1.67760892636164
30
0
41
1
10
10.7350901286866
20
-1.61893869472809
30
0
41
1
10
11.1871359019185
20
-1.50426564387496
30
0
41
1
10
11.3375595673683
20
-1.46237830161348
30
0
41
1
10
11.6380471222687
20
-1.37110788756738
30
0
41
1
10
11.7883043256638
20
-1.32123081156163
30
0
41
1
10
12.0531779276803
20
-1.22735689299716
30
0
41
1
10
12.1679795891301
20
-1.18495873881616
30
0
41
1
10
12.282737378925
20
-1.14085436176228
30
0
0
SPLINE
5
E9
100
AcDbEntity
8
1
62
256
6
ByLayer
370
18
48
1
60
0
100
AcDbSpline
70
4
71
3
72
70
73
66
40
0
40
0
40
0
40
0
40
0.0088447409992413
40
0.0088447409992413
40
0.04009768031996
40
0.04009768031996
40
0.0713506196406787
40
0.0713506196406787
40
0.102603558961397
40
0.102603558961397
40
0.133856498282116
40
0.133856498282116
40
0.165109437602835
40
0.165109437602835
40
0.196362376923554
40
0.196362376923554
40
0.227615316244275
40
0.227615316244275
40
0.258868255564994
40
0.258868255564994
40
0.290121194885714
40
0.290121194885714
40
0.321374134206434
40
0.321374134206434
40
0.352627073527154
40
0.352627073527154
40
0.383880012847874
40
0.383880012847874
40
0.415132952168594
40
0.415132952168594
40
0.446385891489312
40
0.446385891489312
40
0.477638830810031
40
0.477638830810031
40
0.508891770130749
40
0.508891770130749
40
0.540144709451468
40
0.540144709451468
40
0.571397648772186
40
0.571397648772186
40
0.602650588092905
40
0.602650588092905
40
0.633903527413624
40
0.633903527413624
40
0.665156466734342
40
0.665156466734342
40
0.696409406055061
40
0.696409406055061
40
0.727662345375779
40
0.727662345375779
40
0.758915284696498
40
0.758915284696498
40
0.790168224017216
40
0.790168224017216
40
0.821421163337935
40
0.821421163337935
40
0.852674102658654
40
0.852674102658654
40
0.883927041979372
40
0.883927041979372
40
0.915179981300091
40
0.915179981300091
40
0.977685859941526
40
0.977685859941526
40
1
40
1
40
1
40
1
41
1
10
20.3777973486549
20
1.80789651291445
30
0
41
1
10
20.4202690747885
20
1.80793308647108
30
0
41
1
10
20.4627325983506
20
1.80754828809879
30
0
41
1
10
20.6552497597343
20
1.80384977220507
30
0
41
1
10
20.8052484964632
20
1.79617025731494
30
0
41
1
10
21.1053578741644
20
1.77324542676385
30
0
41
1
10
21.2556890019261
20
1.75693079274373
30
0
41
1
10
21.5563491871005
20
1.71366490845719
30
0
41
1
10
21.7063231227872
20
1.68706051958068
30
0
41
1
10
22.0063005891768
20
1.62706492441615
30
0
41
1
10
22.1561785367789
20
1.59292703204758
30
0
41
1
10
22.456334023965
20
1.51516855214913
30
0
41
1
10
22.6069109852203
20
1.47162626857843
30
0
41
1
10
22.9074966802766
20
1.37825633969399
30
0
41
1
10
23.0574096481216
20
1.32819515897853
30
0
41
1
10
23.3573932668349
20
1.22055150486838
30
0
41
1
10
23.5072977343878
20
1.16292236895623
30
0
41
1
10
23.8076941158761
20
1.04232873099917
30
0
41
1
10
23.9581849942582
20
0.979456020216475
30
0
41
1
10
24.2584277379463
20
0.848545017624303
30
0
41
1
10
24.4081874597897
20
0.780302788826532
30
0
41
1
10
24.708041582672
20
0.640613127065507
30
0
41
1
10
24.8578209636806
20
0.568962109895892
30
0
41
1
10
25.1580998294937
20
0.422645693057348
30
0
41
1
10
25.3084623023709
20
0.347853234147891
30
0
41
1
10
25.608559347093
20
0.19765461249284
30
0
41
1
10
25.7582634428822
20
0.121622359098154
30
0
41
1
10
26.0580173562706
20
-0.0303531060615114
30
0
41
1
10
26.207856866116
20
-0.106752401482339
30
0
41
1
10
26.5083991682378
20
-0.258452710393129
30
0
41
1
10
26.6586104734862
20
-0.333943060325339
30
0
41
1
10
26.9586433333558
20
-0.482537315816472
30
0
41
1
10
27.1083092071233
20
-0.555939435727595
30
0
41
1
10
27.408209907738
20
-0.698730977009632
30
0
41
1
10
27.5582347959725
20
-0.768612601507073
30
0
41
1
10
27.8587611523376
20
-0.905041562715468
30
0
41
1
10
28.0085611532066
20
-0.971013903928537
30
0
41
1
10
28.3083300592962
20
-1.09617642859825
30
0
41
1
10
28.4579839182997
20
-1.15601016684147
30
0
41
1
10
28.7576754758992
20
-1.2705146348205
30
0
41
1
10
28.9077324434737
20
-1.32521827741539
30
0
41
1
10
29.2079221915536
20
-1.4256083624976
30
0
41
1
10
29.357718718041
20
-1.47169128139168
30
0
41
1
10
29.6572713690206
20
-1.55676564218038
30
0
41
1
10
29.806869649385
20
-1.59607306788462
30
0
41
1
10
30.1066124837379
20
-1.6647006433912
30
0
41
1
10
30.2569428399688
20
-1.69443364533149
30
0
41
1
10
30.5569271871459
20
-1.74597327949269
30
0
41
1
10
30.7066545571612
20
-1.76830434393008
30
0
41
1
10
31.0059673227913
20
-1.80190286824603
30
0
41
1
10
31.1556941222343
20
-1.81327338482183
30
0
41
1
10
31.4555166254336
20
-1.82647572817459
30
0
41
1
10
31.6059516070859
20
-1.82822356114988
30
0
41
1
10
31.9058093093157
20
-1.82228583612567
30
0
41
1
10
32.0556195577842
20
-1.81462791387619
30
0
41
1
10
32.3550635842265
20
-1.79071096241859
30
0
41
1
10
32.5048559248307
20
-1.77459010229495
30
0
41
1
10
32.8047638084766
20
-1.73217758029225
30
0
41
1
10
32.9551150088802
20
-1.70582380445734
30
0
41
1
10
33.2546705316632
20
-1.64426035357857
30
0
41
1
10
33.4043746608927
20
-1.60934678487223
30
0
41
1
10
33.8533207516265
20
-1.49156444991814
30
0
41
1
10
34.154113552955
20
-1.39598597822797
30
0
41
1
10
34.5604379742639
20
-1.24880158870519
30
0
41
1
10
34.6672877386647
20
-1.20835004830445
30
0
41
1
10
34.7741612804201
20
-1.16631285554834
30
0
0
SPLINE
5
EA
100
AcDbEntity
8
1
62
256
6
ByLayer
370
18
48
1
60
0
100
AcDbSpline
70
4
71
3
72
10
73
6
40
0
40
0
40
0
40
0
40
0.5
40
0.5
40
1
40
1
40
1
40
1
41
1
10
37.2196325883362
20
-1.60532992627219
30
0
41
1
10
37.1766492759089
20
-1.51919335680961
30
0
41
1
10
37.1458674608247
20
-1.41180382551522
30
0
41
1
10
37.1107752024598
20
-1.15115479598489
30
0
41
1
10
37.1074367428027
20
-1.00516345248107
30
0
41
1
10
37.1183166435962
20
-0.843493491331628
30
0
0
SPLINE
5
EB
100
AcDbEntity
8
1
62
256
6
ByLayer
370
18
48
1
60
0
100
AcDbSpline
70
4
71
2
72
6
73
3
40
0
40
0
40
0
40
1
40
1
40
1
41
1
10
26.2414010276197
20
-0.0643260990896977
30
0
41
1
10
25.9741122078049
20
0.0132735008646421
30
0
41
1
10
25.7097303437746
20
0.147994319762262
30
0
0
SPLINE
5
EC
100
AcDbEntity
8
1
62
256
6
ByLayer
370
18
48
1
60
0
100
AcDbSpline
70
4
71
2
72
6
73
3
40
0
40
0
40
0
40
1
40
1
40
1
41
1
10
14.9909619902584
20
-0.064263788450603
30
0
41
1
10
14.7314447387151
20
0.0105420402227878
30
0
41
1
10
14.4707565997287
20
0.142617541428564
30
0
0
SPLINE
5
ED
100
AcDbEntity
8
1
62
256
6
ByLayer
370
18
48
1
60
0
100
AcDbSpline
70
4
71
2
72
6
73
3
40
0
40
0
40
0
40
1
40
1
40
1
41
1
10
37.3282908231582
20
-0.0123326187156465
30
0
41
1
10
37.1280399844121
20
0.0595095692834491
30
0
41
1
10
36.9283117612116
20
0.162004955223154
30
0
0
SPLINE
5
EE
100
AcDbEntity
8
1
62
256
6
ByLayer
370
18
48
1
60
0
100
AcDbSpline
70
4
71
2
72
6
73
3
40
0
40
0
40
0
40
1
40
1
40
1
41
1
10
32.1499244057204
20
0.0653169923101871
30
0
41
1
10
32.4585640113241
20
-0.0255645837341376
30
0
41
1
10
32.7640274375297
20
-0.187611946708358
30
0
0
SPLINE
5
EF
100
AcDbEntity
8
1
62
256
6
ByLayer
370
18
48
1
60
0
100
AcDbSpline
70
4
71
2
72
6
73
3
40
0
40
0
40
0
40
1
40
1
40
1
41
1
10
9.80039331961223
20
0.0210301641687352
30
0
41
1
10
10.0133421630984
20
-0.0569157311116157
30
0
41
1
10
10.2257361810491
20
-0.16902073281355
30
0
0
SPLINE
5
F0
100
AcDbEntity
8
1
62
256
6
ByLayer
370
18
48
1
60
0
100
AcDbSpline
70
4
71
2
72
6
73
3
40
0
40
0
40
0
40
1
40
1
40
1
41
1
10
20.8998989628112
20
0.0652091306176317
30
0
41
1
10
21.208244700825
20
-0.0254802826020182
30
0
41
1
10
21.5141815281564
20
-0.187818305642708
30
0
0
SPLINE
5
F1
100
AcDbEntity
8
1
62
256
6
ByLayer
370
18
48
1
60
0
100
AcDbSpline
70
4
71
3
72
15
73
11
40
0
40
0
40
0
40
0
40
0.163242495463587
40
0.285599700195995
40
0.423060842841459
40
0.52649558279832
40
0.626393426689442
40
0.714712100378616
40
0.836798856638134
40
1
40
1
40
1
40
1
41
1
10
27.766879656549
20
-1.82036472689083
30
0
41
1
10
27.9765746557274
20
-1.82048175478516
30
0
41
1
10
28.3434966119756
20
-1.82082093458811
30
0
41
1
10
28.887448218508
20
-1.82296570768438
30
0
41
1
10
29.3540707637666
20
-1.82272023773322
30
0
41
1
10
29.7923408683241
20
-1.82396805939862
30
0
41
1
10
30.1673979366824
20
-1.82420324985182
30
0
41
1
10
30.5661161540422
20
-1.82428189267708
30
0
41
1
10
31.0466473321304
20
-1.82776535518403
30
0
41
1
10
31.4132856537958
20
-1.82727812211885
30
0
41
1
10
31.6230036847414
20
-1.82662223499025
30
0
0
SPLINE
5
F2
100
AcDbEntity
8
1
62
256
6
ByLayer
370
18
48
1
60
0
100
AcDbSpline
70
4
71
3
72
17
73
13
40
0
40
0
40
0
40
0
40
0.15439522301282
40
0.280776745588451
40
0.36824575319078
40
0.454150298196467
40
0.550473436548269
40
0.64616253432192
40
0.76628295851361
40
0.863414486503321
40
0.978310314452122
40
1
40
1
40
1
40
1
41
1
10
31.624066581185
20
1.82663309034302
30
0
41
1
10
31.4468395839395
20
1.82713586365659
30
0
41
1
10
31.1245046370467
20
1.82739823990184
30
0
41
1
10
30.7014435910161
20
1.8255329962798
30
0
41
1
10
30.3573187084803
20
1.82395200879529
30
0
41
1
10
30.0475819063861
20
1.82435822905239
30
0
41
1
10
29.7283488793685
20
1.82362719386518
30
0
41
1
10
29.3698302625267
20
1.8227860891204
30
0
41
1
10
29.0103996600113
20
1.82331123472395
30
0
41
1
10
28.6296947246644
20
1.8213477767556
30
0
41
1
10
28.3610312602141
20
1.82126479733355
30
0
41
1
10
28.2041888620954
20
1.82107479866892
30
0
41
1
10
28.1792860337641
20
1.8210418127517
30
0
0
SPLINE
5
F3
100
AcDbEntity
8
1
62
256
6
ByLayer
370
18
48
1
60
0
100
AcDbSpline
70
4
71
3
72
19
73
15
40
0
40
0
40
0
40
0
40
0.12551951416536
40
0.220590505526936
40
0.294398309212605
40
0.343058573031768
40
0.403635032132022
40
0.477085818092456
40
0.550918183000901
40
0.626877964811289
40
0.679244897219198
40
0.75202784239781
40
0.862835106373633
40
1
40
1
40
1
40
1
41
1
10
16.5134332554092
20
-1.79950741414891
30
0
41
1
10
16.6749231383919
20
-1.79971584694289
30
0
41
1
10
16.9587523018433
20
-1.80017645097854
30
0
41
1
10
17.3376684979149
20
-1.80168104899835
30
0
41
1
10
17.6176065627149
20
-1.80204022320038
30
0
41
1
10
17.8531818670544
20
-1.80215402989185
30
0
41
1
10
18.0882993599535
20
-1.80246510964756
30
0
41
1
10
18.3558080540738
20
-1.80405662948794
30
0
41
1
10
18.643121597466
20
-1.80411675077119
30
0
41
1
10
18.9032921625953
20
-1.80423441963768
30
0
41
1
10
19.1620959952587
20
-1.80526985982522
30
0
41
1
10
19.4657724808449
20
-1.80655109738294
30
0
41
1
10
19.8785811313824
20
-1.80562345782704
30
0
41
1
10
20.1977147306492
20
-1.80694125910546
30
0
41
1
10
20.3742411800021
20
-1.80783713977209
30
0
0
SPLINE
5
F4
100
AcDbEntity
8
1
62
256
6
ByLayer
370
18
48
1
60
0
100
AcDbSpline
70
4
71
3
72
15
73
11
40
0
40
0
40
0
40
0
40
0.0883671069368529
40
0.217906578127244
40
0.307056146936132
40
0.371019869858029
40
0.470595250323142
40
0.612032320290879
40
0.79462262699808
40
1
40
1
40
1
40
1
41
1
10
6.77020904655788
20
-1.78357294804857
30
0
41
1
10
6.83960006011387
20
-1.78368484530481
30
0
41
1
10
7.01068169944426
20
-1.78392460448566
30
0
41
1
10
7.25167085833198
20
-1.78414051502668
30
0
41
1
10
7.47336981424178
20
-1.78421732956804
30
0
41
1
10
7.67157214022211
20
-1.78462594147723
30
0
41
1
10
7.91111298536038
20
-1.78591688070091
30
0
41
1
10
8.24369025579944
20
-1.78605126955966
30
0
41
1
10
8.65935834400887
20
-1.78701133277662
30
0
41
1
10
8.96394593554547
20
-1.78740857457905
30
0
41
1
10
9.12518087176176
20
-1.7876228204963
30
0
0
SPLINE
5
F5
100
AcDbEntity
8
1
62
256
6
ByLayer
370
18
48
1
60
0
100
AcDbSpline
70
4
71
3
72
16
73
12
40
0
40
0
40
0
40
0
40
0.184149267778222
40
0.352282788874711
40
0.482706826864238
40
0.558201328627972
40
0.6361490704704
40
0.700284725403135
40
0.797340165186273
40
0.927286612804685
40
1
40
1
40
1
40
1
41
1
10
20.4186809054266
20
1.80798240593637
30
0
41
1
10
20.1997759369841
20
1.80642020883082
30
0
41
1
10
19.7805609974731
20
1.8040933606641
30
0
41
1
10
19.2037662808699
20
1.80572819127829
30
0
41
1
10
18.7577109187549
20
1.80388401310907
30
0
41
1
10
18.4180899555566
20
1.8043011544747
30
0
41
1
10
18.1579529136121
20
1.8027696127119
30
0
41
1
10
17.8720503862471
20
1.80207025838774
30
0
41
1
10
17.5239459618018
20
1.80214632929031
30
0
41
1
10
17.1655036215695
20
1.80078529060535
30
0
41
1
10
16.9232101041476
20
1.80023642372473
30
0
41
1
10
16.8362839133937
20
1.80006537394567
30
0
0
SPLINE
5
F6
100
AcDbEntity
8
1
62
256
6
ByLayer
370
18
48
1
60
0
100
AcDbSpline
70
4
71
3
72
13
73
9
40
0
40
0
40
0
40
0
40
0.225130117516453
40
0.393905267432329
40
0.509286287279616
40
0.646483587763877
40
0.836445900088382
40
1
40
1
40
1
40
1
41
1
10
9.16684410104489
20
1.78768489165785
30
0
41
1
10
8.98714354805838
20
1.78740328857757
30
0
41
1
10
8.67264942732766
20
1.78697057065543
30
0
41
1
10
8.26562965300099
20
1.78586432575014
30
0
41
1
10
7.92910819663462
20
1.78598077286753
30
0
41
1
10
7.57548391395125
20
1.7840512453393
30
0
41
1
10
7.18337372337683
20
1.78410120109177
30
0
41
1
10
6.90088824524025
20
1.78366260901953
30
0
41
1
10
6.7701964272664
20
1.78352113656643
30
0
0
LINE
5
7B
100
AcDbEntity
8
SK1
62
256
6
ByLayer
370
18
48
1
60
0
100
AcDbLine
10
-34.989637
20
3
30
0
11
-34.989637
21
-3
31
0
39
0
210
0
220
0
230
1
0
LINE
5
7D
100
AcDbEntity
8
SK1
62
256
6
ByLayer
370
18
48
1
60
0
100
AcDbLine
10
-36
20
1.25
30
0
11
-36
21
-1.25
31
0
39
0
210
0
220
0
230
1
0
LINE
5
7E
100
AcDbEntity
8
SK1
62
256
6
ByLayer
370
18
48
1
60
0
100
AcDbLine
10
0
20
-3
30
0
11
0
21
3
31
0
39
0
210
0
220
0
230
1
0
LINE
5
7F
100
AcDbEntity
8
1
62
256
6
ByLayer
370
18
48
1
60
0
100
AcDbLine
10
37.118317
20
-0.843493
30
0
11
37.641886
21
-0.423158
31
0
39
0
210
0
220
0
230
1
0
LINE
5
80
100
AcDbEntity
8
1
62
256
6
ByLayer
370
18
48
1
60
0
100
AcDbLine
10
37.641886
20
-0.423158
30
0
11
37.644537
21
-0.40583
31
0
39
0
210
0
220
0
230
1
0
LINE
5
81
100
AcDbEntity
8
1
62
256
6
ByLayer
370
13
48
1
60
0
100
AcDbLine
10
0.806659
20
2.417956
30
0
11
0.806659
21
-2.417956
31
0
39
0
210
0
220
0
230
1
0
LINE
5
82
100
AcDbEntity
8
1
62
256
6
ByLayer
370
13
48
1
60
0
100
AcDbLine
10
1.614849
20
1.835914
30
0
11
1.614849
21
-1.835914
31
0
39
0
210
0
220
0
230
1
0
LINE
5
83
100
AcDbEntity
8
1
62
256
6
ByLayer
370
18
48
1
60
0
100
AcDbLine
10
0
20
-3
30
0
11
0
21
3
31
0
39
0
210
0
220
0
230
1
0
LINE
5
84
100
AcDbEntity
8
80
62
256
6
ByLayer
370
18
48
1
60
0
100
AcDbLine
10
0
20
0
30
0
11
-5
21
0
31
0
39
0
210
0
220
0
230
1
0
LINE
5
85
100
AcDbEntity
8
4
62
256
6
ByLayer
370
18
48
0.05
60
0
100
AcDbLine
10
38
20
0
30
0
11
0
21
0
31
0
39
0
210
0
220
0
230
1
0
LINE
5
87
100
AcDbEntity
8
SK4
62
256
6
ByLayer
370
18
48
0.05
60
0
100
AcDbLine
10
43
20
0
30
0
11
-41
21
0
31
0
39
0
210
0
220
0
230
1
0
LINE
5
89
100
AcDbEntity
8
SK1
62
256
6
ByLayer
370
18
48
1
60
0
100
AcDbLine
10
-34.989637
20
-3
30
0
11
0
21
-3
31
0
39
0
210
0
220
0
230
1
0
LINE
5
8A
100
AcDbEntity
8
SK1
62
256
6
ByLayer
370
18
48
1
60
0
100
AcDbLine
10
0
20
3
30
0
11
-34.989637
21
3
31
0
39
0
210
0
220
0
230
1
0
LINE
5
8B
100
AcDbEntity
8
SK1
62
256
6
ByLayer
370
18
48
1
60
0
100
AcDbLine
10
-36
20
-1.25
30
0
11
-34.989637
21
-3
31
0
39
0
210
0
220
0
230
1
0
LINE
5
8C
100
AcDbEntity
8
SK1
62
256
6
ByLayer
370
18
48
1
60
0
100
AcDbLine
10
-34.989637
20
3
30
0
11
-36
21
1.25
31
0
39
0
210
0
220
0
230
1
0
LINE
5
8D
100
AcDbEntity
8
1
62
256
6
ByLayer
370
18
48
1
60
0
100
AcDbLine
10
1.614849
20
-1.835914
30
0
11
6.425279
21
-1.844572
31
0
39
0
210
0
220
0
230
1
0
LINE
5
8E
100
AcDbEntity
8
1
62
256
6
ByLayer
370
18
48
1
60
0
100
AcDbLine
10
15.526428
20
-1.860954
30
0
11
16.161324
21
-1.862097
31
0
39
0
210
0
220
0
230
1
0
LINE
5
8F
100
AcDbEntity
8
1
62
256
6
ByLayer
370
18
48
1
60
0
100
AcDbLine
10
26.780045
20
-1.881211
30
0
11
27.413911
21
-1.882352
31
0
39
0
210
0
220
0
230
1
0
LINE
5
90
100
AcDbEntity
8
1
62
256
6
ByLayer
370
18
48
1
60
0
100
AcDbLine
10
27.413911
20
1.882352
30
0
11
26.780045
21
1.881211
31
0
39
0
210
0
220
0
230
1
0
LINE
5
91
100
AcDbEntity
8
1
62
256
6
ByLayer
370
18
48
1
60
0
100
AcDbLine
10
16.161324
20
1.862097
30
0
11
15.526428
21
1.860954
31
0
39
0
210
0
220
0
230
1
0
LINE
5
92
100
AcDbEntity
8
1
62
256
6
ByLayer
370
18
48
1
60
0
100
AcDbLine
10
6.425279
20
1.844572
30
0
11
1.614849
21
1.835914
31
0
39
0
210
0
220
0
230
1
0
LINE
5
93
100
AcDbEntity
8
81
62
256
6
ByLayer
370
18
48
1
60
0
100
AcDbLine
10
38
20
0
30
0
11
43
21
0
31
0
39
0
210
0
220
0
230
1
0
LINE
5
94
100
AcDbEntity
8
SK2
62
256
6
ByLayer
370
13
48
1
60
0
100
AcDbLine
10
-44.625163
20
32.117107
30
0
11
-44.625163
21
-11.75
31
0
39
0
210
0
220
0
230
1
0
LINE
5
96
100
AcDbEntity
8
SK2
62
256
6
ByLayer
370
13
48
1
60
0
100
AcDbLine
10
-37.5875
20
3
30
0
11
-46.625163
21
3
31
0
39
0
210
0
220
0
230
1
0
LINE
5
97
100
AcDbEntity
8
SK2
62
256
6
ByLayer
370
13
48
1
60
0
100
AcDbLine
10
-37.5875
20
-3
30
0
11
-46.625163
21
-3
31
0
39
0
210
0
220
0
230
1
0
LINE
5
98
100
AcDbEntity
8
1
62
256
6
ByLayer
370
18
48
1
60
1
100
AcDbLine
10
-44.625163
20
3
30
0
11
-45.085946
21
6.499998
31
0
39
0
210
0
220
0
230
1
0
LINE
5
99
100
AcDbEntity
8
1
62
256
6
ByLayer
370
18
48
1
60
1
100
AcDbLine
10
-45.085946
20
6.499998
30
0
11
-44.164379
21
6.500002
31
0
39
0
210
0
220
0
230
1
0
LINE
5
9A
100
AcDbEntity
8
1
62
256
6
ByLayer
370
18
48
1
60
1
100
AcDbLine
10
-44.164379
20
6.500002
30
0
11
-44.625163
21
3
31
0
39
0
210
0
220
0
230
1
0
LINE
5
9B
100
AcDbEntity
8
1
62
256
6
ByLayer
370
18
48
1
60
1
100
AcDbLine
10
-44.625163
20
-3
30
0
11
-44.164379
21
-6.499998
31
0
39
0
210
0
220
0
230
1
0
LINE
5
9C
100
AcDbEntity
8
1
62
256
6
ByLayer
370
18
48
1
60
1
100
AcDbLine
10
-44.164379
20
-6.499998
30
0
11
-45.085946
21
-6.500002
31
0
39
0
210
0
220
0
230
1
0
LINE
5
9D
100
AcDbEntity
8
1
62
256
6
ByLayer
370
18
48
1
60
1
100
AcDbLine
10
-45.085946
20
-6.500002
30
0
11
-44.625163
21
-3
31
0
39
0
210
0
220
0
230
1
0
LINE
5
9E
100
AcDbEntity
8
2
62
256
6
ByLayer
370
13
48
1
60
0
100
AcDbLine
10
50.083343
20
29.610193
30
0
11
50.083343
21
-10.65
31
0
39
0
210
0
220
0
230
1
0
LINE
5
A0
100
AcDbEntity
8
2
62
256
6
ByLayer
370
13
48
1
60
0
100
AcDbLine
10
38.8059
20
1.9
30
0
11
52.083343
21
1.9
31
0
39
0
210
0
220
0
230
1
0
LINE
5
A1
100
AcDbEntity
8
2
62
256
6
ByLayer
370
13
48
1
60
0
100
AcDbLine
10
38.8059
20
-1.9
30
0
11
52.083343
21
-1.9
31
0
39
0
210
0
220
0
230
1
0
LINE
5
A2
100
AcDbEntity
8
1
62
256
6
ByLayer
370
18
48
1
60
1
100
AcDbLine
10
50.083343
20
1.9
30
0
11
49.622559
21
5.399998
31
0
39
0
210
0
220
0
230
1
0
LINE
5
A3
100
AcDbEntity
8
1
62
256
6
ByLayer
370
18
48
1
60
1
100
AcDbLine
10
49.622559
20
5.399998
30
0
11
50.544126
21
5.400002
31
0
39
0
210
0
220
0
230
1
0
LINE
5
A4
100
AcDbEntity
8
1
62
256
6
ByLayer
370
18
48
1
60
1
100
AcDbLine
10
50.544126
20
5.400002
30
0
11
50.083343
21
1.9
31
0
39
0
210
0
220
0
230
1
0
LINE
5
A5
100
AcDbEntity
8
1
62
256
6
ByLayer
370
18
48
1
60
1
100
AcDbLine
10
50.083343
20
-1.9
30
0
11
50.544126
21
-5.399998
31
0
39
0
210
0
220
0
230
1
0
LINE
5
A6
100
AcDbEntity
8
1
62
256
6
ByLayer
370
18
48
1
60
1
100
AcDbLine
10
50.544126
20
-5.399998
30
0
11
49.622559
21
-5.400002
31
0
39
0
210
0
220
0
230
1
0
LINE
5
A7
100
AcDbEntity
8
1
62
256
6
ByLayer
370
18
48
1
60
1
100
AcDbLine
10
49.622559
20
-5.400002
30
0
11
50.083343
21
-1.9
31
0
39
0
210
0
220
0
230
1
0
LINE
5
FD
100
AcDbEntity
8
1
62
256
6
ByLayer
370
18
48
1
60
1
100
AcDbLine
10
-44.625163
20
3
30
0
11
-45.085946
21
6.499998
31
0
39
0
210
0
220
0
230
1
0
LINE
5
FE
100
AcDbEntity
8
1
62
256
6
ByLayer
370
18
48
1
60
1
100
AcDbLine
10
-45.085946
20
6.499998
30
0
11
-44.164379
21
6.500002
31
0
39
0
210
0
220
0
230
1
0
LINE
5
FF
100
AcDbEntity
8
1
62
256
6
ByLayer
370
18
48
1
60
1
100
AcDbLine
10
-44.164379
20
6.500002
30
0
11
-44.625163
21
3
31
0
39
0
210
0
220
0
230
1
0
LINE
5
101
100
AcDbEntity
8
1
62
256
6
ByLayer
370
18
48
1
60
1
100
AcDbLine
10
-44.625163
20
-3
30
0
11
-44.164379
21
-6.499998
31
0
39
0
210
0
220
0
230
1
0
LINE
5
102
100
AcDbEntity
8
1
62
256
6
ByLayer
370
18
48
1
60
1
100
AcDbLine
10
-44.164379
20
-6.499998
30
0
11
-45.085946
21
-6.500002
31
0
39
0
210
0
220
0
230
1
0
LINE
5
103
100
AcDbEntity
8
1
62
256
6
ByLayer
370
18
48
1
60
1
100
AcDbLine
10
-45.085946
20
-6.500002
30
0
11
-44.625163
21
-3
31
0
39
0
210
0
220
0
230
1
0
LINE
5
107
100
AcDbEntity
8
1
62
256
6
ByLayer
370
18
48
1
60
1
100
AcDbLine
10
50.083343
20
1.9
30
0
11
49.622559
21
5.399998
31
0
39
0
210
0
220
0
230
1
0
LINE
5
108
100
AcDbEntity
8
1
62
256
6
ByLayer
370
18
48
1
60
1
100
AcDbLine
10
49.622559
20
5.399998
30
0
11
50.544126
21
5.400002
31
0
39
0
210
0
220
0
230
1
0
LINE
5
109
100
AcDbEntity
8
1
62
256
6
ByLayer
370
18
48
1
60
1
100
AcDbLine
10
50.544126
20
5.400002
30
0
11
50.083343
21
1.9
31
0
39
0
210
0
220
0
230
1
0
LINE
5
10B
100
AcDbEntity
8
1
62
256
6
ByLayer
370
18
48
1
60
1
100
AcDbLine
10
50.083343
20
-1.9
30
0
11
50.544126
21
-5.399998
31
0
39
0
210
0
220
0
230
1
0
LINE
5
10C
100
AcDbEntity
8
1
62
256
6
ByLayer
370
18
48
1
60
1
100
AcDbLine
10
50.544126
20
-5.399998
30
0
11
49.622559
21
-5.400002
31
0
39
0
210
0
220
0
230
1
0
LINE
5
10D
100
AcDbEntity
8
1
62
256
6
ByLayer
370
18
48
1
60
1
100
AcDbLine
10
49.622559
20
-5.400002
30
0
11
50.083343
21
-1.9
31
0
39
0
210
0
220
0
230
1
0
MTEXT
5
F7
100
AcDbEntity
8
SK6
62
256
6
ByLayer
370
13
48
1
60
0
100
AcDbMText
10
-27.54646
20
34.440328
30
0
210
0
220
0
230
1
1
\W0.7492;860.1-0380-027A0-PM P1BM
40
3.5
41
0
44
1.084337
50
0
71
7
72
5
7
iso_b_vert
0
MTEXT
5
FB
100
AcDbEntity
8
SK2
62
256
6
ByLayer
370
18
48
1
60
0
100
AcDbMText
10
-46.189796
20
16.409024
30
0
210
0
220
0
230
1
1
%%c
40
3.5
41
0
44
1.084337
50
90
71
7
72
5
7
iso_b_vert
0
MTEXT
5
FC
100
AcDbEntity
8
SK2
62
256
6
ByLayer
370
18
48
1
60
0
100
AcDbMText
10
-46.189796
20
21.63168
30
0
210
0
220
0
230
1
1
\W0.7317;6,000
40
3.5
41
0
44
1.084337
50
90
71
7
72
5
7
iso_b_vert
0
MTEXT
5
105
100
AcDbEntity
8
2
62
256
6
ByLayer
370
18
48
1
60
0
100
AcDbMText
10
48.518709
20
13.90211
30
0
210
0
220
0
230
1
1
%%c
40
3.5
41
0
44
1.084337
50
90
71
7
72
5
7
iso_b_vert
0
MTEXT
5
106
100
AcDbEntity
8
2
62
256
6
ByLayer
370
18
48
1
60
0
100
AcDbMText
10
48.518709
20
19.124766
30
0
210
0
220
0
230
1
1
\W0.7317;3,800
40
3.5
41
0
44
1.084337
50
90
71
7
72
5
7
iso_b_vert
0
HATCH
5
100
100
AcDbEntity
8
SK2
62
256
6
ByLayer
370
13
48
1
60
0
100
AcDbHatch
10
0
20
0
30
0
210
0
220
0
230
1
2
ANSI31
70
0
71
0
91
1
92
5
93
3
72
1
10
-44.6251625675374
20
3
11
-45.0859463090902
21
6.49999830744682
72
1
10
-45.0859463090902
20
6.49999830744682
11
-44.1643788259847
21
6.50000169255318
72
1
10
-44.1643788259847
20
6.50000169255318
11
-44.6251625675374
21
3
97
0
75
0
76
1
52
0
41
0.0062
77
0
78
1
53
45
43
0
44
0
45
-0.0139193969876572
46
0.0139193969876572
79
0
47
0
98
1
10
0
20
0
0
HATCH
5
104
100
AcDbEntity
8
SK2
62
256
6
ByLayer
370
13
48
1
60
0
100
AcDbHatch
10
0
20
0
30
0
210
0
220
0
230
1
2
ANSI31
70
0
71
0
91
1
92
5
93
3
72
1
10
-44.6251625675374
20
-3
11
-44.1643788259847
21
-6.49999830744682
72
1
10
-44.1643788259847
20
-6.49999830744682
11
-45.0859463090902
21
-6.50000169255318
72
1
10
-45.0859463090902
20
-6.50000169255318
11
-44.6251625675374
21
-3
97
0
75
0
76
1
52
0
41
0.0062
77
0
78
1
53
45
43
0
44
0
45
-0.0139193969876572
46
0.0139193969876572
79
0
47
0
98
1
10
0
20
0
0
HATCH
5
10A
100
AcDbEntity
8
2
62
256
6
ByLayer
370
13
48
1
60
0
100
AcDbHatch
10
0
20
0
30
0
210
0
220
0
230
1
2
ANSI31
70
0
71
0
91
1
92
5
93
3
72
1
10
50.083342615295
20
1.90000000000001
11
49.6225588737423
21
5.39999830744682
72
1
10
49.6225588737423
20
5.39999830744682
11
50.5441263568478
21
5.40000169255319
72
1
10
50.5441263568478
20
5.40000169255319
11
50.083342615295
21
1.90000000000001
97
0
75
0
76
1
52
0
41
0.0062
77
0
78
1
53
45
43
0
44
0
45
-0.0139193969876572
46
0.0139193969876572
79
0
47
0
98
1
10
0
20
0
0
HATCH
5
10E
100
AcDbEntity
8
2
62
256
6
ByLayer
370
13
48
1
60
0
100
AcDbHatch
10
0
20
0
30
0
210
0
220
0
230
1
2
ANSI31
70
0
71
0
91
1
92
5
93
3
72
1
10
50.083342615295
20
-1.89999999999998
11
50.5441263568478
21
-5.39999830744679
72
1
10
50.5441263568478
20
-5.39999830744679
11
49.6225588737423
21
-5.40000169255316
72
1
10
49.6225588737423
20
-5.40000169255316
11
50.083342615295
21
-1.89999999999998
97
0
75
0
76
1
52
0
41
0.0062
77
0
78
1
53
45
43
0
44
0
45
-0.0139193969876572
46
0.0139193969876572
79
0
47
0
98
1
10
0
20
0
0
DIMENSION
5
110
100
AcDbEntity
8
2
62
256
6
ByLayer
370
13
48
1
60
0
100
AcDbDimension
2
_U0
10
37.2184
20
-12.113398
30
0
11
18.6092
21
-12.113398
31
0
70
32
71
1
72
1
41
1
210
0
220
0
230
1
3
Standard
100
AcDbAlignedDimension
13
0
23
0
33
0
14
37.2184
24
-1.9
34
0
50
0
100
AcDbRotatedDimension
1001
ACAD
1000
DSTYLE
1002
{
1070
   371
1070
    13
1070
   372
1070
    13
1070
   170
1070
     0
1070
   144
1040
1.0
1070
   277
1070
     2
1070
   278
1070
    44
1070
   146
1040
1.0
1070
   345
1005
16
1070
   347
1005
16
1070
   346
1005
16
1070
   344
1005
0
1070
   343
1005
0
1070
   172
1070
     1
1070
    76
1070
     0
1070
    75
1070
     0
1070
   282
1070
     0
1070
   281
1070
     0
1070
    71
1070
     0
1070
    74
1070
     0
1070
   279
1070
     0
1070
   173
1070
     1
1070
   340
1005
F8
1070
   271
1070
     2
1070
   272
1070
     2
1070
    77
1070
     1
1070
    73
1070
     1
1070
   171
1070
     3
1070
   274
1070
     4
1070
   177
1070
    35
1070
   176
1070
    35
1070
   178
1070
    35
1070
    48
1040
-0.1
1070
    41
1040
3.5
1070
   147
1040
1.75
1070
    42
1040
1.5875
1070
    44
1040
2.0
1070
   140
1040
3.5
1002
}
1001
ACAD_DSTYLE_DIM_LINETYPE
1070
   380
1005
16
1001
ACAD_DSTYLE_DIM_EXT1_LINETYPE
1070
   381
1005
16
1001
ACAD_DSTYLE_DIM_EXT2_LINETYPE
1070
   382
1005
16
0
DIMENSION
5
129
100
AcDbEntity
8
SK2
62
256
6
ByLayer
370
13
48
1
60
0
100
AcDbDimension
2
_U1
10
38
20
-31.692985
30
0
11
1
21
-31.692985
31
0
70
32
71
1
72
1
41
1
210
0
220
0
230
1
3
Standard
100
AcDbAlignedDimension
13
-36
23
-3
33
0
14
38
24
0
34
0
50
0
100
AcDbRotatedDimension
1001
ACAD
1000
DSTYLE
1002
{
1070
   371
1070
    13
1070
   372
1070
    13
1070
   170
1070
     0
1070
   144
1040
1.0
1070
   277
1070
     2
1070
   278
1070
    44
1070
   146
1040
1.0
1070
   345
1005
16
1070
   347
1005
16
1070
   346
1005
16
1070
   344
1005
0
1070
   343
1005
0
1070
   172
1070
     1
1070
    76
1070
     0
1070
    75
1070
     0
1070
   282
1070
     0
1070
   281
1070
     0
1070
    71
1070
     0
1070
    74
1070
     0
1070
   279
1070
     0
1070
   173
1070
     1
1070
   340
1005
F8
1070
   271
1070
     2
1070
   272
1070
     2
1070
    77
1070
     1
1070
    73
1070
     1
1070
   171
1070
     3
1070
   274
1070
     4
1070
   177
1070
    35
1070
   176
1070
    35
1070
   178
1070
    35
1070
    48
1040
-0.1
1070
    41
1040
3.5
1070
   147
1040
1.75
1070
    42
1040
1.5875
1070
    44
1040
2.0
1070
   140
1040
3.5
1002
}
1001
ACAD_DSTYLE_DIM_LINETYPE
1070
   380
1005
16
1001
ACAD_DSTYLE_DIM_EXT1_LINETYPE
1070
   381
1005
16
1001
ACAD_DSTYLE_DIM_EXT2_LINETYPE
1070
   382
1005
16
0
DIMENSION
5
141
100
AcDbEntity
8
SK2
62
256
6
ByLayer
370
13
48
1
60
0
100
AcDbDimension
2
_U2
10
38
20
13.509119
30
0
11
28.11
21
13.509119
31
0
70
32
71
1
72
1
41
1
210
0
220
0
230
1
3
Standard
100
AcDbAlignedDimension
13
18.22
23
1.9
33
0
14
38
24
0
34
0
50
0
100
AcDbRotatedDimension
1001
ACAD
1000
DSTYLE
1002
{
1070
   371
1070
    13
1070
   372
1070
    13
1070
   170
1070
     0
1070
   144
1040
1.0
1070
   277
1070
     2
1070
   278
1070
    44
1070
   146
1040
1.0
1070
   345
1005
16
1070
   347
1005
16
1070
   346
1005
16
1070
   344
1005
0
1070
   343
1005
0
1070
   172
1070
     1
1070
    76
1070
     0
1070
    75
1070
     0
1070
   282
1070
     0
1070
   281
1070
     0
1070
    71
1070
     0
1070
    74
1070
     0
1070
   279
1070
     0
1070
   173
1070
     1
1070
   340
1005
F8
1070
   271
1070
     2
1070
   272
1070
     2
1070
    77
1070
     1
1070
    73
1070
     1
1070
   171
1070
     3
1070
   274
1070
     4
1070
   177
1070
    35
1070
   176
1070
    35
1070
   178
1070
    35
1070
    48
1040
-0.1
1070
    41
1040
3.5
1070
   147
1040
1.75
1070
    42
1040
1.5875
1070
    44
1040
2.0
1070
   140
1040
3.5
1002
}
1001
ACAD_DSTYLE_DIM_LINETYPE
1070
   380
1005
16
1001
ACAD_DSTYLE_DIM_EXT1_LINETYPE
1070
   381
1005
16
1001
ACAD_DSTYLE_DIM_EXT2_LINETYPE
1070
   382
1005
16
0
DIMENSION
5
159
100
AcDbEntity
8
SK2
62
256
6
ByLayer
370
13
48
1
60
0
100
AcDbDimension
2
_U3
10
37.2184
20
-14.702503
30
0
11
55.583333
21
-14.702503
31
0
70
32
71
1
72
1
41
1
210
0
220
0
230
1
3
Standard
100
AcDbAlignedDimension
13
38
23
0
33
0
14
37.2184
24
-1.9
34
0
50
0
100
AcDbRotatedDimension
1001
ACAD
1000
DSTYLE
1002
{
1070
   371
1070
    13
1070
   372
1070
    13
1070
   170
1070
     0
1070
   144
1040
1.0
1070
   277
1070
     2
1070
   278
1070
    44
1070
   146
1040
1.0
1070
   345
1005
16
1070
   347
1005
16
1070
   346
1005
16
1070
   344
1005
0
1070
   343
1005
0
1070
   172
1070
     1
1070
    76
1070
     0
1070
    75
1070
     0
1070
   282
1070
     0
1070
   281
1070
     0
1070
    71
1070
     0
1070
    74
1070
     0
1070
   279
1070
     0
1070
   173
1070
     1
1070
   340
1005
F8
1070
   271
1070
     2
1070
   272
1070
     2
1070
    77
1070
     1
1070
    73
1070
     1
1070
   171
1070
     3
1070
   274
1070
     4
1070
   177
1070
    35
1070
   176
1070
    35
1070
   178
1070
    35
1070
    48
1040
-0.1
1070
    41
1040
3.5
1070
   147
1040
1.75
1070
    42
1040
1.5875
1070
    44
1040
2.0
1070
   140
1040
3.5
1002
}
1001
ACAD_DSTYLE_DIM_LINETYPE
1070
   380
1005
16
1001
ACAD_DSTYLE_DIM_EXT1_LINETYPE
1070
   381
1005
16
1001
ACAD_DSTYLE_DIM_EXT2_LINETYPE
1070
   382
1005
16
0
DIMENSION
5
173
100
AcDbEntity
8
SK2
62
256
6
ByLayer
370
13
48
1
60
0
100
AcDbDimension
2
_U4
10
37.2184
20
-21.343428
30
0
11
0.6092
21
-21.343428
31
0
70
32
71
1
72
1
41
1
210
0
220
0
230
1
3
Standard
100
AcDbAlignedDimension
13
-36
23
-3
33
0
14
37.2184
24
-1.9
34
0
50
0
100
AcDbRotatedDimension
1001
ACAD
1000
DSTYLE
1002
{
1070
   371
1070
    13
1070
   372
1070
    13
1070
   170
1070
     0
1070
   144
1040
1.0
1070
   277
1070
     2
1070
   278
1070
    44
1070
   146
1040
1.0
1070
   345
1005
16
1070
   347
1005
16
1070
   346
1005
16
1070
   344
1005
0
1070
   343
1005
0
1070
   172
1070
     1
1070
    76
1070
     0
1070
    75
1070
     0
1070
   282
1070
     0
1070
   281
1070
     0
1070
    71
1070
     0
1070
    74
1070
     0
1070
   279
1070
     0
1070
   173
1070
     1
1070
   340
1005
F8
1070
   271
1070
     2
1070
   272
1070
     2
1070
    77
1070
     1
1070
    73
1070
     1
1070
   171
1070
     3
1070
   274
1070
     4
1070
   177
1070
    35
1070
   176
1070
    35
1070
   178
1070
    35
1070
    48
1040
-0.1
1070
    41
1040
3.5
1070
   147
1040
1.75
1070
    42
1040
1.5875
1070
    44
1040
2.0
1070
   140
1040
3.5
1002
}
1001
ACAD_DSTYLE_DIM_LINETYPE
1070
   380
1005
16
1001
ACAD_DSTYLE_DIM_EXT1_LINETYPE
1070
   381
1005
16
1001
ACAD_DSTYLE_DIM_EXT2_LINETYPE
1070
   382
1005
16
0
ENDSEC
0
SECTION
2
OBJECTS
0
DICTIONARY
5
1fb
330
0
100
AcDbDictionary
280
0
281
1
3
ACAD_GROUP
350
1fc
3
ACAD_MLINESTYLE
350
1fd
0
DICTIONARY
5
1fc
330
0
100
AcDbDictionary
280
0
281
1
0
DICTIONARY
5
1fd
330
0
100
AcDbDictionary
280
0
281
1
3
Standard
350
18
0
MLINESTYLE
5
18
330
1fd
100
AcDbMlineStyle
2
Standard
70
0
3

62
256
51
90
52
90
71
2
49
-0.5
62
256
6
ByLayer
49
0.5
62
256
6
ByLayer
0
RASTERVARIABLES
5
1e9
330

100
AcDbRasterVariables
90
0
70
1
71
1
72
1
0
ENDSEC
0
EOF
