0
SECTION
2
HEADER
9
$ACADVER
1
AC1015
9
$DWGCODEPAGE
3
ANSI_1252
9
$HANDSEED
5
20b
9
$ANGBASE
50
0
9
$ANGDIR
70
0
9
$ATTMODE
70
1
9
$AUNITS
70
0
9
$AUPREC
70
0
9
$CECOLOR
62
256
9
$CELTSCALE
40
1
9
$CELTYPE
6
ByLayer
9
$CELWEIGHT
370
18
9
$CLAYER
8
0
9
$CMLJUST
70
0
9
$CMLSCALE
40
1
9
$CMLSTYLE
2
Standard
9
$DIMSTYLE
2
Standard
9
$TEXTSIZE
40
0.2
9
$TEXTSTYLE
7
Standard
9
$LUNITS
70
2
9
$LUPREC
70
4
9
$EXTNAMES
290
1
9
$INSUNITS
70
4
9
$LTSCALE
40
1
9
$LWDISPLAY
290
1
9
$PDMODE
70
0
9
$PDSIZE
40
0
9
$PLINEGEN
70
0
0
ENDSEC
0
SECTION
2
CLASSES
0
CLASS
1
RASTERVARIABLES
2
AcDbRasterVariables
3
ISM
90
0
280
0
281
0
0
ENDSEC
0
SECTION
2
TABLES
0
TABLE
2
VPORT
5
201
100
AcDbSymbolTable
0
VPORT
5
1
100
AcDbSymbolTableRecord
100
AcDbViewportTableRecord
2
*Active
70
0
10
0
20
0
11
1
21
1
12
-1
22
1
13
0
23
0
14
0.5
24
0.5
15
10
25
10
16
0
26
0
36
1
17
0
27
0
37
0
0
ENDTAB
0
TABLE
2
LTYPE
5
202
100
AcDbSymbolTable
0
LTYPE
5
14
100
AcDbSymbolTableRecord
100
AcDbLinetypeTableRecord
70
0
2
ByBlock
3

72
65
73
0
40
0
0
LTYPE
5
15
100
AcDbSymbolTableRecord
100
AcDbLinetypeTableRecord
70
0
2
ByLayer
3

72
65
73
0
40
0
0
LTYPE
5
16
100
AcDbSymbolTableRecord
100
AcDbLinetypeTableRecord
70
0
2
Continuous
3
Solid line
72
65
73
0
40
0
0
LTYPE
5
6E
100
AcDbSymbolTableRecord
100
AcDbLinetypeTableRecord
70
0
2
CENTER
3
____ _ ____ _ ____ _ ____
72
65
73
4
40
47.5
49
22
74
0
49
-8.5
74
0
49
8.5
74
0
49
-8.5
74
0
0
LTYPE
5
6F
100
AcDbSymbolTableRecord
100
AcDbLinetypeTableRecord
70
0
2
DASHED
3
__ __ __ __ __ __ __ __ __
72
65
73
2
40
25.72
49
12.86
74
0
49
-12.86
74
0
0
ENDTAB
0
TABLE
2
LAYER
5
203
100
AcDbSymbolTable
0
LAYER
5
10
100
AcDbSymbolTableRecord
100
AcDbLayerTableRecord
2
0
70
0
62
7
6
Continuous
290
1
370
-3
390
0
0
LAYER
5
71
100
AcDbSymbolTableRecord
100
AcDbLayerTableRecord
2
80
70
0
62
-6
6
Continuous
290
1
370
-3
390
0
0
LAYER
5
73
100
AcDbSymbolTableRecord
100
AcDbLayerTableRecord
2
81
70
0
62
-3
6
Continuous
290
1
370
-3
390
0
0
LAYER
5
75
100
AcDbSymbolTableRecord
100
AcDbLayerTableRecord
2
1
70
0
62
4
6
Continuous
290
1
370
-3
390
0
0
LAYER
5
86
100
AcDbSymbolTableRecord
100
AcDbLayerTableRecord
2
4
70
0
62
-2
6
CENTER
290
1
370
-3
390
0
0
LAYER
5
9F
100
AcDbSymbolTableRecord
100
AcDbLayerTableRecord
2
2
70
0
62
7
6
Continuous
290
1
370
-3
390
0
0
LAYER
5
116
100
AcDbSymbolTableRecord
100
AcDbLayerTableRecord
2
Defpoints
70
0
62
7
6
Continuous
290
0
370
-3
390
0
0
LAYER
5
1ed
100
AcDbSymbolTableRecord
100
AcDbLayerTableRecord
2
SK1
70
0
62
4
6
Continuous
290
1
370
-3
390
0
0
LAYER
5
1ee
100
AcDbSymbolTableRecord
100
AcDbLayerTableRecord
2
SK4
70
0
62
2
6
CENTER
290
1
370
-3
390
0
0
LAYER
5
1ef
100
AcDbSymbolTableRecord
100
AcDbLayerTableRecord
2
SK2
70
0
62
7
6
Continuous
290
1
370
-3
390
0
0
LAYER
5
1f0
100
AcDbSymbolTableRecord
100
AcDbLayerTableRecord
2
SK6
70
0
62
5
6
Continuous
290
1
370
-3
390
0
0
ENDTAB
0
TABLE
2
STYLE
5
204
100
AcDbSymbolTable
0
STYLE
5
11
100
AcDbSymbolTableRecord
100
AcDbTextStyleTableRecord
2
Standard
3
txt
70
0
71
0
40
0
41
1
42
0
50
0
0
STYLE
5
FB
100
AcDbSymbolTableRecord
100
AcDbTextStyleTableRecord
2
iso_b_vert
3
simplex.shx
70
0
71
0
40
0
41
1
42
0
50
0
0
STYLE
5
FC
100
AcDbSymbolTableRecord
100
AcDbTextStyleTableRecord
2
DWGDirectTextStyle
3
simplex
70
0
71
0
40
0
41
1
42
0
50
0
0
ENDTAB
0
TABLE
2
DIMSTYLE
5
205
100
AcDbSymbolTable
100
AcDbDimStyleTable
0
DIMSTYLE
105
27
100
AcDbSymbolTableRecord
100
AcDbDimStyleTableRecord
2
Standard
70
0
3
<>
41
0.18
42
0.0625
44
0.18
140
0.18
147
0.09
73
0
74
0
77
1
271
2
275
0
278
52
280
0
340
11
0
ENDTAB
0
TABLE
2
VIEW
5
206
100
AcDbSymbolTable
0
ENDTAB
0
TABLE
2
UCS
5
207
100
AcDbSymbolTable
0
ENDTAB
0
TABLE
2
APPID
5
208
100
AcDbSymbolTable
0
APPID
5
12
100
AcDbSymbolTableRecord
100
AcDbRegAppTableRecord
2
ACAD
70
0
0
APPID
5
112
100
AcDbSymbolTableRecord
100
AcDbRegAppTableRecord
2
ACAD_DSTYLE_DIMBREAK
70
0
0
APPID
5
1AC
100
AcDbSymbolTableRecord
100
AcDbRegAppTableRecord
2
ACAD_DSTYLE_DIM_LINETYPE
70
0
0
APPID
5
1AD
100
AcDbSymbolTableRecord
100
AcDbRegAppTableRecord
2
ACAD_DSTYLE_DIM_EXT1_LINETYPE
70
0
0
APPID
5
1AE
100
AcDbSymbolTableRecord
100
AcDbRegAppTableRecord
2
ACAD_DSTYLE_DIM_EXT2_LINETYPE
70
0
0
APPID
5
1E9
100
AcDbSymbolTableRecord
100
AcDbRegAppTableRecord
2
ACAD_MLEADERVER
70
0
0
ENDTAB
0
TABLE
2
BLOCK_RECORD
5
209
100
AcDbSymbolTable
0
BLOCK_RECORD
5
1F
100
AcDbSymbolTableRecord
100
AcDbBlockTableRecord
2
*Model_Space
340
0
70
0
0
BLOCK_RECORD
5
1B
100
AcDbSymbolTableRecord
100
AcDbBlockTableRecord
2
*Paper_Space
340
0
70
0
0
BLOCK_RECORD
5
23
100
AcDbSymbolTableRecord
100
AcDbBlockTableRecord
2
*Paper_Space0
340
0
70
0
0
BLOCK_RECORD
5
117
100
AcDbSymbolTableRecord
100
AcDbBlockTableRecord
2
*D1
340
0
70
0
0
BLOCK_RECORD
5
123
100
AcDbSymbolTableRecord
100
AcDbBlockTableRecord
2
_U0
340
0
70
0
0
BLOCK_RECORD
5
12F
100
AcDbSymbolTableRecord
100
AcDbBlockTableRecord
2
*D3
340
0
70
0
0
BLOCK_RECORD
5
13B
100
AcDbSymbolTableRecord
100
AcDbBlockTableRecord
2
_U1
340
0
70
0
0
BLOCK_RECORD
5
147
100
AcDbSymbolTableRecord
100
AcDbBlockTableRecord
2
*D5
340
0
70
0
0
BLOCK_RECORD
5
153
100
AcDbSymbolTableRecord
100
AcDbBlockTableRecord
2
_U2
340
0
70
0
0
BLOCK_RECORD
5
15F
100
AcDbSymbolTableRecord
100
AcDbBlockTableRecord
2
*D7
340
0
70
0
0
BLOCK_RECORD
5
16D
100
AcDbSymbolTableRecord
100
AcDbBlockTableRecord
2
_U3
340
0
70
0
0
BLOCK_RECORD
5
179
100
AcDbSymbolTableRecord
100
AcDbBlockTableRecord
2
*D9
340
0
70
0
0
BLOCK_RECORD
5
185
100
AcDbSymbolTableRecord
100
AcDbBlockTableRecord
2
_U4
340
0
70
0
0
ENDTAB
0
ENDSEC
0
SECTION
2
BLOCKS
0
BLOCK
5
20
100
AcDbEntity
8
0
100
AcDbBlockBegin
2
*Model_Space
70
0
10
0
20
0
30
0
3
*Model_Space
0
ENDBLK
5
21
100
AcDbEntity
8
0
100
AcDbBlockEnd
0
BLOCK
5
1C
100
AcDbEntity
8
0
100
AcDbBlockBegin
2
*Paper_Space
70
0
10
0
20
0
30
0
3
*Paper_Space
0
ENDBLK
5
1D
100
AcDbEntity
8
0
100
AcDbBlockEnd
0
BLOCK
5
24
100
AcDbEntity
8
0
100
AcDbBlockBegin
2
*Paper_Space0
70
0
10
0
20
0
30
0
3
*Paper_Space0
0
ENDBLK
5
25
100
AcDbEntity
8
0
100
AcDbBlockEnd
0
BLOCK
5
118
100
AcDbEntity
8
0
100
AcDbBlockBegin
2
*D1
70
1
10
0
20
0
30
0
3
*D1
0
LINE
5
11A
100
AcDbEntity
8
0
62
256
6
ByLayer
370
-2
48
1
60
0
100
AcDbLine
10
0
20
-1.5875
30
0
11
0
21
-14.313398
31
0
39
0
210
0
220
0
230
1
0
LINE
5
11B
100
AcDbEntity
8
0
62
256
6
ByLayer
370
-2
48
1
60
0
100
AcDbLine
10
37.141
20
-3.6875
30
0
11
37.141
21
-14.313398
31
0
39
0
210
0
220
0
230
1
0
LINE
5
11C
100
AcDbEntity
8
0
62
256
6
ByLayer
370
-2
48
1
60
0
100
AcDbLine
10
3.5
20
-12.313398
30
0
11
33.641
21
-12.313398
31
0
39
0
210
0
220
0
230
1
0
SOLID
5
11D
100
AcDbEntity
8
0
62
256
6
ByLayer
370
-1
48
1
60
0
100
AcDbTrace
10
3.5
20
-11.730065
30
0
11
3.5
21
-12.896732
31
0
12
0
22
-12.313398
32
0
13
0
23
-12.313398
33
0
39
0
210
0
220
0
230
1
0
SOLID
5
11E
100
AcDbEntity
8
0
62
256
6
ByLayer
370
-1
48
1
60
0
100
AcDbTrace
10
33.641
20
-12.896732
30
0
11
33.641
21
-11.730065
31
0
12
37.141
22
-12.313398
32
0
13
37.141
23
-12.313398
33
0
39
0
210
0
220
0
230
1
0
MTEXT
5
11F
100
AcDbEntity
8
0
62
256
6
ByLayer
370
18
48
1
60
0
100
AcDbMText
10
18.5705
20
-5.313398
30
0
210
0
220
0
230
1
1
\A1;37.14
40
3.5
41
0
44
1
50
0
71
5
72
5
7
iso_b_vert
0
POINT
5
120
100
AcDbEntity
8
Defpoints
62
0
6
ByLayer
370
-1
48
1
60
0
100
AcDbPoint
10
0
20
0
30
0
39
0
210
0
220
0
230
1
50
360
0
POINT
5
121
100
AcDbEntity
8
Defpoints
62
0
6
ByLayer
370
-1
48
1
60
0
100
AcDbPoint
10
37.141
20
-2.1
30
0
39
0
210
0
220
0
230
1
50
360
0
POINT
5
122
100
AcDbEntity
8
Defpoints
62
0
6
ByLayer
370
-1
48
1
60
0
100
AcDbPoint
10
37.141
20
-12.313398
30
0
39
0
210
0
220
0
230
1
50
360
0
ENDBLK
5
119
100
AcDbEntity
8
0
100
AcDbBlockEnd
0
BLOCK
5
12A
100
AcDbEntity
8
0
100
AcDbBlockBegin
2
_U0
70
0
10
0
20
0
30
0
3
_U0
0
MTEXT
5
124
100
AcDbEntity
8
2
62
256
6
ByLayer
370
13
48
1
60
0
100
AcDbMText
10
13.686368
20
-11.280765
30
0
210
0
220
0
230
1
1
\W0.6898;37,14
40
3.5
41
0
44
1.084337
50
0
71
7
72
5
7
iso_b_vert
0
LINE
5
125
100
AcDbEntity
8
2
62
256
6
ByLayer
370
13
48
1
60
0
100
AcDbLine
10
0
20
-1.5875
30
0
11
0
21
-14.313398
31
0
39
0
210
0
220
0
230
1
0
LINE
5
126
100
AcDbEntity
8
2
62
256
6
ByLayer
370
13
48
1
60
0
100
AcDbLine
10
37.141
20
-3.6875
30
0
11
37.141
21
-14.313398
31
0
39
0
210
0
220
0
230
1
0
LINE
5
127
100
AcDbEntity
8
2
62
256
6
ByLayer
370
13
48
1
60
0
100
AcDbLine
10
0
20
-12.313398
30
0
11
37.141
21
-12.313398
31
0
39
0
210
0
220
0
230
1
0
SOLID
5
128
100
AcDbEntity
8
2
62
256
6
ByLayer
370
18
48
1
60
0
100
AcDbTrace
10
0
20
-12.313398
30
0
11
3.499998
21
-11.852615
31
0
12
3.500002
22
-12.774182
32
0
13
3.500002
23
-12.774182
33
0
39
0
210
0
220
0
230
1
0
SOLID
5
129
100
AcDbEntity
8
2
62
256
6
ByLayer
370
18
48
1
60
0
100
AcDbTrace
10
37.141
20
-12.313398
30
0
11
33.641002
21
-12.774182
31
0
12
33.640998
22
-11.852615
32
0
13
33.640998
23
-11.852615
33
0
39
0
210
0
220
0
230
1
0
ENDBLK
5
12B
100
AcDbEntity
8
0
100
AcDbBlockEnd
0
BLOCK
5
130
100
AcDbEntity
8
0
100
AcDbBlockBegin
2
*D3
70
1
10
0
20
0
30
0
3
*D3
0
LINE
5
132
100
AcDbEntity
8
0
62
256
6
ByLayer
370
-2
48
1
60
0
100
AcDbLine
10
-36
20
-4.5875
30
0
11
-36
21
-33.692985
31
0
39
0
210
0
220
0
230
1
0
LINE
5
133
100
AcDbEntity
8
0
62
256
6
ByLayer
370
-2
48
1
60
0
100
AcDbLine
10
38
20
-1.5875
30
0
11
38
21
-33.692985
31
0
39
0
210
0
220
0
230
1
0
LINE
5
134
100
AcDbEntity
8
0
62
256
6
ByLayer
370
-2
48
1
60
0
100
AcDbLine
10
-32.5
20
-31.692985
30
0
11
34.5
21
-31.692985
31
0
39
0
210
0
220
0
230
1
0
SOLID
5
135
100
AcDbEntity
8
0
62
256
6
ByLayer
370
-1
48
1
60
0
100
AcDbTrace
10
-32.5
20
-31.109652
30
0
11
-32.5
21
-32.276319
31
0
12
-36
22
-31.692985
32
0
13
-36
23
-31.692985
33
0
39
0
210
0
220
0
230
1
0
SOLID
5
136
100
AcDbEntity
8
0
62
256
6
ByLayer
370
-1
48
1
60
0
100
AcDbTrace
10
34.5
20
-32.276319
30
0
11
34.5
21
-31.109652
31
0
12
38
22
-31.692985
32
0
13
38
23
-31.692985
33
0
39
0
210
0
220
0
230
1
0
MTEXT
5
137
100
AcDbEntity
8
0
62
256
6
ByLayer
370
18
48
1
60
0
100
AcDbMText
10
1
20
-24.692985
30
0
210
0
220
0
230
1
1
\A1;74.00
40
3.5
41
0
44
1
50
0
71
5
72
5
7
iso_b_vert
0
POINT
5
138
100
AcDbEntity
8
Defpoints
62
0
6
ByLayer
370
-1
48
1
60
0
100
AcDbPoint
10
-36
20
-3
30
0
39
0
210
0
220
0
230
1
50
360
0
POINT
5
139
100
AcDbEntity
8
Defpoints
62
0
6
ByLayer
370
-1
48
1
60
0
100
AcDbPoint
10
38
20
0
30
0
39
0
210
0
220
0
230
1
50
360
0
POINT
5
13A
100
AcDbEntity
8
Defpoints
62
0
6
ByLayer
370
-1
48
1
60
0
100
AcDbPoint
10
38
20
-31.692985
30
0
39
0
210
0
220
0
230
1
50
360
0
ENDBLK
5
131
100
AcDbEntity
8
0
100
AcDbBlockEnd
0
BLOCK
5
142
100
AcDbEntity
8
0
100
AcDbBlockBegin
2
_U1
70
0
10
0
20
0
30
0
3
_U1
0
MTEXT
5
13C
100
AcDbEntity
8
SK2
62
256
6
ByLayer
370
13
48
1
60
0
100
AcDbMText
10
-4.321565
20
-30.660352
30
0
210
0
220
0
230
1
1
\W0.7581;74,00
40
3.5
41
0
44
1.084337
50
0
71
7
72
5
7
iso_b_vert
0
LINE
5
13D
100
AcDbEntity
8
SK2
62
256
6
ByLayer
370
13
48
1
60
0
100
AcDbLine
10
-36
20
-4.5875
30
0
11
-36
21
-33.692985
31
0
39
0
210
0
220
0
230
1
0
LINE
5
13E
100
AcDbEntity
8
SK2
62
256
6
ByLayer
370
13
48
1
60
0
100
AcDbLine
10
38
20
-1.5875
30
0
11
38
21
-33.692985
31
0
39
0
210
0
220
0
230
1
0
LINE
5
13F
100
AcDbEntity
8
SK2
62
256
6
ByLayer
370
13
48
1
60
0
100
AcDbLine
10
-36
20
-31.692985
30
0
11
38
21
-31.692985
31
0
39
0
210
0
220
0
230
1
0
SOLID
5
140
100
AcDbEntity
8
SK2
62
256
6
ByLayer
370
18
48
1
60
0
100
AcDbTrace
10
-36
20
-31.692985
30
0
11
-32.500002
21
-31.232202
31
0
12
-32.499998
22
-32.153769
32
0
13
-32.499998
23
-32.153769
33
0
39
0
210
0
220
0
230
1
0
SOLID
5
141
100
AcDbEntity
8
SK2
62
256
6
ByLayer
370
18
48
1
60
0
100
AcDbTrace
10
38
20
-31.692985
30
0
11
34.500002
21
-32.153769
31
0
12
34.499998
22
-31.232202
32
0
13
34.499998
23
-31.232202
33
0
39
0
210
0
220
0
230
1
0
ENDBLK
5
143
100
AcDbEntity
8
0
100
AcDbBlockEnd
0
BLOCK
5
148
100
AcDbEntity
8
0
100
AcDbBlockBegin
2
*D5
70
1
10
0
20
0
30
0
3
*D5
0
LINE
5
14A
100
AcDbEntity
8
0
62
256
6
ByLayer
370
-2
48
1
60
0
100
AcDbLine
10
16.14
20
3.6875
30
0
11
16.14
21
15.709119
31
0
39
0
210
0
220
0
230
1
0
LINE
5
14B
100
AcDbEntity
8
0
62
256
6
ByLayer
370
-2
48
1
60
0
100
AcDbLine
10
38
20
1.5875
30
0
11
38
21
15.709119
31
0
39
0
210
0
220
0
230
1
0
LINE
5
14C
100
AcDbEntity
8
0
62
256
6
ByLayer
370
-2
48
1
60
0
100
AcDbLine
10
19.64
20
13.709119
30
0
11
34.5
21
13.709119
31
0
39
0
210
0
220
0
230
1
0
SOLID
5
14D
100
AcDbEntity
8
0
62
256
6
ByLayer
370
-1
48
1
60
0
100
AcDbTrace
10
19.64
20
14.292453
30
0
11
19.64
21
13.125786
31
0
12
16.14
22
13.709119
32
0
13
16.14
23
13.709119
33
0
39
0
210
0
220
0
230
1
0
SOLID
5
14E
100
AcDbEntity
8
0
62
256
6
ByLayer
370
-1
48
1
60
0
100
AcDbTrace
10
34.5
20
13.125786
30
0
11
34.5
21
14.292453
31
0
12
38
22
13.709119
32
0
13
38
23
13.709119
33
0
39
0
210
0
220
0
230
1
0
MTEXT
5
14F
100
AcDbEntity
8
0
62
256
6
ByLayer
370
18
48
1
60
0
100
AcDbMText
10
27.07
20
20.709119
30
0
210
0
220
0
230
1
1
\A1;21.86
40
3.5
41
0
44
1
50
0
71
5
72
5
7
iso_b_vert
0
POINT
5
150
100
AcDbEntity
8
Defpoints
62
0
6
ByLayer
370
-1
48
1
60
0
100
AcDbPoint
10
16.14
20
2.1
30
0
39
0
210
0
220
0
230
1
50
360
0
POINT
5
151
100
AcDbEntity
8
Defpoints
62
0
6
ByLayer
370
-1
48
1
60
0
100
AcDbPoint
10
38
20
0
30
0
39
0
210
0
220
0
230
1
50
360
0
POINT
5
152
100
AcDbEntity
8
Defpoints
62
0
6
ByLayer
370
-1
48
1
60
0
100
AcDbPoint
10
38
20
13.709119
30
0
39
0
210
0
220
0
230
1
50
360
0
ENDBLK
5
149
100
AcDbEntity
8
0
100
AcDbBlockEnd
0
BLOCK
5
15A
100
AcDbEntity
8
0
100
AcDbBlockBegin
2
_U2
70
0
10
0
20
0
30
0
3
_U2
0
MTEXT
5
154
100
AcDbEntity
8
SK2
62
256
6
ByLayer
370
13
48
1
60
0
100
AcDbMText
10
22.370135
20
14.741753
30
0
210
0
220
0
230
1
1
\W0.6713;21,86
40
3.5
41
0
44
1.084337
50
0
71
7
72
5
7
iso_b_vert
0
LINE
5
155
100
AcDbEntity
8
SK2
62
256
6
ByLayer
370
13
48
1
60
0
100
AcDbLine
10
16.14
20
3.6875
30
0
11
16.14
21
15.709119
31
0
39
0
210
0
220
0
230
1
0
LINE
5
156
100
AcDbEntity
8
SK2
62
256
6
ByLayer
370
13
48
1
60
0
100
AcDbLine
10
38
20
1.5875
30
0
11
38
21
15.709119
31
0
39
0
210
0
220
0
230
1
0
LINE
5
157
100
AcDbEntity
8
SK2
62
256
6
ByLayer
370
13
48
1
60
0
100
AcDbLine
10
16.14
20
13.709119
30
0
11
38
21
13.709119
31
0
39
0
210
0
220
0
230
1
0
SOLID
5
158
100
AcDbEntity
8
SK2
62
256
6
ByLayer
370
18
48
1
60
0
100
AcDbTrace
10
16.14
20
13.709119
30
0
11
19.639998
21
14.169903
31
0
12
19.640002
22
13.248335
32
0
13
19.640002
23
13.248335
33
0
39
0
210
0
220
0
230
1
0
SOLID
5
159
100
AcDbEntity
8
SK2
62
256
6
ByLayer
370
18
48
1
60
0
100
AcDbTrace
10
38
20
13.709119
30
0
11
34.500002
21
13.248335
31
0
12
34.499998
22
14.169903
32
0
13
34.499998
23
14.169903
33
0
39
0
210
0
220
0
230
1
0
ENDBLK
5
15B
100
AcDbEntity
8
0
100
AcDbBlockEnd
0
BLOCK
5
160
100
AcDbEntity
8
0
100
AcDbBlockBegin
2
*D7
70
1
10
0
20
0
30
0
3
*D7
0
LINE
5
162
100
AcDbEntity
8
0
62
256
6
ByLayer
370
-2
48
1
60
0
100
AcDbLine
10
38
20
-1.5875
30
0
11
38
21
-16.902503
31
0
39
0
210
0
220
0
230
1
0
LINE
5
163
100
AcDbEntity
8
0
62
256
6
ByLayer
370
-2
48
1
60
0
100
AcDbLine
10
37.141
20
-3.6875
30
0
11
37.141
21
-16.902503
31
0
39
0
210
0
220
0
230
1
0
LINE
5
164
100
AcDbEntity
8
0
62
256
6
ByLayer
370
-2
48
1
60
0
100
AcDbLine
10
38
20
-14.902503
30
0
11
66.166667
21
-14.902503
31
0
39
0
210
0
220
0
230
1
0
LINE
5
165
100
AcDbEntity
8
0
62
256
6
ByLayer
370
-2
48
1
60
0
100
AcDbLine
10
41.5
20
-14.902503
30
0
11
45
21
-14.902503
31
0
39
0
210
0
220
0
230
1
0
LINE
5
166
100
AcDbEntity
8
0
62
256
6
ByLayer
370
-2
48
1
60
0
100
AcDbLine
10
33.641
20
-14.902503
30
0
11
30.141
21
-14.902503
31
0
39
0
210
0
220
0
230
1
0
SOLID
5
167
100
AcDbEntity
8
0
62
256
6
ByLayer
370
-1
48
1
60
0
100
AcDbTrace
10
41.5
20
-14.31917
30
0
11
41.5
21
-15.485837
31
0
12
38
22
-14.902503
32
0
13
38
23
-14.902503
33
0
39
0
210
0
220
0
230
1
0
SOLID
5
168
100
AcDbEntity
8
0
62
256
6
ByLayer
370
-1
48
1
60
0
100
AcDbTrace
10
33.641
20
-15.485837
30
0
11
33.641
21
-14.31917
31
0
12
37.141
22
-14.902503
32
0
13
37.141
23
-14.902503
33
0
39
0
210
0
220
0
230
1
0
MTEXT
5
169
100
AcDbEntity
8
0
62
256
6
ByLayer
370
18
48
1
60
0
100
AcDbMText
10
55.583333
20
-7.902503
30
0
210
0
220
0
230
1
1
\A1;0.86
40
3.5
41
0
44
1
50
0
71
5
72
5
7
iso_b_vert
0
POINT
5
16A
100
AcDbEntity
8
Defpoints
62
0
6
ByLayer
370
-1
48
1
60
0
100
AcDbPoint
10
38
20
0
30
0
39
0
210
0
220
0
230
1
50
360
0
POINT
5
16B
100
AcDbEntity
8
Defpoints
62
0
6
ByLayer
370
-1
48
1
60
0
100
AcDbPoint
10
37.141
20
-2.1
30
0
39
0
210
0
220
0
230
1
50
360
0
POINT
5
16C
100
AcDbEntity
8
Defpoints
62
0
6
ByLayer
370
-1
48
1
60
0
100
AcDbPoint
10
37.141
20
-14.902503
30
0
39
0
210
0
220
0
230
1
50
360
0
ENDBLK
5
161
100
AcDbEntity
8
0
100
AcDbBlockEnd
0
BLOCK
5
174
100
AcDbEntity
8
0
100
AcDbBlockBegin
2
_U3
70
0
10
0
20
0
30
0
3
_U3
0
MTEXT
5
16E
100
AcDbEntity
8
SK2
62
256
6
ByLayer
370
13
48
1
60
0
100
AcDbMText
10
44.15186
20
-13.86987
30
0
210
0
220
0
230
1
1
\W0.7150;0,86
40
3.5
41
0
44
1.084337
50
0
71
7
72
5
7
iso_b_vert
0
LINE
5
16F
100
AcDbEntity
8
SK2
62
256
6
ByLayer
370
13
48
1
60
0
100
AcDbLine
10
38
20
-1.5875
30
0
11
38
21
-16.902503
31
0
39
0
210
0
220
0
230
1
0
LINE
5
170
100
AcDbEntity
8
SK2
62
256
6
ByLayer
370
13
48
1
60
0
100
AcDbLine
10
37.141
20
-3.6875
30
0
11
37.141
21
-16.902503
31
0
39
0
210
0
220
0
230
1
0
LINE
5
171
100
AcDbEntity
8
SK2
62
256
6
ByLayer
370
13
48
1
60
0
100
AcDbLine
10
28.391
20
-14.902503
30
0
11
51.996491
21
-14.902503
31
0
39
0
210
0
220
0
230
1
0
SOLID
5
172
100
AcDbEntity
8
SK2
62
256
6
ByLayer
370
18
48
1
60
0
100
AcDbTrace
10
38
20
-14.902503
30
0
11
41.499998
21
-14.441719
31
0
12
41.500002
22
-15.363287
32
0
13
41.500002
23
-15.363287
33
0
39
0
210
0
220
0
230
1
0
SOLID
5
173
100
AcDbEntity
8
SK2
62
256
6
ByLayer
370
18
48
1
60
0
100
AcDbTrace
10
37.141
20
-14.902503
30
0
11
33.641002
21
-15.363287
31
0
12
33.640998
22
-14.441719
32
0
13
33.640998
23
-14.441719
33
0
39
0
210
0
220
0
230
1
0
ENDBLK
5
175
100
AcDbEntity
8
0
100
AcDbBlockEnd
0
BLOCK
5
17A
100
AcDbEntity
8
0
100
AcDbBlockBegin
2
*D9
70
1
10
0
20
0
30
0
3
*D9
0
LINE
5
17C
100
AcDbEntity
8
0
62
256
6
ByLayer
370
-2
48
1
60
0
100
AcDbLine
10
-36
20
-4.5875
30
0
11
-36
21
-23.343428
31
0
39
0
210
0
220
0
230
1
0
LINE
5
17D
100
AcDbEntity
8
0
62
256
6
ByLayer
370
-2
48
1
60
0
100
AcDbLine
10
37.141
20
-3.6875
30
0
11
37.141
21
-23.343428
31
0
39
0
210
0
220
0
230
1
0
LINE
5
17E
100
AcDbEntity
8
0
62
256
6
ByLayer
370
-2
48
1
60
0
100
AcDbLine
10
-32.5
20
-21.343428
30
0
11
33.641
21
-21.343428
31
0
39
0
210
0
220
0
230
1
0
SOLID
5
17F
100
AcDbEntity
8
0
62
256
6
ByLayer
370
-1
48
1
60
0
100
AcDbTrace
10
-32.5
20
-20.760095
30
0
11
-32.5
21
-21.926762
31
0
12
-36
22
-21.343428
32
0
13
-36
23
-21.343428
33
0
39
0
210
0
220
0
230
1
0
SOLID
5
180
100
AcDbEntity
8
0
62
256
6
ByLayer
370
-1
48
1
60
0
100
AcDbTrace
10
33.641
20
-21.926762
30
0
11
33.641
21
-20.760095
31
0
12
37.141
22
-21.343428
32
0
13
37.141
23
-21.343428
33
0
39
0
210
0
220
0
230
1
0
MTEXT
5
181
100
AcDbEntity
8
0
62
256
6
ByLayer
370
18
48
1
60
0
100
AcDbMText
10
0.5705
20
-14.343428
30
0
210
0
220
0
230
1
1
\A1;73.14
40
3.5
41
0
44
1
50
0
71
5
72
5
7
iso_b_vert
0
POINT
5
182
100
AcDbEntity
8
Defpoints
62
0
6
ByLayer
370
-1
48
1
60
0
100
AcDbPoint
10
-36
20
-3
30
0
39
0
210
0
220
0
230
1
50
360
0
POINT
5
183
100
AcDbEntity
8
Defpoints
62
0
6
ByLayer
370
-1
48
1
60
0
100
AcDbPoint
10
37.141
20
-2.1
30
0
39
0
210
0
220
0
230
1
50
360
0
POINT
5
184
100
AcDbEntity
8
Defpoints
62
0
6
ByLayer
370
-1
48
1
60
0
100
AcDbPoint
10
37.141
20
-21.343428
30
0
39
0
210
0
220
0
230
1
50
360
0
ENDBLK
5
17B
100
AcDbEntity
8
0
100
AcDbBlockEnd
0
BLOCK
5
18C
100
AcDbEntity
8
0
100
AcDbBlockBegin
2
_U4
70
0
10
0
20
0
30
0
3
_U4
0
MTEXT
5
186
100
AcDbEntity
8
SK2
62
256
6
ByLayer
370
13
48
1
60
0
100
AcDbMText
10
-4.313632
20
-20.310795
30
0
210
0
220
0
230
1
1
\W0.6898;73,14
40
3.5
41
0
44
1.084337
50
0
71
7
72
5
7
iso_b_vert
0
LINE
5
187
100
AcDbEntity
8
SK2
62
256
6
ByLayer
370
13
48
1
60
0
100
AcDbLine
10
-36
20
-4.5875
30
0
11
-36
21
-23.343428
31
0
39
0
210
0
220
0
230
1
0
LINE
5
188
100
AcDbEntity
8
SK2
62
256
6
ByLayer
370
13
48
1
60
0
100
AcDbLine
10
37.141
20
-3.6875
30
0
11
37.141
21
-23.343428
31
0
39
0
210
0
220
0
230
1
0
LINE
5
189
100
AcDbEntity
8
SK2
62
256
6
ByLayer
370
13
48
1
60
0
100
AcDbLine
10
-36
20
-21.343428
30
0
11
37.141
21
-21.343428
31
0
39
0
210
0
220
0
230
1
0
SOLID
5
18A
100
AcDbEntity
8
SK2
62
256
6
ByLayer
370
18
48
1
60
0
100
AcDbTrace
10
-36
20
-21.343428
30
0
11
-32.500002
21
-20.882645
31
0
12
-32.499998
22
-21.804212
32
0
13
-32.499998
23
-21.804212
33
0
39
0
210
0
220
0
230
1
0
SOLID
5
18B
100
AcDbEntity
8
SK2
62
256
6
ByLayer
370
18
48
1
60
0
100
AcDbTrace
10
37.141
20
-21.343428
30
0
11
33.641002
21
-21.804212
31
0
12
33.640998
22
-20.882645
32
0
13
33.640998
23
-20.882645
33
0
39
0
210
0
220
0
230
1
0
ENDBLK
5
18D
100
AcDbEntity
8
0
100
AcDbBlockEnd
0
ENDSEC
0
SECTION
2
ENTITIES
0
ARC
5
A8
100
AcDbEntity
8
1
62
256
6
ByLayer
370
18
48
1
60
0
100
AcDbCircle
39
0
10
1.532463
20
-2.885906
30
0
40
0.849999999999997
210
0
220
0
230
1
100
AcDbArc
50
89.896868
51
154.349154
0
ARC
5
A9
100
AcDbEntity
8
1
62
256
6
ByLayer
370
18
48
1
60
0
100
AcDbCircle
39
0
10
1.532463
20
2.885906
30
0
40
0.849999999999997
210
0
220
0
230
1
100
AcDbArc
50
205.650846
51
270.103132
0
ARC
5
AA
100
AcDbEntity
8
1
62
256
6
ByLayer
370
18
48
1
60
0
100
AcDbCircle
39
0
10
0
20
-2.15
30
0
40
0.850000000000003
210
0
220
0
230
1
100
AcDbArc
50
270
51
334.349154
0
ARC
5
AB
100
AcDbEntity
8
1
62
256
6
ByLayer
370
18
48
1
60
0
100
AcDbCircle
39
0
10
0
20
2.15
30
0
40
0.850000000000003
210
0
220
0
230
1
100
AcDbArc
50
25.650846
51
90
0
ELLIPSE
5
AC
100
AcDbEntity
8
1
62
256
6
ByLayer
370
13
48
1
60
0
100
AcDbEllipse
10
7.556837
20
-8.92292
30
0
11
-61.1414923863816
21
42.7153981955319
31
0
210
0
220
0
230
1
40
0.104939
41
-1.49761385868862
42
-1.4703194584903
0
ELLIPSE
5
AD
100
AcDbEntity
8
1
62
256
6
ByLayer
370
13
48
1
60
0
100
AcDbEllipse
10
6.576226
20
-10.326536
30
0
11
-61.1414923863816
21
42.7153981955319
31
0
210
0
220
0
230
1
40
0.104939
41
-1.49761385868862
42
-1.43828130369572
0
ELLIPSE
5
AE
100
AcDbEntity
8
1
62
256
6
ByLayer
370
13
48
1
60
0
100
AcDbEllipse
10
5.828829
20
-2.238531
30
0
11
-0.0343504749224743
21
0.298026919711291
31
0
210
0
220
0
230
1
40
0.527509
41
0.265281804225246
42
0.430259007585563
0
ELLIPSE
5
AF
100
AcDbEntity
8
1
62
256
6
ByLayer
370
13
48
1
60
0
100
AcDbEllipse
10
82.194174
20
43.317348
30
0
11
-61.7
21
7.55582120308407E-15
31
0
210
0
220
0
230
1
40
0.99863
41
0.763698715839441
42
0.768582276702859
0
ELLIPSE
5
B0
100
AcDbEntity
8
1
62
256
6
ByLayer
370
18
48
1
60
0
100
AcDbEllipse
10
38.099257
20
0.004459
30
0
11
0.750460821475903
21
2.08358327538516
31
0
210
0
220
0
230
1
40
0.399746
41
2.89887629484938
42
2.90380709937619
0
ELLIPSE
5
B1
100
AcDbEntity
8
1
62
256
6
ByLayer
370
18
48
1
60
0
100
AcDbEllipse
10
5.827545
20
-2.977294
30
0
11
1
21
0
31
0
210
0
220
0
230
1
40
0.999954
41
1.57297383538542
42
1.9298536994923
0
ELLIPSE
5
B2
100
AcDbEntity
8
1
62
256
6
ByLayer
370
18
48
1
60
0
100
AcDbEllipse
10
5.827545
20
2.977294
30
0
11
1
21
0
31
0
210
0
220
0
230
1
40
0.999954
41
-1.93108840996495
42
-1.56546076566586
0
POINT
5
70
100
AcDbEntity
8
80
62
256
6
ByLayer
370
18
48
1
60
0
100
AcDbPoint
10
0
20
0
30
0
39
0
210
0
220
0
230
1
50
360
0
POINT
5
72
100
AcDbEntity
8
81
62
256
6
ByLayer
370
18
48
1
60
0
100
AcDbPoint
10
38
20
0
30
0
39
0
210
0
220
0
230
1
50
360
0
POINT
5
74
100
AcDbEntity
8
1
62
256
6
ByLayer
370
18
48
1
60
1
100
AcDbPoint
10
37.141
20
-2.1
30
0
39
0
210
0
220
0
230
1
50
360
0
POINT
5
76
100
AcDbEntity
8
1
62
256
6
ByLayer
370
18
48
1
60
1
100
AcDbPoint
10
-36
20
-3
30
0
39
0
210
0
220
0
230
1
50
360
0
POINT
5
77
100
AcDbEntity
8
1
62
256
6
ByLayer
370
18
48
1
60
1
100
AcDbPoint
10
16.14
20
2.1
30
0
39
0
210
0
220
0
230
1
50
360
0
POINT
5
78
100
AcDbEntity
8
1
62
256
6
ByLayer
370
18
48
1
60
1
100
AcDbPoint
10
37.141
20
-2.1
30
0
39
0
210
0
220
0
230
1
50
360
0
POINT
5
79
100
AcDbEntity
8
1
62
256
6
ByLayer
370
18
48
1
60
1
100
AcDbPoint
10
-36
20
-3
30
0
39
0
210
0
220
0
230
1
50
360
0
POINT
5
7A
100
AcDbEntity
8
1
62
256
6
ByLayer
370
18
48
1
60
1
100
AcDbPoint
10
37.141
20
-2.1
30
0
39
0
210
0
220
0
230
1
50
360
0
SPLINE
5
B3
100
AcDbEntity
8
1
62
256
6
ByLayer
370
18
48
1
60
0
100
AcDbSpline
70
4
71
3
72
8
73
4
40
0
40
0
40
0
40
0
40
1
40
1
40
1
40
1
41
1
10
37.999728118278
20
0.0624084240483285
30
0
41
1
10
38.0000906272402
20
0.0208028080161284
30
0
41
1
10
38.0000906272402
20
-0.0208028080161
30
0
41
1
10
37.999728118278
20
-0.0624084240483
30
0
0
SPLINE
5
B4
100
AcDbEntity
8
1
62
256
6
ByLayer
370
18
48
1
60
0
100
AcDbSpline
70
4
71
3
72
10
73
6
40
0
40
0
40
0
40
0
40
0.5
40
0.5
40
1
40
1
40
1
40
1
41
1
10
37.4459934472364
20
-0.0544761428676566
30
0
41
1
10
37.4170396727625
20
-0.0432500464652605
30
0
41
1
10
37.3894477149621
20
-0.0331289072657626
30
0
41
1
10
37.3383055736772
20
-0.0158226159088883
30
0
41
1
10
37.3146927802628
20
-0.0086353110751247
30
0
41
1
10
37.2950898608717
20
-0.0036327555276614
30
0
0
SPLINE
5
B5
100
AcDbEntity
8
1
62
256
6
ByLayer
370
18
48
1
60
0
100
AcDbSpline
70
4
71
3
72
8
73
4
40
0
40
0
40
0
40
0
40
1
40
1
40
1
40
1
41
1
10
5.47408236559511
20
-1.14992260471243
30
0
41
1
10
5.59076489676602
20
-1.16479823347268
30
0
41
1
10
5.70895453458121
20
-1.19804271087972
30
0
41
1
10
5.82839077885896
20
-1.24580083754799
30
0
0
SPLINE
5
B6
100
AcDbEntity
8
1
62
256
6
ByLayer
370
18
48
1
60
0
100
AcDbSpline
70
4
71
1
72
4
73
2
40
0
40
0
40
1
40
1
41
1
10
37.1737212993083
20
-1.94983265345798
30
0
41
1
10
37.6190366224592
20
-0.446473317285353
30
0
0
SPLINE
5
B7
100
AcDbEntity
8
1
62
256
6
ByLayer
370
18
48
1
60
0
100
AcDbSpline
70
4
71
3
72
38
73
34
40
0
40
0
40
0
40
0
40
0.0887352081473816
40
0.0887352081473816
40
0.177470416294763
40
0.177470416294763
40
0.221838020368454
40
0.221838020368454
40
0.266205624442145
40
0.266205624442145
40
0.354940832589526
40
0.354940832589526
40
0.399308436663217
40
0.399308436663217
40
0.443676040736908
40
0.443676040736908
40
0.53241124888429
40
0.53241124888429
40
0.621146457031671
40
0.621146457031671
40
0.665514061105363
40
0.665514061105363
40
0.709881665179054
40
0.709881665179054
40
0.798616873326437
40
0.798616873326437
40
0.842984477400129
40
0.842984477400129
40
0.887352081473821
40
0.887352081473821
40
0.976087289621204
40
0.976087289621204
40
1
40
1
40
1
40
1
41
1
10
5.73203562504051
20
1.97522536161375
30
0
41
1
10
6.06361732390309
20
1.92728258086578
30
0
41
1
10
6.39533001655974
20
1.85341231123559
30
0
41
1
10
7.0536808604989
20
1.66232078038129
30
0
41
1
10
7.38103867027837
20
1.54499224273192
30
0
41
1
10
7.87376003652182
20
1.34127360985198
30
0
41
1
10
8.03826544910623
20
1.26872092511326
30
0
41
1
10
8.36867610627581
20
1.1153317914405
30
0
41
1
10
8.53458050457743
20
1.03449493470919
30
0
41
1
10
9.02889388657289
20
0.784354454480109
30
0
41
1
10
9.35605724133325
20
0.606341475748565
30
0
41
1
10
9.84810975040179
20
0.330706386503181
30
0
41
1
10
10.0123189014814
20
0.237348856577057
30
0
41
1
10
10.3419050276252
20
0.0490128950334281
30
0
41
1
10
10.5078781958618
20
-0.046255049255933
30
0
41
1
10
11.0027155518575
20
-0.329336818777421
30
0
41
1
10
11.3294311511485
20
-0.514505198961217
30
0
41
1
10
11.9824944157598
20
-0.867728778333912
30
0
41
1
10
12.3088476857695
20
-1.0357733504799
30
0
41
1
10
12.8026144390052
20
-1.26747256309463
30
0
41
1
10
12.968481995344
20
-1.34157562713281
30
0
41
1
10
13.2981268044504
20
-1.47977426586235
30
0
41
1
10
13.4621839361985
20
-1.5440482548828
30
0
41
1
10
13.9530122699687
20
-1.72156990984337
30
0
41
1
10
14.2786090307065
20
-1.81931117795344
30
0
41
1
10
14.769013220934
20
-1.93097241417738
30
0
41
1
10
14.9327822821032
20
-1.9623847832076
30
0
41
1
10
15.2618595587072
20
-2.01280955992874
30
0
41
1
10
15.4277266915038
20
-2.03185739296543
30
0
41
1
10
15.9218456330968
20
-2.06912330298394
30
0
41
1
10
16.2479539010259
20
-2.06775550952207
30
0
41
1
10
16.6622187921038
20
-2.03385539896314
30
0
41
1
10
16.7501163547838
20
-2.02479917887379
30
0
41
1
10
16.8380491892301
20
-2.01390753339984
30
0
0
SPLINE
5
B8
100
AcDbEntity
8
1
62
256
6
ByLayer
370
18
48
1
60
0
100
AcDbSpline
70
4
71
3
72
40
73
36
40
0
40
0
40
0
40
0
40
0.0066555458336368
40
0.0066555458336368
40
0.0563227685419524
40
0.0563227685419524
40
0.105989991250268
40
0.105989991250268
40
0.2053244366669
40
0.2053244366669
40
0.254991659375217
40
0.254991659375217
40
0.304658882083535
40
0.304658882083535
40
0.403993327500173
40
0.403993327500173
40
0.503327772916811
40
0.503327772916811
40
0.55299499562513
40
0.55299499562513
40
0.602662218333449
40
0.602662218333449
40
0.70199666375009
40
0.70199666375009
40
0.751663886458409
40
0.751663886458409
40
0.801331109166728
40
0.801331109166728
40
0.900665554583363
40
0.900665554583363
40
0.95033277729168
40
0.95033277729168
40
0.97516638864584
40
0.97516638864584
40
1
40
1
40
1
40
1
41
1
10
27.3091907318262
20
2.08229737515694
30
0
41
1
10
27.3311926454289
20
2.08231181408632
30
0
41
1
10
27.3532083218229
20
2.08220826291895
30
0
41
1
10
27.5396412585202
20
2.08032966742934
30
0
41
1
10
27.7049806718222
20
2.07201461669408
30
0
41
1
10
28.032954969624
20
2.04248730298352
30
0
41
1
10
28.1962282092346
20
2.02129991102706
30
0
41
1
10
28.6852442497087
20
1.93941695774674
30
0
41
1
10
29.0096064945116
20
1.86003569512775
30
0
41
1
10
29.499075261061
20
1.70752333692633
30
0
41
1
10
29.6626077384087
20
1.65102524105072
30
0
41
1
10
29.991267412464
20
1.52727884293236
30
0
41
1
10
30.1564595930498
20
1.459983752521
30
0
41
1
10
30.6481982934356
20
1.24679680228152
30
0
41
1
10
30.9731172094911
20
1.08822622923674
30
0
41
1
10
31.623482926752
20
0.747899534001647
30
0
41
1
10
31.9487296627066
20
0.565814442012851
30
0
41
1
10
32.4418115478301
20
0.282768601143488
30
0
41
1
10
32.6068437478212
20
0.186844277887275
30
0
41
1
10
32.9342139922553
20
-0.0042672090669953
30
0
41
1
10
33.0972019847151
20
-0.0997746297588264
30
0
41
1
10
33.5852498733467
20
-0.384133519028154
30
0
41
1
10
33.9095242786638
20
-0.57059725736616
30
0
41
1
10
34.3987081826579
20
-0.838097793487094
30
0
41
1
10
34.5622118061019
20
-0.925263563646183
30
0
41
1
10
34.8909396157813
20
-1.09416336786393
30
0
41
1
10
35.0556959232103
20
-1.17559917746493
30
0
41
1
10
35.5460233764729
20
-1.40636564484032
30
0
41
1
10
35.8699361645102
20
-1.54347633228588
30
0
41
1
10
36.356342172185
20
-1.71844297218885
30
0
41
1
10
36.5185581728546
20
-1.77167115971503
30
0
41
1
10
36.7624775992955
20
-1.84333641562628
30
0
41
1
10
36.8438798604933
20
-1.86586455605871
30
0
41
1
10
37.0069445000866
20
-1.90810670261342
30
0
41
1
10
37.0883254329863
20
-1.92800838158928
30
0
41
1
10
37.1706128595088
20
-1.94595133150051
30
0
0
SPLINE
5
B9
100
AcDbEntity
8
1
62
256
6
ByLayer
370
18
48
1
60
0
100
AcDbSpline
70
4
71
3
72
32
73
28
40
0
40
0
40
0
40
0
40
0.0808480205748816
40
0.0808480205748816
40
0.161696041149763
40
0.161696041149763
40
0.242544061724645
40
0.242544061724645
40
0.323392082299526
40
0.323392082299526
40
0.404240102874408
40
0.404240102874408
40
0.48508812344929
40
0.48508812344929
40
0.565936144024171
40
0.565936144024171
40
0.646784164599053
40
0.646784164599053
40
0.727632185173934
40
0.727632185173934
40
0.808480205748816
40
0.808480205748816
40
0.889328226323698
40
0.889328226323698
40
0.970176246898579
40
0.970176246898579
40
1
40
1
40
1
40
1
41
1
10
6.2301457731275
20
-1.397279281127
30
0
41
1
10
6.39155170716447
20
-1.46028712934901
30
0
41
1
10
6.55230113575695
20
-1.51906661825416
30
0
41
1
10
6.87400582791832
20
-1.62744880705711
30
0
41
1
10
7.0345217766772
20
-1.6774254670579
30
0
41
1
10
7.35635157259006
20
-1.76560809655103
30
0
41
1
10
7.51776723442032
20
-1.80446789771099
30
0
41
1
10
7.83978370229531
20
-1.87144594409091
30
0
41
1
10
8.00035859970967
20
-1.89946287598463
30
0
41
1
10
8.32202555692913
20
-1.94312862316471
30
0
41
1
10
8.48266536888468
20
-1.95917682883166
30
0
41
1
10
8.8049268859815
20
-1.98004646368352
30
0
41
1
10
8.96591009672835
20
-1.98468802266439
30
0
41
1
10
9.28760117444563
20
-1.98099703938698
30
0
41
1
10
9.44811277918532
20
-1.9729484382998
30
0
41
1
10
9.7697017251985
20
-1.94662802735505
30
0
41
1
10
9.93086819628908
20
-1.92693382423548
30
0
41
1
10
10.2528770689265
20
-1.8753412103087
30
0
41
1
10
10.4135039061615
20
-1.84378492436895
30
0
41
1
10
10.7349812631406
20
-1.77157457398394
30
0
41
1
10
10.8954879520104
20
-1.72954120756464
30
0
41
1
10
11.2177883074829
20
-1.6340624544257
30
0
41
1
10
11.3788468633674
20
-1.58109136021832
30
0
41
1
10
11.7003714130448
20
-1.46765187756972
30
0
41
1
10
11.8608579124372
20
-1.40629779395471
30
0
41
1
10
12.0811252422571
20
-1.31592656029122
30
0
41
1
10
12.1405163834193
20
-1.29095883804607
30
0
41
1
10
12.1999198959104
20
-1.26546587552687
30
0
0
SPLINE
5
BA
100
AcDbEntity
8
1
62
256
6
ByLayer
370
18
48
1
60
0
100
AcDbSpline
70
4
71
3
72
66
73
62
40
0
40
0
40
0
40
0
40
0.0287777787269978
40
0.0287777787269978
40
0.062162307872199
40
0.062162307872199
40
0.0955468370174003
40
0.0955468370174003
40
0.128931366162602
40
0.128931366162602
40
0.162315895307803
40
0.162315895307803
40
0.195700424453004
40
0.195700424453004
40
0.229084953598205
40
0.229084953598205
40
0.262469482743407
40
0.262469482743407
40
0.295854011888608
40
0.295854011888608
40
0.329238541033809
40
0.329238541033809
40
0.36262307017901
40
0.36262307017901
40
0.396007599324211
40
0.396007599324211
40
0.429392128469413
40
0.429392128469413
40
0.462776657614614
40
0.462776657614614
40
0.496161186759815
40
0.496161186759815
40
0.529545715905017
40
0.529545715905017
40
0.562930245050218
40
0.562930245050218
40
0.596314774195419
40
0.596314774195419
40
0.62969930334062
40
0.62969930334062
40
0.663083832485821
40
0.663083832485821
40
0.696468361631023
40
0.696468361631023
40
0.729852890776224
40
0.729852890776224
40
0.763237419921425
40
0.763237419921425
40
0.796621949066627
40
0.796621949066627
40
0.830006478211827
40
0.830006478211827
40
0.863391007357029
40
0.863391007357029
40
0.89677553650223
40
0.89677553650223
40
0.963544594792635
40
0.963544594792635
40
0.996929123937837
40
0.996929123937837
40
1
40
1
40
1
40
1
41
1
10
20.2858312296253
20
2.00300706898457
30
0
41
1
10
20.4241567723383
20
2.003408253006
30
0
41
1
10
20.5624465908161
20
2.00001622395706
30
0
41
1
10
20.8620237615959
20
1.98166799171631
30
0
41
1
10
21.0225631485658
20
1.96503663176404
30
0
41
1
10
21.3433748393352
20
1.92045485741502
30
0
41
1
10
21.5036818608268
20
1.89354935613289
30
0
41
1
10
21.8247325239629
20
1.82689338907935
30
0
41
1
10
21.9858113489233
20
1.7874044686499
30
0
41
1
10
22.3068866319919
20
1.69833625459316
30
0
41
1
10
22.4671909573316
20
1.64947847803043
30
0
41
1
10
22.787876475281
20
1.54090877151285
30
0
41
1
10
22.9485892542544
20
1.48144229868251
30
0
41
1
10
23.270317192225
20
1.35334111447526
30
0
41
1
10
23.4307183488491
20
1.28574338828761
30
0
41
1
10
23.751434176826
20
1.14278353745013
30
0
41
1
10
23.9118707943811
20
1.06751300865238
30
0
41
1
10
24.2331641757803
20
0.910386148069165
30
0
41
1
10
24.3941425357783
20
0.82902806454635
30
0
41
1
10
24.715031352292
20
0.661873737947843
30
0
41
1
10
24.8752340227594
20
0.575889192284279
30
0
41
1
10
25.1960836432744
20
0.401055059488897
30
0
41
1
10
25.3569041066107
20
0.312318391613758
30
0
41
1
10
25.6781070366292
20
0.132671439255944
30
0
41
1
10
25.8382889415513
20
0.0423166067672014
30
0
41
1
10
26.1587911572155
20
-0.137752460029276
30
0
41
1
10
26.3189657473922
20
-0.227749591975538
30
0
41
1
10
26.6398212559976
20
-0.406483663432596
30
0
41
1
10
26.8007163306846
20
-0.494699949911507
30
0
41
1
10
27.1212126993658
20
-0.667413531452866
30
0
41
1
10
27.2813044691148
20
-0.75197587904853
30
0
41
1
10
27.6016765692072
20
-0.91716434750299
30
0
41
1
10
27.7622597971832
20
-0.997175111372059
30
0
41
1
10
28.0834039150199
20
-1.14997353425446
30
0
41
1
10
28.2437593136627
20
-1.22282025757258
30
0
41
1
10
28.5638869959133
20
-1.36309090928987
30
0
41
1
10
28.7239697760503
20
-1.42884601634711
30
0
41
1
10
29.0450872933914
20
-1.55061455968135
30
0
41
1
10
29.2058046916447
20
-1.60697292027874
30
0
41
1
10
29.526384252782
20
-1.71123430951641
30
0
41
1
10
29.6865728515319
20
-1.7579750970217
30
0
41
1
10
30.0070556360589
20
-1.8400987710589
30
0
41
1
10
30.1678151396399
20
-1.87568924328829
30
0
41
1
10
30.4887251544138
20
-1.93816784847064
30
0
41
1
10
30.6488668666496
20
-1.96324804025184
30
0
41
1
10
30.9690137319295
20
-1.99961777219266
30
0
41
1
10
31.1292897312498
20
-2.01139255644088
30
0
41
1
10
31.4502981056569
20
-2.02333564989041
30
0
41
1
10
31.6108894746926
20
-2.02330219615888
30
0
41
1
10
31.9314174040763
20
-2.01186989127859
30
0
41
1
10
32.0916016000651
20
-2.00064286591865
30
0
41
1
10
32.4119310388181
20
-1.96651337347004
30
0
41
1
10
32.5727260029761
20
-1.94320150914493
30
0
41
1
10
32.8932980812308
20
-1.88387063646758
30
0
41
1
10
33.0533584657094
20
-1.84845072844973
30
0
41
1
10
33.533687987595
20
-1.72631985896348
30
0
41
1
10
33.8550849362014
20
-1.62176964112996
30
0
41
1
10
34.3355378524421
20
-1.43984190814527
30
0
41
1
10
34.4955149273267
20
-1.37470866642261
30
0
41
1
10
34.6705219221295
20
-1.2990576113551
30
0
41
1
10
34.685268682516
20
-1.29265059044818
30
0
41
1
10
34.7000192753525
20
-1.28620971857151
30
0
0
SPLINE
5
BB
100
AcDbEntity
8
1
62
256
6
ByLayer
370
18
48
1
60
0
100
AcDbSpline
70
4
71
3
72
8
73
4
40
0
40
0
40
0
40
0
40
1
40
1
40
1
40
1
41
1
10
5.73203562504051
20
-1.97522536161372
30
0
41
1
10
5.77843438897207
20
-1.96851665068735
30
0
41
1
10
5.82483572229756
20
-1.96130025753888
30
0
41
1
10
5.87123231216572
20
-1.953587832442
30
0
0
SPLINE
5
BC
100
AcDbEntity
8
1
62
256
6
ByLayer
370
18
48
1
60
0
100
AcDbSpline
70
4
71
3
72
40
73
36
40
0
40
0
40
0
40
0
40
0.0426079806102574
40
0.0426079806102574
40
0.124773482100182
40
0.124773482100182
40
0.165856232845144
40
0.165856232845144
40
0.206938983590106
40
0.206938983590106
40
0.28910448508003
40
0.28910448508003
40
0.330187235824993
40
0.330187235824993
40
0.371269986569956
40
0.371269986569956
40
0.45343548805988
40
0.45343548805988
40
0.535600989549805
40
0.535600989549805
40
0.576683740294767
40
0.576683740294767
40
0.61776649103973
40
0.61776649103973
40
0.699931992529654
40
0.699931992529654
40
0.741014743274615
40
0.741014743274615
40
0.782097494019577
40
0.782097494019577
40
0.946428496999419
40
0.946428496999419
40
0.98751124774438
40
0.98751124774438
40
1
40
1
40
1
40
1
41
1
10
16.065012963401
20
2.06203370868121
30
0
41
1
10
16.234588160948
20
2.06196946257529
30
0
41
1
10
16.4037297045546
20
2.05497154519992
30
0
41
1
10
16.8992148464367
20
2.01453155402587
30
0
41
1
10
17.2249177501806
20
1.96229444471535
30
0
41
1
10
17.7185150579182
20
1.84740973777528
30
0
41
1
10
17.8842287972369
20
1.80270388895883
30
0
41
1
10
18.2132701648647
20
1.70263749246479
30
0
41
1
10
18.3770850348439
20
1.6473377619192
30
0
41
1
10
18.8674109742029
20
1.46704201940867
30
0
41
1
10
19.19245105507
20
1.32717498436193
30
0
41
1
10
19.6825378059352
20
1.09475654379267
30
0
41
1
10
19.8461998160974
20
1.01334977901414
30
0
41
1
10
20.1749283686386
20
0.843681468295614
30
0
41
1
10
20.340617639044
20
0.755319217178283
30
0
41
1
10
20.8340753503069
20
0.485793458691887
30
0
41
1
10
21.1597762267523
20
0.298908192814395
30
0
41
1
10
21.8115079057511
20
-0.0771890334708303
30
0
41
1
10
22.1370571375632
20
-0.267249843293257
30
0
41
1
10
22.6302707105709
20
-0.545909425584767
30
0
41
1
10
22.7958357823842
20
-0.638135511797657
30
0
41
1
10
23.1243926064131
20
-0.816703487432903
30
0
41
1
10
23.2879833456638
20
-0.903193576071402
30
0
41
1
10
23.7776091684036
20
-1.15305194547355
30
0
41
1
10
24.102309638972
20
-1.3070424094762
30
0
41
1
10
24.5919809174019
20
-1.51172163198467
30
0
41
1
10
24.7555259515828
20
-1.57571965955827
30
0
41
1
10
25.0841325730548
20
-1.69400195915802
30
0
41
1
10
25.2496092946041
20
-1.74829350697419
30
0
41
1
10
26.0706139163387
20
-1.98919118558115
30
0
41
1
10
26.7150241836432
20
-2.08834853310668
30
0
41
1
10
27.5368916739956
20
-2.08042922570289
30
0
41
1
10
27.7022174371961
20
-2.07218951769013
30
0
41
1
10
27.916039092759
20
-2.05303481144324
30
0
41
1
10
27.9658195372164
20
-2.04797573333059
30
0
41
1
10
28.0155462867257
20
-2.04233191219399
30
0
0
SPLINE
5
BD
100
AcDbEntity
8
1
62
256
6
ByLayer
370
18
48
1
60
0
100
AcDbSpline
70
4
71
3
72
8
73
4
40
0
40
0
40
0
40
0
40
1
40
1
40
1
40
1
41
1
10
37.0582047074293
20
0.0571536765996257
30
0
41
1
10
37.1864545297909
20
0.0142767182029218
30
0
41
1
10
37.3156718902464
20
-0.0231880345113211
30
0
41
1
10
37.4459934472279
20
-0.0544761428644733
30
0
0
SPLINE
5
BE
100
AcDbEntity
8
1
62
256
6
ByLayer
370
18
48
1
60
0
100
AcDbSpline
70
4
71
3
72
20
73
16
40
0
40
0
40
0
40
0
40
0.0867853437197523
40
0.0867853437197523
40
0.238987786433127
40
0.238987786433127
40
0.391190229146501
40
0.391190229146501
40
0.543392671859876
40
0.543392671859876
40
0.695595114573251
40
0.695595114573251
40
0.847797557286625
40
0.847797557286625
40
1
40
1
40
1
40
1
41
1
10
37.1996796751202
20
0.0388720034668211
30
0
41
1
10
37.1925608438234
20
0.0462297670517273
30
0
41
1
10
37.1876206184373
20
0.0545036719537961
30
0
41
1
10
37.1799035325959
20
0.0802886619976846
30
0
41
1
10
37.1812883014217
20
0.100239201970965
30
0
41
1
10
37.1951535530426
20
0.149031976575373
30
0
41
1
10
37.207367517682
20
0.177187012717951
30
0
41
1
10
37.2409675813038
20
0.242001253536102
30
0
41
1
10
37.2625859417652
20
0.278950883787587
30
0
41
1
10
37.3129280850137
20
0.358045266090841
30
0
41
1
10
37.3420617820782
20
0.400960965215575
30
0
41
1
10
37.4085048097789
20
0.490473806530105
30
0
41
1
10
37.4448767978348
20
0.536016204221625
30
0
41
1
10
37.5281188814213
20
0.625157986556161
30
0
41
1
10
37.5753293353509
20
0.668998189173323
30
0
41
1
10
37.6293168064644
20
0.704250324086701
30
0
0
SPLINE
5
BF
100
AcDbEntity
8
1
62
256
6
ByLayer
370
18
48
1
60
0
100
AcDbSpline
70
4
71
3
72
19
73
15
40
0
40
0
40
0
40
0
40
0.141233437370655
40
0.141233437370655
40
0.28246687474131
40
0.423700312111965
40
0.423700312111965
40
0.56493374948262
40
0.56493374948262
40
0.706167186853275
40
0.706167186853275
40
0.84740062422393
40
0.84740062422393
40
1
40
1
40
1
40
1
41
1
10
5.47408236559511
20
-1.14992260471243
30
0
41
1
10
5.47394435303662
20
-1.22644987561841
30
0
41
1
10
5.47380764277071
20
-1.3003906939696
30
0
41
1
10
5.47354802876032
20
-1.43833127545304
30
0
41
1
10
5.47330163745477
20
-1.5666883315952
30
0
41
1
10
5.47307693515941
20
-1.67627810016811
30
0
41
1
10
5.47285672891417
20
-1.77615290712811
30
0
41
1
10
5.47275031245312
20
-1.82051088036607
30
0
41
1
10
5.4725371727352
20
-1.89717475572783
30
0
41
1
10
5.47242998306581
20
-1.92970654636872
30
0
41
1
10
5.47220071386545
20
-1.98307626800823
30
0
41
1
10
5.4720775642451
20
-2.00397747111038
30
0
41
1
10
5.47179549522338
20
-2.03389428782927
30
0
41
1
10
5.47163455949519
20
-2.04213427059011
30
0
41
1
10
5.47144841823842
20
-2.04300252114831
30
0
0
SPLINE
5
C0
100
AcDbEntity
8
1
62
256
6
ByLayer
370
18
48
1
60
0
100
AcDbSpline
70
4
71
3
72
18
73
14
40
0
40
0
40
0
40
0
40
0.0398259568459808
40
0.0814427750368435
40
0.125407926372252
40
0.185985001020149
40
0.250694209325534
40
0.369913594649994
40
0.500619381896294
40
0.621663057575849
40
0.749753773601155
40
0.872841064467587
40
1
40
1
40
1
40
1
41
1
10
5.47091178153391
20
2.02915603331687
30
0
41
1
10
5.47112013784215
20
2.02851881877945
30
0
41
1
10
5.47154621965618
20
2.02721573595784
30
0
41
1
10
5.47497355305242
20
2.02507650411693
30
0
41
1
10
5.48089347031367
20
2.02250903170633
30
0
41
1
10
5.49020770904318
20
2.01946536714672
30
0
41
1
10
5.50678002304667
20
2.01498410709652
30
0
41
1
10
5.53247953252986
20
2.00916539599476
30
0
41
1
10
5.56722136842205
20
2.00225778337131
30
0
41
1
10
5.60577251081875
20
1.99526638251368
30
0
41
1
10
5.64578245056953
20
1.98847991971772
30
0
41
1
10
5.68806283163781
20
1.98172153089649
30
0
41
1
10
5.71721989339332
20
1.97741411273424
30
0
41
1
10
5.73203562504065
20
1.97522536161387
30
0
0
SPLINE
5
C1
100
AcDbEntity
8
1
62
256
6
ByLayer
370
13
48
1
60
0
100
AcDbSpline
70
4
71
3
72
17
73
13
40
0
40
0
40
0
40
0
40
0.0973024966419108
40
0.247752080534925
40
0.247752080534925
40
0.39820166442794
40
0.39820166442794
40
0.548651248320955
40
0.548651248320955
40
0.69910083221397
40
0.69910083221397
40
1
40
1
40
1
40
1
41
1
10
5.82911024665955
20
-1.97743055876251
30
0
41
1
10
5.82907082554942
20
-1.97757587684501
30
0
41
1
10
5.82897487246589
20
-1.97164531046221
30
0
41
1
10
5.82888970892759
20
-1.94992421598869
30
0
41
1
10
5.8287936744716
20
-1.9115474578638
30
0
41
1
10
5.82874976102931
20
-1.88641685861091
30
0
41
1
10
5.82867066068309
20
-1.8256426636934
30
0
41
1
10
5.82863515891887
20
-1.78988281562741
30
0
41
1
10
5.82857080286956
20
-1.70759840567095
30
0
41
1
10
5.82854181385937
20
-1.66077177524406
30
0
41
1
10
5.82846394440119
20
-1.50567884670309
30
0
41
1
10
5.828423922252
20
-1.38235113722655
30
0
41
1
10
5.82839077885899
20
-1.24580083754802
30
0
0
SPLINE
5
C2
100
AcDbEntity
8
1
62
256
6
ByLayer
370
13
48
1
60
0
100
AcDbSpline
70
4
71
3
72
114
73
110
40
0
40
0
40
0
40
0
40
0.0111026269698355
40
0.0149505039072108
40
0.0226462577819626
40
0.0303420116567175
40
0.0418856424688468
40
0.0457335194062207
40
0.0534292732809681
40
0.0611250271557248
40
0.0707447194991669
40
0.0765165349052306
40
0.0822883503112988
40
0.0919080426547334
40
0.107299550404244
40
0.130386812028499
40
0.138082565903251
40
0.153474073652755
40
0.168865581402258
40
0.195800719963896
40
0.199648596901271
40
0.207344350776024
40
0.215040104650779
40
0.226583735462905
40
0.230431612400281
40
0.238127366275032
40
0.245823120149784
40
0.255442812493228
40
0.261214627899291
40
0.266986443305357
40
0.276606135648796
40
0.291997643398303
40
0.315084905022559
40
0.322780658897311
40
0.338172166646817
40
0.353563674396321
40
0.380498812957954
40
0.384346689895331
40
0.392042443770084
40
0.399738197644837
40
0.411281828456966
40
0.415129705394342
40
0.422825459269093
40
0.430521213143847
40
0.44014090548729
40
0.445912720893351
40
0.451684536299416
40
0.461304228642857
40
0.476695736392359
40
0.503630874953994
40
0.507478751891372
40
0.515174505766123
40
0.522870259640876
40
0.534413890453006
40
0.538261767390382
40
0.545957521265134
40
0.553653275139888
40
0.565196905952015
40
0.569044782889392
40
0.576740536764143
40
0.584436290638897
40
0.595979921451024
40
0.599827798388402
40
0.607523552263156
40
0.615219306137907
40
0.624838998481347
40
0.630610813887412
40
0.636382629293474
40
0.646002321636917
40
0.661393829386423
40
0.688328967948052
40
0.692176844885432
40
0.699872598760185
40
0.707568352634939
40
0.719111983447065
40
0.722959860384442
40
0.730655614259193
40
0.738351368133947
40
0.749894998946075
40
0.753742875883452
40
0.761438629758204
40
0.769134383632957
40
0.780678014445086
40
0.784525891382462
40
0.792221645257216
40
0.799917399131969
40
0.809537091475406
40
0.815308906881472
40
0.821080722287537
40
0.830700414630977
40
0.846091922380482
40
0.873027060942116
40
0.876874937879492
40
0.884570691754245
40
0.892266445628997
40
0.903810076441126
40
0.907657953378503
40
0.915353707253256
40
0.923049461128006
40
0.934593091940136
40
0.938440968877512
40
0.946136722752264
40
0.953832476627018
40
0.965376107439147
40
0.969223984376522
40
0.976919738251276
40
0.98461549212603
40
0.994235184469468
40
1
40
1
40
1
40
1
41
1
10
33.8560293368653
20
-0.875283549032758
30
0
41
1
10
33.8273799982392
20
-0.880218151895122
30
0
41
1
10
33.7888005490307
20
-0.886752391021048
30
0
41
1
10
33.7303615793559
20
-0.896421966814671
30
0
41
1
10
33.6807210266403
20
-0.904471375044551
30
0
41
1
10
33.6112234338747
20
-0.915444504358817
30
0
41
1
10
33.5516511452494
20
-0.924539873299921
30
0
41
1
10
33.4920800167274
20
-0.93338448195729
30
0
41
1
10
33.442439687376
20
-0.940587573790935
30
0
41
1
10
33.3779056244383
20
-0.94966739082588
30
0
41
1
10
33.3183341882804
20
-0.957757019302193
30
0
41
1
10
33.2637272850881
20
-0.964934972484912
30
0
41
1
10
33.2091233938643
20
-0.97192252295963
30
0
41
1
10
33.1297016258889
20
-0.981713878442861
30
0
41
1
10
33.005606601631
20
-0.996074995543978
30
0
41
1
10
32.8864590559884
20
-1.00854346387436
30
0
41
1
10
32.7673138083459
20
-1.01990589367779
30
0
41
1
10
32.6680356595082
20
-1.02862794343872
30
0
41
1
10
32.5191197459539
20
-1.04025792263405
30
0
41
1
10
32.3999691969686
20
-1.0480666028827
30
0
41
1
10
32.3006743086684
20
-1.05364040102489
30
0
41
1
10
32.2510337893674
20
-1.05620505734268
30
0
41
1
10
32.1815362140498
20
-1.05944955704581
30
0
41
1
10
32.1219639160392
20
-1.06188018163681
30
0
41
1
10
32.0623927644161
20
-1.06402143664386
30
0
41
1
10
32.0127524143952
20
-1.06560612941504
30
0
41
1
10
31.9482183269735
20
-1.06734755653207
30
0
41
1
10
31.888646869028
20
-1.06863170726694
30
0
41
1
10
31.8340399457274
20
-1.06954552425608
30
0
41
1
10
31.7794360328997
20
-1.07023924708304
30
0
41
1
10
31.7000142284538
20
-1.07082946535184
30
0
41
1
10
31.5759191337089
20
-1.07071887351989
30
0
41
1
10
31.4567714977019
20
-1.0692422507733
30
0
41
1
10
31.3376261392599
20
-1.06659081035883
30
0
41
1
10
31.2383478751715
20
-1.06356512101795
30
0
41
1
10
31.0894317552998
20
-1.05751292536544
30
0
41
1
10
30.9702810317925
20
-1.05120029211002
30
0
41
1
10
30.8709860200102
20
-1.04502552703937
30
0
41
1
10
30.821345439544
20
-1.04169570456557
30
0
41
1
10
30.7518477760781
20
-1.03669510441696
30
0
41
1
10
30.6922754020866
20
-1.03207603892133
30
0
41
1
10
30.6327041750249
20
-1.02717627283289
30
0
41
1
10
30.5830637733974
20
-1.02289362180042
30
0
41
1
10
30.5185296545718
20
-1.0170246999563
30
0
41
1
10
30.4589582093736
20
-1.01130452716899
30
0
41
1
10
30.4043513394533
20
-1.00581417219271
30
0
41
1
10
30.3497475016027
20
-1.00010913732274
30
0
41
1
10
30.2703258155509
20
-0.991412606923916
30
0
41
1
10
30.1363064769276
20
-0.975667367851855
30
0
41
1
10
30.0171560104607
20
-0.960392489613525
30
0
41
1
10
29.9178612259933
20
-0.946840041614564
30
0
41
1
10
29.8682207844863
20
-0.939828460775487
30
0
41
1
10
29.7987233720918
20
-0.929706759423823
30
0
41
1
10
29.7391512541505
20
-0.92073772127091
30
0
41
1
10
29.6795802996344
20
-0.911517033482767
30
0
41
1
10
29.6299400939441
20
-0.903650276567362
30
0
41
1
10
29.5604427827788
20
-0.89234255503726
30
0
41
1
10
29.500870592145
20
-0.882369616182643
30
0
41
1
10
29.4412994675886
20
-0.872154700301991
30
0
41
1
10
29.3916590967655
20
-0.863465397106523
30
0
41
1
10
29.3221615627019
20
-0.851018901540215
30
0
41
1
10
29.2625892067172
20
-0.840084391675902
30
0
41
1
10
29.2030179613249
20
-0.828919615118366
30
0
41
1
10
29.1533775391483
20
-0.819446214893588
30
0
41
1
10
29.0888433920694
20
-0.806891524151439
30
0
41
1
10
29.0292719164377
20
-0.795065717370136
30
0
41
1
10
28.9746650139818
20
-0.78403200244901
30
0
41
1
10
28.9200611359543
20
-0.772821486661968
30
0
41
1
10
28.8406393709846
20
-0.756197735066252
30
0
41
1
10
28.7066198499489
20
-0.727306455781701
30
0
41
1
10
28.5874691600906
20
-0.700737094213565
30
0
41
1
10
28.4881741662229
20
-0.678015196044811
30
0
41
1
10
28.4385336153181
20
-0.6664603990221
30
0
41
1
10
28.3690360475007
20
-0.650068373494378
30
0
41
1
10
28.3094638018694
20
-0.635823035712008
30
0
41
1
10
28.2498927333542
20
-0.621403628087933
30
0
41
1
10
28.2002524446606
20
-0.609254373404781
30
0
41
1
10
28.1307550436867
20
-0.592048681351088
30
0
41
1
10
28.071182806751
20
-0.57712553109755
30
0
41
1
10
28.0116116641937
20
-0.562044080182119
30
0
41
1
10
27.9619712897279
20
-0.549353589065248
30
0
41
1
10
27.8924737568331
20
-0.531409693644861
30
0
41
1
10
27.8329014013983
20
-0.515874273771459
30
0
41
1
10
27.7733301456478
20
-0.500197120800777
30
0
41
1
10
27.7236897127306
20
-0.487021289496369
30
0
41
1
10
27.6591555581412
20
-0.469755113419609
30
0
41
1
10
27.5995840849656
20
-0.453685102914221
30
0
41
1
10
27.5449771962388
20
-0.438846040846045
30
0
41
1
10
27.4903733404224
20
-0.423896761523082
30
0
41
1
10
27.4109516184374
20
-0.401967004841538
30
0
41
1
10
27.276932189406
20
-0.364487920328628
30
0
41
1
10
27.1577815847811
20
-0.330817449677994
30
0
41
1
10
27.058486636543
20
-0.302510291833499
30
0
41
1
10
27.008846102293
20
-0.288234483258918
30
0
41
1
10
26.9393485498457
20
-0.268156339302152
30
0
41
1
10
26.8797763135557
20
-0.250879573760415
30
0
41
1
10
26.8202052561504
20
-0.233532981079407
30
0
41
1
10
26.7705649859313
20
-0.219014652671007
30
0
41
1
10
26.7010676295187
20
-0.198619847241787
30
0
41
1
10
26.6414954435523
20
-0.181094969807305
30
0
41
1
10
26.5819243550628
20
-0.163519532136689
30
0
41
1
10
26.5322840223263
20
-0.148823734364356
30
0
41
1
10
26.4627865372502
20
-0.128203697731294
30
0
41
1
10
26.403214211479
20
-0.110509195120073
30
0
41
1
10
26.3436429758123
20
-0.0927833482321887
30
0
41
1
10
26.2940025528601
20
-0.077975456210936
30
0
41
1
10
26.2294684021929
20
-0.0587106262616715
30
0
41
1
10
26.169914988411
20
-0.0409265538446562
30
0
41
1
10
26.1302189464367
20
-0.0290679279563903
30
0
41
1
10
26.1153446315242
20
-0.0246207508351688
30
0
0
SPLINE
5
C3
100
AcDbEntity
8
1
62
256
6
ByLayer
370
13
48
1
60
0
100
AcDbSpline
70
4
71
3
72
70
73
66
40
0
40
0
40
0
40
0
40
0.0066280307230716
40
0.0314623299549954
40
0.0562966291869178
40
0.0997566528427834
40
0.105965227650764
40
0.118382377266726
40
0.130799526882688
40
0.14942525130663
40
0.155633826114611
40
0.168050975730572
40
0.180468125346534
40
0.195989562366486
40
0.205302424578457
40
0.214615286790428
40
0.230136723810381
40
0.254971023042303
40
0.292222471890189
40
0.30463962150615
40
0.329473920738073
40
0.354308219969996
40
0.397768243625862
40
0.403976818433843
40
0.416393968049805
40
0.428811117665766
40
0.447436842089708
40
0.45364541689769
40
0.466062566513652
40
0.478479716129612
40
0.494001153149565
40
0.503314015361536
40
0.512626877573507
40
0.528148314593459
40
0.552982613825382
40
0.596442637481248
40
0.602651212289229
40
0.61506836190519
40
0.627485511521151
40
0.646111235945095
40
0.652319810753075
40
0.664736960369037
40
0.677154109984998
40
0.695779834408941
40
0.701988409216921
40
0.714405558832882
40
0.726822708448844
40
0.745448432872787
40
0.751657007680768
40
0.764074157296729
40
0.776491306912691
40
0.792012743932643
40
0.801325606144614
40
0.810638468356585
40
0.826159905376538
40
0.850994204608461
40
0.894454228264326
40
0.900662803072307
40
0.913079952688269
40
0.925497102304231
40
0.942570683026178
40
0.950331401536154
40
0.95809212004613
40
0.975165700768077
40
1
40
1
40
1
40
1
41
1
10
11.3736576015216
20
-0.872302156989747
30
0
41
1
10
11.3630580922939
20
-0.874141168286428
30
0
41
1
10
11.3127441843701
20
-0.882815960796478
30
0
41
1
10
11.2227231090309
20
-0.897860647642176
30
0
41
1
10
11.0738072005446
20
-0.921483304998759
30
0
41
1
10
10.9546566749758
20
-0.939019266007136
30
0
41
1
10
10.8553618117255
20
-0.952784300562939
30
0
41
1
10
10.8057213036999
20
-0.959483253016515
30
0
41
1
10
10.7362237387032
20
-0.968547124453295
30
0
41
1
10
10.6766514433709
20
-0.975989598044038
30
0
41
1
10
10.6170802886284
20
-0.983166262735267
30
0
41
1
10
10.5674399329664
20
-0.988967605878202
30
0
41
1
10
10.50290583309
20
-0.996210457251976
30
0
41
1
10
10.4433343576635
20
-1.00259023647067
30
0
41
1
10
10.3887274132557
20
-1.00818913535397
30
0
41
1
10
10.3341234723132
20
-1.01358582970704
30
0
41
1
10
10.2547016104958
20
-1.02104351295577
30
0
41
1
10
10.130606397771
20
-1.03171564556095
30
0
41
1
10
10.0114586353123
20
-1.04060697834112
30
0
41
1
10
9.89231317302389
20
-1.048358683711
30
0
41
1
10
9.79303485425424
20
-1.05404343839405
30
0
41
1
10
9.64411872820023
20
-1.06108382229087
30
0
41
1
10
9.52496808122825
20
-1.06521137488696
30
0
41
1
10
9.42567318218457
20
-1.06771414729346
30
0
41
1
10
9.37603266986309
20
-1.06873555294629
30
0
41
1
10
9.30653512229156
20
-1.06981798912844
30
0
41
1
10
9.24696286419271
20
-1.0703965363526
30
0
41
1
10
9.18739176048169
20
-1.0706847514144
30
0
41
1
10
9.13775146275651
20
-1.07072288243373
30
0
41
1
10
9.07321747362818
20
-1.07045445836062
30
0
41
1
10
9.01364613764659
20
-1.06988471684323
30
0
41
1
10
8.9590393539512
20
-1.06909993458683
30
0
41
1
10
8.90443558962096
20
-1.06809334251028
30
0
41
1
10
8.82501398565444
20
-1.06620968734569
30
0
41
1
10
8.69099471549598
20
-1.06189293443339
30
0
41
1
10
8.57184419962607
20
-1.05660696461499
30
0
41
1
10
8.47254930183885
20
-1.05127505630915
30
0
41
1
10
8.42290879316019
20
-1.04836551122435
30
0
41
1
10
8.35341127547559
20
-1.04394866277528
30
0
41
1
10
8.29383905978926
20
-1.03982460604774
30
0
41
1
10
8.23426800791714
20
-1.03541609845678
30
0
41
1
10
8.18462771982627
20
-1.03154076274839
30
0
41
1
10
8.11513029564628
20
-1.02577829688673
30
0
41
1
10
8.05555801926258
20
-1.02050910143828
30
0
41
1
10
7.9959868278429
20
-1.01496120613021
30
0
41
1
10
7.94634641361603
20
-1.01013940195222
30
0
41
1
10
7.87684883585865
20
-1.00305962823765
30
0
41
1
10
7.81727645629695
20
-0.996670667238078
30
0
41
1
10
7.75770519248209
20
-0.990009756260662
30
0
41
1
10
7.70806476039894
20
-0.984264193337225
30
0
41
1
10
7.64353061294969
20
-0.97650505075373
30
0
41
1
10
7.58395914923315
20
-0.969052565649974
30
0
41
1
10
7.52935226775986
20
-0.961984397417183
30
0
41
1
10
7.47474841503811
20
-0.954708089408996
30
0
41
1
10
7.39532668842841
20
-0.943741020253981
30
0
41
1
10
7.26130723407601
20
-0.924208341751552
30
0
41
1
10
7.14215659692272
20
-0.905650298094287
30
0
41
1
10
7.04286163253857
20
-0.88941358577577
30
0
41
1
10
6.99322109449201
20
-0.881067237512156
30
0
41
1
10
6.92620520154216
20
-0.869527906597341
30
0
41
1
10
6.86663332340274
20
-0.859006814104873
30
0
41
1
10
6.81450792777426
20
-0.849604821889415
30
0
41
1
10
6.76238641120526
20
-0.840034983949465
30
0
41
1
10
6.68296413580674
20
-0.825113832505593
30
0
41
1
10
6.61594250978928
20
-0.81218196388312
30
0
41
1
10
6.57622569905186
20
-0.804383896228671
30
0
0
SPLINE
5
C4
100
AcDbEntity
8
1
62
256
6
ByLayer
370
13
48
1
60
0
100
AcDbSpline
70
4
71
3
72
30
73
26
40
0
40
0
40
0
40
0
40
0.116815579714992
40
0.116815579714992
40
0.175223369572489
40
0.175223369572489
40
0.233631159429987
40
0.233631159429987
40
0.350446739144982
40
0.350446739144982
40
0.40885452900248
40
0.40885452900248
40
0.467262318859978
40
0.467262318859978
40
0.700893478289965
40
0.700893478289965
40
0.759301268147461
40
0.759301268147461
40
0.817709058004958
40
0.817709058004958
40
0.934524637719951
40
0.934524637719951
40
0.992932427577448
40
0.992932427577448
40
1
40
1
40
1
40
1
41
1
10
37.1393989893917
20
-1.78929402163587
30
0
41
1
10
36.8123626508506
20
-1.70049961164344
30
0
41
1
10
36.486826350614
20
-1.59010131492306
30
0
41
1
10
35.9973996448515
20
-1.39668591752022
30
0
41
1
10
35.8336988663719
20
-1.32741386261236
30
0
41
1
10
35.5066900484814
20
-1.18119450029502
30
0
41
1
10
35.3439609580265
20
-1.10453004053758
30
0
41
1
10
34.8569543345677
20
-0.865812392283829
30
0
41
1
10
34.5339616277832
20
-0.694905004968206
30
0
41
1
10
34.0475052231961
20
-0.428406605253059
30
0
41
1
10
33.8850374253141
20
-0.337875654052624
30
0
41
1
10
33.5588431653756
20
-0.154469710733224
30
0
41
1
10
33.3946775146301
20
-0.0613729141603585
30
0
41
1
10
32.5791192609367
20
0.40013352958033
30
0
41
1
10
31.9372066864089
20
0.761140113829413
30
0
41
1
10
31.1188156582875
20
1.15219286127257
30
0
41
1
10
30.9550637391216
20
1.22705080452087
30
0
41
1
10
30.6295657493266
20
1.36786723198262
30
0
41
1
10
30.4673963469155
20
1.43392122486426
30
0
41
1
10
29.9808808976212
20
1.61744172031055
30
0
41
1
10
29.6574197986935
20
1.7219238315941
30
0
41
1
10
29.1685060480364
20
1.84474771724348
30
0
41
1
10
29.0045023688652
20
1.88050189863776
30
0
41
1
10
28.8211382922709
20
1.91371204115305
30
0
41
1
10
28.8013570078361
20
1.91720555897982
30
0
41
1
10
28.7815863097169
20
1.9206077062735
30
0
0
SPLINE
5
C5
100
AcDbEntity
8
1
62
256
6
ByLayer
370
13
48
1
60
0
100
AcDbSpline
70
4
71
3
72
34
73
30
40
0
40
0
40
0
40
0
40
0.0782881629480118
40
0.0782881629480118
40
0.126886277399844
40
0.126886277399844
40
0.175484391851675
40
0.175484391851675
40
0.272680620755338
40
0.272680620755338
40
0.321278735207169
40
0.321278735207169
40
0.369876849659001
40
0.369876849659001
40
0.467073078562664
40
0.467073078562664
40
0.564269307466327
40
0.564269307466327
40
0.612867421918158
40
0.612867421918158
40
0.661465536369991
40
0.661465536369991
40
0.758661765273654
40
0.758661765273654
40
0.855857994177316
40
0.855857994177316
40
0.953054223080979
40
0.953054223080979
40
1
40
1
40
1
40
1
41
1
10
16.4181558930407
20
-1.99547258199374
30
0
41
1
10
16.1561992497671
20
-1.99499969928092
30
0
41
1
10
15.8948427537977
20
-1.97871311897367
30
0
41
1
10
15.4691723380604
20
-1.92637905482067
30
0
41
1
10
15.3057169349318
20
-1.90028189559814
30
0
41
1
10
14.97741838646
20
-1.83601597294228
30
0
41
1
10
14.8132191546048
20
-1.79786354970469
30
0
41
1
10
14.3230817996464
20
-1.66789549369363
30
0
41
1
10
13.998577858471
20
-1.55992949774497
30
0
41
1
10
13.5104076399071
20
-1.37110651247133
30
0
41
1
10
13.347450663623
20
-1.30377022620198
30
0
41
1
10
13.0206134144826
20
-1.16078096682577
30
0
41
1
10
12.8562651166156
20
-1.0848250123162
30
0
41
1
10
12.3636058052772
20
-0.848374339089872
30
0
41
1
10
12.0382418721724
20
-0.679470342491385
30
0
41
1
10
11.3874369869942
20
-0.329925494715496
30
0
41
1
10
11.0622500528176
20
-0.148951535027095
30
0
41
1
10
10.5702185070945
20
0.12380228279531
30
0
41
1
10
10.4052480709109
20
0.214911636263281
30
0
41
1
10
10.0777396205942
20
0.394260921934432
30
0
41
1
10
9.91466426104847
20
0.482744029068385
30
0
41
1
10
9.42590894745464
20
0.741905646211677
30
0
41
1
10
9.1010529258366
20
0.907088871472354
30
0
41
1
10
8.44753105893079
20
1.21212881704787
30
0
41
1
10
8.11726782629617
20
1.35279179279237
30
0
41
1
10
7.46358445443948
20
1.59355672955758
30
0
41
1
10
7.13860583669273
20
1.69484106701759
30
0
41
1
10
6.6551437911958
20
1.81212929909643
30
0
41
1
10
6.49746756900853
20
1.84533105628572
30
0
41
1
10
6.33924805366635
20
1.87317707876988
30
0
0
SPLINE
5
C6
100
AcDbEntity
8
1
62
256
6
ByLayer
370
18
48
1
60
0
100
AcDbSpline
70
4
71
3
72
54
73
50
40
0
40
0
40
0
40
0
40
0.0208621896919295
40
0.0208621896919295
40
0.0524748140312119
40
0.0524748140312119
40
0.0840874383704942
40
0.0840874383704942
40
0.14731268704906
40
0.14731268704906
40
0.178925311388342
40
0.178925311388342
40
0.210537935727625
40
0.210537935727625
40
0.27376318440619
40
0.27376318440619
40
0.305375808745473
40
0.305375808745473
40
0.336988433084756
40
0.336988433084756
40
0.400213681763322
40
0.400213681763322
40
0.431826306102604
40
0.431826306102604
40
0.463438930441887
40
0.463438930441887
40
0.52666417912045
40
0.52666417912045
40
0.589889427799014
40
0.589889427799014
40
0.621502052138296
40
0.621502052138296
40
0.653114676477578
40
0.653114676477578
40
0.684727300816861
40
0.684727300816861
40
0.716339925156143
40
0.716339925156143
40
0.779565173834708
40
0.779565173834708
40
0.842790422513272
40
0.842790422513272
40
0.874403046852555
40
0.874403046852555
40
0.906015671191837
40
0.906015671191837
40
0.969240919870401
40
0.969240919870401
40
1
40
1
40
1
40
1
41
1
10
12.213402955897
20
1.27687446124773
30
0
41
1
10
12.3141320274316
20
1.32230740913198
30
0
41
1
10
12.4148939041148
20
1.36622791928053
30
0
41
1
10
12.6687188631893
20
1.47248067044924
30
0
41
1
10
12.8219238462319
20
1.53300614027694
30
0
41
1
10
13.1276940944738
20
1.64469815768874
30
0
41
1
10
13.2803009279907
20
1.69617950007355
30
0
41
1
10
13.73814097053
20
1.83662815342873
30
0
41
1
10
14.0446542758687
20
1.9114027965725
30
0
41
1
10
14.5026022542044
20
1.99099641728611
30
0
41
1
10
14.6550860818613
20
2.01217981733868
30
0
41
1
10
14.9604746779656
20
2.04351866359036
30
0
41
1
10
15.1134919559049
20
2.05371365233674
30
0
41
1
10
15.5720761800809
20
2.0672611742016
30
0
41
1
10
15.8766222068606
20
2.05376679364457
30
0
41
1
10
16.335171844856
20
2.0002622065895
30
0
41
1
10
16.4882457332395
20
1.9768347795785
30
0
41
1
10
16.7934153672286
20
1.91942737181159
30
0
41
1
10
16.9459810756776
20
1.88556137713823
30
0
41
1
10
17.4036123689091
20
1.76852930787433
30
0
41
1
10
17.7098593656542
20
1.66992388887346
30
0
41
1
10
18.1671752607304
20
1.49668041683367
30
0
41
1
10
18.3196931578162
20
1.43490717023735
30
0
41
1
10
18.6249265895752
20
1.30333872228346
30
0
41
1
10
18.7781235266549
20
1.23375255770549
30
0
41
1
10
19.2357812109204
20
1.01508457987021
30
0
41
1
10
19.5402922541626
20
0.857761105145244
30
0
41
1
10
20.151629694888
20
0.525501780493613
30
0
41
1
10
20.456276182813
20
0.352019111792146
30
0
41
1
10
20.9137631163547
20
0.0888151531291044
30
0
41
1
10
21.0665829301541
20
0.0001698570659983
30
0
41
1
10
21.3720414829784
20
-0.176217724634199
30
0
41
1
10
21.524369175026
20
-0.264124876637339
30
0
41
1
10
21.8291147680338
20
-0.43783182554003
30
0
41
1
10
21.981336703086
20
-0.523964954961741
30
0
41
1
10
22.2866911795065
20
-0.692731959166736
30
0
41
1
10
22.439570357692
20
-0.775875120304107
30
0
41
1
10
22.8969611698597
20
-1.01729766248457
30
0
41
1
10
23.20114328182
20
-1.1686830270969
30
0
41
1
10
23.812237797575
20
-1.44453298776668
30
0
41
1
10
24.1162770412853
20
-1.56745821248697
30
0
41
1
10
24.5734843733214
20
-1.7253708257758
30
0
41
1
10
24.7262644412845
20
-1.7736951329527
30
0
41
1
10
25.031345012126
20
-1.85990971036742
30
0
41
1
10
25.1835874173991
20
-1.89805128773389
30
0
41
1
10
25.6402904145257
20
-1.99693171401324
30
0
41
1
10
25.9458586373802
20
-2.042029080774
30
0
41
1
10
26.3985332800952
20
-2.07533874896325
30
0
41
1
10
26.5465889252119
20
-2.08093317788251
30
0
41
1
10
26.694751401169
20
-2.08119676542702
30
0
0
SPLINE
5
C7
100
AcDbEntity
8
1
62
256
6
ByLayer
370
18
48
1
60
0
100
AcDbSpline
70
4
71
3
72
14
73
10
40
0
40
0
40
0
40
0
40
0.271410077352212
40
0.271410077352212
40
0.635705038676106
40
0.635705038676106
40
0.817852519338052
40
0.817852519338052
40
1
40
1
40
1
40
1
41
1
10
34.7038317183413
20
1.29275864873173
30
0
41
1
10
34.9302375164485
20
1.39726533268649
30
0
41
1
10
35.1564465475817
20
1.49422062600033
30
0
41
1
10
35.6884376728292
20
1.69899820951642
30
0
41
1
10
35.9914277700084
20
1.79887484916199
30
0
41
1
10
36.4472567514054
20
1.91857709419023
30
0
41
1
10
36.599602550551
20
1.95359114623483
30
0
41
1
10
36.9039008607334
20
2.01258049445312
30
0
41
1
10
37.0557459408263
20
2.03663657542899
30
0
41
1
10
37.2074992282231
20
2.05519446946255
30
0
0
SPLINE
5
C8
100
AcDbEntity
8
1
62
256
6
ByLayer
370
18
48
1
60
0
100
AcDbSpline
70
4
71
3
72
20
73
16
40
0
40
0
40
0
40
0
40
0.25000000000001
40
0.25000000000001
40
0.375000000000009
40
0.375000000000009
40
0.500000000000007
40
0.500000000000007
40
0.625000000000005
40
0.625000000000005
40
0.750000000000003
40
0.750000000000003
40
0.875000000000002
40
0.875000000000002
40
1
40
1
40
1
40
1
41
1
10
37.6323766649299
20
-0.401438088644141
30
0
41
1
10
37.6527065177349
20
-0.412906104942294
30
0
41
1
10
37.6767137854659
20
-0.410428249935677
30
0
41
1
10
37.7186914856839
20
-0.38515206857798
30
0
41
1
10
37.7333376588161
20
-0.373319730462498
30
0
41
1
10
37.7639920162256
20
-0.343141179086359
30
0
41
1
10
37.7801375883102
20
-0.324610906612776
30
0
41
1
10
37.8132497546296
20
-0.28169929545524
30
0
41
1
10
37.8300503778974
20
-0.257578351127762
30
0
41
1
10
37.8641416586361
20
-0.204326442464037
30
0
41
1
10
37.8815809763531
20
-0.174914662878507
30
0
41
1
10
37.9160868210782
20
-0.11259349200003
30
0
41
1
10
37.9331389403569
20
-0.0797552380487048
30
0
41
1
10
37.9668234629436
20
-0.0109209406357991
30
0
41
1
10
37.9835684915428
20
0.0253449660637557
30
0
41
1
10
37.999728118278
20
0.0624084240483569
30
0
0
SPLINE
5
C9
100
AcDbEntity
8
1
62
256
6
ByLayer
370
18
48
1
60
0
100
AcDbSpline
70
4
71
3
72
8
73
4
40
0
40
0
40
0
40
0
40
1
40
1
40
1
40
1
41
1
10
37.6267889603743
20
-0.395795532857505
30
0
41
1
10
37.6286513965268
20
-0.397676515526967
30
0
41
1
10
37.6305139647227
20
-0.399557367464098
30
0
41
1
10
37.6323766649309
20
-0.401438088644767
30
0
0
SPLINE
5
CA
100
AcDbEntity
8
1
62
256
6
ByLayer
370
18
48
1
60
0
100
AcDbSpline
70
4
71
3
72
8
73
4
40
0
40
0
40
0
40
0
40
1
40
1
40
1
40
1
41
1
10
37.2074992282231
20
-2.05519446946255
30
0
41
1
10
37.1933146832338
20
-2.03026338892383
30
0
41
1
10
37.1822313923258
20
-1.99523279896553
30
0
41
1
10
37.1737212993079
20
-1.94983265345562
30
0
0
SPLINE
5
CB
100
AcDbEntity
8
1
62
256
6
ByLayer
370
18
48
1
60
0
100
AcDbSpline
70
4
71
3
72
8
73
4
40
0
40
0
40
0
40
0
40
1
40
1
40
1
40
1
41
1
10
37.9997281182779
20
0.0624084240483
30
0
41
1
10
37.9441361678997
20
0.202038838940183
30
0
41
1
10
37.8904064126102
20
0.343698969529726
30
0
41
1
10
37.8382366398691
20
0.487422400257088
30
0
0
SPLINE
5
CC
100
AcDbEntity
8
1
62
256
6
ByLayer
370
18
48
1
60
0
100
AcDbSpline
70
4
71
3
72
10
73
6
40
0
40
0
40
0
40
0
40
0.5
40
0.5
40
1
40
1
40
1
40
1
41
1
10
37.2074992282269
20
2.05519446945397
30
0
41
1
10
37.27337459746
20
1.90504588558753
30
0
41
1
10
37.3411746468626
20
1.74851960025328
30
0
41
1
10
37.4783713487441
20
1.42006733797905
30
0
41
1
10
37.5482672806075
20
1.24680484402305
30
0
41
1
10
37.6152275496412
20
1.06922044155701
30
0
0
SPLINE
5
CD
100
AcDbEntity
8
1
62
256
6
ByLayer
370
18
48
1
60
0
100
AcDbSpline
70
4
71
3
72
8
73
4
40
0
40
0
40
0
40
0
40
1
40
1
40
1
40
1
41
1
10
5.82839077885896
20
-1.24580083754802
30
0
41
1
10
5.96190943040097
20
-1.29918999685626
30
0
41
1
10
6.09583693596343
20
-1.34961078559988
30
0
41
1
10
6.2301457731275
20
-1.39727928112711
30
0
0
SPLINE
5
CE
100
AcDbEntity
8
1
62
256
6
ByLayer
370
18
48
1
60
0
100
AcDbSpline
70
4
71
1
72
4
73
2
40
0
40
0
40
1
40
1
41
1
10
37.6190366224588
20
-0.446473317285239
30
0
41
1
10
37.6323766649308
20
-0.401438088644852
30
0
0
SPLINE
5
CF
100
AcDbEntity
8
1
62
256
6
ByLayer
370
18
48
1
60
0
100
AcDbSpline
70
4
71
3
72
12
73
8
40
0
40
0
40
0
40
0
40
0.5
40
0.5
40
0.75
40
0.75
40
1
40
1
40
1
40
1
41
1
10
37.6267889603707
20
-0.395795532853327
30
0
41
1
10
37.5863079899518
20
-0.364797282322343
30
0
41
1
10
37.5517449618505
20
-0.317710020249677
30
0
41
1
10
37.5063755914537
20
-0.229475185176881
30
0
41
1
10
37.4924592980553
20
-0.197127711428379
30
0
41
1
10
37.467379612682
20
-0.128773228217852
30
0
41
1
10
37.4561081036372
20
-0.0925553309834868
30
0
41
1
10
37.4459934472294
20
-0.0544761428647575
30
0
0
SPLINE
5
D0
100
AcDbEntity
8
1
62
256
6
ByLayer
370
13
48
1
60
0
100
AcDbSpline
70
4
71
3
72
115
73
111
40
0
40
0
40
0
40
0
40
0.0061074083433885
40
0.0099502810336441
40
0.0176360264141543
40
0.0253217717946649
40
0.0368503898654307
40
0.0406932625556858
40
0.0483790079361964
40
0.0560647533167071
40
0.0675933713874723
40
0.0714362440777279
40
0.0791219894582381
40
0.0868077348387487
40
0.0983363529095145
40
0.10217922559977
40
0.109864970980283
40
0.117550716360791
40
0.129079334431554
40
0.132922207121812
40
0.140607952502326
40
0.148293697882831
40
0.159822315953598
40
0.163665188643854
40
0.171350934024368
40
0.179036679404874
40
0.190565297475641
40
0.194408170165896
40
0.202093915546405
40
0.209779660926915
40
0.219386842652555
40
0.225151151687937
40
0.230915460723322
40
0.240522642448958
40
0.25589413320998
40
0.282794242041766
40
0.286637114732022
40
0.294322860112533
40
0.302008605493042
40
0.313537223563808
40
0.317380096254063
40
0.325065841634575
40
0.332751587015087
40
0.34428020508585
40
0.348123077776105
40
0.355808823156617
40
0.363494568537127
40
0.375023186607891
40
0.378866059298147
40
0.386551804678657
40
0.394237550059167
40
0.403844731784808
40
0.409609040820189
40
0.415373349855574
40
0.424980531581209
40
0.440352022342233
40
0.467252131174017
40
0.471095003864273
40
0.478780749244784
40
0.486466494625293
40
0.497995112696059
40
0.501837985386315
40
0.509523730766825
40
0.517209476147335
40
0.526816657872974
40
0.532580966908357
40
0.53834527594374
40
0.547952457669377
40
0.563323948430399
40
0.586381184571931
40
0.594066929952441
40
0.609438420713461
40
0.624809911474483
40
0.651710020306268
40
0.655552892996524
40
0.663238638377036
40
0.670924383757545
40
0.682453001828311
40
0.686295874518567
40
0.693981619899077
40
0.701667365279587
40
0.711274547005226
40
0.717038856040609
40
0.722803165075993
40
0.732410346801629
40
0.747781837562651
40
0.770839073704181
40
0.778524819084692
40
0.793896309845713
40
0.809267800606734
40
0.836167909438521
40
0.840010782128776
40
0.847696527509286
40
0.855382272889797
40
0.866910890960563
40
0.870753763650818
40
0.878439509031328
40
0.886125254411839
40
0.895732436137478
40
0.90149674517286
40
0.907261054208243
40
0.916868235933881
40
0.932239726694902
40
0.959139835526689
40
0.962982708216944
40
0.970668453597454
40
0.978354198977965
40
0.98988281704873
40
0.993725689738986
40
1
40
1
40
1
40
1
41
1
10
22.6181950952334
20
-0.873222605855773
30
0
41
1
10
22.6024157289625
20
-0.875952392556002
30
0
41
1
10
22.5767076198895
20
-0.880359005193071
30
0
41
1
10
22.5311427392452
20
-0.888051327533049
30
0
41
1
10
22.481502311868
20
-0.896274387192108
30
0
41
1
10
22.4120048077147
20
-0.907492757185224
30
0
41
1
10
22.352432592626
20
-0.916800434146239
30
0
41
1
10
22.2928615843819
20
-0.925859449627268
30
0
41
1
10
22.2432213801063
20
-0.933242890390403
30
0
41
1
10
22.1737241257021
20
-0.943274145132506
30
0
41
1
10
22.1141520001298
20
-0.951554078849483
30
0
41
1
10
22.054580905448
20
-0.959575912586132
30
0
41
1
10
22.0049405134201
20
-0.966087586685518
30
0
41
1
10
21.9354428831436
20
-0.9748876342193
30
0
41
1
10
21.8758704116964
20
-0.982102765893103
30
0
41
1
10
21.8162990671349
20
-0.989050732170284
30
0
41
1
10
21.7666585894811
20
-0.994660312085927
30
0
41
1
10
21.6971610456496
20
-1.00218778520892
30
0
41
1
10
21.6375887972032
20
-1.00830448010285
30
0
41
1
10
21.5780177196281
20
-1.0141472497034
30
0
41
1
10
21.5283774259029
20
-1.018830280846
30
0
41
1
10
21.4588800249182
20
-1.02505341467025
30
0
41
1
10
21.3993077932248
20
-1.03004645052991
30
0
41
1
10
21.3397366579887
20
-1.03475973929491
30
0
41
1
10
21.2900962909478
20
-1.03849651070178
30
0
41
1
10
21.2205987718441
20
-1.0433886488492
30
0
41
1
10
21.1610264322789
20
-1.04723611214305
30
0
41
1
10
21.1014551963268
20
-1.05079878380647
30
0
41
1
10
21.0518147813606
20
-1.05357224144501
30
0
41
1
10
20.9872806496654
20
-1.05686214734573
30
0
41
1
10
20.9277091953789
20
-1.05957788294111
30
0
41
1
10
20.8731023199712
20
-1.06180559807879
30
0
41
1
10
20.818498475255
20
-1.06381617976044
30
0
41
1
10
20.7390767683567
20
-1.06632550541224
30
0
41
1
10
20.605057361114
20
-1.06942910241523
30
0
41
1
10
20.4859067706862
20
-1.07070066819907
30
0
41
1
10
20.3866118316037
20
-1.07081736014004
30
0
41
1
10
20.3369713017657
20
-1.07063946368734
30
0
41
1
10
20.2674737533827
20
-1.07004073055671
30
0
41
1
10
20.2079015159751
20
-1.06917809792572
30
0
41
1
10
20.1483304512086
20
-1.06802385931945
30
0
41
1
10
20.0986901685904
20
-1.06685797494444
30
0
41
1
10
20.0291927808437
20
-1.06487694328527
30
0
41
1
10
19.9696205529336
20
-1.06283209386564
30
0
41
1
10
19.9100494103332
20
-1.0604967110724
30
0
41
1
10
19.8604090214348
20
-1.05834633644341
30
0
41
1
10
19.7909114385849
20
-1.05498967600795
30
0
41
1
10
19.7313390144664
20
-1.05177050838231
30
0
41
1
10
19.6717676755074
20
-1.04826435566295
30
0
41
1
10
19.6221271638549
20
-1.04513993549261
30
0
41
1
10
19.5575928944263
20
-1.04076852756143
30
0
41
1
10
19.4980213080472
20
-1.03642186789111
30
0
41
1
10
19.4434143151687
20
-1.03218359193667
30
0
41
1
10
19.3888103588888
20
-1.02772651303829
30
0
41
1
10
19.3093885016073
20
-1.02083547025214
30
0
41
1
10
19.1753688773642
20
-1.00810854949967
30
0
41
1
10
19.0562181589378
20
-0.995460018076301
30
0
41
1
10
18.9569231628414
20
-0.98406333483203
30
0
41
1
10
18.9072826113878
20
-0.978125928749904
30
0
41
1
10
18.8377850396358
20
-0.969496031354453
30
0
41
1
10
18.7782127869353
20
-0.961791919303181
30
0
41
1
10
18.7186417056538
20
-0.953825865707472
30
0
41
1
10
18.6690014210883
20
-0.946998486966947
30
0
41
1
10
18.6044674227364
20
-0.937845147869496
30
0
41
1
10
18.5448960507806
20
-0.929118508836325
30
0
41
1
10
18.4902892078371
20
-0.920892609689247
30
0
41
1
10
18.4356853778878
20
-0.912465614442169
30
0
41
1
10
18.3562637011916
20
-0.899839923416664
30
0
41
1
10
18.232168817049
20
-0.879233042180061
30
0
41
1
10
18.1130213840899
20
-0.858390661683302
30
0
41
1
10
17.9938762090318
20
-0.836607918200912
30
0
41
1
10
17.8945981001838
20
-0.817771621086422
30
0
41
1
10
17.7456822250864
20
-0.788341113531317
30
0
41
1
10
17.6265316922141
20
-0.763766858045528
30
0
41
1
10
17.5272368201108
20
-0.742647921927755
30
0
41
1
10
17.4775963069993
20
-0.731883143232039
30
0
41
1
10
17.408098734659
20
-0.716575147581153
30
0
41
1
10
17.3485264347305
20
-0.703235682885122
30
0
41
1
10
17.2889552788783
20
-0.689703662128323
30
0
41
1
10
17.2393149259231
20
-0.678281814320741
30
0
41
1
10
17.1747808383247
20
-0.663237912457561
30
0
41
1
10
17.1152093847181
20
-0.649159726292027
30
0
41
1
10
17.0606024703451
20
-0.636098156927176
30
0
41
1
10
17.0059985681299
20
-0.622888063099708
30
0
41
1
10
16.9265767783583
20
-0.603412612424876
30
0
41
1
10
16.80248170904
20
-0.572383080284993
30
0
41
1
10
16.6833341089873
20
-0.541962005369442
30
0
41
1
10
16.5641888039659
20
-0.510951605371986
30
0
41
1
10
16.4649106072012
20
-0.484653935239663
30
0
41
1
10
16.3159946272544
20
-0.444502523628387
30
0
41
1
10
16.1968440368664
20
-0.411867724091991
30
0
41
1
10
16.097549127555
20
-0.384352778753566
30
0
41
1
10
16.0479085970297
20
-0.370456877454671
30
0
41
1
10
15.9784110003921
20
-0.350884150787294
30
0
41
1
10
15.9188386784902
20
-0.334013360224901
30
0
41
1
10
15.8592674974954
20
-0.317050199383289
30
0
41
1
10
15.8096271278251
20
-0.302835982446567
30
0
41
1
10
15.7450930361215
20
-0.284275158237875
30
0
41
1
10
15.6855216001799
20
-0.267066495299105
30
0
41
1
10
15.6309147248264
20
-0.251229501887821
30
0
41
1
10
15.5763108702685
20
-0.235319518146042
30
0
41
1
10
15.4968891388618
20
-0.212064615621642
30
0
41
1
10
15.3628696729064
20
-0.172547795065697
30
0
41
1
10
15.2437190330596
20
-0.137337980307052
30
0
41
1
10
15.1444240845082
20
-0.107920721364707
30
0
41
1
10
15.0947835616497
20
-0.093130816852522
30
0
41
1
10
15.0252860442155
20
-0.0723969935031334
30
0
41
1
10
14.9657138481236
20
-0.0546231648032744
30
0
41
1
10
14.9097894335303
20
-0.037922125796058
30
0
41
1
10
14.8836515749796
20
-0.0301041476210173
30
0
41
1
10
14.8674418179231
20
-0.0252545228969723
30
0
0
SPLINE
5
D1
100
AcDbEntity
8
1
62
256
6
ByLayer
370
18
48
1
60
0
100
AcDbSpline
70
4
71
3
72
8
73
4
40
0
40
0
40
0
40
0
40
1
40
1
40
1
40
1
41
1
10
5.47091178153408
20
2.02915603331678
30
0
41
1
10
5.51866225784426
20
2.00896719367293
30
0
41
1
10
5.56721096085448
20
1.99230464578361
30
0
41
1
10
5.61645086746609
20
1.97910321607821
30
0
0
SPLINE
5
D2
100
AcDbEntity
8
1
62
256
6
ByLayer
370
18
48
1
60
0
100
AcDbSpline
70
4
71
3
72
8
73
4
40
0
40
0
40
0
40
0
40
1
40
1
40
1
40
1
41
1
10
37.999728118278
20
-0.0624084240483285
30
0
41
1
10
37.9439381982027
20
-0.202536079831248
30
0
41
1
10
37.8902162402186
20
-0.344222878818783
30
0
41
1
10
37.8382366398691
20
-0.48742240025723
30
0
0
SPLINE
5
D3
100
AcDbEntity
8
1
62
256
6
ByLayer
370
18
48
1
60
0
100
AcDbSpline
70
4
71
3
72
14
73
10
40
0
40
0
40
0
40
0
40
0.25
40
0.25
40
0.5
40
0.5
40
0.75
40
0.75
40
1
40
1
40
1
40
1
41
1
10
6.57622569905169
20
-0.804383896228643
30
0
41
1
10
6.63465159978372
20
-0.704290119306933
30
0
41
1
10
6.70981574398576
20
-0.583240335348563
30
0
41
1
10
6.87888520138654
20
-0.322959577044742
30
0
41
1
10
6.97267665942874
20
-0.18390388158727
30
0
41
1
10
7.16038598317292
20
0.0847774060369204
30
0
41
1
10
7.25417744121512
20
0.214222062211206
30
0
41
1
10
7.4232468986159
20
0.437942829311481
30
0
41
1
10
7.49841104281793
20
0.532068281665801
30
0
41
1
10
7.55683694355
20
0.599232538880813
30
0
0
SPLINE
5
D4
100
AcDbEntity
8
1
62
256
6
ByLayer
370
18
48
1
60
0
100
AcDbSpline
70
4
71
3
72
32
73
28
40
0
40
0
40
0
40
0
40
0.122136354267573
40
0.122136354267573
40
0.183204531401359
40
0.183204531401359
40
0.244272708535145
40
0.244272708535145
40
0.305340885668932
40
0.305340885668932
40
0.366409062802718
40
0.366409062802718
40
0.488545417070293
40
0.488545417070293
40
0.610681771337868
40
0.610681771337868
40
0.671749948471655
40
0.671749948471655
40
0.732818125605442
40
0.732818125605442
40
0.854954479873019
40
0.854954479873019
40
0.916022657006809
40
0.916022657006809
40
0.977090834140599
40
0.977090834140599
40
1
40
1
40
1
40
1
41
1
10
7.92912078887744
20
1.0271962952159
30
0
41
1
10
8.23557856960363
20
0.875582915863021
30
0
41
1
10
8.54070200487567
20
0.713857458376538
30
0
41
1
10
8.99949835279557
20
0.461304072052343
30
0
41
1
10
9.15282378753409
20
0.37519832938213
30
0
41
1
10
9.45890487131419
20
0.201979378294396
30
0
41
1
10
9.61158016938512
20
0.11459234142913
30
0
41
1
10
9.91710859499827
20
-0.0601435185218975
30
0
41
1
10
10.0697756215906
20
-0.147819244270721
30
0
41
1
10
10.3760517137598
20
-0.321789640593749
30
0
41
1
10
10.5292247840252
20
-0.408479180025893
30
0
41
1
10
10.9876682794264
20
-0.663502528733886
30
0
41
1
10
11.2927222888046
20
-0.828470905234838
30
0
41
1
10
11.9053667646667
20
-1.13693602963718
30
0
41
1
10
12.2097999841704
20
-1.28036761784787
30
0
41
1
10
12.6685183069092
20
-1.47240005058398
30
0
41
1
10
12.8217170157924
20
-1.53292642771427
30
0
41
1
10
13.1274745991025
20
-1.64462213579697
30
0
41
1
10
13.2800752409137
20
-1.69610554727456
30
0
41
1
10
13.7378959610369
20
-1.83656242311909
30
0
41
1
10
14.0443955826698
20
-1.91134547946302
30
0
41
1
10
14.5023252807773
20
-1.99095444719512
30
0
41
1
10
14.6548023056233
20
-2.01214375376347
30
0
41
1
10
14.9601778268554
20
-2.04349513024943
30
0
41
1
10
15.1131882425669
20
-2.05369703715275
30
0
41
1
10
15.3233855493475
20
-2.05991719760573
30
0
41
1
10
15.380686356059
20
-2.06082160305562
30
0
41
1
10
15.4379611408435
20
-2.06093585715089
30
0
0
SPLINE
5
D5
100
AcDbEntity
8
1
62
256
6
ByLayer
370
18
48
1
60
0
100
AcDbSpline
70
4
71
3
72
52
73
48
40
0
40
0
40
0
40
0
40
0.0054383008353419
40
0.0054383008353419
40
0.0717424141129877
40
0.0717424141129877
40
0.104894470751811
40
0.104894470751811
40
0.138046527390634
40
0.138046527390634
40
0.204350640668279
40
0.204350640668279
40
0.237502697307102
40
0.237502697307102
40
0.270654753945924
40
0.270654753945924
40
0.33695886722357
40
0.33695886722357
40
0.370110923862395
40
0.370110923862395
40
0.403262980501219
40
0.403262980501219
40
0.469567093778865
40
0.469567093778865
40
0.502719150417687
40
0.502719150417687
40
0.535871207056508
40
0.535871207056508
40
0.602175320334152
40
0.602175320334152
40
0.668479433611796
40
0.668479433611796
40
0.701631490250616
40
0.701631490250616
40
0.734783546889437
40
0.734783546889437
40
0.767935603528258
40
0.767935603528258
40
0.801087660167078
40
0.801087660167078
40
0.86739177344472
40
0.86739177344472
40
0.933695886722361
40
0.933695886722361
40
0.966847943361181
40
0.966847943361181
40
1
40
1
40
1
40
1
41
1
10
23.4308778919202
20
1.27209944024696
30
0
41
1
10
23.455920871532
20
1.28359227470091
30
0
41
1
10
23.4809719014893
20
1.29499677118454
30
0
41
1
10
23.8115683279564
20
1.44425198197831
30
0
41
1
10
24.1155960790154
20
1.56719513232775
30
0
41
1
10
24.5727817252607
20
1.72514203687604
30
0
41
1
10
24.7255552266831
20
1.77347866733729
30
0
41
1
10
25.0306234554909
20
1.85972177055413
30
0
41
1
10
25.1828599307185
20
1.89787765808688
30
0
41
1
10
25.6395456448536
20
1.99680259237474
30
0
41
1
10
25.9450994869321
20
2.04193509782317
30
0
41
1
10
26.4018659762989
20
2.07560297087531
30
0
41
1
10
26.5540214451115
20
2.08122016365542
30
0
41
1
10
26.8585675854027
20
2.08119286652138
30
0
41
1
10
27.0111575317522
20
2.07550980784592
30
0
41
1
10
27.4686057153742
20
2.04156193332594
30
0
41
1
10
27.7724107137262
20
1.99662950849535
30
0
41
1
10
28.2296512963401
20
1.89730992489348
30
0
41
1
10
28.3824000882592
20
1.8588619406292
30
0
41
1
10
28.6867608841782
20
1.77215703616082
30
0
41
1
10
28.8389468366815
20
1.72412674913463
30
0
41
1
10
29.2953319771418
20
1.56589257002534
30
0
41
1
10
29.6009412447855
20
1.4419490858258
30
0
41
1
10
30.0568889304338
20
1.2344566784779
30
0
41
1
10
30.2090476211722
20
1.16214287543804
30
0
41
1
10
30.5134649429635
20
1.01086934234914
30
0
41
1
10
30.6661851170529
20
0.932083305214235
30
0
41
1
10
31.1229874928035
20
0.689210100886754
30
0
41
1
10
31.4264151069594
20
0.518509913775205
30
0
41
1
10
32.036221610269
20
0.168020952960063
30
0
41
1
10
32.3399288487499
20
-0.0110577503740217
30
0
41
1
10
32.7962684444066
20
-0.276248765466704
30
0
41
1
10
32.9486797552497
20
-0.364622170256297
30
0
41
1
10
33.253413587944
20
-0.538278072783072
30
0
41
1
10
33.4053291008265
20
-0.623923157688495
30
0
41
1
10
33.7092404810376
20
-0.791230455327138
30
0
41
1
10
33.8610489930562
20
-0.87319243670467
30
0
41
1
10
34.1656185086017
20
-1.03175093413239
30
0
41
1
10
34.3180332625401
20
-1.1088856452856
30
0
41
1
10
34.7743844514037
20
-1.32927356872796
30
0
41
1
10
35.0775478287302
20
-1.46380492118161
30
0
41
1
10
35.6872890018006
20
-1.6986013649838
30
0
41
1
10
35.9905688568102
20
-1.79863724643735
30
0
41
1
10
36.4472616527173
20
-1.91858439748944
30
0
41
1
10
36.5995072018462
20
-1.95356695811765
30
0
41
1
10
36.903524152087
20
-2.0125131636635
30
0
41
1
10
37.0554481955903
20
-2.03660016419448
30
0
41
1
10
37.2074992282231
20
-2.05519446946255
30
0
0
SPLINE
5
D6
100
AcDbEntity
8
1
62
256
6
ByLayer
370
18
48
1
60
0
100
AcDbSpline
70
4
71
3
72
8
73
4
40
0
40
0
40
0
40
0
40
1
40
1
40
1
40
1
41
1
10
37.8382366398691
20
-0.487422400257259
30
0
41
1
10
37.8017007629941
20
-0.588075734423882
30
0
41
1
10
37.7652554701056
20
-0.688761532147197
30
0
41
1
10
37.7289009367821
20
-0.789479856351164
30
0
0
SPLINE
5
D7
100
AcDbEntity
8
1
62
256
6
ByLayer
370
18
48
1
60
0
100
AcDbSpline
70
4
71
3
72
10
73
6
40
0
40
0
40
0
40
0
40
0.5
40
0.5
40
1
40
1
40
1
40
1
41
1
10
37.1706128594968
20
-1.94595133149821
30
0
41
1
10
37.1718460264439
20
-1.9112288377809
30
0
41
1
10
37.1686645944287
20
-1.88121169527199
30
0
41
1
10
37.1572492043556
20
-1.82946363488767
30
0
41
1
10
37.1491478691885
20
-1.8078965805926
30
0
41
1
10
37.1393989893918
20
-1.78929402163587
30
0
0
SPLINE
5
D8
100
AcDbEntity
8
1
62
256
6
ByLayer
370
18
48
1
60
0
100
AcDbSpline
70
4
71
3
72
8
73
4
40
0
40
0
40
0
40
0
40
1
40
1
40
1
40
1
41
1
10
37.6293168064644
20
0.704250324086644
30
0
41
1
10
37.6660337959132
20
0.728225373092783
30
0
41
1
10
37.7003557358716
20
0.756045574845331
30
0
41
1
10
37.7289009367821
20
0.789479856351107
30
0
0
SPLINE
5
D9
100
AcDbEntity
8
1
62
256
6
ByLayer
370
18
48
1
60
0
100
AcDbSpline
70
4
71
4
72
10
73
5
40
0
40
0
40
0
40
0
40
0
40
1
40
1
40
1
40
1
40
1
41
1
10
6.57622569905186
20
-0.8043838962287
30
0
41
1
10
6.48970571757076
20
-0.952607742453267
30
0
41
1
10
6.40318573608965
20
-1.10083158867786
30
0
41
1
10
6.31666575460855
20
-1.24905543490246
30
0
41
1
10
6.23014577312748
20
-1.39727928112705
30
0
0
SPLINE
5
DA
100
AcDbEntity
8
1
62
256
6
ByLayer
370
18
48
1
60
0
100
AcDbSpline
70
4
71
3
72
8
73
4
40
0
40
0
40
0
40
0
40
1
40
1
40
1
40
1
41
1
10
37.6152275496413
20
1.06922044155701
30
0
41
1
10
37.6516162435228
20
0.972714490300774
30
0
41
1
10
37.6894798407155
20
0.879659170003009
30
0
41
1
10
37.7289009367822
20
0.789479856351136
30
0
0
SPLINE
5
DB
100
AcDbEntity
8
1
62
256
6
ByLayer
370
18
48
1
60
0
100
AcDbSpline
70
4
71
3
72
8
73
4
40
0
40
0
40
0
40
0
40
1
40
1
40
1
40
1
41
1
10
5.47144846568494
20
2.0430022996735
30
0
41
1
10
5.47129004068154
20
2.04374235175817
30
0
41
1
10
5.47111335729943
20
2.0391422799907
30
0
41
1
10
5.47091178153397
20
2.02915603331684
30
0
0
SPLINE
5
DC
100
AcDbEntity
8
1
62
256
6
ByLayer
370
18
48
1
60
0
100
AcDbSpline
70
4
71
3
72
12
73
8
40
0
40
0
40
0
40
0
40
0.250000000000001
40
0.250000000000001
40
0.500000000000002
40
0.500000000000002
40
1
40
1
40
1
40
1
41
1
10
37.1393989893918
20
-1.78929402163587
30
0
41
1
10
37.1143366722373
20
-1.74147075966292
30
0
41
1
10
37.0928713920716
20
-1.68728673797133
30
0
41
1
10
37.0572139230542
20
-1.56605744617633
30
0
41
1
10
37.0429867339728
20
-1.49878768770245
30
0
41
1
10
37.0122900890627
20
-1.27758492678808
30
0
41
1
10
37.0083749944013
20
-1.11124567098119
30
0
41
1
10
37.021216813747
20
-0.926419108477376
30
0
0
SPLINE
5
DD
100
AcDbEntity
8
1
62
256
6
ByLayer
370
18
48
1
60
0
100
AcDbSpline
70
4
71
3
72
8
73
4
40
0
40
0
40
0
40
0
40
1
40
1
40
1
40
1
41
1
10
37.8382366398749
20
0.487422400241172
30
0
41
1
10
37.8017008270756
20
0.588075557884792
30
0
41
1
10
37.7652555339084
20
0.688761355384798
30
0
41
1
10
37.7289009367821
20
0.789479856351107
30
0
0
SPLINE
5
DE
100
AcDbEntity
8
1
62
256
6
ByLayer
370
13
48
1
60
0
100
AcDbSpline
70
4
71
3
72
40
73
36
40
0
40
0
40
0
40
0
40
0.0025381865199632
40
0.0171607905010238
40
0.0464059984631546
40
0.075651206425256
40
0.119519018368436
40
0.134141622349509
40
0.163386830311634
40
0.192632038273745
40
0.236499850216933
40
0.251122454197994
40
0.280367662160107
40
0.309612870122242
40
0.353480682065416
40
0.368103286046479
40
0.397348494008609
40
0.426593701970723
40
0.463150211923375
40
0.485084117894965
40
0.507018023866567
40
0.543574533819199
40
0.602064949743448
40
0.704423177610879
40
0.719045781591937
40
0.748290989554064
40
0.777536197516187
40
0.821404009459359
40
0.836026613440423
40
0.865271821402527
40
0.894517029364658
40
0.938384841307849
40
0.953007445288908
40
0.982252653251041
40
1
40
1
40
1
40
1
41
1.00000000000001
10
37.6152275495273
20
1.06922044155518
30
0
41
1.00000000000001
10
37.6135042259586
20
1.06919270569372
30
0
41
1.00000000000001
10
37.6018527516035
20
1.06900265251223
30
0
41
1.00000000000001
10
37.5703447987228
20
1.06844229153693
30
0
41
1.00000000000001
10
37.5207014445107
20
1.06736027621007
30
0
41
1.00000000000001
10
37.4512016096586
20
1.0655050718588
30
0
41
1.00000000000001
10
37.3916332388732
20
1.06356504134501
30
0
41
1.00000000000001
10
37.3320636977449
20
1.06132781505271
30
0
41
1.00000000000001
10
37.2824201443919
20
1.05926717643296
30
0
41
1.00000000000001
10
37.2129201619844
20
1.05604506641543
30
0
41
1.00000000000001
10
37.1533517807013
20
1.05293514576243
30
0
41
1.00000000000001
10
37.0937823022344
20
1.04953083477832
30
0
41
1.00000000000001
10
37.0441388194
20
1.04650108737223
30
0
41
1.00000000000001
10
36.9746389332304
20
1.04192651162054
30
0
41
1.00000000000001
10
36.915070621721
20
1.03766035719331
30
0
41
1.00000000000001
10
36.8555011888455
20
1.03310388581669
30
0
41
1.00000000000001
10
36.8058577045407
20
1.02911833079846
30
0
41
1.00000000000001
10
36.7413227600623
20
1.02363657106667
30
0
41
1.00000000000001
10
36.6817535249477
20
1.01826473801611
30
0
41
1.00000000000001
10
36.627148102764
20
1.01308216724282
30
0
41
1.00000000000001
10
36.5725396524006
20
1.00769557617843
30
0
41
1.00000000000001
10
36.4931071183109
20
0.999482226814501
30
0
41
1.00000000000001
10
36.3590600154659
20
0.984598089775255
30
0
41
1.00000000000001
10
36.2399293094246
20
0.969935959151905
30
0
41
1.00000000000001
10
36.1406565393161
20
0.956824952149639
30
0
41
1.00000000000001
10
36.0910132178277
20
0.95008332409497
30
0
41
1.00000000000001
10
36.0215133768893
20
0.940340889992762
30
0
41
1.00000000000001
10
35.9619449970975
20
0.931669795291918
30
0
41
1.00000000000001
10
35.9023754441279
20
0.922735733845195
30
0
41
1.00000000000001
10
35.8527318821487
20
0.915126695538584
30
0
41
1.00000000000001
10
35.7832318925095
20
0.904182607149147
30
0
41
1.00000000000001
10
35.7236635091465
20
0.894493058658804
30
0
41
1.00000000000001
10
35.6640940304163
20
0.884551457256714
30
0
41
1.00000000000001
10
35.6222575610767
20
0.877438723125971
30
0
41
1.00000000000001
10
35.5903501607342
20
0.87191137511237
30
0
41
1.00000000000001
10
35.5783000296142
20
0.869809306544193
30
0
0
SPLINE
5
DF
100
AcDbEntity
8
1
62
256
6
ByLayer
370
13
48
1
60
0
100
AcDbSpline
70
4
71
3
72
113
73
109
40
0
40
0
40
0
40
0
40
0.0011137404864105
40
0.008761401005372
40
0.0202328917838144
40
0.0240567220432965
40
0.0317043825622585
40
0.0393520430812201
40
0.0489116187299259
40
0.0546473641191466
40
0.06038310950837
40
0.0699426851570702
40
0.0852380061949981
40
0.112004818011365
40
0.115828648270847
40
0.12347630878981
40
0.131123969308771
40
0.142595460087215
40
0.146419290346697
40
0.154066950865659
40
0.161714611384621
40
0.171274187033325
40
0.177009932422547
40
0.182745677811769
40
0.192305253460471
40
0.207600574498398
40
0.230543556055286
40
0.238191216574247
40
0.253486537612172
40
0.268781858650097
40
0.295548670466465
40
0.299372500725948
40
0.307020161244911
40
0.314667821763872
40
0.326139312542316
40
0.329963142801798
40
0.33761080332076
40
0.345258463839722
40
0.354818039488426
40
0.360553784877648
40
0.366289530266871
40
0.375849105915572
40
0.391144426953498
40
0.414087408510385
40
0.421735069029348
40
0.437030390067273
40
0.452325711105198
40
0.479092522921567
40
0.482916353181048
40
0.49056401370001
40
0.498211674218973
40
0.509683164997417
40
0.513506995256898
40
0.52115465577586
40
0.528802316294823
40
0.538361891943526
40
0.544097637332748
40
0.54983338272197
40
0.559392958370673
40
0.574688279408599
40
0.601455091224967
40
0.605278921484449
40
0.612926582003411
40
0.620574242522373
40
0.632045733300818
40
0.635869563560299
40
0.643517224079261
40
0.651164884598224
40
0.662636375376667
40
0.666460205636149
40
0.674107866155111
40
0.681755526674074
40
0.693227017452518
40
0.697050847711999
40
0.704698508230962
40
0.712346168749924
40
0.721905744398627
40
0.727641489787849
40
0.73337723517707
40
0.742936810825776
40
0.758232131863699
40
0.784998943680068
40
0.788822773939549
40
0.796470434458511
40
0.804118094977474
40
0.815589585755919
40
0.819413416015399
40
0.827061076534362
40
0.834708737053325
40
0.846180227831767
40
0.850004058091249
40
0.857651718610212
40
0.865299379129175
40
0.876770869907619
40
0.8805947001671
40
0.888242360686061
40
0.895890021205026
40
0.905449596853728
40
0.91118534224295
40
0.916921087632171
40
0.926480663280875
40
0.9417759843188
40
0.968542796135169
40
0.97236662639465
40
0.980014286913613
40
0.987661947432575
40
0.999133438211019
40
1
40
1
40
1
40
1
41
1.00000000000001
10
20.8496886709401
20
0.0250448863185112
30
0
41
1.00000000000001
10
20.8467968270586
20
0.0259090407897132
30
0
41
1.00000000000001
10
20.824047724605
20
0.0327066622329537
30
0
41
1.00000000000001
10
20.7715131826742
20
0.0483995019536959
30
0
41
1.00000000000001
10
20.711944982006
20
0.0662029347814719
30
0
41
1.00000000000001
10
20.6523756960599
20
0.0839906510847465
30
0
41
1.00000000000001
10
20.6027323533808
20
0.0987787354885932
30
0
41
1.00000000000001
10
20.538197612353
20
0.117977291792044
30
0
41
1.00000000000001
10
20.4786285738617
20
0.135675053807232
30
0
41
1.00000000000001
10
20.4240233272536
20
0.151871228554085
30
0
41
1.00000000000001
10
20.3694150437252
20
0.168015646278376
30
0
41
1.00000000000001
10
20.2899827337856
20
0.191407856142063
30
0
41
1.00000000000001
10
20.1559359503227
20
0.23062455749138
30
0
41
1.00000000000001
10
20.03680541981
20
0.265340873611249
30
0
41
1.00000000000001
10
19.9375327087343
20
0.294061572769492
30
0
41
1.00000000000001
10
19.887889405862
20
0.308302060626373
30
0
41
1.00000000000001
10
19.8183895816558
20
0.328135892201684
30
0
41
1.00000000000001
10
19.7588212095684
20
0.345050868251517
30
0
41
1.00000000000001
10
19.6992516659381
20
0.361871095143042
30
0
41
1.00000000000001
10
19.6496080961661
20
0.375801340705747
30
0
41
1.00000000000001
10
19.5850730840565
20
0.393803042804618
30
0
41
1.00000000000001
10
19.5255038311394
20
0.410311634053724
30
0
41
1.00000000000001
10
19.4708984345962
20
0.425347987075182
30
0
41
1.00000000000001
10
19.4162900247366
20
0.440277209378476
30
0
41
1.00000000000001
10
19.3368575342068
20
0.461799531965366
30
0
41
1.00000000000001
10
19.2127427818845
20
0.494964890397992
30
0
41
1.00000000000001
10
19.0936089655763
20
0.526289189037666
30
0
41
1.00000000000001
10
18.9744728911285
20
0.557026518166534
30
0
41
1.00000000000001
10
18.8751832910409
20
0.582160546732407
30
0
41
1.00000000000001
10
18.7262476025997
20
0.619017769355022
30
0
41
1.00000000000001
10
18.607116886537
20
0.64775671808584
30
0
41
1.00000000000001
10
18.5078440514631
20
0.671149505348576
30
0
41
1.00000000000001
10
18.4582007102459
20
0.682653996259968
30
0
41
1.00000000000001
10
18.3887008866258
20
0.698539246487225
30
0
41
1.00000000000001
10
18.3291325617664
20
0.711944881753449
30
0
41
1.00000000000001
10
18.2695630927082
20
0.725153102014157
30
0
41
1.00000000000001
10
18.2199195913275
20
0.736009398415031
30
0
41
1.00000000000001
10
18.1553846684661
20
0.74990960231113
30
0
41
1.00000000000001
10
18.0958154972009
20
0.762522440907811
30
0
41
1.00000000000001
10
18.0412101720879
20
0.773897345782951
30
0
41
1.00000000000001
10
17.9866018344948
20
0.785097122257634
30
0
41
1.00000000000001
10
17.9071694570425
20
0.801068085728696
30
0
41
1.00000000000001
10
17.7830548899003
20
0.825243434818044
30
0
41
1.00000000000001
10
17.6639212406887
20
0.847480426521594
30
0
41
1.00000000000001
10
17.5447852962031
20
0.868770078165193
30
0
41
1.00000000000001
10
17.4454957840291
20
0.885813867611711
30
0
41
1.00000000000001
10
17.2965602004307
20
0.910119429848658
30
0
41
1.00000000000001
10
17.1774295418785
20
0.928360955940229
30
0
41
1.00000000000001
10
17.0781567440106
20
0.942741913729429
30
0
41
1.00000000000001
10
17.0285134202068
20
0.949697780104367
30
0
41
1.00000000000001
10
16.9590136208844
20
0.959130240187187
30
0
41
1.00000000000001
10
16.8994453179996
20
0.966912062166153
30
0
41
1.00000000000001
10
16.8398758740858
20
0.97442435447615
30
0
41
1.00000000000001
10
16.7902323894213
20
0.980493543088152
30
0
41
1.00000000000001
10
16.7256974706651
20
0.988098489637758
30
0
41
1.00000000000001
10
16.6661282817338
20
0.994824989000556
30
0
41
1.00000000000001
10
16.6115229175992
20
1.0007435037931
30
0
41
1.00000000000001
10
16.5569145323471
20
1.00644683754643
30
0
41
1.00000000000001
10
16.4774820965298
20
1.01434735052811
30
0
41
1.00000000000001
10
16.3434351547744
20
1.02660248283117
30
0
41
1.00000000000001
10
16.2243045456796
20
1.03613443087931
30
0
41
1.00000000000001
10
16.1250317870609
20
1.0431531872899
30
0
41
1.00000000000001
10
16.0753884555945
20
1.0464201429776
30
0
41
1.00000000000001
10
16.0058885770709
20
1.05065826420854
30
0
41
1.00000000000001
10
15.9463201483741
20
1.05395197260938
30
0
41
1.00000000000001
10
15.8867505428939
20
1.05695104716397
30
0
41
1.00000000000001
10
15.8371069403625
20
1.05924853726005
30
0
41
1.00000000000001
10
15.7676069032627
20
1.0621255302035
30
0
41
1.00000000000001
10
15.7080384885108
20
1.06424702855119
30
0
41
1.00000000000001
10
15.6484689861756
20
1.0660705164474
30
0
41
1.00000000000001
10
15.5988254901468
20
1.06738769955515
30
0
41
1.00000000000001
10
15.5293256015918
20
1.06888941115505
30
0
41
1.00000000000001
10
15.4697573079166
20
1.06982766618838
30
0
41
1.00000000000001
10
15.4101879122514
20
1.07046552549979
30
0
41
1.00000000000001
10
15.3605444700665
20
1.07079472148063
30
0
41
1.00000000000001
10
15.2960095965579
20
1.07090857914655
30
0
41
1.00000000000001
10
15.236440442506
20
1.07068861004344
30
0
41
1.00000000000001
10
15.181835105217
20
1.07021541225091
30
0
41
1.00000000000001
10
15.127226751206
20
1.06951877817806
30
0
41
1.00000000000001
10
15.0477943828678
20
1.06809325242798
30
0
41
1.00000000000001
10
14.9137476054852
20
1.06457078099213
30
0
41
1.00000000000001
10
14.7946172036636
20
1.05994873909756
30
0
41
1.00000000000001
10
14.6953446386937
20
1.05513924115316
30
0
41
1.00000000000001
10
14.645701411797
20
1.05251230001238
30
0
41
1.00000000000001
10
14.5762016900766
20
1.0484992266594
30
0
41
1.00000000000001
10
14.5166333964435
20
1.0447128402103
30
0
41
1.00000000000001
10
14.4570639154757
20
1.0406345292115
30
0
41
1.00000000000001
10
14.4074204003804
20
1.037045729243
30
0
41
1.00000000000001
10
14.3379204504414
20
1.03169214928484
30
0
41
1.00000000000001
10
14.2783520767947
20
1.02676140103534
30
0
41
1.00000000000001
10
14.2187825919822
20
1.0215439554023
30
0
41
1.00000000000001
10
14.1691391012039
20
1.01701090492249
30
0
41
1.00000000000001
10
14.099639207909
20
1.01034225809931
30
0
41
1.00000000000001
10
14.0400708971516
20
1.00428988820257
30
0
41
1.00000000000001
10
13.9805014749112
20
0.997956854704563
30
0
41
1.00000000000001
10
13.9308580031718
20
0.99249970834486
30
0
41
1.00000000000001
10
13.8663230740922
20
0.985115846741558
30
0
41
1.00000000000001
10
13.8067538484312
20
0.977999226414505
30
0
41
1.00000000000001
10
13.7521484267261
20
0.97122704347293
30
0
41
1.00000000000001
10
13.6975399689419
20
0.964261771421996
30
0
41
1.00000000000001
10
13.6181074112519
20
0.9537718249399
30
0
41
1.00000000000001
10
13.4840602433394
20
0.935100274500422
30
0
41
1.00000000000001
10
13.364929465411
20
0.91712396912356
30
0
41
1.00000000000001
10
13.2656566518656
20
0.901296036242792
30
0
41
1.00000000000001
10
13.2160133171873
20
0.893213392141399
30
0
41
1.00000000000001
10
13.1465134795683
20
0.881612133611378
30
0
41
1.00000000000001
10
13.0946232737518
20
0.87268573664482
30
0
41
1.00000000000001
10
13.0625886857292
20
0.867068243118405
30
0
41
1.00000000000001
10
13.0603387362304
20
0.866673174574425
30
0
0
SPLINE
5
E0
100
AcDbEntity
8
1
62
256
6
ByLayer
370
13
48
1
60
0
100
AcDbSpline
70
4
71
3
72
114
73
110
40
0
40
0
40
0
40
0
40
0.0267875949807326
40
0.030619743809531
40
0.0382840414671256
40
0.0459483391247203
40
0.0574447856111117
40
0.0612769344399079
40
0.0689412320975013
40
0.0766055297550973
40
0.086185901827092
40
0.0919341250702849
40
0.0976823483134812
40
0.107262720385474
40
0.12259131570066
40
0.149416357502241
40
0.153248506331039
40
0.160912803988632
40
0.168577101646227
40
0.18007354813262
40
0.183905696961416
40
0.191569994619011
40
0.199234292276606
40
0.210730738762996
40
0.214562887591793
40
0.222227185249386
40
0.229891482906982
40
0.241387929393372
40
0.24522007822217
40
0.252884375879766
40
0.260548673537359
40
0.270129045609351
40
0.275877268852547
40
0.281625492095741
40
0.291205864167736
40
0.306534459482925
40
0.333359501284501
40
0.337191650113301
40
0.344855947770897
40
0.352520245428492
40
0.364016691914881
40
0.367848840743679
40
0.375513138401271
40
0.383177436058867
40
0.394673882545258
40
0.398506031374055
40
0.406170329031649
40
0.413834626689244
40
0.425331073175635
40
0.429163222004432
40
0.436827519662028
40
0.444491817319623
40
0.454072189391612
40
0.459820412634809
40
0.465568635878006
40
0.475149007949997
40
0.490477603265186
40
0.517302645066767
40
0.521134793895564
40
0.528799091553158
40
0.536463389210753
40
0.547959835697144
40
0.551791984525941
40
0.559456282183536
40
0.567120579841128
40
0.57861702632752
40
0.582449175156318
40
0.590113472813911
40
0.597777770471506
40
0.609274216957898
40
0.613106365786695
40
0.62077066344429
40
0.628434961101886
40
0.638015333173876
40
0.643763556417072
40
0.649511779660269
40
0.659092151732262
40
0.674420747047447
40
0.70124578884903
40
0.705077937677826
40
0.712742235335419
40
0.720406532993015
40
0.731902979479405
40
0.735735128308203
40
0.743399425965798
40
0.751063723623391
40
0.760644095695384
40
0.76639231893858
40
0.772140542181775
40
0.781720914253768
40
0.797049509568957
40
0.82004240254174
40
0.827706700199334
40
0.843035295514522
40
0.858363890829711
40
0.885188932631292
40
0.889021081460088
40
0.896685379117683
40
0.904349676775277
40
0.915846123261668
40
0.919678272090465
40
0.92734256974806
40
0.935006867405654
40
0.944587239477646
40
0.950335462720842
40
0.956083685964038
40
0.965664058036031
40
0.980992653351219
40
1
40
1
40
1
40
1
41
1.00000000000001
10
32.099496266002
20
0.0249970693676288
30
0
41
1.00000000000001
10
32.0300938781851
20
0.0457380944763199
30
0
41
1.00000000000001
10
31.9507705401064
20
0.0694894905535928
30
0
41
1.00000000000001
10
31.8515948515621
20
0.099154790868169
30
0
41
1.00000000000001
10
31.8019515777006
20
0.113923168513678
30
0
41
1.00000000000001
10
31.7324518452081
20
0.134558229104925
30
0
41
1.00000000000001
10
31.6728835944138
20
0.152224216996472
30
0
41
1.00000000000001
10
31.6133141965677
20
0.169849383650216
30
0
41
1.00000000000001
10
31.5636707438608
20
0.184485469141406
30
0
41
1.00000000000001
10
31.4991358522266
20
0.203460462562218
30
0
41
1.00000000000001
10
31.4395666725514
20
0.220925116112225
30
0
41
1.00000000000001
10
31.3849613029828
20
0.236885528170914
30
0
41
1.00000000000001
10
31.3303529010224
20
0.252776475663778
30
0
41
1.00000000000001
10
31.2509204198486
20
0.275767344405805
30
0
41
1.00000000000001
10
31.1168733507568
20
0.314218831868429
30
0
41
1.00000000000001
10
30.9977425682767
20
0.34813603287125
30
0
41
1.00000000000001
10
30.8984696455674
20
0.376116810171735
30
0
41
1.00000000000001
10
30.8488262327464
20
0.389970997446935
30
0
41
1.00000000000001
10
30.7793262491795
20
0.40923860910547
30
0
41
1.00000000000001
10
30.7197577423299
20
0.425641882731239
30
0
41
1.00000000000001
10
30.6601880719305
20
0.441928567671423
30
0
41
1.00000000000001
10
30.610544423282
20
0.455400258026142
30
0
41
1.00000000000001
10
30.5410443384797
20
0.474112076909731
30
0
41
1.00000000000001
10
30.4814759043231
20
0.490017808839266
30
0
41
1.00000000000001
10
30.4219064039706
20
0.505789482847089
30
0
41
1.00000000000001
10
30.3722629204612
20
0.518820995639768
30
0
41
1.00000000000001
10
30.3027630585643
20
0.536896891810411
30
0
41
1.00000000000001
10
30.243194789763
20
0.552236458318358
30
0
41
1.00000000000001
10
30.1836254102497
20
0.567424198038903
30
0
41
1.00000000000001
10
30.1339819780942
20
0.579957921413236
30
0
41
1.00000000000001
10
30.0694471147164
20
0.596085306186264
30
0
41
1.00000000000001
10
30.0098779654773
20
0.610802439169159
30
0
41
1.00000000000001
10
29.9552726284461
20
0.6241458945839
30
0
41
1.00000000000001
10
29.9006642666641
20
0.637343284668272
30
0
41
1.00000000000001
10
29.8212318644108
20
0.656274024839316
30
0
41
1.00000000000001
10
29.6871849777361
20
0.68748937056301
30
0
41
1.00000000000001
10
29.5680544186514
20
0.714428445914417
30
0
41
1.00000000000001
10
29.4687817053457
20
0.736257763190248
30
0
41
1.00000000000001
10
29.4191384019239
20
0.746968871977112
30
0
41
1.00000000000001
10
29.3496385737821
20
0.761722501022769
30
0
41
1.00000000000001
10
29.2900701946241
20
0.774135800284336
30
0
41
1.00000000000001
10
29.2305006382249
20
0.786333964018605
30
0
41
1.00000000000001
10
29.1808570725803
20
0.796338068293489
30
0
41
1.00000000000001
10
29.1113570775867
20
0.810086431083671
30
0
41
1.00000000000001
10
29.0517886897306
20
0.821621267303266
30
0
41
1.00000000000001
10
28.9922192073765
20
0.832927650935625
30
0
41
1.00000000000001
10
28.9425757275075
20
0.842180903301165
30
0
41
1.00000000000001
10
28.8730758644392
20
0.854863733424844
30
0
41
1.00000000000001
10
28.8135075950864
20
0.865469494817058
30
0
41
1.00000000000001
10
28.7539382259304
20
0.875834440889571
30
0
41
1.00000000000001
10
28.7042948045146
20
0.884296171142773
30
0
41
1.00000000000001
10
28.6397599486452
20
0.895039780434013
30
0
41
1.00000000000001
10
28.5801907969477
20
0.904693242584523
30
0
41
1.00000000000001
10
28.5255854461854
20
0.913318466442712
30
0
41
1.00000000000001
10
28.470977062191
20
0.921743088190988
30
0
41
1.00000000000001
10
28.3915446169519
20
0.93362962523434
30
0
41
1.00000000000001
10
28.2574976382735
20
0.952685001599371
30
0
41
1.00000000000001
10
28.1383669939575
20
0.968394345092031
30
0
41
1.00000000000001
10
28.039094235023
20
0.98062835914859
30
0
41
1.00000000000001
10
27.9894509149467
20
0.986506871181796
30
0
41
1.00000000000001
10
27.919951071435
20
0.994419994064054
30
0
41
1.00000000000001
10
27.8603826829365
20
1.00088658579167
30
0
41
1.00000000000001
10
27.8008131154292
20
1.00707403568139
30
0
41
1.00000000000001
10
27.7511695313113
20
1.01203450484447
30
0
41
1.00000000000001
10
27.6816694917576
20
1.01865430566999
30
0
41
1.00000000000001
10
27.6221010529328
20
1.0240026613616
30
0
41
1.00000000000001
10
27.5625315165107
20
1.02906493433061
30
0
41
1.00000000000001
10
27.5128879949122
20
1.03308464886162
30
0
41
1.00000000000001
10
27.4433880840253
20
1.03838062623705
30
0
41
1.00000000000001
10
27.3838197850091
20
1.04258611985699
30
0
41
1.00000000000001
10
27.3242503957692
20
1.04650013641523
30
0
41
1.00000000000001
10
27.2746069643883
20
1.04956097327575
30
0
41
1.00000000000001
10
27.2100721045964
20
1.05323388978353
30
0
41
1.00000000000001
10
27.150502955106
20
1.05630817409541
30
0
41
1.00000000000001
10
27.0958976077657
20
1.05886115369955
30
0
41
1.00000000000001
10
27.0412892251651
20
1.06119049210894
30
0
41
1.00000000000001
10
26.9618567780809
20
1.06416653361057
30
0
41
1.00000000000001
10
26.8278097998901
20
1.06806766679088
30
0
41
1.00000000000001
10
26.7086791938256
20
1.07007130062546
30
0
41
1.00000000000001
10
26.6094065233057
20
1.07077301746542
30
0
41
1.00000000000001
10
26.5597632655692
20
1.07088625253052
30
0
41
1.00000000000001
10
26.4902635487823
20
1.07070031173605
30
0
41
1.00000000000001
10
26.430695307423
20
1.07018890221789
30
0
41
1.00000000000001
10
26.3711259156961
20
1.06937714343388
30
0
41
1.00000000000001
10
26.3214824839444
20
1.06850047274187
30
0
41
1.00000000000001
10
26.2569476662494
20
1.06704835319925
30
0
41
1.00000000000001
10
26.1973786030272
20
1.06538492669173
30
0
41
1.00000000000001
10
26.142773383247
20
1.06359137862739
30
0
41
1.00000000000001
10
26.0881651502755
20
1.06157924509062
30
0
41
1.00000000000001
10
26.0087329134671
20
1.05824877691568
30
0
41
1.00000000000001
10
25.8846185287998
20
1.05204796361388
30
0
41
1.00000000000001
10
25.765484976472
20
1.04473177022847
30
0
41
1.00000000000001
10
25.6463490384622
20
1.03625658803883
30
0
41
1.00000000000001
10
25.5470594672646
20
1.0284354454371
30
0
41
1.00000000000001
10
25.3981236939814
20
1.01528583703097
30
0
41
1.00000000000001
10
25.2789928056871
20
1.0032964600787
30
0
41
1.00000000000001
10
25.17971980409
20
0.992393209782414
30
0
41
1.00000000000001
10
25.1300763775154
20
0.98674501420316
30
0
41
1.00000000000001
10
25.0605764360071
20
0.978523701650283
30
0
41
1.00000000000001
10
25.0010080160696
20
0.97114748028016
30
0
41
1.00000000000001
10
24.9414384626641
20
0.963498088011641
30
0
41
1.00000000000001
10
24.8917948922089
20
0.956950823950302
30
0
41
1.00000000000001
10
24.8272598748955
20
0.948157889755686
30
0
41
1.00000000000001
10
24.767690612132
20
0.939748456064586
30
0
41
1.00000000000001
10
24.713085198232
20
0.931798034332041
30
0
41
1.00000000000001
10
24.6584767765144
20
0.923662379671919
30
0
41
1.00000000000001
10
24.5790443073941
20
0.911484519730601
30
0
41
1.00000000000001
10
24.4652536258287
20
0.893252435159462
30
0
41
1.00000000000001
10
24.3762999950949
20
0.878186796103074
30
0
41
1.00000000000001
10
24.3270597417831
20
0.869599416913411
30
0
0
SPLINE
5
E1
100
AcDbEntity
8
1
62
256
6
ByLayer
370
13
48
1
60
0
100
AcDbSpline
70
4
71
3
72
37
73
33
40
0
40
0
40
0
40
0
40
0.0528067510797493
40
0.0673789549092916
40
0.0965233625683762
40
0.125667770227459
40
0.169384381716088
40
0.18395658554563
40
0.213100993204715
40
0.242245400863799
40
0.285962012352426
40
0.300534216181968
40
0.329678623841053
40
0.358823031500138
40
0.402539642988764
40
0.417111846818307
40
0.446256254477391
40
0.475400662136476
40
0.511831171710332
40
0.533689477454645
40
0.555547783198959
40
0.591978292772814
40
0.650267108090985
40
0.752272534897781
40
0.766844738727323
40
0.795989146386408
40
0.825133554045492
40
0.865207114576734
40
0.883422369363662
40
0.901637624150589
40
0.941711184681831
40
1
40
1
40
1
40
1
41
1.00000000000001
10
9.60079183770426
20
0.0246211941447142
30
0
41
1.00000000000001
10
9.56481540190472
20
0.0353856914772732
30
0
41
1.00000000000001
10
9.51891289240322
20
0.0491328170370477
30
0
41
1.00000000000001
10
9.45315656971269
20
0.0688271945529375
30
0
41
1.00000000000001
10
9.40351322406678
20
0.0836227114224352
30
0
41
1.00000000000001
10
9.33401334579486
20
0.104307872826524
30
0
41
1.00000000000001
10
9.27444493669418
20
0.122029182447817
30
0
41
1.00000000000001
10
9.21487536365385
20
0.139719850552552
30
0
41
1.00000000000001
10
9.16523179740796
20
0.15441710751844
30
0
41
1.00000000000001
10
9.09573182562278
20
0.174940978746064
30
0
41
1.00000000000001
10
9.03616347721737
20
0.192499789060945
30
0
41
1.00000000000001
10
8.97659404372865
20
0.210007561037769
30
0
41
1.00000000000001
10
8.92695060362289
20
0.224539052303696
30
0
41
1.00000000000001
10
8.85745078541919
20
0.244807893609219
30
0
41
1.00000000000001
10
8.79788254019408
20
0.262124410870682
30
0
41
1.00000000000001
10
8.73831317910234
20
0.279370015648338
30
0
41
1.00000000000001
10
8.68866975685228
20
0.293670110383685
30
0
41
1.00000000000001
10
8.62413489384244
20
0.312177154242844
30
0
41
1.00000000000001
10
8.56456573268543
20
0.3291775381426
30
0
41
1.00000000000001
10
8.50996037466883
20
0.344685525037077
30
0
41
1.00000000000001
10
8.45535198757876
20
0.360102641235185
30
0
41
1.00000000000001
10
8.37591954696268
20
0.382364633061994
30
0
41
1.00000000000001
10
8.2418725936023
20
0.419478552011722
30
0
41
1.00000000000001
10
8.12274198181274
20
0.452057474397148
30
0
41
1.00000000000001
10
8.02346923902383
20
0.478828766234326
30
0
41
1.00000000000001
10
7.97382592274398
20
0.492058076889091
30
0
41
1.00000000000001
10
7.90680861248988
20
0.50976687844641
30
0
41
1.00000000000001
10
7.84723986580168
20
0.525363394034965
30
0
41
1.00000000000001
10
7.79511721470772
20
0.538893630205419
30
0
41
1.00000000000001
10
7.74299068413883
20
0.552303159852269
30
0
41
1.00000000000001
10
7.66355879236375
20
0.57250717101584
30
0
41
1.00000000000001
10
7.59654721579711
20
0.589348695542807
30
0
41
1.00000000000001
10
7.55683694354998
20
0.599232538880809
30
0
0
SPLINE
5
E2
100
AcDbEntity
8
1
62
256
6
ByLayer
370
18
48
1
60
0
100
AcDbSpline
70
4
71
3
72
12
73
8
40
0
40
0
40
0
40
0
40
0.5
40
0.5
40
0.75
40
0.75
40
1
40
1
40
1
40
1
41
1
10
37.0582047074292
20
0.0571536765996257
30
0
41
1
10
37.0299597059849
20
-0.111974275910114
30
0
41
1
10
37.0125301086797
20
-0.279744803117666
30
0
41
1
10
37.0029757478079
20
-0.529318403277586
30
0
41
1
10
37.0026426605964
20
-0.612148286237471
30
0
41
1
10
37.0076917856854
20
-0.772419751417175
30
0
41
1
10
37.0130379957731
20
-0.850467484825856
30
0
41
1
10
37.021216813747
20
-0.926419108477376
30
0
0
SPLINE
5
E3
100
AcDbEntity
8
1
62
256
6
ByLayer
370
18
48
1
60
0
100
AcDbSpline
70
4
71
3
72
10
73
6
40
0
40
0
40
0
40
0
40
0.5
40
0.5
40
1
40
1
40
1
40
1
41
1
10
37.2074992282265
20
-2.05519446945493
30
0
41
1
10
37.273389640701
20
-1.90501159778992
30
0
41
1
10
37.3411955566631
20
-1.74847040665239
30
0
41
1
10
37.4783799772035
20
-1.42004581607543
30
0
41
1
10
37.5482661836276
20
-1.24680775330864
30
0
41
1
10
37.6152275496413
20
-1.06922044155701
30
0
0
SPLINE
5
E4
100
AcDbEntity
8
1
62
256
6
ByLayer
370
18
48
1
60
0
100
AcDbSpline
70
4
71
3
72
24
73
20
40
0
40
0
40
0
40
0
40
0.0312499999999972
40
0.0312499999999972
40
0.0624999999999944
40
0.0624999999999944
40
0.124999999999994
40
0.124999999999994
40
0.187499999999993
40
0.187499999999993
40
0.249999999999993
40
0.249999999999993
40
0.374999999999992
40
0.374999999999992
40
0.499999999999991
40
0.499999999999991
40
0.749999999999995
40
0.749999999999995
40
1
40
1
40
1
40
1
41
1
10
2.94094246603447
20
1.67718942128906
30
0
41
1
10
2.95713887192724
20
1.69369158376168
30
0
41
1
10
2.97665118418917
20
1.70882281482642
30
0
41
1
10
3.01936890562655
20
1.73587655008728
30
0
41
1
10
3.04275176402032
20
1.74799464711239
30
0
41
1
10
3.11767057482439
20
1.7812074505637
30
0
41
1
10
3.17314984100207
20
1.79885420686131
30
0
41
1
10
3.2880872563822
20
1.82832462885389
30
0
41
1
10
3.34829392467765
20
1.84030873157036
30
0
41
1
10
3.47190334625239
20
1.86062573397987
30
0
41
1
10
3.53453139757409
20
1.86882232719515
30
0
41
1
10
3.72428339200729
20
1.88948051139693
30
0
41
1
10
3.85324528783792
20
1.89810588096353
30
0
41
1
10
4.11489317048415
20
1.90907970046996
30
0
41
1
10
4.24699484535432
20
1.91127535255976
30
0
41
1
10
4.63872970241852
20
1.90973465525988
30
0
41
1
10
4.89712808940558
20
1.89857246267465
30
0
41
1
10
5.40843115768948
20
1.84734278431981
30
0
41
1
10
5.65199825649737
20
1.80764000244926
30
0
41
1
10
5.88374551478881
20
1.74550901733914
30
0
0
SPLINE
5
E5
100
AcDbEntity
8
1
62
256
6
ByLayer
370
18
48
1
60
0
100
AcDbSpline
70
4
71
3
72
34
73
30
40
0
40
0
40
0
40
0
40
0.250000000000002
40
0.250000000000002
40
0.375000000000003
40
0.375000000000003
40
0.437500000000003
40
0.437500000000003
40
0.500000000000004
40
0.500000000000004
40
0.562500000000004
40
0.562500000000004
40
0.625000000000005
40
0.625000000000005
40
0.687500000000005
40
0.687500000000005
40
0.750000000000006
40
0.750000000000006
40
0.781250000000005
40
0.781250000000005
40
0.812500000000004
40
0.812500000000004
40
0.843750000000004
40
0.843750000000004
40
0.875000000000003
40
0.875000000000003
40
0.937500000000002
40
0.937500000000002
40
1
40
1
40
1
40
1
41
1
10
5.47408236559511
20
-1.14992260471243
30
0
41
1
10
5.14499895210946
20
-1.00540235597563
30
0
41
1
10
4.82039998670055
20
-0.843580238940433
30
0
41
1
10
4.34272911523178
20
-0.56432426756524
30
0
41
1
10
4.18506015843454
20
-0.465079360477802
30
0
41
1
10
3.95165716070417
20
-0.303681821632779
30
0
41
1
10
3.8744201068923
20
-0.247773599032882
30
0
41
1
10
3.72360916303157
20
-0.132726133716034
30
0
41
1
10
3.6497533729069
20
-0.0734029945350017
30
0
41
1
10
3.50572901769493
20
0.0495245561070305
30
0
41
1
10
3.43555356300459
20
0.113120969173906
30
0
41
1
10
3.29980042859938
20
0.245652146767895
30
0
41
1
10
3.2338434249582
20
0.315023659949617
30
0
41
1
10
3.11048665265662
20
0.457997106346511
30
0
41
1
10
3.05296778945578
20
0.531611343024622
30
0
41
1
10
2.94885121389149
20
0.684393174516231
30
0
41
1
10
2.90237977765136
20
0.763667139317562
30
0
41
1
10
2.84641386121251
20
0.882965369073958
30
0
41
1
10
2.82993097376573
20
0.922971140168443
30
0
41
1
10
2.80191480767985
20
1.00352161422438
30
0
41
1
10
2.79038277366502
20
1.04424505153844
30
0
41
1
10
2.7734714899633
20
1.12380637014985
30
0
41
1
10
2.76797208061902
20
1.16292069121917
30
0
41
1
10
2.76308427669747
20
1.23976468128564
30
0
41
1
10
2.7637313203237
20
1.27776603838748
30
0
41
1
10
2.77504554628069
20
1.38753423253237
30
0
41
1
10
2.79469727836528
20
1.45425290485409
30
0
41
1
10
2.854970822469
20
1.57648414578347
30
0
41
1
10
2.89460688905251
20
1.62997911891173
30
0
41
1
10
2.94094246603458
20
1.67718942128894
30
0
0
SPLINE
5
E6
100
AcDbEntity
8
1
62
256
6
ByLayer
370
18
48
1
60
0
100
AcDbSpline
70
4
71
4
72
10
73
5
40
0
40
0
40
0
40
0
40
0
40
1
40
1
40
1
40
1
40
1
41
1
10
7.92912078887727
20
1.02719629521593
30
0
41
1
10
7.83604982754545
20
0.920205356132129
30
0
41
1
10
7.7429788662136
20
0.813214417048357
30
0
41
1
10
7.64990790488179
20
0.706223477964585
30
0
41
1
10
7.55683694354997
20
0.599232538880813
30
0
0
SPLINE
5
E7
100
AcDbEntity
8
1
62
256
6
ByLayer
370
18
48
1
60
0
100
AcDbSpline
70
4
71
3
72
8
73
4
40
0
40
0
40
0
40
0
40
1
40
1
40
1
40
1
41
1
10
37.6152275496413
20
-1.06922044155701
30
0
41
1
10
37.6516162435254
20
-0.972714490294038
30
0
41
1
10
37.6894798407208
20
-0.879659169989964
30
0
41
1
10
37.7289009367904
20
-0.789479856332179
30
0
0
SPLINE
5
E8
100
AcDbEntity
8
1
62
256
6
ByLayer
370
18
48
1
60
0
100
AcDbSpline
70
4
71
3
72
10
73
6
40
0
40
0
40
0
40
0
40
0.5
40
0.5
40
1
40
1
40
1
40
1
41
1
10
5.88374551478879
20
1.74550901733912
30
0
41
1
10
6.22367543391067
20
1.65437447318459
30
0
41
1
10
6.56425668489936
20
1.54799171919981
30
0
41
1
10
7.2461566750986
20
1.30831118864859
30
0
41
1
10
7.58748188172788
20
1.1749663240229
30
0
41
1
10
7.92912078887724
20
1.02719629521596
30
0
0
SPLINE
5
E9
100
AcDbEntity
8
1
62
256
6
ByLayer
370
13
48
1
60
0
100
AcDbSpline
70
4
71
3
72
38
73
34
40
0
40
0
40
0
40
0
40
0.0298063146242115
40
0.0298063146242115
40
0.0760214223227409
40
0.0760214223227409
40
0.12223653002127
40
0.12223653002127
40
0.214666745418331
40
0.214666745418331
40
0.307096960815391
40
0.307096960815391
40
0.399527176212452
40
0.399527176212452
40
0.491957391609512
40
0.491957391609512
40
0.538172499308043
40
0.538172499308043
40
0.584387607006573
40
0.584387607006573
40
0.630602714705103
40
0.630602714705103
40
0.676817822403633
40
0.676817822403633
40
0.769248037800692
40
0.769248037800692
40
0.815463145499221
40
0.815463145499221
40
0.861678253197751
40
0.861678253197751
40
0.95410846859481
40
0.95410846859481
40
1
40
1
40
1
40
1
41
1
10
27.6927069556898
20
-2.01629660549278
30
0
41
1
10
27.5881376455237
20
-2.01662430281388
30
0
41
1
10
27.4835091496205
20
-2.01434628013504
30
0
41
1
10
27.216218501756
20
-2.0017468200372
30
0
41
1
10
27.0534167121743
20
-1.98805406819685
30
0
41
1
10
26.7264468501236
20
-1.9482000968857
30
0
41
1
10
26.5622426612545
20
-1.92191864736358
30
0
41
1
10
26.0728940268346
20
-1.82568062188608
30
0
41
1
10
25.7490794708031
20
-1.73891587715059
30
0
41
1
10
25.1000640602519
20
-1.52426691591293
30
0
41
1
10
24.7747133991417
20
-1.39681223218528
30
0
41
1
10
24.1186722633133
20
-1.10774690611203
30
0
41
1
10
23.7938775461172
20
-0.949087199157788
30
0
41
1
10
23.1446451652376
20
-0.613062371190836
30
0
41
1
10
22.8204310908467
20
-0.435631173833002
30
0
41
1
10
22.3300701496907
20
-0.162840106606012
30
0
41
1
10
22.1656311685441
20
-0.0706763851767391
30
0
41
1
10
21.8378515917342
20
0.113096937542537
30
0
41
1
10
21.6741479082663
20
0.204734960296605
30
0
41
1
10
21.3463513520577
20
0.386140393963501
30
0
41
1
10
21.1819064247117
20
0.476136938132754
30
0
41
1
10
20.8544621811421
20
0.652067426914584
30
0
41
1
10
20.6912928777566
20
0.737856676483915
30
0
41
1
10
20.2023596539179
20
0.986859347851066
30
0
41
1
10
19.8773752857975
20
1.14245619275726
30
0
41
1
10
19.3866503434466
20
1.35226902846603
30
0
41
1
10
19.2220885731005
20
1.41853885411868
30
0
41
1
10
18.8945628458551
20
1.54145064768736
30
0
41
1
10
18.7313384643869
20
1.59794347929497
30
0
41
1
10
18.2421837670381
20
1.75146223215279
30
0
41
1
10
17.9171666131556
20
1.83341232441072
30
0
41
1
10
17.4271776448541
20
1.92017697276165
30
0
41
1
10
17.263669936907
20
1.94331672192178
30
0
41
1
10
17.1010954268389
20
1.96036438405039
30
0
0
SPLINE
5
EA
100
AcDbEntity
8
1
62
256
6
ByLayer
370
18
48
1
60
0
100
AcDbSpline
70
4
71
3
72
22
73
18
40
0
40
0
40
0
40
0
40
0.173927849320293
40
0.173927849320293
40
0.347855698640586
40
0.347855698640586
40
0.434819623300732
40
0.434819623300732
40
0.521783547960878
40
0.521783547960878
40
0.695711397281171
40
0.695711397281171
40
0.78267532194132
40
0.78267532194132
40
0.869639246601469
40
0.869639246601469
40
1
40
1
40
1
40
1
41
1
10
37.0582047074293
20
0.0571536765996257
30
0
41
1
10
36.7385191383481
20
0.238627527162379
30
0
41
1
10
36.4195693343826
20
0.418655810337214
30
0
41
1
10
35.7775228421683
20
0.766576743139524
30
0
41
1
10
35.457883753565
20
0.932567126356076
30
0
41
1
10
34.9776404909458
20
1.16244562190801
30
0
41
1
10
34.8168515036947
20
1.2357890187883
30
0
41
1
10
34.4963255789988
20
1.37437222266152
30
0
41
1
10
34.3363901450278
20
1.43950141896195
30
0
41
1
10
33.8561812686314
20
1.62138987242579
30
0
41
1
10
33.5348406567115
20
1.72597179635457
30
0
41
1
10
33.0545737553146
20
1.8481690593448
30
0
41
1
10
32.8945801071333
20
1.88359798245051
30
0
41
1
10
32.5742447509408
20
1.94295549321498
30
0
41
1
10
32.4133366001342
20
1.96631900507612
30
0
41
1
10
32.0140579878076
20
2.00897100077549
30
0
41
1
10
31.7756429491325
20
2.02185332502529
30
0
41
1
10
31.5376943257395
20
2.02192879287304
30
0
0
SPLINE
5
EB
100
AcDbEntity
8
1
62
256
6
ByLayer
370
18
48
1
60
0
100
AcDbSpline
70
4
71
3
72
70
73
66
40
0
40
0
40
0
40
0
40
0.0219237925023058
40
0.0219237925023058
40
0.05544487753365
40
0.05544487753365
40
0.0889659625649942
40
0.0889659625649942
40
0.122487047596338
40
0.122487047596338
40
0.156008132627683
40
0.156008132627683
40
0.189529217659027
40
0.189529217659027
40
0.223050302690371
40
0.223050302690371
40
0.256571387721715
40
0.256571387721715
40
0.290092472753059
40
0.290092472753059
40
0.323613557784404
40
0.323613557784404
40
0.357134642815748
40
0.357134642815748
40
0.390655727847092
40
0.390655727847092
40
0.424176812878436
40
0.424176812878436
40
0.45769789790978
40
0.45769789790978
40
0.491218982941124
40
0.491218982941124
40
0.524740067972469
40
0.524740067972469
40
0.558261153003813
40
0.558261153003813
40
0.591782238035157
40
0.591782238035157
40
0.625303323066501
40
0.625303323066501
40
0.658824408097845
40
0.658824408097845
40
0.69234549312919
40
0.69234549312919
40
0.725866578160534
40
0.725866578160534
40
0.759387663191878
40
0.759387663191878
40
0.792908748223222
40
0.792908748223222
40
0.809669290738894
40
0.809669290738894
40
0.826429833254565
40
0.826429833254565
40
0.859950918285907
40
0.859950918285907
40
0.893472003317249
40
0.893472003317249
40
0.926993088348591
40
0.926993088348591
40
0.960514173379933
40
0.960514173379933
40
0.994035258411275
40
0.994035258411275
40
1
40
1
40
1
40
1
41
1
10
23.4386431682461
20
-1.28102428027034
30
0
41
1
10
23.3337491559203
20
-1.32616399067464
30
0
41
1
10
23.2288353407312
20
-1.36967112301775
30
0
41
1
10
22.963141564362
20
-1.47590329069263
30
0
41
1
10
22.801923550158
20
-1.53585025143124
30
0
41
1
10
22.4808355433605
20
-1.64513672097169
30
0
41
1
10
22.3205109337031
20
-1.69427167484855
30
0
41
1
10
21.9995783298325
20
-1.7838471047643
30
0
41
1
10
21.8388604501138
20
-1.82360388878524
30
0
41
1
10
21.5170739037185
20
-1.89109592664667
30
0
41
1
10
21.3565825675984
20
-1.91832064969472
30
0
41
1
10
21.0356002407924
20
-1.96350016220126
30
0
41
1
10
20.8751301723011
20
-1.98048783071781
30
0
41
1
10
20.5537581601562
20
-2.00089576795676
30
0
41
1
10
20.3927230552026
20
-2.00422297599397
30
0
41
1
10
20.0712341761797
20
-2.00109942251393
30
0
41
1
10
19.9106002960204
20
-1.99402194806362
30
0
41
1
10
19.58941796497
20
-1.9661499046959
30
0
41
1
10
19.4284772979241
20
-1.94545135123809
30
0
41
1
10
19.1063582768986
20
-1.89433491475233
30
0
41
1
10
18.9456984469839
20
-1.86364783780999
30
0
41
1
10
18.6244104975067
20
-1.78967896167538
30
0
41
1
10
18.4637662422258
20
-1.74661619715982
30
0
41
1
10
18.1419646204161
20
-1.65131758100876
30
0
41
1
10
17.9807627168439
20
-1.59908968022853
30
0
41
1
10
17.6593000851172
20
-1.4841515551785
30
0
41
1
10
17.4989034121299
20
-1.42121832648269
30
0
41
1
10
17.1773978454822
20
-1.28928133013588
30
0
41
1
10
17.0162426782268
20
-1.21991617913466
30
0
41
1
10
16.6942990614289
20
-1.07267375103927
30
0
41
1
10
16.5339313304575
20
-0.994520021648725
30
0
41
1
10
16.21264903225
20
-0.835058153789504
30
0
41
1
10
16.0521010520581
20
-0.752949629559197
30
0
41
1
10
15.7301590828101
20
-0.584319745564869
30
0
41
1
10
15.5690592644877
20
-0.496954255067891
30
0
41
1
10
15.2475428621935
20
-0.321333426665404
30
0
41
1
10
15.0870022694007
20
-0.232447917767899
30
0
41
1
10
14.7653171799064
20
-0.0541246651623055
30
0
41
1
10
14.6041477617126
20
0.0360257043525678
30
0
41
1
10
14.2819700023643
20
0.215013585160193
30
0
41
1
10
14.1211175518214
20
0.303903845121141
30
0
41
1
10
13.7994395730481
20
0.479381671141795
30
0
41
1
10
13.6387794186043
20
0.565971899774695
30
0
41
1
10
13.316203636106
20
0.73484936607295
30
0
41
1
10
13.1549138755787
20
0.817640330306972
30
0
41
1
10
12.8330104969291
20
0.977457193195903
30
0
41
1
10
12.6723220921494
20
1.05412591252872
30
0
41
1
10
12.3503482844841
20
1.2008478189266
30
0
41
1
10
12.189002658511
20
1.27155809551181
30
0
41
1
10
11.9471898983935
20
1.37092880584856
30
0
41
1
10
11.8667087491153
20
1.40307015394495
30
0
41
1
10
11.7058422830633
20
1.46459505523219
30
0
41
1
10
11.6254727350065
20
1.49402987474491
30
0
41
1
10
11.3841890270599
20
1.57929701823747
30
0
41
1
10
11.223330064614
20
1.63230759184327
30
0
41
1
10
10.9006032931552
20
1.72813531840467
30
0
41
1
10
10.7397205409169
20
1.77041370150604
30
0
41
1
10
10.4178991799981
20
1.84289129807067
30
0
41
1
10
10.2571575018492
20
1.87455264541174
30
0
41
1
10
9.93508043831508
20
1.92635900889675
30
0
41
1
10
9.77370393120347
20
1.94621264224955
30
0
41
1
10
9.45159160120107
20
1.97274952508872
30
0
41
1
10
9.29086941112402
20
1.98087831801149
30
0
41
1
10
9.10122197290229
20
1.98314903235431
30
0
41
1
10
9.07256946124971
20
1.9832916170152
30
0
41
1
10
9.04391334442346
20
1.98323599942378
30
0
0
SPLINE
5
EC
100
AcDbEntity
8
1
62
256
6
ByLayer
370
18
48
1
60
0
100
AcDbSpline
70
4
71
2
72
6
73
3
40
0
40
0
40
0
40
1
40
1
40
1
41
1
10
32.077956067219
20
0.0314356083514156
30
0
41
1
10
32.4710682318092
20
-0.0864106136205578
30
0
41
1
10
32.8614601011777
20
-0.313947391917139
30
0
0
SPLINE
5
ED
100
AcDbEntity
8
1
62
256
6
ByLayer
370
18
48
1
60
0
100
AcDbSpline
70
4
71
2
72
6
73
3
40
0
40
0
40
0
40
1
40
1
40
1
41
1
10
9.57884808089673
20
0.0311881293297915
30
0
41
1
10
9.96142111413127
20
-0.0836278664012298
30
0
41
1
10
10.3217338479586
20
-0.293755525901815
30
0
0
SPLINE
5
EE
100
AcDbEntity
8
1
62
256
6
ByLayer
370
18
48
1
60
0
100
AcDbSpline
70
4
71
2
72
6
73
3
40
0
40
0
40
0
40
1
40
1
40
1
41
1
10
20.8286862914869
20
0.0313202557893248
30
0
41
1
10
21.201061865206
20
-0.079154282708771
30
0
41
1
10
21.5674113821168
20
-0.291367763184894
30
0
0
SPLINE
5
EF
100
AcDbEntity
8
1
62
256
6
ByLayer
370
18
48
1
60
0
100
AcDbSpline
70
4
71
3
72
16
73
12
40
0
40
0
40
0
40
0
40
0.179776384210941
40
0.296444294654017
40
0.398499421044342
40
0.50660654123852
40
0.593204722728791
40
0.676241295688241
40
0.757153372635378
40
0.880654358603911
40
1
40
1
40
1
40
1
41
1
10
9.07092108178142
20
1.9832863862992
30
0
41
1
10
8.87666647175124
20
1.98253198803673
30
0
41
1
10
8.55634688319398
20
1.98154340605424
30
0
41
1
10
8.12572575978021
20
1.98146720298916
30
0
41
1
10
7.77258645143797
20
1.98069156946212
30
0
41
1
10
7.45187126629375
20
1.98008754526401
30
0
41
1
10
7.15172511261432
20
1.98001440783111
30
0
41
1
10
6.88096844098246
20
1.97915687179065
30
0
41
1
10
6.57032072581978
20
1.97815130017003
30
0
41
1
10
6.22051532182201
20
1.97798426125593
30
0
41
1
10
5.95807102465054
20
1.97754147828607
30
0
41
1
10
5.82909046502141
20
1.97734309976124
30
0
0
SPLINE
5
F0
100
AcDbEntity
8
1
62
256
6
ByLayer
370
18
48
1
60
0
100
AcDbSpline
70
4
71
2
72
6
73
3
40
0
40
0
40
0
40
1
40
1
40
1
41
1
10
14.8873296632308
20
-0.0312037141839028
30
0
41
1
10
14.5509993260374
20
0.0670334725316479
30
0
41
1
10
14.2064850855233
20
0.259136268075224
30
0
0
SPLINE
5
F1
100
AcDbEntity
8
1
62
256
6
ByLayer
370
18
48
1
60
0
100
AcDbSpline
70
4
71
3
72
9
73
5
40
0
40
0
40
0
40
0
40
0.227603970257487
40
1
40
1
40
1
40
1
41
1
10
6.48747544502643
20
1.81515870322687
30
0
41
1
10
6.52979178820308
20
1.80560120872121
30
0
41
1
10
6.7157491651227
20
1.76088159783657
30
0
41
1
10
6.90202708727475
20
1.7043065251398
30
0
41
1
10
7.04596848865074
20
1.65343014252795
30
0
0
SPLINE
5
F2
100
AcDbEntity
8
1
62
256
6
ByLayer
370
18
48
1
60
0
100
AcDbSpline
70
4
71
3
72
10
73
6
40
0
40
0
40
0
40
0
40
0.0336339327578295
40
0.78228167659621
40
1
40
1
40
1
40
1
41
1
10
28.8878495909756
20
1.87564508072998
30
0
41
1
10
28.8964228870732
20
1.87378638500309
30
0
41
1
10
29.0958340847987
20
1.83014701602374
30
0
41
1
10
29.3509599321835
20
1.76211733406865
30
0
41
1
10
29.5987668870966
20
1.66886984438352
30
0
41
1
10
29.6546385918539
20
1.64675098330844
30
0
0
SPLINE
5
F3
100
AcDbEntity
8
1
62
256
6
ByLayer
370
18
48
1
60
0
100
AcDbSpline
70
4
71
3
72
19
73
15
40
0
40
0
40
0
40
0
40
0.132784766112762
40
0.219503678668974
40
0.275769227076483
40
0.332578623530163
40
0.390667130747369
40
0.449643009337048
40
0.509447933322109
40
0.594528355544937
40
0.677053810978936
40
0.751282616005095
40
0.857393163194229
40
1
40
1
40
1
40
1
41
1
10
27.6392468517675
20
-2.01633194269971
30
0
41
1
10
27.8116663352057
20
-2.01641042697409
30
0
41
1
10
28.0966957795696
20
-2.01675092840304
30
0
41
1
10
28.4548014175172
20
-2.01786780599744
30
0
41
1
10
28.7142528932801
20
-2.01858325553954
30
0
41
1
10
28.9365264006923
20
-2.01866997562445
30
0
41
1
10
29.1623191536615
20
-2.01852595811124
30
0
41
1
10
29.3920017440979
20
-2.01908757378777
30
0
41
1
10
29.6567343851082
20
-2.02014575536774
30
0
41
1
10
29.9520499806781
20
-2.01988514598145
30
0
41
1
10
30.2660988585936
20
-2.0200676261592
30
0
41
1
10
30.6074436286858
20
-2.0232999975947
30
0
41
1
10
31.0268262190263
20
-2.02253730096712
30
0
41
1
10
31.3498094274105
20
-2.02238394841146
30
0
41
1
10
31.5349988422971
20
-2.02190171025197
30
0
0
SPLINE
5
F4
100
AcDbEntity
8
1
62
256
6
ByLayer
370
18
48
1
60
0
100
AcDbSpline
70
4
71
3
72
17
73
13
40
0
40
0
40
0
40
0
40
0.144298701840586
40
0.242322377376965
40
0.324896720716609
40
0.413131856497003
40
0.502115242760923
40
0.721449027989366
40
0.772025672578044
40
0.84458996382298
40
0.955134131194508
40
1
40
1
40
1
40
1
41
1
10
31.5735191147384
20
2.02184617165818
30
0
41
1
10
31.4020738758089
20
2.02211747079974
30
0
41
1
10
31.1141637107846
20
2.0222845671903
30
0
41
1
10
30.7281197358258
20
2.02336055529753
30
0
41
1
10
30.4087271785027
20
2.02156126594016
30
0
41
1
10
30.1000389876316
20
2.01956979798294
30
0
41
1
10
29.6288561774958
20
2.02049565412546
30
0
41
1
10
29.2024257738215
20
2.01847759531705
30
0
41
1
10
28.7954873267705
20
2.01866973623044
30
0
41
1
10
28.5178622572802
20
2.01815713537954
30
0
41
1
10
28.2469765298166
20
2.01717010581373
30
0
41
1
10
28.0623331416821
20
2.01678699921075
30
0
41
1
10
28.0090290631981
20
2.01669624843237
30
0
0
SPLINE
5
F5
100
AcDbEntity
8
1
62
256
6
ByLayer
370
18
48
1
60
0
100
AcDbSpline
70
4
71
3
72
19
73
15
40
0
40
0
40
0
40
0
40
0.131796265851675
40
0.2178930987229
40
0.273948545860861
40
0.330348372696864
40
0.387832168234804
40
0.446299040225129
40
0.505686718850159
40
0.589988062816385
40
0.671524657162289
40
0.74514591082646
40
0.850119315808241
40
1
40
1
40
1
40
1
41
1
10
16.3875343356141
20
-1.99537583261821
30
0
41
1
10
16.5603776214344
20
-1.99601377427092
30
0
41
1
10
16.8461381397909
20
-1.99686009431355
30
0
41
1
10
17.2054296104843
20
-1.99703847439827
30
0
41
1
10
17.4658388265879
20
-1.99750454939388
30
0
41
1
10
17.6887182676023
20
-1.99842882286703
30
0
41
1
10
17.9147617690997
20
-1.99912421205826
30
0
41
1
10
18.1447250592039
20
-1.99912708331334
30
0
41
1
10
18.4098605722387
20
-1.99945743564385
30
0
41
1
10
18.7052495258219
20
-2.00089300387757
30
0
41
1
10
19.019309619572
20
-2.00120861371639
30
0
41
1
10
19.36048278331
20
-2.000862625043
30
0
41
1
10
19.7912855398443
20
-2.00354846652237
30
0
41
1
10
20.1255374325472
20
-2.00337879247832
30
0
41
1
10
20.322112778612
20
-2.00307581780942
30
0
0
SPLINE
5
F6
100
AcDbEntity
8
1
62
256
6
ByLayer
370
18
48
1
60
0
100
AcDbSpline
70
4
71
2
72
6
73
3
40
0
40
0
40
0
40
1
40
1
40
1
41
1
10
26.1372094620965
20
-0.0311556821533827
30
0
41
1
10
25.7702864042082
20
0.0789982247584078
30
0
41
1
10
25.4035942425886
20
0.286063087086347
30
0
0
SPLINE
5
F7
100
AcDbEntity
8
1
62
256
6
ByLayer
370
18
48
1
60
0
100
AcDbSpline
70
4
71
3
72
16
73
12
40
0
40
0
40
0
40
0
40
0.10904182409999
40
0.218362869477502
40
0.303741568580377
40
0.388622871438668
40
0.474685496100944
40
0.581856792363315
40
0.677220300317128
40
0.807375405486053
40
1
40
1
40
1
40
1
41
1
10
5.82905813878105
20
-1.97735493535899
30
0
41
1
10
5.9468603355148
20
-1.97755490914676
30
0
41
1
10
6.18277736318436
20
-1.97794664044946
30
0
41
1
10
6.5110758220334
20
-1.97814735632241
30
0
41
1
10
6.81310756007258
20
-1.97883651853803
30
0
41
1
10
7.09012945428319
20
-1.97993122144462
30
0
41
1
10
7.39067334540681
20
-1.9800775819954
30
0
41
1
10
7.70255403127794
20
-1.98048979919292
30
0
41
1
10
8.06208028366768
20
-1.98142592979062
30
0
41
1
10
8.51395510120005
20
-1.98148034608354
30
0
41
1
10
8.86277211347482
20
-1.98253062471818
30
0
41
1
10
9.07093485556535
20
-1.98328640963177
30
0
0
SPLINE
5
F8
100
AcDbEntity
8
1
62
256
6
ByLayer
370
18
48
1
60
0
100
AcDbSpline
70
4
71
3
72
17
73
13
40
0
40
0
40
0
40
0
40
0.14362584556232
40
0.243538541948307
40
0.328666757882649
40
0.419657671074283
40
0.511350854233791
40
0.7374301117984
40
0.789534986926586
40
0.863307853498583
40
0.975356670980581
40
1
40
1
40
1
40
1
41
1
10
20.3221265617738
20
2.00307585656535
30
0
41
1
10
20.1547819026709
20
2.00338418182645
30
0
41
1
10
19.8710240743382
20
2.00345216470441
30
0
41
1
10
19.4880662376455
20
2.00170983763718
30
0
41
1
10
19.1664555641191
20
2.00081624878342
30
0
41
1
10
18.8543986822015
20
2.0013800489711
30
0
41
1
10
18.3781169711647
20
1.99916202268088
30
0
41
1
10
17.94714274342
20
1.99954591467736
30
0
41
1
10
17.5370415456597
20
1.99774839539145
30
0
41
1
10
17.2598490543239
20
1.99703483245747
30
0
41
1
10
17.0146081415906
20
1.99696309471815
30
0
41
1
10
16.8553441266315
20
1.99669050759212
30
0
41
1
10
16.8266318728024
20
1.99663480624869
30
0
0
SPLINE
5
F9
100
AcDbEntity
8
1
62
256
6
ByLayer
370
18
48
1
60
0
100
AcDbSpline
70
4
71
2
72
6
73
3
40
0
40
0
40
0
40
1
40
1
40
1
41
1
10
37.3136399828458
20
-0.0091794907184806
30
0
41
1
10
36.9962927908912
20
0.0959514431702075
30
0
41
1
10
36.6808306047578
20
0.270490767521665
30
0
0
LINE
5
7B
100
AcDbEntity
8
SK1
62
256
6
ByLayer
370
18
48
1
60
0
100
AcDbLine
10
-36
20
1.25
30
0
11
-36
21
-1.25
31
0
39
0
210
0
220
0
230
1
0
LINE
5
7D
100
AcDbEntity
8
SK1
62
256
6
ByLayer
370
18
48
1
60
0
100
AcDbLine
10
-34.989637
20
3
30
0
11
-34.989637
21
-3
31
0
39
0
210
0
220
0
230
1
0
LINE
5
7E
100
AcDbEntity
8
SK1
62
256
6
ByLayer
370
18
48
1
60
0
100
AcDbLine
10
0
20
-3
30
0
11
0
21
3
31
0
39
0
210
0
220
0
230
1
0
LINE
5
7F
100
AcDbEntity
8
1
62
256
6
ByLayer
370
18
48
1
60
0
100
AcDbLine
10
37.021217
20
-0.926419
30
0
11
37.619037
21
-0.446473
31
0
39
0
210
0
220
0
230
1
0
LINE
5
80
100
AcDbEntity
8
1
62
256
6
ByLayer
370
18
48
1
60
0
100
AcDbLine
10
37.619037
20
-0.446473
30
0
11
37.626789
21
-0.395796
31
0
39
0
210
0
220
0
230
1
0
LINE
5
81
100
AcDbEntity
8
1
62
256
6
ByLayer
370
18
48
1
60
0
100
AcDbLine
10
0
20
-3
30
0
11
0
21
3
31
0
39
0
210
0
220
0
230
1
0
LINE
5
82
100
AcDbEntity
8
1
62
256
6
ByLayer
370
13
48
1
60
0
100
AcDbLine
10
1.533993
20
2.035907
30
0
11
1.533993
21
-2.035907
31
0
39
0
210
0
220
0
230
1
0
LINE
5
83
100
AcDbEntity
8
1
62
256
6
ByLayer
370
13
48
1
60
0
100
AcDbLine
10
0.766231
20
2.517953
30
0
11
0.766231
21
-2.517953
31
0
39
0
210
0
220
0
230
1
0
LINE
5
84
100
AcDbEntity
8
80
62
256
6
ByLayer
370
18
48
1
60
0
100
AcDbLine
10
0
20
0
30
0
11
-5
21
0
31
0
39
0
210
0
220
0
230
1
0
LINE
5
85
100
AcDbEntity
8
4
62
256
6
ByLayer
370
18
48
0.05
60
0
100
AcDbLine
10
38
20
0
30
0
11
0
21
0
31
0
39
0
210
0
220
0
230
1
0
LINE
5
87
100
AcDbEntity
8
SK4
62
256
6
ByLayer
370
18
48
0.05
60
0
100
AcDbLine
10
43
20
0
30
0
11
-41
21
0
31
0
39
0
210
0
220
0
230
1
0
LINE
5
89
100
AcDbEntity
8
SK1
62
256
6
ByLayer
370
18
48
1
60
0
100
AcDbLine
10
-36
20
-1.25
30
0
11
-34.989637
21
-3
31
0
39
0
210
0
220
0
230
1
0
LINE
5
8A
100
AcDbEntity
8
SK1
62
256
6
ByLayer
370
18
48
1
60
0
100
AcDbLine
10
-34.989637
20
3
30
0
11
-36
21
1.25
31
0
39
0
210
0
220
0
230
1
0
LINE
5
8B
100
AcDbEntity
8
SK1
62
256
6
ByLayer
370
18
48
1
60
0
100
AcDbLine
10
-34.989637
20
-3
30
0
11
0
21
-3
31
0
39
0
210
0
220
0
230
1
0
LINE
5
8C
100
AcDbEntity
8
SK1
62
256
6
ByLayer
370
18
48
1
60
0
100
AcDbLine
10
0
20
3
30
0
11
-34.989637
21
3
31
0
39
0
210
0
220
0
230
1
0
LINE
5
8D
100
AcDbEntity
8
1
62
256
6
ByLayer
370
18
48
1
60
0
100
AcDbLine
10
1.533993
20
-2.035907
30
0
11
5.471289
21
-2.042995
31
0
39
0
210
0
220
0
230
1
0
LINE
5
8E
100
AcDbEntity
8
1
62
256
6
ByLayer
370
18
48
1
60
0
100
AcDbLine
10
15.438085
20
-2.060935
30
0
11
16.05167
21
-2.062039
31
0
39
0
210
0
220
0
230
1
0
LINE
5
8F
100
AcDbEntity
8
1
62
256
6
ByLayer
370
18
48
1
60
0
100
AcDbLine
10
26.695022
20
-2.081197
30
0
11
27.303029
21
-2.082292
31
0
39
0
210
0
220
0
230
1
0
LINE
5
90
100
AcDbEntity
8
1
62
256
6
ByLayer
370
18
48
1
60
0
100
AcDbLine
10
27.303029
20
2.082292
30
0
11
26.695022
21
2.081197
31
0
39
0
210
0
220
0
230
1
0
LINE
5
91
100
AcDbEntity
8
1
62
256
6
ByLayer
370
18
48
1
60
0
100
AcDbLine
10
16.05167
20
2.062039
30
0
11
15.438085
21
2.060935
31
0
39
0
210
0
220
0
230
1
0
LINE
5
92
100
AcDbEntity
8
1
62
256
6
ByLayer
370
18
48
1
60
0
100
AcDbLine
10
5.471289
20
2.042995
30
0
11
1.533993
21
2.035907
31
0
39
0
210
0
220
0
230
1
0
LINE
5
93
100
AcDbEntity
8
81
62
256
6
ByLayer
370
18
48
1
60
0
100
AcDbLine
10
38
20
0
30
0
11
43
21
0
31
0
39
0
210
0
220
0
230
1
0
LINE
5
94
100
AcDbEntity
8
SK2
62
256
6
ByLayer
370
13
48
1
60
0
100
AcDbLine
10
-44.625163
20
32.117107
30
0
11
-44.625163
21
-11.75
31
0
39
0
210
0
220
0
230
1
0
LINE
5
96
100
AcDbEntity
8
SK2
62
256
6
ByLayer
370
13
48
1
60
0
100
AcDbLine
10
-37.5875
20
3
30
0
11
-46.625163
21
3
31
0
39
0
210
0
220
0
230
1
0
LINE
5
97
100
AcDbEntity
8
SK2
62
256
6
ByLayer
370
13
48
1
60
0
100
AcDbLine
10
-37.5875
20
-3
30
0
11
-46.625163
21
-3
31
0
39
0
210
0
220
0
230
1
0
LINE
5
98
100
AcDbEntity
8
1
62
256
6
ByLayer
370
18
48
1
60
1
100
AcDbLine
10
-44.625163
20
3
30
0
11
-45.085946
21
6.499998
31
0
39
0
210
0
220
0
230
1
0
LINE
5
99
100
AcDbEntity
8
1
62
256
6
ByLayer
370
18
48
1
60
1
100
AcDbLine
10
-45.085946
20
6.499998
30
0
11
-44.164379
21
6.500002
31
0
39
0
210
0
220
0
230
1
0
LINE
5
9A
100
AcDbEntity
8
1
62
256
6
ByLayer
370
18
48
1
60
1
100
AcDbLine
10
-44.164379
20
6.500002
30
0
11
-44.625163
21
3
31
0
39
0
210
0
220
0
230
1
0
LINE
5
9B
100
AcDbEntity
8
1
62
256
6
ByLayer
370
18
48
1
60
1
100
AcDbLine
10
-44.625163
20
-3
30
0
11
-44.164379
21
-6.499998
31
0
39
0
210
0
220
0
230
1
0
LINE
5
9C
100
AcDbEntity
8
1
62
256
6
ByLayer
370
18
48
1
60
1
100
AcDbLine
10
-44.164379
20
-6.499998
30
0
11
-45.085946
21
-6.500002
31
0
39
0
210
0
220
0
230
1
0
LINE
5
9D
100
AcDbEntity
8
1
62
256
6
ByLayer
370
18
48
1
60
1
100
AcDbLine
10
-45.085946
20
-6.500002
30
0
11
-44.625163
21
-3
31
0
39
0
210
0
220
0
230
1
0
LINE
5
9E
100
AcDbEntity
8
2
62
256
6
ByLayer
370
13
48
1
60
0
100
AcDbLine
10
50.083343
20
30.178727
30
0
11
50.083343
21
-10.85
31
0
39
0
210
0
220
0
230
1
0
LINE
5
A0
100
AcDbEntity
8
2
62
256
6
ByLayer
370
13
48
1
60
0
100
AcDbLine
10
38.7285
20
2.1
30
0
11
52.083343
21
2.1
31
0
39
0
210
0
220
0
230
1
0
LINE
5
A1
100
AcDbEntity
8
2
62
256
6
ByLayer
370
13
48
1
60
0
100
AcDbLine
10
38.7285
20
-2.1
30
0
11
52.083343
21
-2.1
31
0
39
0
210
0
220
0
230
1
0
LINE
5
A2
100
AcDbEntity
8
1
62
256
6
ByLayer
370
18
48
1
60
1
100
AcDbLine
10
50.083343
20
2.1
30
0
11
49.622559
21
5.599998
31
0
39
0
210
0
220
0
230
1
0
LINE
5
A3
100
AcDbEntity
8
1
62
256
6
ByLayer
370
18
48
1
60
1
100
AcDbLine
10
49.622559
20
5.599998
30
0
11
50.544126
21
5.600002
31
0
39
0
210
0
220
0
230
1
0
LINE
5
A4
100
AcDbEntity
8
1
62
256
6
ByLayer
370
18
48
1
60
1
100
AcDbLine
10
50.544126
20
5.600002
30
0
11
50.083343
21
2.1
31
0
39
0
210
0
220
0
230
1
0
LINE
5
A5
100
AcDbEntity
8
1
62
256
6
ByLayer
370
18
48
1
60
1
100
AcDbLine
10
50.083343
20
-2.1
30
0
11
50.544126
21
-5.599998
31
0
39
0
210
0
220
0
230
1
0
LINE
5
A6
100
AcDbEntity
8
1
62
256
6
ByLayer
370
18
48
1
60
1
100
AcDbLine
10
50.544126
20
-5.599998
30
0
11
49.622559
21
-5.600002
31
0
39
0
210
0
220
0
230
1
0
LINE
5
A7
100
AcDbEntity
8
1
62
256
6
ByLayer
370
18
48
1
60
1
100
AcDbLine
10
49.622559
20
-5.600002
30
0
11
50.083343
21
-2.1
31
0
39
0
210
0
220
0
230
1
0
LINE
5
100
100
AcDbEntity
8
1
62
256
6
ByLayer
370
18
48
1
60
1
100
AcDbLine
10
-44.625163
20
3
30
0
11
-45.085946
21
6.499998
31
0
39
0
210
0
220
0
230
1
0
LINE
5
101
100
AcDbEntity
8
1
62
256
6
ByLayer
370
18
48
1
60
1
100
AcDbLine
10
-45.085946
20
6.499998
30
0
11
-44.164379
21
6.500002
31
0
39
0
210
0
220
0
230
1
0
LINE
5
102
100
AcDbEntity
8
1
62
256
6
ByLayer
370
18
48
1
60
1
100
AcDbLine
10
-44.164379
20
6.500002
30
0
11
-44.625163
21
3
31
0
39
0
210
0
220
0
230
1
0
LINE
5
104
100
AcDbEntity
8
1
62
256
6
ByLayer
370
18
48
1
60
1
100
AcDbLine
10
-44.625163
20
-3
30
0
11
-44.164379
21
-6.499998
31
0
39
0
210
0
220
0
230
1
0
LINE
5
105
100
AcDbEntity
8
1
62
256
6
ByLayer
370
18
48
1
60
1
100
AcDbLine
10
-44.164379
20
-6.499998
30
0
11
-45.085946
21
-6.500002
31
0
39
0
210
0
220
0
230
1
0
LINE
5
106
100
AcDbEntity
8
1
62
256
6
ByLayer
370
18
48
1
60
1
100
AcDbLine
10
-45.085946
20
-6.500002
30
0
11
-44.625163
21
-3
31
0
39
0
210
0
220
0
230
1
0
LINE
5
10A
100
AcDbEntity
8
1
62
256
6
ByLayer
370
18
48
1
60
1
100
AcDbLine
10
50.083343
20
2.1
30
0
11
49.622559
21
5.599998
31
0
39
0
210
0
220
0
230
1
0
LINE
5
10B
100
AcDbEntity
8
1
62
256
6
ByLayer
370
18
48
1
60
1
100
AcDbLine
10
49.622559
20
5.599998
30
0
11
50.544126
21
5.600002
31
0
39
0
210
0
220
0
230
1
0
LINE
5
10C
100
AcDbEntity
8
1
62
256
6
ByLayer
370
18
48
1
60
1
100
AcDbLine
10
50.544126
20
5.600002
30
0
11
50.083343
21
2.1
31
0
39
0
210
0
220
0
230
1
0
LINE
5
10E
100
AcDbEntity
8
1
62
256
6
ByLayer
370
18
48
1
60
1
100
AcDbLine
10
50.083343
20
-2.1
30
0
11
50.544126
21
-5.599998
31
0
39
0
210
0
220
0
230
1
0
LINE
5
10F
100
AcDbEntity
8
1
62
256
6
ByLayer
370
18
48
1
60
1
100
AcDbLine
10
50.544126
20
-5.599998
30
0
11
49.622559
21
-5.600002
31
0
39
0
210
0
220
0
230
1
0
LINE
5
110
100
AcDbEntity
8
1
62
256
6
ByLayer
370
18
48
1
60
1
100
AcDbLine
10
49.622559
20
-5.600002
30
0
11
50.083343
21
-2.1
31
0
39
0
210
0
220
0
230
1
0
MTEXT
5
FA
100
AcDbEntity
8
SK6
62
256
6
ByLayer
370
13
48
1
60
0
100
AcDbMText
10
-27.730726
20
34.640328
30
0
210
0
220
0
230
1
1
\W0.7539;860.1-0420-027A0-PM P1BM
40
3.5
41
0
44
1.084337
50
0
71
7
72
5
7
iso_b_vert
0
MTEXT
5
FE
100
AcDbEntity
8
SK2
62
256
6
ByLayer
370
18
48
1
60
0
100
AcDbMText
10
-46.189796
20
16.409024
30
0
210
0
220
0
230
1
1
%%c
40
3.5
41
0
44
1.084337
50
90
71
7
72
5
7
iso_b_vert
0
MTEXT
5
FF
100
AcDbEntity
8
SK2
62
256
6
ByLayer
370
18
48
1
60
0
100
AcDbMText
10
-46.189796
20
21.63168
30
0
210
0
220
0
230
1
1
\W0.7317;6,000
40
3.5
41
0
44
1.084337
50
90
71
7
72
5
7
iso_b_vert
0
MTEXT
5
108
100
AcDbEntity
8
2
62
256
6
ByLayer
370
18
48
1
60
0
100
AcDbMText
10
48.518709
20
14.10211
30
0
210
0
220
0
230
1
1
%%c
40
3.5
41
0
44
1.084337
50
90
71
7
72
5
7
iso_b_vert
0
MTEXT
5
109
100
AcDbEntity
8
2
62
256
6
ByLayer
370
18
48
1
60
0
100
AcDbMText
10
48.518709
20
19.324766
30
0
210
0
220
0
230
1
1
\W0.7581;4,200
40
3.5
41
0
44
1.084337
50
90
71
7
72
5
7
iso_b_vert
0
HATCH
5
103
100
AcDbEntity
8
SK2
62
256
6
ByLayer
370
13
48
1
60
0
100
AcDbHatch
10
0
20
0
30
0
210
0
220
0
230
1
2
ANSI31
70
0
71
0
91
1
92
5
93
3
72
1
10
-44.6251625675374
20
3
11
-45.0859463090902
21
6.49999830744682
72
1
10
-45.0859463090902
20
6.49999830744682
11
-44.1643788259847
21
6.50000169255318
72
1
10
-44.1643788259847
20
6.50000169255318
11
-44.6251625675374
21
3
97
0
75
0
76
1
52
0
41
0.0062
77
0
78
1
53
45
43
0
44
0
45
-0.0139193969876572
46
0.0139193969876572
79
0
47
0
98
1
10
0
20
0
0
HATCH
5
107
100
AcDbEntity
8
SK2
62
256
6
ByLayer
370
13
48
1
60
0
100
AcDbHatch
10
0
20
0
30
0
210
0
220
0
230
1
2
ANSI31
70
0
71
0
91
1
92
5
93
3
72
1
10
-44.6251625675374
20
-3
11
-44.1643788259847
21
-6.49999830744682
72
1
10
-44.1643788259847
20
-6.49999830744682
11
-45.0859463090902
21
-6.50000169255318
72
1
10
-45.0859463090902
20
-6.50000169255318
11
-44.6251625675374
21
-3
97
0
75
0
76
1
52
0
41
0.0062
77
0
78
1
53
45
43
0
44
0
45
-0.0139193969876572
46
0.0139193969876572
79
0
47
0
98
1
10
0
20
0
0
HATCH
5
10D
100
AcDbEntity
8
2
62
256
6
ByLayer
370
13
48
1
60
0
100
AcDbHatch
10
0
20
0
30
0
210
0
220
0
230
1
2
ANSI31
70
0
71
0
91
1
92
5
93
3
72
1
10
50.083342615295
20
2.10000000000002
11
49.6225588737423
21
5.59999830744684
72
1
10
49.6225588737423
20
5.59999830744684
11
50.5441263568478
21
5.60000169255321
72
1
10
50.5441263568478
20
5.60000169255321
11
50.083342615295
21
2.10000000000002
97
0
75
0
76
1
52
0
41
0.0062
77
0
78
1
53
45
43
0
44
0
45
-0.0139193969876572
46
0.0139193969876572
79
0
47
0
98
1
10
0
20
0
0
HATCH
5
111
100
AcDbEntity
8
2
62
256
6
ByLayer
370
13
48
1
60
0
100
AcDbHatch
10
0
20
0
30
0
210
0
220
0
230
1
2
ANSI31
70
0
71
0
91
1
92
5
93
3
72
1
10
50.083342615295
20
-2.09999999999999
11
50.5441263568478
21
-5.59999830744681
72
1
10
50.5441263568478
20
-5.59999830744681
11
49.6225588737423
21
-5.60000169255318
72
1
10
49.6225588737423
20
-5.60000169255318
11
50.083342615295
21
-2.09999999999999
97
0
75
0
76
1
52
0
41
0.0062
77
0
78
1
53
45
43
0
44
0
45
-0.0139193969876572
46
0.0139193969876572
79
0
47
0
98
1
10
0
20
0
0
DIMENSION
5
113
100
AcDbEntity
8
2
62
256
6
ByLayer
370
13
48
1
60
0
100
AcDbDimension
2
_U0
10
37.141
20
-12.313398
30
0
11
18.5705
21
-12.313398
31
0
70
32
71
1
72
1
41
1
210
0
220
0
230
1
3
Standard
100
AcDbAlignedDimension
13
0
23
0
33
0
14
37.141
24
-2.1
34
0
50
0
100
AcDbRotatedDimension
1001
ACAD
1000
DSTYLE
1002
{
1070
   371
1070
    13
1070
   372
1070
    13
1070
   170
1070
     0
1070
   144
1040
1.0
1070
   277
1070
     2
1070
   278
1070
    44
1070
   146
1040
1.0
1070
   345
1005
16
1070
   347
1005
16
1070
   346
1005
16
1070
   344
1005
0
1070
   343
1005
0
1070
   172
1070
     1
1070
    76
1070
     0
1070
    75
1070
     0
1070
   282
1070
     0
1070
   281
1070
     0
1070
    71
1070
     0
1070
    74
1070
     0
1070
   279
1070
     0
1070
   173
1070
     1
1070
   340
1005
FB
1070
   271
1070
     2
1070
   272
1070
     2
1070
    77
1070
     1
1070
    73
1070
     1
1070
   171
1070
     3
1070
   274
1070
     4
1070
   177
1070
    35
1070
   176
1070
    35
1070
   178
1070
    35
1070
    48
1040
-0.1
1070
    41
1040
3.5
1070
   147
1040
1.75
1070
    42
1040
1.5875
1070
    44
1040
2.0
1070
   140
1040
3.5
1002
}
1001
ACAD_DSTYLE_DIM_LINETYPE
1070
   380
1005
16
1001
ACAD_DSTYLE_DIM_EXT1_LINETYPE
1070
   381
1005
16
1001
ACAD_DSTYLE_DIM_EXT2_LINETYPE
1070
   382
1005
16
0
DIMENSION
5
12C
100
AcDbEntity
8
SK2
62
256
6
ByLayer
370
13
48
1
60
0
100
AcDbDimension
2
_U1
10
38
20
-31.692985
30
0
11
1
21
-31.692985
31
0
70
32
71
1
72
1
41
1
210
0
220
0
230
1
3
Standard
100
AcDbAlignedDimension
13
-36
23
-3
33
0
14
38
24
0
34
0
50
0
100
AcDbRotatedDimension
1001
ACAD
1000
DSTYLE
1002
{
1070
   371
1070
    13
1070
   372
1070
    13
1070
   170
1070
     0
1070
   144
1040
1.0
1070
   277
1070
     2
1070
   278
1070
    44
1070
   146
1040
1.0
1070
   345
1005
16
1070
   347
1005
16
1070
   346
1005
16
1070
   344
1005
0
1070
   343
1005
0
1070
   172
1070
     1
1070
    76
1070
     0
1070
    75
1070
     0
1070
   282
1070
     0
1070
   281
1070
     0
1070
    71
1070
     0
1070
    74
1070
     0
1070
   279
1070
     0
1070
   173
1070
     1
1070
   340
1005
FB
1070
   271
1070
     2
1070
   272
1070
     2
1070
    77
1070
     1
1070
    73
1070
     1
1070
   171
1070
     3
1070
   274
1070
     4
1070
   177
1070
    35
1070
   176
1070
    35
1070
   178
1070
    35
1070
    48
1040
-0.1
1070
    41
1040
3.5
1070
   147
1040
1.75
1070
    42
1040
1.5875
1070
    44
1040
2.0
1070
   140
1040
3.5
1002
}
1001
ACAD_DSTYLE_DIM_LINETYPE
1070
   380
1005
16
1001
ACAD_DSTYLE_DIM_EXT1_LINETYPE
1070
   381
1005
16
1001
ACAD_DSTYLE_DIM_EXT2_LINETYPE
1070
   382
1005
16
0
DIMENSION
5
144
100
AcDbEntity
8
SK2
62
256
6
ByLayer
370
13
48
1
60
0
100
AcDbDimension
2
_U2
10
38
20
13.709119
30
0
11
27.07
21
13.709119
31
0
70
32
71
1
72
1
41
1
210
0
220
0
230
1
3
Standard
100
AcDbAlignedDimension
13
16.14
23
2.1
33
0
14
38
24
0
34
0
50
0
100
AcDbRotatedDimension
1001
ACAD
1000
DSTYLE
1002
{
1070
   371
1070
    13
1070
   372
1070
    13
1070
   170
1070
     0
1070
   144
1040
1.0
1070
   277
1070
     2
1070
   278
1070
    44
1070
   146
1040
1.0
1070
   345
1005
16
1070
   347
1005
16
1070
   346
1005
16
1070
   344
1005
0
1070
   343
1005
0
1070
   172
1070
     1
1070
    76
1070
     0
1070
    75
1070
     0
1070
   282
1070
     0
1070
   281
1070
     0
1070
    71
1070
     0
1070
    74
1070
     0
1070
   279
1070
     0
1070
   173
1070
     1
1070
   340
1005
FB
1070
   271
1070
     2
1070
   272
1070
     2
1070
    77
1070
     1
1070
    73
1070
     1
1070
   171
1070
     3
1070
   274
1070
     4
1070
   177
1070
    35
1070
   176
1070
    35
1070
   178
1070
    35
1070
    48
1040
-0.1
1070
    41
1040
3.5
1070
   147
1040
1.75
1070
    42
1040
1.5875
1070
    44
1040
2.0
1070
   140
1040
3.5
1002
}
1001
ACAD_DSTYLE_DIM_LINETYPE
1070
   380
1005
16
1001
ACAD_DSTYLE_DIM_EXT1_LINETYPE
1070
   381
1005
16
1001
ACAD_DSTYLE_DIM_EXT2_LINETYPE
1070
   382
1005
16
0
DIMENSION
5
15C
100
AcDbEntity
8
SK2
62
256
6
ByLayer
370
13
48
1
60
0
100
AcDbDimension
2
_U3
10
37.141
20
-14.902503
30
0
11
55.583333
21
-14.902503
31
0
70
32
71
1
72
1
41
1
210
0
220
0
230
1
3
Standard
100
AcDbAlignedDimension
13
38
23
0
33
0
14
37.141
24
-2.1
34
0
50
0
100
AcDbRotatedDimension
1001
ACAD
1000
DSTYLE
1002
{
1070
   371
1070
    13
1070
   372
1070
    13
1070
   170
1070
     0
1070
   144
1040
1.0
1070
   277
1070
     2
1070
   278
1070
    44
1070
   146
1040
1.0
1070
   345
1005
16
1070
   347
1005
16
1070
   346
1005
16
1070
   344
1005
0
1070
   343
1005
0
1070
   172
1070
     1
1070
    76
1070
     0
1070
    75
1070
     0
1070
   282
1070
     0
1070
   281
1070
     0
1070
    71
1070
     0
1070
    74
1070
     0
1070
   279
1070
     0
1070
   173
1070
     1
1070
   340
1005
FB
1070
   271
1070
     2
1070
   272
1070
     2
1070
    77
1070
     1
1070
    73
1070
     1
1070
   171
1070
     3
1070
   274
1070
     4
1070
   177
1070
    35
1070
   176
1070
    35
1070
   178
1070
    35
1070
    48
1040
-0.1
1070
    41
1040
3.5
1070
   147
1040
1.75
1070
    42
1040
1.5875
1070
    44
1040
2.0
1070
   140
1040
3.5
1002
}
1001
ACAD_DSTYLE_DIM_LINETYPE
1070
   380
1005
16
1001
ACAD_DSTYLE_DIM_EXT1_LINETYPE
1070
   381
1005
16
1001
ACAD_DSTYLE_DIM_EXT2_LINETYPE
1070
   382
1005
16
0
DIMENSION
5
176
100
AcDbEntity
8
SK2
62
256
6
ByLayer
370
13
48
1
60
0
100
AcDbDimension
2
_U4
10
37.141
20
-21.343428
30
0
11
0.5705
21
-21.343428
31
0
70
32
71
1
72
1
41
1
210
0
220
0
230
1
3
Standard
100
AcDbAlignedDimension
13
-36
23
-3
33
0
14
37.141
24
-2.1
34
0
50
0
100
AcDbRotatedDimension
1001
ACAD
1000
DSTYLE
1002
{
1070
   371
1070
    13
1070
   372
1070
    13
1070
   170
1070
     0
1070
   144
1040
1.0
1070
   277
1070
     2
1070
   278
1070
    44
1070
   146
1040
1.0
1070
   345
1005
16
1070
   347
1005
16
1070
   346
1005
16
1070
   344
1005
0
1070
   343
1005
0
1070
   172
1070
     1
1070
    76
1070
     0
1070
    75
1070
     0
1070
   282
1070
     0
1070
   281
1070
     0
1070
    71
1070
     0
1070
    74
1070
     0
1070
   279
1070
     0
1070
   173
1070
     1
1070
   340
1005
FB
1070
   271
1070
     2
1070
   272
1070
     2
1070
    77
1070
     1
1070
    73
1070
     1
1070
   171
1070
     3
1070
   274
1070
     4
1070
   177
1070
    35
1070
   176
1070
    35
1070
   178
1070
    35
1070
    48
1040
-0.1
1070
    41
1040
3.5
1070
   147
1040
1.75
1070
    42
1040
1.5875
1070
    44
1040
2.0
1070
   140
1040
3.5
1002
}
1001
ACAD_DSTYLE_DIM_LINETYPE
1070
   380
1005
16
1001
ACAD_DSTYLE_DIM_EXT1_LINETYPE
1070
   381
1005
16
1001
ACAD_DSTYLE_DIM_EXT2_LINETYPE
1070
   382
1005
16
0
ENDSEC
0
SECTION
2
OBJECTS
0
DICTIONARY
5
1fe
330
0
100
AcDbDictionary
280
0
281
1
3
ACAD_GROUP
350
1ff
3
ACAD_MLINESTYLE
350
200
0
DICTIONARY
5
1ff
330
0
100
AcDbDictionary
280
0
281
1
0
DICTIONARY
5
200
330
0
100
AcDbDictionary
280
0
281
1
3
Standard
350
18
0
MLINESTYLE
5
18
330
200
100
AcDbMlineStyle
2
Standard
70
0
3

62
256
51
90
52
90
71
2
49
-0.5
62
256
6
ByLayer
49
0.5
62
256
6
ByLayer
0
RASTERVARIABLES
5
1ec
330

100
AcDbRasterVariables
90
0
70
1
71
1
72
1
0
ENDSEC
0
EOF
