0
SECTION
2
HEADER
9
$ACADVER
1
AC1015
9
$DWGCODEPAGE
3
ANSI_1252
9
$HANDSEED
5
209
9
$ANGBASE
50
0
9
$ANGDIR
70
0
9
$ATTMODE
70
1
9
$AUNITS
70
0
9
$AUPREC
70
0
9
$CECOLOR
62
256
9
$CELTSCALE
40
1
9
$CELTYPE
6
ByLayer
9
$CELWEIGHT
370
18
9
$CLAYER
8
0
9
$CMLJUST
70
0
9
$CMLSCALE
40
1
9
$CMLSTYLE
2
Standard
9
$DIMSTYLE
2
Standard
9
$TEXTSIZE
40
0.2
9
$TEXTSTYLE
7
Standard
9
$LUNITS
70
2
9
$LUPREC
70
4
9
$EXTNAMES
290
1
9
$INSUNITS
70
4
9
$LTSCALE
40
1
9
$LWDISPLAY
290
1
9
$PDMODE
70
0
9
$PDSIZE
40
0
9
$PLINEGEN
70
0
0
ENDSEC
0
SECTION
2
CLASSES
0
CLASS
1
RASTERVARIABLES
2
AcDbRasterVariables
3
ISM
90
0
280
0
281
0
0
ENDSEC
0
SECTION
2
TABLES
0
TABLE
2
VPORT
5
1ff
100
AcDbSymbolTable
0
VPORT
5
1
100
AcDbSymbolTableRecord
100
AcDbViewportTableRecord
2
*Active
70
0
10
0
20
0
11
1
21
1
12
-1
22
1
13
0
23
0
14
0.5
24
0.5
15
10
25
10
16
0
26
0
36
1
17
0
27
0
37
0
0
ENDTAB
0
TABLE
2
LTYPE
5
200
100
AcDbSymbolTable
0
LTYPE
5
14
100
AcDbSymbolTableRecord
100
AcDbLinetypeTableRecord
70
0
2
ByBlock
3

72
65
73
0
40
0
0
LTYPE
5
15
100
AcDbSymbolTableRecord
100
AcDbLinetypeTableRecord
70
0
2
ByLayer
3

72
65
73
0
40
0
0
LTYPE
5
16
100
AcDbSymbolTableRecord
100
AcDbLinetypeTableRecord
70
0
2
Continuous
3
Solid line
72
65
73
0
40
0
0
LTYPE
5
6E
100
AcDbSymbolTableRecord
100
AcDbLinetypeTableRecord
70
0
2
CENTER
3
____ _ ____ _ ____ _ ____
72
65
73
4
40
47.5
49
22
74
0
49
-8.5
74
0
49
8.5
74
0
49
-8.5
74
0
0
LTYPE
5
6F
100
AcDbSymbolTableRecord
100
AcDbLinetypeTableRecord
70
0
2
DASHED
3
__ __ __ __ __ __ __ __ __
72
65
73
2
40
25.72
49
12.86
74
0
49
-12.86
74
0
0
ENDTAB
0
TABLE
2
LAYER
5
201
100
AcDbSymbolTable
0
LAYER
5
10
100
AcDbSymbolTableRecord
100
AcDbLayerTableRecord
2
0
70
0
62
7
6
Continuous
290
1
370
-3
390
0
0
LAYER
5
71
100
AcDbSymbolTableRecord
100
AcDbLayerTableRecord
2
80
70
0
62
-6
6
Continuous
290
1
370
-3
390
0
0
LAYER
5
73
100
AcDbSymbolTableRecord
100
AcDbLayerTableRecord
2
81
70
0
62
-3
6
Continuous
290
1
370
-3
390
0
0
LAYER
5
75
100
AcDbSymbolTableRecord
100
AcDbLayerTableRecord
2
1
70
0
62
4
6
Continuous
290
1
370
-3
390
0
0
LAYER
5
86
100
AcDbSymbolTableRecord
100
AcDbLayerTableRecord
2
4
70
0
62
-2
6
CENTER
290
1
370
-3
390
0
0
LAYER
5
9F
100
AcDbSymbolTableRecord
100
AcDbLayerTableRecord
2
2
70
0
62
7
6
Continuous
290
1
370
-3
390
0
0
LAYER
5
114
100
AcDbSymbolTableRecord
100
AcDbLayerTableRecord
2
Defpoints
70
0
62
7
6
Continuous
290
0
370
-3
390
0
0
LAYER
5
1eb
100
AcDbSymbolTableRecord
100
AcDbLayerTableRecord
2
SK1
70
0
62
4
6
Continuous
290
1
370
-3
390
0
0
LAYER
5
1ec
100
AcDbSymbolTableRecord
100
AcDbLayerTableRecord
2
SK4
70
0
62
2
6
CENTER
290
1
370
-3
390
0
0
LAYER
5
1ed
100
AcDbSymbolTableRecord
100
AcDbLayerTableRecord
2
SK2
70
0
62
7
6
Continuous
290
1
370
-3
390
0
0
LAYER
5
1ee
100
AcDbSymbolTableRecord
100
AcDbLayerTableRecord
2
SK6
70
0
62
5
6
Continuous
290
1
370
-3
390
0
0
ENDTAB
0
TABLE
2
STYLE
5
202
100
AcDbSymbolTable
0
STYLE
5
11
100
AcDbSymbolTableRecord
100
AcDbTextStyleTableRecord
2
Standard
3
txt
70
0
71
0
40
0
41
1
42
0
50
0
0
STYLE
5
F9
100
AcDbSymbolTableRecord
100
AcDbTextStyleTableRecord
2
iso_b_vert
3
simplex.shx
70
0
71
0
40
0
41
1
42
0
50
0
0
STYLE
5
FA
100
AcDbSymbolTableRecord
100
AcDbTextStyleTableRecord
2
DWGDirectTextStyle
3
simplex
70
0
71
0
40
0
41
1
42
0
50
0
0
ENDTAB
0
TABLE
2
DIMSTYLE
5
203
100
AcDbSymbolTable
100
AcDbDimStyleTable
0
DIMSTYLE
105
27
100
AcDbSymbolTableRecord
100
AcDbDimStyleTableRecord
2
Standard
70
0
3
<>
41
0.18
42
0.0625
44
0.18
140
0.18
147
0.09
73
0
74
0
77
1
271
2
275
0
278
52
280
0
340
11
0
ENDTAB
0
TABLE
2
VIEW
5
204
100
AcDbSymbolTable
0
ENDTAB
0
TABLE
2
UCS
5
205
100
AcDbSymbolTable
0
ENDTAB
0
TABLE
2
APPID
5
206
100
AcDbSymbolTable
0
APPID
5
12
100
AcDbSymbolTableRecord
100
AcDbRegAppTableRecord
2
ACAD
70
0
0
APPID
5
110
100
AcDbSymbolTableRecord
100
AcDbRegAppTableRecord
2
ACAD_DSTYLE_DIMBREAK
70
0
0
APPID
5
1AA
100
AcDbSymbolTableRecord
100
AcDbRegAppTableRecord
2
ACAD_DSTYLE_DIM_LINETYPE
70
0
0
APPID
5
1AB
100
AcDbSymbolTableRecord
100
AcDbRegAppTableRecord
2
ACAD_DSTYLE_DIM_EXT1_LINETYPE
70
0
0
APPID
5
1AC
100
AcDbSymbolTableRecord
100
AcDbRegAppTableRecord
2
ACAD_DSTYLE_DIM_EXT2_LINETYPE
70
0
0
APPID
5
1E7
100
AcDbSymbolTableRecord
100
AcDbRegAppTableRecord
2
ACAD_MLEADERVER
70
0
0
ENDTAB
0
TABLE
2
BLOCK_RECORD
5
207
100
AcDbSymbolTable
0
BLOCK_RECORD
5
1F
100
AcDbSymbolTableRecord
100
AcDbBlockTableRecord
2
*Model_Space
340
0
70
0
0
BLOCK_RECORD
5
1B
100
AcDbSymbolTableRecord
100
AcDbBlockTableRecord
2
*Paper_Space
340
0
70
0
0
BLOCK_RECORD
5
23
100
AcDbSymbolTableRecord
100
AcDbBlockTableRecord
2
*Paper_Space0
340
0
70
0
0
BLOCK_RECORD
5
115
100
AcDbSymbolTableRecord
100
AcDbBlockTableRecord
2
*D1
340
0
70
0
0
BLOCK_RECORD
5
121
100
AcDbSymbolTableRecord
100
AcDbBlockTableRecord
2
_U0
340
0
70
0
0
BLOCK_RECORD
5
12D
100
AcDbSymbolTableRecord
100
AcDbBlockTableRecord
2
*D3
340
0
70
0
0
BLOCK_RECORD
5
139
100
AcDbSymbolTableRecord
100
AcDbBlockTableRecord
2
_U1
340
0
70
0
0
BLOCK_RECORD
5
145
100
AcDbSymbolTableRecord
100
AcDbBlockTableRecord
2
*D5
340
0
70
0
0
BLOCK_RECORD
5
151
100
AcDbSymbolTableRecord
100
AcDbBlockTableRecord
2
_U2
340
0
70
0
0
BLOCK_RECORD
5
15D
100
AcDbSymbolTableRecord
100
AcDbBlockTableRecord
2
*D7
340
0
70
0
0
BLOCK_RECORD
5
16B
100
AcDbSymbolTableRecord
100
AcDbBlockTableRecord
2
_U3
340
0
70
0
0
BLOCK_RECORD
5
177
100
AcDbSymbolTableRecord
100
AcDbBlockTableRecord
2
*D9
340
0
70
0
0
BLOCK_RECORD
5
183
100
AcDbSymbolTableRecord
100
AcDbBlockTableRecord
2
_U4
340
0
70
0
0
ENDTAB
0
ENDSEC
0
SECTION
2
BLOCKS
0
BLOCK
5
20
100
AcDbEntity
8
0
100
AcDbBlockBegin
2
*Model_Space
70
0
10
0
20
0
30
0
3
*Model_Space
0
ENDBLK
5
21
100
AcDbEntity
8
0
100
AcDbBlockEnd
0
BLOCK
5
1C
100
AcDbEntity
8
0
100
AcDbBlockBegin
2
*Paper_Space
70
0
10
0
20
0
30
0
3
*Paper_Space
0
ENDBLK
5
1D
100
AcDbEntity
8
0
100
AcDbBlockEnd
0
BLOCK
5
24
100
AcDbEntity
8
0
100
AcDbBlockBegin
2
*Paper_Space0
70
0
10
0
20
0
30
0
3
*Paper_Space0
0
ENDBLK
5
25
100
AcDbEntity
8
0
100
AcDbBlockEnd
0
BLOCK
5
116
100
AcDbEntity
8
0
100
AcDbBlockBegin
2
*D1
70
1
10
0
20
0
30
0
3
*D1
0
LINE
5
118
100
AcDbEntity
8
0
62
256
6
ByLayer
370
-2
48
1
60
0
100
AcDbLine
10
0
20
-1.5875
30
0
11
0
21
-14.213398
31
0
39
0
210
0
220
0
230
1
0
LINE
5
119
100
AcDbEntity
8
0
62
256
6
ByLayer
370
-2
48
1
60
0
100
AcDbLine
10
37.1797
20
-3.5875
30
0
11
37.1797
21
-14.213398
31
0
39
0
210
0
220
0
230
1
0
LINE
5
11A
100
AcDbEntity
8
0
62
256
6
ByLayer
370
-2
48
1
60
0
100
AcDbLine
10
3.5
20
-12.213398
30
0
11
33.6797
21
-12.213398
31
0
39
0
210
0
220
0
230
1
0
SOLID
5
11B
100
AcDbEntity
8
0
62
256
6
ByLayer
370
-1
48
1
60
0
100
AcDbTrace
10
3.5
20
-11.630065
30
0
11
3.5
21
-12.796732
31
0
12
0
22
-12.213398
32
0
13
0
23
-12.213398
33
0
39
0
210
0
220
0
230
1
0
SOLID
5
11C
100
AcDbEntity
8
0
62
256
6
ByLayer
370
-1
48
1
60
0
100
AcDbTrace
10
33.6797
20
-12.796732
30
0
11
33.6797
21
-11.630065
31
0
12
37.1797
22
-12.213398
32
0
13
37.1797
23
-12.213398
33
0
39
0
210
0
220
0
230
1
0
MTEXT
5
11D
100
AcDbEntity
8
0
62
256
6
ByLayer
370
18
48
1
60
0
100
AcDbMText
10
18.58985
20
-5.213398
30
0
210
0
220
0
230
1
1
\A1;37.18
40
3.5
41
0
44
1
50
0
71
5
72
5
7
iso_b_vert
0
POINT
5
11E
100
AcDbEntity
8
Defpoints
62
0
6
ByLayer
370
-1
48
1
60
0
100
AcDbPoint
10
0
20
0
30
0
39
0
210
0
220
0
230
1
50
360
0
POINT
5
11F
100
AcDbEntity
8
Defpoints
62
0
6
ByLayer
370
-1
48
1
60
0
100
AcDbPoint
10
37.1797
20
-2
30
0
39
0
210
0
220
0
230
1
50
360
0
POINT
5
120
100
AcDbEntity
8
Defpoints
62
0
6
ByLayer
370
-1
48
1
60
0
100
AcDbPoint
10
37.1797
20
-12.213398
30
0
39
0
210
0
220
0
230
1
50
360
0
ENDBLK
5
117
100
AcDbEntity
8
0
100
AcDbBlockEnd
0
BLOCK
5
128
100
AcDbEntity
8
0
100
AcDbBlockBegin
2
_U0
70
0
10
0
20
0
30
0
3
_U0
0
MTEXT
5
122
100
AcDbEntity
8
2
62
256
6
ByLayer
370
13
48
1
60
0
100
AcDbMText
10
13.889985
20
-11.180765
30
0
210
0
220
0
230
1
1
\W0.6713;37,18
40
3.5
41
0
44
1.084337
50
0
71
7
72
5
7
iso_b_vert
0
LINE
5
123
100
AcDbEntity
8
2
62
256
6
ByLayer
370
13
48
1
60
0
100
AcDbLine
10
0
20
-1.5875
30
0
11
0
21
-14.213398
31
0
39
0
210
0
220
0
230
1
0
LINE
5
124
100
AcDbEntity
8
2
62
256
6
ByLayer
370
13
48
1
60
0
100
AcDbLine
10
37.1797
20
-3.5875
30
0
11
37.1797
21
-14.213398
31
0
39
0
210
0
220
0
230
1
0
LINE
5
125
100
AcDbEntity
8
2
62
256
6
ByLayer
370
13
48
1
60
0
100
AcDbLine
10
0
20
-12.213398
30
0
11
37.1797
21
-12.213398
31
0
39
0
210
0
220
0
230
1
0
SOLID
5
126
100
AcDbEntity
8
2
62
256
6
ByLayer
370
18
48
1
60
0
100
AcDbTrace
10
0
20
-12.213398
30
0
11
3.499998
21
-11.752615
31
0
12
3.500002
22
-12.674182
32
0
13
3.500002
23
-12.674182
33
0
39
0
210
0
220
0
230
1
0
SOLID
5
127
100
AcDbEntity
8
2
62
256
6
ByLayer
370
18
48
1
60
0
100
AcDbTrace
10
37.1797
20
-12.213398
30
0
11
33.679702
21
-12.674182
31
0
12
33.679698
22
-11.752615
32
0
13
33.679698
23
-11.752615
33
0
39
0
210
0
220
0
230
1
0
ENDBLK
5
129
100
AcDbEntity
8
0
100
AcDbBlockEnd
0
BLOCK
5
12E
100
AcDbEntity
8
0
100
AcDbBlockBegin
2
*D3
70
1
10
0
20
0
30
0
3
*D3
0
LINE
5
130
100
AcDbEntity
8
0
62
256
6
ByLayer
370
-2
48
1
60
0
100
AcDbLine
10
-36
20
-4.5875
30
0
11
-36
21
-33.692985
31
0
39
0
210
0
220
0
230
1
0
LINE
5
131
100
AcDbEntity
8
0
62
256
6
ByLayer
370
-2
48
1
60
0
100
AcDbLine
10
38
20
-1.5875
30
0
11
38
21
-33.692985
31
0
39
0
210
0
220
0
230
1
0
LINE
5
132
100
AcDbEntity
8
0
62
256
6
ByLayer
370
-2
48
1
60
0
100
AcDbLine
10
-32.5
20
-31.692985
30
0
11
34.5
21
-31.692985
31
0
39
0
210
0
220
0
230
1
0
SOLID
5
133
100
AcDbEntity
8
0
62
256
6
ByLayer
370
-1
48
1
60
0
100
AcDbTrace
10
-32.5
20
-31.109652
30
0
11
-32.5
21
-32.276319
31
0
12
-36
22
-31.692985
32
0
13
-36
23
-31.692985
33
0
39
0
210
0
220
0
230
1
0
SOLID
5
134
100
AcDbEntity
8
0
62
256
6
ByLayer
370
-1
48
1
60
0
100
AcDbTrace
10
34.5
20
-32.276319
30
0
11
34.5
21
-31.109652
31
0
12
38
22
-31.692985
32
0
13
38
23
-31.692985
33
0
39
0
210
0
220
0
230
1
0
MTEXT
5
135
100
AcDbEntity
8
0
62
256
6
ByLayer
370
18
48
1
60
0
100
AcDbMText
10
1
20
-24.692985
30
0
210
0
220
0
230
1
1
\A1;74.00
40
3.5
41
0
44
1
50
0
71
5
72
5
7
iso_b_vert
0
POINT
5
136
100
AcDbEntity
8
Defpoints
62
0
6
ByLayer
370
-1
48
1
60
0
100
AcDbPoint
10
-36
20
-3
30
0
39
0
210
0
220
0
230
1
50
360
0
POINT
5
137
100
AcDbEntity
8
Defpoints
62
0
6
ByLayer
370
-1
48
1
60
0
100
AcDbPoint
10
38
20
0
30
0
39
0
210
0
220
0
230
1
50
360
0
POINT
5
138
100
AcDbEntity
8
Defpoints
62
0
6
ByLayer
370
-1
48
1
60
0
100
AcDbPoint
10
38
20
-31.692985
30
0
39
0
210
0
220
0
230
1
50
360
0
ENDBLK
5
12F
100
AcDbEntity
8
0
100
AcDbBlockEnd
0
BLOCK
5
140
100
AcDbEntity
8
0
100
AcDbBlockBegin
2
_U1
70
0
10
0
20
0
30
0
3
_U1
0
MTEXT
5
13A
100
AcDbEntity
8
SK2
62
256
6
ByLayer
370
13
48
1
60
0
100
AcDbMText
10
-4.321565
20
-30.660352
30
0
210
0
220
0
230
1
1
\W0.7581;74,00
40
3.5
41
0
44
1.084337
50
0
71
7
72
5
7
iso_b_vert
0
LINE
5
13B
100
AcDbEntity
8
SK2
62
256
6
ByLayer
370
13
48
1
60
0
100
AcDbLine
10
-36
20
-4.5875
30
0
11
-36
21
-33.692985
31
0
39
0
210
0
220
0
230
1
0
LINE
5
13C
100
AcDbEntity
8
SK2
62
256
6
ByLayer
370
13
48
1
60
0
100
AcDbLine
10
38
20
-1.5875
30
0
11
38
21
-33.692985
31
0
39
0
210
0
220
0
230
1
0
LINE
5
13D
100
AcDbEntity
8
SK2
62
256
6
ByLayer
370
13
48
1
60
0
100
AcDbLine
10
-36
20
-31.692985
30
0
11
38
21
-31.692985
31
0
39
0
210
0
220
0
230
1
0
SOLID
5
13E
100
AcDbEntity
8
SK2
62
256
6
ByLayer
370
18
48
1
60
0
100
AcDbTrace
10
-36
20
-31.692985
30
0
11
-32.500002
21
-31.232202
31
0
12
-32.499998
22
-32.153769
32
0
13
-32.499998
23
-32.153769
33
0
39
0
210
0
220
0
230
1
0
SOLID
5
13F
100
AcDbEntity
8
SK2
62
256
6
ByLayer
370
18
48
1
60
0
100
AcDbTrace
10
38
20
-31.692985
30
0
11
34.500002
21
-32.153769
31
0
12
34.499998
22
-31.232202
32
0
13
34.499998
23
-31.232202
33
0
39
0
210
0
220
0
230
1
0
ENDBLK
5
141
100
AcDbEntity
8
0
100
AcDbBlockEnd
0
BLOCK
5
146
100
AcDbEntity
8
0
100
AcDbBlockBegin
2
*D5
70
1
10
0
20
0
30
0
3
*D5
0
LINE
5
148
100
AcDbEntity
8
0
62
256
6
ByLayer
370
-2
48
1
60
0
100
AcDbLine
10
17.18
20
3.5875
30
0
11
17.18
21
15.609119
31
0
39
0
210
0
220
0
230
1
0
LINE
5
149
100
AcDbEntity
8
0
62
256
6
ByLayer
370
-2
48
1
60
0
100
AcDbLine
10
38
20
1.5875
30
0
11
38
21
15.609119
31
0
39
0
210
0
220
0
230
1
0
LINE
5
14A
100
AcDbEntity
8
0
62
256
6
ByLayer
370
-2
48
1
60
0
100
AcDbLine
10
20.68
20
13.609119
30
0
11
34.5
21
13.609119
31
0
39
0
210
0
220
0
230
1
0
SOLID
5
14B
100
AcDbEntity
8
0
62
256
6
ByLayer
370
-1
48
1
60
0
100
AcDbTrace
10
20.68
20
14.192453
30
0
11
20.68
21
13.025786
31
0
12
17.18
22
13.609119
32
0
13
17.18
23
13.609119
33
0
39
0
210
0
220
0
230
1
0
SOLID
5
14C
100
AcDbEntity
8
0
62
256
6
ByLayer
370
-1
48
1
60
0
100
AcDbTrace
10
34.5
20
13.025786
30
0
11
34.5
21
14.192453
31
0
12
38
22
13.609119
32
0
13
38
23
13.609119
33
0
39
0
210
0
220
0
230
1
0
MTEXT
5
14D
100
AcDbEntity
8
0
62
256
6
ByLayer
370
18
48
1
60
0
100
AcDbMText
10
27.59
20
20.609119
30
0
210
0
220
0
230
1
1
\A1;20.82
40
3.5
41
0
44
1
50
0
71
5
72
5
7
iso_b_vert
0
POINT
5
14E
100
AcDbEntity
8
Defpoints
62
0
6
ByLayer
370
-1
48
1
60
0
100
AcDbPoint
10
17.18
20
2
30
0
39
0
210
0
220
0
230
1
50
360
0
POINT
5
14F
100
AcDbEntity
8
Defpoints
62
0
6
ByLayer
370
-1
48
1
60
0
100
AcDbPoint
10
38
20
0
30
0
39
0
210
0
220
0
230
1
50
360
0
POINT
5
150
100
AcDbEntity
8
Defpoints
62
0
6
ByLayer
370
-1
48
1
60
0
100
AcDbPoint
10
38
20
13.609119
30
0
39
0
210
0
220
0
230
1
50
360
0
ENDBLK
5
147
100
AcDbEntity
8
0
100
AcDbBlockEnd
0
BLOCK
5
158
100
AcDbEntity
8
0
100
AcDbBlockBegin
2
_U2
70
0
10
0
20
0
30
0
3
_U2
0
MTEXT
5
152
100
AcDbEntity
8
SK2
62
256
6
ByLayer
370
13
48
1
60
0
100
AcDbMText
10
22.452701
20
14.641753
30
0
210
0
220
0
230
1
1
\W0.7317;20,82
40
3.5
41
0
44
1.084337
50
0
71
7
72
5
7
iso_b_vert
0
LINE
5
153
100
AcDbEntity
8
SK2
62
256
6
ByLayer
370
13
48
1
60
0
100
AcDbLine
10
17.18
20
3.5875
30
0
11
17.18
21
15.609119
31
0
39
0
210
0
220
0
230
1
0
LINE
5
154
100
AcDbEntity
8
SK2
62
256
6
ByLayer
370
13
48
1
60
0
100
AcDbLine
10
38
20
1.5875
30
0
11
38
21
15.609119
31
0
39
0
210
0
220
0
230
1
0
LINE
5
155
100
AcDbEntity
8
SK2
62
256
6
ByLayer
370
13
48
1
60
0
100
AcDbLine
10
17.18
20
13.609119
30
0
11
38
21
13.609119
31
0
39
0
210
0
220
0
230
1
0
SOLID
5
156
100
AcDbEntity
8
SK2
62
256
6
ByLayer
370
18
48
1
60
0
100
AcDbTrace
10
17.18
20
13.609119
30
0
11
20.679998
21
14.069903
31
0
12
20.680002
22
13.148335
32
0
13
20.680002
23
13.148335
33
0
39
0
210
0
220
0
230
1
0
SOLID
5
157
100
AcDbEntity
8
SK2
62
256
6
ByLayer
370
18
48
1
60
0
100
AcDbTrace
10
38
20
13.609119
30
0
11
34.500002
21
13.148335
31
0
12
34.499998
22
14.069903
32
0
13
34.499998
23
14.069903
33
0
39
0
210
0
220
0
230
1
0
ENDBLK
5
159
100
AcDbEntity
8
0
100
AcDbBlockEnd
0
BLOCK
5
15E
100
AcDbEntity
8
0
100
AcDbBlockBegin
2
*D7
70
1
10
0
20
0
30
0
3
*D7
0
LINE
5
160
100
AcDbEntity
8
0
62
256
6
ByLayer
370
-2
48
1
60
0
100
AcDbLine
10
38
20
-1.5875
30
0
11
38
21
-16.802503
31
0
39
0
210
0
220
0
230
1
0
LINE
5
161
100
AcDbEntity
8
0
62
256
6
ByLayer
370
-2
48
1
60
0
100
AcDbLine
10
37.1797
20
-3.5875
30
0
11
37.1797
21
-16.802503
31
0
39
0
210
0
220
0
230
1
0
LINE
5
162
100
AcDbEntity
8
0
62
256
6
ByLayer
370
-2
48
1
60
0
100
AcDbLine
10
38
20
-14.802503
30
0
11
66.166667
21
-14.802503
31
0
39
0
210
0
220
0
230
1
0
LINE
5
163
100
AcDbEntity
8
0
62
256
6
ByLayer
370
-2
48
1
60
0
100
AcDbLine
10
41.5
20
-14.802503
30
0
11
45
21
-14.802503
31
0
39
0
210
0
220
0
230
1
0
LINE
5
164
100
AcDbEntity
8
0
62
256
6
ByLayer
370
-2
48
1
60
0
100
AcDbLine
10
33.6797
20
-14.802503
30
0
11
30.1797
21
-14.802503
31
0
39
0
210
0
220
0
230
1
0
SOLID
5
165
100
AcDbEntity
8
0
62
256
6
ByLayer
370
-1
48
1
60
0
100
AcDbTrace
10
41.5
20
-14.21917
30
0
11
41.5
21
-15.385837
31
0
12
38
22
-14.802503
32
0
13
38
23
-14.802503
33
0
39
0
210
0
220
0
230
1
0
SOLID
5
166
100
AcDbEntity
8
0
62
256
6
ByLayer
370
-1
48
1
60
0
100
AcDbTrace
10
33.6797
20
-15.385837
30
0
11
33.6797
21
-14.21917
31
0
12
37.1797
22
-14.802503
32
0
13
37.1797
23
-14.802503
33
0
39
0
210
0
220
0
230
1
0
MTEXT
5
167
100
AcDbEntity
8
0
62
256
6
ByLayer
370
18
48
1
60
0
100
AcDbMText
10
55.583333
20
-7.802503
30
0
210
0
220
0
230
1
1
\A1;0.82
40
3.5
41
0
44
1
50
0
71
5
72
5
7
iso_b_vert
0
POINT
5
168
100
AcDbEntity
8
Defpoints
62
0
6
ByLayer
370
-1
48
1
60
0
100
AcDbPoint
10
38
20
0
30
0
39
0
210
0
220
0
230
1
50
360
0
POINT
5
169
100
AcDbEntity
8
Defpoints
62
0
6
ByLayer
370
-1
48
1
60
0
100
AcDbPoint
10
37.1797
20
-2
30
0
39
0
210
0
220
0
230
1
50
360
0
POINT
5
16A
100
AcDbEntity
8
Defpoints
62
0
6
ByLayer
370
-1
48
1
60
0
100
AcDbPoint
10
37.1797
20
-14.802503
30
0
39
0
210
0
220
0
230
1
50
360
0
ENDBLK
5
15F
100
AcDbEntity
8
0
100
AcDbBlockEnd
0
BLOCK
5
172
100
AcDbEntity
8
0
100
AcDbBlockBegin
2
_U3
70
0
10
0
20
0
30
0
3
_U3
0
MTEXT
5
16C
100
AcDbEntity
8
SK2
62
256
6
ByLayer
370
13
48
1
60
0
100
AcDbMText
10
44.15186
20
-13.76987
30
0
210
0
220
0
230
1
1
\W0.7150;0,82
40
3.5
41
0
44
1.084337
50
0
71
7
72
5
7
iso_b_vert
0
LINE
5
16D
100
AcDbEntity
8
SK2
62
256
6
ByLayer
370
13
48
1
60
0
100
AcDbLine
10
38
20
-1.5875
30
0
11
38
21
-16.802503
31
0
39
0
210
0
220
0
230
1
0
LINE
5
16E
100
AcDbEntity
8
SK2
62
256
6
ByLayer
370
13
48
1
60
0
100
AcDbLine
10
37.1797
20
-3.5875
30
0
11
37.1797
21
-16.802503
31
0
39
0
210
0
220
0
230
1
0
LINE
5
16F
100
AcDbEntity
8
SK2
62
256
6
ByLayer
370
13
48
1
60
0
100
AcDbLine
10
28.4297
20
-14.802503
30
0
11
51.996491
21
-14.802503
31
0
39
0
210
0
220
0
230
1
0
SOLID
5
170
100
AcDbEntity
8
SK2
62
256
6
ByLayer
370
18
48
1
60
0
100
AcDbTrace
10
38
20
-14.802503
30
0
11
41.499998
21
-14.341719
31
0
12
41.500002
22
-15.263287
32
0
13
41.500002
23
-15.263287
33
0
39
0
210
0
220
0
230
1
0
SOLID
5
171
100
AcDbEntity
8
SK2
62
256
6
ByLayer
370
18
48
1
60
0
100
AcDbTrace
10
37.1797
20
-14.802503
30
0
11
33.679702
21
-15.263287
31
0
12
33.679698
22
-14.341719
32
0
13
33.679698
23
-14.341719
33
0
39
0
210
0
220
0
230
1
0
ENDBLK
5
173
100
AcDbEntity
8
0
100
AcDbBlockEnd
0
BLOCK
5
178
100
AcDbEntity
8
0
100
AcDbBlockBegin
2
*D9
70
1
10
0
20
0
30
0
3
*D9
0
LINE
5
17A
100
AcDbEntity
8
0
62
256
6
ByLayer
370
-2
48
1
60
0
100
AcDbLine
10
-36
20
-4.5875
30
0
11
-36
21
-23.343428
31
0
39
0
210
0
220
0
230
1
0
LINE
5
17B
100
AcDbEntity
8
0
62
256
6
ByLayer
370
-2
48
1
60
0
100
AcDbLine
10
37.1797
20
-3.5875
30
0
11
37.1797
21
-23.343428
31
0
39
0
210
0
220
0
230
1
0
LINE
5
17C
100
AcDbEntity
8
0
62
256
6
ByLayer
370
-2
48
1
60
0
100
AcDbLine
10
-32.5
20
-21.343428
30
0
11
33.6797
21
-21.343428
31
0
39
0
210
0
220
0
230
1
0
SOLID
5
17D
100
AcDbEntity
8
0
62
256
6
ByLayer
370
-1
48
1
60
0
100
AcDbTrace
10
-32.5
20
-20.760095
30
0
11
-32.5
21
-21.926762
31
0
12
-36
22
-21.343428
32
0
13
-36
23
-21.343428
33
0
39
0
210
0
220
0
230
1
0
SOLID
5
17E
100
AcDbEntity
8
0
62
256
6
ByLayer
370
-1
48
1
60
0
100
AcDbTrace
10
33.6797
20
-21.926762
30
0
11
33.6797
21
-20.760095
31
0
12
37.1797
22
-21.343428
32
0
13
37.1797
23
-21.343428
33
0
39
0
210
0
220
0
230
1
0
MTEXT
5
17F
100
AcDbEntity
8
0
62
256
6
ByLayer
370
18
48
1
60
0
100
AcDbMText
10
0.58985
20
-14.343428
30
0
210
0
220
0
230
1
1
\A1;73.18
40
3.5
41
0
44
1
50
0
71
5
72
5
7
iso_b_vert
0
POINT
5
180
100
AcDbEntity
8
Defpoints
62
0
6
ByLayer
370
-1
48
1
60
0
100
AcDbPoint
10
-36
20
-3
30
0
39
0
210
0
220
0
230
1
50
360
0
POINT
5
181
100
AcDbEntity
8
Defpoints
62
0
6
ByLayer
370
-1
48
1
60
0
100
AcDbPoint
10
37.1797
20
-2
30
0
39
0
210
0
220
0
230
1
50
360
0
POINT
5
182
100
AcDbEntity
8
Defpoints
62
0
6
ByLayer
370
-1
48
1
60
0
100
AcDbPoint
10
37.1797
20
-21.343428
30
0
39
0
210
0
220
0
230
1
50
360
0
ENDBLK
5
179
100
AcDbEntity
8
0
100
AcDbBlockEnd
0
BLOCK
5
18A
100
AcDbEntity
8
0
100
AcDbBlockBegin
2
_U4
70
0
10
0
20
0
30
0
3
_U4
0
MTEXT
5
184
100
AcDbEntity
8
SK2
62
256
6
ByLayer
370
13
48
1
60
0
100
AcDbMText
10
-4.110015
20
-20.310795
30
0
210
0
220
0
230
1
1
\W0.6713;73,18
40
3.5
41
0
44
1.084337
50
0
71
7
72
5
7
iso_b_vert
0
LINE
5
185
100
AcDbEntity
8
SK2
62
256
6
ByLayer
370
13
48
1
60
0
100
AcDbLine
10
-36
20
-4.5875
30
0
11
-36
21
-23.343428
31
0
39
0
210
0
220
0
230
1
0
LINE
5
186
100
AcDbEntity
8
SK2
62
256
6
ByLayer
370
13
48
1
60
0
100
AcDbLine
10
37.1797
20
-3.5875
30
0
11
37.1797
21
-23.343428
31
0
39
0
210
0
220
0
230
1
0
LINE
5
187
100
AcDbEntity
8
SK2
62
256
6
ByLayer
370
13
48
1
60
0
100
AcDbLine
10
-36
20
-21.343428
30
0
11
37.1797
21
-21.343428
31
0
39
0
210
0
220
0
230
1
0
SOLID
5
188
100
AcDbEntity
8
SK2
62
256
6
ByLayer
370
18
48
1
60
0
100
AcDbTrace
10
-36
20
-21.343428
30
0
11
-32.500002
21
-20.882645
31
0
12
-32.499998
22
-21.804212
32
0
13
-32.499998
23
-21.804212
33
0
39
0
210
0
220
0
230
1
0
SOLID
5
189
100
AcDbEntity
8
SK2
62
256
6
ByLayer
370
18
48
1
60
0
100
AcDbTrace
10
37.1797
20
-21.343428
30
0
11
33.679702
21
-21.804212
31
0
12
33.679698
22
-20.882645
32
0
13
33.679698
23
-20.882645
33
0
39
0
210
0
220
0
230
1
0
ENDBLK
5
18B
100
AcDbEntity
8
0
100
AcDbBlockEnd
0
ENDSEC
0
SECTION
2
ENTITIES
0
ARC
5
A8
100
AcDbEntity
8
1
62
256
6
ByLayer
370
18
48
1
60
0
100
AcDbCircle
39
0
10
1.576582
20
-2.785916
30
0
40
0.850000000000001
210
0
220
0
230
1
100
AcDbArc
50
89.896868
51
158.033273
0
ARC
5
A9
100
AcDbEntity
8
1
62
256
6
ByLayer
370
18
48
1
60
0
100
AcDbCircle
39
0
10
1.576582
20
2.785916
30
0
40
0.850000000000001
210
0
220
0
230
1
100
AcDbArc
50
201.966727
51
270.103132
0
ARC
5
AA
100
AcDbEntity
8
1
62
256
6
ByLayer
370
18
48
1
60
0
100
AcDbCircle
39
0
10
0
20
-2.15
30
0
40
0.850000000000001
210
0
220
0
230
1
100
AcDbArc
50
270
51
338.033273
0
ARC
5
AB
100
AcDbEntity
8
1
62
256
6
ByLayer
370
18
48
1
60
0
100
AcDbCircle
39
0
10
0
20
2.15
30
0
40
0.850000000000001
210
0
220
0
230
1
100
AcDbArc
50
21.966727
51
90
0
ELLIPSE
5
AC
100
AcDbEntity
8
1
62
256
6
ByLayer
370
13
48
1
60
0
100
AcDbEllipse
10
9.542601
20
-46.418337
30
0
11
-56.6463657971294
21
48.5188270284289
31
0
210
0
220
0
230
1
40
0.51787
41
-1.15330508723291
42
-1.12787338510029
0
ELLIPSE
5
AD
100
AcDbEntity
8
1
62
256
6
ByLayer
370
13
48
1
60
0
100
AcDbEllipse
10
8.584467
20
-47.536971
30
0
11
-56.6463657971294
21
48.5188270284289
31
0
210
0
220
0
230
1
40
0.51787
41
-1.15330508723291
42
-1.09475745861063
0
ELLIPSE
5
AE
100
AcDbEntity
8
1
62
256
6
ByLayer
370
13
48
1
60
0
100
AcDbEllipse
10
82.194174
20
43.317348
30
0
11
-61.7
21
7.55582120308407E-15
31
0
210
0
220
0
230
1
40
0.99863
41
0.764928096125713
42
0.768565924432366
0
ELLIPSE
5
AF
100
AcDbEntity
8
1
62
256
6
ByLayer
370
13
48
1
60
0
100
AcDbEllipse
10
6.294556
20
2.08453
30
0
11
0.0522442458027483
21
0.295415874286576
31
0
210
0
220
0
230
1
40
0.497375
41
-2.93161565938285
42
-2.79638114723225
0
ELLIPSE
5
B0
100
AcDbEntity
8
1
62
256
6
ByLayer
370
18
48
1
60
0
100
AcDbEllipse
10
6.293251
20
2.880462
30
0
11
-1
21
1.22460635382238E-16
31
0
210
0
220
0
230
1
40
1
41
1.21693529398141
42
1.57679868218947
0
ELLIPSE
5
B1
100
AcDbEntity
8
1
62
256
6
ByLayer
370
18
48
1
60
0
100
AcDbEllipse
10
6.293251
20
-2.880462
30
0
11
-1
21
1.22460635382238E-16
31
0
210
0
220
0
230
1
40
1
41
-1.56762043603157
42
-1.21808800155322
0
POINT
5
70
100
AcDbEntity
8
80
62
256
6
ByLayer
370
18
48
1
60
0
100
AcDbPoint
10
0
20
0
30
0
39
0
210
0
220
0
230
1
50
360
0
POINT
5
72
100
AcDbEntity
8
81
62
256
6
ByLayer
370
18
48
1
60
0
100
AcDbPoint
10
38
20
0
30
0
39
0
210
0
220
0
230
1
50
360
0
POINT
5
74
100
AcDbEntity
8
1
62
256
6
ByLayer
370
18
48
1
60
1
100
AcDbPoint
10
37.1797
20
-2
30
0
39
0
210
0
220
0
230
1
50
360
0
POINT
5
76
100
AcDbEntity
8
1
62
256
6
ByLayer
370
18
48
1
60
1
100
AcDbPoint
10
-36
20
-3
30
0
39
0
210
0
220
0
230
1
50
360
0
POINT
5
77
100
AcDbEntity
8
1
62
256
6
ByLayer
370
18
48
1
60
1
100
AcDbPoint
10
17.18
20
2
30
0
39
0
210
0
220
0
230
1
50
360
0
POINT
5
78
100
AcDbEntity
8
1
62
256
6
ByLayer
370
18
48
1
60
1
100
AcDbPoint
10
37.1797
20
-2
30
0
39
0
210
0
220
0
230
1
50
360
0
POINT
5
79
100
AcDbEntity
8
1
62
256
6
ByLayer
370
18
48
1
60
1
100
AcDbPoint
10
-36
20
-3
30
0
39
0
210
0
220
0
230
1
50
360
0
POINT
5
7A
100
AcDbEntity
8
1
62
256
6
ByLayer
370
18
48
1
60
1
100
AcDbPoint
10
37.1797
20
-2
30
0
39
0
210
0
220
0
230
1
50
360
0
SPLINE
5
B2
100
AcDbEntity
8
1
62
256
6
ByLayer
370
18
48
1
60
0
100
AcDbSpline
70
4
71
3
72
8
73
4
40
0
40
0
40
0
40
0
40
1
40
1
40
1
40
1
41
1
10
37.2432077745902
20
1.95657545746693
30
0
41
1
10
37.3632083441959
20
1.67810734640679
30
0
41
1
10
37.4888169880585
20
1.38169113777911
30
0
41
1
10
37.6108451512899
20
1.05887302779189
30
0
0
SPLINE
5
B3
100
AcDbEntity
8
1
62
256
6
ByLayer
370
18
48
1
60
0
100
AcDbSpline
70
4
71
3
72
52
73
48
40
0
40
0
40
0
40
0
40
0.0151693228163302
40
0.0151693228163302
40
0.0741590417403108
40
0.0741590417403108
40
0.133148760664291
40
0.133148760664291
40
0.162643620126282
40
0.162643620126282
40
0.192138479588273
40
0.192138479588273
40
0.251128198512255
40
0.251128198512255
40
0.280623057974246
40
0.280623057974246
40
0.310117917436236
40
0.310117917436236
40
0.339612776898227
40
0.339612776898227
40
0.369107636360218
40
0.369107636360218
40
0.428097355284201
40
0.428097355284201
40
0.457592214746193
40
0.457592214746193
40
0.487087074208185
40
0.487087074208185
40
0.546076793132169
40
0.546076793132169
40
0.605066512056154
40
0.605066512056154
40
0.664056230980139
40
0.664056230980139
40
0.723045949904124
40
0.723045949904124
40
0.782035668828109
40
0.782035668828109
40
0.841025387752094
40
0.841025387752094
40
0.900015106676079
40
0.900015106676079
40
0.929509966138071
40
0.929509966138071
40
0.959004825600063
40
0.959004825600063
40
1
40
1
40
1
40
1
41
1
10
12.2247475514393
20
1.20073620509723
30
0
41
1
10
12.2982622444508
20
1.23250615953762
30
0
41
1
10
12.3718172626366
20
1.2635230367774
30
0
41
1
10
12.7317097559314
20
1.41109749006068
30
0
41
1
10
13.0167466598397
20
1.5157423459176
30
0
41
1
10
13.5878913558717
20
1.69516965929634
30
0
41
1
10
13.874416833363
20
1.76961647234009
30
0
41
1
10
14.3023816476584
20
1.8548666278723
30
0
41
1
10
14.4450916680805
20
1.87887842338415
30
0
41
1
10
14.7307084000294
20
1.9180197626323
30
0
41
1
10
14.8739573295316
20
1.93310380872791
30
0
41
1
10
15.3024673541806
20
1.96437480522221
30
0
41
1
10
15.5874831813571
20
1.96652002385366
30
0
41
1
10
16.015923653642
20
1.94181365342735
30
0
41
1
10
16.1591617285075
20
1.92889160049521
30
0
41
1
10
16.4447699220051
20
1.89391981867325
30
0
41
1
10
16.5873620953909
20
1.87190322997361
30
0
41
1
10
16.8725903230846
20
1.81912034795221
30
0
41
1
10
17.0150761208126
20
1.78824124074112
30
0
41
1
10
17.3007978673155
20
1.71820322654872
30
0
41
1
10
17.443888989193
20
1.67877707959019
30
0
41
1
10
17.8721990510976
20
1.54935669409858
30
0
41
1
10
18.1566586416681
20
1.44741440007002
30
0
41
1
10
18.5852688097416
20
1.27517110401877
30
0
41
1
10
18.7283037570477
20
1.21430416242464
30
0
41
1
10
19.0137135292164
20
1.08764841880875
30
0
41
1
10
19.1562476268062
20
1.0216807574478
30
0
41
1
10
19.5837240441829
20
0.816437585766153
30
0
41
1
10
19.8698869571533
20
0.670050555609663
30
0
41
1
10
20.4401697605672
20
0.367644624353801
30
0
41
1
10
20.7249112098806
20
0.212234968264454
30
0
41
1
10
21.2960979705317
20
-0.102544604954574
30
0
41
1
10
21.581244177135
20
-0.259428762550897
30
0
41
1
10
22.1511406199205
20
-0.566503738413445
30
0
41
1
10
22.4370672152269
20
-0.716953690112746
30
0
41
1
10
23.007026092552
20
-0.999976853300751
30
0
41
1
10
23.2916050959791
20
-1.13352388324518
30
0
41
1
10
23.8629792595354
20
-1.37731208343493
30
0
41
1
10
24.1471496898065
20
-1.4870108725313
30
0
41
1
10
24.7171139414125
20
-1.67634550385887
30
0
41
1
10
25.0030038391634
20
-1.7562908905183
30
0
41
1
10
25.4299533972778
20
-1.8499455881836
30
0
41
1
10
25.5722201777373
20
-1.8768375688654
30
0
41
1
10
25.8570596637234
20
-1.9216906582858
30
0
41
1
10
25.9999845671729
20
-1.93961674147803
30
0
41
1
10
26.3407554859114
20
-1.97137602208736
30
0
41
1
10
26.5385604634084
20
-1.98082839964624
30
0
41
1
10
26.7363724928213
20
-1.98121550540307
30
0
0
SPLINE
5
B4
100
AcDbEntity
8
1
62
256
6
ByLayer
370
18
48
1
60
0
100
AcDbSpline
70
4
71
3
72
12
73
8
40
0
40
0
40
0
40
0
40
0.317522831112312
40
0.317522831112312
40
0.658761415556156
40
0.658761415556156
40
1
40
1
40
1
40
1
41
1
10
34.7424741818306
20
1.22940176388835
30
0
41
1
10
35.0074968556331
20
1.34585978892918
30
0
41
1
10
35.2714109917767
20
1.45205947301304
30
0
41
1
10
35.8202171683859
20
1.64650876826357
30
0
41
1
10
36.1052063941682
20
1.73296669517063
30
0
41
1
10
36.6738911887823
20
1.87100785135755
30
0
41
1
10
36.958888841961
20
1.92315382469516
30
0
41
1
10
37.2432077745901
20
1.9565754574669
30
0
0
SPLINE
5
B5
100
AcDbEntity
8
1
62
256
6
ByLayer
370
18
48
1
60
0
100
AcDbSpline
70
4
71
3
72
12
73
8
40
0
40
0
40
0
40
0
40
0.499999999999996
40
0.499999999999996
40
0.749999999999998
40
0.749999999999998
40
1
40
1
40
1
40
1
41
1
10
6.29395708556532
20
-1.31488825279766
30
0
41
1
10
6.61078622024763
20
-1.46115082570805
30
0
41
1
10
6.93684429660362
20
-1.56864142767213
30
0
41
1
10
7.43425334627869
20
-1.69661949319294
30
0
41
1
10
7.60179658349747
20
-1.73253442822195
30
0
41
1
10
7.93945925934406
20
-1.79238845714678
30
0
41
1
10
8.10884673037378
20
-1.81672034585028
30
0
41
1
10
8.27876426063131
20
-1.83567977412486
30
0
0
SPLINE
5
B6
100
AcDbEntity
8
1
62
256
6
ByLayer
370
18
48
1
60
0
100
AcDbSpline
70
4
71
2
72
6
73
3
40
0
40
0
40
0
40
1
40
1
40
1
41
0.500000268971669
10
37.210648690814
20
-1.85207932704756
30
0
41
0.499999731028331
10
37.2097744786134
20
-1.8509700857359
30
0
41
0.500000268971669
10
37.2089040698472
20
-1.84985288274178
30
0
0
SPLINE
5
B7
100
AcDbEntity
8
1
62
256
6
ByLayer
370
13
48
1
60
0
100
AcDbSpline
70
4
71
3
72
102
73
98
40
0
40
0
40
0
40
0
40
0.0079752204196115
40
0.0153722591545927
40
0.0227692978895744
40
0.0375633753595377
40
0.0449604140945194
40
0.0523574528295027
40
0.0671515302994643
40
0.074548569034446
40
0.0819456077694281
40
0.0902672763462828
40
0.096739685239391
40
0.103212094132498
40
0.111533762709354
40
0.126327840179317
40
0.148518956384263
40
0.155915995119244
40
0.170710072589207
40
0.185504150059171
40
0.211393785631607
40
0.215092304999098
40
0.22248934373408
40
0.229886382469059
40
0.244680459939024
40
0.252077498674005
40
0.259474537408987
40
0.267796205985843
40
0.274268614878951
40
0.280741023772061
40
0.289062692348914
40
0.303856769818877
40
0.326047886023823
40
0.333444924758804
40
0.348239002228767
40
0.363033079698731
40
0.388922715271165
40
0.392621234638657
40
0.400018273373638
40
0.40741531210862
40
0.422209389578583
40
0.429606428313565
40
0.437003467048547
40
0.445325135625401
40
0.45179754451851
40
0.45826995341162
40
0.466591621988472
40
0.481385699458438
40
0.503576815663382
40
0.510973854398363
40
0.525767931868326
40
0.54056200933829
40
0.566451644910725
40
0.570150164278217
40
0.577547203013198
40
0.584944241748179
40
0.599738319218143
40
0.607135357953125
40
0.614532396688106
40
0.62285406526496
40
0.62932647415807
40
0.635798883051178
40
0.644120551628032
40
0.658914629097997
40
0.681105745302941
40
0.688502784037923
40
0.703296861507886
40
0.718090938977849
40
0.743980574550284
40
0.747679093917776
40
0.755076132652757
40
0.762473171387739
40
0.777267248857702
40
0.784664287592684
40
0.792061326327666
40
0.806855403797629
40
0.814252442532611
40
0.821649481267592
40
0.836443558737556
40
0.843840597472537
40
0.851237636207519
40
0.859559304784373
40
0.866031713677482
40
0.87250412257059
40
0.880825791147445
40
0.895619868617409
40
0.921509504189844
40
0.925208023557335
40
0.932605062292316
40
0.940002101027299
40
0.954796178497262
40
0.962193217232243
40
0.969590255967225
40
0.984384333437188
40
0.99178137217217
40
0.999178410907152
40
1
40
1
40
1
40
1
41
1
10
22.705186702542
20
-0.850223840760378
30
0
41
1
10
22.6844797907097
20
-0.853902057075544
30
0
41
1
10
22.644566612488
20
-0.860910824294479
30
0
41
1
10
22.5854462083872
20
-0.871059257790421
30
0
41
1
10
22.5086265805734
20
-0.883930963807046
30
0
41
1
10
22.4318033226029
20
-0.896352218721006
30
0
41
1
10
22.3549776148576
20
-0.908317838040659
30
0
41
1
10
22.2781578097478
20
-0.919949191465065
30
0
41
1
10
22.2013343791511
20
-0.931113422270016
30
0
41
1
10
22.1245086005097
20
-0.941807431778358
30
0
41
1
10
22.0644906679221
20
-0.949895520302448
30
0
41
1
10
22.0068726959274
20
-0.957400634143397
30
0
41
1
10
21.9516559903668
20
-0.964359763266714
30
0
41
1
10
21.8964410377105
20
-0.9711062722142
30
0
41
1
10
21.8196226262021
20
-0.980142127457611
30
0
41
1
10
21.7019972503036
20
-0.993145648246951
30
0
41
1
10
21.5867562823157
20
-1.00465832224637
30
0
41
1
10
21.4715174690947
20
-1.0151350623693
30
0
41
1
10
21.3754941339305
20
-1.02316353656894
30
0
41
1
10
21.2314603396415
20
-1.03384922806995
30
0
41
1
10
21.1162164352594
20
-1.04101221456901
30
0
41
1
10
21.0201772605444
20
-1.04611931924279
30
0
41
1
10
20.9721642282825
20
-1.04846506852172
30
0
41
1
10
20.8953443037164
20
-1.05184229099177
30
0
41
1
10
20.8185208889879
20
-1.05469910047191
30
0
41
1
10
20.7416951556585
20
-1.05703835347131
30
0
41
1
10
20.6816772540771
20
-1.05855824152908
30
0
41
1
10
20.624059313767
20
-1.0597317536203
30
0
41
1
10
20.5688426427327
20
-1.06059980921245
30
0
41
1
10
20.5136277333155
20
-1.06123068621173
30
0
41
1
10
20.4368093995486
20
-1.06171776566137
30
0
41
1
10
20.3191841794635
20
-1.06155337073216
30
0
41
1
10
20.203943410813
20
-1.06013645188548
30
0
41
1
10
20.0887048201424
20
-1.05763459507605
30
0
41
1
10
19.9926816909776
20
-1.0547934176783
30
0
41
1
10
19.8486482175061
20
-1.04912907179218
30
0
41
1
10
19.7334045378596
20
-1.04323503984747
30
0
41
1
10
19.6373654846158
20
-1.03746970055536
30
0
41
1
10
19.5893525028621
20
-1.0343591144605
30
0
41
1
10
19.512532643855
20
-1.02900434885655
30
0
41
1
10
19.435709274151
20
-1.02314641720127
30
0
41
1
10
19.3588835649988
20
-1.01679397771326
30
0
41
1
10
19.2988656629164
20
-1.0115248031679
30
0
41
1
10
19.2412477017933
20
-1.00619384815928
30
0
41
1
10
19.1860309907485
20
-1.00084044348472
30
0
41
1
10
19.1308160233015
20
-0.995258107006663
30
0
41
1
10
19.0539975854641
20
-0.987114898380298
30
0
41
1
10
18.936372163076
20
-0.973784277969799
30
0
41
1
10
18.821131165826
20
-0.959613406618985
30
0
41
1
10
18.7058923672376
20
-0.944460620977537
30
0
41
1
10
18.6098690811548
20
-0.931129587467069
30
0
41
1
10
18.4658354162172
20
-0.909888708665221
30
0
41
1
10
18.3505916526193
20
-0.891761307265881
30
0
41
1
10
18.2545525926384
20
-0.875945780505106
30
0
41
1
10
18.2065396181533
20
-0.867825660543218
30
0
41
1
10
18.1297197878974
20
-0.854513607628093
30
0
41
1
10
18.0528964681919
20
-0.84079552078731
30
0
41
1
10
17.9760708195855
20
-0.826683624583836
30
0
41
1
10
17.9160529684199
20
-0.815401069492594
30
0
41
1
10
17.8584350588422
20
-0.80435248508914
30
0
41
1
10
17.8032183983407
20
-0.793569272503873
30
0
41
1
10
17.7480034822364
20
-0.782600294003828
30
0
41
1
10
17.6711851162963
20
-0.767033973679872
30
0
41
1
10
17.5535597994231
20
-0.742515980453049
30
0
41
1
10
17.4383188831542
20
-0.717697263226995
30
0
41
1
10
17.3230801282528
20
-0.692145309485966
30
0
41
1
10
17.2270568621267
20
-0.67030476888246
30
0
41
1
10
17.0830232123323
20
-0.63663934560077
30
0
41
1
10
16.9677794492002
20
-0.608962783511174
30
0
41
1
10
16.8717403889075
20
-0.585432985579956
30
0
41
1
10
16.8237274195595
20
-0.573501485383588
30
0
41
1
10
16.7469076176216
20
-0.554194320811689
30
0
41
1
10
16.6700843575914
20
-0.534635564154485
30
0
41
1
10
16.5932587759687
20
-0.514840145933988
30
0
41
1
10
16.516439123963
20
-0.494792466154507
30
0
41
1
10
16.4396158639881
20
-0.474523433209669
30
0
41
1
10
16.3627901683758
20
-0.454048270080307
30
0
41
1
10
16.2859703635373
20
-0.433343651082595
30
0
41
1
10
16.2091469096212
20
-0.412449025650574
30
0
41
1
10
16.1323210821708
20
-0.391379901151254
30
0
41
1
10
16.0723031201847
20
-0.374783593354835
30
0
41
1
10
16.0146851313424
20
-0.358755167745926
30
0
41
1
10
15.9594684273943
20
-0.34330893156681
30
0
41
1
10
15.9042534786769
20
-0.327775963185445
30
0
41
1
10
15.8274350448962
20
-0.306022828251827
30
0
41
1
10
15.7002104302114
20
-0.269650411118022
30
0
41
1
10
15.5849664426129
20
-0.236513097900058
30
0
41
1
10
15.4889271944073
20
-0.208744389987032
30
0
41
1
10
15.4409141438755
20
-0.194763629387353
30
0
41
1
10
15.3640942484206
20
-0.172312304851971
30
0
41
1
10
15.2872709397559
20
-0.149800096984251
30
0
41
1
10
15.2104453277015
20
-0.127241977201606
30
0
41
1
10
15.1336256430683
20
-0.104578561580809
30
0
41
1
10
15.0568023531743
20
-0.0818874886300023
30
0
41
1
10
14.9799766497163
20
-0.059183794806188
30
0
41
1
10
14.9394336690118
20
-0.0471600979746256
30
0
41
1
10
14.9180952625801
20
-0.040832586616375
30
0
41
1
10
14.9159621289105
20
-0.0402000534435274
30
0
0
SPLINE
5
B8
100
AcDbEntity
8
1
62
256
6
ByLayer
370
18
48
1
60
0
100
AcDbSpline
70
4
71
3
72
10
73
6
40
0
40
0
40
0
40
0
40
0.5
40
0.5
40
1
40
1
40
1
40
1
41
1
10
5.94592539273856
20
-1.2217656003595
30
0
41
1
10
6.00519793287822
20
-1.22409179912859
30
0
41
1
10
6.06496753175645
20
-1.23479234323645
30
0
41
1
10
6.18093224796218
20
-1.26721785317332
30
0
41
1
10
6.23784118294495
20
-1.28898262922971
30
0
41
1
10
6.29395708556547
20
-1.31488825279772
30
0
0
SPLINE
5
B9
100
AcDbEntity
8
1
62
256
6
ByLayer
370
18
48
1
60
0
100
AcDbSpline
70
4
71
3
72
8
73
4
40
0
40
0
40
0
40
0
40
1
40
1
40
1
40
1
41
1
10
37.9997149577939
20
0.0622873713394654
30
0
41
1
10
38.0000950140651
20
0.0207624571131362
30
0
41
1
10
38.0000950140651
20
-0.0207624571131646
30
0
41
1
10
37.9997149577939
20
-0.0622873713394938
30
0
0
SPLINE
5
BA
100
AcDbEntity
8
1
62
256
6
ByLayer
370
18
48
1
60
0
100
AcDbSpline
70
4
71
3
72
10
73
6
40
0
40
0
40
0
40
0
40
0.5
40
0.5
40
1
40
1
40
1
40
1
41
1
10
37.2089040698497
20
-1.84985288273643
30
0
41
1
10
37.210124863037
20
-1.8162787148689
30
0
41
1
10
37.207240096745
20
-1.78720795944966
30
0
41
1
10
37.1965196035414
20
-1.73666122220717
30
0
41
1
10
37.1888309152989
20
-1.71557117271703
30
0
41
1
10
37.1795220143192
20
-1.69739202587579
30
0
0
SPLINE
5
BB
100
AcDbEntity
8
1
62
256
6
ByLayer
370
18
48
1
60
0
100
AcDbSpline
70
4
71
3
72
8
73
4
40
0
40
0
40
0
40
0
40
1
40
1
40
1
40
1
41
1
10
37.9997149577939
20
0.0622873713394654
30
0
41
1
10
37.943868765467
20
0.202213450167619
30
0
41
1
10
37.889917631364
20
0.344159473858014
30
0
41
1
10
37.8375353181221
20
0.488146732246605
30
0
0
SPLINE
5
BC
100
AcDbEntity
8
1
62
256
6
ByLayer
370
18
48
1
60
0
100
AcDbSpline
70
4
71
3
72
8
73
4
40
0
40
0
40
0
40
0
40
1
40
1
40
1
40
1
41
1
10
5.94310206829596
20
1.94378235968713
30
0
41
1
10
5.94278165731853
20
1.94448669842293
30
0
41
1
10
5.94241652564492
20
1.927511712616
30
0
41
1
10
5.94196924594189
20
1.89250818718492
30
0
0
SPLINE
5
BD
100
AcDbEntity
8
1
62
256
6
ByLayer
370
18
48
1
60
0
100
AcDbSpline
70
4
71
3
72
24
73
20
40
0
40
0
40
0
40
0
40
0.0312499999999985
40
0.0312499999999985
40
0.062499999999997
40
0.062499999999997
40
0.124999999999999
40
0.124999999999999
40
0.187500000000001
40
0.187500000000001
40
0.250000000000003
40
0.250000000000003
40
0.375
40
0.375
40
0.499999999999997
40
0.499999999999997
40
0.749999999999999
40
0.749999999999999
40
1
40
1
40
1
40
1
41
1
10
4.9584046114137
20
0.771223797217914
30
0
41
1
10
4.97449583809902
20
0.798587211883074
30
0
41
1
10
4.99426676870615
20
0.824217222489523
30
0
41
1
10
5.03782577558871
20
0.870650129853914
30
0
41
1
10
5.06178463491335
20
0.891788053283392
30
0
41
1
10
5.13869493458603
20
0.950503535986371
30
0
41
1
10
5.19563595740098
20
0.982708139820858
30
0
41
1
10
5.31363045028178
20
1.03768502205088
30
0
41
1
10
5.37556076938168
20
1.06077345380464
30
0
41
1
10
5.5019917196519
20
1.10042296218697
30
0
41
1
10
5.56604024596237
20
1.11684657388932
30
0
41
1
10
5.7600681066011
20
1.15877138454721
30
0
41
1
10
5.89189956800124
20
1.17706527414441
30
0
41
1
10
6.15930688330076
20
1.20005359342701
30
0
41
1
10
6.29386824738083
20
1.20445796268606
30
0
41
1
10
6.69348128328417
20
1.19945635961688
30
0
41
1
10
6.95726643596359
20
1.17259262787337
30
0
41
1
10
7.47961398705382
20
1.06600507138174
30
0
41
1
10
7.72891051366929
20
0.987291314393303
30
0
41
1
10
7.96679551419197
20
0.880636644197807
30
0
0
SPLINE
5
BE
100
AcDbEntity
8
1
62
256
6
ByLayer
370
18
48
1
60
0
100
AcDbSpline
70
4
71
3
72
14
73
10
40
0
40
0
40
0
40
0
40
0.25
40
0.25
40
0.5
40
0.5
40
0.75
40
0.75
40
1
40
1
40
1
40
1
41
1
10
8.58446652999601
20
-1.04831028548523
30
0
41
1
10
8.64155325123127
20
-0.901277217655945
30
0
41
1
10
8.71499455882233
20
-0.749809097313118
30
0
41
1
10
8.8801887768507
20
-0.467696842249779
30
0
41
1
10
8.97183044180437
20
-0.337242688235761
30
0
41
1
10
9.15523728198275
20
-0.123112801040605
30
0
41
1
10
9.24687894693642
20
-0.0395812677179208
30
0
41
1
10
9.4120731649648
20
0.064039301984792
30
0
41
1
10
9.48551447255588
20
0.08405855795408
30
0
41
1
10
9.54260119379111
20
0.0703244790453539
30
0
0
SPLINE
5
BF
100
AcDbEntity
8
1
62
256
6
ByLayer
370
13
48
1
60
0
100
AcDbSpline
70
4
71
3
72
33
73
29
40
0
40
0
40
0
40
0
40
0.0007235297936524
40
0.03252861480926
40
0.0890709881703598
40
0.188020141552291
40
0.202155734892558
40
0.2304269215731
40
0.258698108253653
40
0.315240481614754
40
0.343511668295318
40
0.371782854975844
40
0.42832522833695
40
0.456596415017495
40
0.484867601698048
40
0.541409975059144
40
0.569681161739687
40
0.597952348420247
40
0.629757433435867
40
0.654494721781341
40
0.679232010126821
40
0.711037095142445
40
0.767579468503536
40
0.852393028545183
40
0.880664215225733
40
0.937206588586812
40
0.993748961947928
40
1
40
1
40
1
40
1
41
1.00000000000001
10
37.6108451512899
20
1.05887302779191
30
0
41
1.00000000000001
10
37.6103536082488
20
1.05886103187856
30
0
41
1.00000000000001
10
37.5882546970818
20
1.05832031059347
30
0
41
1.00000000000001
10
37.5277416057106
20
1.05666653466019
30
0
41
1.00000000000001
10
37.4004899849423
20
1.05220745580706
30
0
41
1.00000000000001
10
37.2852649590728
20
1.04679731506885
30
0
41
1.00000000000001
10
37.189246743459
20
1.04139988081746
30
0
41
1.00000000000001
10
37.1412310586351
20
1.03849467800466
30
0
41
1.00000000000001
10
37.0644049901735
20
1.03348085415407
30
0
41
1.00000000000001
10
36.9875823637419
20
1.0279482007055
30
0
41
1.00000000000001
10
36.910762076829
20
1.02189718227449
30
0
41
1.00000000000001
10
36.8339358802388
20
1.01546275885368
30
0
41
1.00000000000001
10
36.7571133302931
20
1.00851740793075
30
0
41
1.00000000000001
10
36.6802932251354
20
1.00106207222654
30
0
41
1.00000000000001
10
36.6034671985073
20
0.993235477871416
30
0
41
1.00000000000001
10
36.526644792883
20
0.984907156257542
30
0
41
1.00000000000001
10
36.4498247332682
20
0.976078517189699
30
0
41
1.00000000000001
10
36.3898068486793
20
0.968909674686209
30
0
41
1.00000000000001
10
36.3321904352426
20
0.961762686217576
30
0
41
1.00000000000001
10
36.2769741852598
20
0.954672092598138
30
0
41
1.00000000000001
10
36.221756180105
20
0.947368622200934
30
0
41
1.00000000000001
10
36.1449287366686
20
0.936874602201208
30
0
41
1.00000000000001
10
36.0272838961632
20
0.920027090399821
30
0
41
1.00000000000001
10
35.9120561035645
20
0.902366371127578
30
0
41
1.00000000000001
10
35.7968261389228
20
0.883766142595186
30
0
41
1.00000000000001
10
35.7007921254805
20
0.867679731847567
30
0
41
1.00000000000001
10
35.6197174025901
20
0.853473603799637
30
0
41
1.00000000000001
10
35.5770591397979
20
0.845820631927518
30
0
41
1.00000000000001
10
35.5728125648547
20
0.845057023408253
30
0
0
SPLINE
5
C0
100
AcDbEntity
8
1
62
256
6
ByLayer
370
13
48
1
60
0
100
AcDbSpline
70
4
71
3
72
101
73
97
40
0
40
0
40
0
40
0
40
0.006622708249175
40
0.0323726535128687
40
0.0360512171219689
40
0.0434083443401668
40
0.050765471558366
40
0.0654797259947628
40
0.0728368532129607
40
0.0801939804311603
40
0.088470748551633
40
0.0949082348675571
40
0.101345721183481
40
0.109622489303953
40
0.124336743740352
40
0.146408125394947
40
0.153765252613145
40
0.168479507049542
40
0.18319376148594
40
0.208943706749634
40
0.212622270358733
40
0.219979397576931
40
0.22733652479513
40
0.242050779231527
40
0.249407906449726
40
0.256765033667924
40
0.265041801788397
40
0.271479288104321
40
0.277916774420244
40
0.286193542540718
40
0.300907796977116
40
0.322979178631711
40
0.330336305849909
40
0.345050560286306
40
0.359764814722703
40
0.385514759986398
40
0.389193323595498
40
0.396550450813696
40
0.403907578031894
40
0.418621832468291
40
0.42597895968649
40
0.433336086904689
40
0.448050341341086
40
0.455407468559284
40
0.462764595777483
40
0.47747885021388
40
0.484835977432078
40
0.492193104650276
40
0.50046987277075
40
0.506907359086674
40
0.513344845402596
40
0.521621613523071
40
0.536335867959468
40
0.562085813223162
40
0.565764376832262
40
0.57312150405046
40
0.580478631268659
40
0.595192885705056
40
0.602550012923255
40
0.609907140141452
40
0.62462139457785
40
0.631978521796048
40
0.639335649014247
40
0.654049903450644
40
0.661407030668842
40
0.668764157887042
40
0.677040926007515
40
0.683478412323438
40
0.689915898639362
40
0.698192666759835
40
0.712906921196232
40
0.734978302850828
40
0.742335430069026
40
0.757049684505424
40
0.77176393894182
40
0.797513884205516
40
0.801192447814614
40
0.808549575032813
40
0.815906702251012
40
0.830620956687409
40
0.837978083905607
40
0.845335211123805
40
0.853611979244279
40
0.860049465560202
40
0.866486951876126
40
0.8747637199966
40
0.889477974432997
40
0.911549356087592
40
0.918906483305791
40
0.933620737742188
40
0.948334992178584
40
0.974084937442279
40
0.977763501051379
40
0.985120628269577
40
0.992477755487776
40
1
40
1
40
1
40
1
41
1.00000000000001
10
20.8874196308493
20
0.0421316323250946
30
0
41
1.00000000000001
10
20.8701302499144
20
0.0472466556723529
30
0
41
1.00000000000001
10
20.7856185670242
20
0.0722490803527189
30
0
41
1.00000000000001
10
20.6915147285211
20
0.1001281339135
30
0
41
1.00000000000001
10
20.59549650706
20
0.128526156259936
30
0
41
1.00000000000001
10
20.5474808406251
20
0.142646570866531
30
0
41
1.00000000000001
10
20.4706548611387
20
0.165172403589166
30
0
41
1.00000000000001
10
20.3938323982658
20
0.187650065829955
30
0
41
1.00000000000001
10
20.3170122787055
20
0.21006502979594
30
0
41
1.00000000000001
10
20.2569943735145
20
0.227489083338524
30
0
41
1.00000000000001
10
20.199377960991
20
0.244160502266992
30
0
41
1.00000000000001
10
20.1441617298748
20
0.260081970473264
30
0
41
1.00000000000001
10
20.0889437522672
20
0.275935770816515
30
0
41
1.00000000000001
10
20.0121163494211
20
0.297866105434961
30
0
41
1.00000000000001
10
19.8944715733978
20
0.331160565297805
30
0
41
1.00000000000001
10
19.7792438313969
20
0.363504364372031
30
0
41
1.00000000000001
10
19.6640138871804
20
0.395466459974469
30
0
41
1.00000000000001
10
19.5679798727292
20
0.421757706224181
30
0
41
1.00000000000001
10
19.4239275848713
20
0.460607531021477
30
0
41
1.00000000000001
10
19.3087026140167
20
0.49120706425455
30
0
41
1.00000000000001
10
19.2126843992526
20
0.516320658151553
30
0
41
1.00000000000001
10
19.16466872552
20
0.528723634545482
30
0
41
1.00000000000001
10
19.0878427172249
20
0.548365154343823
30
0
41
1.00000000000001
10
19.0110202042839
20
0.567762966983192
30
0
41
1.00000000000001
10
18.9342000241097
20
0.586903876328502
30
0
41
1.00000000000001
10
18.8741820679546
20
0.60166464403721
30
0
41
1.00000000000001
10
18.8165656038488
20
0.615676796429933
30
0
41
1.00000000000001
10
18.7613493221645
20
0.628956585604267
30
0
41
1.00000000000001
10
18.7061312931998
20
0.642086552693423
30
0
41
1.00000000000001
10
18.6293038184505
20
0.660098695607583
30
0
41
1.00000000000001
10
18.5116589369308
20
0.687092710825647
30
0
41
1.00000000000001
10
18.3964311139914
20
0.712818538584339
30
0
41
1.00000000000001
10
18.28120112613
20
0.73779939500414
30
0
41
1.00000000000001
10
18.1851670917351
20
0.758045670230752
30
0
41
1.00000000000001
10
18.0411147887192
20
0.787397656976759
30
0
41
1.00000000000001
10
17.9258898173852
20
0.809939389595422
30
0
41
1.00000000000001
10
17.8298716029558
20
0.828063265503937
30
0
41
1.00000000000001
10
17.7818559240973
20
0.836919882189585
30
0
41
1.00000000000001
10
17.7050298874869
20
0.850782722211585
30
0
41
1.00000000000001
10
17.6282073148477
20
0.864244703733953
30
0
41
1.00000000000001
10
17.5513870676738
20
0.877294952235098
30
0
41
1.00000000000001
10
17.4745608810522
20
0.889967528641358
30
0
41
1.00000000000001
10
17.3977383083433
20
0.902218087990882
30
0
41
1.00000000000001
10
17.3209181751982
20
0.914036260042558
30
0
41
1.00000000000001
10
17.2440921414531
20
0.925465518753093
30
0
41
1.00000000000001
10
17.1672697627644
20
0.936453143147724
30
0
41
1.00000000000001
10
17.0904497615228
20
0.946989268700741
30
0
41
1.00000000000001
10
17.0304319162074
20
0.954933657356399
30
0
41
1.00000000000001
10
16.9728155313491
20
0.96230375996057
30
0
41
1.00000000000001
10
16.9175992930615
20
0.969129527041695
30
0
41
1.00000000000001
10
16.8623812966668
20
0.975731284313575
30
0
41
1.00000000000001
10
16.7855538897559
20
0.98454953488973
30
0
41
1.00000000000001
10
16.6583025707868
20
0.998207861709339
30
0
41
1.00000000000001
10
16.5430778239316
20
1.00935969191522
30
0
41
1.00000000000001
10
16.4470597975097
20
1.01781466438163
30
0
41
1.00000000000001
10
16.399044199883
20
1.02181565990417
30
0
41
1.00000000000001
10
16.3222182568423
20
1.02785068775687
30
0
41
1.00000000000001
10
16.2453957328523
20
1.03338752896919
30
0
41
1.00000000000001
10
16.1685755160954
20
1.03841973255759
30
0
41
1.00000000000001
10
16.0917493620956
20
1.0430337074004
30
0
41
1.00000000000001
10
16.0149268193114
20
1.04714036591738
30
0
41
1.00000000000001
10
15.9381066940158
20
1.05073380860792
30
0
41
1.00000000000001
10
15.8612806305993
20
1.05390807700029
30
0
41
1.00000000000001
10
15.7844581651757
20
1.05656749860392
30
0
41
1.00000000000001
10
15.7076380271482
20
1.05870669456819
30
0
41
1.00000000000001
10
15.6476200749153
20
1.06006989104312
30
0
41
1.00000000000001
10
15.5900035931638
20
1.06109242009025
30
0
41
1.00000000000001
10
15.5347872782296
20
1.06180944439378
30
0
41
1.00000000000001
10
15.4795692083555
20
1.06228556457164
30
0
41
1.00000000000001
10
15.4027416739821
20
1.0625608461342
30
0
41
1.00000000000001
10
15.285096701271
20
1.06208052870917
30
0
41
1.00000000000001
10
15.1698688131717
20
1.06034075497558
30
0
41
1.00000000000001
10
15.0546388075109
20
1.0574885653944
30
0
41
1.00000000000001
10
14.9586047996461
20
1.05436589268995
30
0
41
1.00000000000001
10
14.814552606866
20
1.04830179888909
30
0
41
1.00000000000001
10
14.6993277792471
20
1.04204847024754
30
0
41
1.00000000000001
10
14.6033096950277
20
1.03595597607869
30
0
41
1.00000000000001
10
14.5552940893277
20
1.03270657961791
30
0
41
1.00000000000001
10
14.4784681950471
20
1.02714654303531
30
0
41
1.00000000000001
10
14.4016457993528
20
1.02107307783813
30
0
41
1.00000000000001
10
14.3248257249248
20
1.01448695324714
30
0
41
1.00000000000001
10
14.264807836549
20
1.0090577903156
30
0
41
1.00000000000001
10
14.207191420858
20
1.00357237027674
30
0
41
1.00000000000001
10
14.1519751678226
20
0.99806604865875
30
0
41
1.00000000000001
10
14.0967571514659
20
0.992337849976671
30
0
41
1.00000000000001
10
14.0199296725838
20
0.984018970099207
30
0
41
1.00000000000001
10
13.9022847380668
20
0.970464008030085
30
0
41
1.00000000000001
10
13.7870568060006
20
0.955986827806008
30
0
41
1.00000000000001
10
13.671826682121
20
0.940516375885232
30
0
41
1.00000000000001
10
13.5757925252208
20
0.926992764124997
30
0
41
1.00000000000001
10
13.4317400458627
20
0.905514779266149
30
0
41
1.00000000000001
10
13.3165149648293
20
0.887069752545607
30
0
41
1.00000000000001
10
13.2204967029401
20
0.870931564718625
30
0
41
1.00000000000001
10
13.1724810134741
20
0.862711112126555
30
0
41
1.00000000000001
10
13.1144304431969
20
0.852548486797951
30
0
41
1.00000000000001
10
13.0755875750218
20
0.845598260669555
30
0
41
1.00000000000001
10
13.0559508739449
20
0.842046525665318
30
0
0
SPLINE
5
C1
100
AcDbEntity
8
1
62
256
6
ByLayer
370
18
48
1
60
0
100
AcDbSpline
70
4
71
3
72
10
73
6
40
0
40
0
40
0
40
0
40
0.5
40
0.5
40
1
40
1
40
1
40
1
41
1
10
37.1795220143191
20
-1.69739202587581
30
0
41
1
10
37.1329693538252
20
-1.60648036478798
30
0
41
1
10
37.0995566174311
20
-1.49219539372862
30
0
41
1
10
37.0615593139867
20
-1.2143630431911
30
0
41
1
10
37.0579319493988
20
-1.05829270204953
30
0
41
1
10
37.0698002582582
20
-0.884929381452309
30
0
0
SPLINE
5
C2
100
AcDbEntity
8
1
62
256
6
ByLayer
370
18
48
1
60
0
100
AcDbSpline
70
4
71
3
72
8
73
4
40
0
40
0
40
0
40
0
40
1
40
1
40
1
40
1
41
1
10
37.9997149577939
20
-0.0622873713394938
30
0
41
1
10
37.9436787702628
20
-0.202689494868736
30
0
41
1
10
37.8897352319217
20
-0.344660849112415
30
0
41
1
10
37.8375353181221
20
-0.488146732246634
30
0
0
SPLINE
5
C3
100
AcDbEntity
8
1
62
256
6
ByLayer
370
18
48
1
60
0
100
AcDbSpline
70
4
71
3
72
8
73
4
40
0
40
0
40
0
40
0
40
1
40
1
40
1
40
1
41
1
10
37.2432077745902
20
-1.95657545746693
30
0
41
1
10
37.3632257558703
20
-1.67806694163124
30
0
41
1
10
37.4888360398571
20
-1.38164073740069
30
0
41
1
10
37.6108451512899
20
-1.05887302779189
30
0
0
SPLINE
5
C4
100
AcDbEntity
8
1
62
256
6
ByLayer
370
13
48
1
60
0
100
AcDbSpline
70
4
71
3
72
8
73
4
40
0
40
0
40
0
40
0
40
1
40
1
40
1
40
1
41
1
10
5.94196924594215
20
1.89250818718489
30
0
41
1
10
6.05559437470646
20
1.84181906450055
30
0
41
1
10
6.17376366449065
20
1.81061582182798
30
0
41
1
10
6.29511519117872
20
1.7977494573943
30
0
0
SPLINE
5
C5
100
AcDbEntity
8
1
62
256
6
ByLayer
370
18
48
1
60
0
100
AcDbSpline
70
4
71
3
72
12
73
8
40
0
40
0
40
0
40
0
40
0.25
40
0.25
40
0.5
40
0.5
40
1
40
1
40
1
40
1
41
1
10
5.94196924594181
20
1.89250818718494
30
0
41
1
10
5.94187059029647
20
1.88478752522172
30
0
41
1
10
5.95631919148434
20
1.87677517975666
30
0
41
1
10
5.99267406252449
20
1.86159750289323
30
0
41
1
10
6.01544596899021
20
1.85427601192933
30
0
41
1
10
6.08813611064335
20
1.83344646085325
30
0
41
1
10
6.14387188961592
20
1.82055254587161
30
0
41
1
10
6.20232749764813
20
1.80901073173303
30
0
0
SPLINE
5
C6
100
AcDbEntity
8
1
62
256
6
ByLayer
370
18
48
1
60
0
100
AcDbSpline
70
4
71
3
72
19
73
15
40
0
40
0
40
0
40
0
40
0.158085470125675
40
0.158085470125675
40
0.316170940251349
40
0.474256410377024
40
0.474256410377024
40
0.632341880502698
40
0.632341880502698
40
0.790427350628373
40
0.790427350628373
40
0.948512820754048
40
0.948512820754048
40
1
40
1
40
1
40
1
41
1
10
5.94592539273862
20
-1.22176560035919
30
0
41
1
10
5.94578785627493
20
-1.29218774589032
30
0
41
1
10
5.94564577163092
20
-1.35942862711059
30
0
41
1
10
5.94536326718406
20
-1.48377102531973
30
0
41
1
10
5.94508362257332
20
-1.59761673869642
30
0
41
1
10
5.94480701219229
20
-1.6910185921636
30
0
41
1
10
5.94452617910775
20
-1.77386116628554
30
0
41
1
10
5.94438511826823
20
-1.80947763082344
30
0
41
1
10
5.94409736742975
20
-1.86813427942212
30
0
41
1
10
5.94394990472875
20
-1.89141491234113
30
0
41
1
10
5.9436350361573
20
-1.92577889547192
30
0
41
1
10
5.94346621274127
20
-1.93683967491958
30
0
41
1
10
5.9432251510992
20
-1.94283736345491
30
0
41
1
10
5.94316451095523
20
-1.94364430311268
30
0
41
1
10
5.94310217838404
20
-1.94378211698842
30
0
0
SPLINE
5
C7
100
AcDbEntity
8
1
62
256
6
ByLayer
370
18
48
1
60
0
100
AcDbSpline
70
4
71
3
72
8
73
4
40
0
40
0
40
0
40
0
40
1
40
1
40
1
40
1
41
1
10
37.2432077745902
20
-1.9565754574669
30
0
41
1
10
37.2294576282017
20
-1.9320505937263
30
0
41
1
10
37.2187674999259
20
-1.89737773734916
30
0
41
1
10
37.2106486908115
20
-1.85207932703344
30
0
0
SPLINE
5
C8
100
AcDbEntity
8
1
62
256
6
ByLayer
370
18
48
1
60
0
100
AcDbSpline
70
4
71
1
72
4
73
2
40
0
40
0
40
1
40
1
41
1
10
37.2106486908128
20
-1.85207932704671
30
0
41
1
10
37.6304613250286
20
-0.434815625834972
30
0
0
SPLINE
5
C9
100
AcDbEntity
8
1
62
256
6
ByLayer
370
18
48
1
60
0
100
AcDbSpline
70
4
71
3
72
10
73
6
40
0
40
0
40
0
40
0
40
0.5
40
0.5
40
1
40
1
40
1
40
1
41
1
10
7.96679551419214
20
0.880636644197722
30
0
41
1
10
8.28433854475438
20
0.738267654462874
30
0
41
1
10
8.60205198482637
20
0.592902844044062
30
0
41
1
10
9.23746658636185
20
0.296373719087512
30
0
41
1
10
9.5551716283436
20
0.145205032456346
30
0
41
1
10
9.8728072938149
20
-0.009117404036175
30
0
0
SPLINE
5
CA
100
AcDbEntity
8
1
62
256
6
ByLayer
370
18
48
1
60
0
100
AcDbSpline
70
4
71
3
72
10
73
6
40
0
40
0
40
0
40
0
40
0.648964739391105
40
0.648964739391105
40
1
40
1
40
1
40
1
41
1
10
37.4433569190511
20
-0.0517042937130157
30
0
41
1
10
37.4135725250063
20
-0.0404934210398835
30
0
41
1
10
37.3852737422992
20
-0.0305139952312743
30
0
41
1
10
37.3451466594461
20
-0.0176734193108814
30
0
41
1
10
37.3317863191285
20
-0.0136722946708687
30
0
41
1
10
37.3194729573703
20
-0.0102878103856199
30
0
0
SPLINE
5
CB
100
AcDbEntity
8
1
62
256
6
ByLayer
370
18
48
1
60
0
100
AcDbSpline
70
4
71
3
72
22
73
18
40
0
40
0
40
0
40
0
40
0.0945553579672953
40
0.0945553579672953
40
0.245462798306083
40
0.245462798306083
40
0.396370238644871
40
0.396370238644871
40
0.54727767898366
40
0.54727767898366
40
0.698185119322448
40
0.698185119322448
40
0.849092559661236
40
0.849092559661236
40
0.924546279830618
40
0.924546279830618
40
1
40
1
40
1
40
1
41
1
10
37.2072482152025
20
0.0310265229091726
30
0
41
1
10
37.2004470188194
20
0.0380513752525928
30
0
41
1
10
37.1962534296739
20
0.0461900735467111
30
0
41
1
10
37.1919116692604
20
0.0707607075066505
30
0
41
1
10
37.1954336626566
20
0.0894445412064613
30
0
41
1
10
37.2134162100406
20
0.13539727644789
30
0
41
1
10
37.2275740652674
20
0.162073190230302
30
0
41
1
10
37.2651762636117
20
0.223601565443289
30
0
41
1
10
37.2888245775654
20
0.258673791233321
30
0
41
1
10
37.3434578657492
20
0.333542330719268
30
0
41
1
10
37.3749829639709
20
0.374178782223083
30
0
41
1
10
37.446523644192
20
0.457889982313105
30
0
41
1
10
37.4856710152792
20
0.500138368965992
30
0
41
1
10
37.5527121915909
20
0.56094164146964
30
0
41
1
10
37.5767271371805
20
0.580922627775806
30
0
41
1
10
37.6271953866251
20
0.617791402389827
30
0
41
1
10
37.6536739875745
20
0.634741928813838
30
0
41
1
10
37.6818100664278
20
0.649570467284406
30
0
0
SPLINE
5
CC
100
AcDbEntity
8
1
62
256
6
ByLayer
370
18
48
1
60
0
100
AcDbSpline
70
4
71
3
72
8
73
4
40
0
40
0
40
0
40
0
40
1
40
1
40
1
40
1
41
1
10
37.8375353181221
20
-0.488146732246662
30
0
41
1
10
37.8120425499208
20
-0.558220647941965
30
0
41
1
10
37.7865958548956
20
-0.628311120688238
30
0
41
1
10
37.7611952984407
20
-0.698418173985857
30
0
0
SPLINE
5
CD
100
AcDbEntity
8
1
62
256
6
ByLayer
370
18
48
1
60
0
100
AcDbSpline
70
4
71
3
72
28
73
24
40
0
40
0
40
0
40
0
40
0.081633082231056
40
0.081633082231056
40
0.163266164462112
40
0.163266164462112
40
0.244899246693168
40
0.244899246693168
40
0.326532328924224
40
0.326532328924224
40
0.489798493386336
40
0.489798493386336
40
0.653064657848448
40
0.653064657848448
40
0.734697740079504
40
0.734697740079504
40
0.81633082231056
40
0.81633082231056
40
0.897963904541616
40
0.897963904541616
40
0.979596986772672
40
0.979596986772672
40
1
40
1
40
1
40
1
41
1
10
37.1047440058841
20
0.054838913113457
30
0
41
1
10
36.9552779806936
20
0.135567052171041
30
0
41
1
10
36.8060348636707
20
0.216031642255985
30
0
41
1
10
36.5072896740161
20
0.375312940492279
30
0
41
1
10
36.3577888377186
20
0.454129040602652
30
0
41
1
10
36.0583513176023
20
0.609734514946496
30
0
41
1
10
35.9080128046386
20
0.686073340798799
30
0
41
1
10
35.6085002709675
20
0.834593631465367
30
0
41
1
10
35.4589481776307
20
0.906629040094117
30
0
41
1
10
35.0101803698865
20
1.1151119251966
30
0
41
1
10
34.7096976259093
20
1.24426929446497
30
0
41
1
10
34.1111178646735
20
1.47245554932891
30
0
41
1
10
33.8118475934062
20
1.57234815271437
30
0
41
1
10
33.3616661642683
20
1.69662683618901
30
0
41
1
10
33.2118556955724
20
1.73332618200837
30
0
41
1
10
32.9125900972701
20
1.79792102675924
30
0
41
1
10
32.7628941483853
20
1.82559366087506
30
0
41
1
10
32.4634269189244
20
1.87030180736903
30
0
41
1
10
32.3131537724976
20
1.8871964371105
30
0
41
1
10
32.0131742999436
20
1.91187040347074
30
0
41
1
10
31.8633015505466
20
1.91961463443764
30
0
41
1
10
31.6760685287004
20
1.92331901652236
30
0
41
1
10
31.6386229872693
20
1.92375961440453
30
0
41
1
10
31.6011706414533
20
1.92389631778045
30
0
0
SPLINE
5
CE
100
AcDbEntity
8
1
62
256
6
ByLayer
370
18
48
1
60
0
100
AcDbSpline
70
4
71
3
72
70
73
66
40
0
40
0
40
0
40
0
40
0.0206848853416249
40
0.0206848853416249
40
0.0503611009373331
40
0.0503611009373331
40
0.0800373165330414
40
0.0800373165330414
40
0.10971353212875
40
0.10971353212875
40
0.139389747724458
40
0.139389747724458
40
0.169065963320166
40
0.169065963320166
40
0.198742178915875
40
0.198742178915875
40
0.228418394511583
40
0.228418394511583
40
0.258094610107291
40
0.258094610107291
40
0.287770825702999
40
0.287770825702999
40
0.317447041298707
40
0.317447041298707
40
0.347123256894416
40
0.347123256894416
40
0.376799472490124
40
0.376799472490124
40
0.406475688085833
40
0.406475688085833
40
0.436151903681541
40
0.436151903681541
40
0.465828119277249
40
0.465828119277249
40
0.495504334872957
40
0.495504334872957
40
0.525180550468665
40
0.525180550468665
40
0.554856766064374
40
0.554856766064374
40
0.584532981660082
40
0.584532981660082
40
0.61420919725579
40
0.61420919725579
40
0.643885412851498
40
0.643885412851498
40
0.673561628447207
40
0.673561628447207
40
0.703237844042915
40
0.703237844042915
40
0.732914059638624
40
0.732914059638624
40
0.762590275234332
40
0.762590275234332
40
0.79226649083004
40
0.79226649083004
40
0.821942706425748
40
0.821942706425748
40
0.851618922021456
40
0.851618922021456
40
0.881295137617165
40
0.881295137617165
40
0.940647568808582
40
0.940647568808582
40
1
40
1
40
1
40
1
41
1
10
23.4763842245435
20
-1.22196937521718
30
0
41
1
10
23.371736125632
20
-1.26484346170253
30
0
41
1
10
23.2671725228077
20
-1.30627873045441
30
0
41
1
10
23.012546449644
20
-1.40264574710346
30
0
41
1
10
22.8626480289653
20
-1.4558380870908
30
0
41
1
10
22.5621112932618
20
-1.5534431720036
30
0
41
1
10
22.4114247656847
20
-1.59877119741554
30
0
41
1
10
22.1109914579999
20
-1.68097852534879
30
0
41
1
10
21.9610199665111
20
-1.71745502688344
30
0
41
1
10
21.6609130728182
20
-1.78031695333721
30
0
41
1
10
21.5108669178913
20
-1.8071136332517
30
0
41
1
10
21.209996061299
20
-1.85256910379527
30
0
41
1
10
21.0596072602949
20
-1.87046421901499
30
0
41
1
10
20.7594612741582
20
-1.89473209317043
30
0
41
1
10
20.6094835293255
20
-1.90159231295687
30
0
41
1
10
20.3092273917724
20
-1.90694938049091
30
0
41
1
10
20.1589441468814
20
-1.90499648176728
30
0
41
1
10
19.8581230024729
20
-1.889499528052
30
0
41
1
10
19.7080528079932
20
-1.87613232772682
30
0
41
1
10
19.4079219655967
20
-1.84119016102724
30
0
41
1
10
19.2578345305195
20
-1.81951624960703
30
0
41
1
10
18.9573736021031
20
-1.76531474115043
30
0
41
1
10
18.806764089099
20
-1.73271763948435
30
0
41
1
10
18.5061065608978
20
-1.6596494527862
30
0
41
1
10
18.3558888611985
20
-1.61938184555277
30
0
41
1
10
18.0556695087697
20
-1.52974498767765
30
0
41
1
10
17.9054722550146
20
-1.4800692944377
30
0
41
1
10
17.6045876943621
20
-1.3736422147654
30
0
41
1
10
17.4538524689061
20
-1.31727434838678
30
0
41
1
10
17.1533266872266
20
-1.19809475924902
30
0
41
1
10
17.0032266313664
20
-1.13457506272707
30
0
41
1
10
16.7029778304667
20
-1.00153316129095
30
0
41
1
10
16.5525765183939
20
-0.932987466599684
30
0
41
1
10
16.2513491489273
20
-0.791007628378594
30
0
41
1
10
16.1010006419464
20
-0.71783139481505
30
0
41
1
10
15.8008055872228
20
-0.567191319168302
30
0
41
1
10
15.6506658523251
20
-0.49065020458599
30
0
41
1
10
15.3503223224613
20
-0.335133971613459
30
0
41
1
10
15.1995946006152
20
-0.256527288796178
30
0
41
1
10
14.8987809273882
20
-0.0975967782362943
30
0
41
1
10
14.7486031214796
20
-0.0179769010623261
30
0
41
1
10
14.4483133373292
20
0.140941363814903
30
0
41
1
10
14.2981182070801
20
0.220073201864153
30
0
41
1
10
13.9975573513269
20
0.377382966469952
30
0
41
1
10
13.8467222282787
20
0.455036150985791
30
0
41
1
10
13.5459083092402
20
0.607783896363259
30
0
41
1
10
13.3955200219843
20
0.682484272422869
30
0
41
1
10
13.095039346989
20
0.828259884077028
30
0
41
1
10
12.9446831369692
20
0.898509907351183
30
0
41
1
10
12.6435427798316
20
1.03512063238762
30
0
41
1
10
12.4927491658526
20
1.10098652666929
30
0
41
1
10
12.1920889719812
20
1.22650244040719
30
0
41
1
10
12.0418338506939
20
1.28526210161579
30
0
41
1
10
11.7412452404324
20
1.39645723265937
30
0
41
1
10
11.5906311939621
20
1.44889182074567
30
0
41
1
10
11.2892483152899
20
1.54619203437733
30
0
41
1
10
11.1388922366224
20
1.59032881183782
30
0
41
1
10
10.8384327852845
20
1.66926883187506
30
0
41
1
10
10.6881051286521
20
1.70486274658217
30
0
41
1
10
10.3873238830144
20
1.76731100127597
30
0
41
1
10
10.2364770654093
20
1.79396640696677
30
0
41
1
10
9.78478562191185
20
1.85737788813103
30
0
41
1
10
9.48386591375953
20
1.8816869975218
30
0
41
1
10
8.88099470133508
20
1.88787651130818
30
0
41
1
10
8.5806055839106
20
1.87200859217282
30
0
41
1
10
8.27876426063119
20
1.83567977412497
30
0
0
SPLINE
5
CF
100
AcDbEntity
8
1
62
256
6
ByLayer
370
18
48
1
60
0
100
AcDbSpline
70
4
71
3
72
26
73
22
40
0
40
0
40
0
40
0
40
0.249999999999998
40
0.249999999999998
40
0.374999999999994
40
0.374999999999994
40
0.437499999999992
40
0.437499999999992
40
0.49999999999999
40
0.49999999999999
40
0.62499999999999
40
0.62499999999999
40
0.687499999999992
40
0.687499999999992
40
0.749999999999994
40
0.749999999999994
40
0.812499999999995
40
0.812499999999995
40
0.874999999999997
40
0.874999999999997
40
1
40
1
40
1
40
1
41
1
10
5.94592539273853
20
-1.22176560035925
30
0
41
1
10
5.77175354450986
20
-1.125635813473
30
0
41
1
10
5.60357558627703
20
-1.01672434024178
30
0
41
1
10
5.36578721771406
20
-0.821964808673556
30
0
41
1
10
5.28891287173326
20
-0.751500615706419
30
0
41
1
10
5.18179375729187
20
-0.637670213564434
30
0
41
1
10
5.14734554770649
20
-0.598273750762445
30
0
41
1
10
5.08143061369972
20
-0.516029693392653
30
0
41
1
10
5.04990986938029
20
-0.473064657217861
30
0
41
1
10
4.96239232109207
20
-0.340443142498486
30
0
41
1
10
4.91270008544774
20
-0.246535253031993
30
0
41
1
10
4.85643124670293
20
-0.0940458502879267
30
0
41
1
10
4.84102703110193
20
-0.0417706753411835
30
0
41
1
10
4.8182749748388
20
0.0635145084105204
30
0
41
1
10
4.81079462895235
20
0.116860285892699
30
0
41
1
10
4.80435870499531
20
0.225090194143974
30
0
41
1
10
4.80552006930753
20
0.279084305601629
30
0
41
1
10
4.81616073424522
20
0.384612992954175
30
0
41
1
10
4.82561577150261
20
0.436508042693816
30
0
41
1
10
4.86581864274504
20
0.589702695677943
30
0
41
1
10
4.90709216532727
20
0.683966078013242
30
0
41
1
10
4.95840461141421
20
0.771223797217601
30
0
0
SPLINE
5
D0
100
AcDbEntity
8
1
62
256
6
ByLayer
370
13
48
1
60
0
100
AcDbSpline
70
4
71
3
72
18
73
14
40
0
40
0
40
0
40
0
40
0.143092130837625
40
0.143092130837625
40
0.3144737046701
40
0.3144737046701
40
0.485855278502575
40
0.485855278502575
40
0.65723685233505
40
0.65723685233505
40
0.828618426167525
40
0.828618426167525
40
1
40
1
40
1
40
1
41
1
10
6.29465958837136
20
-1.88046305986046
30
0
41
1
10
6.29460867481109
20
-1.88056554996464
30
0
41
1
10
6.29456054840907
20
-1.87663095560561
30
0
41
1
10
6.29446030267604
20
-1.85886046100418
30
0
41
1
10
6.29440998818882
20
-1.843280597915
30
0
41
1
10
6.29431775296945
20
-1.80116785692906
30
0
41
1
10
6.29427556682299
20
-1.77458987187992
30
0
41
1
10
6.29419735488173
20
-1.71031133032955
30
0
41
1
10
6.29416115856631
20
-1.67233959106755
30
0
41
1
10
6.29409463652252
20
-1.58636580618537
30
0
41
1
10
6.29406406041795
20
-1.53810860475448
30
0
41
1
10
6.29400741276723
20
-1.43261667791288
30
0
41
1
10
6.29398148086992
20
-1.37575050123135
30
0
41
1
10
6.29395708556547
20
-1.31488825279774
30
0
0
SPLINE
5
D1
100
AcDbEntity
8
1
62
256
6
ByLayer
370
13
48
1
60
0
100
AcDbSpline
70
4
71
3
72
36
73
32
40
0
40
0
40
0
40
0
40
0.0209783500282146
40
0.0209783500282146
40
0.114218507168383
40
0.114218507168383
40
0.160838585738467
40
0.160838585738467
40
0.207458664308551
40
0.207458664308551
40
0.393938978588891
40
0.393938978588891
40
0.440559057158976
40
0.440559057158976
40
0.487179135729061
40
0.487179135729061
40
0.580419292869229
40
0.580419292869229
40
0.627039371439314
40
0.627039371439314
40
0.673659450009399
40
0.673659450009399
40
0.766899607149571
40
0.766899607149571
40
0.813519685719656
40
0.813519685719656
40
0.860139764289742
40
0.860139764289742
40
0.953379921429913
40
0.953379921429913
40
1
40
1
40
1
40
1
41
1
10
27.7599463934512
20
-1.91836725932154
30
0
41
1
10
27.6876420459088
20
-1.91860492026933
30
0
41
1
10
27.6154317516051
20
-1.91765021563543
30
0
41
1
10
27.2225747470568
20
-1.90600544974652
30
0
41
1
10
26.9034073551745
20
-1.87410097623928
30
0
41
1
10
26.4226387033332
20
-1.79233185689193
30
0
41
1
10
26.2621111814739
20
-1.75968759648026
30
0
41
1
10
25.9398902059654
20
-1.68367124708715
30
0
41
1
10
25.7777609415476
20
-1.64012253346414
30
0
41
1
10
24.9718375894931
20
-1.39925321527642
30
0
41
1
10
24.3368837197378
20
-1.13263562628987
30
0
41
1
10
23.5294332554556
20
-0.742720185078781
30
0
41
1
10
23.3673252941799
20
-0.662007602787384
30
0
41
1
10
23.0451001703693
20
-0.497932815701915
30
0
41
1
10
22.8844446070679
20
-0.414423302571123
30
0
41
1
10
22.402842435959
20
-0.161345497249243
30
0
41
1
10
22.0824652498126
20
0.011079230990191
30
0
41
1
10
21.59874840485
20
0.267442190671034
30
0
41
1
10
21.4365410745654
20
0.352748673030902
30
0
41
1
10
21.1134281636974
20
0.520317311190951
30
0
41
1
10
20.9524010752566
20
0.602417714982948
30
0
41
1
10
20.4698471405337
20
0.841796475920148
30
0
41
1
10
20.1491085761392
20
0.992868916667163
30
0
41
1
10
19.6652363287569
20
1.19918565659182
30
0
41
1
10
19.503087215915
20
1.26482381133076
30
0
41
1
10
19.179690265214
20
1.38787676769175
30
0
41
1
10
19.018529282296
20
1.44500530615903
30
0
41
1
10
18.535619300085
20
1.60222612985868
30
0
41
1
10
18.2149214636158
20
1.68904739228009
30
0
41
1
10
17.7309490409816
20
1.78655323583919
30
0
41
1
10
17.5688430340578
20
1.81394694978053
30
0
41
1
10
17.4070441781679
20
1.83575796044352
30
0
0
SPLINE
5
D2
100
AcDbEntity
8
1
62
256
6
ByLayer
370
18
48
1
60
0
100
AcDbSpline
70
4
71
4
72
10
73
5
40
0
40
0
40
0
40
0
40
0
40
1
40
1
40
1
40
1
40
1
41
1
10
9.87280729381473
20
-0.0091174040360897
30
0
41
1
10
9.79025576880883
20
0.0107430667342783
30
0
41
1
10
9.70770424380291
20
0.0306035375046463
30
0
41
1
10
9.62515271879701
20
0.0504640082749859
30
0
41
1
10
9.54260119379109
20
0.0703244790453539
30
0
0
SPLINE
5
D3
100
AcDbEntity
8
1
62
256
6
ByLayer
370
18
48
1
60
0
100
AcDbSpline
70
4
71
4
72
10
73
5
40
0
40
0
40
0
40
0
40
0
40
1
40
1
40
1
40
1
40
1
41
1
10
8.58446652999618
20
-1.04831028548529
30
0
41
1
10
8.50804096265495
20
-1.24515265764518
30
0
41
1
10
8.43161539531371
20
-1.4419950298051
30
0
41
1
10
8.35518982797248
20
-1.63883740196499
30
0
41
1
10
8.27876426063125
20
-1.83567977412488
30
0
0
SPLINE
5
D4
100
AcDbEntity
8
1
62
256
6
ByLayer
370
18
48
1
60
0
100
AcDbSpline
70
4
71
3
72
8
73
4
40
0
40
0
40
0
40
0
40
1
40
1
40
1
40
1
41
1
10
37.6108451512898
20
-1.05887302779189
30
0
41
1
10
37.6584931691971
20
-0.9328230842533
30
0
41
1
10
37.7085374770198
20
-0.813128388369904
30
0
41
1
10
37.7611952984406
20
-0.698418173986028
30
0
0
SPLINE
5
D5
100
AcDbEntity
8
1
62
256
6
ByLayer
370
18
48
1
60
0
100
AcDbSpline
70
4
71
3
72
14
73
10
40
0
40
0
40
0
40
0
40
0.25
40
0.25
40
0.5
40
0.5
40
0.75
40
0.75
40
1
40
1
40
1
40
1
41
1
10
37.6392816489186
20
-0.405038711386283
30
0
41
1
10
37.6598578381896
20
-0.413344380025649
30
0
41
1
10
37.6837849774465
20
-0.408324449680464
30
0
41
1
10
37.739223436884
20
-0.371016093787858
30
0
41
1
10
37.7694369808301
20
-0.339573554184256
30
0
41
1
10
37.8343122032019
20
-0.253365236004271
30
0
41
1
10
37.8677681928862
20
-0.200173200203778
30
0
41
1
10
37.9351518331881
20
-0.0776449006166899
30
0
41
1
10
37.9680782326623
20
-0.0101513588937792
30
0
41
1
10
37.9997149577939
20
0.0622873713394938
30
0
0
SPLINE
5
D6
100
AcDbEntity
8
1
62
256
6
ByLayer
370
18
48
1
60
0
100
AcDbSpline
70
4
71
3
72
34
73
30
40
0
40
0
40
0
40
0
40
0.0916758728621546
40
0.0916758728621546
40
0.183351745724309
40
0.183351745724309
40
0.229189682155387
40
0.229189682155387
40
0.275027618586464
40
0.275027618586464
40
0.366703491448619
40
0.366703491448619
40
0.412541427879695
40
0.412541427879695
40
0.458379364310772
40
0.458379364310772
40
0.550055237172925
40
0.550055237172925
40
0.641731110035078
40
0.641731110035078
40
0.687569046466155
40
0.687569046466155
40
0.733406982897231
40
0.733406982897231
40
0.916758728621536
40
0.916758728621536
40
0.962596665052612
40
0.962596665052612
40
1
40
1
40
1
40
1
41
1
10
6.20232749764821
20
1.80901073173305
30
0
41
1
10
6.52915380478612
20
1.74448025091902
30
0
41
1
10
6.85616133388174
20
1.65683067722875
30
0
41
1
10
7.50555914578763
20
1.44471948368371
30
0
41
1
10
7.82849174355152
20
1.3200092462813
30
0
41
1
10
8.31424092115145
20
1.11030211870491
30
0
41
1
10
8.47636181353559
20
1.03659376002091
30
0
41
1
10
8.80179685918341
20
0.882662941946819
30
0
41
1
10
8.96543902729329
20
0.802287637571993
30
0
41
1
10
9.45333513354149
20
0.555712058667069
30
0
41
1
10
9.77622264208529
20
0.383254890295547
30
0
41
1
10
10.261331259969
20
0.120418401335826
30
0
41
1
10
10.4231443736008
20
0.0320803105106791
30
0
41
1
10
10.7476671776533
20
-0.144801377321414
30
0
41
1
10
10.9107721230104
20
-0.233502803425296
30
0
41
1
10
11.3998137002636
20
-0.496827459769548
30
0
41
1
10
11.7225194231223
20
-0.666599819874165
30
0
41
1
10
12.3665578580552
20
-0.985800470058933
30
0
41
1
10
12.6879423805857
20
-1.13513946619494
30
0
41
1
10
13.1729684376751
20
-1.3373495808699
30
0
41
1
10
13.3351233832434
20
-1.40113504205854
30
0
41
1
10
13.66118094544
20
-1.52022095433273
30
0
41
1
10
13.8239319814029
20
-1.57508318282348
30
0
41
1
10
14.6331357312125
20
-1.82338890596006
30
0
41
1
10
15.2712274701851
20
-1.93955088942374
30
0
41
1
10
16.0838918948411
20
-1.96400808005055
30
0
41
1
10
16.247159777398
20
-1.96280577490234
30
0
41
1
10
16.5414511337003
20
-1.94967733089945
30
0
41
1
10
16.673304957439
20
-1.93980618843855
30
0
41
1
10
16.8049062584485
20
-1.92607232394079
30
0
0
SPLINE
5
D7
100
AcDbEntity
8
1
62
256
6
ByLayer
370
18
48
1
60
0
100
AcDbSpline
70
4
71
3
72
36
73
32
40
0
40
0
40
0
40
0
40
0.018647342534967
40
0.018647342534967
40
0.116782608281473
40
0.116782608281473
40
0.165850241154726
40
0.165850241154726
40
0.214917874027979
40
0.214917874027979
40
0.313053139774485
40
0.313053139774485
40
0.362120772647739
40
0.362120772647739
40
0.411188405520994
40
0.411188405520994
40
0.607458937014003
40
0.607458937014003
40
0.656526569887252
40
0.656526569887252
40
0.705594202760502
40
0.705594202760502
40
0.803729468507002
40
0.803729468507002
40
0.901864734253501
40
0.901864734253501
40
0.95093236712675
40
0.95093236712675
40
0.975466183563376
40
0.975466183563376
40
1
40
1
40
1
40
1
41
1
10
27.3584794860232
20
1.9823145838746
30
0
41
1
10
27.4194547096902
20
1.98241071188787
30
0
41
1
10
27.4804211610956
20
1.98164447127911
30
0
41
1
10
27.8623189644948
20
1.97144580603202
30
0
41
1
10
28.1830530042085
20
1.93893858158381
30
0
41
1
10
28.6687582764252
20
1.85488725431483
30
0
41
1
10
28.8317758073373
20
1.82078831105119
30
0
41
1
10
29.155482018171
20
1.7420308405342
30
0
41
1
10
29.3166052683504
20
1.69734209146802
30
0
41
1
10
29.7990078046693
20
1.54882018708091
30
0
41
1
10
30.1188967888552
20
1.43005367634115
30
0
41
1
10
30.6007644529017
20
1.22796044875136
30
0
41
1
10
30.7616208090957
20
1.15646710347002
30
0
41
1
10
31.0846030647078
20
1.00623259916028
30
0
41
1
10
31.2473361575727
20
0.927246245165662
30
0
41
1
10
32.057975786745
20
0.520235539181016
30
0
41
1
10
32.6936228723354
20
0.159022417488671
30
0
41
1
10
33.4992463034589
20
-0.287703278220022
30
0
41
1
10
33.6611482452495
20
-0.376914544041966
30
0
41
1
10
33.9859308137763
20
-0.552901640809807
30
0
41
1
10
34.1474752399433
20
-0.638957677612581
30
0
41
1
10
34.630471119254
20
-0.889941211098005
30
0
41
1
10
34.9502542735443
20
-1.04771371690145
30
0
41
1
10
35.5910442790534
20
-1.33531021495503
30
0
41
1
10
35.9120072049558
20
-1.46519554610745
30
0
41
1
10
36.3986760620123
20
-1.63260011247647
30
0
41
1
10
36.5610726872146
20
-1.68359322101475
30
0
41
1
10
36.8040275532324
20
-1.75202028486754
30
0
41
1
10
36.8849718380294
20
-1.77351158317529
30
0
41
1
10
37.0468488944824
20
-1.8137875443735
30
0
41
1
10
37.1275178720264
20
-1.83274970291595
30
0
41
1
10
37.2089040698465
20
-1.84985288274379
30
0
0
SPLINE
5
D8
100
AcDbEntity
8
1
62
256
6
ByLayer
370
13
48
1
60
0
100
AcDbSpline
70
4
71
3
72
98
73
94
40
0
40
0
40
0
40
0
40
0.0013812697839826
40
0.0078689959393616
40
0.016210358139133
40
0.0310394464942814
40
0.0532830790270109
40
0.0606976232045859
40
0.0755267115597388
40
0.0903557999148888
40
0.116306704536401
40
0.120013976625189
40
0.127428520802764
40
0.134843064980338
40
0.14967215333549
40
0.157086697513066
40
0.164501241690642
40
0.172842603890412
40
0.179330330045792
40
0.185818056201168
40
0.194159418400944
40
0.208988506756093
40
0.231232139288819
40
0.238646683466395
40
0.253475771821547
40
0.268304860176696
40
0.294255764798209
40
0.297963036886998
40
0.305377581064571
40
0.31279212524215
40
0.3276212135973
40
0.335035757774874
40
0.342450301952451
40
0.350791664152224
40
0.357279390307601
40
0.363767116462981
40
0.372108478662753
40
0.386937567017904
40
0.409181199550627
40
0.416595743728204
40
0.431424832083354
40
0.446253920438506
40
0.472204825060018
40
0.475912097148808
40
0.483326641326384
40
0.490741185503957
40
0.505570273859109
40
0.512984818036685
40
0.52039936221426
40
0.53522845056941
40
0.542642994746987
40
0.550057538924563
40
0.564886627279712
40
0.572301171457287
40
0.579715715634863
40
0.588057077834634
40
0.594544803990013
40
0.601032530145393
40
0.609373892345164
40
0.624202980700315
40
0.646446613233042
40
0.653861157410617
40
0.668690245765767
40
0.683519334120918
40
0.709470238742432
40
0.71317751083122
40
0.720592055008795
40
0.728006599186371
40
0.742835687541521
40
0.750250231719097
40
0.757664775896671
40
0.766006138096445
40
0.772493864251823
40
0.778981590407203
40
0.787322952606974
40
0.802152040962124
40
0.824395673494851
40
0.831810217672426
40
0.846639306027577
40
0.861468394382726
40
0.887419299004241
40
0.891126571093029
40
0.898541115270603
40
0.90595565944818
40
0.92078474780333
40
0.928199291980905
40
0.935613836158481
40
0.943955198358253
40
0.950442924513632
40
0.956930650669011
40
0.965272012868782
40
0.980101101223933
40
1
40
1
40
1
40
1
41
1
10
33.9467645652682
20
-0.851700355037252
30
0
41
1
10
33.9431867132296
20
-0.852333957205929
30
0
41
1
10
33.9228040017918
20
-0.855936312380237
30
0
41
1
10
33.880815835025
20
-0.863271839921254
30
0
41
1
10
33.8039974375585
20
-0.876387072630507
30
0
41
1
10
33.6863720807438
20
-0.895734331351917
30
0
41
1
10
33.5711311428443
20
-0.913559659861846
30
0
41
1
10
33.4558923851282
20
-0.930444730246393
30
0
41
1
10
33.3598691347294
20
-0.943889383740867
30
0
41
1
10
33.2158355354138
20
-0.96281011461457
30
0
41
1
10
33.1005918251056
20
-0.976632251739005
30
0
41
1
10
33.0045527997634
20
-0.98733114664492
30
0
41
1
10
32.9565398398685
20
-0.992495161614812
30
0
41
1
10
32.8797200258166
20
-1.00040281746763
30
0
41
1
10
32.8028967111046
20
-1.00780806347316
30
0
41
1
10
32.7260710566093
20
-1.01470977422028
30
0
41
1
10
32.6660531955696
20
-1.01980930365522
30
0
41
1
10
32.6084352696048
20
-1.02442659257116
30
0
41
1
10
32.5532185864755
20
-1.02860117518466
30
0
41
1
10
32.4980036365757
20
-1.03254590327231
30
0
41
1
10
32.4211852019603
20
-1.0376558947851
30
0
41
1
10
32.303559738858
20
-1.04459165052268
30
0
41
1
10
32.1883186394465
20
-1.05012068775542
30
0
41
1
10
32.0730796989153
20
-1.05457325698984
30
0
41
1
10
31.9770562818053
20
-1.05754482732343
30
0
41
1
10
31.8330224308418
20
-1.06060305362942
30
0
41
1
10
31.7177785554696
20
-1.06165530272048
30
0
41
1
10
31.6217394535457
20
-1.0616623430372
30
0
41
1
10
31.5737264699116
20
-1.06144537639256
30
0
41
1
10
31.496906647938
20
-1.06071586429795
30
0
41
1
10
31.4200833640328
20
-1.05946640272032
30
0
41
1
10
31.3432577641291
20
-1.05770197464622
30
0
41
1
10
31.2832399550291
20
-1.05601119876505
30
0
41
1
10
31.2256220890787
20
-1.05410364901613
30
0
41
1
10
31.1704054720519
20
-1.05202002042992
30
0
41
1
10
31.1151906009432
20
-1.04969864851492
30
0
41
1
10
31.0383722995827
20
-1.04607740261235
30
0
41
1
10
30.9207470803692
20
-1.03962707992409
30
0
41
1
10
30.8055062420097
20
-1.03209370319001
30
0
41
1
10
30.6902675311187
20
-1.02349902058708
30
0
41
1
10
30.5942442837946
20
-1.01558769960778
30
0
41
1
10
30.4502106458616
20
-1.00236236157593
30
0
41
1
10
30.334966885687
20
-0.990499866461988
30
0
41
1
10
30.238927837694
20
-0.979814653881533
30
0
41
1
10
30.1909148746105
20
-0.974247526166607
30
0
41
1
10
30.1140950801287
20
-0.964983392650083
30
0
41
1
10
30.0372718242441
20
-0.955253755543481
30
0
41
1
10
29.9604462424593
20
-0.945069018185166
30
0
41
1
10
29.8836265851917
20
-0.934483312447071
30
0
41
1
10
29.8068033112599
20
-0.92344886639421
30
0
41
1
10
29.7299775926982
20
-0.911976644124053
30
0
41
1
10
29.6531577681604
20
-0.900113676715108
30
0
41
1
10
29.5763343078063
20
-0.887820483903823
30
0
41
1
10
29.4995084907483
20
-0.875108759227288
30
0
41
1
10
29.439490527785
20
-0.864907390112222
30
0
41
1
10
29.3818725279381
20
-0.854883237653951
30
0
41
1
10
29.3266557988956
20
-0.845069673810912
30
0
41
1
10
29.2714408270048
20
-0.835059636594025
30
0
41
1
10
29.1946223962085
20
-0.820809764433022
30
0
41
1
10
29.0769970105455
20
-0.798263896123359
30
0
41
1
10
28.9617560692849
20
-0.775305378701773
30
0
41
1
10
28.8465173172837
20
-0.751554877466219
30
0
41
1
10
28.7504940641773
20
-0.731177474173393
30
0
41
1
10
28.6064604452164
20
-0.699627188629648
30
0
41
1
10
28.4912167161432
20
-0.673554522707008
30
0
41
1
10
28.3951776864654
20
-0.651305986356135
30
0
41
1
10
28.3471647253606
20
-0.640003756103482
30
0
41
1
10
28.2703449076186
20
-0.621679715021287
30
0
41
1
10
28.1935215843169
20
-0.603069415239872
30
0
41
1
10
28.1166959164359
20
-0.584187380099252
30
0
41
1
10
28.0566780511871
20
-0.569244521248635
30
0
41
1
10
27.9990601300533
20
-0.554749546634127
30
0
41
1
10
27.9438434623559
20
-0.540724334862205
30
0
41
1
10
27.8886285440159
20
-0.526568125828817
30
0
41
1
10
27.8118101820631
20
-0.50665780626386
30
0
41
1
10
27.6941848852561
20
-0.475706417810613
30
0
41
1
10
27.5789440024506
20
-0.444924304304919
30
0
41
1
10
27.4637052830137
20
-0.41369044515082
30
0
41
1
10
27.3676820398696
20
-0.387301468338563
30
0
41
1
10
27.2236483922822
20
-0.347188654454186
30
0
41
1
10
27.1084045827722
20
-0.31475474478367
30
0
41
1
10
27.0123654410542
20
-0.287511436808273
30
0
41
1
10
26.9643524148229
20
-0.273778853297927
30
0
41
1
10
26.8875324789366
20
-0.25169794887114
30
0
41
1
10
26.810709025976
20
-0.229518885849615
30
0
41
1
10
26.7338832307738
20
-0.207256200666137
30
0
41
1
10
26.6738652625956
20
-0.189779974650975
30
0
41
1
10
26.6162472400038
20
-0.172956418741251
30
0
41
1
10
26.5610304729174
20
-0.15679247911828
30
0
41
1
10
26.5058154526297
20
-0.140582349104847
30
0
41
1
10
26.428996947575
20
-0.117954019798617
30
0
41
1
10
26.317444458114
20
-0.0849659589572127
30
0
41
1
10
26.227484914317
20
-0.0583762185908938
30
0
41
1
10
26.1759389076083
20
-0.0431274937352271
30
0
0
SPLINE
5
D9
100
AcDbEntity
8
1
62
256
6
ByLayer
370
13
48
1
60
0
100
AcDbSpline
70
4
71
3
72
42
73
38
40
0
40
0
40
0
40
0
40
0.0201755701705958
40
0.0401719871058899
40
0.0801648209764769
40
0.120157654847065
40
0.190145114120594
40
0.200143322588241
40
0.220139739523535
40
0.240136156458829
40
0.280128990329417
40
0.300125407264711
40
0.320121824200004
40
0.342617793252211
40
0.360114658070593
40
0.377611522888974
40
0.400107491941181
40
0.440100325811769
40
0.500089576617651
40
0.520085993552945
40
0.560078827423533
40
0.60007166129412
40
0.670059120567649
40
0.680057329035296
40
0.70005374597059
40
0.720050162905884
40
0.760042996776472
40
0.780039413711767
40
0.800035830647061
40
0.840028664517649
40
0.860025081452943
40
0.880021498388237
40
0.907516571674265
40
0.920014332258824
40
0.932512092843382
40
0.960007166129412
40
1
40
1
40
1
40
1
41
1
10
11.4658544886349
20
-0.848351394070562
30
0
41
1
10
11.4464758868693
20
-0.851806789283813
30
0
41
1
10
11.4078905159237
20
-0.858613523500225
30
0
41
1
10
11.3308925834674
20
-0.871901876780299
30
0
41
1
10
11.2348693064869
20
-0.887896676813114
30
0
41
1
10
11.0908356584645
20
-0.910718178673278
30
0
41
1
10
10.9755919073803
20
-0.927718501729288
30
0
41
1
10
10.8795528540808
20
-0.941102339234362
30
0
41
1
10
10.8315398821345
20
-0.947623608658546
30
0
41
1
10
10.7547200528708
20
-0.957720313511771
30
0
41
1
10
10.677896727576
20
-0.967333465052519
30
0
41
1
10
10.6010710610987
20
-0.976460440445777
30
0
41
1
10
10.5410531877267
20
-0.983312187470091
30
0
41
1
10
10.483435248614
20
-0.989621209272087
30
0
41
1
10
10.428218552655
20
-0.995425639846673
30
0
41
1
10
10.3730035923111
20
-1.0010089720808
30
0
41
1
10
10.2961851491454
20
-1.00841305168504
30
0
41
1
10
10.1785596844892
20
-1.01889074259634
30
0
41
1
10
10.0633185961829
20
-1.02790936507037
30
0
41
1
10
9.9480796700341
20
-1.03587464053496
30
0
41
1
10
9.85205626790776
20
-1.04179477639812
30
0
41
1
10
9.70802245088802
20
-1.04929939363774
30
0
41
1
10
9.59277861802946
20
-1.05391215515408
30
0
41
1
10
9.49673956375733
20
-1.05688832833877
30
0
41
1
10
9.44872660989157
20
-1.05816256174316
30
0
41
1
10
9.37190685449417
20
-1.05982132717494
30
0
41
1
10
9.29508366683442
20
-1.06095783505128
30
0
41
1
10
9.21825816828721
20
-1.06157538583173
30
0
41
1
10
9.14143860239892
20
-1.06177213172074
30
0
41
1
10
9.06461542971627
20
-1.06144648435929
30
0
41
1
10
8.98778982739026
20
-1.06060237554104
30
0
41
1
10
8.92297128097965
20
-1.05954621155343
30
0
41
1
10
8.86535261303496
20
-1.05829692619812
30
0
41
1
10
8.81493623079373
20
-1.05697379844878
30
0
41
1
10
8.76452352177682
20
-1.05547259069891
30
0
41
1
10
8.68770514066372
20
-1.05279598698797
30
0
41
1
10
8.6228810718238
20
-1.05008578742343
30
0
41
1
10
8.58446652999621
20
-1.04831028548529
30
0
0
SPLINE
5
DA
100
AcDbEntity
8
1
62
256
6
ByLayer
370
18
48
1
60
0
100
AcDbSpline
70
4
71
3
72
8
73
4
40
0
40
0
40
0
40
0
40
1
40
1
40
1
40
1
41
1
10
37.1047440058841
20
0.054838913113457
30
0
41
1
10
37.2167547232643
20
0.0146436474467464
30
0
41
1
10
37.3295916441694
20
-0.0210560305251306
30
0
41
1
10
37.4433569190484
20
-0.0517042937117651
30
0
0
SPLINE
5
DB
100
AcDbEntity
8
1
62
256
6
ByLayer
370
18
48
1
60
0
100
AcDbSpline
70
4
71
3
72
38
73
34
40
0
40
0
40
0
40
0
40
0.0243372310532651
40
0.0243372310532651
40
0.0649830734520695
40
0.0649830734520695
40
0.146274758249679
40
0.146274758249679
40
0.186920600648484
40
0.186920600648484
40
0.227566443047289
40
0.227566443047289
40
0.3088581278449
40
0.3088581278449
40
0.39014981264251
40
0.39014981264251
40
0.430795655041316
40
0.430795655041316
40
0.471441497440122
40
0.471441497440122
40
0.634024867035345
40
0.634024867035345
40
0.715316551832957
40
0.715316551832957
40
0.796608236630568
40
0.796608236630568
40
0.837254079029374
40
0.837254079029374
40
0.877899921428181
40
0.877899921428181
40
0.959191606225794
40
0.959191606225794
40
1
40
1
40
1
40
1
41
1
10
16.1175090808828
20
1.96206574587404
30
0
41
1
10
16.2149957874335
20
1.96206883599802
30
0
41
1
10
16.3124655389377
20
1.95989668111932
30
0
41
1
10
16.5715599959961
20
1.9483270993677
30
0
41
1
10
16.7330459348554
20
1.93512491823748
30
0
41
1
10
17.2164972092727
20
1.87822473176308
30
0
41
1
10
17.5371041330545
20
1.8169272156473
30
0
41
1
10
18.020576731255
20
1.69314993668868
30
0
41
1
10
18.1820113915036
20
1.64648386915997
30
0
41
1
10
18.5061445710089
20
1.54274779209084
30
0
41
1
10
18.6694903051355
20
1.48554084996138
30
0
41
1
10
19.1566790319167
20
1.30184468135903
30
0
41
1
10
19.478261689004
20
1.16259267029963
30
0
41
1
10
20.1211990300962
20
0.860281909749915
30
0
41
1
10
20.4421615085369
20
0.696602539234107
30
0
41
1
10
20.9273757448424
20
0.43968205297881
30
0
41
1
10
21.0901155486952
20
0.351756990383848
30
0
41
1
10
21.4153559845599
20
0.174255461235077
30
0
41
1
10
21.5771924972933
20
0.085226236899814
30
0
41
1
10
22.3839526364453
20
-0.3586167652862
30
0
41
1
10
23.0210235236676
20
-0.710523110137245
30
0
41
1
10
23.9976269923101
20
-1.17275502719843
30
0
41
1
10
24.320204171672
20
-1.31323308036394
30
0
41
1
10
24.9629836031092
20
-1.55798403356653
30
0
41
1
10
25.2832204239177
20
-1.66299210444035
30
0
41
1
10
25.7665153372705
20
-1.78914542945864
30
0
41
1
10
25.9279917022469
20
-1.82608155946653
30
0
41
1
10
26.2524894395057
20
-1.88883449752197
30
0
41
1
10
26.4153978383651
20
-1.91454356467261
30
0
41
1
10
26.9005096904235
20
-1.97331798889292
30
0
41
1
10
27.2210659820217
20
-1.9885998731049
30
0
41
1
10
27.7030982112468
20
-1.97568310011781
30
0
41
1
10
27.8641575374446
20
-1.96533349405729
30
0
41
1
10
28.0255825462767
20
-1.94900324460511
30
0
0
SPLINE
5
DC
100
AcDbEntity
8
1
62
256
6
ByLayer
370
18
48
1
60
0
100
AcDbSpline
70
4
71
3
72
12
73
8
40
0
40
0
40
0
40
0
40
0.5
40
0.5
40
0.75
40
0.75
40
1
40
1
40
1
40
1
41
1
10
37.1047440058841
20
0.054838913113457
30
0
41
1
10
37.0777411248853
20
-0.10679158157285
30
0
41
1
10
37.0611054248204
20
-0.267136932455685
30
0
41
1
10
37.0520746605824
20
-0.505681127155839
30
0
41
1
10
37.0518027477462
20
-0.584808717278833
30
0
41
1
10
37.0567372770378
20
-0.737883411568987
30
0
41
1
10
37.0619102179714
20
-0.812414008004907
30
0
41
1
10
37.0698002582582
20
-0.884929381452309
30
0
0
SPLINE
5
DD
100
AcDbEntity
8
1
62
256
6
ByLayer
370
18
48
1
60
0
100
AcDbSpline
70
4
71
3
72
8
73
4
40
0
40
0
40
0
40
0
40
1
40
1
40
1
40
1
41
1
10
37.8375353181308
20
0.488146732222674
30
0
41
1
10
37.8120425829157
20
0.558220557246358
30
0
41
1
10
37.7865958877838
20
0.628311029914613
30
0
41
1
10
37.7611952984407
20
0.698418173985829
30
0
0
SPLINE
5
DE
100
AcDbEntity
8
1
62
256
6
ByLayer
370
18
48
1
60
0
100
AcDbSpline
70
4
71
3
72
8
73
4
40
0
40
0
40
0
40
0
40
1
40
1
40
1
40
1
41
1
10
37.6108451512898
20
1.05887302779189
30
0
41
1
10
37.6584931691971
20
0.932823084253272
30
0
41
1
10
37.7085374770198
20
0.813128388369876
30
0
41
1
10
37.7611952984406
20
0.698418173985999
30
0
0
SPLINE
5
DF
100
AcDbEntity
8
1
62
256
6
ByLayer
370
18
48
1
60
0
100
AcDbSpline
70
4
71
3
72
22
73
18
40
0
40
0
40
0
40
0
40
0.152811318693959
40
0.152811318693959
40
0.305622637387917
40
0.305622637387917
40
0.458433956081876
40
0.458433956081876
40
0.611245274775835
40
0.611245274775835
40
0.764056593469793
40
0.764056593469793
40
0.840462252816771
40
0.840462252816771
40
0.916867912163749
40
0.916867912163749
40
1
40
1
40
1
40
1
41
1
10
9.8728072938149
20
-0.0091174040361466
30
0
41
1
10
10.1592760114517
20
-0.165500910368792
30
0
41
1
10
10.4446184286986
20
-0.320658217374017
30
0
41
1
10
11.0161882032418
20
-0.622871034450839
30
0
41
1
10
11.3027189592691
20
-0.77057635392552
30
0
41
1
10
11.8741274527673
20
-1.04652481333389
30
0
41
1
10
12.1595217232257
20
-1.17648328076712
30
0
41
1
10
12.7321630478156
20
-1.41127099909315
30
0
41
1
10
13.0172443079586
20
-1.51591774557886
30
0
41
1
10
13.5884808251718
20
-1.69533574546935
30
0
41
1
10
13.8750502414961
20
-1.7697705522589
30
0
41
1
10
14.3030831786367
20
-1.85499236945188
30
0
41
1
10
14.4458157723443
20
-1.87899344952518
30
0
41
1
10
14.7314793168849
20
-1.91810953352268
30
0
41
1
10
14.874750926322
20
-1.93317950452575
30
0
41
1
10
15.17304500106
20
-1.95491061084917
30
0
41
1
10
15.3282861112872
20
-1.96069770595125
30
0
41
1
10
15.4835372596182
20
-1.96096190567508
30
0
0
SPLINE
5
E0
100
AcDbEntity
8
1
62
256
6
ByLayer
370
18
48
1
60
0
100
AcDbSpline
70
4
71
3
72
50
73
46
40
0
40
0
40
0
40
0
40
0.006954518792507
40
0.006954518792507
40
0.0690198613679767
40
0.0690198613679767
40
0.131085203943446
40
0.131085203943446
40
0.162117875231181
40
0.162117875231181
40
0.193150546518916
40
0.193150546518916
40
0.255215889094386
40
0.255215889094386
40
0.286248560382119
40
0.286248560382119
40
0.317281231669853
40
0.317281231669853
40
0.348313902957587
40
0.348313902957587
40
0.37934657424532
40
0.37934657424532
40
0.441411916820788
40
0.441411916820788
40
0.472444588108522
40
0.472444588108522
40
0.503477259396255
40
0.503477259396255
40
0.565542601971723
40
0.565542601971723
40
0.62760794454719
40
0.62760794454719
40
0.689673287122658
40
0.689673287122658
40
0.751738629698125
40
0.751738629698125
40
0.813803972273593
40
0.813803972273593
40
0.87586931484906
40
0.87586931484906
40
0.906901986136795
40
0.906901986136795
40
0.93793465742453
40
0.93793465742453
40
1
40
1
40
1
40
1
41
1
10
23.4834574900011
20
1.21495156567923
30
0
41
1
10
23.5154484499503
20
1.22889278470075
30
0
41
1
10
23.5474510186315
20
1.24269259503811
30
0
41
1
10
23.8651950699551
20
1.37819316137012
30
0
41
1
10
24.1494044590987
20
1.48784323715725
30
0
41
1
10
24.7194699107954
20
1.677044088922
30
0
41
1
10
25.0053998498567
20
1.75691275332159
30
0
41
1
10
25.43241232018
20
1.85043621161839
30
0
41
1
10
25.5747015847915
20
1.87728173082974
30
0
41
1
10
25.8595933284689
20
1.92203526069929
30
0
41
1
10
26.0025426903553
20
1.93991097400107
30
0
41
1
10
26.4303653615789
20
1.97961434589962
30
0
41
1
10
26.7147953733235
20
1.98740572291041
30
0
41
1
10
27.1420080857023
20
1.97086269899421
30
0
41
1
10
27.2850226757043
20
1.96065510173523
30
0
41
1
10
27.5700271559648
20
1.93093976971869
30
0
41
1
10
27.7123835927108
20
1.91152199676671
30
0
41
1
10
27.9969253335164
20
1.86367750928846
30
0
41
1
10
28.1391662795948
20
1.83526580956635
30
0
41
1
10
28.4241754695295
20
1.76981425174355
30
0
41
1
10
28.5669442686786
20
1.73259924371487
30
0
41
1
10
28.9943952710353
20
1.60951411342179
30
0
41
1
10
29.2783279863273
20
1.51144587461661
30
0
41
1
10
29.7059123534401
20
1.34386350997485
30
0
41
1
10
29.8485810370063
20
1.28435930328956
30
0
41
1
10
30.133395349809
20
1.16029543376129
30
0
41
1
10
30.2754873919934
20
1.09524799795938
30
0
41
1
10
30.7022542535998
20
0.893216832887646
30
0
41
1
10
30.987724675508
20
0.747967101392817
30
0
41
1
10
31.5567948239716
20
0.446724932426065
30
0
41
1
10
31.8407303023079
20
0.290782269066483
30
0
41
1
10
32.4109237897992
20
-0.025556936053647
30
0
41
1
10
32.6954188148989
20
-0.183972911979566
30
0
41
1
10
33.2637465694648
20
-0.496448006695488
30
0
41
1
10
33.5493357311253
20
-0.649491097196858
30
0
41
1
10
34.1179133017583
20
-0.940108878518203
30
0
41
1
10
34.4019677737076
20
-1.0781807286989
30
0
41
1
10
34.9720406782573
20
-1.33158969746671
30
0
41
1
10
35.2556569583792
20
-1.44662072113908
30
0
41
1
10
35.6821621596777
20
-1.59752095248069
30
0
41
1
10
35.8246418825354
20
-1.64442565991735
30
0
41
1
10
36.1093104554157
20
-1.72979073092427
30
0
41
1
10
36.2511491213529
20
-1.76846080833718
30
0
41
1
10
36.6764106949825
20
-1.87148031116084
30
0
41
1
10
36.9591612721647
20
-1.92318584881019
30
0
41
1
10
37.2432077745901
20
-1.9565754574669
30
0
0
SPLINE
5
E1
100
AcDbEntity
8
1
62
256
6
ByLayer
370
13
48
1
60
0
100
AcDbSpline
70
4
71
3
72
99
73
95
40
0
40
0
40
0
40
0
40
0.000981917033478
40
0.0074230103128423
40
0.0157044159577386
40
0.0304269148819992
40
0.0525106632683847
40
0.0598719127305168
40
0.0745944116547755
40
0.0893169105790361
40
0.115081283696489
40
0.118761908427556
40
0.126123157889686
40
0.133484407351814
40
0.148206906276075
40
0.155568155738205
40
0.162929405200335
40
0.177651904124594
40
0.185013153586725
40
0.192374403048856
40
0.207096901973114
40
0.214458151435243
40
0.221819400897373
40
0.230100806542269
40
0.236541899821633
40
0.242982993100998
40
0.251264398745893
40
0.265986897670152
40
0.288070646056542
40
0.295431895518672
40
0.310154394442931
40
0.324876893367191
40
0.350641266484646
40
0.354321891215711
40
0.36168314067784
40
0.369044390139971
40
0.38376688906423
40
0.391128138526361
40
0.398489387988488
40
0.406770793633386
40
0.41321188691275
40
0.419652980192115
40
0.427934385837009
40
0.442656884761268
40
0.464740633147659
40
0.472101882609788
40
0.486824381534048
40
0.501546880458306
40
0.527311253575762
40
0.530991878306827
40
0.538353127768956
40
0.545714377231087
40
0.560436876155346
40
0.567798125617476
40
0.575159375079606
40
0.583440780724502
40
0.589881874003866
40
0.596322967283229
40
0.604604372928125
40
0.619326871852384
40
0.641410620238774
40
0.648771869700905
40
0.663494368625163
40
0.678216867549423
40
0.703981240666879
40
0.707661865397943
40
0.715023114860073
40
0.722384364322203
40
0.737106863246462
40
0.744468112708592
40
0.751829362170722
40
0.760110767815618
40
0.766551861094982
40
0.772992954374346
40
0.781274360019242
40
0.795996858943501
40
0.818080607329891
40
0.825441856792021
40
0.84016435571628
40
0.85488685464054
40
0.880651227757994
40
0.884331852489059
40
0.891693101951189
40
0.899054351413319
40
0.913776850337579
40
0.921138099799709
40
0.928499349261838
40
0.936780754906735
40
0.943221848186098
40
0.949662941465462
40
0.957944347110358
40
0.972666846034618
40
0.994750594421007
40
1
40
1
40
1
40
1
41
1.00000000000001
10
32.1362226222989
20
0.0426181676871235
30
0
41
1.00000000000001
10
32.1336607480471
20
0.0433775234130561
30
0
41
1.00000000000001
10
32.1142936742295
20
0.0491175776118094
30
0
41
1.00000000000001
10
32.0733191745375
20
0.0612530166853556
30
0
41
1.00000000000001
10
31.9964916351686
20
0.0839557711346964
30
0
41
1.00000000000001
10
31.878846655922
20
0.118612350372614
30
0
41
1.00000000000001
10
31.763618755028
20
0.152549836583289
30
0
41
1.00000000000001
10
31.6483887231644
20
0.186329804702722
30
0
41
1.00000000000001
10
31.552354670004
20
0.214283268193354
30
0
41
1.00000000000001
10
31.4083023552012
20
0.255900782968039
30
0
41
1.00000000000001
10
31.2930773809612
20
0.288997474192824
30
0
41
1.00000000000001
10
31.1970591542369
20
0.316366059200474
30
0
41
1.00000000000001
10
31.149043469111
20
0.329934057548795
30
0
41
1.00000000000001
10
31.0722174250349
20
0.351509048150829
30
0
41
1.00000000000001
10
30.9953948482352
20
0.37294077980101
30
0
41
1.00000000000001
10
30.91857460121
20
0.394215173016786
30
0
41
1.00000000000001
10
30.8417484198404
20
0.415278689569587
30
0
41
1.00000000000001
10
30.764925861085
20
0.436166458786655
30
0
41
1.00000000000001
10
30.6881057508921
20
0.456864678141355
30
0
41
1.00000000000001
10
30.611279736846
20
0.477329007172241
30
0
41
1.00000000000001
10
30.5344573645895
20
0.497585938860734
30
0
41
1.00000000000001
10
30.4576373529626
20
0.517621770362208
30
0
41
1.00000000000001
10
30.3976195086557
20
0.53310049608643
30
0
41
1.00000000000001
10
30.3400031348489
20
0.547820481181215
30
0
41
1.00000000000001
10
30.2847869217141
20
0.561795436341125
30
0
41
1.00000000000001
10
30.2295689485324
20
0.5756351524989
30
0
41
1.00000000000001
10
30.1527415386286
20
0.594657350923167
30
0
41
1.00000000000001
10
30.0350967258692
20
0.623251065705143
30
0
41
1.00000000000001
10
29.9198689278853
20
0.65062471306319
30
0
41
1.00000000000001
10
29.8046389370962
20
0.677317587836508
30
0
41
1.00000000000001
10
29.7086048896771
20
0.699029518846709
30
0
41
1.00000000000001
10
29.5645525558439
20
0.730654832041688
30
0
41
1.00000000000001
10
29.4493275504599
20
0.755097216347986
30
0
41
1.00000000000001
10
29.3533093053901
20
0.77485317646258
30
0
41
1.00000000000001
10
29.3052936182796
20
0.784533894391211
30
0
41
1.00000000000001
10
29.2284675974861
20
0.799732978599218
30
0
41
1.00000000000001
10
29.1516450881727
20
0.814558564875222
30
0
41
1.00000000000001
10
29.0748249273066
20
0.828999251567717
30
0
41
1.00000000000001
10
29.0148069852516
20
0.840024011274317
30
0
41
1.00000000000001
10
28.957190532712
20
0.85038408135403
30
0
41
1.00000000000001
10
28.9019742582291
20
0.86010468986239
30
0
41
1.00000000000001
10
28.8467562315031
20
0.869625135721486
30
0
41
1.00000000000001
10
28.7699287527664
20
0.882538788244454
30
0
41
1.00000000000001
10
28.6522838511698
20
0.90154516865578
30
0
41
1.00000000000001
10
28.5370559947395
20
0.919161287651257
30
0
41
1.00000000000001
10
28.4218259713705
20
0.935816671580703
30
0
41
1.00000000000001
10
28.3257919139558
20
0.949001133954987
30
0
41
1.00000000000001
10
28.1817396086805
20
0.967517781756179
30
0
41
1.00000000000001
10
28.0665146836832
20
0.981115335342814
30
0
41
1.00000000000001
10
27.9704965506419
20
0.991630118793573
30
0
41
1.00000000000001
10
27.9224809286586
20
0.996661735892893
30
0
41
1.00000000000001
10
27.8456550260209
20
1.00435164433031
30
0
41
1.00000000000001
10
27.7688326463891
20
1.01155496696983
30
0
41
1.00000000000001
10
27.6920126128754
20
1.01826491353159
30
0
41
1.00000000000001
10
27.6319947737814
20
1.0232045994337
30
0
41
1.00000000000001
10
27.5743784227315
20
1.02767146649111
30
0
41
1.00000000000001
10
27.5191622476642
20
1.03169877016509
30
0
41
1.00000000000001
10
27.463944322907
20
1.03549044114413
30
0
41
1.00000000000001
10
27.3871169872955
20
1.0403835700838
30
0
41
1.00000000000001
10
27.2694722953088
20
1.04698891720906
30
0
41
1.00000000000001
10
27.1542445954139
20
1.05224203448443
30
0
41
1.00000000000001
10
27.0390146495114
20
1.05640049436138
30
0
41
1.00000000000001
10
26.9429805939135
20
1.05911357733003
30
0
41
1.00000000000001
10
26.7989281757013
20
1.06179945010563
30
0
41
1.00000000000001
10
26.6837030508105
20
1.06256437841869
30
0
41
1.00000000000001
10
26.5876847031181
20
1.06231026788017
30
0
41
1.00000000000001
10
26.5396689629473
20
1.06196382573605
30
0
41
1.00000000000001
10
26.4628428506971
20
1.06103414319053
30
0
41
1.00000000000001
10
26.3860202402755
20
1.05957956527217
30
0
41
1.00000000000001
10
26.3091999748956
20
1.05759674761011
30
0
41
1.00000000000001
10
26.2491819602774
20
1.05574425109361
30
0
41
1.00000000000001
10
26.1915654503439
20
1.05367897391144
30
0
41
1.00000000000001
10
26.1363491361102
20
1.05143680438282
30
0
41
1.00000000000001
10
26.0811310853349
20
1.04895680755154
30
0
41
1.00000000000001
10
26.0043035948965
20
1.04512804954532
30
0
41
1.00000000000001
10
25.886658720016
20
1.03838331413672
30
0
41
1.00000000000001
10
25.7714309385438
20
1.03051351113825
30
0
41
1.00000000000001
10
25.6562010041053
20
1.02156809661138
30
0
41
1.00000000000001
10
25.5601670194539
20
1.01340952498244
30
0
41
1.00000000000001
10
25.4161147956076
20
0.999856833251805
30
0
41
1.00000000000001
10
25.3008898844679
20
0.987653730399067
30
0
41
1.00000000000001
10
25.2048717090964
20
0.97664059479208
30
0
41
1.00000000000001
10
25.156856053449
20
0.970951708408471
30
0
41
1.00000000000001
10
25.0800300735482
20
0.96151214771961
30
0
41
1.00000000000001
10
25.0032075907116
20
0.951584242782097
30
0
41
1.00000000000001
10
24.926387451663
20
0.941171369528455
30
0
41
1.00000000000001
10
24.8663695351311
20
0.932777514252984
30
0
41
1.00000000000001
10
24.8087531138479
20
0.92446477861352
30
0
41
1.00000000000001
10
24.7535368754308
20
0.916266911328642
30
0
41
1.00000000000001
10
24.6983188888855
20
0.907866499798012
30
0
41
1.00000000000001
10
24.6214914694105
20
0.89586390491234
30
0
41
1.00000000000001
10
24.5038466630014
20
0.876746054528888
30
0
41
1.00000000000001
10
24.3941284461923
20
0.857855024093163
30
0
41
1.00000000000001
10
24.3228182311727
20
0.845064320740584
30
0
41
1.00000000000001
10
24.3091226807472
20
0.84258912329542
30
0
0
SPLINE
5
E2
100
AcDbEntity
8
1
62
256
6
ByLayer
370
13
48
1
60
0
100
AcDbSpline
70
4
71
3
72
11
73
7
40
0
40
0
40
0
40
0
40
0.118281019938659
40
0.256049610573234
40
0.559140509969324
40
1
40
1
40
1
40
1
41
1.00000000000001
10
9.80398513662418
20
-0.0071780254885709
30
0
41
1.00000000000001
10
9.79367974537907
20
-0.0041188399831071
30
0
41
1.00000000000001
10
9.77137098838061
20
0.0025040850424318
30
0
41
1.00000000000001
10
9.72265161831386
20
0.0169415896751842
30
0
41
1.00000000000001
10
9.64582415871185
20
0.039681699569712
30
0
41
1.00000000000001
10
9.58100956356985
20
0.0589213991217999
30
0
41
1.00000000000001
10
9.54260119379113
20
0.0703244790453534
30
0
0
SPLINE
5
E3
100
AcDbEntity
8
1
62
256
6
ByLayer
370
18
48
1
60
0
100
AcDbSpline
70
4
71
3
72
20
73
16
40
0
40
0
40
0
40
0
40
0.227998446610659
40
0.227998446610659
40
0.455996893221318
40
0.455996893221318
40
0.569996116526648
40
0.569996116526648
40
0.683995339831977
40
0.683995339831977
40
0.797994563137307
40
0.797994563137307
40
0.911993786442637
40
0.911993786442637
40
1
40
1
40
1
40
1
41
1
10
8.27876426063128
20
-1.83567977412486
30
0
41
1
10
8.58081511487231
20
-1.87203381076137
30
0
41
1
10
8.881057341402
20
-1.8878576290663
30
0
41
1
10
9.48296972873194
20
-1.88171441230133
30
0
41
1
10
9.78506816671486
20
-1.8573341024221
30
0
41
1
10
10.2361953288435
20
-1.79400801816291
30
0
41
1
10
10.3865558503684
20
-1.76745771669565
30
0
41
1
10
10.6875623729713
20
-1.70498812190527
30
0
41
1
10
10.8385744456058
20
-1.66924160199662
30
0
41
1
10
11.1398827383028
20
-1.59005855003144
30
0
41
1
10
11.2902622376769
20
-1.54587535904182
30
0
41
1
10
11.5908885554815
20
-1.44879802213859
30
0
41
1
10
11.7412922149775
20
-1.39644269574384
30
0
41
1
10
12.0078946184146
20
-1.29781486362629
30
0
41
1
10
12.124346315103
20
-1.25282390444724
30
0
41
1
10
12.2406396601007
20
-1.20563322684424
30
0
0
SPLINE
5
E4
100
AcDbEntity
8
1
62
256
6
ByLayer
370
18
48
1
60
0
100
AcDbSpline
70
4
71
3
72
68
73
64
40
0
40
0
40
0
40
0
40
0.0081942153546194
40
0.0081942153546194
40
0.0394684758553303
40
0.0394684758553303
40
0.0707427363560414
40
0.0707427363560414
40
0.102016996856752
40
0.102016996856752
40
0.133291257357464
40
0.133291257357464
40
0.164565517858175
40
0.164565517858175
40
0.195839778358886
40
0.195839778358886
40
0.227114038859597
40
0.227114038859597
40
0.258388299360308
40
0.258388299360308
40
0.289662559861019
40
0.289662559861019
40
0.32093682036173
40
0.32093682036173
40
0.352211080862441
40
0.352211080862441
40
0.383485341363152
40
0.383485341363152
40
0.414759601863863
40
0.414759601863863
40
0.446033862364574
40
0.446033862364574
40
0.477308122865285
40
0.477308122865285
40
0.508582383365996
40
0.508582383365996
40
0.539856643866707
40
0.539856643866707
40
0.571130904367418
40
0.571130904367418
40
0.602405164868129
40
0.602405164868129
40
0.63367942536884
40
0.63367942536884
40
0.664953685869551
40
0.664953685869551
40
0.696227946370262
40
0.696227946370262
40
0.727502206870974
40
0.727502206870974
40
0.790050727872394
40
0.790050727872394
40
0.821324988373103
40
0.821324988373103
40
0.852599248873813
40
0.852599248873813
40
0.883873509374523
40
0.883873509374523
40
0.915147769875233
40
0.915147769875233
40
0.977696290876653
40
0.977696290876653
40
1
40
1
40
1
40
1
41
1
10
20.3440218932768
20
1.90539896850748
30
0
41
1
10
20.3833464466435
20
1.90533786292559
30
0
41
1
10
20.4226804656735
20
1.90493891096648
30
0
41
1
10
20.6122154729646
20
1.90148887446131
30
0
41
1
10
20.7626661304776
20
1.89455614580876
30
0
41
1
10
21.063423629605
20
1.87007051113446
30
0
41
1
10
21.2134296320985
20
1.85211221920858
30
0
41
1
10
21.5134426599369
20
1.80666138083217
30
0
41
1
10
21.6632777762822
20
1.77987343394287
30
0
41
1
10
21.9634957714144
20
1.71688378681966
30
0
41
1
10
22.1140368956642
20
1.68020096454546
30
0
41
1
10
22.4144118541532
20
1.59789695028661
30
0
41
1
10
22.5644163440471
20
1.55273245686087
30
0
41
1
10
22.8643333196295
20
1.45525235473002
30
0
41
1
10
23.0141948562351
20
1.40205339974582
30
0
41
1
10
23.314721810888
20
1.28825108565903
30
0
41
1
10
23.4651813192965
20
1.22743100525062
30
0
41
1
10
23.7653683075213
20
1.10113296672671
30
0
41
1
10
23.9152558592568
20
1.03485209765901
30
0
41
1
10
24.2153221746515
20
0.89682242428151
30
0
41
1
10
24.3653493722299
20
0.824799815987035
30
0
41
1
10
24.6661217761575
20
0.677542482143991
30
0
41
1
10
24.8161438559445
20
0.601832578651994
30
0
41
1
10
25.1159759058567
20
0.447759300567498
30
0
41
1
10
25.2657870020023
20
0.369276099917329
30
0
41
1
10
25.5658209371156
20
0.211088094732304
30
0
41
1
10
25.7159029609929
20
0.130712433742531
30
0
41
1
10
26.0163499446052
20
-0.0298060655524068
30
0
41
1
10
26.1661357283089
20
-0.11021516056158
30
0
41
1
10
26.4658316193795
20
-0.26964423518632
30
0
41
1
10
26.615501679913
20
-0.349234964336603
30
0
41
1
10
26.9155408292287
20
-0.50573303141644
30
0
41
1
10
27.0658507309579
20
-0.5832673014813
30
0
41
1
10
27.3660473612656
20
-0.733844380250815
30
0
41
1
10
27.5157835724744
20
-0.807859192207047
30
0
41
1
10
27.8153528610934
20
-0.951340230084213
30
0
41
1
10
27.9650878123021
20
-1.0205028023544
30
0
41
1
10
28.265523994215
20
-1.15265367822136
30
0
41
1
10
28.4158142190132
20
-1.21633861043992
30
0
41
1
10
28.7157359023846
20
-1.33771480188804
30
0
41
1
10
28.8653985641034
20
-1.3946954513963
30
0
41
1
10
29.1651089531744
20
-1.50012698363304
30
0
41
1
10
29.3150874320917
20
-1.54885868781432
30
0
41
1
10
29.6156008023179
20
-1.63958125192491
30
0
41
1
10
29.7655070702948
20
-1.68088509015121
30
0
41
1
10
30.0651681400052
20
-1.7530424278452
30
0
41
1
10
30.2149166590142
20
-1.7843615116241
30
0
41
1
10
30.5144863041108
20
-1.83956951272182
30
0
41
1
10
30.6645280363238
20
-1.86329636184377
30
0
41
1
10
31.1145548288435
20
-1.91567860856676
30
0
41
1
10
31.4135367618554
20
-1.92850022110528
30
0
41
1
10
31.8630383076023
20
-1.91962630975954
30
0
41
1
10
32.0133340065661
20
-1.91185711699683
30
0
41
1
10
32.3129793987467
20
-1.88721092998026
30
0
41
1
10
32.4626137970946
20
-1.87039886859472
30
0
41
1
10
32.7617043658977
20
-1.82579545543135
30
0
41
1
10
32.9114394126321
20
-1.79815118189757
30
0
41
1
10
33.2111787552553
20
-1.73349039902808
30
0
41
1
10
33.3613826654976
20
-1.69669180882352
30
0
41
1
10
33.8103869560987
20
-1.57277787369509
30
0
41
1
10
34.1094029378527
20
-1.47307451633807
30
0
41
1
10
34.5162783303099
20
-1.31801552094086
30
0
41
1
10
34.6230894068555
20
-1.27545911417266
30
0
41
1
10
34.7298268698717
20
-1.23126994956559
30
0
0
SPLINE
5
E5
100
AcDbEntity
8
1
62
256
6
ByLayer
370
13
48
1
60
0
100
AcDbSpline
70
4
71
3
72
11
73
7
40
0
40
0
40
0
40
0
40
0.463305597881314
40
0.463305597881314
40
0.926611195762627
40
1
40
1
40
1
40
1
41
1
10
6.29511519117872
20
1.7977494573943
30
0
41
1
10
6.2950362645559
20
1.82310469549287
30
0
41
1
10
6.294960692264
20
1.84275555362365
30
0
41
1
10
6.29481881431255
20
1.87011252356211
30
0
41
1
10
6.29474191023888
20
1.8791341607749
30
0
41
1
10
6.2946704757878
20
1.88042816415387
30
0
41
1
10
6.29466080807754
20
1.88045983406374
30
0
0
SPLINE
5
E6
100
AcDbEntity
8
1
62
256
6
ByLayer
370
18
48
1
60
0
100
AcDbSpline
70
4
71
3
72
10
73
6
40
0
40
0
40
0
40
0
40
0.5
40
0.5
40
1
40
1
40
1
40
1
41
1
10
37.6355858006484
20
-0.401316431965995
30
0
41
1
10
37.5922590399033
20
-0.372371323181738
30
0
41
1
10
37.5553549829084
20
-0.324981052646706
30
0
41
1
10
37.4908263453588
20
-0.203551073807205
30
0
41
1
10
37.4645833714927
20
-0.1316449882369
30
0
41
1
10
37.4433569190491
20
-0.0517042937118788
30
0
0
SPLINE
5
E7
100
AcDbEntity
8
1
62
256
6
ByLayer
370
18
48
1
60
0
100
AcDbSpline
70
4
71
3
72
8
73
4
40
0
40
0
40
0
40
0
40
1
40
1
40
1
40
1
41
1
10
37.6355858006484
20
-0.401316431965967
30
0
41
1
10
37.6368176925504
20
-0.402557248885387
30
0
41
1
10
37.6380496419788
20
-0.403798008694764
30
0
41
1
10
37.6392816489249
20
-0.405038711387022
30
0
0
SPLINE
5
E8
100
AcDbEntity
8
1
62
256
6
ByLayer
370
13
48
1
60
0
100
AcDbSpline
70
4
71
3
72
32
73
28
40
0
40
0
40
0
40
0
40
0.0580548818197783
40
0.0580548818197783
40
0.116109763639557
40
0.116109763639557
40
0.232219527279117
40
0.232219527279117
40
0.348329290918678
40
0.348329290918678
40
0.406384172738458
40
0.406384172738458
40
0.464439054558238
40
0.464439054558238
40
0.580548818197799
40
0.580548818197799
40
0.638603700017579
40
0.638603700017579
40
0.696658581837359
40
0.696658581837359
40
0.75471346365714
40
0.75471346365714
40
0.81276834547692
40
0.81276834547692
40
0.928878109116481
40
0.928878109116481
40
1
40
1
40
1
40
1
41
1
10
37.1795220143191
20
-1.69739202587581
30
0
41
1
10
37.0182155760303
20
-1.65521373023867
30
0
41
1
10
36.8570586985465
20
-1.60800355874585
30
0
41
1
10
36.5345879524389
20
-1.50418350867136
30
0
41
1
10
36.3729796512746
20
-1.44742681932382
30
0
41
1
10
35.889364603296
20
-1.26498592116346
30
0
41
1
10
35.5698971015805
20
-1.12760388249788
30
0
41
1
10
34.9314015949904
20
-0.829942212498167
30
0
41
1
10
34.6124400509229
20
-0.669630244542134
30
0
41
1
10
34.1303910300861
20
-0.418684071726659
30
0
41
1
10
33.96860277066
20
-0.332992117684825
30
0
41
1
10
33.6464162390066
20
-0.160731887913016
30
0
41
1
10
33.4860144960321
20
-0.074208309675214
30
0
41
1
10
33.0057734891423
20
0.184441346205034
30
0
41
1
10
32.6870988203256
20
0.356016838905447
30
0
41
1
10
32.2071809129061
20
0.60432079902364
30
0
41
1
10
32.0469143176197
20
0.685653862822676
30
0
41
1
10
31.7251499977203
20
0.84422716972594
30
0
41
1
10
31.563306659712
20
0.921622045652214
30
0
41
1
10
31.240536250956
20
1.06985441977525
30
0
41
1
10
31.0793934576821
20
1.14082718074303
30
0
41
1
10
30.7570315835708
20
1.27551663798738
30
0
41
1
10
30.5956095596318
20
1.33920601716687
30
0
41
1
10
30.110832629508
20
1.51674953871344
30
0
41
1
10
29.790720579603
20
1.61762890721244
30
0
41
1
10
29.2748309890565
20
1.7462596913941
30
0
41
1
10
29.0790770260888
20
1.78768176097904
30
0
41
1
10
28.8828427362183
20
1.82088040787457
30
0
0
SPLINE
5
E9
100
AcDbEntity
8
1
62
256
6
ByLayer
370
13
48
1
60
0
100
AcDbSpline
70
4
71
3
72
34
73
30
40
0
40
0
40
0
40
0
40
0.0486538022492144
40
0.0486538022492144
40
0.0962211121367536
40
0.0962211121367536
40
0.143788422024293
40
0.143788422024293
40
0.238923041799371
40
0.238923041799371
40
0.334057661574449
40
0.334057661574449
40
0.381624971461989
40
0.381624971461989
40
0.429192281349528
40
0.429192281349528
40
0.524326901124606
40
0.524326901124606
40
0.571894211012146
40
0.571894211012146
40
0.619461520899686
40
0.619461520899686
40
0.809730760449843
40
0.809730760449843
40
0.857298070337382
40
0.857298070337382
40
0.904865380224921
40
0.904865380224921
40
1
40
1
40
1
40
1
41
1
10
16.4528396307
20
-1.89737552902275
30
0
41
1
10
16.2888682201783
20
-1.89646466582198
30
0
41
1
10
16.1249741623531
20
-1.88960903028126
30
0
41
1
10
15.8001619666095
20
-1.86413882647636
30
0
41
1
10
15.6393087957074
20
-1.84591118473443
30
0
41
1
10
15.3166014560118
20
-1.79820764741603
30
0
41
1
10
15.1542620713606
20
-1.76854092299914
30
0
41
1
10
14.6692150305711
20
-1.66415120303253
30
0
41
1
10
14.3485076178921
20
-1.57398529238779
30
0
41
1
10
13.7068335905914
20
-1.35845851349288
30
0
41
1
10
13.386116778638
20
-1.23310780347151
30
0
41
1
10
12.9011002808885
20
-1.02352689243242
30
0
41
1
10
12.7384671872437
20
-0.950070744409174
30
0
41
1
10
12.4154362586758
20
-0.798544071791383
30
0
41
1
10
12.2545845373266
20
-0.720250264890154
30
0
41
1
10
11.7725007878743
20
-0.48056211253612
30
0
41
1
10
11.4521747287423
20
-0.313668641327638
30
0
41
1
10
10.9694462611583
20
-0.0597468155049796
30
0
41
1
10
10.8080892820811
20
0.0253234699506777
30
0
41
1
10
10.4841760805892
20
0.195766072475209
30
0
41
1
10
10.3218351239404
20
0.280967648537171
30
0
41
1
10
9.51488779079159
20
0.697934989589385
30
0
41
1
10
8.87757128961741
20
1.00876280613608
30
0
41
1
10
8.06621612218174
20
1.32465866460285
30
0
41
1
10
7.90414094731545
20
1.38377971771277
30
0
41
1
10
7.58150332505937
20
1.4928057612199
30
0
41
1
10
7.42069294294259
20
1.54275049146585
30
0
41
1
10
6.938573060745
20
1.67766077289349
30
0
41
1
10
6.61778299630257
20
1.74859212811222
30
0
41
1
10
6.2951151911787
20
1.7977494573943
30
0
0
SPLINE
5
EA
100
AcDbEntity
8
1
62
256
6
ByLayer
370
18
48
1
60
0
100
AcDbSpline
70
4
71
3
72
8
73
4
40
0
40
0
40
0
40
0
40
1
40
1
40
1
40
1
41
1
10
37.6818100664279
20
0.64957046728432
30
0
41
1
10
37.709272143256
20
0.664043786926669
30
0
41
1
10
37.7361796127721
20
0.680257286414758
30
0
41
1
10
37.7611952984401
20
0.698418173985601
30
0
0
SPLINE
5
EB
100
AcDbEntity
8
1
62
256
6
ByLayer
370
18
48
1
60
0
100
AcDbSpline
70
4
71
1
72
4
73
2
40
0
40
0
40
1
40
1
41
1
10
37.6304613250265
20
-0.434815625834347
30
0
41
1
10
37.6392816489237
20
-0.405038711388272
30
0
0
SPLINE
5
EC
100
AcDbEntity
8
1
62
256
6
ByLayer
370
18
48
1
60
0
100
AcDbSpline
70
4
71
2
72
6
73
3
40
0
40
0
40
0
40
1
40
1
40
1
41
1
10
26.1909984691033
20
-0.0475821705830981
30
0
41
1
10
25.8779955590718
20
0.0446998191757473
30
0
41
1
10
25.5705156750443
20
0.210113220609969
30
0
0
SPLINE
5
ED
100
AcDbEntity
8
1
62
256
6
ByLayer
370
18
48
1
60
0
100
AcDbSpline
70
4
71
2
72
6
73
3
40
0
40
0
40
0
40
1
40
1
40
1
41
1
10
14.9405855130494
20
-0.0475015729411155
30
0
41
1
10
14.6396061926418
20
0.0402970611000626
30
0
41
1
10
14.3409022323298
20
0.19964610331661
30
0
0
SPLINE
5
EE
100
AcDbEntity
8
1
62
256
6
ByLayer
370
18
48
1
60
0
100
AcDbSpline
70
4
71
2
72
6
73
3
40
0
40
0
40
0
40
1
40
1
40
1
41
1
10
37.3215044627715
20
-0.0097789087523097
30
0
41
1
10
37.0686351439743
20
0.0766282028752698
30
0
41
1
10
36.8167927430922
20
0.209930658724346
30
0
0
SPLINE
5
EF
100
AcDbEntity
8
1
62
256
6
ByLayer
370
18
48
1
60
0
100
AcDbSpline
70
4
71
2
72
6
73
3
40
0
40
0
40
0
40
1
40
1
40
1
41
1
10
20.8660735553247
20
0.0484469066446422
30
0
41
1
10
21.1944233737354
20
-0.0476165608245367
30
0
41
1
10
21.5197307729805
20
-0.227441936519256
30
0
0
SPLINE
5
F0
100
AcDbEntity
8
1
62
256
6
ByLayer
370
18
48
1
60
0
100
AcDbSpline
70
4
71
2
72
6
73
3
40
0
40
0
40
0
40
1
40
1
40
1
41
1
10
32.1160004284501
20
0.0486107032155871
30
0
41
1
10
32.4672010232289
20
-0.0558351355540196
30
0
41
1
10
32.8138412752937
20
-0.248996372648008
30
0
0
SPLINE
5
F1
100
AcDbEntity
8
1
62
256
6
ByLayer
370
18
48
1
60
0
100
AcDbSpline
70
4
71
2
72
6
73
3
40
0
40
0
40
0
40
1
40
1
40
1
41
1
10
9.79410469291483
20
-0.0042450062033765
30
0
41
1
10
10.0361847700117
20
-0.0965232276942913
30
0
41
1
10
10.2775516687521
20
-0.230614380232566
30
0
0
SPLINE
5
F2
100
AcDbEntity
8
1
62
256
6
ByLayer
370
18
48
1
60
0
100
AcDbSpline
70
4
71
3
72
15
73
11
40
0
40
0
40
0
40
0
40
0.169588908046301
40
0.313294928394006
40
0.433359480516705
40
0.531761189323001
40
0.619705566022512
40
0.736395488907174
40
0.874585029770124
40
1
40
1
40
1
40
1
41
1
10
27.7018902422085
20
-1.91836082810212
30
0
41
1
10
27.9222364770649
20
-1.91806782692206
30
0
41
1
10
28.3295172538793
20
-1.91785143467229
30
0
41
1
10
28.8930771260959
20
-1.92132971202642
30
0
41
1
10
29.3650066795986
20
-1.92029956150503
30
0
41
1
10
29.7641078457939
20
-1.92230091518815
30
0
41
1
10
30.1595799809021
20
-1.92138344900531
30
0
41
1
10
30.6026854887799
20
-1.92449059537012
30
0
41
1
10
31.0985823533275
20
-1.92304781258926
30
0
41
1
10
31.439188110886
20
-1.92359111159317
30
0
41
1
10
31.6010164885567
20
-1.9238059090743
30
0
0
SPLINE
5
F3
100
AcDbEntity
8
1
62
256
6
ByLayer
370
18
48
1
60
0
100
AcDbSpline
70
4
71
3
72
18
73
14
40
0
40
0
40
0
40
0
40
0.156261760742373
40
0.270478928697226
40
0.367821439489231
40
0.469352384474398
40
0.53161448635181
40
0.583050983305177
40
0.631351449541308
40
0.692109774821966
40
0.777852462508627
40
0.888474255364211
40
1
40
1
40
1
40
1
41
1
10
16.4491206518611
20
-1.89738368277287
30
0
41
1
10
16.6512132449266
20
-1.89798795910639
30
0
41
1
10
17.001055260744
20
-1.89892918016608
30
0
41
1
10
17.4775499310175
20
-1.89932963507658
30
0
41
1
10
17.8821375203572
20
-1.90050429643071
30
0
41
1
10
18.2204089292233
20
-1.90175873498339
30
0
41
1
10
18.4990299983824
20
-1.90167373874596
30
0
41
1
10
18.7086247733469
20
-1.90205517723203
30
0
41
1
10
18.9161140335881
20
-1.90276763060868
30
0
41
1
10
19.1684226027741
20
-1.90370417667202
30
0
41
1
10
19.5012858724855
20
-1.90304341953319
30
0
41
1
10
19.8998949412996
20
-1.90523030920366
30
0
41
1
10
20.1874441298228
20
-1.90530077658579
30
0
41
1
10
20.3317964130793
20
-1.90528619745837
30
0
0
SPLINE
5
F4
100
AcDbEntity
8
1
62
256
6
ByLayer
370
18
48
1
60
0
100
AcDbSpline
70
4
71
3
72
14
73
10
40
0
40
0
40
0
40
0
40
0.136603346330541
40
0.287328361720241
40
0.414603481912274
40
0.510525484754865
40
0.658661741481047
40
0.850392125096228
40
1
40
1
40
1
40
1
41
1
10
31.600346649241
20
1.92380538269364
30
0
41
1
10
31.4387407463968
20
1.92359094384216
30
0
41
1
10
31.0983550598976
20
1.92305446020231
30
0
41
1
10
30.6026956202956
20
1.9244679043847
30
0
41
1
10
30.159551676005
20
1.92144613880205
30
0
41
1
10
29.715375667982
20
1.92220429384614
30
0
41
1
10
29.1944178805189
20
1.92049108545757
30
0
41
1
10
28.6114484013195
20
1.91931494415661
30
0
41
1
10
28.2041124549124
20
1.91877638208581
30
0
41
1
10
28.0255098567676
20
1.91860336051678
30
0
0
SPLINE
5
F5
100
AcDbEntity
8
1
62
256
6
ByLayer
370
18
48
1
60
0
100
AcDbSpline
70
4
71
3
72
13
73
9
40
0
40
0
40
0
40
0
40
0.128598451460187
40
0.2695678447325
40
0.372602955640755
40
0.528493206257739
40
0.747788540123686
40
1
40
1
40
1
40
1
41
1
10
6.29462505726454
20
-1.88039365990167
30
0
41
1
10
6.41451209985402
20
-1.88056678181061
30
0
41
1
10
6.66582669581661
20
-1.88097966122504
30
0
41
1
10
7.01324022283663
20
-1.88096341131202
30
0
41
1
10
7.38608724982717
20
-1.88244603517492
30
0
41
1
10
7.8319656706945
20
-1.8830642458266
30
0
41
1
10
8.41693280468348
20
-1.88419754640316
30
0
41
1
10
8.8565457454209
20
-1.8848835063994
30
0
41
1
10
9.09169583913632
20
-1.88524570466413
30
0
0
SPLINE
5
F6
100
AcDbEntity
8
1
62
256
6
ByLayer
370
18
48
1
60
0
100
AcDbSpline
70
4
71
3
72
17
73
13
40
0
40
0
40
0
40
0
40
0.150952321256775
40
0.276984462535212
40
0.362894238299744
40
0.448290651464611
40
0.538581992699948
40
0.620079186276258
40
0.683446055668818
40
0.763032910004436
40
0.898777003867059
40
1
40
1
40
1
40
1
41
1
10
20.3422714324947
20
1.90524592279138
30
0
41
1
10
20.1627573671247
20
1.90500326906746
30
0
41
1
10
19.8333281414705
20
1.90461725423131
30
0
41
1
10
19.4012501785018
20
1.9031803512664
30
0
41
1
10
19.0477016355976
20
1.9035715201004
30
0
41
1
10
18.7364135892436
20
1.90199024920187
30
0
41
1
10
18.4303278040169
20
1.90166095469243
30
0
41
1
10
18.1504096644063
20
1.90163533986421
30
0
41
1
10
17.8834592852712
20
1.90051227937388
30
0
41
1
10
17.5520083794444
20
1.89919129610016
30
0
41
1
10
17.1751023591829
20
1.89924498055703
30
0
41
1
10
16.8932020803142
20
1.89865288361497
30
0
41
1
10
16.7728131942693
20
1.89833849261274
30
0
0
SPLINE
5
F7
100
AcDbEntity
8
1
62
256
6
ByLayer
370
18
48
1
60
0
100
AcDbSpline
70
4
71
3
72
15
73
11
40
0
40
0
40
0
40
0
40
0.178379207438909
40
0.340510381886819
40
0.45523956874352
40
0.522030822106034
40
0.591438572729693
40
0.705132186967227
40
0.864377620568396
40
1
40
1
40
1
40
1
41
1
10
9.08803961514994
20
1.88522722921502
30
0
41
1
10
8.9219370299468
20
1.88494429600024
30
0
41
1
10
8.60483841746051
20
1.88438868043878
30
0
41
1
10
8.18087727157973
20
1.88356693291107
30
0
41
1
10
7.86075208138351
20
1.88297298116225
30
0
41
1
10
7.62715140341297
20
1.88292534433654
30
0
41
1
10
7.39482843261038
20
1.88250590952455
30
0
41
1
10
7.07597469770212
20
1.88095525439758
30
0
41
1
10
6.69541807916437
20
1.88098159777118
30
0
41
1
10
6.42087293680424
20
1.88053839799471
30
0
41
1
10
6.29461121273027
20
1.88037962470523
30
0
0
LINE
5
7B
100
AcDbEntity
8
SK1
62
256
6
ByLayer
370
18
48
1
60
0
100
AcDbLine
10
0
20
-3
30
0
11
0
21
3
31
0
39
0
210
0
220
0
230
1
0
LINE
5
7D
100
AcDbEntity
8
SK1
62
256
6
ByLayer
370
18
48
1
60
0
100
AcDbLine
10
-34.989637
20
3
30
0
11
-34.989637
21
-3
31
0
39
0
210
0
220
0
230
1
0
LINE
5
7E
100
AcDbEntity
8
SK1
62
256
6
ByLayer
370
18
48
1
60
0
100
AcDbLine
10
-36
20
1.25
30
0
11
-36
21
-1.25
31
0
39
0
210
0
220
0
230
1
0
LINE
5
7F
100
AcDbEntity
8
1
62
256
6
ByLayer
370
13
48
1
60
0
100
AcDbLine
10
1.578112
20
1.935917
30
0
11
1.578112
21
-1.935917
31
0
39
0
210
0
220
0
230
1
0
LINE
5
80
100
AcDbEntity
8
1
62
256
6
ByLayer
370
13
48
1
60
0
100
AcDbLine
10
0.788291
20
2.467958
30
0
11
0.788291
21
-2.467958
31
0
39
0
210
0
220
0
230
1
0
LINE
5
81
100
AcDbEntity
8
1
62
256
6
ByLayer
370
18
48
1
60
0
100
AcDbLine
10
0
20
-3
30
0
11
0
21
3
31
0
39
0
210
0
220
0
230
1
0
LINE
5
82
100
AcDbEntity
8
1
62
256
6
ByLayer
370
18
48
1
60
0
100
AcDbLine
10
37.0698
20
-0.884929
30
0
11
37.630461
21
-0.434816
31
0
39
0
210
0
220
0
230
1
0
LINE
5
83
100
AcDbEntity
8
1
62
256
6
ByLayer
370
18
48
1
60
0
100
AcDbLine
10
37.630461
20
-0.434816
30
0
11
37.635586
21
-0.401316
31
0
39
0
210
0
220
0
230
1
0
LINE
5
84
100
AcDbEntity
8
80
62
256
6
ByLayer
370
18
48
1
60
0
100
AcDbLine
10
0
20
0
30
0
11
-5
21
0
31
0
39
0
210
0
220
0
230
1
0
LINE
5
85
100
AcDbEntity
8
4
62
256
6
ByLayer
370
18
48
0.05
60
0
100
AcDbLine
10
38
20
0
30
0
11
0
21
0
31
0
39
0
210
0
220
0
230
1
0
LINE
5
87
100
AcDbEntity
8
SK4
62
256
6
ByLayer
370
18
48
0.05
60
0
100
AcDbLine
10
43
20
0
30
0
11
-41
21
0
31
0
39
0
210
0
220
0
230
1
0
LINE
5
89
100
AcDbEntity
8
SK1
62
256
6
ByLayer
370
18
48
1
60
0
100
AcDbLine
10
-36
20
-1.25
30
0
11
-34.989637
21
-3
31
0
39
0
210
0
220
0
230
1
0
LINE
5
8A
100
AcDbEntity
8
SK1
62
256
6
ByLayer
370
18
48
1
60
0
100
AcDbLine
10
-34.989637
20
3
30
0
11
-36
21
1.25
31
0
39
0
210
0
220
0
230
1
0
LINE
5
8B
100
AcDbEntity
8
SK1
62
256
6
ByLayer
370
18
48
1
60
0
100
AcDbLine
10
-34.989637
20
-3
30
0
11
0
21
-3
31
0
39
0
210
0
220
0
230
1
0
LINE
5
8C
100
AcDbEntity
8
SK1
62
256
6
ByLayer
370
18
48
1
60
0
100
AcDbLine
10
0
20
3
30
0
11
-34.989637
21
3
31
0
39
0
210
0
220
0
230
1
0
LINE
5
8D
100
AcDbEntity
8
1
62
256
6
ByLayer
370
18
48
1
60
0
100
AcDbLine
10
1.578112
20
-1.935917
30
0
11
5.94297
21
-1.943774
31
0
39
0
210
0
220
0
230
1
0
LINE
5
8E
100
AcDbEntity
8
1
62
256
6
ByLayer
370
18
48
1
60
0
100
AcDbLine
10
15.482873
20
-1.960946
30
0
11
16.106095
21
-1.962068
31
0
39
0
210
0
220
0
230
1
0
LINE
5
8F
100
AcDbEntity
8
1
62
256
6
ByLayer
370
18
48
1
60
0
100
AcDbLine
10
26.737614
20
-1.981204
30
0
11
27.357919
21
-1.982321
31
0
39
0
210
0
220
0
230
1
0
LINE
5
90
100
AcDbEntity
8
1
62
256
6
ByLayer
370
18
48
1
60
0
100
AcDbLine
10
27.357433
20
1.98232
30
0
11
26.737614
21
1.981204
31
0
39
0
210
0
220
0
230
1
0
LINE
5
91
100
AcDbEntity
8
1
62
256
6
ByLayer
370
18
48
1
60
0
100
AcDbLine
10
16.106086
20
1.962067
30
0
11
15.482873
21
1.960946
31
0
39
0
210
0
220
0
230
1
0
LINE
5
92
100
AcDbEntity
8
1
62
256
6
ByLayer
370
18
48
1
60
0
100
AcDbLine
10
5.94297
20
1.943774
30
0
11
1.578112
21
1.935917
31
0
39
0
210
0
220
0
230
1
0
LINE
5
93
100
AcDbEntity
8
81
62
256
6
ByLayer
370
18
48
1
60
0
100
AcDbLine
10
38
20
0
30
0
11
43
21
0
31
0
39
0
210
0
220
0
230
1
0
LINE
5
94
100
AcDbEntity
8
SK2
62
256
6
ByLayer
370
13
48
1
60
0
100
AcDbLine
10
-44.625163
20
32.117107
30
0
11
-44.625163
21
-11.75
31
0
39
0
210
0
220
0
230
1
0
LINE
5
96
100
AcDbEntity
8
SK2
62
256
6
ByLayer
370
13
48
1
60
0
100
AcDbLine
10
-37.5875
20
3
30
0
11
-46.625163
21
3
31
0
39
0
210
0
220
0
230
1
0
LINE
5
97
100
AcDbEntity
8
SK2
62
256
6
ByLayer
370
13
48
1
60
0
100
AcDbLine
10
-37.5875
20
-3
30
0
11
-46.625163
21
-3
31
0
39
0
210
0
220
0
230
1
0
LINE
5
98
100
AcDbEntity
8
1
62
256
6
ByLayer
370
18
48
1
60
1
100
AcDbLine
10
-44.625163
20
3
30
0
11
-45.085946
21
6.499998
31
0
39
0
210
0
220
0
230
1
0
LINE
5
99
100
AcDbEntity
8
1
62
256
6
ByLayer
370
18
48
1
60
1
100
AcDbLine
10
-45.085946
20
6.499998
30
0
11
-44.164379
21
6.500002
31
0
39
0
210
0
220
0
230
1
0
LINE
5
9A
100
AcDbEntity
8
1
62
256
6
ByLayer
370
18
48
1
60
1
100
AcDbLine
10
-44.164379
20
6.500002
30
0
11
-44.625163
21
3
31
0
39
0
210
0
220
0
230
1
0
LINE
5
9B
100
AcDbEntity
8
1
62
256
6
ByLayer
370
18
48
1
60
1
100
AcDbLine
10
-44.625163
20
-3
30
0
11
-44.164379
21
-6.499998
31
0
39
0
210
0
220
0
230
1
0
LINE
5
9C
100
AcDbEntity
8
1
62
256
6
ByLayer
370
18
48
1
60
1
100
AcDbLine
10
-44.164379
20
-6.499998
30
0
11
-45.085946
21
-6.500002
31
0
39
0
210
0
220
0
230
1
0
LINE
5
9D
100
AcDbEntity
8
1
62
256
6
ByLayer
370
18
48
1
60
1
100
AcDbLine
10
-45.085946
20
-6.500002
30
0
11
-44.625163
21
-3
31
0
39
0
210
0
220
0
230
1
0
LINE
5
9E
100
AcDbEntity
8
2
62
256
6
ByLayer
370
13
48
1
60
0
100
AcDbLine
10
50.083343
20
30.078727
30
0
11
50.083343
21
-10.75
31
0
39
0
210
0
220
0
230
1
0
LINE
5
A0
100
AcDbEntity
8
2
62
256
6
ByLayer
370
13
48
1
60
0
100
AcDbLine
10
38.7672
20
2
30
0
11
52.083343
21
2
31
0
39
0
210
0
220
0
230
1
0
LINE
5
A1
100
AcDbEntity
8
2
62
256
6
ByLayer
370
13
48
1
60
0
100
AcDbLine
10
38.7672
20
-2
30
0
11
52.083343
21
-2
31
0
39
0
210
0
220
0
230
1
0
LINE
5
A2
100
AcDbEntity
8
1
62
256
6
ByLayer
370
18
48
1
60
1
100
AcDbLine
10
50.083343
20
2
30
0
11
49.622559
21
5.499998
31
0
39
0
210
0
220
0
230
1
0
LINE
5
A3
100
AcDbEntity
8
1
62
256
6
ByLayer
370
18
48
1
60
1
100
AcDbLine
10
49.622559
20
5.499998
30
0
11
50.544126
21
5.500002
31
0
39
0
210
0
220
0
230
1
0
LINE
5
A4
100
AcDbEntity
8
1
62
256
6
ByLayer
370
18
48
1
60
1
100
AcDbLine
10
50.544126
20
5.500002
30
0
11
50.083343
21
2
31
0
39
0
210
0
220
0
230
1
0
LINE
5
A5
100
AcDbEntity
8
1
62
256
6
ByLayer
370
18
48
1
60
1
100
AcDbLine
10
50.083343
20
-2
30
0
11
50.544126
21
-5.499998
31
0
39
0
210
0
220
0
230
1
0
LINE
5
A6
100
AcDbEntity
8
1
62
256
6
ByLayer
370
18
48
1
60
1
100
AcDbLine
10
50.544126
20
-5.499998
30
0
11
49.622559
21
-5.500002
31
0
39
0
210
0
220
0
230
1
0
LINE
5
A7
100
AcDbEntity
8
1
62
256
6
ByLayer
370
18
48
1
60
1
100
AcDbLine
10
49.622559
20
-5.500002
30
0
11
50.083343
21
-2
31
0
39
0
210
0
220
0
230
1
0
LINE
5
FE
100
AcDbEntity
8
1
62
256
6
ByLayer
370
18
48
1
60
1
100
AcDbLine
10
-44.625163
20
3
30
0
11
-45.085946
21
6.499998
31
0
39
0
210
0
220
0
230
1
0
LINE
5
FF
100
AcDbEntity
8
1
62
256
6
ByLayer
370
18
48
1
60
1
100
AcDbLine
10
-45.085946
20
6.499998
30
0
11
-44.164379
21
6.500002
31
0
39
0
210
0
220
0
230
1
0
LINE
5
100
100
AcDbEntity
8
1
62
256
6
ByLayer
370
18
48
1
60
1
100
AcDbLine
10
-44.164379
20
6.500002
30
0
11
-44.625163
21
3
31
0
39
0
210
0
220
0
230
1
0
LINE
5
102
100
AcDbEntity
8
1
62
256
6
ByLayer
370
18
48
1
60
1
100
AcDbLine
10
-44.625163
20
-3
30
0
11
-44.164379
21
-6.499998
31
0
39
0
210
0
220
0
230
1
0
LINE
5
103
100
AcDbEntity
8
1
62
256
6
ByLayer
370
18
48
1
60
1
100
AcDbLine
10
-44.164379
20
-6.499998
30
0
11
-45.085946
21
-6.500002
31
0
39
0
210
0
220
0
230
1
0
LINE
5
104
100
AcDbEntity
8
1
62
256
6
ByLayer
370
18
48
1
60
1
100
AcDbLine
10
-45.085946
20
-6.500002
30
0
11
-44.625163
21
-3
31
0
39
0
210
0
220
0
230
1
0
LINE
5
108
100
AcDbEntity
8
1
62
256
6
ByLayer
370
18
48
1
60
1
100
AcDbLine
10
50.083343
20
2
30
0
11
49.622559
21
5.499998
31
0
39
0
210
0
220
0
230
1
0
LINE
5
109
100
AcDbEntity
8
1
62
256
6
ByLayer
370
18
48
1
60
1
100
AcDbLine
10
49.622559
20
5.499998
30
0
11
50.544126
21
5.500002
31
0
39
0
210
0
220
0
230
1
0
LINE
5
10A
100
AcDbEntity
8
1
62
256
6
ByLayer
370
18
48
1
60
1
100
AcDbLine
10
50.544126
20
5.500002
30
0
11
50.083343
21
2
31
0
39
0
210
0
220
0
230
1
0
LINE
5
10C
100
AcDbEntity
8
1
62
256
6
ByLayer
370
18
48
1
60
1
100
AcDbLine
10
50.083343
20
-2
30
0
11
50.544126
21
-5.499998
31
0
39
0
210
0
220
0
230
1
0
LINE
5
10D
100
AcDbEntity
8
1
62
256
6
ByLayer
370
18
48
1
60
1
100
AcDbLine
10
50.544126
20
-5.499998
30
0
11
49.622559
21
-5.500002
31
0
39
0
210
0
220
0
230
1
0
LINE
5
10E
100
AcDbEntity
8
1
62
256
6
ByLayer
370
18
48
1
60
1
100
AcDbLine
10
49.622559
20
-5.500002
30
0
11
50.083343
21
-2
31
0
39
0
210
0
220
0
230
1
0
MTEXT
5
F8
100
AcDbEntity
8
SK6
62
256
6
ByLayer
370
13
48
1
60
0
100
AcDbMText
10
-27.293293
20
34.540328
30
0
210
0
220
0
230
1
1
\W0.7433;860.1-0400-027A1-PM P1BM
40
3.5
41
0
44
1.084337
50
0
71
7
72
5
7
iso_b_vert
0
MTEXT
5
FC
100
AcDbEntity
8
SK2
62
256
6
ByLayer
370
18
48
1
60
0
100
AcDbMText
10
-46.189796
20
16.409024
30
0
210
0
220
0
230
1
1
%%c
40
3.5
41
0
44
1.084337
50
90
71
7
72
5
7
iso_b_vert
0
MTEXT
5
FD
100
AcDbEntity
8
SK2
62
256
6
ByLayer
370
18
48
1
60
0
100
AcDbMText
10
-46.189796
20
21.63168
30
0
210
0
220
0
230
1
1
\W0.7317;6,000
40
3.5
41
0
44
1.084337
50
90
71
7
72
5
7
iso_b_vert
0
MTEXT
5
106
100
AcDbEntity
8
2
62
256
6
ByLayer
370
18
48
1
60
0
100
AcDbMText
10
48.518709
20
14.00211
30
0
210
0
220
0
230
1
1
%%c
40
3.5
41
0
44
1.084337
50
90
71
7
72
5
7
iso_b_vert
0
MTEXT
5
107
100
AcDbEntity
8
2
62
256
6
ByLayer
370
18
48
1
60
0
100
AcDbMText
10
48.518709
20
19.224766
30
0
210
0
220
0
230
1
1
\W0.7581;4,000
40
3.5
41
0
44
1.084337
50
90
71
7
72
5
7
iso_b_vert
0
HATCH
5
101
100
AcDbEntity
8
SK2
62
256
6
ByLayer
370
13
48
1
60
0
100
AcDbHatch
10
0
20
0
30
0
210
0
220
0
230
1
2
ANSI31
70
0
71
0
91
1
92
5
93
3
72
1
10
-44.6251625675374
20
3
11
-45.0859463090902
21
6.49999830744682
72
1
10
-45.0859463090902
20
6.49999830744682
11
-44.1643788259847
21
6.50000169255318
72
1
10
-44.1643788259847
20
6.50000169255318
11
-44.6251625675374
21
3
97
0
75
0
76
1
52
0
41
0.0062
77
0
78
1
53
45
43
0
44
0
45
-0.0139193969876572
46
0.0139193969876572
79
0
47
0
98
1
10
0
20
0
0
HATCH
5
105
100
AcDbEntity
8
SK2
62
256
6
ByLayer
370
13
48
1
60
0
100
AcDbHatch
10
0
20
0
30
0
210
0
220
0
230
1
2
ANSI31
70
0
71
0
91
1
92
5
93
3
72
1
10
-44.6251625675374
20
-3
11
-44.1643788259847
21
-6.49999830744682
72
1
10
-44.1643788259847
20
-6.49999830744682
11
-45.0859463090902
21
-6.50000169255318
72
1
10
-45.0859463090902
20
-6.50000169255318
11
-44.6251625675374
21
-3
97
0
75
0
76
1
52
0
41
0.0062
77
0
78
1
53
45
43
0
44
0
45
-0.0139193969876572
46
0.0139193969876572
79
0
47
0
98
1
10
0
20
0
0
HATCH
5
10B
100
AcDbEntity
8
2
62
256
6
ByLayer
370
13
48
1
60
0
100
AcDbHatch
10
0
20
0
30
0
210
0
220
0
230
1
2
ANSI31
70
0
71
0
91
1
92
5
93
3
72
1
10
50.083342615295
20
2
11
49.6225588737423
21
5.49999830744682
72
1
10
49.6225588737423
20
5.49999830744682
11
50.5441263568478
21
5.50000169255318
72
1
10
50.5441263568478
20
5.50000169255318
11
50.083342615295
21
2
97
0
75
0
76
1
52
0
41
0.0062
77
0
78
1
53
45
43
0
44
0
45
-0.0139193969876572
46
0.0139193969876572
79
0
47
0
98
1
10
0
20
0
0
HATCH
5
10F
100
AcDbEntity
8
2
62
256
6
ByLayer
370
13
48
1
60
0
100
AcDbHatch
10
0
20
0
30
0
210
0
220
0
230
1
2
ANSI31
70
0
71
0
91
1
92
5
93
3
72
1
10
50.083342615295
20
-2
11
50.5441263568478
21
-5.49999830744682
72
1
10
50.5441263568478
20
-5.49999830744682
11
49.6225588737423
21
-5.50000169255318
72
1
10
49.6225588737423
20
-5.50000169255318
11
50.083342615295
21
-2
97
0
75
0
76
1
52
0
41
0.0062
77
0
78
1
53
45
43
0
44
0
45
-0.0139193969876572
46
0.0139193969876572
79
0
47
0
98
1
10
0
20
0
0
DIMENSION
5
111
100
AcDbEntity
8
2
62
256
6
ByLayer
370
13
48
1
60
0
100
AcDbDimension
2
_U0
10
37.1797
20
-12.213398
30
0
11
18.58985
21
-12.213398
31
0
70
32
71
1
72
1
41
1
210
0
220
0
230
1
3
Standard
100
AcDbAlignedDimension
13
0
23
0
33
0
14
37.1797
24
-2
34
0
50
0
100
AcDbRotatedDimension
1001
ACAD
1000
DSTYLE
1002
{
1070
   371
1070
    13
1070
   372
1070
    13
1070
   170
1070
     0
1070
   144
1040
1.0
1070
   277
1070
     2
1070
   278
1070
    44
1070
   146
1040
1.0
1070
   345
1005
16
1070
   347
1005
16
1070
   346
1005
16
1070
   344
1005
0
1070
   343
1005
0
1070
   172
1070
     1
1070
    76
1070
     0
1070
    75
1070
     0
1070
   282
1070
     0
1070
   281
1070
     0
1070
    71
1070
     0
1070
    74
1070
     0
1070
   279
1070
     0
1070
   173
1070
     1
1070
   340
1005
F9
1070
   271
1070
     2
1070
   272
1070
     2
1070
    77
1070
     1
1070
    73
1070
     1
1070
   171
1070
     3
1070
   274
1070
     4
1070
   177
1070
    35
1070
   176
1070
    35
1070
   178
1070
    35
1070
    48
1040
-0.1
1070
    41
1040
3.5
1070
   147
1040
1.75
1070
    42
1040
1.5875
1070
    44
1040
2.0
1070
   140
1040
3.5
1002
}
1001
ACAD_DSTYLE_DIM_LINETYPE
1070
   380
1005
16
1001
ACAD_DSTYLE_DIM_EXT1_LINETYPE
1070
   381
1005
16
1001
ACAD_DSTYLE_DIM_EXT2_LINETYPE
1070
   382
1005
16
0
DIMENSION
5
12A
100
AcDbEntity
8
SK2
62
256
6
ByLayer
370
13
48
1
60
0
100
AcDbDimension
2
_U1
10
38
20
-31.692985
30
0
11
1
21
-31.692985
31
0
70
32
71
1
72
1
41
1
210
0
220
0
230
1
3
Standard
100
AcDbAlignedDimension
13
-36
23
-3
33
0
14
38
24
0
34
0
50
0
100
AcDbRotatedDimension
1001
ACAD
1000
DSTYLE
1002
{
1070
   371
1070
    13
1070
   372
1070
    13
1070
   170
1070
     0
1070
   144
1040
1.0
1070
   277
1070
     2
1070
   278
1070
    44
1070
   146
1040
1.0
1070
   345
1005
16
1070
   347
1005
16
1070
   346
1005
16
1070
   344
1005
0
1070
   343
1005
0
1070
   172
1070
     1
1070
    76
1070
     0
1070
    75
1070
     0
1070
   282
1070
     0
1070
   281
1070
     0
1070
    71
1070
     0
1070
    74
1070
     0
1070
   279
1070
     0
1070
   173
1070
     1
1070
   340
1005
F9
1070
   271
1070
     2
1070
   272
1070
     2
1070
    77
1070
     1
1070
    73
1070
     1
1070
   171
1070
     3
1070
   274
1070
     4
1070
   177
1070
    35
1070
   176
1070
    35
1070
   178
1070
    35
1070
    48
1040
-0.1
1070
    41
1040
3.5
1070
   147
1040
1.75
1070
    42
1040
1.5875
1070
    44
1040
2.0
1070
   140
1040
3.5
1002
}
1001
ACAD_DSTYLE_DIM_LINETYPE
1070
   380
1005
16
1001
ACAD_DSTYLE_DIM_EXT1_LINETYPE
1070
   381
1005
16
1001
ACAD_DSTYLE_DIM_EXT2_LINETYPE
1070
   382
1005
16
0
DIMENSION
5
142
100
AcDbEntity
8
SK2
62
256
6
ByLayer
370
13
48
1
60
0
100
AcDbDimension
2
_U2
10
38
20
13.609119
30
0
11
27.59
21
13.609119
31
0
70
32
71
1
72
1
41
1
210
0
220
0
230
1
3
Standard
100
AcDbAlignedDimension
13
17.18
23
2
33
0
14
38
24
0
34
0
50
0
100
AcDbRotatedDimension
1001
ACAD
1000
DSTYLE
1002
{
1070
   371
1070
    13
1070
   372
1070
    13
1070
   170
1070
     0
1070
   144
1040
1.0
1070
   277
1070
     2
1070
   278
1070
    44
1070
   146
1040
1.0
1070
   345
1005
16
1070
   347
1005
16
1070
   346
1005
16
1070
   344
1005
0
1070
   343
1005
0
1070
   172
1070
     1
1070
    76
1070
     0
1070
    75
1070
     0
1070
   282
1070
     0
1070
   281
1070
     0
1070
    71
1070
     0
1070
    74
1070
     0
1070
   279
1070
     0
1070
   173
1070
     1
1070
   340
1005
F9
1070
   271
1070
     2
1070
   272
1070
     2
1070
    77
1070
     1
1070
    73
1070
     1
1070
   171
1070
     3
1070
   274
1070
     4
1070
   177
1070
    35
1070
   176
1070
    35
1070
   178
1070
    35
1070
    48
1040
-0.1
1070
    41
1040
3.5
1070
   147
1040
1.75
1070
    42
1040
1.5875
1070
    44
1040
2.0
1070
   140
1040
3.5
1002
}
1001
ACAD_DSTYLE_DIM_LINETYPE
1070
   380
1005
16
1001
ACAD_DSTYLE_DIM_EXT1_LINETYPE
1070
   381
1005
16
1001
ACAD_DSTYLE_DIM_EXT2_LINETYPE
1070
   382
1005
16
0
DIMENSION
5
15A
100
AcDbEntity
8
SK2
62
256
6
ByLayer
370
13
48
1
60
0
100
AcDbDimension
2
_U3
10
37.1797
20
-14.802503
30
0
11
55.583333
21
-14.802503
31
0
70
32
71
1
72
1
41
1
210
0
220
0
230
1
3
Standard
100
AcDbAlignedDimension
13
38
23
0
33
0
14
37.1797
24
-2
34
0
50
0
100
AcDbRotatedDimension
1001
ACAD
1000
DSTYLE
1002
{
1070
   371
1070
    13
1070
   372
1070
    13
1070
   170
1070
     0
1070
   144
1040
1.0
1070
   277
1070
     2
1070
   278
1070
    44
1070
   146
1040
1.0
1070
   345
1005
16
1070
   347
1005
16
1070
   346
1005
16
1070
   344
1005
0
1070
   343
1005
0
1070
   172
1070
     1
1070
    76
1070
     0
1070
    75
1070
     0
1070
   282
1070
     0
1070
   281
1070
     0
1070
    71
1070
     0
1070
    74
1070
     0
1070
   279
1070
     0
1070
   173
1070
     1
1070
   340
1005
F9
1070
   271
1070
     2
1070
   272
1070
     2
1070
    77
1070
     1
1070
    73
1070
     1
1070
   171
1070
     3
1070
   274
1070
     4
1070
   177
1070
    35
1070
   176
1070
    35
1070
   178
1070
    35
1070
    48
1040
-0.1
1070
    41
1040
3.5
1070
   147
1040
1.75
1070
    42
1040
1.5875
1070
    44
1040
2.0
1070
   140
1040
3.5
1002
}
1001
ACAD_DSTYLE_DIM_LINETYPE
1070
   380
1005
16
1001
ACAD_DSTYLE_DIM_EXT1_LINETYPE
1070
   381
1005
16
1001
ACAD_DSTYLE_DIM_EXT2_LINETYPE
1070
   382
1005
16
0
DIMENSION
5
174
100
AcDbEntity
8
SK2
62
256
6
ByLayer
370
13
48
1
60
0
100
AcDbDimension
2
_U4
10
37.1797
20
-21.343428
30
0
11
0.58985
21
-21.343428
31
0
70
32
71
1
72
1
41
1
210
0
220
0
230
1
3
Standard
100
AcDbAlignedDimension
13
-36
23
-3
33
0
14
37.1797
24
-2
34
0
50
0
100
AcDbRotatedDimension
1001
ACAD
1000
DSTYLE
1002
{
1070
   371
1070
    13
1070
   372
1070
    13
1070
   170
1070
     0
1070
   144
1040
1.0
1070
   277
1070
     2
1070
   278
1070
    44
1070
   146
1040
1.0
1070
   345
1005
16
1070
   347
1005
16
1070
   346
1005
16
1070
   344
1005
0
1070
   343
1005
0
1070
   172
1070
     1
1070
    76
1070
     0
1070
    75
1070
     0
1070
   282
1070
     0
1070
   281
1070
     0
1070
    71
1070
     0
1070
    74
1070
     0
1070
   279
1070
     0
1070
   173
1070
     1
1070
   340
1005
F9
1070
   271
1070
     2
1070
   272
1070
     2
1070
    77
1070
     1
1070
    73
1070
     1
1070
   171
1070
     3
1070
   274
1070
     4
1070
   177
1070
    35
1070
   176
1070
    35
1070
   178
1070
    35
1070
    48
1040
-0.1
1070
    41
1040
3.5
1070
   147
1040
1.75
1070
    42
1040
1.5875
1070
    44
1040
2.0
1070
   140
1040
3.5
1002
}
1001
ACAD_DSTYLE_DIM_LINETYPE
1070
   380
1005
16
1001
ACAD_DSTYLE_DIM_EXT1_LINETYPE
1070
   381
1005
16
1001
ACAD_DSTYLE_DIM_EXT2_LINETYPE
1070
   382
1005
16
0
ENDSEC
0
SECTION
2
OBJECTS
0
DICTIONARY
5
1fc
330
0
100
AcDbDictionary
280
0
281
1
3
ACAD_GROUP
350
1fd
3
ACAD_MLINESTYLE
350
1fe
0
DICTIONARY
5
1fd
330
0
100
AcDbDictionary
280
0
281
1
0
DICTIONARY
5
1fe
330
0
100
AcDbDictionary
280
0
281
1
3
Standard
350
18
0
MLINESTYLE
5
18
330
1fe
100
AcDbMlineStyle
2
Standard
70
0
3

62
256
51
90
52
90
71
2
49
-0.5
62
256
6
ByLayer
49
0.5
62
256
6
ByLayer
0
RASTERVARIABLES
5
1ea
330

100
AcDbRasterVariables
90
0
70
1
71
1
72
1
0
ENDSEC
0
EOF
