0
SECTION
2
HEADER
9
$ACADVER
1
AC1015
9
$DWGCODEPAGE
3
ANSI_1252
9
$HANDSEED
5
202
9
$ANGBASE
50
0
9
$ANGDIR
70
0
9
$ATTMODE
70
1
9
$AUNITS
70
0
9
$AUPREC
70
0
9
$CECOLOR
62
256
9
$CELTSCALE
40
1
9
$CELTYPE
6
ByLayer
9
$CELWEIGHT
370
18
9
$CLAYER
8
0
9
$CMLJUST
70
0
9
$CMLSCALE
40
1
9
$CMLSTYLE
2
Standard
9
$DIMSTYLE
2
Standard
9
$TEXTSIZE
40
0.2
9
$TEXTSTYLE
7
Standard
9
$LUNITS
70
2
9
$LUPREC
70
4
9
$EXTNAMES
290
1
9
$INSUNITS
70
4
9
$LTSCALE
40
1
9
$LWDISPLAY
290
1
9
$PDMODE
70
0
9
$PDSIZE
40
0
9
$PLINEGEN
70
0
0
ENDSEC
0
SECTION
2
CLASSES
0
CLASS
1
RASTERVARIABLES
2
AcDbRasterVariables
3
ISM
90
0
280
0
281
0
0
ENDSEC
0
SECTION
2
TABLES
0
TABLE
2
VPORT
5
1f8
100
AcDbSymbolTable
0
VPORT
5
1
100
AcDbSymbolTableRecord
100
AcDbViewportTableRecord
2
*Active
70
0
10
0
20
0
11
1
21
1
12
-1
22
1
13
0
23
0
14
0.5
24
0.5
15
10
25
10
16
0
26
0
36
1
17
0
27
0
37
0
0
ENDTAB
0
TABLE
2
LTYPE
5
1f9
100
AcDbSymbolTable
0
LTYPE
5
14
100
AcDbSymbolTableRecord
100
AcDbLinetypeTableRecord
70
0
2
ByBlock
3

72
65
73
0
40
0
0
LTYPE
5
15
100
AcDbSymbolTableRecord
100
AcDbLinetypeTableRecord
70
0
2
ByLayer
3

72
65
73
0
40
0
0
LTYPE
5
16
100
AcDbSymbolTableRecord
100
AcDbLinetypeTableRecord
70
0
2
Continuous
3
Solid line
72
65
73
0
40
0
0
LTYPE
5
6E
100
AcDbSymbolTableRecord
100
AcDbLinetypeTableRecord
70
0
2
CENTER
3
____ _ ____ _ ____ _ ____
72
65
73
4
40
47.5
49
22
74
0
49
-8.5
74
0
49
8.5
74
0
49
-8.5
74
0
0
LTYPE
5
6F
100
AcDbSymbolTableRecord
100
AcDbLinetypeTableRecord
70
0
2
DASHED
3
__ __ __ __ __ __ __ __ __
72
65
73
2
40
25.72
49
12.86
74
0
49
-12.86
74
0
0
ENDTAB
0
TABLE
2
LAYER
5
1fa
100
AcDbSymbolTable
0
LAYER
5
10
100
AcDbSymbolTableRecord
100
AcDbLayerTableRecord
2
0
70
0
62
7
6
Continuous
290
1
370
-3
390
0
0
LAYER
5
71
100
AcDbSymbolTableRecord
100
AcDbLayerTableRecord
2
80
70
0
62
-6
6
Continuous
290
1
370
-3
390
0
0
LAYER
5
73
100
AcDbSymbolTableRecord
100
AcDbLayerTableRecord
2
81
70
0
62
-3
6
Continuous
290
1
370
-3
390
0
0
LAYER
5
75
100
AcDbSymbolTableRecord
100
AcDbLayerTableRecord
2
1
70
0
62
4
6
Continuous
290
1
370
-3
390
0
0
LAYER
5
85
100
AcDbSymbolTableRecord
100
AcDbLayerTableRecord
2
4
70
0
62
-2
6
CENTER
290
1
370
-3
390
0
0
LAYER
5
9E
100
AcDbSymbolTableRecord
100
AcDbLayerTableRecord
2
2
70
0
62
7
6
Continuous
290
1
370
-3
390
0
0
LAYER
5
10D
100
AcDbSymbolTableRecord
100
AcDbLayerTableRecord
2
Defpoints
70
0
62
7
6
Continuous
290
0
370
-3
390
0
0
LAYER
5
1e4
100
AcDbSymbolTableRecord
100
AcDbLayerTableRecord
2
SK1
70
0
62
4
6
Continuous
290
1
370
-3
390
0
0
LAYER
5
1e5
100
AcDbSymbolTableRecord
100
AcDbLayerTableRecord
2
SK4
70
0
62
2
6
CENTER
290
1
370
-3
390
0
0
LAYER
5
1e6
100
AcDbSymbolTableRecord
100
AcDbLayerTableRecord
2
SK2
70
0
62
7
6
Continuous
290
1
370
-3
390
0
0
LAYER
5
1e7
100
AcDbSymbolTableRecord
100
AcDbLayerTableRecord
2
SK6
70
0
62
5
6
Continuous
290
1
370
-3
390
0
0
ENDTAB
0
TABLE
2
STYLE
5
1fb
100
AcDbSymbolTable
0
STYLE
5
11
100
AcDbSymbolTableRecord
100
AcDbTextStyleTableRecord
2
Standard
3
txt
70
0
71
0
40
0
41
1
42
0
50
0
0
STYLE
5
F2
100
AcDbSymbolTableRecord
100
AcDbTextStyleTableRecord
2
iso_b_vert
3
simplex.shx
70
0
71
0
40
0
41
1
42
0
50
0
0
STYLE
5
F3
100
AcDbSymbolTableRecord
100
AcDbTextStyleTableRecord
2
DWGDirectTextStyle
3
simplex
70
0
71
0
40
0
41
1
42
0
50
0
0
ENDTAB
0
TABLE
2
DIMSTYLE
5
1fc
100
AcDbSymbolTable
100
AcDbDimStyleTable
0
DIMSTYLE
105
27
100
AcDbSymbolTableRecord
100
AcDbDimStyleTableRecord
2
Standard
70
0
3
<>
41
0.18
42
0.0625
44
0.18
140
0.18
147
0.09
73
0
74
0
77
1
271
2
275
0
278
52
280
0
340
11
0
ENDTAB
0
TABLE
2
VIEW
5
1fd
100
AcDbSymbolTable
0
ENDTAB
0
TABLE
2
UCS
5
1fe
100
AcDbSymbolTable
0
ENDTAB
0
TABLE
2
APPID
5
1ff
100
AcDbSymbolTable
0
APPID
5
12
100
AcDbSymbolTableRecord
100
AcDbRegAppTableRecord
2
ACAD
70
0
0
APPID
5
109
100
AcDbSymbolTableRecord
100
AcDbRegAppTableRecord
2
ACAD_DSTYLE_DIMBREAK
70
0
0
APPID
5
1A3
100
AcDbSymbolTableRecord
100
AcDbRegAppTableRecord
2
ACAD_DSTYLE_DIM_LINETYPE
70
0
0
APPID
5
1A4
100
AcDbSymbolTableRecord
100
AcDbRegAppTableRecord
2
ACAD_DSTYLE_DIM_EXT1_LINETYPE
70
0
0
APPID
5
1A5
100
AcDbSymbolTableRecord
100
AcDbRegAppTableRecord
2
ACAD_DSTYLE_DIM_EXT2_LINETYPE
70
0
0
APPID
5
1E0
100
AcDbSymbolTableRecord
100
AcDbRegAppTableRecord
2
ACAD_MLEADERVER
70
0
0
ENDTAB
0
TABLE
2
BLOCK_RECORD
5
200
100
AcDbSymbolTable
0
BLOCK_RECORD
5
1F
100
AcDbSymbolTableRecord
100
AcDbBlockTableRecord
2
*Model_Space
340
0
70
0
0
BLOCK_RECORD
5
1B
100
AcDbSymbolTableRecord
100
AcDbBlockTableRecord
2
*Paper_Space
340
0
70
0
0
BLOCK_RECORD
5
23
100
AcDbSymbolTableRecord
100
AcDbBlockTableRecord
2
*Paper_Space0
340
0
70
0
0
BLOCK_RECORD
5
10E
100
AcDbSymbolTableRecord
100
AcDbBlockTableRecord
2
*D1
340
0
70
0
0
BLOCK_RECORD
5
11A
100
AcDbSymbolTableRecord
100
AcDbBlockTableRecord
2
_U0
340
0
70
0
0
BLOCK_RECORD
5
126
100
AcDbSymbolTableRecord
100
AcDbBlockTableRecord
2
*D3
340
0
70
0
0
BLOCK_RECORD
5
132
100
AcDbSymbolTableRecord
100
AcDbBlockTableRecord
2
_U1
340
0
70
0
0
BLOCK_RECORD
5
13E
100
AcDbSymbolTableRecord
100
AcDbBlockTableRecord
2
*D5
340
0
70
0
0
BLOCK_RECORD
5
14A
100
AcDbSymbolTableRecord
100
AcDbBlockTableRecord
2
_U2
340
0
70
0
0
BLOCK_RECORD
5
156
100
AcDbSymbolTableRecord
100
AcDbBlockTableRecord
2
*D7
340
0
70
0
0
BLOCK_RECORD
5
164
100
AcDbSymbolTableRecord
100
AcDbBlockTableRecord
2
_U3
340
0
70
0
0
BLOCK_RECORD
5
170
100
AcDbSymbolTableRecord
100
AcDbBlockTableRecord
2
*D9
340
0
70
0
0
BLOCK_RECORD
5
17C
100
AcDbSymbolTableRecord
100
AcDbBlockTableRecord
2
_U4
340
0
70
0
0
ENDTAB
0
ENDSEC
0
SECTION
2
BLOCKS
0
BLOCK
5
20
100
AcDbEntity
8
0
100
AcDbBlockBegin
2
*Model_Space
70
0
10
0
20
0
30
0
3
*Model_Space
0
ENDBLK
5
21
100
AcDbEntity
8
0
100
AcDbBlockEnd
0
BLOCK
5
1C
100
AcDbEntity
8
0
100
AcDbBlockBegin
2
*Paper_Space
70
0
10
0
20
0
30
0
3
*Paper_Space
0
ENDBLK
5
1D
100
AcDbEntity
8
0
100
AcDbBlockEnd
0
BLOCK
5
24
100
AcDbEntity
8
0
100
AcDbBlockBegin
2
*Paper_Space0
70
0
10
0
20
0
30
0
3
*Paper_Space0
0
ENDBLK
5
25
100
AcDbEntity
8
0
100
AcDbBlockEnd
0
BLOCK
5
10F
100
AcDbEntity
8
0
100
AcDbBlockBegin
2
*D1
70
1
10
0
20
0
30
0
3
*D1
0
LINE
5
111
100
AcDbEntity
8
0
62
256
6
ByLayer
370
-2
48
1
60
0
100
AcDbLine
10
0
20
-1.5875
30
0
11
0
21
-13.963398
31
0
39
0
210
0
220
0
230
1
0
LINE
5
112
100
AcDbEntity
8
0
62
256
6
ByLayer
370
-2
48
1
60
0
100
AcDbLine
10
29.3109
20
-3.3375
30
0
11
29.3109
21
-13.963398
31
0
39
0
210
0
220
0
230
1
0
LINE
5
113
100
AcDbEntity
8
0
62
256
6
ByLayer
370
-2
48
1
60
0
100
AcDbLine
10
3.5
20
-11.963398
30
0
11
25.8109
21
-11.963398
31
0
39
0
210
0
220
0
230
1
0
SOLID
5
114
100
AcDbEntity
8
0
62
256
6
ByLayer
370
-1
48
1
60
0
100
AcDbTrace
10
3.5
20
-11.380065
30
0
11
3.5
21
-12.546732
31
0
12
0
22
-11.963398
32
0
13
0
23
-11.963398
33
0
39
0
210
0
220
0
230
1
0
SOLID
5
115
100
AcDbEntity
8
0
62
256
6
ByLayer
370
-1
48
1
60
0
100
AcDbTrace
10
25.8109
20
-12.546732
30
0
11
25.8109
21
-11.380065
31
0
12
29.3109
22
-11.963398
32
0
13
29.3109
23
-11.963398
33
0
39
0
210
0
220
0
230
1
0
MTEXT
5
116
100
AcDbEntity
8
0
62
256
6
ByLayer
370
18
48
1
60
0
100
AcDbMText
10
14.65545
20
-4.963398
30
0
210
0
220
0
230
1
1
\A1;29.31
40
3.5
41
0
44
1
50
0
71
5
72
5
7
iso_b_vert
0
POINT
5
117
100
AcDbEntity
8
Defpoints
62
0
6
ByLayer
370
-1
48
1
60
0
100
AcDbPoint
10
0
20
0
30
0
39
0
210
0
220
0
230
1
50
360
0
POINT
5
118
100
AcDbEntity
8
Defpoints
62
0
6
ByLayer
370
-1
48
1
60
0
100
AcDbPoint
10
29.3109
20
-1.75
30
0
39
0
210
0
220
0
230
1
50
360
0
POINT
5
119
100
AcDbEntity
8
Defpoints
62
0
6
ByLayer
370
-1
48
1
60
0
100
AcDbPoint
10
29.3109
20
-11.963398
30
0
39
0
210
0
220
0
230
1
50
360
0
ENDBLK
5
110
100
AcDbEntity
8
0
100
AcDbBlockEnd
0
BLOCK
5
121
100
AcDbEntity
8
0
100
AcDbBlockBegin
2
_U0
70
0
10
0
20
0
30
0
3
_U0
0
MTEXT
5
11B
100
AcDbEntity
8
2
62
256
6
ByLayer
370
13
48
1
60
0
100
AcDbMText
10
9.955585
20
-10.930765
30
0
210
0
220
0
230
1
1
\W0.7211;29,31
40
3.5
41
0
44
1.084337
50
0
71
7
72
5
7
iso_b_vert
0
LINE
5
11C
100
AcDbEntity
8
2
62
256
6
ByLayer
370
13
48
1
60
0
100
AcDbLine
10
0
20
-1.5875
30
0
11
0
21
-13.963398
31
0
39
0
210
0
220
0
230
1
0
LINE
5
11D
100
AcDbEntity
8
2
62
256
6
ByLayer
370
13
48
1
60
0
100
AcDbLine
10
29.3109
20
-3.3375
30
0
11
29.3109
21
-13.963398
31
0
39
0
210
0
220
0
230
1
0
LINE
5
11E
100
AcDbEntity
8
2
62
256
6
ByLayer
370
13
48
1
60
0
100
AcDbLine
10
0
20
-11.963398
30
0
11
29.3109
21
-11.963398
31
0
39
0
210
0
220
0
230
1
0
SOLID
5
11F
100
AcDbEntity
8
2
62
256
6
ByLayer
370
18
48
1
60
0
100
AcDbTrace
10
0
20
-11.963398
30
0
11
3.499998
21
-11.502615
31
0
12
3.500002
22
-12.424182
32
0
13
3.500002
23
-12.424182
33
0
39
0
210
0
220
0
230
1
0
SOLID
5
120
100
AcDbEntity
8
2
62
256
6
ByLayer
370
18
48
1
60
0
100
AcDbTrace
10
29.3109
20
-11.963398
30
0
11
25.810902
21
-12.424182
31
0
12
25.810898
22
-11.502615
32
0
13
25.810898
23
-11.502615
33
0
39
0
210
0
220
0
230
1
0
ENDBLK
5
122
100
AcDbEntity
8
0
100
AcDbBlockEnd
0
BLOCK
5
127
100
AcDbEntity
8
0
100
AcDbBlockBegin
2
*D3
70
1
10
0
20
0
30
0
3
*D3
0
LINE
5
129
100
AcDbEntity
8
0
62
256
6
ByLayer
370
-2
48
1
60
0
100
AcDbLine
10
-36
20
-4.5875
30
0
11
-36
21
-33.692985
31
0
39
0
210
0
220
0
230
1
0
LINE
5
12A
100
AcDbEntity
8
0
62
256
6
ByLayer
370
-2
48
1
60
0
100
AcDbLine
10
30
20
-1.5875
30
0
11
30
21
-33.692985
31
0
39
0
210
0
220
0
230
1
0
LINE
5
12B
100
AcDbEntity
8
0
62
256
6
ByLayer
370
-2
48
1
60
0
100
AcDbLine
10
-32.5
20
-31.692985
30
0
11
26.5
21
-31.692985
31
0
39
0
210
0
220
0
230
1
0
SOLID
5
12C
100
AcDbEntity
8
0
62
256
6
ByLayer
370
-1
48
1
60
0
100
AcDbTrace
10
-32.5
20
-31.109652
30
0
11
-32.5
21
-32.276319
31
0
12
-36
22
-31.692985
32
0
13
-36
23
-31.692985
33
0
39
0
210
0
220
0
230
1
0
SOLID
5
12D
100
AcDbEntity
8
0
62
256
6
ByLayer
370
-1
48
1
60
0
100
AcDbTrace
10
26.5
20
-32.276319
30
0
11
26.5
21
-31.109652
31
0
12
30
22
-31.692985
32
0
13
30
23
-31.692985
33
0
39
0
210
0
220
0
230
1
0
MTEXT
5
12E
100
AcDbEntity
8
0
62
256
6
ByLayer
370
18
48
1
60
0
100
AcDbMText
10
-3
20
-24.692985
30
0
210
0
220
0
230
1
1
\A1;66.00
40
3.5
41
0
44
1
50
0
71
5
72
5
7
iso_b_vert
0
POINT
5
12F
100
AcDbEntity
8
Defpoints
62
0
6
ByLayer
370
-1
48
1
60
0
100
AcDbPoint
10
-36
20
-3
30
0
39
0
210
0
220
0
230
1
50
360
0
POINT
5
130
100
AcDbEntity
8
Defpoints
62
0
6
ByLayer
370
-1
48
1
60
0
100
AcDbPoint
10
30
20
0
30
0
39
0
210
0
220
0
230
1
50
360
0
POINT
5
131
100
AcDbEntity
8
Defpoints
62
0
6
ByLayer
370
-1
48
1
60
0
100
AcDbPoint
10
30
20
-31.692985
30
0
39
0
210
0
220
0
230
1
50
360
0
ENDBLK
5
128
100
AcDbEntity
8
0
100
AcDbBlockEnd
0
BLOCK
5
139
100
AcDbEntity
8
0
100
AcDbBlockBegin
2
_U1
70
0
10
0
20
0
30
0
3
_U1
0
MTEXT
5
133
100
AcDbEntity
8
SK2
62
256
6
ByLayer
370
13
48
1
60
0
100
AcDbMText
10
-8.137299
20
-30.660352
30
0
210
0
220
0
230
1
1
\W0.7317;66,00
40
3.5
41
0
44
1.084337
50
0
71
7
72
5
7
iso_b_vert
0
LINE
5
134
100
AcDbEntity
8
SK2
62
256
6
ByLayer
370
13
48
1
60
0
100
AcDbLine
10
-36
20
-4.5875
30
0
11
-36
21
-33.692985
31
0
39
0
210
0
220
0
230
1
0
LINE
5
135
100
AcDbEntity
8
SK2
62
256
6
ByLayer
370
13
48
1
60
0
100
AcDbLine
10
30
20
-1.5875
30
0
11
30
21
-33.692985
31
0
39
0
210
0
220
0
230
1
0
LINE
5
136
100
AcDbEntity
8
SK2
62
256
6
ByLayer
370
13
48
1
60
0
100
AcDbLine
10
-36
20
-31.692985
30
0
11
30
21
-31.692985
31
0
39
0
210
0
220
0
230
1
0
SOLID
5
137
100
AcDbEntity
8
SK2
62
256
6
ByLayer
370
18
48
1
60
0
100
AcDbTrace
10
-36
20
-31.692985
30
0
11
-32.500002
21
-31.232202
31
0
12
-32.499998
22
-32.153769
32
0
13
-32.499998
23
-32.153769
33
0
39
0
210
0
220
0
230
1
0
SOLID
5
138
100
AcDbEntity
8
SK2
62
256
6
ByLayer
370
18
48
1
60
0
100
AcDbTrace
10
30
20
-31.692985
30
0
11
26.500002
21
-32.153769
31
0
12
26.499998
22
-31.232202
32
0
13
26.499998
23
-31.232202
33
0
39
0
210
0
220
0
230
1
0
ENDBLK
5
13A
100
AcDbEntity
8
0
100
AcDbBlockEnd
0
BLOCK
5
13F
100
AcDbEntity
8
0
100
AcDbBlockBegin
2
*D5
70
1
10
0
20
0
30
0
3
*D5
0
LINE
5
141
100
AcDbEntity
8
0
62
256
6
ByLayer
370
-2
48
1
60
0
100
AcDbLine
10
11.81
20
3.3375
30
0
11
11.81
21
15.359119
31
0
39
0
210
0
220
0
230
1
0
LINE
5
142
100
AcDbEntity
8
0
62
256
6
ByLayer
370
-2
48
1
60
0
100
AcDbLine
10
30
20
1.5875
30
0
11
30
21
15.359119
31
0
39
0
210
0
220
0
230
1
0
LINE
5
143
100
AcDbEntity
8
0
62
256
6
ByLayer
370
-2
48
1
60
0
100
AcDbLine
10
15.31
20
13.359119
30
0
11
26.5
21
13.359119
31
0
39
0
210
0
220
0
230
1
0
SOLID
5
144
100
AcDbEntity
8
0
62
256
6
ByLayer
370
-1
48
1
60
0
100
AcDbTrace
10
15.31
20
13.942453
30
0
11
15.31
21
12.775786
31
0
12
11.81
22
13.359119
32
0
13
11.81
23
13.359119
33
0
39
0
210
0
220
0
230
1
0
SOLID
5
145
100
AcDbEntity
8
0
62
256
6
ByLayer
370
-1
48
1
60
0
100
AcDbTrace
10
26.5
20
12.775786
30
0
11
26.5
21
13.942453
31
0
12
30
22
13.359119
32
0
13
30
23
13.359119
33
0
39
0
210
0
220
0
230
1
0
MTEXT
5
146
100
AcDbEntity
8
0
62
256
6
ByLayer
370
18
48
1
60
0
100
AcDbMText
10
20.905
20
20.359119
30
0
210
0
220
0
230
1
1
\A1;18.19
40
3.5
41
0
44
1
50
0
71
5
72
5
7
iso_b_vert
0
POINT
5
147
100
AcDbEntity
8
Defpoints
62
0
6
ByLayer
370
-1
48
1
60
0
100
AcDbPoint
10
11.81
20
1.75
30
0
39
0
210
0
220
0
230
1
50
360
0
POINT
5
148
100
AcDbEntity
8
Defpoints
62
0
6
ByLayer
370
-1
48
1
60
0
100
AcDbPoint
10
30
20
0
30
0
39
0
210
0
220
0
230
1
50
360
0
POINT
5
149
100
AcDbEntity
8
Defpoints
62
0
6
ByLayer
370
-1
48
1
60
0
100
AcDbPoint
10
30
20
13.359119
30
0
39
0
210
0
220
0
230
1
50
360
0
ENDBLK
5
140
100
AcDbEntity
8
0
100
AcDbBlockEnd
0
BLOCK
5
151
100
AcDbEntity
8
0
100
AcDbBlockBegin
2
_U2
70
0
10
0
20
0
30
0
3
_U2
0
MTEXT
5
14B
100
AcDbEntity
8
SK2
62
256
6
ByLayer
370
13
48
1
60
0
100
AcDbMText
10
16.642568
20
14.391753
30
0
210
0
220
0
230
1
1
\W0.6181;18,19
40
3.5
41
0
44
1.084337
50
0
71
7
72
5
7
iso_b_vert
0
LINE
5
14C
100
AcDbEntity
8
SK2
62
256
6
ByLayer
370
13
48
1
60
0
100
AcDbLine
10
11.81
20
3.3375
30
0
11
11.81
21
15.359119
31
0
39
0
210
0
220
0
230
1
0
LINE
5
14D
100
AcDbEntity
8
SK2
62
256
6
ByLayer
370
13
48
1
60
0
100
AcDbLine
10
30
20
1.5875
30
0
11
30
21
15.359119
31
0
39
0
210
0
220
0
230
1
0
LINE
5
14E
100
AcDbEntity
8
SK2
62
256
6
ByLayer
370
13
48
1
60
0
100
AcDbLine
10
11.81
20
13.359119
30
0
11
30
21
13.359119
31
0
39
0
210
0
220
0
230
1
0
SOLID
5
14F
100
AcDbEntity
8
SK2
62
256
6
ByLayer
370
18
48
1
60
0
100
AcDbTrace
10
11.81
20
13.359119
30
0
11
15.309998
21
13.819903
31
0
12
15.310002
22
12.898335
32
0
13
15.310002
23
12.898335
33
0
39
0
210
0
220
0
230
1
0
SOLID
5
150
100
AcDbEntity
8
SK2
62
256
6
ByLayer
370
18
48
1
60
0
100
AcDbTrace
10
30
20
13.359119
30
0
11
26.500002
21
12.898335
31
0
12
26.499998
22
13.819903
32
0
13
26.499998
23
13.819903
33
0
39
0
210
0
220
0
230
1
0
ENDBLK
5
152
100
AcDbEntity
8
0
100
AcDbBlockEnd
0
BLOCK
5
157
100
AcDbEntity
8
0
100
AcDbBlockBegin
2
*D7
70
1
10
0
20
0
30
0
3
*D7
0
LINE
5
159
100
AcDbEntity
8
0
62
256
6
ByLayer
370
-2
48
1
60
0
100
AcDbLine
10
30
20
-1.5875
30
0
11
30
21
-16.552503
31
0
39
0
210
0
220
0
230
1
0
LINE
5
15A
100
AcDbEntity
8
0
62
256
6
ByLayer
370
-2
48
1
60
0
100
AcDbLine
10
29.3109
20
-3.3375
30
0
11
29.3109
21
-16.552503
31
0
39
0
210
0
220
0
230
1
0
LINE
5
15B
100
AcDbEntity
8
0
62
256
6
ByLayer
370
-2
48
1
60
0
100
AcDbLine
10
30
20
-14.552503
30
0
11
58
21
-14.552503
31
0
39
0
210
0
220
0
230
1
0
LINE
5
15C
100
AcDbEntity
8
0
62
256
6
ByLayer
370
-2
48
1
60
0
100
AcDbLine
10
33.5
20
-14.552503
30
0
11
37
21
-14.552503
31
0
39
0
210
0
220
0
230
1
0
LINE
5
15D
100
AcDbEntity
8
0
62
256
6
ByLayer
370
-2
48
1
60
0
100
AcDbLine
10
25.8109
20
-14.552503
30
0
11
22.3109
21
-14.552503
31
0
39
0
210
0
220
0
230
1
0
SOLID
5
15E
100
AcDbEntity
8
0
62
256
6
ByLayer
370
-1
48
1
60
0
100
AcDbTrace
10
33.5
20
-13.96917
30
0
11
33.5
21
-15.135837
31
0
12
30
22
-14.552503
32
0
13
30
23
-14.552503
33
0
39
0
210
0
220
0
230
1
0
SOLID
5
15F
100
AcDbEntity
8
0
62
256
6
ByLayer
370
-1
48
1
60
0
100
AcDbTrace
10
25.8109
20
-15.135837
30
0
11
25.8109
21
-13.96917
31
0
12
29.3109
22
-14.552503
32
0
13
29.3109
23
-14.552503
33
0
39
0
210
0
220
0
230
1
0
MTEXT
5
160
100
AcDbEntity
8
0
62
256
6
ByLayer
370
18
48
1
60
0
100
AcDbMText
10
47.5
20
-7.552503
30
0
210
0
220
0
230
1
1
\A1;0.69
40
3.5
41
0
44
1
50
0
71
5
72
5
7
iso_b_vert
0
POINT
5
161
100
AcDbEntity
8
Defpoints
62
0
6
ByLayer
370
-1
48
1
60
0
100
AcDbPoint
10
30
20
0
30
0
39
0
210
0
220
0
230
1
50
360
0
POINT
5
162
100
AcDbEntity
8
Defpoints
62
0
6
ByLayer
370
-1
48
1
60
0
100
AcDbPoint
10
29.3109
20
-1.75
30
0
39
0
210
0
220
0
230
1
50
360
0
POINT
5
163
100
AcDbEntity
8
Defpoints
62
0
6
ByLayer
370
-1
48
1
60
0
100
AcDbPoint
10
29.3109
20
-14.552503
30
0
39
0
210
0
220
0
230
1
50
360
0
ENDBLK
5
158
100
AcDbEntity
8
0
100
AcDbBlockEnd
0
BLOCK
5
16B
100
AcDbEntity
8
0
100
AcDbBlockBegin
2
_U3
70
0
10
0
20
0
30
0
3
_U3
0
MTEXT
5
165
100
AcDbEntity
8
SK2
62
256
6
ByLayer
370
13
48
1
60
0
100
AcDbMText
10
36.15186
20
-13.51987
30
0
210
0
220
0
230
1
1
\W0.7259;0,69
40
3.5
41
0
44
1.084337
50
0
71
7
72
5
7
iso_b_vert
0
LINE
5
166
100
AcDbEntity
8
SK2
62
256
6
ByLayer
370
13
48
1
60
0
100
AcDbLine
10
30
20
-1.5875
30
0
11
30
21
-16.552503
31
0
39
0
210
0
220
0
230
1
0
LINE
5
167
100
AcDbEntity
8
SK2
62
256
6
ByLayer
370
13
48
1
60
0
100
AcDbLine
10
29.3109
20
-3.3375
30
0
11
29.3109
21
-16.552503
31
0
39
0
210
0
220
0
230
1
0
LINE
5
168
100
AcDbEntity
8
SK2
62
256
6
ByLayer
370
13
48
1
60
0
100
AcDbLine
10
20.5609
20
-14.552503
30
0
11
43.996491
21
-14.552503
31
0
39
0
210
0
220
0
230
1
0
SOLID
5
169
100
AcDbEntity
8
SK2
62
256
6
ByLayer
370
18
48
1
60
0
100
AcDbTrace
10
30
20
-14.552503
30
0
11
33.499998
21
-14.091719
31
0
12
33.500002
22
-15.013287
32
0
13
33.500002
23
-15.013287
33
0
39
0
210
0
220
0
230
1
0
SOLID
5
16A
100
AcDbEntity
8
SK2
62
256
6
ByLayer
370
18
48
1
60
0
100
AcDbTrace
10
29.3109
20
-14.552503
30
0
11
25.810902
21
-15.013287
31
0
12
25.810898
22
-14.091719
32
0
13
25.810898
23
-14.091719
33
0
39
0
210
0
220
0
230
1
0
ENDBLK
5
16C
100
AcDbEntity
8
0
100
AcDbBlockEnd
0
BLOCK
5
171
100
AcDbEntity
8
0
100
AcDbBlockBegin
2
*D9
70
1
10
0
20
0
30
0
3
*D9
0
LINE
5
173
100
AcDbEntity
8
0
62
256
6
ByLayer
370
-2
48
1
60
0
100
AcDbLine
10
-36
20
-4.5875
30
0
11
-36
21
-23.343428
31
0
39
0
210
0
220
0
230
1
0
LINE
5
174
100
AcDbEntity
8
0
62
256
6
ByLayer
370
-2
48
1
60
0
100
AcDbLine
10
29.3109
20
-3.3375
30
0
11
29.3109
21
-23.343428
31
0
39
0
210
0
220
0
230
1
0
LINE
5
175
100
AcDbEntity
8
0
62
256
6
ByLayer
370
-2
48
1
60
0
100
AcDbLine
10
-32.5
20
-21.343428
30
0
11
25.8109
21
-21.343428
31
0
39
0
210
0
220
0
230
1
0
SOLID
5
176
100
AcDbEntity
8
0
62
256
6
ByLayer
370
-1
48
1
60
0
100
AcDbTrace
10
-32.5
20
-20.760095
30
0
11
-32.5
21
-21.926762
31
0
12
-36
22
-21.343428
32
0
13
-36
23
-21.343428
33
0
39
0
210
0
220
0
230
1
0
SOLID
5
177
100
AcDbEntity
8
0
62
256
6
ByLayer
370
-1
48
1
60
0
100
AcDbTrace
10
25.8109
20
-21.926762
30
0
11
25.8109
21
-20.760095
31
0
12
29.3109
22
-21.343428
32
0
13
29.3109
23
-21.343428
33
0
39
0
210
0
220
0
230
1
0
MTEXT
5
178
100
AcDbEntity
8
0
62
256
6
ByLayer
370
18
48
1
60
0
100
AcDbMText
10
-3.34455
20
-14.343428
30
0
210
0
220
0
230
1
1
\A1;65.31
40
3.5
41
0
44
1
50
0
71
5
72
5
7
iso_b_vert
0
POINT
5
179
100
AcDbEntity
8
Defpoints
62
0
6
ByLayer
370
-1
48
1
60
0
100
AcDbPoint
10
-36
20
-3
30
0
39
0
210
0
220
0
230
1
50
360
0
POINT
5
17A
100
AcDbEntity
8
Defpoints
62
0
6
ByLayer
370
-1
48
1
60
0
100
AcDbPoint
10
29.3109
20
-1.75
30
0
39
0
210
0
220
0
230
1
50
360
0
POINT
5
17B
100
AcDbEntity
8
Defpoints
62
0
6
ByLayer
370
-1
48
1
60
0
100
AcDbPoint
10
29.3109
20
-21.343428
30
0
39
0
210
0
220
0
230
1
50
360
0
ENDBLK
5
172
100
AcDbEntity
8
0
100
AcDbBlockEnd
0
BLOCK
5
183
100
AcDbEntity
8
0
100
AcDbBlockBegin
2
_U4
70
0
10
0
20
0
30
0
3
_U4
0
MTEXT
5
17D
100
AcDbEntity
8
SK2
62
256
6
ByLayer
370
13
48
1
60
0
100
AcDbMText
10
-8.044415
20
-20.310795
30
0
210
0
220
0
230
1
1
\W0.7211;65,31
40
3.5
41
0
44
1.084337
50
0
71
7
72
5
7
iso_b_vert
0
LINE
5
17E
100
AcDbEntity
8
SK2
62
256
6
ByLayer
370
13
48
1
60
0
100
AcDbLine
10
-36
20
-4.5875
30
0
11
-36
21
-23.343428
31
0
39
0
210
0
220
0
230
1
0
LINE
5
17F
100
AcDbEntity
8
SK2
62
256
6
ByLayer
370
13
48
1
60
0
100
AcDbLine
10
29.3109
20
-3.3375
30
0
11
29.3109
21
-23.343428
31
0
39
0
210
0
220
0
230
1
0
LINE
5
180
100
AcDbEntity
8
SK2
62
256
6
ByLayer
370
13
48
1
60
0
100
AcDbLine
10
-36
20
-21.343428
30
0
11
29.3109
21
-21.343428
31
0
39
0
210
0
220
0
230
1
0
SOLID
5
181
100
AcDbEntity
8
SK2
62
256
6
ByLayer
370
18
48
1
60
0
100
AcDbTrace
10
-36
20
-21.343428
30
0
11
-32.500002
21
-20.882645
31
0
12
-32.499998
22
-21.804212
32
0
13
-32.499998
23
-21.804212
33
0
39
0
210
0
220
0
230
1
0
SOLID
5
182
100
AcDbEntity
8
SK2
62
256
6
ByLayer
370
18
48
1
60
0
100
AcDbTrace
10
29.3109
20
-21.343428
30
0
11
25.810902
21
-21.804212
31
0
12
25.810898
22
-20.882645
32
0
13
25.810898
23
-20.882645
33
0
39
0
210
0
220
0
230
1
0
ENDBLK
5
184
100
AcDbEntity
8
0
100
AcDbBlockEnd
0
ENDSEC
0
SECTION
2
ENTITIES
0
ARC
5
A7
100
AcDbEntity
8
1
62
256
6
ByLayer
370
18
48
1
60
0
100
AcDbCircle
39
0
10
1.652219
20
2.550216
30
0
40
0.85
210
0
220
0
230
1
100
AcDbArc
50
193.616442
51
270.103132
0
ARC
5
A8
100
AcDbEntity
8
1
62
256
6
ByLayer
370
18
48
1
60
0
100
AcDbCircle
39
0
10
0
20
-2.15
30
0
40
0.85
210
0
220
0
230
1
100
AcDbArc
50
270
51
346.383558
0
ARC
5
A9
100
AcDbEntity
8
1
62
256
6
ByLayer
370
18
48
1
60
0
100
AcDbCircle
39
0
10
1.652219
20
-2.550216
30
0
40
0.85
210
0
220
0
230
1
100
AcDbArc
50
89.896868
51
166.383558
0
ARC
5
AA
100
AcDbEntity
8
1
62
256
6
ByLayer
370
18
48
1
60
0
100
AcDbCircle
39
0
10
0
20
2.15
30
0
40
0.85
210
0
220
0
230
1
100
AcDbArc
50
13.616442
51
90
0
ELLIPSE
5
AB
100
AcDbEntity
8
1
62
256
6
ByLayer
370
13
48
1
60
0
100
AcDbEllipse
10
5.572828
20
1.532512
30
0
11
0.115823116525438
21
0.276739960393028
31
0
210
0
220
0
230
1
40
0.442895
41
-2.99048155100527
42
-2.38177629236966
0
ELLIPSE
5
AC
100
AcDbEntity
8
1
62
256
6
ByLayer
370
13
48
1
60
0
100
AcDbEllipse
10
74.194174
20
43.437707
30
0
11
-61.85
21
7.5741902983914E-15
31
0
210
0
220
0
230
1
40
0.99863
41
0.767553885100927
42
0.772531375637784
0
ELLIPSE
5
AD
100
AcDbEntity
8
1
62
256
6
ByLayer
370
13
48
1
60
0
100
AcDbEllipse
10
6.714565
20
-49.738843
30
0
11
-54.3732943034974
21
51.2089380263741
31
0
210
0
220
0
230
1
40
0.534263
41
-1.10461555837671
42
-1.05791914584517
0
ELLIPSE
5
AE
100
AcDbEntity
8
1
62
256
6
ByLayer
370
18
48
1
60
0
100
AcDbEllipse
10
30.072736
20
0.00096
30
0
11
0.624007940684602
21
1.73351557597211
31
0
210
0
220
0
230
1
40
0.400047
41
2.93010002548787
42
2.94622891719831
0
ELLIPSE
5
AF
100
AcDbEntity
8
1
62
256
6
ByLayer
370
18
48
1
60
0
100
AcDbEllipse
10
5.571766
20
-2.647938
30
0
11
-1
21
1.22460635382238E-16
31
0
210
0
220
0
230
1
40
1
41
-1.57073812130074
42
-1.23110297001403
0
ELLIPSE
5
B0
100
AcDbEntity
8
1
62
256
6
ByLayer
370
18
48
1
60
0
100
AcDbEllipse
10
5.571766
20
2.647938
30
0
11
-1
21
1.22460635382238E-16
31
0
210
0
220
0
230
1
40
1
41
1.22993362326861
42
1.57238646092373
0
POINT
5
70
100
AcDbEntity
8
80
62
256
6
ByLayer
370
18
48
1
60
0
100
AcDbPoint
10
0
20
0
30
0
39
0
210
0
220
0
230
1
50
360
0
POINT
5
72
100
AcDbEntity
8
81
62
256
6
ByLayer
370
18
48
1
60
0
100
AcDbPoint
10
30
20
0
30
0
39
0
210
0
220
0
230
1
50
360
0
POINT
5
74
100
AcDbEntity
8
1
62
256
6
ByLayer
370
18
48
1
60
1
100
AcDbPoint
10
29.3109
20
-1.75
30
0
39
0
210
0
220
0
230
1
50
360
0
POINT
5
76
100
AcDbEntity
8
1
62
256
6
ByLayer
370
18
48
1
60
1
100
AcDbPoint
10
-36
20
-3
30
0
39
0
210
0
220
0
230
1
50
360
0
POINT
5
77
100
AcDbEntity
8
1
62
256
6
ByLayer
370
18
48
1
60
1
100
AcDbPoint
10
11.81
20
1.75
30
0
39
0
210
0
220
0
230
1
50
360
0
POINT
5
78
100
AcDbEntity
8
1
62
256
6
ByLayer
370
18
48
1
60
1
100
AcDbPoint
10
29.3109
20
-1.75
30
0
39
0
210
0
220
0
230
1
50
360
0
POINT
5
79
100
AcDbEntity
8
1
62
256
6
ByLayer
370
18
48
1
60
1
100
AcDbPoint
10
-36
20
-3
30
0
39
0
210
0
220
0
230
1
50
360
0
POINT
5
7A
100
AcDbEntity
8
1
62
256
6
ByLayer
370
18
48
1
60
1
100
AcDbPoint
10
29.3109
20
-1.75
30
0
39
0
210
0
220
0
230
1
50
360
0
SPLINE
5
B1
100
AcDbEntity
8
1
62
256
6
ByLayer
370
18
48
1
60
0
100
AcDbSpline
70
4
71
3
72
12
73
8
40
0
40
0
40
0
40
0
40
0.250000000000002
40
0.250000000000002
40
0.500000000000004
40
0.500000000000004
40
1
40
1
40
1
40
1
41
1
10
5.83525322943314
20
0.759977286199671
30
0
41
1
10
5.98798141472511
20
0.677647077786901
30
0
41
1
10
6.14248765939413
20
0.594343800935405
30
0
41
1
10
6.45455748593571
20
0.425892545947022
30
0
41
1
10
6.61211723842703
20
0.34074605739778
30
0
41
1
10
7.08194310791436
20
0.0863921534555345
30
0
41
1
10
7.39385566056762
20
-0.0830869887186623
30
0
41
1
10
7.70436550261775
20
-0.252664989632365
30
0
0
SPLINE
5
B2
100
AcDbEntity
8
1
62
256
6
ByLayer
370
18
48
1
60
0
100
AcDbSpline
70
4
71
3
72
12
73
8
40
0
40
0
40
0
40
0
40
0.25
40
0.25
40
0.5
40
0.5
40
1
40
1
40
1
40
1
41
1
10
29.281764235288
20
-1.49786098352925
30
0
41
1
10
29.2602281983652
20
-1.45875936863709
30
0
41
1
10
29.2417107010945
20
-1.41422941182296
30
0
41
1
10
29.2107884715857
20
-1.31417670614579
30
0
41
1
10
29.1983460820671
20
-1.25842034963924
30
0
41
1
10
29.1711715234015
20
-1.074813157855
30
0
41
1
10
29.1670438001698
20
-0.93591882530032
30
0
41
1
10
29.1771320938074
20
-0.781361067819063
30
0
0
SPLINE
5
B3
100
AcDbEntity
8
1
62
256
6
ByLayer
370
18
48
1
60
0
100
AcDbSpline
70
4
71
3
72
20
73
16
40
0
40
0
40
0
40
0
40
0.235375347611687
40
0.235375347611687
40
0.470750695223374
40
0.470750695223374
40
0.588438369029218
40
0.588438369029218
40
0.706126042835061
40
0.706126042835061
40
0.823813716640905
40
0.823813716640905
40
0.941501390446748
40
0.941501390446748
40
1
40
1
40
1
40
1
41
1
10
6.4185849101213
20
-1.58241597355786
30
0
41
1
10
6.65935042228671
20
-1.6216466338507
30
0
41
1
10
6.89735812571598
20
-1.64440949432162
30
0
41
1
10
7.37229268537823
20
-1.65471023185992
30
0
41
1
10
7.60905622026473
20
-1.64349813124423
30
0
41
1
10
7.96590453590355
20
-1.60061922011386
30
0
41
1
10
8.08522404434231
20
-1.5819047013087
30
0
41
1
10
8.32460003882113
20
-1.53709265739991
30
0
41
1
10
8.44504274728564
20
-1.51039964566888
30
0
41
1
10
8.68417591476887
20
-1.44869723672906
30
0
41
1
10
8.80320953397509
20
-1.41403659967108
30
0
41
1
10
9.04081760766402
20
-1.33862314552968
30
0
41
1
10
9.1592912142707
20
-1.29773458762747
30
0
41
1
10
9.33660444755043
20
-1.23072385352398
30
0
41
1
10
9.39549893624803
20
-1.20769856715913
30
0
41
1
10
9.45440150235765
20
-1.18393452015175
30
0
0
SPLINE
5
B4
100
AcDbEntity
8
1
62
256
6
ByLayer
370
18
48
1
60
0
100
AcDbSpline
70
4
71
3
72
64
73
60
40
0
40
0
40
0
40
0
40
0.0170315206737879
40
0.0170315206737879
40
0.0487490211309266
40
0.0487490211309266
40
0.0804665215880652
40
0.0804665215880652
40
0.112184022045204
40
0.112184022045204
40
0.143901522502342
40
0.143901522502342
40
0.175619022959481
40
0.175619022959481
40
0.20733652341662
40
0.20733652341662
40
0.239054023873758
40
0.239054023873758
40
0.270771524330897
40
0.270771524330897
40
0.334206525245174
40
0.334206525245174
40
0.365924025702313
40
0.365924025702313
40
0.397641526159451
40
0.397641526159451
40
0.42935902661659
40
0.42935902661659
40
0.461076527073728
40
0.461076527073728
40
0.492794027530867
40
0.492794027530867
40
0.524511527988006
40
0.524511527988006
40
0.556229028445144
40
0.556229028445144
40
0.587946528902283
40
0.587946528902283
40
0.619664029359422
40
0.619664029359422
40
0.65138152981656
40
0.65138152981656
40
0.683099030273699
40
0.683099030273699
40
0.714816530730837
40
0.714816530730837
40
0.778251531645115
40
0.778251531645115
40
0.809969032102254
40
0.809969032102254
40
0.841686532559393
40
0.841686532559393
40
0.905121533473673
40
0.905121533473673
40
0.936839033930813
40
0.936839033930813
40
0.968556534387953
40
0.968556534387953
40
1
40
1
40
1
40
1
41
1
10
16.230841055923
20
1.66716932148265
30
0
41
1
10
16.2944267811947
20
1.66716459043704
30
0
41
1
10
16.3580352465867
20
1.66595053990002
30
0
41
1
10
16.5402142758234
20
1.65951137476696
30
0
41
1
10
16.6587995199325
20
1.65159501926658
30
0
41
1
10
16.8970546908029
20
1.62594482388005
30
0
41
1
10
17.017050665844
20
1.60812680775868
30
0
41
1
10
17.2564900129394
20
1.56510433228394
30
0
41
1
10
17.3757868338256
20
1.54018598083999
30
0
41
1
10
17.613327034083
20
1.48177680978736
30
0
41
1
10
17.7318328459976
20
1.44828829656532
30
0
41
1
10
17.968661705139
20
1.37449367023012
30
0
41
1
10
18.086994421464
20
1.33468408707901
30
0
41
1
10
18.3236981404073
20
1.2473871023509
30
0
41
1
10
18.4421786743898
20
1.20009750473903
30
0
41
1
10
18.6799211884564
20
1.09936811663769
30
0
41
1
10
18.7990699791917
20
1.04629903994035
30
0
41
1
10
19.0386688630529
20
0.934208493482515
30
0
41
1
10
19.1582538181568
20
0.875045665028779
30
0
41
1
10
19.5152992638228
20
0.693053556106037
30
0
41
1
10
19.751519257939
20
0.564485269252913
30
0
41
1
10
20.1060509591305
20
0.364208858417982
30
0
41
1
10
20.2242689141348
20
0.296380867412523
30
0
41
1
10
20.4610827310225
20
0.159324528541362
30
0
41
1
10
20.579721855281
20
0.0899023562393495
30
0
41
1
10
20.8181508682464
20
-0.049473798961202
30
0
41
1
10
20.9381896817781
20
-0.119607385297996
30
0
41
1
10
21.1774895219174
20
-0.259080390542408
30
0
41
1
10
21.2969263253958
20
-0.328132515015568
30
0
41
1
10
21.5358475731211
20
-0.463955691573261
30
0
41
1
10
21.6553608344712
20
-0.530701157929911
30
0
41
1
10
21.8947439540043
20
-0.662067155206245
30
0
41
1
10
22.0144263959114
20
-0.726481999857072
30
0
41
1
10
22.2523136997421
20
-0.849544448588318
30
0
41
1
10
22.3708566676598
20
-0.908479442660592
30
0
41
1
10
22.6074515229556
20
-1.02231912646212
30
0
41
1
10
22.7255158621877
20
-1.07725746589486
30
0
41
1
10
22.9617635754452
20
-1.17995915578908
30
0
41
1
10
23.0799193705515
20
-1.22810045858523
30
0
41
1
10
23.3167714695349
20
-1.31861616945398
30
0
41
1
10
23.4352989558985
20
-1.36151711953013
30
0
41
1
10
23.6735023757992
20
-1.43910819505038
30
0
41
1
10
23.7935461797805
20
-1.47398546885577
30
0
41
1
10
24.0319859542983
20
-1.53628292564042
30
0
41
1
10
24.1507070056341
20
-1.56439930068717
30
0
41
1
10
24.5062286557161
20
-1.63448253539866
30
0
41
1
10
24.7418869822074
20
-1.66277668089737
30
0
41
1
10
25.0967711652874
20
-1.680841917945
30
0
41
1
10
25.2153907970275
20
-1.68271974223782
30
0
41
1
10
25.4529714863043
20
-1.67854594668941
30
0
41
1
10
25.5724082054621
20
-1.6725430416659
30
0
41
1
10
25.9309774216768
20
-1.64064179823839
30
0
41
1
10
26.1688008146006
20
-1.60090158434156
30
0
41
1
10
26.5267457086619
20
-1.51716764273499
30
0
41
1
10
26.6464451783566
20
-1.48495208329783
30
0
41
1
10
26.8853229640761
20
-1.41349233477655
30
0
41
1
10
27.0043435640765
20
-1.37406101704204
30
0
41
1
10
27.2417034048594
20
-1.28891447973606
30
0
41
1
10
27.3602035214526
20
-1.24280322368108
30
0
41
1
10
27.4785656311641
20
-1.1936679805824
30
0
0
SPLINE
5
B5
100
AcDbEntity
8
1
62
256
6
ByLayer
370
18
48
1
60
0
100
AcDbSpline
70
4
71
3
72
8
73
4
40
0
40
0
40
0
40
0
40
1
40
1
40
1
40
1
41
1
10
29.9005318753071
20
-0.328640738660709
30
0
41
1
10
29.8561048125379
20
-0.452175718002991
30
0
41
1
10
29.8118418703214
20
-0.575768869419534
30
0
41
1
10
29.7677435134544
20
-0.699420357656265
30
0
0
SPLINE
5
B6
100
AcDbEntity
8
1
62
256
6
ByLayer
370
18
48
1
60
0
100
AcDbSpline
70
4
71
3
72
8
73
4
40
0
40
0
40
0
40
0
40
1
40
1
40
1
40
1
41
1
10
29.9996744459961
20
0.0628326607586871
30
0
41
1
10
29.9657582183619
20
0.150478196218217
30
0
41
1
10
29.9327435748056
20
0.23907209774498
30
0
41
1
10
29.9005318753071
20
0.328640738660681
30
0
0
SPLINE
5
B7
100
AcDbEntity
8
1
62
256
6
ByLayer
370
18
48
1
60
0
100
AcDbSpline
70
4
71
3
72
16
73
12
40
0
40
0
40
0
40
0
40
0.0336648625505117
40
0.0336648625505117
40
0.275248646912884
40
0.275248646912884
40
0.516832431275256
40
0.516832431275256
40
0.758416215637628
40
0.758416215637628
40
1
40
1
40
1
40
1
41
1
10
29.3409635056965
20
0.203242973821119
30
0
41
1
10
29.3439512094225
20
0.20576621633947
30
0
41
1
10
29.3469680921078
20
0.208358739438495
30
0
41
1
10
29.3718587836489
20
0.230105094401921
30
0
41
1
10
29.3955952165816
20
0.253083134640036
30
0
41
1
10
29.4455624539302
20
0.304568902242835
30
0
41
1
10
29.4715713200591
20
0.332831916558689
30
0
41
1
10
29.5267443641727
20
0.393316026066202
30
0
41
1
10
29.5558388572057
20
0.425543022762923
30
0
41
1
10
29.6170544811268
20
0.489057869842043
30
0
41
1
10
29.6496846669948
20
0.521149290652858
30
0
41
1
10
29.6862120189219
20
0.549342886414081
30
0
0
SPLINE
5
B8
100
AcDbEntity
8
1
62
256
6
ByLayer
370
13
48
1
60
0
100
AcDbSpline
70
4
71
3
72
12
73
8
40
0
40
0
40
0
40
0
40
0.469336567707473
40
0.469336567707473
40
0.938673135414947
40
0.938673135414947
40
1
40
1
40
1
40
1
41
1
10
5.57328323970995
20
1.29655265601616
30
0
41
1
10
5.57304724718563
20
1.40314491209549
30
0
41
1
10
5.57289059097963
20
1.4877029746219
30
0
41
1
10
5.57267247794857
20
1.60658393135847
30
0
41
1
10
5.57261230045174
20
1.639634096706
30
0
41
1
10
5.57255122141513
20
1.64749668577016
30
0
41
1
10
5.57254429310288
20
1.64794274576684
30
0
41
1
10
5.57253742609998
20
1.64793079271175
30
0
0
SPLINE
5
B9
100
AcDbEntity
8
1
62
256
6
ByLayer
370
18
48
1
60
0
100
AcDbSpline
70
4
71
3
72
16
73
12
40
0
40
0
40
0
40
0
40
0.25
40
0.25
40
0.375
40
0.375
40
0.5
40
0.5
40
0.75
40
0.75
40
1
40
1
40
1
40
1
41
1
10
29.2536175558622
20
0.279806847063952
30
0
41
1
10
29.2325006948721
20
0.191159276595329
30
0
41
1
10
29.214883400078
20
0.101716903989711
30
0
41
1
10
29.1937534230958
20
-0.0336494452724878
30
0
41
1
10
29.1875969365896
20
-0.0789729757013333
30
0
41
1
10
29.177119736163
20
-0.170036967085167
30
0
41
1
10
29.1727876398135
20
-0.216002845345344
30
0
41
1
10
29.1628515141167
20
-0.352078639523512
30
0
41
1
10
29.160197985801
20
-0.440805324254683
30
0
41
1
10
29.1627056064642
20
-0.614341054430639
30
0
41
1
10
29.1679430636482
20
-0.699689353183231
30
0
41
1
10
29.1771320938075
20
-0.781361067819063
30
0
0
SPLINE
5
BA
100
AcDbEntity
8
1
62
256
6
ByLayer
370
18
48
1
60
0
100
AcDbSpline
70
4
71
3
72
8
73
4
40
0
40
0
40
0
40
0
40
1
40
1
40
1
40
1
41
1
10
29.9996744459961
20
0.0628326607587155
30
0
41
1
10
30.000108517997
20
0.0209442202571211
30
0
41
1
10
30.000108517997
20
-0.0209442202444734
30
0
41
1
10
29.9996744459962
20
-0.0628326607460679
30
0
0
SPLINE
5
BB
100
AcDbEntity
8
1
62
256
6
ByLayer
370
18
48
1
60
0
100
AcDbSpline
70
4
71
3
72
16
73
12
40
0
40
0
40
0
40
0
40
0.250000000000007
40
0.250000000000007
40
0.375000000000001
40
0.375000000000001
40
0.499999999999995
40
0.499999999999995
40
0.749999999999998
40
0.749999999999998
40
1
40
1
40
1
40
1
41
1
10
29.7099101590488
20
-0.353632534360344
30
0
41
1
10
29.6807995767751
20
-0.341411365243545
30
0
41
1
10
29.6548140584496
20
-0.31865469601982
30
0
41
1
10
29.6193449983072
20
-0.272689099167138
30
0
41
1
10
29.6080859864146
20
-0.255241043934404
30
0
41
1
10
29.5872280085159
20
-0.217571488210666
30
0
41
1
10
29.5775501049175
20
-0.197266856341201
30
0
41
1
10
29.5505239063189
20
-0.132424312883842
30
0
41
1
10
29.5350545175356
20
-0.0835455275284289
30
0
41
1
10
29.5094876421338
20
0.0214839051378135
30
0
41
1
10
29.49945500986
20
0.0770996216324988
30
0
41
1
10
29.4919212280521
20
0.135532307885342
30
0
0
SPLINE
5
BC
100
AcDbEntity
8
1
62
256
6
ByLayer
370
18
48
1
60
0
100
AcDbSpline
70
4
71
3
72
12
73
8
40
0
40
0
40
0
40
0
40
0.499999999999993
40
0.499999999999993
40
0.749999999999996
40
0.749999999999996
40
1
40
1
40
1
40
1
41
1
10
29.3617314322208
20
1.7306638900973
30
0
41
1
10
29.4232731932569
20
1.58661090977995
30
0
41
1
10
29.4863795245774
20
1.43671150770183
30
0
41
1
10
29.5811202881921
20
1.20097651933529
30
0
41
1
10
29.6128301215753
20
1.1201980471746
30
0
41
1
10
29.675116415826
20
0.956118924716947
30
0
41
1
10
29.7055265066996
20
0.87321220359982
30
0
41
1
10
29.7349163565067
20
0.789324063593199
30
0
0
SPLINE
5
BD
100
AcDbEntity
8
1
62
256
6
ByLayer
370
18
48
1
60
0
100
AcDbSpline
70
4
71
1
72
4
73
2
40
0
40
0
40
1
40
1
41
1
10
29.3259765185052
20
-1.6511193121037
30
0
41
1
10
29.7102757872898
20
-0.35374672333154
30
0
0
SPLINE
5
BE
100
AcDbEntity
8
1
62
256
6
ByLayer
370
18
48
1
60
0
100
AcDbSpline
70
4
71
3
72
22
73
18
40
0
40
0
40
0
40
0
40
0.0625000000000018
40
0.0625000000000018
40
0.125000000000004
40
0.125000000000004
40
0.250000000000007
40
0.250000000000007
40
0.375000000000011
40
0.375000000000011
40
0.500000000000014
40
0.500000000000014
40
0.750000000000012
40
0.750000000000012
40
0.875000000000006
40
0.875000000000006
40
1
40
1
40
1
40
1
41
1
10
3.87325832931745
20
0.700681588859851
30
0
41
1
10
3.89203090210603
20
0.738035523744571
30
0
41
1
10
3.9196753069474
20
0.770566109172023
30
0
41
1
10
3.9831698703064
20
0.825906272652247
30
0
41
1
10
4.0192930699032
20
0.849202025247081
30
0
41
1
10
4.13388052285529
20
0.909418884603383
30
0
41
1
10
4.21652162314678
20
0.936517683295932
30
0
41
1
10
4.38837076047287
20
0.97770691711861
30
0
41
1
10
4.47530691980521
20
0.990800505209336
30
0
41
1
10
4.65061343474778
20
1.00691000618295
30
0
41
1
10
4.73899987717459
20
1.00979369951457
30
0
41
1
10
5.0061611477428
20
1.00451289123032
30
0
41
1
10
5.18081053471354
20
0.982994848469644
30
0
41
1
10
5.4368184369722
20
0.921630493042017
30
0
41
1
10
5.52068869466001
20
0.896210891621649
30
0
41
1
10
5.68200271187916
20
0.835737636044229
30
0
41
1
10
5.75996535270636
20
0.800562241556918
30
0
41
1
10
5.83525322942569
20
0.759977286203707
30
0
0
SPLINE
5
BF
100
AcDbEntity
8
1
62
256
6
ByLayer
370
18
48
1
60
0
100
AcDbSpline
70
4
71
3
72
8
73
4
40
0
40
0
40
0
40
0
40
1
40
1
40
1
40
1
41
1
10
29.7349163565067
20
-0.789324063593199
30
0
41
1
10
29.745569984756
20
-0.758915161743801
30
0
41
1
10
29.7565147173872
20
-0.728962137012616
30
0
41
1
10
29.7677435134544
20
-0.699420357656265
30
0
0
SPLINE
5
C0
100
AcDbEntity
8
1
62
256
6
ByLayer
370
18
48
1
60
0
100
AcDbSpline
70
4
71
3
72
28
73
24
40
0
40
0
40
0
40
0
40
0.124999999999999
40
0.124999999999999
40
0.249999999999997
40
0.249999999999997
40
0.374999999999996
40
0.374999999999996
40
0.499999999999995
40
0.499999999999995
40
0.624999999999993
40
0.624999999999993
40
0.687499999999994
40
0.687499999999994
40
0.749999999999996
40
0.749999999999996
40
0.812499999999997
40
0.812499999999997
40
0.874999999999998
40
0.874999999999998
40
0.937499999999999
40
0.937499999999999
40
1
40
1
40
1
40
1
41
1
10
5.23513457513883
20
-1.31589332761422
30
0
41
1
10
5.13661904800733
20
-1.27496979649021
30
0
41
1
10
5.03881069098341
20
-1.23012099023757
30
0
41
1
10
4.84490064084824
20
-1.13080638848246
30
0
41
1
10
4.74894671668432
20
-1.0763493928693
30
0
41
1
10
4.56362915432968
20
-0.958045780314706
30
0
41
1
10
4.47375162438874
20
-0.8939884409223
30
0
41
1
10
4.30114185263682
20
-0.753186484370246
30
0
41
1
10
4.21835738217067
20
-0.676536498568339
30
0
41
1
10
4.06305668354594
20
-0.504881432650592
30
0
41
1
10
3.99209799172201
20
-0.411507982138886
30
0
41
1
10
3.90252136646731
20
-0.257663563138607
30
0
41
1
10
3.87560875040651
20
-0.204125223255232
30
0
41
1
10
3.83004560035531
20
-0.0945792761836231
30
0
41
1
10
3.81117907790457
20
-0.03823720038082
30
0
41
1
10
3.78268421648278
20
0.0781514494182431
30
0
41
1
10
3.77323154378047
20
0.138209608513932
30
0
41
1
10
3.7654611405637
20
0.256550544117886
30
0
41
1
10
3.76695530570964
20
0.315714393962651
30
0
41
1
10
3.78090235856931
20
0.432882453031624
30
0
41
1
10
3.79311396370781
20
0.48925890255606
30
0
41
1
10
3.82669519851879
20
0.598150501141276
30
0
41
1
10
3.84831382930741
20
0.651046664569009
30
0
41
1
10
3.87325832931742
20
0.700681588859851
30
0
0
SPLINE
5
C1
100
AcDbEntity
8
1
62
256
6
ByLayer
370
18
48
1
60
0
100
AcDbSpline
70
4
71
3
72
12
73
8
40
0
40
0
40
0
40
0
40
0.25000000000001
40
0.25000000000001
40
0.50000000000002
40
0.50000000000002
40
1
40
1
40
1
40
1
41
1
10
5.23328301554022
20
1.42320161958929
30
0
41
1
10
5.23323329230587
20
1.40521610882362
30
0
41
1
10
5.24676672676986
20
1.38772342868595
30
0
41
1
10
5.28058810579989
20
1.35555724047211
30
0
41
1
10
5.30183364229765
20
1.34048945901733
30
0
41
1
10
5.36971327110524
20
1.29841097472888
30
0
41
1
10
5.42179323415311
20
1.27344747281597
30
0
41
1
10
5.47677558542142
20
1.25120338635256
30
0
0
SPLINE
5
C2
100
AcDbEntity
8
1
62
256
6
ByLayer
370
18
48
1
60
0
100
AcDbSpline
70
4
71
3
72
8
73
4
40
0
40
0
40
0
40
0
40
1
40
1
40
1
40
1
41
1
10
29.2536175558621
20
0.279806847063952
30
0
41
1
10
29.3323419877566
20
0.228700424993178
30
0
41
1
10
29.4117446158124
20
0.180473352716092
30
0
41
1
10
29.491921228052
20
0.135532307885342
30
0
0
SPLINE
5
C3
100
AcDbEntity
8
1
62
256
6
ByLayer
370
18
48
1
60
0
100
AcDbSpline
70
4
71
3
72
8
73
4
40
0
40
0
40
0
40
0
40
1
40
1
40
1
40
1
41
1
10
29.9005318753071
20
0.328640738660709
30
0
41
1
10
29.8561049137692
20
0.452175436516597
30
0
41
1
10
29.811841970899
20
0.575768587400603
30
0
41
1
10
29.7677435134544
20
0.699420357656095
30
0
0
SPLINE
5
C4
100
AcDbEntity
8
1
62
256
6
ByLayer
370
18
48
1
60
0
100
AcDbSpline
70
4
71
3
72
46
73
42
40
0
40
0
40
0
40
0
40
0.0254243771465379
40
0.0254243771465379
40
0.0852021935442366
40
0.0852021935442366
40
0.144980009941935
40
0.144980009941935
40
0.204757826339634
40
0.204757826339634
40
0.264535642737333
40
0.264535642737333
40
0.324313459135031
40
0.324313459135031
40
0.354202367333881
40
0.354202367333881
40
0.38409127553273
40
0.38409127553273
40
0.44386909193043
40
0.44386909193043
40
0.50364690832813
40
0.50364690832813
40
0.56342472472583
40
0.56342472472583
40
0.62320254112353
40
0.62320254112353
40
0.68298035752123
40
0.68298035752123
40
0.74275817391893
40
0.74275817391893
40
0.802535990316629
40
0.802535990316629
40
0.862313806714329
40
0.862313806714329
40
0.892202714913179
40
0.892202714913179
40
0.922091623112028
40
0.922091623112028
40
0.981869439509726
40
0.981869439509726
40
1
40
1
40
1
40
1
41
1
10
9.45171037826367
20
1.17836584869642
30
0
41
1
10
9.54796029697721
20
1.22030564236422
30
0
41
1
10
9.6442239867057
20
1.26027343549805
30
0
41
1
10
9.96666587725801
20
1.38672063889842
30
0
41
1
10
10.192127542532
20
1.46312054435819
30
0
41
1
10
10.6448120936422
20
1.58802123450354
30
0
41
1
10
10.8708585310542
20
1.63601139601522
30
0
41
1
10
11.3225721319406
20
1.70086255605318
30
0
41
1
10
11.5491933527861
20
1.71772565369824
30
0
41
1
10
12.0010181481023
20
1.71913708096989
30
0
41
1
10
12.2268356671598
20
1.70373633707547
30
0
41
1
10
12.6792991743002
20
1.6414940831763
30
0
41
1
10
12.904769907249
20
1.59499058515232
30
0
41
1
10
13.2435585874538
20
1.5029976182027
30
0
41
1
10
13.3569476139821
20
1.4687719869946
30
0
41
1
10
13.5829418801806
20
1.39376243513561
30
0
41
1
10
13.6956877280936
20
1.35289462056886
30
0
41
1
10
14.0341627209291
20
1.22120881738033
30
0
41
1
10
14.2606355107
20
1.12069771503462
30
0
41
1
10
14.7121886720746
20
0.901522642168885
30
0
41
1
10
14.9376087205933
20
0.782525179966882
30
0
41
1
10
15.3900411134009
20
0.531016534802689
30
0
41
1
10
15.6152018514676
20
0.399714111129782
30
0
41
1
10
16.0665567502472
20
0.131098940486055
30
0
41
1
10
16.2928262632907
20
-0.0060211450754366
30
0
41
1
10
16.7437913683733
20
-0.276832114372127
30
0
41
1
10
16.9699280914099
20
-0.411543678756317
30
0
41
1
10
17.4213063793003
20
-0.670165752492665
30
0
41
1
10
17.6463310831725
20
-0.794200857469264
30
0
41
1
10
18.0983646637785
20
-1.02660602682579
30
0
41
1
10
18.3237771345381
20
-1.13380289160986
30
0
41
1
10
18.7743903531371
20
-1.32624791150076
30
0
41
1
10
19.0007393652268
20
-1.41100560589857
30
0
41
1
10
19.3387407470472
20
-1.51720779747836
30
0
41
1
10
19.4512113323096
20
-1.54927962033688
30
0
41
1
10
19.6768728658441
20
-1.60590346805262
30
0
41
1
10
19.7899661364615
20
-1.63068498680965
30
0
41
1
10
20.1284286865554
20
-1.69327748609553
30
0
41
1
10
20.3532777686253
20
-1.71954854073374
30
0
41
1
10
20.6473467055544
20
-1.73289160963435
30
0
41
1
10
20.7157731876776
20
-1.73450840993397
30
0
41
1
10
20.7841846288565
20
-1.73464399731836
30
0
0
SPLINE
5
C5
100
AcDbEntity
8
1
62
256
6
ByLayer
370
18
48
1
60
0
100
AcDbSpline
70
4
71
3
72
12
73
8
40
0
40
0
40
0
40
0
40
0.286601664417128
40
0.286601664417128
40
0.643300832208565
40
0.643300832208565
40
1
40
1
40
1
40
1
41
1
10
27.4695958187356
20
1.20528580528219
30
0
41
1
10
27.6502890591999
20
1.28514532874073
30
0
41
1
10
27.8308814985815
20
1.35768694110891
30
0
41
1
10
28.2371916051248
20
1.50261240820305
30
0
41
1
10
28.4619158683802
20
1.56919494508267
30
0
41
1
10
28.9115078178251
20
1.6729441414229
30
0
41
1
10
29.1370824111896
20
1.70988822729365
30
0
41
1
10
29.3617314322166
20
1.73066389010717
30
0
0
SPLINE
5
C6
100
AcDbEntity
8
1
62
256
6
ByLayer
370
13
48
1
60
0
100
AcDbSpline
70
4
71
3
72
107
73
103
40
0
40
0
40
0
40
0
40
0.005387672567488
40
0.0239577915748174
40
0.0564554998376428
40
0.0610980295894774
40
0.070383089093143
40
0.0796681485968054
40
0.0935957378523029
40
0.0982382676041375
40
0.107523327107804
40
0.116808386611468
40
0.129575343429007
40
0.135378505618797
40
0.141181667808586
40
0.153948624626129
40
0.172518743633456
40
0.205016451896284
40
0.209658981648118
40
0.218944041151781
40
0.228229100655448
40
0.242156689910945
40
0.246799219662777
40
0.256084279166444
40
0.265369338670107
40
0.278136295487646
40
0.283939457677437
40
0.289742619867228
40
0.302509576684767
40
0.321079695692097
40
0.353577403954925
40
0.358219933706757
40
0.367504993210423
40
0.376790052714088
40
0.390717641969585
40
0.395360171721417
40
0.404645231225082
40
0.413930290728747
40
0.427857879984246
40
0.432500409736078
40
0.441785469239742
40
0.451070528743408
40
0.464998117998905
40
0.469640647750737
40
0.478925707254404
40
0.48821076675807
40
0.502138356013566
40
0.506780885765398
40
0.516065945269063
40
0.525351004772727
40
0.539278594028224
40
0.543921123780058
40
0.553206183283721
40
0.562491242787387
40
0.576418832042885
40
0.581061361794718
40
0.590346421298381
40
0.599631480802049
40
0.613559070057544
40
0.618201599809378
40
0.627486659313043
40
0.636771718816707
40
0.650699308072206
40
0.655341837824038
40
0.664626897327703
40
0.673911956831367
40
0.687839546086865
40
0.692482075838698
40
0.701767135342363
40
0.711052194846028
40
0.724979784101525
40
0.729622313853358
40
0.738907373357022
40
0.748192432860687
40
0.762120022116185
40
0.766762551868018
40
0.776047611371683
40
0.785332670875348
40
0.799260260130846
40
0.803902789882678
40
0.813187849386343
40
0.822472908890008
40
0.836400498145505
40
0.841043027897337
40
0.850328087401003
40
0.859613146904668
40
0.873540736160166
40
0.878183265911998
40
0.887468325415663
40
0.896753384919328
40
0.910680974174825
40
0.915323503926658
40
0.924608563430323
40
0.933893622933988
40
0.947821212189485
40
0.952463741941318
40
0.961748801444983
40
0.971033860948648
40
0.984961450204145
40
0.989603979955978
40
0.998889039459643
40
1
40
1
40
1
40
1
41
1
10
26.5160862007037
20
-0.722518494081754
30
0
41
1
10
26.5060759161448
20
-0.723630445421321
30
0
41
1
10
26.4615625429726
20
-0.728514657246421
30
0
41
1
10
26.3566699853824
20
-0.739390126773856
30
0
41
1
10
26.2531477662262
20
-0.748848736256065
30
0
41
1
10
26.1668774484116
20
-0.755937134735689
30
0
41
1
10
26.123746810207
20
-0.759306584356409
30
0
41
1
10
26.06336340363
20
-0.76373138837593
30
0
41
1
10
26.0116042873914
20
-0.767222119553111
30
0
41
1
10
25.9598459187962
20
-0.770466354033289
30
0
41
1
10
25.9167154468212
20
-0.773003672908629
30
0
41
1
10
25.8584884767626
20
-0.776143052888472
30
0
41
1
10
25.8067297179478
20
-0.778640509371002
30
0
41
1
10
25.7614408369008
20
-0.780609500926829
30
0
41
1
10
25.7161546187165
20
-0.782424208008422
30
0
41
1
10
25.6471481029435
20
-0.784834316918051
30
0
41
1
10
25.5285450405287
20
-0.78795408123878
30
0
41
1
10
25.4250227971889
20
-0.789357714757443
30
0
41
1
10
25.3387524680038
20
-0.789702530524352
30
0
41
1
10
25.2956218267229
20
-0.789677598125053
30
0
41
1
10
25.2352384201016
20
-0.789338961172348
30
0
41
1
10
25.1834793067437
20
-0.788741949110232
30
0
41
1
10
25.1317209416776
20
-0.787891323021199
30
0
41
1
10
25.0885904709497
20
-0.78700775546514
30
0
41
1
10
25.0303634979384
20
-0.785525136430778
30
0
41
1
10
24.9786047319985
20
-0.783914769651631
30
0
41
1
10
24.9333158415004
20
-0.782289777569531
30
0
41
1
10
24.888029612395
20
-0.780502852378248
30
0
41
1
10
24.8190230782767
20
-0.777421481317646
30
0
41
1
10
24.7004199833121
20
-0.771104080596757
30
0
41
1
10
24.5968977187006
20
-0.764337227259233
30
0
41
1
10
24.5106273848688
20
-0.757911598091539
30
0
41
1
10
24.467496747078
20
-0.754495402038259
30
0
41
1
10
24.4071133622616
20
-0.749423196652259
30
0
41
1
10
24.3553542877513
20
-0.744789800454356
30
0
41
1
10
24.3035959820773
20
-0.73991692909425
30
0
41
1
10
24.260465559934
20
-0.735687603965943
30
0
41
1
10
24.2000823210999
20
-0.72948416896736
30
0
41
1
10
24.1483232713586
20
-0.723889911387204
30
0
41
1
10
24.0965649408181
20
-0.718062511211855
30
0
41
1
10
24.0534344841399
20
-0.713041239324298
30
0
41
1
10
23.993051186163
20
-0.705737674832193
30
0
41
1
10
23.9412920766499
20
-0.699210852301292
30
0
41
1
10
23.8895336834495
20
-0.692458985711767
30
0
41
1
10
23.8464031782281
20
-0.686672101088476
30
0
41
1
10
23.7860198282949
20
-0.678307219124633
30
0
41
1
10
23.7342606954859
20
-0.670882761021517
30
0
41
1
10
23.6825023016481
20
-0.663242409630101
30
0
41
1
10
23.6393718116264
20
-0.656720583548861
30
0
41
1
10
23.5789885055896
20
-0.647338434017087
30
0
41
1
10
23.5272294269672
20
-0.639055165049427
30
0
41
1
10
23.4754710919776
20
-0.630566097113075
30
0
41
1
10
23.4323406465011
20
-0.62334316558497
30
0
41
1
10
23.3719573851394
20
-0.612992225213077
30
0
41
1
10
23.3201983229125
20
-0.603892742768295
30
0
41
1
10
23.268439982258
20
-0.594598466704753
30
0
41
1
10
23.2253095177075
20
-0.586711367283954
30
0
41
1
10
23.1649262106867
20
-0.575444584994131
30
0
41
1
10
23.1131670969048
20
-0.565575623605895
30
0
41
1
10
23.0614087037508
20
-0.55552423175547
30
0
41
1
10
23.018278202373
20
-0.547014041767369
30
0
41
1
10
22.9578948646854
20
-0.534890444740398
30
0
41
1
10
22.9061357484987
20
-0.524303920935665
30
0
41
1
10
22.8543773749977
20
-0.513548272464561
30
0
41
1
10
22.8112469024831
20
-0.504459690931185
30
0
41
1
10
22.7508636183662
20
-0.49154286692675
30
0
41
1
10
22.6991045537564
20
-0.480294229631653
30
0
41
1
10
22.6473462263799
20
-0.468890618650391
30
0
41
1
10
22.6042157818179
20
-0.45927119216995
30
0
41
1
10
22.5438325122673
20
-0.445628679915927
30
0
41
1
10
22.4920734346923
20
-0.433776715500898
30
0
41
1
10
22.440315073882
20
-0.421784722417101
30
0
41
1
10
22.3971845916537
20
-0.411684707116535
30
0
41
1
10
22.3368012618754
20
-0.397387762756353
30
0
41
1
10
22.2850421324485
20
-0.384994333574241
30
0
41
1
10
22.2332837290907
20
-0.372476493128403
30
0
41
1
10
22.1901532233257
20
-0.36194851598728
30
0
41
1
10
22.1297698858754
20
-0.347071603590933
30
0
41
1
10
22.0780107750628
20
-0.334201275490869
30
0
41
1
10
22.0262524092729
20
-0.32122287466305
30
0
41
1
10
21.9831219426448
20
-0.310321896754203
30
0
41
1
10
21.9227386627421
20
-0.29494278199158
30
0
41
1
10
21.8709795962222
20
-0.281662950888034
30
0
41
1
10
21.8192212608118
20
-0.268292058828735
30
0
41
1
10
21.7760908050502
20
-0.257075323701258
30
0
41
1
10
21.7157075131096
20
-0.241274907705787
30
0
41
1
10
21.6639484113617
20
-0.227655593405274
30
0
41
1
10
21.6121900248305
20
-0.213962849088745
30
0
41
1
10
21.5690595222625
20
-0.202489708204496
30
0
41
1
10
21.508676169075
20
-0.186351527412256
30
0
41
1
10
21.4569170263132
20
-0.172464394985866
30
0
41
1
10
21.4051586168449
20
-0.158521258079787
30
0
41
1
10
21.3620281107687
20
-0.146851149915449
30
0
41
1
10
21.301644779465
20
-0.13045826795809
30
0
41
1
10
21.2498856786253
20
-0.116374507962007
30
0
41
1
10
21.1981273238843
20
-0.102252581767431
30
0
41
1
10
21.1549968650137
20
-0.0904455855348658
30
0
41
1
10
21.0946135912531
20
-0.073882670758934
30
0
41
1
10
21.0428545247342
20
-0.0596753258102183
30
0
41
1
10
20.9910961845601
20
-0.0454480994597475
30
0
41
1
10
20.9631536772225
20
-0.0377500427998143
30
0
41
1
10
20.9438371447158
20
-0.0324264685056335
30
0
41
1
10
20.9417729006745
20
-0.0318575528277165
30
0
0
SPLINE
5
C7
100
AcDbEntity
8
1
62
256
6
ByLayer
370
13
48
1
60
0
100
AcDbSpline
70
4
71
3
72
41
73
37
40
0
40
0
40
0
40
0
40
0.023967778795933
40
0.0670280238490535
40
0.0813814388667598
40
0.110088268902175
40
0.138795098937587
40
0.181855343990708
40
0.196208759008415
40
0.224915589043829
40
0.253622419079242
40
0.296682664132363
40
0.31103607915007
40
0.339742909185484
40
0.368449739220898
40
0.411509984274019
40
0.425863399291725
40
0.454570229327139
40
0.483277059362553
40
0.526337304415674
40
0.54069071943338
40
0.569397549468793
40
0.598104379504208
40
0.641164624557329
40
0.655518039575035
40
0.684224869610449
40
0.712931699645863
40
0.755991944698984
40
0.77034535971669
40
0.799052189752104
40
0.827759019787518
40
0.870819264840639
40
0.885172679858345
40
0.899526094876051
40
0.942586339929173
40
1
40
1
40
1
40
1
41
1
10
8.51754633558247
20
-0.72236304055761
30
0
41
1
10
8.50314211563548
20
-0.723965942424201
30
0
41
1
10
8.46285920101559
20
-0.728371357995286
30
0
41
1
10
8.41394833461686
20
-0.733463358822661
30
0
41
1
10
8.36218998431229
20
-0.738615792338578
30
0
41
1
10
8.31905951150225
20
-0.742752109194299
30
0
41
1
10
8.25867619207787
20
-0.748255998090883
30
0
41
1
10
8.20691706701308
20
-0.752676101418047
30
0
41
1
10
8.15515866224771
20
-0.756854499256434
30
0
41
1
10
8.11202815105992
20
-0.760174482790887
30
0
41
1
10
8.05164479968988
20
-0.764529694225558
30
0
41
1
10
7.99988567211372
20
-0.76796081123419
30
0
41
1
10
7.94812728783029
20
-0.771145590215838
30
0
41
1
10
7.90499680684286
20
-0.773633434986294
30
0
41
1
10
7.84461351206494
20
-0.776818766654316
30
0
41
1
10
7.79285443978424
20
-0.779243673714348
30
0
41
1
10
7.74109610612459
20
-0.781418417880218
30
0
41
1
10
7.69796565735058
20
-0.783061016023311
30
0
41
1
10
7.6375823841704
20
-0.785059113878162
30
0
41
1
10
7.58582330614888
20
-0.786463928555577
30
0
41
1
10
7.53406494727653
20
-0.787615574681809
30
0
41
1
10
7.49093446868173
20
-0.788402623344268
30
0
41
1
10
7.43055114760747
20
-0.789200559598328
30
0
41
1
10
7.37879202875553
20
-0.789576243207136
30
0
41
1
10
7.32703363762124
20
-0.789698045334802
30
0
41
1
10
7.28390314298923
20
-0.789625561154622
30
0
41
1
10
7.22351982231967
20
-0.789220249840298
30
0
41
1
10
7.17176072644219
20
-0.788566229764598
30
0
41
1
10
7.12000237516656
20
-0.787658704435358
30
0
41
1
10
7.07687192023346
20
-0.786727748943264
30
0
41
1
10
7.01648865482116
20
-0.785121757798578
30
0
41
1
10
6.96472959743829
20
-0.783441312299686
30
0
41
1
10
6.92159686527634
20
-0.781837805306424
30
0
41
1
10
6.87846728635793
20
-0.780099228941623
30
0
41
1
10
6.80946026606023
20
-0.776960486380943
30
0
41
1
10
6.74907247967545
20
-0.773757214405236
30
0
41
1
10
6.71456516615689
20
-0.771767202632333
30
0
0
SPLINE
5
C8
100
AcDbEntity
8
1
62
256
6
ByLayer
370
18
48
1
60
0
100
AcDbSpline
70
4
71
3
72
14
73
10
40
0
40
0
40
0
40
0
40
0.178266683341167
40
0.178266683341167
40
0.452177788894112
40
0.452177788894112
40
0.726088894447056
40
0.726088894447056
40
1
40
1
40
1
40
1
41
1
10
5.2341253473798
20
1.70666258966276
30
0
41
1
10
5.23409207678699
20
1.70650749125784
30
0
41
1
10
5.23405965732758
20
1.70330980352088
30
0
41
1
10
5.233974851097
20
1.68752094815767
30
0
41
1
10
5.23392050871044
20
1.67055033249321
30
0
41
1
10
5.23379250366591
20
1.62281497483153
30
0
41
1
10
5.23371893185879
20
1.59221376071423
30
0
41
1
10
5.23353427359737
20
1.51776899810946
30
0
41
1
10
5.23342244133579
20
1.4736336596697
30
0
41
1
10
5.23328301554022
20
1.42320161958932
30
0
0
SPLINE
5
C9
100
AcDbEntity
8
1
62
256
6
ByLayer
370
18
48
1
60
0
100
AcDbSpline
70
4
71
3
72
10
73
6
40
0
40
0
40
0
40
0
40
0.5
40
0.5
40
1
40
1
40
1
40
1
41
1
10
5.23513457513883
20
-1.31589332761465
30
0
41
1
10
5.29133346474816
20
-1.31612371046569
30
0
41
1
10
5.34756997046782
20
-1.32212608087505
30
0
41
1
10
5.46011718529684
20
-1.34312022948365
30
0
41
1
10
5.51650805565768
20
-1.35818538213411
30
0
41
1
10
5.57210720537864
20
-1.37682725876073
30
0
0
SPLINE
5
CA
100
AcDbEntity
8
1
62
256
6
ByLayer
370
13
48
1
60
0
100
AcDbSpline
70
4
71
3
72
112
73
108
40
0
40
0
40
0
40
0
40
0.0010629962342403
40
0.0103879962114587
40
0.0197129961886768
40
0.0337004961545022
40
0.0383629961431119
40
0.0476879961203286
40
0.0570129960975462
40
0.0710004960633735
40
0.0756629960519832
40
0.0849879960292043
40
0.0943129960064188
40
0.108300495972244
40
0.112962995960855
40
0.122287995938072
40
0.131612995915289
40
0.145600495881116
40
0.150262995869726
40
0.159587995846945
40
0.168912995824163
40
0.18290049578999
40
0.187562995778599
40
0.196887995755815
40
0.206212995733033
40
0.22020049569886
40
0.22486299568747
40
0.234187995664689
40
0.243512995641905
40
0.257500495607733
40
0.262162995596341
40
0.27148799557356
40
0.280812995550777
40
0.294800495516605
40
0.299462995505213
40
0.308787995482431
40
0.318112995459649
40
0.332100495425476
40
0.336762995414085
40
0.346087995391303
40
0.355412995368521
40
0.369400495334348
40
0.374062995322957
40
0.383387995300174
40
0.392712995277392
40
0.40670049524322
40
0.411362995231828
40
0.420687995209046
40
0.430012995186263
40
0.44400049515209
40
0.4486629951407
40
0.457987995117918
40
0.467312995095135
40
0.481300495060962
40
0.485962995049571
40
0.495287995026789
40
0.504612995004007
40
0.518600494969834
40
0.523262994958443
40
0.53258799493566
40
0.541912994912878
40
0.555900494878706
40
0.560562994867314
40
0.569887994844532
40
0.579212994821751
40
0.593200494787577
40
0.597862994776187
40
0.607187994753404
40
0.616512994730622
40
0.630500494696449
40
0.635162994685058
40
0.644487994662276
40
0.653812994639494
40
0.66780049460532
40
0.67246299459393
40
0.681787994571148
40
0.691112994548365
40
0.705100494514192
40
0.709762994502801
40
0.719087994480019
40
0.728412994457237
40
0.742400494423064
40
0.747062994411673
40
0.756387994388891
40
0.765712994366109
40
0.779700494331936
40
0.784362994320544
40
0.793687994297762
40
0.80301299427498
40
0.817000494240806
40
0.821662994229416
40
0.830987994206633
40
0.840312994183852
40
0.85430049414968
40
0.858962994138288
40
0.868287994115504
40
0.877612994092723
40
0.890434869061398
40
0.896262994047159
40
0.902091119032922
40
0.914912994001596
40
0.933562993956031
40
0.966200493876295
40
0.970862993864902
40
0.980187993842121
40
0.989512993819339
40
1
40
1
40
1
40
1
41
1
10
17.4860918607581
20
-0.725665761943219
30
0
41
1
10
17.4841250379036
20
-0.725879782592955
30
0
41
1
10
17.4649046265513
20
-0.72796594619399
30
0
41
1
10
17.4284334654001
20
-0.731823288473663
30
0
41
1
10
17.3680501095923
20
-0.73792949920022
30
0
41
1
10
17.3162910761174
20
-0.742871665906051
30
0
41
1
10
17.2645328210626
20
-0.747576878791875
30
0
41
1
10
17.2214024460252
20
-0.751339414199151
30
0
41
1
10
17.1610192819694
20
-0.756318907806161
30
0
41
1
10
17.1092603058336
20
-0.76028879144809
30
0
41
1
10
17.057502056421
20
-0.764015345745634
30
0
41
1
10
17.0143716726849
20
-0.766957085432693
30
0
41
1
10
16.9539884827826
20
-0.770780504331356
30
0
41
1
10
16.9022294671706
20
-0.773753810005701
30
0
41
1
10
16.8504711629426
20
-0.776478174341491
30
0
41
1
10
16.8073407265845
20
-0.778580052782274
30
0
41
1
10
16.7469574589644
20
-0.781221654858967
30
0
41
1
10
16.6951983782784
20
-0.783177264273974
30
0
41
1
10
16.6434400175902
20
-0.784879098885312
30
0
41
1
10
16.6003095434331
20
-0.78612471775196
30
0
41
1
10
16.5399262434335
20
-0.787563520245897
30
0
41
1
10
16.4881671576541
20
-0.788486579667136
30
0
41
1
10
16.4364088118527
20
-0.789154876926887
30
0
41
1
10
16.3932783563574
20
-0.789537809275515
30
0
41
1
10
16.3328950813035
20
-0.789768858805218
30
0
41
1
10
16.2811360101168
20
-0.789658308267207
30
0
41
1
10
16.229377665738
20
-0.789293318218938
30
0
41
1
10
16.1862472010228
20
-0.788814405424773
30
0
41
1
10
16.1258638963535
20
-0.787839957877992
30
0
41
1
10
16.0741047854381
20
-0.786698786977041
30
0
41
1
10
16.022346393395
20
-0.785304380103781
30
0
41
1
10
15.9792158910039
20
-0.783967482306792
30
0
41
1
10
15.9188325474337
20
-0.78179402066101
30
0
41
1
10
15.8670734209254
20
-0.779628846542067
30
0
41
1
10
15.8153150321652
20
-0.777212542275265
30
0
41
1
10
15.7721845442387
20
-0.775024574589338
30
0
41
1
10
15.7118012365444
20
-0.771663169204913
30
0
41
1
10
15.6600421521576
20
-0.768485191804672
30
0
41
1
10
15.6082838084782
20
-0.765060006349955
30
0
41
1
10
15.5651533536698
20
-0.762033123171335
30
0
41
1
10
15.504770076899
20
-0.7575028000023
30
0
41
1
10
15.4530110010835
20
-0.7533300543015
30
0
41
1
10
15.4012526489272
20
-0.74891508639044
30
0
41
1
10
15.3581221774877
20
-0.745065889315669
30
0
41
1
10
15.2977388647303
20
-0.739391025725155
30
0
41
1
10
15.2459797479042
20
-0.734245501807578
30
0
41
1
10
15.1942213505741
20
-0.728863678313786
30
0
41
1
10
15.1510908444394
20
-0.724211958586125
30
0
41
1
10
15.0907074944249
20
-0.717421391775474
30
0
41
1
10
15.0389483581466
20
-0.711328899914179
30
0
41
1
10
14.9871899530684
20
-0.705006980327227
30
0
41
1
10
14.9440594434474
20
-0.699575728427533
30
0
41
1
10
14.883676087943
20
-0.691703126346624
30
0
41
1
10
14.8319169456197
20
-0.684694375044757
30
0
41
1
10
14.7801585320507
20
-0.677465087235049
30
0
41
1
10
14.7370280109183
20
-0.671283042203555
30
0
41
1
10
14.6766446299273
20
-0.662370840743762
30
0
41
1
10
14.6248854577674
20
-0.654484042293319
30
0
41
1
10
14.5731270094934
20
-0.646386678739162
30
0
41
1
10
14.5299964615318
20
-0.639487273063423
30
0
41
1
10
14.4696130547088
20
-0.629583386417863
30
0
41
1
10
14.4178538753025
20
-0.620860663449804
30
0
41
1
10
14.3660954349801
20
-0.611938268664204
30
0
41
1
10
14.3229649072245
20
-0.60435805491224
30
0
41
1
10
14.2625815545224
20
-0.593514744285159
30
0
41
1
10
14.2108224454722
20
-0.584001925535489
30
0
41
1
10
14.1590640912443
20
-0.574301242035773
30
0
41
1
10
14.115933639785
20
-0.566079847419758
30
0
41
1
10
14.0555503904314
20
-0.554353652193157
30
0
41
1
10
14.003791359152
20
-0.544100199611648
30
0
41
1
10
13.952033064998
20
-0.53367157226495
30
0
41
1
10
13.9089026478043
20
-0.524851612711984
30
0
41
1
10
13.8485194187577
20
-0.51230322650639
30
0
41
1
10
13.7967603807252
20
-0.50136212000524
30
0
41
1
10
13.7450020660234
20
-0.490259368514472
30
0
41
1
10
13.7018716300273
20
-0.480886329417615
30
0
41
1
10
13.641488380385
20
-0.467580424144501
30
0
41
1
10
13.5897293331212
20
-0.456008021811385
30
0
41
1
10
13.5379710196686
20
-0.444288333725865
30
0
41
1
10
13.4948405923167
20
-0.434410492444215
30
0
41
1
10
13.4344573633936
20
-0.420415607911167
30
0
41
1
10
13.3826983368666
20
-0.408271540327803
30
0
41
1
10
13.3309400395753
20
-0.395995341112865
30
0
41
1
10
13.2878096165446
20
-0.385663651492791
30
0
41
1
10
13.2274263736233
20
-0.371052065875119
30
0
41
1
10
13.1756673164795
20
-0.358399193354416
30
0
41
1
10
13.1239089764585
20
-0.345630198901517
30
0
41
1
10
13.080778508955
20
-0.334898405854659
30
0
41
1
10
13.020395191032
20
-0.319746324217817
30
0
41
1
10
12.9686360623156
20
-0.306650812460191
30
0
41
1
10
12.916877651772
20
-0.293455896782035
30
0
41
1
10
12.8737471318463
20
-0.282380262671097
30
0
41
1
10
12.8133637541245
20
-0.266767246448296
30
0
41
1
10
12.7616045852587
20
-0.253298007093093
30
0
41
1
10
12.7098461385014
20
-0.239746740849853
30
0
41
1
10
12.6667156059995
20
-0.22838575676758
30
0
41
1
10
12.6084885750786
20
-0.212968770764405
30
0
41
1
10
12.5567297819905
20
-0.199198875994284
30
0
41
1
10
12.5114408854398
20
-0.187101192868681
30
0
41
1
10
12.4661546579778
20
-0.174940894952272
30
0
41
1
10
12.3971481354448
20
-0.156316801962419
30
0
41
1
10
12.2785450764708
20
-0.124073023749844
30
0
41
1
10
12.1750228417452
20
-0.0958543541860308
30
0
41
1
10
12.088752506423
20
-0.0722796654390834
30
0
41
1
10
12.0456218574526
20
-0.060425103460517
30
0
41
1
10
11.9917147795293
20
-0.0455895633736532
30
0
41
1
10
11.9550589568482
20
-0.0355027990491976
30
0
41
1
10
11.9356561208672
20
-0.0301620793385666
30
0
0
SPLINE
5
CB
100
AcDbEntity
8
1
62
256
6
ByLayer
370
18
48
1
60
0
100
AcDbSpline
70
4
71
3
72
14
73
10
40
0
40
0
40
0
40
0
40
0.285695127569943
40
0.285695127569943
40
0.571390255139887
40
0.571390255139887
40
0.85708538270983
40
0.85708538270983
40
1
40
1
40
1
40
1
41
1
10
6.71456516615675
20
-0.771767202632276
30
0
41
1
10
6.75151981739617
20
-0.670553550720228
30
0
41
1
10
6.80208696338846
20
-0.565357349706062
30
0
41
1
10
6.91878737269008
20
-0.371254116513711
30
0
41
1
10
6.98481095781665
20
-0.282529507773546
30
0
41
1
10
7.11698234629481
20
-0.142190846571026
30
0
41
1
10
7.18300593142138
20
-0.0907086881561838
30
0
41
1
10
7.27054493336601
20
-0.0504122842713741
30
0
41
1
10
7.29778613885921
20
-0.0431498838575521
30
0
41
1
10
7.32235004641862
20
-0.0420929868149074
30
0
0
SPLINE
5
CC
100
AcDbEntity
8
1
62
256
6
ByLayer
370
13
48
1
60
0
100
AcDbSpline
70
4
71
3
72
40
73
36
40
0
40
0
40
0
40
0
40
0.017673562341285
40
0.017673562341285
40
0.0634673275850894
40
0.0634673275850894
40
0.155054858072697
40
0.155054858072697
40
0.246642388560304
40
0.246642388560304
40
0.292436153804108
40
0.292436153804108
40
0.338229919047913
40
0.338229919047913
40
0.429817449535522
40
0.429817449535522
40
0.521404980023131
40
0.521404980023131
40
0.567198745266934
40
0.567198745266934
40
0.612992510510738
40
0.612992510510738
40
0.704580040998343
40
0.704580040998343
40
0.750373806242146
40
0.750373806242146
40
0.796167571485949
40
0.796167571485949
40
0.887755101973552
40
0.887755101973552
40
0.933548867217353
40
0.933548867217353
40
0.979342632461155
40
0.979342632461155
40
1
40
1
40
1
40
1
41
1
10
21.6606458516302
20
-1.6767234372129
30
0
41
1
10
21.6130622026652
20
-1.67661690521271
30
0
41
1
10
21.5654332830727
20
-1.67582959724788
30
0
41
1
10
21.3942220734418
20
-1.67054634877888
30
0
41
1
10
21.2698500740274
20
-1.66199790672456
30
0
41
1
10
20.8984566165819
20
-1.62207866321458
30
0
41
1
10
20.6526899171969
20
-1.57765579581226
30
0
41
1
10
20.1613145618371
20
-1.45455060933142
30
0
41
1
10
19.9154204162859
20
-1.37668023204481
30
0
41
1
10
19.5435409064186
20
-1.23655026982681
30
0
41
1
10
19.4191183713862
20
-1.18615953119649
30
0
41
1
10
19.17200341018
20
-1.07971360561285
30
0
41
1
10
19.0488437121167
20
-1.02353237323925
30
0
41
1
10
18.6798141874561
20
-0.84707351450507
30
0
41
1
10
18.4342926041211
20
-0.719284959006927
30
0
41
1
10
17.9403587106923
20
-0.44897088412165
30
0
41
1
10
17.6913200191793
20
-0.306181363686335
30
0
41
1
10
17.3184451473539
20
-0.0898226839511267
30
0
41
1
10
17.1940672305065
20
-0.0173505648023706
30
0
41
1
10
16.9467288574683
20
0.126655237377889
30
0
41
1
10
16.8235119595
20
0.19833330448111
30
0
41
1
10
16.4541630008419
20
0.410490298273544
30
0
41
1
10
16.2085304452778
20
0.54852369610299
30
0
41
1
10
15.8378477188896
20
0.745138529420274
30
0
41
1
10
15.7136368180235
20
0.808902140228128
30
0
41
1
10
15.4649613574455
20
0.931969015578886
30
0
41
1
10
15.3412797400484
20
0.990875181954152
30
0
41
1
10
14.9709439390042
20
1.1578496194405
30
0
41
1
10
14.7252797683493
20
1.25700941585455
30
0
41
1
10
14.3554893887578
20
1.38337891205901
30
0
41
1
10
14.2319143321428
20
1.42165895341822
30
0
41
1
10
13.9840099500041
20
1.49068563765113
30
0
41
1
10
13.8593933715362
20
1.52149617727238
30
0
41
1
10
13.6795756700223
20
1.55930838950582
30
0
41
1
10
13.623751243999
20
1.57014433697131
30
0
41
1
10
13.5679876260354
20
1.58006178886694
30
0
0
SPLINE
5
CD
100
AcDbEntity
8
1
62
256
6
ByLayer
370
13
48
1
60
0
100
AcDbSpline
70
4
71
3
72
8
73
4
40
0
40
0
40
0
40
0
40
1
40
1
40
1
40
1
41
1
10
5.23328301554039
20
1.4232016195896
30
0
41
1
10
5.34302809745324
20
1.36669322705325
30
0
41
1
10
5.45690465421526
20
1.32533231391409
30
0
41
1
10
5.57328323970995
20
1.29655265601616
30
0
0
SPLINE
5
CE
100
AcDbEntity
8
1
62
256
6
ByLayer
370
18
48
1
60
0
100
AcDbSpline
70
4
71
3
72
10
73
6
40
0
40
0
40
0
40
0
40
0.5
40
0.5
40
1
40
1
40
1
40
1
41
1
10
5.57210720537842
20
-1.37682725876067
30
0
41
1
10
5.71123745960955
20
-1.4234763360819
30
0
41
1
10
5.85144675116015
20
-1.46320211567243
30
0
41
1
10
6.13364215429513
20
-1.53150093638561
30
0
41
1
10
6.27563447938775
20
-1.56002993772225
30
0
41
1
10
6.41858491012135
20
-1.58241597355789
30
0
0
SPLINE
5
CF
100
AcDbEntity
8
1
62
256
6
ByLayer
370
13
48
1
60
0
100
AcDbSpline
70
4
71
3
72
32
73
28
40
0
40
0
40
0
40
0
40
0.0316057215386519
40
0.0724279883662106
40
0.133661388607496
40
0.154072522021264
40
0.194894788848789
40
0.235717055676316
40
0.296950455917617
40
0.317361589331395
40
0.358183856158926
40
0.399006122986455
40
0.460239523227748
40
0.480650656641526
40
0.52147292346908
40
0.562295190296604
40
0.623528590537893
40
0.643939723951657
40
0.684761990779186
40
0.725584257606727
40
0.786817657848034
40
0.80722879126179
40
0.848051058089329
40
0.888873324916866
40
0.950106725158147
40
0.970517858571921
40
1
40
1
40
1
40
1
41
1.00000000000001
10
29.734916355026
20
0.789324063601235
30
0
41
1.00000000000001
10
29.7215587779073
20
0.789396431429274
30
0
41
1.00000000000001
10
29.6909480233022
20
0.789499944566919
30
0
41
1.00000000000001
10
29.63445828892
20
0.789443452181039
30
0
41
1.00000000000001
10
29.5827017336318
20
0.789083699607139
30
0
41
1.00000000000001
10
29.5309444510149
20
0.788463243768454
30
0
41
1.00000000000001
10
29.4878118943523
20
0.787774784762113
30
0
41
1.00000000000001
10
29.4274269685839
20
0.786514113042834
30
0
41
1.00000000000001
10
29.3756704510475
20
0.785125693955158
30
0
41
1.00000000000001
10
29.3239132134088
20
0.783477973409325
30
0
41
1.00000000000001
10
29.28078069141
20
0.781935815415259
30
0
41
1.00000000000001
10
29.220395799935
20
0.779482388324332
30
0
41
1.00000000000001
10
29.1686392947859
20
0.777072764288156
30
0
41
1.00000000000001
10
29.1168820528081
20
0.774406109895515
30
0
41
1.00000000000001
10
29.0737495153184
20
0.772017771511706
30
0
41
1.00000000000001
10
29.0133645854501
20
0.768383082376566
30
0
41
1.00000000000001
10
28.9616080362627
20
0.764963101171183
30
0
41
1.00000000000001
10
28.9098507487265
20
0.761289225796098
30
0
41
1.00000000000001
10
28.866718180039
20
0.75806503712203
30
0
41
1.00000000000001
10
28.8063332260789
20
0.753265146382937
30
0
41
1.00000000000001
10
28.7545766769583
20
0.748850931048189
30
0
41
1.00000000000001
10
28.7028194067789
20
0.744188714725617
30
0
41
1.00000000000001
10
28.6596868639153
20
0.740146324874068
30
0
41
1.00000000000001
10
28.5993019617028
20
0.734208767963558
30
0
41
1.00000000000001
10
28.5475454671796
20
0.728826208158345
30
0
41
1.00000000000001
10
28.5005808436616
20
0.7237232994189
30
0
41
1.00000000000001
10
28.479494234204
20
0.721371936001809
30
0
41
1.00000000000001
10
28.4670340471593
20
0.719962152044495
30
0
0
SPLINE
5
D0
100
AcDbEntity
8
1
62
256
6
ByLayer
370
13
48
1
60
0
100
AcDbSpline
70
4
71
3
72
106
73
102
40
0
40
0
40
0
40
0
40
0.0060028362638877
40
0.0152403788813934
40
0.0290966928076544
40
0.033715464116407
40
0.0429530067339141
40
0.0521905493514193
40
0.066046863277679
40
0.0706656345864334
40
0.0799031772039405
40
0.0891407198214457
40
0.102997033747706
40
0.107615805056459
40
0.116853347673965
40
0.126090890291472
40
0.139947204217732
40
0.144565975526485
40
0.153803518143992
40
0.163041060761498
40
0.176897374687758
40
0.181516145996512
40
0.190753688614018
40
0.199991231231524
40
0.213847545157784
40
0.218466316466538
40
0.227703859084044
40
0.23694140170155
40
0.25079771562781
40
0.255416486936563
40
0.26465402955407
40
0.273891572171577
40
0.287747886097836
40
0.29236665740659
40
0.301604200024096
40
0.310841742641603
40
0.324698056567862
40
0.329316827876615
40
0.338554370494123
40
0.347791913111629
40
0.361648227037888
40
0.366266998346642
40
0.375504540964148
40
0.384742083581656
40
0.398598397507915
40
0.403217168816668
40
0.412454711434174
40
0.42169225405168
40
0.435548567977939
40
0.440167339286694
40
0.4494048819042
40
0.458642424521707
40
0.472498738447968
40
0.47711750975672
40
0.486355052374224
40
0.495592594991732
40
0.508294216090804
40
0.514067680226746
40
0.519841144362689
40
0.53254276546176
40
0.551017850696772
40
0.583349249858046
40
0.587968021166798
40
0.597205563784305
40
0.606443106401812
40
0.620299420328071
40
0.624918191636824
40
0.63415573425433
40
0.643393276871837
40
0.656094897970908
40
0.66186836210685
40
0.667641826242792
40
0.680343447341863
40
0.698818532576876
40
0.731149931738149
40
0.735768703046902
40
0.745006245664409
40
0.754243788281916
40
0.768100102208175
40
0.772718873516928
40
0.781956416134435
40
0.791193958751941
40
0.803895579851013
40
0.809669043986955
40
0.815442508122897
40
0.828144129221968
40
0.84661921445698
40
0.878950613618253
40
0.883569384927007
40
0.892806927544513
40
0.90204447016202
40
0.915900784088279
40
0.920519555397033
40
0.929757098014539
40
0.938994640632045
40
0.951696261731117
40
0.957469725867059
40
0.963243190003
40
0.975944811102072
40
0.994419896337084
40
1
40
1
40
1
40
1
41
1.00000000000001
10
16.0644150093563
20
0.0313431547523632
30
0
41
1.00000000000001
10
16.0532035886376
20
0.0344299410903371
30
0
41
1.00000000000001
10
16.0247390860129
20
0.0422616695547045
30
0
41
1.00000000000001
10
15.9703955873874
20
0.0572003755585791
30
0
41
1.00000000000001
10
15.9186390782887
20
0.0714263272016346
30
0
41
1.00000000000001
10
15.86688185022
20
0.0856301070758426
30
0
41
1.00000000000001
10
15.8237493362672
20
0.0974316400937871
30
0
41
1.00000000000001
10
15.7633644576993
20
0.113914499846571
30
0
41
1.00000000000001
10
15.7116079680539
20
0.128018705394224
30
0
41
1.00000000000001
10
15.6598507477372
20
0.142082484178415
30
0
41
1.00000000000001
10
15.6167182372722
20
0.153755484804775
30
0
41
1.00000000000001
10
15.5563333641914
20
0.170037461245071
30
0
41
1.00000000000001
10
15.5045768805867
20
0.183947356511679
30
0
41
1.00000000000001
10
15.4528196687578
20
0.19779795940286
30
0
41
1.00000000000001
10
15.4096871698016
20
0.209281084112659
30
0
41
1.00000000000001
10
15.3493023222015
20
0.225275822358012
30
0
41
1.00000000000001
10
15.2975458684251
20
0.238917155634224
30
0
41
1.00000000000001
10
15.2457886912897
20
0.25248070664301
30
0
41
1.00000000000001
10
15.2026562191538
20
0.263712839072494
30
0
41
1.00000000000001
10
15.1422713973774
20
0.279335451747014
30
0
41
1.00000000000001
10
15.0905149508435
20
0.29263607104667
30
0
41
1.00000000000001
10
15.0387577657537
20
0.305841007437746
30
0
41
1.00000000000001
10
14.9956252734119
20
0.316762990979495
30
0
41
1.00000000000001
10
14.9352403975206
20
0.331931382951606
30
0
41
1.00000000000001
10
14.8834838806416
20
0.344821581744835
30
0
41
1.00000000000001
10
14.8317266094734
20
0.357598832553119
30
0
41
1.00000000000001
10
14.7885940408485
20
0.368153613392362
30
0
41
1.00000000000001
10
14.7282090616239
20
0.382788678032053
30
0
41
1.00000000000001
10
14.6764524669852
20
0.395201362839653
30
0
41
1.00000000000001
10
14.6246951357535
20
0.407484518653884
30
0
41
1.00000000000001
10
14.5815625328701
20
0.417617299620555
30
0
41
1.00000000000001
10
14.5211775333437
20
0.431643159791828
30
0
41
1.00000000000001
10
14.4694209454564
20
0.44351407322048
30
0
41
1.00000000000001
10
14.417663634764
20
0.45523961033967
30
0
41
1.00000000000001
10
14.3745310506759
20
0.464898031623217
30
0
41
1.00000000000001
10
14.3141460717379
20
0.478242281703354
30
0
41
1.00000000000001
10
14.2623894930776
20
0.489510202855878
30
0
41
1.00000000000001
10
14.2106321811326
20
0.500617682928488
30
0
41
1.00000000000001
10
14.1674995883974
20
0.509751975138665
30
0
41
1.00000000000001
10
14.1071145887372
20
0.522345865117325
30
0
41
1.00000000000001
10
14.0553579893389
20
0.532952745639557
30
0
41
1.00000000000001
10
14.0036006612337
20
0.543384942445352
30
0
41
1.00000000000001
10
13.960468064177
20
0.55194803932954
30
0
41
1.00000000000001
10
13.9000830785108
20
0.563726613913383
30
0
41
1.00000000000001
10
13.8483265097242
20
0.573617628003456
30
0
41
1.00000000000001
10
13.7965692243448
20
0.583320463134663
30
0
41
1.00000000000001
10
13.7534366717581
20
0.591267867045724
30
0
41
1.00000000000001
10
13.6930517610886
20
0.602169735360314
30
0
41
1.00000000000001
10
13.6412952638676
20
0.611293149799161
30
0
41
1.00000000000001
10
13.589538049
20
0.620215751542525
30
0
41
1.00000000000001
10
13.5464055488261
20
0.627505724264148
30
0
41
1.00000000000001
10
13.4860206979448
20
0.63747349447521
30
0
41
1.00000000000001
10
13.4342642408668
20
0.645781121055756
30
0
41
1.00000000000001
10
13.3825070622073
20
0.653876219114687
30
0
41
1.00000000000001
10
13.3393745746157
20
0.660470051847164
30
0
41
1.00000000000001
10
13.2811465278037
20
0.669133057277855
30
0
41
1.00000000000001
10
13.2293896951644
20
0.67659118626721
30
0
41
1.00000000000001
10
13.1841024191815
20
0.682929368413476
30
0
41
1.00000000000001
10
13.1388124760206
20
0.689115837183344
30
0
41
1.00000000000001
10
13.0697981679285
20
0.698226047594823
30
0
41
1.00000000000001
10
12.9511779257346
20
0.712970261426612
30
0
41
1.00000000000001
10
12.8476689057933
20
0.724720204818674
30
0
41
1.00000000000001
10
12.7614131943848
20
0.733747320018089
30
0
41
1.00000000000001
10
12.718280823227
20
0.73805941785448
30
0
41
1.00000000000001
10
12.6578960205249
20
0.743816906298228
30
0
41
1.00000000000001
10
12.6061395311175
20
0.748469007898841
30
0
41
1.00000000000001
10
12.5543822969315
20
0.752874256718421
30
0
41
1.00000000000001
10
12.5112497672546
20
0.756375807227151
30
0
41
1.00000000000001
10
12.453021680966
20
0.760829504691138
30
0
41
1.00000000000001
10
12.40126482853
20
0.764507716603439
30
0
41
1.00000000000001
10
12.3559775452137
20
0.767511512633539
30
0
41
1.00000000000001
10
12.3106875985657
20
0.770353073668836
30
0
41
1.00000000000001
10
12.2416732891219
20
0.774334764320478
30
0
41
1.00000000000001
10
12.1230530530935
20
0.780177174012571
30
0
41
1.00000000000001
10
12.0195440424957
20
0.784005997833496
30
0
41
1.00000000000001
10
11.9332883327187
20
0.786362816077051
30
0
41
1.00000000000001
10
11.8901559599444
20
0.78734030584254
30
0
41
1.00000000000001
10
11.8297711497321
20
0.788411816095752
30
0
41
1.00000000000001
10
11.7780146489893
20
0.789024627340943
30
0
41
1.00000000000001
10
11.7262574000583
20
0.789377069766736
30
0
41
1.00000000000001
10
11.683124857701
20
0.789498132222767
30
0
41
1.00000000000001
10
11.6248967560272
20
0.789376448026182
30
0
41
1.00000000000001
10
11.5731398923831
20
0.788972924031632
30
0
41
1.00000000000001
10
11.5278526020268
20
0.788396228059575
30
0
41
1.00000000000001
10
11.4825626496059
20
0.78766033413887
30
0
41
1.00000000000001
10
11.4135483322934
20
0.786188240648662
30
0
41
1.00000000000001
10
11.2949280830912
20
0.782653159934874
30
0
41
1.00000000000001
10
11.1914190559337
20
0.778250966970937
30
0
41
1.00000000000001
10
11.1051633234089
20
0.773747769052498
30
0
41
1.00000000000001
10
11.0620309367613
20
0.771312322445616
30
0
41
1.00000000000001
10
11.0016461033283
20
0.767612518058648
30
0
41
1.00000000000001
10
10.9498895804975
20
0.764137851304632
30
0
41
1.00000000000001
10
10.8981323096888
20
0.760410510308723
30
0
41
1.00000000000001
10
10.8549997515138
20
0.757142668289439
30
0
41
1.00000000000001
10
10.7967716348665
20
0.752457373145738
30
0
41
1.00000000000001
10
10.7450147645751
20
0.748006469690857
30
0
41
1.00000000000001
10
10.6997274735899
20
0.743897384826646
30
0
41
1.00000000000001
10
10.6544375229874
20
0.739645010649745
30
0
41
1.00000000000001
10
10.585423211654
20
0.732840362478122
30
0
41
1.00000000000001
10
10.5167689611147
20
0.725534584037625
30
0
41
1.00000000000001
10
10.4718416542967
20
0.720495041526384
30
0
41
1.00000000000001
10
10.4614199613795
20
0.719312096513697
30
0
0
SPLINE
5
D1
100
AcDbEntity
8
1
62
256
6
ByLayer
370
18
48
1
60
0
100
AcDbSpline
70
4
71
3
72
8
73
4
40
0
40
0
40
0
40
0
40
1
40
1
40
1
40
1
41
1
10
29.7099101590488
20
-0.353632534360372
30
0
41
1
10
29.7100319611855
20
-0.353670844791964
30
0
41
1
10
29.7101538373221
20
-0.353708907869674
30
0
41
1
10
29.7102757872875
20
-0.353746723330857
30
0
0
SPLINE
5
D2
100
AcDbEntity
8
1
62
256
6
ByLayer
370
18
48
1
60
0
100
AcDbSpline
70
4
71
3
72
14
73
10
40
0
40
0
40
0
40
0
40
0.25
40
0.25
40
0.5
40
0.5
40
0.75
40
0.75
40
1
40
1
40
1
40
1
41
1
10
29.7102757872822
20
-0.353746723330687
30
0
41
1
10
29.728319849282
20
-0.354331081141964
30
0
41
1
10
29.7487155055869
20
-0.344554629431798
30
0
41
1
10
29.7949452328565
20
-0.304098945584258
30
0
41
1
10
29.819504895557
20
-0.27454295517461
30
0
41
1
10
29.87157199143
20
-0.198039547423093
30
0
41
1
10
29.8977833511591
20
-0.152995732378059
30
0
41
1
10
29.9503802355361
20
-0.0506882654023855
30
0
41
1
10
29.9755981564798
20
0.0043216099772962
30
0
41
1
10
29.9996744459961
20
0.0628326607587155
30
0
0
SPLINE
5
D3
100
AcDbEntity
8
1
62
256
6
ByLayer
370
18
48
1
60
0
100
AcDbSpline
70
4
71
3
72
8
73
4
40
0
40
0
40
0
40
0
40
1
40
1
40
1
40
1
41
1
10
29.9996744459997
20
-0.0628326607493079
30
0
41
1
10
29.9656714773921
20
-0.150702350237538
30
0
41
1
10
29.932659191667
20
-0.239306735567709
30
0
41
1
10
29.9005318753071
20
-0.328640738660766
30
0
0
SPLINE
5
D4
100
AcDbEntity
8
1
62
256
6
ByLayer
370
13
48
1
60
0
100
AcDbSpline
70
4
71
3
72
14
73
10
40
0
40
0
40
0
40
0
40
0.199083045392443
40
0.199083045392443
40
0.466055363594963
40
0.466055363594963
40
0.733027681797481
40
0.733027681797481
40
1
40
1
40
1
40
1
41
1
10
5.57253798127491
20
-1.64793076134993
30
0
41
1
10
5.57251837699192
20
-1.64796708642035
30
0
41
1
10
5.57249928705426
20
-1.6442731596502
30
0
41
1
10
5.57245204508121
20
-1.6271420868062
30
0
41
1
10
5.57242286103858
20
-1.61084630511911
30
0
41
1
10
5.57235343994699
20
-1.56507382194022
30
0
41
1
10
5.57231300127461
20
-1.53541772703579
30
0
41
1
10
5.57221986173792
20
-1.46483728784497
30
0
41
1
10
5.57216690010199
20
-1.42374605746232
30
0
41
1
10
5.57210720537864
20
-1.37682725876076
30
0
0
SPLINE
5
D5
100
AcDbEntity
8
1
62
256
6
ByLayer
370
18
48
1
60
0
100
AcDbSpline
70
4
71
3
72
12
73
8
40
0
40
0
40
0
40
0
40
0.5
40
0.5
40
0.75
40
0.75
40
1
40
1
40
1
40
1
41
1
10
29.361731432222
20
-1.73066389009466
30
0
41
1
10
29.4232851107753
20
-1.58658301402227
30
0
41
1
10
29.4863948879623
20
-1.43667392122342
30
0
41
1
10
29.5811248971805
20
-1.20096473070788
30
0
41
1
10
29.6128234173807
20
-1.12021547713911
30
0
41
1
10
29.6751153561489
20
-0.956121946883655
30
0
41
1
10
29.7055266818441
20
-0.873211703680795
30
0
41
1
10
29.7349163565067
20
-0.789324063593199
30
0
0
SPLINE
5
D6
100
AcDbEntity
8
1
62
256
6
ByLayer
370
18
48
1
60
0
100
AcDbSpline
70
4
71
3
72
8
73
4
40
0
40
0
40
0
40
0
40
1
40
1
40
1
40
1
41
1
10
29.3617314322166
20
-1.73066389010717
30
0
41
1
10
29.3468271782198
20
-1.71430170260169
30
0
41
1
10
29.3351164756575
20
-1.68786208649132
30
0
41
1
10
29.3259765185036
20
-1.65111931209151
30
0
0
SPLINE
5
D7
100
AcDbEntity
8
1
62
256
6
ByLayer
370
18
48
1
60
0
100
AcDbSpline
70
4
71
3
72
20
73
16
40
0
40
0
40
0
40
0
40
0.16643089995557
40
0.16643089995557
40
0.33286179991114
40
0.33286179991114
40
0.49929269986671
40
0.49929269986671
40
0.66572359982228
40
0.66572359982228
40
0.83215449977785
40
0.83215449977785
40
0.99858539973342
40
0.99858539973342
40
1
40
1
40
1
40
1
41
1
10
7.70436550261769
20
-0.252664989632365
30
0
41
1
10
7.93099806732587
20
-0.386901533987583
30
0
41
1
10
8.15678579982412
20
-0.517627819972574
30
0
41
1
10
8.60897108077108
20
-0.768439722945516
30
0
41
1
10
8.83577780911531
20
-0.888179768793606
30
0
41
1
10
9.2876704688278
20
-1.108186220481
30
0
41
1
10
9.51414562429241
20
-1.20925984263977
30
0
41
1
10
9.96657874444378
20
-1.38668917949525
30
0
41
1
10
10.1920316597161
20
-1.46308971215566
30
0
41
1
10
10.6446982049434
20
-1.58799418638975
30
0
41
1
10
10.8707366542903
20
-1.63598784319598
30
0
41
1
10
11.3224323567072
20
-1.70084854077726
30
0
41
1
10
11.5490447750048
20
-1.7177177919408
30
0
41
1
10
11.776868819288
20
-1.71843693515973
30
0
41
1
10
11.7787889112251
20
-1.71844183261351
30
0
41
1
10
11.7807089965522
20
-1.71844556682538
30
0
0
SPLINE
5
D8
100
AcDbEntity
8
1
62
256
6
ByLayer
370
18
48
1
60
0
100
AcDbSpline
70
4
71
3
72
46
73
42
40
0
40
0
40
0
40
0
40
0.0084268352281916
40
0.0084268352281916
40
0.0704001580264305
40
0.0704001580264305
40
0.101386819425549
40
0.101386819425549
40
0.132373480824668
40
0.132373480824668
40
0.194346803622905
40
0.194346803622905
40
0.256320126421142
40
0.256320126421142
40
0.318293449219379
40
0.318293449219379
40
0.380266772017616
40
0.380266772017616
40
0.442240094815854
40
0.442240094815854
40
0.473226756214973
40
0.473226756214973
40
0.504213417614091
40
0.504213417614091
40
0.566186740412328
40
0.566186740412328
40
0.628160063210566
40
0.628160063210566
40
0.690133386008802
40
0.690133386008802
40
0.721120047407921
40
0.721120047407921
40
0.75210670880704
40
0.75210670880704
40
0.81408003160528
40
0.81408003160528
40
0.87605335440352
40
0.87605335440352
40
0.93802667720176
40
0.93802667720176
40
1
40
1
40
1
40
1
41
1
10
18.4567543819267
20
1.18998741349617
30
0
41
1
10
18.4873944828651
20
1.20347351999189
30
0
41
1
10
18.5180313184492
20
1.21676171123022
30
0
41
1
10
18.7739630995377
20
1.32608017326635
30
0
41
1
10
19.0003042958772
20
1.41085060978068
30
0
41
1
10
19.3382926124794
20
1.51707611101662
30
0
41
1
10
19.4507587765694
20
1.5491560568934
30
0
41
1
10
19.676410433238
20
1.60579739865915
30
0
41
1
10
19.7894991634177
20
1.63058812630632
30
0
41
1
10
20.1279510517513
20
1.69321009529852
30
0
41
1
10
20.3527913298423
20
1.71950278164812
30
0
41
1
10
20.8040394310997
20
1.74002501269874
30
0
41
1
10
21.0295792176029
20
1.73410822286229
30
0
41
1
10
21.479981534242
20
1.69042861297032
30
0
41
1
10
21.7060244184721
20
1.65245916106196
30
0
41
1
10
22.1564650707713
20
1.54702238656864
30
0
41
1
10
22.381711798295
20
1.47931940588674
30
0
41
1
10
22.8329204503668
20
1.31752394092265
30
0
41
1
10
23.05758536547
20
1.22395252561583
30
0
41
1
10
23.395568248683
20
1.06729454997915
30
0
41
1
10
23.5085682472595
20
1.01233821150572
30
0
41
1
10
23.7339120340929
20
0.898301532520321
30
0
41
1
10
23.8463605039431
20
0.839083725872882
30
0
41
1
10
24.1838698924565
20
0.656040440909351
30
0
41
1
10
24.4096860368519
20
0.526160060894625
30
0
41
1
10
24.8599323915561
20
0.259979299935424
30
0
41
1
10
25.0846569165822
20
0.123251690219064
30
0
41
1
10
25.5358389977158
20
-0.151161676171682
30
0
41
1
10
25.7603737240694
20
-0.287579507051362
30
0
41
1
10
26.0979380023753
20
-0.487193944028831
30
0
41
1
10
26.210837635424
20
-0.552907078809
30
0
41
1
10
26.4361030559641
20
-0.681319320980492
30
0
41
1
10
26.5484266660241
20
-0.744129437420241
30
0
41
1
10
26.8858509268687
20
-0.926344275961441
30
0
41
1
10
27.1112518401276
20
-1.04121717937443
30
0
41
1
10
27.5612109761098
20
-1.24885653623872
30
0
41
1
10
27.785832458241
20
-1.3415925504255
30
0
41
1
10
28.2364009308201
20
-1.50235628571832
30
0
41
1
10
28.4612935134624
20
-1.56904097524404
30
0
41
1
10
28.9116689599845
20
-1.67299166981499
30
0
41
1
10
29.1367026912415
20
-1.70985311058769
30
0
41
1
10
29.3617314322166
20
-1.73066389010717
30
0
0
SPLINE
5
D9
100
AcDbEntity
8
1
62
256
6
ByLayer
370
18
48
1
60
0
100
AcDbSpline
70
4
71
3
72
10
73
6
40
0
40
0
40
0
40
0
40
0.5
40
0.5
40
1
40
1
40
1
40
1
41
1
10
29.6862120189219
20
0.54934288641428
30
0
41
1
10
29.7096653002438
20
0.567445275390639
30
0
41
1
10
29.7306177338494
20
0.588694488378223
30
0
41
1
10
29.7604517802656
20
0.63983864038363
30
0
41
1
10
29.7682433226823
20
0.669807453813263
30
0
41
1
10
29.7677435134546
20
0.699420357656095
30
0
0
SPLINE
5
DA
100
AcDbEntity
8
1
62
256
6
ByLayer
370
18
48
1
60
0
100
AcDbSpline
70
4
71
3
72
10
73
6
40
0
40
0
40
0
40
0
40
0.5
40
0.5
40
1
40
1
40
1
40
1
41
1
10
29.3170553978675
20
-1.64152750688558
30
0
41
1
10
29.316494404647
20
-1.60991186755174
30
0
41
1
10
29.3122765002305
20
-1.58282139488898
30
0
41
1
10
29.2996530662913
20
-1.53538158634922
30
0
41
1
10
29.2913899603931
20
-1.51533780145263
30
0
41
1
10
29.2817642352846
20
-1.49786098352305
30
0
0
SPLINE
5
DB
100
AcDbEntity
8
1
62
256
6
ByLayer
370
18
48
1
60
0
100
AcDbSpline
70
4
71
3
72
16
73
12
40
0
40
0
40
0
40
0
40
0.229915301542924
40
0.229915301542924
40
0.459830603085849
40
0.459830603085849
40
0.689745904628773
40
0.689745904628773
40
0.919661206171698
40
0.919661206171698
40
1
40
1
40
1
40
1
41
1
10
5.23513457513883
20
-1.31589332761416
30
0
41
1
10
5.23503484143689
20
-1.37345148892942
30
0
41
1
10
5.23493534042805
20
-1.42524067874703
30
0
41
1
10
5.2347457328415
20
-1.51716697197512
30
0
41
1
10
5.23465538295824
20
-1.55734447321464
30
0
41
1
10
5.23449371300919
20
-1.62306142955876
30
0
41
1
10
5.23442150575659
20
-1.64905315615471
30
0
41
1
10
5.23429145719399
20
-1.68728992387255
30
0
41
1
10
5.23423327159526
20
-1.69949716909562
30
0
41
1
10
5.23416128016302
20
-1.70595436606064
30
0
41
1
10
5.23414317223686
20
-1.70674692584123
30
0
41
1
10
5.23412530945939
20
-1.70666241156835
30
0
0
SPLINE
5
DC
100
AcDbEntity
8
1
62
256
6
ByLayer
370
13
48
1
60
0
100
AcDbSpline
70
4
71
3
72
30
73
26
40
0
40
0
40
0
40
0
40
0.104930904780391
40
0.104930904780391
40
0.209861809560782
40
0.209861809560782
40
0.314792714341174
40
0.314792714341174
40
0.367258166731369
40
0.367258166731369
40
0.419723619121565
40
0.419723619121565
40
0.524654523901954
40
0.524654523901954
40
0.629585428682343
40
0.629585428682343
40
0.682050881072537
40
0.682050881072537
40
0.734516333462732
40
0.734516333462732
40
0.839447238243121
40
0.839447238243121
40
0.94437814302351
40
0.94437814302351
40
1
40
1
40
1
40
1
41
1
10
29.281764235288
20
-1.49786098352928
30
0
41
1
10
29.0342014476113
20
-1.42978793837594
30
0
41
1
10
28.7878217581202
20
-1.34548971617053
30
0
41
1
10
28.2942251303434
20
-1.14867816395602
30
0
41
1
10
28.0456828327017
20
-1.03544149999618
30
0
41
1
10
27.5528825857734
20
-0.790898862238691
30
0
41
1
10
27.3080002682547
20
-0.659220601789059
30
0
41
1
10
26.9396351460402
20
-0.452893485621445
30
0
41
1
10
26.8166749088281
20
-0.382655955789687
30
0
41
1
10
26.5699983352459
20
-0.239905725991434
30
0
41
1
10
26.4458826092814
20
-0.167180263580718
30
0
41
1
10
26.0744641161595
20
0.0510469273531555
30
0
41
1
10
25.8291066737521
20
0.196435415183146
30
0
41
1
10
25.338212899379
20
0.479000359982962
30
0
41
1
10
25.0926467535656
20
0.616208377611997
30
0
41
1
10
24.721435279793
20
0.811364044758079
30
0
41
1
10
24.5970865744633
20
0.874631473907641
30
0
41
1
10
24.3501396010194
20
0.995068497049033
30
0
41
1
10
24.2271795398443
20
1.05245568788087
30
0
41
1
10
23.8584181285691
20
1.21455588131926
30
0
41
1
10
23.6134329112828
20
1.31068583528079
30
0
41
1
10
23.1204160021399
20
1.47163991218508
30
0
41
1
10
22.8714423143144
20
1.53778842301458
30
0
41
1
10
22.4942939687335
20
1.60965980777024
30
0
41
1
10
22.3640112649272
20
1.62970788342742
30
0
41
1
10
22.2337976686277
20
1.64463529441281
30
0
0
SPLINE
5
DD
100
AcDbEntity
8
1
62
256
6
ByLayer
370
13
48
1
60
0
100
AcDbSpline
70
4
71
3
72
30
73
26
40
0
40
0
40
0
40
0
40
0.0574812509353283
40
0.0574812509353283
40
0.109843403661144
40
0.109843403661144
40
0.16220555638696
40
0.16220555638696
40
0.266929861838592
40
0.266929861838592
40
0.319292014564408
40
0.319292014564408
40
0.371654167290224
40
0.371654167290224
40
0.476378472741854
40
0.476378472741854
40
0.52874062546767
40
0.52874062546767
40
0.581102778193486
40
0.581102778193486
40
0.790551389096743
40
0.790551389096743
40
0.895275694548371
40
0.895275694548371
40
1
40
1
40
1
40
1
41
1
10
12.6616026147467
20
-1.66010117187543
30
0
41
1
10
12.5260805154946
20
-1.65971507100292
30
0
41
1
10
12.3902066403289
20
-1.65373710480014
30
0
41
1
10
12.1294853325911
20
-1.63157454473438
30
0
41
1
10
12.0049793659903
20
-1.61631001279352
30
0
41
1
10
11.7574406858093
20
-1.57713560704826
30
0
41
1
10
11.6341068557475
20
-1.55315246922478
30
0
41
1
10
11.264538184835
20
-1.46842325581216
30
0
41
1
10
11.018297180909
20
-1.39538671961907
30
0
41
1
10
10.6470890266315
20
-1.26266813431553
30
0
41
1
10
10.5225055631986
20
-1.21457730835255
30
0
41
1
10
10.2736558891831
20
-1.11199486264419
30
0
41
1
10
10.1498339252447
20
-1.05760933685249
30
0
41
1
10
9.77932742497418
20
-0.886289117268888
30
0
41
1
10
9.53310772025225
20
-0.762006437664638
30
0
41
1
10
9.16291912915082
20
-0.563713208784549
30
0
41
1
10
9.03920918313236
20
-0.495869235587321
30
0
41
1
10
8.79078327568197
20
-0.357408858991533
30
0
41
1
10
8.66590607436299
20
-0.286502699794454
30
0
41
1
10
8.04573845895277
20
0.0690643861437081
30
0
41
1
10
7.55631962094634
20
0.357729059607777
30
0
41
1
10
6.80897352927354
20
0.756310326339246
30
0
41
1
10
6.56117364345565
20
0.880882151596296
30
0
41
1
10
6.0676991582568
20
1.1071760417685
30
0
41
1
10
5.82127066047741
20
1.20876001509311
30
0
41
1
10
5.57328323970998
20
1.29655265601616
30
0
0
SPLINE
5
DE
100
AcDbEntity
8
1
62
256
6
ByLayer
370
18
48
1
60
0
100
AcDbSpline
70
4
71
3
72
32
73
28
40
0
40
0
40
0
40
0
40
0.0500150050133518
40
0.0500150050133518
40
0.100030010026704
40
0.100030010026704
40
0.200060020053405
40
0.200060020053405
40
0.300090030080107
40
0.300090030080107
40
0.350105035093457
40
0.350105035093457
40
0.400120040106808
40
0.400120040106808
40
0.50015005013351
40
0.50015005013351
40
0.55016505514686
40
0.55016505514686
40
0.600180060160211
40
0.600180060160211
40
0.800240080213616
40
0.800240080213616
40
0.850255085226968
40
0.850255085226968
40
0.90027009024032
40
0.90027009024032
40
1
40
1
40
1
40
1
41
1
10
5.47677558542151
20
1.25120338635264
30
0
41
1
10
5.60244773578168
20
1.20036048650985
30
0
41
1
10
5.72791407860535
20
1.14595308937265
30
0
41
1
10
5.97906155176025
20
1.03079446610761
30
0
41
1
10
6.10483756700302
20
0.970046507334104
30
0
41
1
10
6.47963084401437
20
0.781088371850529
30
0
41
1
10
6.72740083322049
20
0.645782355690784
30
0
41
1
10
7.22291416242416
20
0.363223116194064
30
0
41
1
10
7.47084434944159
20
0.216279926017364
30
0
41
1
10
7.84597923904963
20
-0.0078482599153347
30
0
41
1
10
7.97180807049122
20
-0.0833132913000441
30
0
41
1
10
8.22161761192228
20
-0.232048954199541
30
0
41
1
10
8.34598449297252
20
-0.305653695372655
30
0
41
1
10
8.71824006623166
20
-0.522954205839
30
0
41
1
10
8.96543695954566
20
-0.662889266972286
30
0
41
1
10
9.33771399452172
20
-0.860664285903937
30
0
41
1
10
9.46209516120248
20
-0.924501092637058
30
0
41
1
10
9.71201244774119
20
-1.04707980271067
30
0
41
1
10
9.83787433971293
20
-1.10599401369441
30
0
41
1
10
10.4623355629271
20
-1.38214319480983
30
0
41
1
10
10.9531591087269
20
-1.54606358215196
30
0
41
1
10
11.5769027889498
20
-1.66031805031139
30
0
41
1
10
11.7026538861329
20
-1.67862661563169
30
0
41
1
10
11.9525944488776
20
-1.70531665079011
30
0
41
1
10
12.0769837912507
20
-1.71377921683339
30
0
41
1
10
12.4482939142224
20
-1.72463908410546
30
0
41
1
10
12.6945639012822
20
-1.71266567318466
30
0
41
1
10
12.9414870235418
20
-1.68173508948479
30
0
0
SPLINE
5
DF
100
AcDbEntity
8
1
62
256
6
ByLayer
370
18
48
1
60
0
100
AcDbSpline
70
4
71
3
72
32
73
28
40
0
40
0
40
0
40
0
40
0.0691630222814406
40
0.0691630222814406
40
0.162246720053295
40
0.162246720053295
40
0.255330417825148
40
0.255330417825148
40
0.441497813368858
40
0.441497813368858
40
0.534581511140714
40
0.534581511140714
40
0.627665208912569
40
0.627665208912569
40
0.674207057798496
40
0.674207057798496
40
0.720748906684423
40
0.720748906684423
40
0.813832604456281
40
0.813832604456281
40
0.906916302228139
40
0.906916302228139
40
0.953458151114069
40
0.953458151114069
40
0.976729075557035
40
0.976729075557035
40
1
40
1
40
1
40
1
41
1
10
21.3302988865412
20
1.73563171753622
30
0
41
1
10
21.5152789763295
20
1.73605007348269
30
0
41
1
10
21.6989964681887
20
1.72560824160325
30
0
41
1
10
22.1294120492625
20
1.67662132417607
30
0
41
1
10
22.3756226943434
20
1.6295022469273
30
0
41
1
10
22.8715882158144
20
1.49934094957038
30
0
41
1
10
23.1225224204512
20
1.41526689180858
30
0
41
1
10
23.8666602245506
20
1.12151026214855
30
0
41
1
10
24.3556897861199
20
0.868958138005382
30
0
41
1
10
25.1052123505314
20
0.43982520888224
30
0
41
1
10
25.3530988808781
20
0.29124278195016
30
0
41
1
10
25.8463099357776
20
-0.0082800871290658
30
0
41
1
10
26.0922084486554
20
-0.159314416815334
30
0
41
1
10
26.4633772790597
20
-0.382123607131689
30
0
41
1
10
26.5874786827871
20
-0.455783649075812
30
0
41
1
10
26.8370511309446
20
-0.600860271271472
30
0
41
1
10
26.9618086431071
20
-0.671866552815629
30
0
41
1
10
27.333680197495
20
-0.877466950689183
30
0
41
1
10
27.5797858771414
20
-1.00519417989508
30
0
41
1
10
28.0726236355215
20
-1.23637490837186
30
0
41
1
10
28.3192409620869
20
-1.33994279519348
30
0
41
1
10
28.6932734002804
20
-1.47221699604267
30
0
41
1
10
28.8182689236424
20
-1.51233076561005
30
0
41
1
10
29.0052562092919
20
-1.56580580076766
30
0
41
1
10
29.0675634585504
20
-1.58254036184195
30
0
41
1
10
29.1921888602594
20
-1.61377830501579
30
0
41
1
10
29.2542504071723
20
-1.62842217206458
30
0
41
1
10
29.3170553978675
20
-1.64152750688564
30
0
0
SPLINE
5
E0
100
AcDbEntity
8
1
62
256
6
ByLayer
370
13
48
1
60
0
100
AcDbSpline
70
4
71
3
72
113
73
109
40
0
40
0
40
0
40
0
40
0.0095254807522434
40
0.0141644895167718
40
0.0234425070458263
40
0.0327205245748822
40
0.0466375508684673
40
0.0512765596329939
40
0.0605545771620489
40
0.0698325946911052
40
0.0837496209846885
40
0.0883886297492164
40
0.0976666472782736
40
0.10694466480733
40
0.120861691100912
40
0.125500699865439
40
0.134778717394494
40
0.14405673492355
40
0.157973761217133
40
0.162612769981661
40
0.171890787510715
40
0.181168805039772
40
0.195085831333356
40
0.199724840097884
40
0.209002857626938
40
0.218280875155996
40
0.232197901449576
40
0.236836910214106
40
0.246114927743162
40
0.255392945272218
40
0.269309971565802
40
0.273948980330328
40
0.283226997859384
40
0.292505015388439
40
0.306422041682023
40
0.311061050446551
40
0.320339067975607
40
0.329617085504663
40
0.343534111798246
40
0.348173120562773
40
0.357451138091828
40
0.366729155620883
40
0.380646181914468
40
0.385285190678996
40
0.394563208208051
40
0.403841225737107
40
0.417758252030691
40
0.422397260795218
40
0.431675278324274
40
0.440953295853329
40
0.454870322146913
40
0.45950933091144
40
0.468787348440497
40
0.478065365969552
40
0.491982392263136
40
0.496621401027663
40
0.505899418556718
40
0.515177436085774
40
0.529094462379358
40
0.533733471143885
40
0.543011488672941
40
0.552289506201996
40
0.56620653249558
40
0.570845541260108
40
0.580123558789163
40
0.589401576318219
40
0.603318602611802
40
0.60795761137633
40
0.617235628905386
40
0.626513646434442
40
0.640430672728025
40
0.645069681492552
40
0.654347699021608
40
0.663625716550664
40
0.677542742844247
40
0.682181751608775
40
0.691459769137831
40
0.700737786666886
40
0.71465481296047
40
0.719293821724998
40
0.728571839254053
40
0.737849856783109
40
0.751766883076692
40
0.75640589184122
40
0.765683909370275
40
0.774961926899331
40
0.788878953192915
40
0.793517961957442
40
0.802795979486496
40
0.812073997015554
40
0.825991023309137
40
0.830630032073665
40
0.839908049602719
40
0.849186067131775
40
0.861943341234226
40
0.867742102189887
40
0.873540863145548
40
0.886298137247997
40
0.904854172306108
40
0.937327233657803
40
0.941966242422332
40
0.951244259951389
40
0.960522277480441
40
0.974439303774029
40
0.979078312538554
40
0.98835633006761
40
0.997634347596664
40
1
40
1
40
1
40
1
41
1.00000000000001
10
25.0638995287731
20
0.0314951638076192
30
0
41
1.00000000000001
10
25.0461869937642
20
0.0363739158318875
30
0
41
1.00000000000001
10
25.0198484753874
20
0.0436290054805109
30
0
41
1.00000000000001
10
24.9762572186612
20
0.0556283475937386
30
0
41
1.00000000000001
10
24.93312462073
20
0.0674724488964664
30
0
41
1.00000000000001
10
24.8727396309947
20
0.0840259184069786
30
0
41
1.00000000000001
10
24.8209830548201
20
0.098202053239702
30
0
41
1.00000000000001
10
24.7692257599711
20
0.112347314586769
30
0
41
1.00000000000001
10
24.7260931965665
20
0.124094416423331
30
0
41
1.00000000000001
10
24.6657082659598
20
0.140490992844688
30
0
41
1.00000000000001
10
24.6139517495419
20
0.15451050305421
30
0
41
1.00000000000001
10
24.5621945173369
20
0.168480316089754
30
0
41
1.00000000000001
10
24.519062002465
20
0.180068976762582
30
0
41
1.00000000000001
10
24.4586771238066
20
0.196222397346842
30
0
41
1.00000000000001
10
24.4069206306838
20
0.210011263025278
30
0
41
1.00000000000001
10
24.3551633991182
20
0.223731989349174
30
0
41
1.00000000000001
10
24.3120308690493
20
0.235101261520155
30
0
41
1.00000000000001
10
24.2516459465008
20
0.2509268196369
30
0
41
1.00000000000001
10
24.1998893991995
20
0.264412988896194
30
0
41
1.00000000000001
10
24.1481321087978
20
0.277813122902953
30
0
41
1.00000000000001
10
24.1049995341925
20
0.288903868892871
30
0
41
1.00000000000001
10
24.044614566975
20
0.304319448256646
30
0
41
1.00000000000001
10
23.9928580032782
20
0.317433151404938
30
0
41
1.00000000000001
10
23.9411007185371
20
0.33044352649733
30
0
41
1.00000000000001
10
23.8979681630006
20
0.341198603043719
30
0
41
1.00000000000001
10
23.8375832414329
20
0.356124805910095
30
0
41
1.00000000000001
10
23.7858267292807
20
0.368798349816355
30
0
41
1.00000000000001
10
23.7340694970267
20
0.381351469692813
30
0
41
1.00000000000001
10
23.6909369783094
20
0.391714827322058
30
0
41
1.00000000000001
10
23.6305520874046
20
0.406073533949918
30
0
41
1.00000000000001
10
23.5787955776602
20
0.418240380576261
30
0
41
1.00000000000001
10
23.5270383257602
20
0.430270353055216
30
0
41
1.00000000000001
10
23.4839057781861
20
0.440187633962974
30
0
41
1.00000000000001
10
23.4235208337194
20
0.453903593229167
30
0
41
1.00000000000001
10
23.3717642724066
20
0.465500040013377
30
0
41
1.00000000000001
10
23.3200069743927
20
0.476943918919114
30
0
41
1.00000000000001
10
23.2768743988734
20
0.486363253194123
30
0
41
1.00000000000001
10
23.2164894398444
20
0.49936475551686
30
0
41
1.00000000000001
10
23.1647328914937
20
0.510330192576186
30
0
41
1.00000000000001
10
23.112975626905
20
0.521128164586196
30
0
41
1.00000000000001
10
23.0698430890437
20
0.530000322381648
30
0
41
1.00000000000001
10
23.0094581902311
20
0.542219443797558
30
0
41
1.00000000000001
10
22.9577016937229
20
0.552496633422175
30
0
41
1.00000000000001
10
22.9059444716724
20
0.562592398473521
30
0
41
1.00000000000001
10
22.8628119573423
20
0.570871165892862
30
0
41
1.00000000000001
10
22.8024270662011
20
0.582244298714664
30
0
41
1.00000000000001
10
22.7506705510843
20
0.591779737794974
30
0
41
1.00000000000001
10
22.6989132914765
20
0.601120677504292
30
0
41
1.00000000000001
10
22.6557807380184
20
0.608762851043502
30
0
41
1.00000000000001
10
22.5953957893398
20
0.619230527930733
30
0
41
1.00000000000001
10
22.5436392299383
20
0.627974227234085
30
0
41
1.00000000000001
10
22.4918819399592
20
0.636511257923069
30
0
41
1.00000000000001
10
22.44874937564
20
0.643476606788988
30
0
41
1.00000000000001
10
22.3883644390015
20
0.652983568389708
30
0
41
1.00000000000001
10
22.3366079148234
20
0.660889183201498
30
0
41
1.00000000000001
10
22.2848506759541
20
0.668576877744891
30
0
41
1.00000000000001
10
22.2417181584315
20
0.674828222865835
30
0
41
1.00000000000001
10
22.1813332830283
20
0.683323765328276
30
0
41
1.00000000000001
10
22.1295767998562
20
0.690349448963154
30
0
41
1.00000000000001
10
22.077819583918
20
0.697147697489406
30
0
41
1.00000000000001
10
22.0346870699007
20
0.702652862626899
30
0
41
1.00000000000001
10
21.9743021726149
20
0.710093823863183
30
0
41
1.00000000000001
10
21.9225456475277
20
0.716204214001714
30
0
41
1.00000000000001
10
21.870788376874
20
0.722078731688264
30
0
41
1.00000000000001
10
21.8276558156608
20
0.726809836424074
30
0
41
1.00000000000001
10
21.7672708608415
20
0.733158292213908
30
0
41
1.00000000000001
10
21.7155143014389
20
0.738321971658301
30
0
41
1.00000000000001
10
21.6637570162223
20
0.743242318396874
30
0
41
1.00000000000001
10
21.6206244586572
20
0.747174696446812
30
0
41
1.00000000000001
10
21.5602395346639
20
0.752397239562604
30
0
41
1.00000000000001
10
21.5084830229869
20
0.756586669256471
30
0
41
1.00000000000001
10
21.4567257957323
20
0.760526265611922
30
0
41
1.00000000000001
10
21.4135932875494
20
0.763638447047661
30
0
41
1.00000000000001
10
21.3532084280625
20
0.767706501692565
30
0
41
1.00000000000001
10
21.3014519644642
20
0.770899089535952
30
0
41
1.00000000000001
10
21.2496947773642
20
0.773837447008809
30
0
41
1.00000000000001
10
21.2065622842013
20
0.776113852552065
30
0
41
1.00000000000001
10
21.1461773817785
20
0.779007839814816
30
0
41
1.00000000000001
10
21.0944207974238
20
0.781188678823973
30
0
41
1.00000000000001
10
21.0426633989493
20
0.783111965476443
30
0
41
1.00000000000001
10
20.9995306961237
20
0.784541678108006
30
0
41
1.00000000000001
10
20.9391455362127
20
0.786247370071485
30
0
41
1.00000000000001
10
20.8873888403881
20
0.787405426333542
30
0
41
1.00000000000001
10
20.8356315083306
20
0.788303755804314
30
0
41
1.00000000000001
10
20.792498981756
20
0.788879370147405
30
0
41
1.00000000000001
10
20.7321141880042
20
0.789387653625276
30
0
41
1.00000000000001
10
20.6803578317919
20
0.789516182077726
30
0
41
1.00000000000001
10
20.6286007376515
20
0.789383487425787
30
0
41
1.00000000000001
10
20.5854683008935
20
0.789100367061699
30
0
41
1.00000000000001
10
20.5250834723326
20
0.788406054641875
30
0
41
1.00000000000001
10
20.4733269831077
20
0.787502654793591
30
0
41
1.00000000000001
10
20.4215697519347
20
0.78633912381624
30
0
41
1.00000000000001
10
20.3784372217477
20
0.785199265904814
30
0
41
1.00000000000001
10
20.3202091292252
20
0.783377073697913
30
0
41
1.00000000000001
10
20.2684522672492
20
0.781463059450111
30
0
41
1.00000000000001
10
20.2231649743269
20
0.779566541892584
30
0
41
1.00000000000001
10
20.177875017433
20
0.777515684886928
30
0
41
1.00000000000001
10
20.1088606903719
20
0.774047040222136
30
0
41
1.00000000000001
10
19.9902404209103
20
0.767100989196187
30
0
41
1.00000000000001
10
19.8867313818396
20
0.759730838481651
30
0
41
1.00000000000001
10
19.8004756544572
20
0.75276810408166
30
0
41
1.00000000000001
10
19.757343272108
20
0.749112390684693
30
0
41
1.00000000000001
10
19.6969584448473
20
0.743711738144036
30
0
41
1.00000000000001
10
19.6452019262057
20
0.738785482112597
30
0
41
1.00000000000001
10
19.5934446568036
20
0.73361430322759
30
0
41
1.00000000000001
10
19.5503120987672
20
0.729150527048056
30
0
41
1.00000000000001
10
19.5114075403189
20
0.724947971223393
30
0
41
1.00000000000001
10
19.4897560789207
20
0.722547945154325
30
0
41
1.00000000000001
10
19.4853571474097
20
0.722057800250091
30
0
0
SPLINE
5
E1
100
AcDbEntity
8
1
62
256
6
ByLayer
370
18
48
1
60
0
100
AcDbSpline
70
4
71
4
72
10
73
5
40
0
40
0
40
0
40
0
40
0
40
1
40
1
40
1
40
1
40
1
41
1
10
6.71456516615689
20
-0.771767202632333
30
0
41
1
10
6.64057010214799
20
-0.974429395363728
30
0
41
1
10
6.56657503813909
20
-1.17709158809512
30
0
41
1
10
6.49257997413019
20
-1.37975378082649
30
0
41
1
10
6.41858491012127
20
-1.58241597355789
30
0
0
SPLINE
5
E2
100
AcDbEntity
8
1
62
256
6
ByLayer
370
18
48
1
60
0
100
AcDbSpline
70
4
71
3
72
40
73
36
40
0
40
0
40
0
40
0
40
0.0626110495884606
40
0.0626110495884606
40
0.1008578133747
40
0.1008578133747
40
0.139104577160939
40
0.139104577160939
40
0.215598104733417
40
0.215598104733417
40
0.292091632305895
40
0.292091632305895
40
0.330338396092133
40
0.330338396092133
40
0.368585159878371
40
0.368585159878371
40
0.445078687450847
40
0.445078687450847
40
0.483325451237085
40
0.483325451237085
40
0.521572215023323
40
0.521572215023323
40
0.674559270168275
40
0.674559270168275
40
0.712806033954512
40
0.712806033954512
40
0.751052797740749
40
0.751052797740749
40
0.827546325313224
40
0.827546325313224
40
0.9040398528857
40
0.9040398528857
40
0.980533380458175
40
0.980533380458175
40
1
40
1
40
1
40
1
41
1
10
12.3363643650004
20
1.71944880996003
30
0
41
1
10
12.539137011793
20
1.71963559433192
30
0
41
1
10
12.7414270794611
20
1.70690656694032
30
0
41
1
10
13.068004526289
20
1.66581790312409
30
0
41
1
10
13.1920978670794
20
1.64547760468309
30
0
41
1
10
13.4414083005119
20
1.59543804172705
30
0
41
1
10
13.5671123206656
20
1.56562321810426
30
0
41
1
10
13.942008091449
20
1.46309792094902
30
0
41
1
10
14.1895940863069
20
1.37798294490403
30
0
41
1
10
14.6842963131669
20
1.17933456591302
30
0
41
1
10
14.9312338124343
20
1.06555683866131
30
0
41
1
10
15.3047189814433
20
0.877501399535817
30
0
41
1
10
15.4300885155564
20
0.811556135597101
30
0
41
1
10
15.6801616856015
20
0.675836701596921
30
0
41
1
10
15.8046071538373
20
0.606260038738412
30
0
41
1
10
16.1767774701428
20
0.393413277024365
30
0
41
1
10
16.4234645050478
20
0.246233272352811
30
0
41
1
10
16.7945595347697
20
0.0228875840381022
30
0
41
1
10
16.9184028708095
20
-0.0520466137846256
30
0
41
1
10
17.1671136412419
20
-0.201653789111532
30
0
41
1
10
17.2923454315583
20
-0.276534075641592
30
0
41
1
10
17.917783408123
20
-0.646196385506755
30
0
41
1
10
18.4074926957406
20
-0.920037013839305
30
0
41
1
10
19.0286299206693
20
-1.20209261227976
30
0
41
1
10
19.1534881750523
20
-1.25565783707853
30
0
41
1
10
19.4036643271163
20
-1.35545572957702
30
0
41
1
10
19.528143075924
20
-1.40127654799585
30
0
41
1
10
19.9002442145246
20
-1.52636838153609
30
0
41
1
10
20.1466280724806
20
-1.59312258470288
30
0
41
1
10
20.6407822516597
20
-1.69019258680757
30
0
41
1
10
20.8885126349706
20
-1.72063200158558
30
0
41
1
10
21.3891224152658
20
-1.74201501081214
30
0
41
1
10
21.6365029148898
20
-1.73277106222537
30
0
41
1
10
21.9462978777137
20
-1.69744919991626
30
0
41
1
10
22.0090966181548
20
-1.68905228780144
30
0
41
1
10
22.071889750588
20
-1.67944123410175
30
0
0
SPLINE
5
E3
100
AcDbEntity
8
1
62
256
6
ByLayer
370
18
48
1
60
0
100
AcDbSpline
70
4
71
3
72
22
73
18
40
0
40
0
40
0
40
0
40
0.17688259789837
40
0.17688259789837
40
0.35376519579674
40
0.35376519579674
40
0.53064779369511
40
0.53064779369511
40
0.619089092644291
40
0.619089092644291
40
0.707530391593472
40
0.707530391593472
40
0.884412989491826
40
0.884412989491826
40
0.972854288441004
40
0.972854288441004
40
1
40
1
40
1
40
1
41
1
10
29.2536175558622
20
0.279806847063952
30
0
41
1
10
29.0153422196855
20
0.41836819971644
30
0
41
1
10
28.7776420724487
20
0.553435441658621
30
0
41
1
10
28.2994461780479
20
0.811131138562871
30
0
41
1
10
28.0622129306675
20
0.93182344082598
30
0
41
1
10
27.5898782028188
20
1.1501726150145
30
0
41
1
10
27.3543831065537
20
1.24870064081659
30
0
41
1
10
26.9993634908573
20
1.3757400872598
30
0
41
1
10
26.8808630671386
20
1.41491339245019
30
0
41
1
10
26.6424492730461
20
1.48605742276749
30
0
41
1
10
26.5226436343617
20
1.51822181018932
30
0
41
1
10
26.1646321104576
20
1.60168263930297
30
0
41
1
10
25.9267128444672
20
1.64124740008495
30
0
41
1
10
25.5679028541064
20
1.67282761051231
30
0
41
1
10
25.4486305400607
20
1.6787157335132
30
0
41
1
10
25.2934577528732
20
1.68131731932118
30
0
41
1
10
25.2570306264889
20
1.68155493258141
30
0
41
1
10
25.2206233411944
20
1.68141397394888
30
0
0
SPLINE
5
E4
100
AcDbEntity
8
1
62
256
6
ByLayer
370
18
48
1
60
0
100
AcDbSpline
70
4
71
3
72
68
73
64
40
0
40
0
40
0
40
0
40
0.0219451219690821
40
0.0219451219690821
40
0.0537973402987896
40
0.0537973402987896
40
0.0856495586284972
40
0.0856495586284972
40
0.117501776958205
40
0.117501776958205
40
0.149353995287912
40
0.149353995287912
40
0.18120621361762
40
0.18120621361762
40
0.213058431947327
40
0.213058431947327
40
0.244910650277035
40
0.244910650277035
40
0.276762868606743
40
0.276762868606743
40
0.30861508693645
40
0.30861508693645
40
0.340467305266158
40
0.340467305266158
40
0.372319523595865
40
0.372319523595865
40
0.404171741925573
40
0.404171741925573
40
0.43602396025528
40
0.43602396025528
40
0.467876178584988
40
0.467876178584988
40
0.499728396914696
40
0.499728396914696
40
0.531580615244403
40
0.531580615244403
40
0.563432833574111
40
0.563432833574111
40
0.595285051903818
40
0.595285051903818
40
0.627137270233526
40
0.627137270233526
40
0.658989488563233
40
0.658989488563233
40
0.690841706892941
40
0.690841706892941
40
0.722693925222649
40
0.722693925222649
40
0.754546143552356
40
0.754546143552356
40
0.786398361882064
40
0.786398361882064
40
0.818250580211771
40
0.818250580211771
40
0.850102798541479
40
0.850102798541479
40
0.881955016871186
40
0.881955016871186
40
0.913807235200894
40
0.913807235200894
40
0.945659453530602
40
0.945659453530602
40
1
40
1
40
1
40
1
41
1
10
18.4577909718786
20
-1.19273260550327
30
0
41
1
10
18.3761587316413
20
-1.22611874861653
30
0
41
1
10
18.2944011389106
20
-1.25808260304933
30
0
41
1
10
18.0934415602121
20
-1.3324539346944
30
0
41
1
10
17.9735704917892
20
-1.37289500602773
30
0
41
1
10
17.7340257123434
20
-1.44767210335303
30
0
41
1
10
17.6148187838865
20
-1.48137274423121
30
0
41
1
10
17.3774494666185
20
-1.53981391799488
30
0
41
1
10
17.2589899539742
20
-1.56457510114129
30
0
41
1
10
17.0223935086864
20
-1.60724423220938
30
0
41
1
10
16.904188634527
20
-1.62495900564389
30
0
41
1
10
16.6676041107798
20
-1.65085074105286
30
0
41
1
10
16.5492522572834
20
-1.65900280771001
30
0
41
1
10
16.3117483023223
20
-1.66776216463029
30
0
41
1
10
16.1926824024992
20
-1.66857801512742
30
0
41
1
10
15.9534456299078
20
-1.66062109409717
30
0
41
1
10
15.8333622222775
20
-1.65152981978647
30
0
41
1
10
15.5940975523697
20
-1.62545150994083
30
0
41
1
10
15.4745460077359
20
-1.60883472000691
30
0
41
1
10
15.2352514064718
20
-1.56676956434356
30
0
41
1
10
15.115422211003
20
-1.5408436379339
30
0
41
1
10
14.8755890195126
20
-1.4814982414758
30
0
41
1
10
14.7561312844912
20
-1.448610985513
30
0
41
1
10
14.5180939804827
20
-1.37543426952857
30
0
41
1
10
14.3995118896649
20
-1.33462675435052
30
0
41
1
10
14.1625318401298
20
-1.24697286419396
30
0
41
1
10
14.044144553142
20
-1.20033883170151
30
0
41
1
10
13.8071548178394
20
-1.10160685520606
30
0
41
1
10
13.6886487885225
20
-1.0486123497721
30
0
41
1
10
13.4508915813037
20
-0.936594279027815
30
0
41
1
10
13.331635287244
20
-0.878573991082561
30
0
41
1
10
13.0922215255066
20
-0.757988948937992
30
0
41
1
10
12.9720412437202
20
-0.695368996181998
30
0
41
1
10
12.7327831615519
20
-0.56621318139338
30
0
41
1
10
12.6132829760787
20
-0.500245016929313
30
0
41
1
10
12.3740112871471
20
-0.36647040406487
30
0
41
1
10
12.2542969972598
20
-0.298567756016126
30
0
41
1
10
12.0143779673264
20
-0.160310831432014
30
0
41
1
10
11.8947726158342
20
-0.0911612774555408
30
0
41
1
10
11.6564419423591
20
0.0468128944426951
30
0
41
1
10
11.5376620949179
20
0.115684562949298
30
0
41
1
10
11.3005586104758
20
0.252048291594292
30
0
41
1
10
11.1823488588015
20
0.319835845874025
30
0
41
1
10
10.945330030867
20
0.452915509414197
30
0
41
1
10
10.8268047202791
20
0.518647053317068
30
0
41
1
10
10.5892930842322
20
0.647285356722278
30
0
41
1
10
10.4702320479016
20
0.709998307267767
30
0
41
1
10
10.2311279213839
20
0.832333995512244
30
0
41
1
10
10.1106167614923
20
0.891904570837255
30
0
41
1
10
9.87147132609215
20
1.00517800884254
30
0
41
1
10
9.75257850027282
20
1.05844923976113
30
0
41
1
10
9.5152421366615
20
1.16008819326379
30
0
41
1
10
9.39665567634964
20
1.20801933351103
30
0
41
1
10
9.15989308784546
20
1.2975168655708
30
0
41
1
10
9.04162023553286
20
1.33834895538649
30
0
41
1
10
8.80462010903585
20
1.41360816968589
30
0
41
1
10
8.68599306070672
20
1.44817593399617
30
0
41
1
10
8.4479209422289
20
1.50970840740132
30
0
41
1
10
8.32848403597615
20
1.53629155166888
30
0
41
1
10
8.0883406451232
20
1.58139314500076
30
0
41
1
10
7.96840887672738
20
1.60026677494611
30
0
41
1
10
7.64541000851449
20
1.63921654749416
30
0
41
1
10
7.44279075602117
20
1.65101929002617
30
0
41
1
10
7.2400190348531
20
1.65076772504597
30
0
0
SPLINE
5
E5
100
AcDbEntity
8
1
62
256
6
ByLayer
370
18
48
1
60
0
100
AcDbSpline
70
4
71
3
72
8
73
4
40
0
40
0
40
0
40
0
40
1
40
1
40
1
40
1
41
1
10
29.7349163565067
20
0.789324063593199
30
0
41
1
10
29.745569984756
20
0.758915161743772
30
0
41
1
10
29.7565147173872
20
0.728962137012559
30
0
41
1
10
29.7677435134544
20
0.69942035765618
30
0
0
SPLINE
5
E6
100
AcDbEntity
8
1
62
256
6
ByLayer
370
18
48
1
60
0
100
AcDbSpline
70
4
71
2
72
6
73
3
40
0
40
0
40
0
40
1
40
1
40
1
41
1
10
16.0496995421648
20
0.0353935849635718
30
0
41
1
10
16.383014526801
20
-0.0571251505543273
30
0
41
1
10
16.7105754522716
20
-0.256642907004647
30
0
0
SPLINE
5
E7
100
AcDbEntity
8
1
62
256
6
ByLayer
370
18
48
1
60
0
100
AcDbSpline
70
4
71
2
72
6
73
3
40
0
40
0
40
0
40
1
40
1
40
1
41
1
10
25.0495184762272
20
0.0354562988323153
30
0
41
1
10
25.3793351192817
20
-0.055589016595377
30
0
41
1
10
25.710152188305
20
-0.25653877862564
30
0
0
SPLINE
5
E8
100
AcDbEntity
8
1
62
256
6
ByLayer
370
18
48
1
60
0
100
AcDbSpline
70
4
71
2
72
6
73
3
40
0
40
0
40
0
40
1
40
1
40
1
41
1
10
11.9564378141066
20
-0.0358818296956827
30
0
41
1
10
11.6442716195792
20
0.0504929926568138
30
0
41
1
10
11.3353597887054
20
0.232146017735147
30
0
0
SPLINE
5
E9
100
AcDbEntity
8
1
62
256
6
ByLayer
370
18
48
1
60
0
100
AcDbSpline
70
4
71
2
72
6
73
3
40
0
40
0
40
0
40
1
40
1
40
1
41
1
10
29.1427063153708
20
0.337670973992687
30
0
41
1
10
29.0916776038606
20
0.369066050766293
30
0
41
1
10
29.0410666370998
20
0.403146399343655
30
0
0
SPLINE
5
EA
100
AcDbEntity
8
1
62
256
6
ByLayer
370
18
48
1
60
0
100
AcDbSpline
70
4
71
2
72
6
73
3
40
0
40
0
40
0
40
1
40
1
40
1
41
1
10
20.9554837167802
20
-0.0356360083339382
30
0
41
1
10
20.6437916000565
20
0.0508869400980529
30
0
41
1
10
20.3364104819542
20
0.231526738629725
30
0
0
SPLINE
5
EB
100
AcDbEntity
8
1
62
256
6
ByLayer
370
18
48
1
60
0
100
AcDbSpline
70
4
71
3
72
15
73
11
40
0
40
0
40
0
40
0
40
0.225055346328883
40
0.385642110165099
40
0.456944312192909
40
0.510056460974822
40
0.562568645789759
40
0.66659214788536
40
0.799011737040775
40
1
40
1
40
1
40
1
41
1
10
21.6407263516113
20
-1.67666801406818
30
0
41
1
10
21.9122487268003
20
-1.67698343573127
30
0
41
1
10
22.377542602194
20
-1.67739523294151
30
0
41
1
10
22.9290335589185
20
-1.67959845462389
30
0
41
1
10
23.2729270282559
20
-1.67909443897972
30
0
41
1
10
23.4864654302986
20
-1.68034494469228
30
0
41
1
10
23.7395028981999
20
-1.68046511237321
30
0
41
1
10
24.0881398278942
20
-1.68032966942829
30
0
41
1
10
24.6161507845384
20
-1.6825694100591
30
0
41
1
10
25.0184227222773
20
-1.68209400654598
30
0
41
1
10
25.2609044302139
20
-1.68151118353347
30
0
0
SPLINE
5
EC
100
AcDbEntity
8
1
62
256
6
ByLayer
370
18
48
1
60
0
100
AcDbSpline
70
4
71
3
72
14
73
10
40
0
40
0
40
0
40
0
40
0.176188384083895
40
0.316330036633621
40
0.419905128338942
40
0.490869149960478
40
0.611257136151606
40
0.781115984348001
40
1
40
1
40
1
40
1
41
1
10
12.6384394485191
20
-1.65996187808838
30
0
41
1
10
12.8511655390956
20
-1.66016742777921
30
0
41
1
10
13.2331556430562
20
-1.6605271120973
30
0
41
1
10
13.7405121502965
20
-1.66315524157292
30
0
41
1
10
14.1206175105786
20
-1.66227990007945
30
0
41
1
10
14.4769233140109
20
-1.66437448100069
30
0
41
1
10
14.9133051449069
20
-1.66403663873595
30
0
41
1
10
15.5283436990071
20
-1.66621563903178
30
0
41
1
10
15.997989549842
20
-1.66678670850138
30
0
41
1
10
16.2624302636067
20
-1.66712893922258
30
0
0
SPLINE
5
ED
100
AcDbEntity
8
1
62
256
6
ByLayer
370
18
48
1
60
0
100
AcDbSpline
70
4
71
3
72
15
73
11
40
0
40
0
40
0
40
0
40
0.228296869050101
40
0.378715166639707
40
0.496883359903247
40
0.556536755899931
40
0.616872206349207
40
0.697870035252877
40
0.880289673699836
40
1
40
1
40
1
40
1
41
1
10
25.2608274573591
20
1.68151098673709
30
0
41
1
10
25.0183656096288
20
1.68209385820356
30
0
41
1
10
24.6161195255581
20
1.68256935251347
30
0
41
1
10
24.0881328870267
20
1.68032957204088
30
0
41
1
10
23.739499224601
20
1.6804651292579
30
0
41
1
10
23.4864568374203
20
1.68034491371091
30
0
41
1
10
23.272913677267
20
1.67909438733628
30
0
41
1
10
22.9290182037789
20
1.67959850407357
30
0
41
1
10
22.5219621988267
20
1.67797222726054
30
0
41
1
10
22.201030133132
20
1.67737839407792
30
0
41
1
10
22.0738773478044
20
1.67719287904117
30
0
0
SPLINE
5
EE
100
AcDbEntity
8
1
62
256
6
ByLayer
370
18
48
1
60
0
100
AcDbSpline
70
4
71
2
72
6
73
3
40
0
40
0
40
0
40
1
40
1
40
1
41
1
10
5.57253378770599
20
-1.64807976796101
30
0
41
1
10
6.4170970189528
20
-1.64971709391296
30
0
41
1
10
7.26166317474193
20
-1.65073015891696
30
0
0
SPLINE
5
EF
100
AcDbEntity
8
1
62
256
6
ByLayer
370
18
48
1
60
0
100
AcDbSpline
70
4
71
3
72
14
73
10
40
0
40
0
40
0
40
0
40
0.206655060523575
40
0.367365134847847
40
0.4817439204138
40
0.553351916458068
40
0.674667656591509
40
0.854237178516609
40
1
40
1
40
1
40
1
41
1
10
16.2625069611372
20
1.66712888747278
30
0
41
1
10
16.0336994553949
20
1.66662716719796
30
0
41
1
10
15.6269574267106
20
1.66583999587422
30
0
41
1
10
15.0935823502786
20
1.66488869572515
30
0
41
1
10
14.7097330787023
20
1.66453663561404
30
0
41
1
10
14.3694737387096
20
1.66377708465757
30
0
41
1
10
13.9571887221598
20
1.66236986694094
30
0
41
1
10
13.4626103073168
20
1.66131705672458
30
0
41
1
10
13.1025040379019
20
1.6606590287073
30
0
41
1
10
12.9411771994533
20
1.66040059290515
30
0
0
SPLINE
5
F0
100
AcDbEntity
8
1
62
256
6
ByLayer
370
18
48
1
60
0
100
AcDbSpline
70
4
71
2
72
6
73
3
40
0
40
0
40
0
40
1
40
1
40
1
41
1
10
7.2615860065693
20
1.65073009796202
30
0
41
1
10
6.41705843438481
20
1.64971703264857
30
0
41
1
10
5.57253378785708
20
1.6480797714004
30
0
0
LINE
5
7B
100
AcDbEntity
8
SK1
62
256
6
ByLayer
370
18
48
1
60
0
100
AcDbLine
10
0
20
-3
30
0
11
0
21
3
31
0
39
0
210
0
220
0
230
1
0
LINE
5
7D
100
AcDbEntity
8
SK1
62
256
6
ByLayer
370
18
48
1
60
0
100
AcDbLine
10
-36
20
1.25
30
0
11
-36
21
-1.25
31
0
39
0
210
0
220
0
230
1
0
LINE
5
7E
100
AcDbEntity
8
SK1
62
256
6
ByLayer
370
18
48
1
60
0
100
AcDbLine
10
-34.989637
20
3
30
0
11
-34.989637
21
-3
31
0
39
0
210
0
220
0
230
1
0
LINE
5
7F
100
AcDbEntity
8
1
62
256
6
ByLayer
370
13
48
1
60
0
100
AcDbLine
10
0.826109
20
2.350108
30
0
11
0.826109
21
-2.350108
31
0
39
0
210
0
220
0
230
1
0
LINE
5
80
100
AcDbEntity
8
1
62
256
6
ByLayer
370
18
48
1
60
0
100
AcDbLine
10
29.177132
20
-0.781361
30
0
11
29.70991
21
-0.353633
31
0
39
0
210
0
220
0
230
1
0
LINE
5
81
100
AcDbEntity
8
1
62
256
6
ByLayer
370
18
48
1
60
0
100
AcDbLine
10
0
20
-3
30
0
11
0
21
3
31
0
39
0
210
0
220
0
230
1
0
LINE
5
82
100
AcDbEntity
8
1
62
256
6
ByLayer
370
13
48
1
60
0
100
AcDbLine
10
1.653749
20
1.700217
30
0
11
1.653749
21
-1.700217
31
0
39
0
210
0
220
0
230
1
0
LINE
5
83
100
AcDbEntity
8
80
62
256
6
ByLayer
370
18
48
1
60
0
100
AcDbLine
10
0
20
0
30
0
11
-5
21
0
31
0
39
0
210
0
220
0
230
1
0
LINE
5
84
100
AcDbEntity
8
4
62
256
6
ByLayer
370
18
48
0.05
60
0
100
AcDbLine
10
30
20
0
30
0
11
0
21
0
31
0
39
0
210
0
220
0
230
1
0
LINE
5
86
100
AcDbEntity
8
SK4
62
256
6
ByLayer
370
18
48
0.05
60
0
100
AcDbLine
10
35
20
0
30
0
11
-41
21
0
31
0
39
0
210
0
220
0
230
1
0
LINE
5
88
100
AcDbEntity
8
SK1
62
256
6
ByLayer
370
18
48
1
60
0
100
AcDbLine
10
-36
20
-1.25
30
0
11
-34.989637
21
-3
31
0
39
0
210
0
220
0
230
1
0
LINE
5
89
100
AcDbEntity
8
SK1
62
256
6
ByLayer
370
18
48
1
60
0
100
AcDbLine
10
-34.989637
20
3
30
0
11
-36
21
1.25
31
0
39
0
210
0
220
0
230
1
0
LINE
5
8A
100
AcDbEntity
8
SK1
62
256
6
ByLayer
370
18
48
1
60
0
100
AcDbLine
10
-34.989637
20
-3
30
0
11
0
21
-3
31
0
39
0
210
0
220
0
230
1
0
LINE
5
8B
100
AcDbEntity
8
SK1
62
256
6
ByLayer
370
18
48
1
60
0
100
AcDbLine
10
0
20
3
30
0
11
-34.989637
21
3
31
0
39
0
210
0
220
0
230
1
0
LINE
5
8C
100
AcDbEntity
8
1
62
256
6
ByLayer
370
18
48
1
60
0
100
AcDbLine
10
1.653749
20
-1.700217
30
0
11
5.23409
21
-1.706662
31
0
39
0
210
0
220
0
230
1
0
LINE
5
8D
100
AcDbEntity
8
1
62
256
6
ByLayer
370
18
48
1
60
0
100
AcDbLine
10
11.780691
20
-1.718446
30
0
11
12.332393
21
-1.719439
31
0
39
0
210
0
220
0
230
1
0
LINE
5
8E
100
AcDbEntity
8
1
62
256
6
ByLayer
370
18
48
1
60
0
100
AcDbLine
10
20.784597
20
-1.734653
30
0
11
21.331583
21
-1.735637
31
0
39
0
210
0
220
0
230
1
0
LINE
5
8F
100
AcDbEntity
8
1
62
256
6
ByLayer
370
18
48
1
60
0
100
AcDbLine
10
21.331583
20
1.735637
30
0
11
20.784597
21
1.734653
31
0
39
0
210
0
220
0
230
1
0
LINE
5
90
100
AcDbEntity
8
1
62
256
6
ByLayer
370
18
48
1
60
0
100
AcDbLine
10
12.332393
20
1.719439
30
0
11
11.780691
21
1.718446
31
0
39
0
210
0
220
0
230
1
0
LINE
5
91
100
AcDbEntity
8
1
62
256
6
ByLayer
370
18
48
1
60
0
100
AcDbLine
10
5.23409
20
1.706662
30
0
11
1.653749
21
1.700217
31
0
39
0
210
0
220
0
230
1
0
LINE
5
92
100
AcDbEntity
8
81
62
256
6
ByLayer
370
18
48
1
60
0
100
AcDbLine
10
30
20
0
30
0
11
35
21
0
31
0
39
0
210
0
220
0
230
1
0
LINE
5
93
100
AcDbEntity
8
SK2
62
256
6
ByLayer
370
13
48
1
60
0
100
AcDbLine
10
-44.625163
20
32.117107
30
0
11
-44.625163
21
-11.75
31
0
39
0
210
0
220
0
230
1
0
LINE
5
95
100
AcDbEntity
8
SK2
62
256
6
ByLayer
370
13
48
1
60
0
100
AcDbLine
10
-37.5875
20
3
30
0
11
-46.625163
21
3
31
0
39
0
210
0
220
0
230
1
0
LINE
5
96
100
AcDbEntity
8
SK2
62
256
6
ByLayer
370
13
48
1
60
0
100
AcDbLine
10
-37.5875
20
-3
30
0
11
-46.625163
21
-3
31
0
39
0
210
0
220
0
230
1
0
LINE
5
97
100
AcDbEntity
8
1
62
256
6
ByLayer
370
18
48
1
60
1
100
AcDbLine
10
-44.625163
20
3
30
0
11
-45.085946
21
6.499998
31
0
39
0
210
0
220
0
230
1
0
LINE
5
98
100
AcDbEntity
8
1
62
256
6
ByLayer
370
18
48
1
60
1
100
AcDbLine
10
-45.085946
20
6.499998
30
0
11
-44.164379
21
6.500002
31
0
39
0
210
0
220
0
230
1
0
LINE
5
99
100
AcDbEntity
8
1
62
256
6
ByLayer
370
18
48
1
60
1
100
AcDbLine
10
-44.164379
20
6.500002
30
0
11
-44.625163
21
3
31
0
39
0
210
0
220
0
230
1
0
LINE
5
9A
100
AcDbEntity
8
1
62
256
6
ByLayer
370
18
48
1
60
1
100
AcDbLine
10
-44.625163
20
-3
30
0
11
-44.164379
21
-6.499998
31
0
39
0
210
0
220
0
230
1
0
LINE
5
9B
100
AcDbEntity
8
1
62
256
6
ByLayer
370
18
48
1
60
1
100
AcDbLine
10
-44.164379
20
-6.499998
30
0
11
-45.085946
21
-6.500002
31
0
39
0
210
0
220
0
230
1
0
LINE
5
9C
100
AcDbEntity
8
1
62
256
6
ByLayer
370
18
48
1
60
1
100
AcDbLine
10
-45.085946
20
-6.500002
30
0
11
-44.625163
21
-3
31
0
39
0
210
0
220
0
230
1
0
LINE
5
9D
100
AcDbEntity
8
2
62
256
6
ByLayer
370
13
48
1
60
0
100
AcDbLine
10
42.083343
20
29.460193
30
0
11
42.083343
21
-10.5
31
0
39
0
210
0
220
0
230
1
0
LINE
5
9F
100
AcDbEntity
8
2
62
256
6
ByLayer
370
13
48
1
60
0
100
AcDbLine
10
30.8984
20
1.75
30
0
11
44.083343
21
1.75
31
0
39
0
210
0
220
0
230
1
0
LINE
5
A0
100
AcDbEntity
8
2
62
256
6
ByLayer
370
13
48
1
60
0
100
AcDbLine
10
30.8984
20
-1.75
30
0
11
44.083343
21
-1.75
31
0
39
0
210
0
220
0
230
1
0
LINE
5
A1
100
AcDbEntity
8
1
62
256
6
ByLayer
370
18
48
1
60
1
100
AcDbLine
10
42.083343
20
1.75
30
0
11
41.622559
21
5.249998
31
0
39
0
210
0
220
0
230
1
0
LINE
5
A2
100
AcDbEntity
8
1
62
256
6
ByLayer
370
18
48
1
60
1
100
AcDbLine
10
41.622559
20
5.249998
30
0
11
42.544126
21
5.250002
31
0
39
0
210
0
220
0
230
1
0
LINE
5
A3
100
AcDbEntity
8
1
62
256
6
ByLayer
370
18
48
1
60
1
100
AcDbLine
10
42.544126
20
5.250002
30
0
11
42.083343
21
1.75
31
0
39
0
210
0
220
0
230
1
0
LINE
5
A4
100
AcDbEntity
8
1
62
256
6
ByLayer
370
18
48
1
60
1
100
AcDbLine
10
42.083343
20
-1.75
30
0
11
42.544126
21
-5.249998
31
0
39
0
210
0
220
0
230
1
0
LINE
5
A5
100
AcDbEntity
8
1
62
256
6
ByLayer
370
18
48
1
60
1
100
AcDbLine
10
42.544126
20
-5.249998
30
0
11
41.622559
21
-5.250002
31
0
39
0
210
0
220
0
230
1
0
LINE
5
A6
100
AcDbEntity
8
1
62
256
6
ByLayer
370
18
48
1
60
1
100
AcDbLine
10
41.622559
20
-5.250002
30
0
11
42.083343
21
-1.75
31
0
39
0
210
0
220
0
230
1
0
LINE
5
F7
100
AcDbEntity
8
1
62
256
6
ByLayer
370
18
48
1
60
1
100
AcDbLine
10
-44.625163
20
3
30
0
11
-45.085946
21
6.499998
31
0
39
0
210
0
220
0
230
1
0
LINE
5
F8
100
AcDbEntity
8
1
62
256
6
ByLayer
370
18
48
1
60
1
100
AcDbLine
10
-45.085946
20
6.499998
30
0
11
-44.164379
21
6.500002
31
0
39
0
210
0
220
0
230
1
0
LINE
5
F9
100
AcDbEntity
8
1
62
256
6
ByLayer
370
18
48
1
60
1
100
AcDbLine
10
-44.164379
20
6.500002
30
0
11
-44.625163
21
3
31
0
39
0
210
0
220
0
230
1
0
LINE
5
FB
100
AcDbEntity
8
1
62
256
6
ByLayer
370
18
48
1
60
1
100
AcDbLine
10
-44.625163
20
-3
30
0
11
-44.164379
21
-6.499998
31
0
39
0
210
0
220
0
230
1
0
LINE
5
FC
100
AcDbEntity
8
1
62
256
6
ByLayer
370
18
48
1
60
1
100
AcDbLine
10
-44.164379
20
-6.499998
30
0
11
-45.085946
21
-6.500002
31
0
39
0
210
0
220
0
230
1
0
LINE
5
FD
100
AcDbEntity
8
1
62
256
6
ByLayer
370
18
48
1
60
1
100
AcDbLine
10
-45.085946
20
-6.500002
30
0
11
-44.625163
21
-3
31
0
39
0
210
0
220
0
230
1
0
LINE
5
101
100
AcDbEntity
8
1
62
256
6
ByLayer
370
18
48
1
60
1
100
AcDbLine
10
42.083343
20
1.75
30
0
11
41.622559
21
5.249998
31
0
39
0
210
0
220
0
230
1
0
LINE
5
102
100
AcDbEntity
8
1
62
256
6
ByLayer
370
18
48
1
60
1
100
AcDbLine
10
41.622559
20
5.249998
30
0
11
42.544126
21
5.250002
31
0
39
0
210
0
220
0
230
1
0
LINE
5
103
100
AcDbEntity
8
1
62
256
6
ByLayer
370
18
48
1
60
1
100
AcDbLine
10
42.544126
20
5.250002
30
0
11
42.083343
21
1.75
31
0
39
0
210
0
220
0
230
1
0
LINE
5
105
100
AcDbEntity
8
1
62
256
6
ByLayer
370
18
48
1
60
1
100
AcDbLine
10
42.083343
20
-1.75
30
0
11
42.544126
21
-5.249998
31
0
39
0
210
0
220
0
230
1
0
LINE
5
106
100
AcDbEntity
8
1
62
256
6
ByLayer
370
18
48
1
60
1
100
AcDbLine
10
42.544126
20
-5.249998
30
0
11
41.622559
21
-5.250002
31
0
39
0
210
0
220
0
230
1
0
LINE
5
107
100
AcDbEntity
8
1
62
256
6
ByLayer
370
18
48
1
60
1
100
AcDbLine
10
41.622559
20
-5.250002
30
0
11
42.083343
21
-1.75
31
0
39
0
210
0
220
0
230
1
0
MTEXT
5
F1
100
AcDbEntity
8
SK6
62
256
6
ByLayer
370
13
48
1
60
0
100
AcDbMText
10
-31.109026
20
34.290328
30
0
210
0
220
0
230
1
1
\W0.7386;860.1-0350-021A0-PM P1BM
40
3.5
41
0
44
1.084337
50
0
71
7
72
5
7
iso_b_vert
0
MTEXT
5
F5
100
AcDbEntity
8
SK2
62
256
6
ByLayer
370
18
48
1
60
0
100
AcDbMText
10
-46.189796
20
16.409024
30
0
210
0
220
0
230
1
1
%%c
40
3.5
41
0
44
1.084337
50
90
71
7
72
5
7
iso_b_vert
0
MTEXT
5
F6
100
AcDbEntity
8
SK2
62
256
6
ByLayer
370
18
48
1
60
0
100
AcDbMText
10
-46.189796
20
21.63168
30
0
210
0
220
0
230
1
1
\W0.7317;6,000
40
3.5
41
0
44
1.084337
50
90
71
7
72
5
7
iso_b_vert
0
MTEXT
5
FF
100
AcDbEntity
8
2
62
256
6
ByLayer
370
18
48
1
60
0
100
AcDbMText
10
40.518709
20
13.75211
30
0
210
0
220
0
230
1
1
%%c
40
3.5
41
0
44
1.084337
50
90
71
7
72
5
7
iso_b_vert
0
MTEXT
5
100
100
AcDbEntity
8
2
62
256
6
ByLayer
370
18
48
1
60
0
100
AcDbMText
10
40.518709
20
18.974766
30
0
210
0
220
0
230
1
1
\W0.7317;3,500
40
3.5
41
0
44
1.084337
50
90
71
7
72
5
7
iso_b_vert
0
HATCH
5
FA
100
AcDbEntity
8
SK2
62
256
6
ByLayer
370
13
48
1
60
0
100
AcDbHatch
10
0
20
0
30
0
210
0
220
0
230
1
2
ANSI31
70
0
71
0
91
1
92
5
93
3
72
1
10
-44.6251625675374
20
3
11
-45.0859463090902
21
6.49999830744682
72
1
10
-45.0859463090902
20
6.49999830744682
11
-44.1643788259847
21
6.50000169255318
72
1
10
-44.1643788259847
20
6.50000169255318
11
-44.6251625675374
21
3
97
0
75
0
76
1
52
0
41
0.0062
77
0
78
1
53
45
43
0
44
0
45
-0.0139193969876572
46
0.0139193969876572
79
0
47
0
98
1
10
0
20
0
0
HATCH
5
FE
100
AcDbEntity
8
SK2
62
256
6
ByLayer
370
13
48
1
60
0
100
AcDbHatch
10
0
20
0
30
0
210
0
220
0
230
1
2
ANSI31
70
0
71
0
91
1
92
5
93
3
72
1
10
-44.6251625675374
20
-3
11
-44.1643788259847
21
-6.49999830744682
72
1
10
-44.1643788259847
20
-6.49999830744682
11
-45.0859463090902
21
-6.50000169255318
72
1
10
-45.0859463090902
20
-6.50000169255318
11
-44.6251625675374
21
-3
97
0
75
0
76
1
52
0
41
0.0062
77
0
78
1
53
45
43
0
44
0
45
-0.0139193969876572
46
0.0139193969876572
79
0
47
0
98
1
10
0
20
0
0
HATCH
5
104
100
AcDbEntity
8
2
62
256
6
ByLayer
370
13
48
1
60
0
100
AcDbHatch
10
0
20
0
30
0
210
0
220
0
230
1
2
ANSI31
70
0
71
0
91
1
92
5
93
3
72
1
10
42.083342615295
20
1.75
11
41.6225588737423
21
5.24999830744682
72
1
10
41.6225588737423
20
5.24999830744682
11
42.5441263568478
21
5.25000169255318
72
1
10
42.5441263568478
20
5.25000169255318
11
42.083342615295
21
1.75
97
0
75
0
76
1
52
0
41
0.0062
77
0
78
1
53
45
43
0
44
0
45
-0.0139193969876572
46
0.0139193969876572
79
0
47
0
98
1
10
0
20
0
0
HATCH
5
108
100
AcDbEntity
8
2
62
256
6
ByLayer
370
13
48
1
60
0
100
AcDbHatch
10
0
20
0
30
0
210
0
220
0
230
1
2
ANSI31
70
0
71
0
91
1
92
5
93
3
72
1
10
42.083342615295
20
-1.75
11
42.5441263568478
21
-5.24999830744682
72
1
10
42.5441263568478
20
-5.24999830744682
11
41.6225588737423
21
-5.25000169255318
72
1
10
41.6225588737423
20
-5.25000169255318
11
42.083342615295
21
-1.75
97
0
75
0
76
1
52
0
41
0.0062
77
0
78
1
53
45
43
0
44
0
45
-0.0139193969876572
46
0.0139193969876572
79
0
47
0
98
1
10
0
20
0
0
DIMENSION
5
10A
100
AcDbEntity
8
2
62
256
6
ByLayer
370
13
48
1
60
0
100
AcDbDimension
2
_U0
10
29.3109
20
-11.963398
30
0
11
14.65545
21
-11.963398
31
0
70
32
71
1
72
1
41
1
210
0
220
0
230
1
3
Standard
100
AcDbAlignedDimension
13
0
23
0
33
0
14
29.3109
24
-1.75
34
0
50
0
100
AcDbRotatedDimension
1001
ACAD
1000
DSTYLE
1002
{
1070
   371
1070
    13
1070
   372
1070
    13
1070
   170
1070
     0
1070
   144
1040
1.0
1070
   277
1070
     2
1070
   278
1070
    44
1070
   146
1040
1.0
1070
   345
1005
16
1070
   347
1005
16
1070
   346
1005
16
1070
   344
1005
0
1070
   343
1005
0
1070
   172
1070
     1
1070
    76
1070
     0
1070
    75
1070
     0
1070
   282
1070
     0
1070
   281
1070
     0
1070
    71
1070
     0
1070
    74
1070
     0
1070
   279
1070
     0
1070
   173
1070
     1
1070
   340
1005
F2
1070
   271
1070
     2
1070
   272
1070
     2
1070
    77
1070
     1
1070
    73
1070
     1
1070
   171
1070
     3
1070
   274
1070
     4
1070
   177
1070
    35
1070
   176
1070
    35
1070
   178
1070
    35
1070
    48
1040
-0.1
1070
    41
1040
3.5
1070
   147
1040
1.75
1070
    42
1040
1.5875
1070
    44
1040
2.0
1070
   140
1040
3.5
1002
}
1001
ACAD_DSTYLE_DIM_LINETYPE
1070
   380
1005
16
1001
ACAD_DSTYLE_DIM_EXT1_LINETYPE
1070
   381
1005
16
1001
ACAD_DSTYLE_DIM_EXT2_LINETYPE
1070
   382
1005
16
0
DIMENSION
5
123
100
AcDbEntity
8
SK2
62
256
6
ByLayer
370
13
48
1
60
0
100
AcDbDimension
2
_U1
10
30
20
-31.692985
30
0
11
-3
21
-31.692985
31
0
70
32
71
1
72
1
41
1
210
0
220
0
230
1
3
Standard
100
AcDbAlignedDimension
13
-36
23
-3
33
0
14
30
24
0
34
0
50
0
100
AcDbRotatedDimension
1001
ACAD
1000
DSTYLE
1002
{
1070
   371
1070
    13
1070
   372
1070
    13
1070
   170
1070
     0
1070
   144
1040
1.0
1070
   277
1070
     2
1070
   278
1070
    44
1070
   146
1040
1.0
1070
   345
1005
16
1070
   347
1005
16
1070
   346
1005
16
1070
   344
1005
0
1070
   343
1005
0
1070
   172
1070
     1
1070
    76
1070
     0
1070
    75
1070
     0
1070
   282
1070
     0
1070
   281
1070
     0
1070
    71
1070
     0
1070
    74
1070
     0
1070
   279
1070
     0
1070
   173
1070
     1
1070
   340
1005
F2
1070
   271
1070
     2
1070
   272
1070
     2
1070
    77
1070
     1
1070
    73
1070
     1
1070
   171
1070
     3
1070
   274
1070
     4
1070
   177
1070
    35
1070
   176
1070
    35
1070
   178
1070
    35
1070
    48
1040
-0.1
1070
    41
1040
3.5
1070
   147
1040
1.75
1070
    42
1040
1.5875
1070
    44
1040
2.0
1070
   140
1040
3.5
1002
}
1001
ACAD_DSTYLE_DIM_LINETYPE
1070
   380
1005
16
1001
ACAD_DSTYLE_DIM_EXT1_LINETYPE
1070
   381
1005
16
1001
ACAD_DSTYLE_DIM_EXT2_LINETYPE
1070
   382
1005
16
0
DIMENSION
5
13B
100
AcDbEntity
8
SK2
62
256
6
ByLayer
370
13
48
1
60
0
100
AcDbDimension
2
_U2
10
30
20
13.359119
30
0
11
20.905
21
13.359119
31
0
70
32
71
1
72
1
41
1
210
0
220
0
230
1
3
Standard
100
AcDbAlignedDimension
13
11.81
23
1.75
33
0
14
30
24
0
34
0
50
0
100
AcDbRotatedDimension
1001
ACAD
1000
DSTYLE
1002
{
1070
   371
1070
    13
1070
   372
1070
    13
1070
   170
1070
     0
1070
   144
1040
1.0
1070
   277
1070
     2
1070
   278
1070
    44
1070
   146
1040
1.0
1070
   345
1005
16
1070
   347
1005
16
1070
   346
1005
16
1070
   344
1005
0
1070
   343
1005
0
1070
   172
1070
     1
1070
    76
1070
     0
1070
    75
1070
     0
1070
   282
1070
     0
1070
   281
1070
     0
1070
    71
1070
     0
1070
    74
1070
     0
1070
   279
1070
     0
1070
   173
1070
     1
1070
   340
1005
F2
1070
   271
1070
     2
1070
   272
1070
     2
1070
    77
1070
     1
1070
    73
1070
     1
1070
   171
1070
     3
1070
   274
1070
     4
1070
   177
1070
    35
1070
   176
1070
    35
1070
   178
1070
    35
1070
    48
1040
-0.1
1070
    41
1040
3.5
1070
   147
1040
1.75
1070
    42
1040
1.5875
1070
    44
1040
2.0
1070
   140
1040
3.5
1002
}
1001
ACAD_DSTYLE_DIM_LINETYPE
1070
   380
1005
16
1001
ACAD_DSTYLE_DIM_EXT1_LINETYPE
1070
   381
1005
16
1001
ACAD_DSTYLE_DIM_EXT2_LINETYPE
1070
   382
1005
16
0
DIMENSION
5
153
100
AcDbEntity
8
SK2
62
256
6
ByLayer
370
13
48
1
60
0
100
AcDbDimension
2
_U3
10
29.3109
20
-14.552503
30
0
11
47.5
21
-14.552503
31
0
70
32
71
1
72
1
41
1
210
0
220
0
230
1
3
Standard
100
AcDbAlignedDimension
13
30
23
0
33
0
14
29.3109
24
-1.75
34
0
50
0
100
AcDbRotatedDimension
1001
ACAD
1000
DSTYLE
1002
{
1070
   371
1070
    13
1070
   372
1070
    13
1070
   170
1070
     0
1070
   144
1040
1.0
1070
   277
1070
     2
1070
   278
1070
    44
1070
   146
1040
1.0
1070
   345
1005
16
1070
   347
1005
16
1070
   346
1005
16
1070
   344
1005
0
1070
   343
1005
0
1070
   172
1070
     1
1070
    76
1070
     0
1070
    75
1070
     0
1070
   282
1070
     0
1070
   281
1070
     0
1070
    71
1070
     0
1070
    74
1070
     0
1070
   279
1070
     0
1070
   173
1070
     1
1070
   340
1005
F2
1070
   271
1070
     2
1070
   272
1070
     2
1070
    77
1070
     1
1070
    73
1070
     1
1070
   171
1070
     3
1070
   274
1070
     4
1070
   177
1070
    35
1070
   176
1070
    35
1070
   178
1070
    35
1070
    48
1040
-0.1
1070
    41
1040
3.5
1070
   147
1040
1.75
1070
    42
1040
1.5875
1070
    44
1040
2.0
1070
   140
1040
3.5
1002
}
1001
ACAD_DSTYLE_DIM_LINETYPE
1070
   380
1005
16
1001
ACAD_DSTYLE_DIM_EXT1_LINETYPE
1070
   381
1005
16
1001
ACAD_DSTYLE_DIM_EXT2_LINETYPE
1070
   382
1005
16
0
DIMENSION
5
16D
100
AcDbEntity
8
SK2
62
256
6
ByLayer
370
13
48
1
60
0
100
AcDbDimension
2
_U4
10
29.3109
20
-21.343428
30
0
11
-3.34455
21
-21.343428
31
0
70
32
71
1
72
1
41
1
210
0
220
0
230
1
3
Standard
100
AcDbAlignedDimension
13
-36
23
-3
33
0
14
29.3109
24
-1.75
34
0
50
0
100
AcDbRotatedDimension
1001
ACAD
1000
DSTYLE
1002
{
1070
   371
1070
    13
1070
   372
1070
    13
1070
   170
1070
     0
1070
   144
1040
1.0
1070
   277
1070
     2
1070
   278
1070
    44
1070
   146
1040
1.0
1070
   345
1005
16
1070
   347
1005
16
1070
   346
1005
16
1070
   344
1005
0
1070
   343
1005
0
1070
   172
1070
     1
1070
    76
1070
     0
1070
    75
1070
     0
1070
   282
1070
     0
1070
   281
1070
     0
1070
    71
1070
     0
1070
    74
1070
     0
1070
   279
1070
     0
1070
   173
1070
     1
1070
   340
1005
F2
1070
   271
1070
     2
1070
   272
1070
     2
1070
    77
1070
     1
1070
    73
1070
     1
1070
   171
1070
     3
1070
   274
1070
     4
1070
   177
1070
    35
1070
   176
1070
    35
1070
   178
1070
    35
1070
    48
1040
-0.1
1070
    41
1040
3.5
1070
   147
1040
1.75
1070
    42
1040
1.5875
1070
    44
1040
2.0
1070
   140
1040
3.5
1002
}
1001
ACAD_DSTYLE_DIM_LINETYPE
1070
   380
1005
16
1001
ACAD_DSTYLE_DIM_EXT1_LINETYPE
1070
   381
1005
16
1001
ACAD_DSTYLE_DIM_EXT2_LINETYPE
1070
   382
1005
16
0
ENDSEC
0
SECTION
2
OBJECTS
0
DICTIONARY
5
1f5
330
0
100
AcDbDictionary
280
0
281
1
3
ACAD_GROUP
350
1f6
3
ACAD_MLINESTYLE
350
1f7
0
DICTIONARY
5
1f6
330
0
100
AcDbDictionary
280
0
281
1
0
DICTIONARY
5
1f7
330
0
100
AcDbDictionary
280
0
281
1
3
Standard
350
18
0
MLINESTYLE
5
18
330
1f7
100
AcDbMlineStyle
2
Standard
70
0
3

62
256
51
90
52
90
71
2
49
-0.5
62
256
6
ByLayer
49
0.5
62
256
6
ByLayer
0
RASTERVARIABLES
5
1e3
330

100
AcDbRasterVariables
90
0
70
1
71
1
72
1
0
ENDSEC
0
EOF
