0
SECTION
2
HEADER
9
$ACADVER
1
AC1015
9
$DWGCODEPAGE
3
ANSI_1252
9
$HANDSEED
5
203
9
$ANGBASE
50
0
9
$ANGDIR
70
0
9
$ATTMODE
70
1
9
$AUNITS
70
0
9
$AUPREC
70
0
9
$CECOLOR
62
256
9
$CELTSCALE
40
1
9
$CELTYPE
6
ByLayer
9
$CELWEIGHT
370
18
9
$CLAYER
8
0
9
$CMLJUST
70
0
9
$CMLSCALE
40
1
9
$CMLSTYLE
2
Standard
9
$DIMSTYLE
2
Standard
9
$TEXTSIZE
40
0.2
9
$TEXTSTYLE
7
Standard
9
$LUNITS
70
2
9
$LUPREC
70
4
9
$EXTNAMES
290
1
9
$INSUNITS
70
4
9
$LTSCALE
40
1
9
$LWDISPLAY
290
1
9
$PDMODE
70
0
9
$PDSIZE
40
0
9
$PLINEGEN
70
0
0
ENDSEC
0
SECTION
2
CLASSES
0
CLASS
1
RASTERVARIABLES
2
AcDbRasterVariables
3
ISM
90
0
280
0
281
0
0
ENDSEC
0
SECTION
2
TABLES
0
TABLE
2
VPORT
5
1f9
100
AcDbSymbolTable
0
VPORT
5
1
100
AcDbSymbolTableRecord
100
AcDbViewportTableRecord
2
*Active
70
0
10
0
20
0
11
1
21
1
12
-1
22
1
13
0
23
0
14
0.5
24
0.5
15
10
25
10
16
0
26
0
36
1
17
0
27
0
37
0
0
ENDTAB
0
TABLE
2
LTYPE
5
1fa
100
AcDbSymbolTable
0
LTYPE
5
14
100
AcDbSymbolTableRecord
100
AcDbLinetypeTableRecord
70
0
2
ByBlock
3

72
65
73
0
40
0
0
LTYPE
5
15
100
AcDbSymbolTableRecord
100
AcDbLinetypeTableRecord
70
0
2
ByLayer
3

72
65
73
0
40
0
0
LTYPE
5
16
100
AcDbSymbolTableRecord
100
AcDbLinetypeTableRecord
70
0
2
Continuous
3
Solid line
72
65
73
0
40
0
0
LTYPE
5
6E
100
AcDbSymbolTableRecord
100
AcDbLinetypeTableRecord
70
0
2
CENTER
3
____ _ ____ _ ____ _ ____
72
65
73
4
40
47.5
49
22
74
0
49
-8.5
74
0
49
8.5
74
0
49
-8.5
74
0
0
LTYPE
5
6F
100
AcDbSymbolTableRecord
100
AcDbLinetypeTableRecord
70
0
2
DASHED
3
__ __ __ __ __ __ __ __ __
72
65
73
2
40
25.72
49
12.86
74
0
49
-12.86
74
0
0
ENDTAB
0
TABLE
2
LAYER
5
1fb
100
AcDbSymbolTable
0
LAYER
5
10
100
AcDbSymbolTableRecord
100
AcDbLayerTableRecord
2
0
70
0
62
7
6
Continuous
290
1
370
-3
390
0
0
LAYER
5
71
100
AcDbSymbolTableRecord
100
AcDbLayerTableRecord
2
80
70
0
62
-6
6
Continuous
290
1
370
-3
390
0
0
LAYER
5
73
100
AcDbSymbolTableRecord
100
AcDbLayerTableRecord
2
81
70
0
62
-3
6
Continuous
290
1
370
-3
390
0
0
LAYER
5
75
100
AcDbSymbolTableRecord
100
AcDbLayerTableRecord
2
1
70
0
62
4
6
Continuous
290
1
370
-3
390
0
0
LAYER
5
86
100
AcDbSymbolTableRecord
100
AcDbLayerTableRecord
2
4
70
0
62
-2
6
CENTER
290
1
370
-3
390
0
0
LAYER
5
9F
100
AcDbSymbolTableRecord
100
AcDbLayerTableRecord
2
2
70
0
62
7
6
Continuous
290
1
370
-3
390
0
0
LAYER
5
10E
100
AcDbSymbolTableRecord
100
AcDbLayerTableRecord
2
Defpoints
70
0
62
7
6
Continuous
290
0
370
-3
390
0
0
LAYER
5
1e5
100
AcDbSymbolTableRecord
100
AcDbLayerTableRecord
2
SK1
70
0
62
4
6
Continuous
290
1
370
-3
390
0
0
LAYER
5
1e6
100
AcDbSymbolTableRecord
100
AcDbLayerTableRecord
2
SK4
70
0
62
2
6
CENTER
290
1
370
-3
390
0
0
LAYER
5
1e7
100
AcDbSymbolTableRecord
100
AcDbLayerTableRecord
2
SK2
70
0
62
7
6
Continuous
290
1
370
-3
390
0
0
LAYER
5
1e8
100
AcDbSymbolTableRecord
100
AcDbLayerTableRecord
2
SK6
70
0
62
5
6
Continuous
290
1
370
-3
390
0
0
ENDTAB
0
TABLE
2
STYLE
5
1fc
100
AcDbSymbolTable
0
STYLE
5
11
100
AcDbSymbolTableRecord
100
AcDbTextStyleTableRecord
2
Standard
3
txt
70
0
71
0
40
0
41
1
42
0
50
0
0
STYLE
5
F3
100
AcDbSymbolTableRecord
100
AcDbTextStyleTableRecord
2
iso_b_vert
3
simplex.shx
70
0
71
0
40
0
41
1
42
0
50
0
0
STYLE
5
F4
100
AcDbSymbolTableRecord
100
AcDbTextStyleTableRecord
2
DWGDirectTextStyle
3
simplex
70
0
71
0
40
0
41
1
42
0
50
0
0
ENDTAB
0
TABLE
2
DIMSTYLE
5
1fd
100
AcDbSymbolTable
100
AcDbDimStyleTable
0
DIMSTYLE
105
27
100
AcDbSymbolTableRecord
100
AcDbDimStyleTableRecord
2
Standard
70
0
3
<>
41
0.18
42
0.0625
44
0.18
140
0.18
147
0.09
73
0
74
0
77
1
271
2
275
0
278
52
280
0
340
11
0
ENDTAB
0
TABLE
2
VIEW
5
1fe
100
AcDbSymbolTable
0
ENDTAB
0
TABLE
2
UCS
5
1ff
100
AcDbSymbolTable
0
ENDTAB
0
TABLE
2
APPID
5
200
100
AcDbSymbolTable
0
APPID
5
12
100
AcDbSymbolTableRecord
100
AcDbRegAppTableRecord
2
ACAD
70
0
0
APPID
5
10A
100
AcDbSymbolTableRecord
100
AcDbRegAppTableRecord
2
ACAD_DSTYLE_DIMBREAK
70
0
0
APPID
5
1A4
100
AcDbSymbolTableRecord
100
AcDbRegAppTableRecord
2
ACAD_DSTYLE_DIM_LINETYPE
70
0
0
APPID
5
1A5
100
AcDbSymbolTableRecord
100
AcDbRegAppTableRecord
2
ACAD_DSTYLE_DIM_EXT1_LINETYPE
70
0
0
APPID
5
1A6
100
AcDbSymbolTableRecord
100
AcDbRegAppTableRecord
2
ACAD_DSTYLE_DIM_EXT2_LINETYPE
70
0
0
APPID
5
1E1
100
AcDbSymbolTableRecord
100
AcDbRegAppTableRecord
2
ACAD_MLEADERVER
70
0
0
ENDTAB
0
TABLE
2
BLOCK_RECORD
5
201
100
AcDbSymbolTable
0
BLOCK_RECORD
5
1F
100
AcDbSymbolTableRecord
100
AcDbBlockTableRecord
2
*Model_Space
340
0
70
0
0
BLOCK_RECORD
5
1B
100
AcDbSymbolTableRecord
100
AcDbBlockTableRecord
2
*Paper_Space
340
0
70
0
0
BLOCK_RECORD
5
23
100
AcDbSymbolTableRecord
100
AcDbBlockTableRecord
2
*Paper_Space0
340
0
70
0
0
BLOCK_RECORD
5
10F
100
AcDbSymbolTableRecord
100
AcDbBlockTableRecord
2
*D1
340
0
70
0
0
BLOCK_RECORD
5
11B
100
AcDbSymbolTableRecord
100
AcDbBlockTableRecord
2
_U0
340
0
70
0
0
BLOCK_RECORD
5
127
100
AcDbSymbolTableRecord
100
AcDbBlockTableRecord
2
*D3
340
0
70
0
0
BLOCK_RECORD
5
133
100
AcDbSymbolTableRecord
100
AcDbBlockTableRecord
2
_U1
340
0
70
0
0
BLOCK_RECORD
5
13F
100
AcDbSymbolTableRecord
100
AcDbBlockTableRecord
2
*D5
340
0
70
0
0
BLOCK_RECORD
5
14B
100
AcDbSymbolTableRecord
100
AcDbBlockTableRecord
2
_U2
340
0
70
0
0
BLOCK_RECORD
5
157
100
AcDbSymbolTableRecord
100
AcDbBlockTableRecord
2
*D7
340
0
70
0
0
BLOCK_RECORD
5
165
100
AcDbSymbolTableRecord
100
AcDbBlockTableRecord
2
_U3
340
0
70
0
0
BLOCK_RECORD
5
171
100
AcDbSymbolTableRecord
100
AcDbBlockTableRecord
2
*D9
340
0
70
0
0
BLOCK_RECORD
5
17D
100
AcDbSymbolTableRecord
100
AcDbBlockTableRecord
2
_U4
340
0
70
0
0
ENDTAB
0
ENDSEC
0
SECTION
2
BLOCKS
0
BLOCK
5
20
100
AcDbEntity
8
0
100
AcDbBlockBegin
2
*Model_Space
70
0
10
0
20
0
30
0
3
*Model_Space
0
ENDBLK
5
21
100
AcDbEntity
8
0
100
AcDbBlockEnd
0
BLOCK
5
1C
100
AcDbEntity
8
0
100
AcDbBlockBegin
2
*Paper_Space
70
0
10
0
20
0
30
0
3
*Paper_Space
0
ENDBLK
5
1D
100
AcDbEntity
8
0
100
AcDbBlockEnd
0
BLOCK
5
24
100
AcDbEntity
8
0
100
AcDbBlockBegin
2
*Paper_Space0
70
0
10
0
20
0
30
0
3
*Paper_Space0
0
ENDBLK
5
25
100
AcDbEntity
8
0
100
AcDbBlockEnd
0
BLOCK
5
110
100
AcDbEntity
8
0
100
AcDbBlockBegin
2
*D1
70
1
10
0
20
0
30
0
3
*D1
0
LINE
5
112
100
AcDbEntity
8
0
62
256
6
ByLayer
370
-2
48
1
60
0
100
AcDbLine
10
0
20
-1.5875
30
0
11
0
21
-14.013398
31
0
39
0
210
0
220
0
230
1
0
LINE
5
113
100
AcDbEntity
8
0
62
256
6
ByLayer
370
-2
48
1
60
0
100
AcDbLine
10
29.2923
20
-3.3875
30
0
11
29.2923
21
-14.013398
31
0
39
0
210
0
220
0
230
1
0
LINE
5
114
100
AcDbEntity
8
0
62
256
6
ByLayer
370
-2
48
1
60
0
100
AcDbLine
10
3.5
20
-12.013398
30
0
11
25.7923
21
-12.013398
31
0
39
0
210
0
220
0
230
1
0
SOLID
5
115
100
AcDbEntity
8
0
62
256
6
ByLayer
370
-1
48
1
60
0
100
AcDbTrace
10
3.5
20
-11.430065
30
0
11
3.5
21
-12.596732
31
0
12
0
22
-12.013398
32
0
13
0
23
-12.013398
33
0
39
0
210
0
220
0
230
1
0
SOLID
5
116
100
AcDbEntity
8
0
62
256
6
ByLayer
370
-1
48
1
60
0
100
AcDbTrace
10
25.7923
20
-12.596732
30
0
11
25.7923
21
-11.430065
31
0
12
29.2923
22
-12.013398
32
0
13
29.2923
23
-12.013398
33
0
39
0
210
0
220
0
230
1
0
MTEXT
5
117
100
AcDbEntity
8
0
62
256
6
ByLayer
370
18
48
1
60
0
100
AcDbMText
10
14.64615
20
-5.013398
30
0
210
0
220
0
230
1
1
\A1;29.29
40
3.5
41
0
44
1
50
0
71
5
72
5
7
iso_b_vert
0
POINT
5
118
100
AcDbEntity
8
Defpoints
62
0
6
ByLayer
370
-1
48
1
60
0
100
AcDbPoint
10
0
20
0
30
0
39
0
210
0
220
0
230
1
50
360
0
POINT
5
119
100
AcDbEntity
8
Defpoints
62
0
6
ByLayer
370
-1
48
1
60
0
100
AcDbPoint
10
29.2923
20
-1.8
30
0
39
0
210
0
220
0
230
1
50
360
0
POINT
5
11A
100
AcDbEntity
8
Defpoints
62
0
6
ByLayer
370
-1
48
1
60
0
100
AcDbPoint
10
29.2923
20
-12.013398
30
0
39
0
210
0
220
0
230
1
50
360
0
ENDBLK
5
111
100
AcDbEntity
8
0
100
AcDbBlockEnd
0
BLOCK
5
122
100
AcDbEntity
8
0
100
AcDbBlockBegin
2
_U0
70
0
10
0
20
0
30
0
3
_U0
0
MTEXT
5
11C
100
AcDbEntity
8
2
62
256
6
ByLayer
370
13
48
1
60
0
100
AcDbMText
10
9.508851
20
-10.980765
30
0
210
0
220
0
230
1
1
\W0.7402;29,29
40
3.5
41
0
44
1.084337
50
0
71
7
72
5
7
iso_b_vert
0
LINE
5
11D
100
AcDbEntity
8
2
62
256
6
ByLayer
370
13
48
1
60
0
100
AcDbLine
10
0
20
-1.5875
30
0
11
0
21
-14.013398
31
0
39
0
210
0
220
0
230
1
0
LINE
5
11E
100
AcDbEntity
8
2
62
256
6
ByLayer
370
13
48
1
60
0
100
AcDbLine
10
29.2923
20
-3.3875
30
0
11
29.2923
21
-14.013398
31
0
39
0
210
0
220
0
230
1
0
LINE
5
11F
100
AcDbEntity
8
2
62
256
6
ByLayer
370
13
48
1
60
0
100
AcDbLine
10
0
20
-12.013398
30
0
11
29.2923
21
-12.013398
31
0
39
0
210
0
220
0
230
1
0
SOLID
5
120
100
AcDbEntity
8
2
62
256
6
ByLayer
370
18
48
1
60
0
100
AcDbTrace
10
0
20
-12.013398
30
0
11
3.499998
21
-11.552615
31
0
12
3.500002
22
-12.474182
32
0
13
3.500002
23
-12.474182
33
0
39
0
210
0
220
0
230
1
0
SOLID
5
121
100
AcDbEntity
8
2
62
256
6
ByLayer
370
18
48
1
60
0
100
AcDbTrace
10
29.2923
20
-12.013398
30
0
11
25.792302
21
-12.474182
31
0
12
25.792298
22
-11.552615
32
0
13
25.792298
23
-11.552615
33
0
39
0
210
0
220
0
230
1
0
ENDBLK
5
123
100
AcDbEntity
8
0
100
AcDbBlockEnd
0
BLOCK
5
128
100
AcDbEntity
8
0
100
AcDbBlockBegin
2
*D3
70
1
10
0
20
0
30
0
3
*D3
0
LINE
5
12A
100
AcDbEntity
8
0
62
256
6
ByLayer
370
-2
48
1
60
0
100
AcDbLine
10
-36
20
-4.5875
30
0
11
-36
21
-33.692985
31
0
39
0
210
0
220
0
230
1
0
LINE
5
12B
100
AcDbEntity
8
0
62
256
6
ByLayer
370
-2
48
1
60
0
100
AcDbLine
10
30
20
-1.5875
30
0
11
30
21
-33.692985
31
0
39
0
210
0
220
0
230
1
0
LINE
5
12C
100
AcDbEntity
8
0
62
256
6
ByLayer
370
-2
48
1
60
0
100
AcDbLine
10
-32.5
20
-31.692985
30
0
11
26.5
21
-31.692985
31
0
39
0
210
0
220
0
230
1
0
SOLID
5
12D
100
AcDbEntity
8
0
62
256
6
ByLayer
370
-1
48
1
60
0
100
AcDbTrace
10
-32.5
20
-31.109652
30
0
11
-32.5
21
-32.276319
31
0
12
-36
22
-31.692985
32
0
13
-36
23
-31.692985
33
0
39
0
210
0
220
0
230
1
0
SOLID
5
12E
100
AcDbEntity
8
0
62
256
6
ByLayer
370
-1
48
1
60
0
100
AcDbTrace
10
26.5
20
-32.276319
30
0
11
26.5
21
-31.109652
31
0
12
30
22
-31.692985
32
0
13
30
23
-31.692985
33
0
39
0
210
0
220
0
230
1
0
MTEXT
5
12F
100
AcDbEntity
8
0
62
256
6
ByLayer
370
18
48
1
60
0
100
AcDbMText
10
-3
20
-24.692985
30
0
210
0
220
0
230
1
1
\A1;66.00
40
3.5
41
0
44
1
50
0
71
5
72
5
7
iso_b_vert
0
POINT
5
130
100
AcDbEntity
8
Defpoints
62
0
6
ByLayer
370
-1
48
1
60
0
100
AcDbPoint
10
-36
20
-3
30
0
39
0
210
0
220
0
230
1
50
360
0
POINT
5
131
100
AcDbEntity
8
Defpoints
62
0
6
ByLayer
370
-1
48
1
60
0
100
AcDbPoint
10
30
20
0
30
0
39
0
210
0
220
0
230
1
50
360
0
POINT
5
132
100
AcDbEntity
8
Defpoints
62
0
6
ByLayer
370
-1
48
1
60
0
100
AcDbPoint
10
30
20
-31.692985
30
0
39
0
210
0
220
0
230
1
50
360
0
ENDBLK
5
129
100
AcDbEntity
8
0
100
AcDbBlockEnd
0
BLOCK
5
13A
100
AcDbEntity
8
0
100
AcDbBlockBegin
2
_U1
70
0
10
0
20
0
30
0
3
_U1
0
MTEXT
5
134
100
AcDbEntity
8
SK2
62
256
6
ByLayer
370
13
48
1
60
0
100
AcDbMText
10
-8.137299
20
-30.660352
30
0
210
0
220
0
230
1
1
\W0.7317;66,00
40
3.5
41
0
44
1.084337
50
0
71
7
72
5
7
iso_b_vert
0
LINE
5
135
100
AcDbEntity
8
SK2
62
256
6
ByLayer
370
13
48
1
60
0
100
AcDbLine
10
-36
20
-4.5875
30
0
11
-36
21
-33.692985
31
0
39
0
210
0
220
0
230
1
0
LINE
5
136
100
AcDbEntity
8
SK2
62
256
6
ByLayer
370
13
48
1
60
0
100
AcDbLine
10
30
20
-1.5875
30
0
11
30
21
-33.692985
31
0
39
0
210
0
220
0
230
1
0
LINE
5
137
100
AcDbEntity
8
SK2
62
256
6
ByLayer
370
13
48
1
60
0
100
AcDbLine
10
-36
20
-31.692985
30
0
11
30
21
-31.692985
31
0
39
0
210
0
220
0
230
1
0
SOLID
5
138
100
AcDbEntity
8
SK2
62
256
6
ByLayer
370
18
48
1
60
0
100
AcDbTrace
10
-36
20
-31.692985
30
0
11
-32.500002
21
-31.232202
31
0
12
-32.499998
22
-32.153769
32
0
13
-32.499998
23
-32.153769
33
0
39
0
210
0
220
0
230
1
0
SOLID
5
139
100
AcDbEntity
8
SK2
62
256
6
ByLayer
370
18
48
1
60
0
100
AcDbTrace
10
30
20
-31.692985
30
0
11
26.500002
21
-32.153769
31
0
12
26.499998
22
-31.232202
32
0
13
26.499998
23
-31.232202
33
0
39
0
210
0
220
0
230
1
0
ENDBLK
5
13B
100
AcDbEntity
8
0
100
AcDbBlockEnd
0
BLOCK
5
140
100
AcDbEntity
8
0
100
AcDbBlockBegin
2
*D5
70
1
10
0
20
0
30
0
3
*D5
0
LINE
5
142
100
AcDbEntity
8
0
62
256
6
ByLayer
370
-2
48
1
60
0
100
AcDbLine
10
11.29
20
3.3875
30
0
11
11.29
21
15.409119
31
0
39
0
210
0
220
0
230
1
0
LINE
5
143
100
AcDbEntity
8
0
62
256
6
ByLayer
370
-2
48
1
60
0
100
AcDbLine
10
30
20
1.5875
30
0
11
30
21
15.409119
31
0
39
0
210
0
220
0
230
1
0
LINE
5
144
100
AcDbEntity
8
0
62
256
6
ByLayer
370
-2
48
1
60
0
100
AcDbLine
10
14.79
20
13.409119
30
0
11
26.5
21
13.409119
31
0
39
0
210
0
220
0
230
1
0
SOLID
5
145
100
AcDbEntity
8
0
62
256
6
ByLayer
370
-1
48
1
60
0
100
AcDbTrace
10
14.79
20
13.992453
30
0
11
14.79
21
12.825786
31
0
12
11.29
22
13.409119
32
0
13
11.29
23
13.409119
33
0
39
0
210
0
220
0
230
1
0
SOLID
5
146
100
AcDbEntity
8
0
62
256
6
ByLayer
370
-1
48
1
60
0
100
AcDbTrace
10
26.5
20
12.825786
30
0
11
26.5
21
13.992453
31
0
12
30
22
13.409119
32
0
13
30
23
13.409119
33
0
39
0
210
0
220
0
230
1
0
MTEXT
5
147
100
AcDbEntity
8
0
62
256
6
ByLayer
370
18
48
1
60
0
100
AcDbMText
10
20.645
20
20.409119
30
0
210
0
220
0
230
1
1
\A1;18.71
40
3.5
41
0
44
1
50
0
71
5
72
5
7
iso_b_vert
0
POINT
5
148
100
AcDbEntity
8
Defpoints
62
0
6
ByLayer
370
-1
48
1
60
0
100
AcDbPoint
10
11.29
20
1.8
30
0
39
0
210
0
220
0
230
1
50
360
0
POINT
5
149
100
AcDbEntity
8
Defpoints
62
0
6
ByLayer
370
-1
48
1
60
0
100
AcDbPoint
10
30
20
0
30
0
39
0
210
0
220
0
230
1
50
360
0
POINT
5
14A
100
AcDbEntity
8
Defpoints
62
0
6
ByLayer
370
-1
48
1
60
0
100
AcDbPoint
10
30
20
13.409119
30
0
39
0
210
0
220
0
230
1
50
360
0
ENDBLK
5
141
100
AcDbEntity
8
0
100
AcDbBlockEnd
0
BLOCK
5
152
100
AcDbEntity
8
0
100
AcDbBlockBegin
2
_U2
70
0
10
0
20
0
30
0
3
_U2
0
MTEXT
5
14C
100
AcDbEntity
8
SK2
62
256
6
ByLayer
370
13
48
1
60
0
100
AcDbMText
10
16.382568
20
14.441753
30
0
210
0
220
0
230
1
1
\W0.6563;18,71
40
3.5
41
0
44
1.084337
50
0
71
7
72
5
7
iso_b_vert
0
LINE
5
14D
100
AcDbEntity
8
SK2
62
256
6
ByLayer
370
13
48
1
60
0
100
AcDbLine
10
11.29
20
3.3875
30
0
11
11.29
21
15.409119
31
0
39
0
210
0
220
0
230
1
0
LINE
5
14E
100
AcDbEntity
8
SK2
62
256
6
ByLayer
370
13
48
1
60
0
100
AcDbLine
10
30
20
1.5875
30
0
11
30
21
15.409119
31
0
39
0
210
0
220
0
230
1
0
LINE
5
14F
100
AcDbEntity
8
SK2
62
256
6
ByLayer
370
13
48
1
60
0
100
AcDbLine
10
11.29
20
13.409119
30
0
11
30
21
13.409119
31
0
39
0
210
0
220
0
230
1
0
SOLID
5
150
100
AcDbEntity
8
SK2
62
256
6
ByLayer
370
18
48
1
60
0
100
AcDbTrace
10
11.29
20
13.409119
30
0
11
14.789998
21
13.869903
31
0
12
14.790002
22
12.948335
32
0
13
14.790002
23
12.948335
33
0
39
0
210
0
220
0
230
1
0
SOLID
5
151
100
AcDbEntity
8
SK2
62
256
6
ByLayer
370
18
48
1
60
0
100
AcDbTrace
10
30
20
13.409119
30
0
11
26.500002
21
12.948335
31
0
12
26.499998
22
13.869903
32
0
13
26.499998
23
13.869903
33
0
39
0
210
0
220
0
230
1
0
ENDBLK
5
153
100
AcDbEntity
8
0
100
AcDbBlockEnd
0
BLOCK
5
158
100
AcDbEntity
8
0
100
AcDbBlockBegin
2
*D7
70
1
10
0
20
0
30
0
3
*D7
0
LINE
5
15A
100
AcDbEntity
8
0
62
256
6
ByLayer
370
-2
48
1
60
0
100
AcDbLine
10
30
20
-1.5875
30
0
11
30
21
-16.602503
31
0
39
0
210
0
220
0
230
1
0
LINE
5
15B
100
AcDbEntity
8
0
62
256
6
ByLayer
370
-2
48
1
60
0
100
AcDbLine
10
29.2923
20
-3.3875
30
0
11
29.2923
21
-16.602503
31
0
39
0
210
0
220
0
230
1
0
LINE
5
15C
100
AcDbEntity
8
0
62
256
6
ByLayer
370
-2
48
1
60
0
100
AcDbLine
10
30
20
-14.602503
30
0
11
57.166667
21
-14.602503
31
0
39
0
210
0
220
0
230
1
0
LINE
5
15D
100
AcDbEntity
8
0
62
256
6
ByLayer
370
-2
48
1
60
0
100
AcDbLine
10
33.5
20
-14.602503
30
0
11
37
21
-14.602503
31
0
39
0
210
0
220
0
230
1
0
LINE
5
15E
100
AcDbEntity
8
0
62
256
6
ByLayer
370
-2
48
1
60
0
100
AcDbLine
10
25.7923
20
-14.602503
30
0
11
22.2923
21
-14.602503
31
0
39
0
210
0
220
0
230
1
0
SOLID
5
15F
100
AcDbEntity
8
0
62
256
6
ByLayer
370
-1
48
1
60
0
100
AcDbTrace
10
33.5
20
-14.01917
30
0
11
33.5
21
-15.185837
31
0
12
30
22
-14.602503
32
0
13
30
23
-14.602503
33
0
39
0
210
0
220
0
230
1
0
SOLID
5
160
100
AcDbEntity
8
0
62
256
6
ByLayer
370
-1
48
1
60
0
100
AcDbTrace
10
25.7923
20
-15.185837
30
0
11
25.7923
21
-14.01917
31
0
12
29.2923
22
-14.602503
32
0
13
29.2923
23
-14.602503
33
0
39
0
210
0
220
0
230
1
0
MTEXT
5
161
100
AcDbEntity
8
0
62
256
6
ByLayer
370
18
48
1
60
0
100
AcDbMText
10
47.083333
20
-7.602503
30
0
210
0
220
0
230
1
1
\A1;0.71
40
3.5
41
0
44
1
50
0
71
5
72
5
7
iso_b_vert
0
POINT
5
162
100
AcDbEntity
8
Defpoints
62
0
6
ByLayer
370
-1
48
1
60
0
100
AcDbPoint
10
30
20
0
30
0
39
0
210
0
220
0
230
1
50
360
0
POINT
5
163
100
AcDbEntity
8
Defpoints
62
0
6
ByLayer
370
-1
48
1
60
0
100
AcDbPoint
10
29.2923
20
-1.8
30
0
39
0
210
0
220
0
230
1
50
360
0
POINT
5
164
100
AcDbEntity
8
Defpoints
62
0
6
ByLayer
370
-1
48
1
60
0
100
AcDbPoint
10
29.2923
20
-14.602503
30
0
39
0
210
0
220
0
230
1
50
360
0
ENDBLK
5
159
100
AcDbEntity
8
0
100
AcDbBlockEnd
0
BLOCK
5
16C
100
AcDbEntity
8
0
100
AcDbBlockBegin
2
_U3
70
0
10
0
20
0
30
0
3
_U3
0
MTEXT
5
166
100
AcDbEntity
8
SK2
62
256
6
ByLayer
370
13
48
1
60
0
100
AcDbMText
10
36.589293
20
-13.56987
30
0
210
0
220
0
230
1
1
\W0.6993;0,71
40
3.5
41
0
44
1.084337
50
0
71
7
72
5
7
iso_b_vert
0
LINE
5
167
100
AcDbEntity
8
SK2
62
256
6
ByLayer
370
13
48
1
60
0
100
AcDbLine
10
30
20
-1.5875
30
0
11
30
21
-16.602503
31
0
39
0
210
0
220
0
230
1
0
LINE
5
168
100
AcDbEntity
8
SK2
62
256
6
ByLayer
370
13
48
1
60
0
100
AcDbLine
10
29.2923
20
-3.3875
30
0
11
29.2923
21
-16.602503
31
0
39
0
210
0
220
0
230
1
0
LINE
5
169
100
AcDbEntity
8
SK2
62
256
6
ByLayer
370
13
48
1
60
0
100
AcDbLine
10
20.5423
20
-14.602503
30
0
11
43.559058
21
-14.602503
31
0
39
0
210
0
220
0
230
1
0
SOLID
5
16A
100
AcDbEntity
8
SK2
62
256
6
ByLayer
370
18
48
1
60
0
100
AcDbTrace
10
30
20
-14.602503
30
0
11
33.499998
21
-14.141719
31
0
12
33.500002
22
-15.063287
32
0
13
33.500002
23
-15.063287
33
0
39
0
210
0
220
0
230
1
0
SOLID
5
16B
100
AcDbEntity
8
SK2
62
256
6
ByLayer
370
18
48
1
60
0
100
AcDbTrace
10
29.2923
20
-14.602503
30
0
11
25.792302
21
-15.063287
31
0
12
25.792298
22
-14.141719
32
0
13
25.792298
23
-14.141719
33
0
39
0
210
0
220
0
230
1
0
ENDBLK
5
16D
100
AcDbEntity
8
0
100
AcDbBlockEnd
0
BLOCK
5
172
100
AcDbEntity
8
0
100
AcDbBlockBegin
2
*D9
70
1
10
0
20
0
30
0
3
*D9
0
LINE
5
174
100
AcDbEntity
8
0
62
256
6
ByLayer
370
-2
48
1
60
0
100
AcDbLine
10
-36
20
-4.5875
30
0
11
-36
21
-23.343428
31
0
39
0
210
0
220
0
230
1
0
LINE
5
175
100
AcDbEntity
8
0
62
256
6
ByLayer
370
-2
48
1
60
0
100
AcDbLine
10
29.2923
20
-3.3875
30
0
11
29.2923
21
-23.343428
31
0
39
0
210
0
220
0
230
1
0
LINE
5
176
100
AcDbEntity
8
0
62
256
6
ByLayer
370
-2
48
1
60
0
100
AcDbLine
10
-32.5
20
-21.343428
30
0
11
25.7923
21
-21.343428
31
0
39
0
210
0
220
0
230
1
0
SOLID
5
177
100
AcDbEntity
8
0
62
256
6
ByLayer
370
-1
48
1
60
0
100
AcDbTrace
10
-32.5
20
-20.760095
30
0
11
-32.5
21
-21.926762
31
0
12
-36
22
-21.343428
32
0
13
-36
23
-21.343428
33
0
39
0
210
0
220
0
230
1
0
SOLID
5
178
100
AcDbEntity
8
0
62
256
6
ByLayer
370
-1
48
1
60
0
100
AcDbTrace
10
25.7923
20
-21.926762
30
0
11
25.7923
21
-20.760095
31
0
12
29.2923
22
-21.343428
32
0
13
29.2923
23
-21.343428
33
0
39
0
210
0
220
0
230
1
0
MTEXT
5
179
100
AcDbEntity
8
0
62
256
6
ByLayer
370
18
48
1
60
0
100
AcDbMText
10
-3.35385
20
-14.343428
30
0
210
0
220
0
230
1
1
\A1;65.29
40
3.5
41
0
44
1
50
0
71
5
72
5
7
iso_b_vert
0
POINT
5
17A
100
AcDbEntity
8
Defpoints
62
0
6
ByLayer
370
-1
48
1
60
0
100
AcDbPoint
10
-36
20
-3
30
0
39
0
210
0
220
0
230
1
50
360
0
POINT
5
17B
100
AcDbEntity
8
Defpoints
62
0
6
ByLayer
370
-1
48
1
60
0
100
AcDbPoint
10
29.2923
20
-1.8
30
0
39
0
210
0
220
0
230
1
50
360
0
POINT
5
17C
100
AcDbEntity
8
Defpoints
62
0
6
ByLayer
370
-1
48
1
60
0
100
AcDbPoint
10
29.2923
20
-21.343428
30
0
39
0
210
0
220
0
230
1
50
360
0
ENDBLK
5
173
100
AcDbEntity
8
0
100
AcDbBlockEnd
0
BLOCK
5
184
100
AcDbEntity
8
0
100
AcDbBlockBegin
2
_U4
70
0
10
0
20
0
30
0
3
_U4
0
MTEXT
5
17E
100
AcDbEntity
8
SK2
62
256
6
ByLayer
370
13
48
1
60
0
100
AcDbMText
10
-8.491149
20
-20.310795
30
0
210
0
220
0
230
1
1
\W0.7402;65,29
40
3.5
41
0
44
1.084337
50
0
71
7
72
5
7
iso_b_vert
0
LINE
5
17F
100
AcDbEntity
8
SK2
62
256
6
ByLayer
370
13
48
1
60
0
100
AcDbLine
10
-36
20
-4.5875
30
0
11
-36
21
-23.343428
31
0
39
0
210
0
220
0
230
1
0
LINE
5
180
100
AcDbEntity
8
SK2
62
256
6
ByLayer
370
13
48
1
60
0
100
AcDbLine
10
29.2923
20
-3.3875
30
0
11
29.2923
21
-23.343428
31
0
39
0
210
0
220
0
230
1
0
LINE
5
181
100
AcDbEntity
8
SK2
62
256
6
ByLayer
370
13
48
1
60
0
100
AcDbLine
10
-36
20
-21.343428
30
0
11
29.2923
21
-21.343428
31
0
39
0
210
0
220
0
230
1
0
SOLID
5
182
100
AcDbEntity
8
SK2
62
256
6
ByLayer
370
18
48
1
60
0
100
AcDbTrace
10
-36
20
-21.343428
30
0
11
-32.500002
21
-20.882645
31
0
12
-32.499998
22
-21.804212
32
0
13
-32.499998
23
-21.804212
33
0
39
0
210
0
220
0
230
1
0
SOLID
5
183
100
AcDbEntity
8
SK2
62
256
6
ByLayer
370
18
48
1
60
0
100
AcDbTrace
10
29.2923
20
-21.343428
30
0
11
25.792302
21
-21.804212
31
0
12
25.792298
22
-20.882645
32
0
13
25.792298
23
-20.882645
33
0
39
0
210
0
220
0
230
1
0
ENDBLK
5
185
100
AcDbEntity
8
0
100
AcDbBlockEnd
0
ENDSEC
0
SECTION
2
ENTITIES
0
ARC
5
A8
100
AcDbEntity
8
1
62
256
6
ByLayer
370
18
48
1
60
0
100
AcDbCircle
39
0
10
1.639298
20
-2.600226
30
0
40
0.849999999999996
210
0
220
0
230
1
100
AcDbArc
50
89.896868
51
164.642625
0
ARC
5
A9
100
AcDbEntity
8
1
62
256
6
ByLayer
370
18
48
1
60
0
100
AcDbCircle
39
0
10
1.639298
20
2.600226
30
0
40
0.849999999999996
210
0
220
0
230
1
100
AcDbArc
50
195.357375
51
270.103132
0
ARC
5
AA
100
AcDbEntity
8
1
62
256
6
ByLayer
370
18
48
1
60
0
100
AcDbCircle
39
0
10
0
20
-2.15
30
0
40
0.850000000000003
210
0
220
0
230
1
100
AcDbArc
50
270
51
344.642625
0
ARC
5
AB
100
AcDbEntity
8
1
62
256
6
ByLayer
370
18
48
1
60
0
100
AcDbCircle
39
0
10
0
20
2.15
30
0
40
0.850000000000003
210
0
220
0
230
1
100
AcDbArc
50
15.357375
51
90
0
ELLIPSE
5
AC
100
AcDbEntity
8
1
62
256
6
ByLayer
370
13
48
1
60
0
100
AcDbEllipse
10
74.194174
20
43.437707
30
0
11
-61.8499999999999
21
7.57419029839139E-15
31
0
210
0
220
0
230
1
40
0.99863
41
0.766847753871895
42
0.772538416147706
0
ELLIPSE
5
AD
100
AcDbEntity
8
1
62
256
6
ByLayer
370
13
48
1
60
0
100
AcDbEllipse
10
5.305645
20
1.670282
30
0
11
0.106685378116833
21
0.28038942579218
31
0
210
0
220
0
230
1
40
0.47879
41
-3.08278204943001
42
-2.46749546036214
0
ELLIPSE
5
AE
100
AcDbEntity
8
1
62
256
6
ByLayer
370
18
48
1
60
0
100
AcDbEllipse
10
30.073985
20
0.000954
30
0
11
0.641819762716723
21
1.78300783312236
31
0
210
0
220
0
230
1
40
0.40005
41
2.9291294064104
42
2.95009026654639
0
ELLIPSE
5
AF
100
AcDbEntity
8
1
62
256
6
ByLayer
370
13
48
1
60
0
100
AcDbEllipse
10
6.711691
20
-50.222203
30
0
11
-53.6855022795751
21
51.9295418061193
31
0
210
0
220
0
230
1
40
0.535958
41
-1.0925153765378
42
-1.04533781027684
0
ELLIPSE
5
B0
100
AcDbEntity
8
1
62
256
6
ByLayer
370
18
48
1
60
0
100
AcDbEllipse
10
5.304604
20
-2.69632
30
0
11
1
21
0
31
0
210
0
220
0
230
1
40
0.999972
41
1.5729691335044
42
1.91377774775755
0
ELLIPSE
5
B1
100
AcDbEntity
8
1
62
256
6
ByLayer
370
18
48
1
60
0
100
AcDbEllipse
10
5.304604
20
2.69632
30
0
11
1
21
0
31
0
210
0
220
0
230
1
40
0.999972
41
-1.91187002396289
42
-1.56696149481437
0
POINT
5
70
100
AcDbEntity
8
80
62
256
6
ByLayer
370
18
48
1
60
0
100
AcDbPoint
10
0
20
0
30
0
39
0
210
0
220
0
230
1
50
360
0
POINT
5
72
100
AcDbEntity
8
81
62
256
6
ByLayer
370
18
48
1
60
0
100
AcDbPoint
10
30
20
0
30
0
39
0
210
0
220
0
230
1
50
360
0
POINT
5
74
100
AcDbEntity
8
1
62
256
6
ByLayer
370
18
48
1
60
1
100
AcDbPoint
10
29.2923
20
-1.8
30
0
39
0
210
0
220
0
230
1
50
360
0
POINT
5
76
100
AcDbEntity
8
1
62
256
6
ByLayer
370
18
48
1
60
1
100
AcDbPoint
10
-36
20
-3
30
0
39
0
210
0
220
0
230
1
50
360
0
POINT
5
77
100
AcDbEntity
8
1
62
256
6
ByLayer
370
18
48
1
60
1
100
AcDbPoint
10
11.29
20
1.8
30
0
39
0
210
0
220
0
230
1
50
360
0
POINT
5
78
100
AcDbEntity
8
1
62
256
6
ByLayer
370
18
48
1
60
1
100
AcDbPoint
10
29.2923
20
-1.8
30
0
39
0
210
0
220
0
230
1
50
360
0
POINT
5
79
100
AcDbEntity
8
1
62
256
6
ByLayer
370
18
48
1
60
1
100
AcDbPoint
10
-36
20
-3
30
0
39
0
210
0
220
0
230
1
50
360
0
POINT
5
7A
100
AcDbEntity
8
1
62
256
6
ByLayer
370
18
48
1
60
1
100
AcDbPoint
10
29.2923
20
-1.8
30
0
39
0
210
0
220
0
230
1
50
360
0
SPLINE
5
B2
100
AcDbEntity
8
1
62
256
6
ByLayer
370
18
48
1
60
0
100
AcDbSpline
70
4
71
3
72
16
73
12
40
0
40
0
40
0
40
0
40
0.250000000000007
40
0.250000000000007
40
0.37500000000001
40
0.37500000000001
40
0.500000000000014
40
0.500000000000014
40
0.750000000000007
40
0.750000000000007
40
1
40
1
40
1
40
1
41
1
10
29.7066419378912
20
-0.352791773416101
30
0
41
1
10
29.6782415139281
20
-0.339686064192477
30
0
41
1
10
29.652901733509
20
-0.31658019513776
30
0
41
1
10
29.6183329316606
20
-0.270678907004736
30
0
41
1
10
29.6073444335369
20
-0.253333097027479
30
0
41
1
10
29.5869467859874
20
-0.215938539454982
30
0
41
1
10
29.5774816140613
20
-0.195843419265145
30
0
41
1
10
29.5510441760331
20
-0.131827294361955
30
0
41
1
10
29.5359454608517
20
-0.083963038244832
30
0
41
1
10
29.510725601882
20
0.0196087274980812
30
0
41
1
10
29.5007794080699
20
0.0744665347220348
30
0
41
1
10
29.4932679376327
20
0.132132160343218
30
0
0
SPLINE
5
B3
100
AcDbEntity
8
1
62
256
6
ByLayer
370
18
48
1
60
0
100
AcDbSpline
70
4
71
3
72
8
73
4
40
0
40
0
40
0
40
0
40
1
40
1
40
1
40
1
41
1
10
29.9996831726336
20
0.0629095445459598
30
0
41
1
10
29.9658715809672
20
0.150422508576156
30
0
41
1
10
29.932953634365
20
0.238886095309397
30
0
41
1
10
29.9008358027322
20
0.328329317282822
30
0
0
SPLINE
5
B4
100
AcDbEntity
8
1
62
256
6
ByLayer
370
18
48
1
60
0
100
AcDbSpline
70
4
71
3
72
38
73
34
40
0
40
0
40
0
40
0
40
0.0457051845848601
40
0.0457051845848601
40
0.124231806043217
40
0.124231806043217
40
0.202758427501574
40
0.202758427501574
40
0.281285048959931
40
0.281285048959931
40
0.359811670418288
40
0.359811670418288
40
0.438338291876645
40
0.438338291876645
40
0.477601602605823
40
0.477601602605823
40
0.516864913335002
40
0.516864913335002
40
0.595391534793359
40
0.595391534793359
40
0.634654845522537
40
0.634654845522537
40
0.673918156251714
40
0.673918156251714
40
0.830971399168429
40
0.830971399168429
40
0.870234709897607
40
0.870234709897607
40
0.909498020626786
40
0.909498020626786
40
0.988024642085145
40
0.988024642085145
40
1
40
1
40
1
40
1
41
1
10
12.315619730641
20
1.76945643576889
30
0
41
1
10
12.4611877997197
20
1.76966889907456
30
0
41
1
10
12.6068671760915
20
1.76302390029369
30
0
41
1
10
13.0041346041561
20
1.72618884177518
30
0
41
1
10
13.2587505365254
20
1.68207257791201
30
0
41
1
10
13.7610300060973
20
1.55683081408611
30
0
41
1
10
14.0105066124681
20
1.47598493473512
30
0
41
1
10
14.5107435856561
20
1.28235697936833
30
0
41
1
10
14.7616160321948
20
1.16907453156279
30
0
41
1
10
15.2681439906557
20
0.915877161433315
30
0
41
1
10
15.5184679861979
20
0.778383838161886
30
0
41
1
10
16.01827830349
20
0.489500840341123
30
0
41
1
10
16.2676308620856
20
0.337906462552297
30
0
41
1
10
16.6445065782894
20
0.105491700598435
30
0
41
1
10
16.7708781666064
20
0.0268646985924477
30
0
41
1
10
17.0237578529601
20
-0.129992617689567
30
0
41
1
10
17.1495782691795
20
-0.207726268548129
30
0
41
1
10
17.525655022173
20
-0.43818013426997
30
0
41
1
10
17.7746962806674
20
-0.58785429191289
30
0
41
1
10
18.149577640336
20
-0.800472566372093
30
0
41
1
10
18.274676419337
20
-0.869485563579701
30
0
41
1
10
18.5258978732462
20
-1.00263009416236
30
0
41
1
10
18.6525278868928
20
-1.06689107052114
30
0
41
1
10
19.2838784947512
20
-1.37128881228381
30
0
41
1
10
19.7780420810784
20
-1.55763677694679
30
0
41
1
10
20.4064457793316
20
-1.69674756147376
30
0
41
1
10
20.5330895602796
20
-1.71997152877515
30
0
41
1
10
20.785172271642
20
-1.75604122418005
30
0
41
1
10
20.9106531574975
20
-1.76891134491154
30
0
41
1
10
21.2859513909453
20
-1.79228312645566
30
0
41
1
10
21.5346641556183
20
-1.7874729084441
30
0
41
1
10
21.8226183454474
20
-1.75866747537049
30
0
41
1
10
21.8607386231738
20
-1.75438447644299
30
0
41
1
10
21.898886745976
20
-1.7496303311984
30
0
0
SPLINE
5
B5
100
AcDbEntity
8
1
62
256
6
ByLayer
370
18
48
1
60
0
100
AcDbSpline
70
4
71
3
72
8
73
4
40
0
40
0
40
0
40
0
40
1
40
1
40
1
40
1
41
1
10
29.7066419378912
20
-0.352791773416101
30
0
41
1
10
29.7068292209822
20
-0.352978858657764
30
0
41
1
10
29.7070165054182
20
-0.353165942553034
30
0
41
1
10
29.7072037911992
20
-0.353353025101853
30
0
0
SPLINE
5
B6
100
AcDbEntity
8
1
62
256
6
ByLayer
370
18
48
1
60
0
100
AcDbSpline
70
4
71
3
72
16
73
12
40
0
40
0
40
0
40
0
40
0.204758781690873
40
0.204758781690873
40
0.409517563381747
40
0.409517563381747
40
0.614276345072621
40
0.614276345072621
40
0.819035126763494
40
0.819035126763494
40
1
40
1
40
1
40
1
41
1
10
4.96500510745452
20
-1.24580992599041
30
0
41
1
10
4.96489278042762
20
-1.31157719857248
30
0
41
1
10
4.96478285501814
20
-1.37189376679208
30
0
41
1
10
4.96457823498093
20
-1.48141623043833
30
0
41
1
10
4.96448394665367
20
-1.53039705613472
30
0
41
1
10
4.96432126932589
20
-1.61366370426177
30
0
41
1
10
4.96425187655882
20
-1.64848198875754
30
0
41
1
10
4.96413414937524
20
-1.70434183785403
30
0
41
1
10
4.96408582641726
20
-1.72530400404577
30
0
41
1
10
4.96400903667089
20
-1.75022821449377
30
0
41
1
10
4.96397846028589
20
-1.75612383529244
30
0
41
1
10
4.96394811781721
20
-1.75620937250798
30
0
0
SPLINE
5
B7
100
AcDbEntity
8
1
62
256
6
ByLayer
370
13
48
1
60
0
100
AcDbSpline
70
4
71
3
72
30
73
26
40
0
40
0
40
0
40
0
40
0.109865771172842
40
0.109865771172842
40
0.164798656759265
40
0.164798656759265
40
0.219731542345688
40
0.219731542345688
40
0.329597313518539
40
0.329597313518539
40
0.43946308469139
40
0.43946308469139
40
0.549328855864243
40
0.549328855864243
40
0.659194627037096
40
0.659194627037096
40
0.714127512623524
40
0.714127512623524
40
0.769060398209952
40
0.769060398209952
40
0.878926169382807
40
0.878926169382807
40
0.988791940555663
40
0.988791940555663
40
1
40
1
40
1
40
1
41
1
10
29.2600886602664
20
-1.54129213568282
30
0
41
1
10
29.0100864331587
20
-1.47057463498524
30
0
41
1
10
28.7615212496241
20
-1.38289224908848
30
0
41
1
10
28.3882568086334
20
-1.22936934646495
30
0
41
1
10
28.2637395060441
20
-1.17454157950857
30
0
41
1
10
28.0139051807141
20
-1.05813777140688
30
0
41
1
10
27.8883996202395
20
-0.99644474014579
30
0
41
1
10
27.5142661484311
20
-0.804809806763132
30
0
41
1
10
27.2667524848523
20
-0.667431425586074
30
0
41
1
10
26.7708317745413
20
-0.380886959812017
30
0
41
1
10
26.5222329469782
20
-0.231376889265874
30
0
41
1
10
26.0210276324181
20
0.0718121363360069
30
0
41
1
10
25.7729962495024
20
0.222914234939196
30
0
41
1
10
25.2770630795448
20
0.515879261343287
30
0
41
1
10
25.0291237581328
20
0.657769159978017
30
0
41
1
10
24.6543422309572
20
0.858947125435634
30
0
41
1
10
24.5286598193982
20
0.924130229884497
30
0
41
1
10
24.2790686029065
20
1.0479548554689
30
0
41
1
10
24.1548256843816
20
1.10680779882944
30
0
41
1
10
23.7822485880038
20
1.27263308725452
30
0
41
1
10
23.5348073544114
20
1.37039303839819
30
0
41
1
10
23.0366476457198
20
1.53253630443584
30
0
41
1
10
22.7850987928695
20
1.59828497368835
30
0
41
1
10
22.510793220372
20
1.64841243526018
30
0
41
1
10
22.4854139508361
20
1.65286326557921
30
0
41
1
10
22.4600460863037
20
1.6571225267293
30
0
0
SPLINE
5
B8
100
AcDbEntity
8
1
62
256
6
ByLayer
370
13
48
1
60
0
100
AcDbSpline
70
4
71
3
72
34
73
30
40
0
40
0
40
0
40
0
40
0.0283319031719658
40
0.0283319031719658
40
0.0794723293208103
40
0.0794723293208103
40
0.181753181618497
40
0.181753181618497
40
0.284034033916184
40
0.284034033916184
40
0.335174460065028
40
0.335174460065028
40
0.386314886213872
40
0.386314886213872
40
0.488595738511558
40
0.488595738511558
40
0.539736164660402
40
0.539736164660402
40
0.590876590809245
40
0.590876590809245
40
0.693157443106932
40
0.693157443106932
40
0.744297869255777
40
0.744297869255777
40
0.795438295404622
40
0.795438295404622
40
0.897719147702311
40
0.897719147702311
40
1
40
1
40
1
40
1
41
1
10
12.6406553358938
20
-1.70910648013361
30
0
41
1
10
12.5715797972055
20
-1.70891026857439
30
0
41
1
10
12.502402308075
20
-1.70721396689348
30
0
41
1
10
12.3080859598902
20
-1.69832907282026
30
0
41
1
10
12.1823287298666
20
-1.68771026278463
30
0
41
1
10
11.8057412094987
20
-1.64123611971448
30
0
41
1
10
11.5565958299441
20
-1.59142762609486
30
0
41
1
10
11.0590206922221
20
-1.45700387570841
30
0
41
1
10
10.8098955872714
20
-1.37286577750518
30
0
41
1
10
10.4334546248672
20
-1.22293731680696
30
0
41
1
10
10.3073756472507
20
-1.16920288508362
30
0
41
1
10
10.0569684977583
20
-1.05612771703432
30
0
41
1
10
9.93225369538243
20
-0.996555129645174
30
0
41
1
10
9.5586426133076
20
-0.809954144062488
30
0
41
1
10
9.30978855220562
20
-0.675874202258115
30
0
41
1
10
8.93464857912818
20
-0.463505938128293
30
0
41
1
10
8.80875454756631
20
-0.390934084610052
30
0
41
1
10
8.55716900094808
20
-0.24418144916325
30
0
41
1
10
8.43200657117299
20
-0.170145616457091
30
0
41
1
10
8.05751613457261
20
0.0523812196466622
30
0
41
1
10
7.80876477678183
20
0.20059418046435
30
0
41
1
10
7.43439670784224
20
0.418277787363991
30
0
41
1
10
7.30928022980572
20
0.489857276654249
30
0
41
1
10
7.05797890865745
20
0.630366576711367
30
0
41
1
10
6.93181296777618
20
0.699362338530221
30
0
41
1
10
6.55593742180051
20
0.898267875127033
30
0
41
1
10
6.30692996690146
20
1.0207885388736
30
0
41
1
10
5.80835842863237
20
1.24070844013431
30
0
41
1
10
5.55803757920449
20
1.33789641815343
30
0
41
1
10
5.30609099338784
20
1.4193383484313
30
0
0
SPLINE
5
B9
100
AcDbEntity
8
1
62
256
6
ByLayer
370
18
48
1
60
0
100
AcDbSpline
70
4
71
3
72
14
73
10
40
0
40
0
40
0
40
0
40
0.25
40
0.25
40
0.5
40
0.5
40
0.75
40
0.75
40
1
40
1
40
1
40
1
41
1
10
29.7072037911917
20
-0.353353025103644
30
0
41
1
10
29.7252083477653
20
-0.355123230815508
30
0
41
1
10
29.7457034891957
20
-0.346236459662805
30
0
41
1
10
29.7922483370477
20
-0.30698191708214
30
0
41
1
10
29.8171364310056
20
-0.277582671773842
30
0
41
1
10
29.8697859548113
20
-0.201038907312665
30
0
41
1
10
29.8964559993535
20
-0.155468648149395
30
0
41
1
10
29.9496805459227
20
-0.0522458174527571
30
0
41
1
10
29.9752445783305
20
0.0034561978510794
30
0
41
1
10
29.9996831726331
20
0.0629095445458177
30
0
0
SPLINE
5
BA
100
AcDbEntity
8
1
62
256
6
ByLayer
370
13
48
1
60
0
100
AcDbSpline
70
4
71
3
72
16
73
12
40
0
40
0
40
0
40
0
40
0.069745245652677
40
0.069745245652677
40
0.302308934239508
40
0.302308934239508
40
0.534872622826339
40
0.534872622826339
40
0.767436311413169
40
0.767436311413169
40
1
40
1
40
1
40
1
41
1
10
5.30541980245016
20
-1.69642776118422
30
0
41
1
10
5.30541283712782
20
-1.69641863463411
30
0
41
1
10
5.30540617974666
20
-1.69579450680467
30
0
41
1
10
5.30537799551797
20
-1.69042836175478
30
0
41
1
10
5.30535836214551
20
-1.6792893547159
30
0
41
1
10
5.30531458018177
20
-1.64388213176653
30
0
41
1
10
5.30529031142169
20
-1.61959372279315
30
0
41
1
10
5.30522969705902
20
-1.55762268204504
30
0
41
1
10
5.30519314942754
20
-1.51976315415149
30
0
41
1
10
5.30510616471483
20
-1.43314158629735
30
0
41
1
10
5.30505550889632
20
-1.38413726698312
30
0
41
1
10
5.30499727451911
20
-1.3294092839086
30
0
0
SPLINE
5
BB
100
AcDbEntity
8
1
62
256
6
ByLayer
370
18
48
1
60
0
100
AcDbSpline
70
4
71
3
72
12
73
8
40
0
40
0
40
0
40
0
40
0.25
40
0.25
40
0.5
40
0.5
40
1
40
1
40
1
40
1
41
1
10
29.2600886602664
20
-1.5412921356828
30
0
41
1
10
29.2378811221798
20
-1.50097995603647
30
0
41
1
10
29.2187914807411
20
-1.45505972756948
30
0
41
1
10
29.1869281281061
20
-1.3518590335442
30
0
41
1
10
29.1741137604082
20
-1.29432382504052
30
0
41
1
10
29.1461771891088
20
-1.10491765267409
30
0
41
1
10
29.1420049188131
20
-0.961556703741422
30
0
41
1
10
29.1525215391393
20
-0.802113335199323
30
0
0
SPLINE
5
BC
100
AcDbEntity
8
1
62
256
6
ByLayer
370
18
48
1
60
0
100
AcDbSpline
70
4
71
3
72
32
73
28
40
0
40
0
40
0
40
0
40
0.0485144595366849
40
0.0485144595366849
40
0.0970289190733697
40
0.0970289190733697
40
0.194057838146737
40
0.194057838146737
40
0.291086757220105
40
0.291086757220105
40
0.339601216756789
40
0.339601216756789
40
0.388115676293473
40
0.388115676293473
40
0.485144595366841
40
0.485144595366841
40
0.533659054903525
40
0.533659054903525
40
0.582173514440209
40
0.582173514440209
40
0.776231352586946
40
0.776231352586946
40
0.873260271660315
40
0.873260271660315
40
0.970289190733684
40
0.970289190733684
40
1
40
1
40
1
40
1
41
1
10
5.20703458905854
20
1.38737507999576
30
0
41
1
10
5.33403350151605
20
1.33973100009456
30
0
41
1
10
5.46081397532276
20
1.28804284871779
30
0
41
1
10
5.7146060806628
20
1.17732403044775
30
0
41
1
10
5.84167392504577
20
1.1183094612966
30
0
41
1
10
6.22028811840468
20
0.933128226356132
30
0
41
1
10
6.47056452701116
20
0.798379617291545
30
0
41
1
10
6.97134365114979
20
0.513102632838297
30
0
41
1
10
7.22202176057277
20
0.362850032501882
30
0
41
1
10
7.60175207824656
20
0.13094320497342
30
0
41
1
10
7.72867369348182
20
0.0527033835850261
30
0
41
1
10
7.98068200877839
20
-0.102309787590173
30
0
41
1
10
8.10619311293692
20
-0.179430521796405
30
0
41
1
10
8.48202993108353
20
-0.408386838629923
30
0
41
1
10
8.73185685908535
20
-0.557499728758245
30
0
41
1
10
9.10862558649703
20
-0.770834701011637
30
0
41
1
10
9.23460383249716
20
-0.840143079088847
30
0
41
1
10
9.48797222684195
20
-0.974135363580501
30
0
41
1
10
9.61469641461346
20
-1.03848349669803
30
0
41
1
10
10.2438488696775
20
-1.34263443369781
30
0
41
1
10
10.7397080194297
20
-1.53142610786199
30
0
41
1
10
11.4997261398887
20
-1.70359264052328
30
0
41
1
10
11.7511638634394
20
-1.74107311863847
30
0
41
1
10
12.2514118240902
20
-1.77563727583205
30
0
41
1
10
12.5010881897846
20
-1.77278570419685
30
0
41
1
10
12.8290500301654
20
-1.7424368944811
30
0
41
1
10
12.9062607905347
20
-1.73336942424973
30
0
41
1
10
12.9836000079467
20
-1.72241572851698
30
0
0
SPLINE
5
BD
100
AcDbEntity
8
1
62
256
6
ByLayer
370
18
48
1
60
0
100
AcDbSpline
70
4
71
3
72
38
73
34
40
0
40
0
40
0
40
0
40
0.0590480189812586
40
0.0590480189812586
40
0.106095618032195
40
0.106095618032195
40
0.153143217083132
40
0.153143217083132
40
0.247238415185006
40
0.247238415185006
40
0.341333613286879
40
0.341333613286879
40
0.388381212337816
40
0.388381212337816
40
0.435428811388753
40
0.435428811388753
40
0.529524009490628
40
0.529524009490628
40
0.576571608541567
40
0.576571608541567
40
0.623619207592506
40
0.623619207592506
40
0.811809603796257
40
0.811809603796257
40
0.858857202847193
40
0.858857202847193
40
0.905904801898128
40
0.905904801898128
40
0.952952400949064
40
0.952952400949064
40
0.976476200474532
40
0.976476200474532
40
1
40
1
40
1
40
1
41
1
10
21.3130253463369
20
1.78563273087775
30
0
41
1
10
21.4695510866646
20
1.7859579274633
30
0
41
1
10
21.625874165867
20
1.77828515258719
30
0
41
1
10
21.9075542507823
20
1.75022091408641
30
0
41
1
10
22.0326531436879
20
1.73270960325223
30
0
41
1
10
22.2839398041234
20
1.68757280346691
30
0
41
1
10
22.4106737757955
20
1.65985489076246
30
0
41
1
10
22.7883975333846
20
1.56299972660707
30
0
41
1
10
23.0375531035258
20
1.48002277769504
30
0
41
1
10
23.5361255290945
20
1.2830110235333
30
0
41
1
10
23.7851381861797
20
1.16855421078594
30
0
41
1
10
24.1624637198301
20
0.977360088109322
30
0
41
1
10
24.2891595420848
20
0.910064971014606
30
0
41
1
10
24.5405929929404
20
0.771548432194152
30
0
41
1
10
24.6657050842289
20
0.700141962318185
30
0
41
1
10
25.0401505369461
20
0.480936868420741
30
0
41
1
10
25.2886636773255
20
0.328268310172291
30
0
41
1
10
25.6630850311788
20
0.0946949442674736
30
0
41
1
10
25.7881738131391
20
0.016082988184337
30
0
41
1
10
26.0396472989265
20
-0.141488203297541
30
0
41
1
10
26.1661802189323
20
-0.220578318935907
30
0
41
1
10
26.793622563102
20
-0.608687267386756
30
0
41
1
10
27.2868833350584
20
-0.900053446974511
30
0
41
1
10
27.9161168383591
20
-1.20522350705002
30
0
41
1
10
28.0424437684472
20
-1.26323043825741
30
0
41
1
10
28.2934869908445
20
-1.37092880431334
30
0
41
1
10
28.4186550748107
20
-1.42081969063025
30
0
41
1
10
28.6689190529072
20
-1.51214191262002
30
0
41
1
10
28.7940109894739
20
-1.55358111737817
30
0
41
1
10
28.9819529030614
20
-1.60906419932854
30
0
41
1
10
29.0446475828226
20
-1.626447704117
30
0
41
1
10
29.1701901813765
20
-1.65892531972605
30
0
41
1
10
29.2327733727709
20
-1.67416557382603
30
0
41
1
10
29.2961861319203
20
-1.68781907218826
30
0
0
SPLINE
5
BE
100
AcDbEntity
8
1
62
256
6
ByLayer
370
18
48
1
60
0
100
AcDbSpline
70
4
71
3
72
12
73
8
40
0
40
0
40
0
40
0
40
0.5
40
0.5
40
0.75
40
0.75
40
1
40
1
40
1
40
1
41
1
10
29.3445685604511
20
-1.78032551007485
30
0
41
1
10
29.3928529333709
20
-1.66841353089362
30
0
41
1
10
29.4421469694016
20
-1.55272878785715
30
0
41
1
10
29.5166201702502
20
-1.37255757430793
30
0
41
1
10
29.5415326660021
20
-1.31140225411616
30
0
41
1
10
29.591321188807
20
-1.18662926644797
30
0
41
1
10
29.6162857840387
20
-1.12274984569086
30
0
41
1
10
29.640756019954
20
-1.05844485821203
30
0
0
SPLINE
5
BF
100
AcDbEntity
8
1
62
256
6
ByLayer
370
18
48
1
60
0
100
AcDbSpline
70
4
71
3
72
24
73
20
40
0
40
0
40
0
40
0
40
0.0625000000000035
40
0.0625000000000035
40
0.125000000000007
40
0.125000000000007
40
0.187500000000011
40
0.187500000000011
40
0.250000000000014
40
0.250000000000014
40
0.375000000000012
40
0.375000000000012
40
0.500000000000009
40
0.500000000000009
40
0.750000000000005
40
0.750000000000005
40
0.875000000000002
40
0.875000000000002
40
1
40
1
40
1
40
1
41
1
10
3.85986875236432
20
0.717665213939199
30
0
41
1
10
3.87866846549278
20
0.754428418217685
30
0
41
1
10
3.9055481647714
20
0.786331967736459
30
0
41
1
10
3.96870509909289
20
0.841974259903736
30
0
41
1
10
4.00399478831685
20
0.865032683786524
30
0
41
1
10
4.0788165341915
20
0.905105297964639
30
0
41
1
10
4.11871497095706
20
0.922160379169867
30
0
41
1
10
4.1996901417001
20
0.951189191409384
30
0
41
1
10
4.24102486991382
20
0.963295710442395
30
0
41
1
10
4.36698416159896
20
0.994246343759954
30
0
41
1
10
4.45422414983233
20
1.00785251394802
30
0
41
1
10
4.62828036517254
20
1.02430694068096
30
0
41
1
10
4.71531799463924
20
1.02721235324037
30
0
41
1
10
4.97645510177938
20
1.02225235400701
30
0
41
1
10
5.15236388975168
20
1.00038971190361
30
0
41
1
10
5.40312198244089
20
0.939493799937594
30
0
41
1
10
5.48496517617656
20
0.914448570059051
30
0
41
1
10
5.64504862583465
20
0.853675420667997
30
0
41
1
10
5.72362436220635
20
0.817658973273183
30
0
41
1
10
5.79798055258399
20
0.776816952870462
30
0
0
SPLINE
5
C0
100
AcDbEntity
8
1
62
256
6
ByLayer
370
13
48
1
60
0
100
AcDbSpline
70
4
71
3
72
10
73
6
40
0
40
0
40
0
40
0
40
0.540390446481916
40
0.540390446481916
40
1
40
1
40
1
40
1
41
1
10
5.3060909933879
20
1.4193383484313
30
0
41
1
10
5.30585213734486
20
1.51693065173006
30
0
41
1
10
5.30569831070017
20
1.59040804326273
30
0
41
1
10
5.30550862342486
20
1.67678855343109
30
0
41
1
10
5.30545923476657
20
1.69650094563619
30
0
41
1
10
5.30541973800209
20
1.69642765917209
30
0
0
SPLINE
5
C1
100
AcDbEntity
8
1
62
256
6
ByLayer
370
18
48
1
60
0
100
AcDbSpline
70
4
71
3
72
12
73
8
40
0
40
0
40
0
40
0
40
0.249999999999998
40
0.249999999999998
40
0.499999999999996
40
0.499999999999996
40
1
40
1
40
1
40
1
41
1
10
5.79798055258402
20
0.776816952870462
30
0
41
1
10
5.95583025139564
20
0.690114008748594
30
0
41
1
10
6.11567497943463
20
0.602352408584238
30
0
41
1
10
6.43879841859271
20
0.424818702615028
30
0
41
1
10
6.60132345446669
20
0.33546073147366
30
0
41
1
10
7.08649593491657
20
0.068330493719003
30
0
41
1
10
7.40884525532397
20
-0.109666118990191
30
0
41
1
10
7.72997215269325
20
-0.287777901057609
30
0
0
SPLINE
5
C2
100
AcDbEntity
8
1
62
256
6
ByLayer
370
18
48
1
60
0
100
AcDbSpline
70
4
71
3
72
14
73
10
40
0
40
0
40
0
40
0
40
0.160516467369392
40
0.160516467369392
40
0.440344311579594
40
0.440344311579594
40
0.720172155789797
40
0.720172155789797
40
1
40
1
40
1
40
1
41
1
10
29.3676673330759
20
0.24893665227421
30
0
41
1
10
29.3805884737798
20
0.262303992961961
30
0
41
1
10
29.3940024995618
20
0.276833275958353
30
0
41
1
10
29.4317263641648
20
0.319241228758159
30
0
41
1
10
29.4566060283554
20
0.348852704480237
30
0
41
1
10
29.5090289679234
20
0.41261230760216
30
0
41
1
10
29.5363371726727
20
0.44655340107704
30
0
41
1
10
29.5929757493855
20
0.514241242749222
30
0
41
1
10
29.6223914968788
20
0.548508396339628
30
0
41
1
10
29.655896743438
20
0.580738966488696
30
0
0
SPLINE
5
C3
100
AcDbEntity
8
1
62
256
6
ByLayer
370
18
48
1
60
0
100
AcDbSpline
70
4
71
3
72
12
73
8
40
0
40
0
40
0
40
0
40
0.25
40
0.25
40
0.500000000000001
40
0.500000000000001
40
1
40
1
40
1
40
1
41
1
10
4.96335862845837
20
1.54266484743536
30
0
41
1
10
4.96331539913561
20
1.52692082440726
30
0
41
1
10
4.97681495012307
20
1.51145538461213
30
0
41
1
10
5.01057965411349
20
1.48276334043982
30
0
41
1
10
5.0318195079895
20
1.46918712425267
30
0
41
1
10
5.0997534399728
20
1.43102422041863
30
0
41
1
10
5.15188229376088
20
1.40806565374203
30
0
41
1
10
5.20703458905857
20
1.38737507999576
30
0
0
SPLINE
5
C4
100
AcDbEntity
8
1
62
256
6
ByLayer
370
18
48
1
60
0
100
AcDbSpline
70
4
71
3
72
10
73
6
40
0
40
0
40
0
40
0
40
0.5
40
0.5
40
1
40
1
40
1
40
1
41
1
10
5.30499727451823
20
-1.32940928390823
30
0
41
1
10
5.48275924035698
20
-1.4018653260861
30
0
41
1
10
5.66291061741848
20
-1.46134488500999
30
0
41
1
10
6.02685200003978
20
-1.56104867157811
30
0
41
1
10
6.21087358748241
20
-1.59987307853254
30
0
41
1
10
6.3966312497198
20
-1.6294871351104
30
0
0
SPLINE
5
C5
100
AcDbEntity
8
1
62
256
6
ByLayer
370
13
48
1
60
0
100
AcDbSpline
70
4
71
3
72
8
73
4
40
0
40
0
40
0
40
0
40
1
40
1
40
1
40
1
41
1
10
4.96335862845513
20
1.54266484743718
30
0
41
1
10
5.07398843337987
20
1.48612650070197
30
0
41
1
10
5.18880442897873
20
1.4458160738233
30
0
41
1
10
5.30609099338787
20
1.4193383484313
30
0
0
SPLINE
5
C6
100
AcDbEntity
8
1
62
256
6
ByLayer
370
18
48
1
60
0
100
AcDbSpline
70
4
71
3
72
8
73
4
40
0
40
0
40
0
40
0
40
1
40
1
40
1
40
1
41
1
10
29.9008358027322
20
0.328329317282851
30
0
41
1
10
29.8135234089245
20
0.571480907018554
30
0
41
1
10
29.7268290253067
20
0.814852354595985
30
0
41
1
10
29.6407560199542
20
1.05844485821183
30
0
0
SPLINE
5
C7
100
AcDbEntity
8
1
62
256
6
ByLayer
370
18
48
1
60
0
100
AcDbSpline
70
4
71
3
72
24
73
20
40
0
40
0
40
0
40
0
40
0.176710584369728
40
0.176710584369728
40
0.353421168739456
40
0.353421168739456
40
0.441776460924319
40
0.441776460924319
40
0.530131753109183
40
0.530131753109183
40
0.618487045294047
40
0.618487045294047
40
0.706842337478911
40
0.706842337478911
40
0.883552921848639
40
0.883552921848639
40
0.971908214033505
40
0.971908214033505
40
1
40
1
40
1
40
1
41
1
10
29.2310501347835
20
0.28631067140887
30
0
41
1
10
28.9926228808776
20
0.429017164434498
30
0
41
1
10
28.7546824975909
20
0.568223141383726
30
0
41
1
10
28.2759815244821
20
0.833772425609823
30
0
41
1
10
28.0378507845387
20
0.958575048481379
30
0
41
1
10
27.6795309402382
20
1.12897224909546
30
0
41
1
10
27.5596934612413
20
1.18314123772114
30
0
41
1
10
27.3207553415541
20
1.28483908673101
30
0
41
1
10
27.2014462669855
20
1.33224473379971
30
0
41
1
10
26.9628258056044
20
1.41980053127176
30
0
41
1
10
26.8435563175062
20
1.46009480761765
30
0
41
1
10
26.6040354779074
20
1.53309880936683
30
0
41
1
10
26.4846613322974
20
1.56580371623201
30
0
41
1
10
26.1282794166516
20
1.6504567783868
30
0
41
1
10
25.892361694015
20
1.69018242193897
30
0
41
1
10
25.5379747351805
20
1.72201847584555
30
0
41
1
10
25.4197638991367
20
1.72796107429642
30
0
41
1
10
25.2636051115616
20
1.73045199356588
30
0
41
1
10
25.2258813846611
20
1.73064428552524
30
0
41
1
10
25.1881094564936
20
1.73041768040531
30
0
0
SPLINE
5
C8
100
AcDbEntity
8
1
62
256
6
ByLayer
370
18
48
1
60
0
100
AcDbSpline
70
4
71
3
72
64
73
60
40
0
40
0
40
0
40
0
40
0.0228089823100956
40
0.0228089823100956
40
0.0546226979303841
40
0.0546226979303841
40
0.0864364135506726
40
0.0864364135506726
40
0.118250129170961
40
0.118250129170961
40
0.150063844791249
40
0.150063844791249
40
0.181877560411538
40
0.181877560411538
40
0.245504991652113
40
0.245504991652113
40
0.277318707272401
40
0.277318707272401
40
0.309132422892689
40
0.309132422892689
40
0.340946138512976
40
0.340946138512976
40
0.372759854133264
40
0.372759854133264
40
0.404573569753552
40
0.404573569753552
40
0.436387285373839
40
0.436387285373839
40
0.468201000994127
40
0.468201000994127
40
0.500014716614415
40
0.500014716614415
40
0.531828432234703
40
0.531828432234703
40
0.56364214785499
40
0.56364214785499
40
0.595455863475278
40
0.595455863475278
40
0.627269579095566
40
0.627269579095566
40
0.659083294715853
40
0.659083294715853
40
0.690897010336141
40
0.690897010336141
40
0.754524441576715
40
0.754524441576715
40
0.786338157197002
40
0.786338157197002
40
0.818151872817288
40
0.818151872817288
40
0.849965588437574
40
0.849965588437574
40
0.881779304057861
40
0.881779304057861
40
0.913593019678147
40
0.913593019678147
40
0.945406735298434
40
0.945406735298434
40
1
40
1
40
1
40
1
41
1
10
18.4377691304662
20
-1.2254928505653
30
0
41
1
10
18.3530811948195
20
-1.26119921864316
30
0
41
1
10
18.2684587632523
20
-1.29533690016018
30
0
41
1
10
18.0657732986971
20
-1.37261294827664
30
0
41
1
10
17.9475840027956
20
-1.4137529843876
30
0
41
1
10
17.710725817566
20
-1.48927246898526
30
0
41
1
10
17.5920180244821
20
-1.52387994442924
30
0
41
1
10
17.3537131464942
20
-1.58483373934843
30
0
41
1
10
17.23352664167
20
-1.61098277131029
30
0
41
1
10
16.9949843389766
20
-1.65455133855318
30
0
41
1
10
16.87605611584
20
-1.67279976703844
30
0
41
1
10
16.6388761037506
20
-1.69994115742614
30
0
41
1
10
16.5206902654819
20
-1.70853046858338
30
0
41
1
10
16.165992376498
20
-1.7211533431983
30
0
41
1
10
15.929599014006
20
-1.71414194384329
30
0
41
1
10
15.5723661505769
20
-1.67385369918804
30
0
41
1
10
15.4525608043614
20
-1.65616694771569
30
0
41
1
10
15.2129206018052
20
-1.61315758210947
30
0
41
1
10
15.0934518566948
20
-1.58723473584735
30
0
41
1
10
14.8545303101478
20
-1.52643886520983
30
0
41
1
10
14.735038791608
20
-1.49205298624338
30
0
41
1
10
14.495657618829
20
-1.41649176565929
30
0
41
1
10
14.3756224034393
20
-1.37486796406765
30
0
41
1
10
14.1364536439791
20
-1.2835632905462
30
0
41
1
10
14.0170183815878
20
-1.23450836332057
30
0
41
1
10
13.7778299009282
20
-1.13145517121464
30
0
41
1
10
13.6580261467753
20
-1.07728869581393
30
0
41
1
10
13.4185207757458
20
-0.961274468195683
30
0
41
1
10
13.2994010508729
20
-0.900630385565478
30
0
41
1
10
13.0615378676111
20
-0.776689316866651
30
0
41
1
10
12.942827539076
20
-0.713243986403285
30
0
41
1
10
12.7058360416011
20
-0.582360167784913
30
0
41
1
10
12.5875997515058
20
-0.514606737193844
30
0
41
1
10
12.3505846301923
20
-0.377878867927478
30
0
41
1
10
12.2319135591634
20
-0.308573204017648
30
0
41
1
10
11.994054499941
20
-0.167890067782082
30
0
41
1
10
11.8746033515696
20
-0.0966293503232691
30
0
41
1
10
11.6345951538549
20
0.0465235859070106
30
0
41
1
10
11.5150551792023
20
0.117852682149532
30
0
41
1
10
11.276806638573
20
0.258882652012033
30
0
41
1
10
11.1583794518048
20
0.328883661966813
30
0
41
1
10
10.9213389166725
20
0.4658421228809
30
0
41
1
10
10.8029434222724
20
0.533330792328428
30
0
41
1
10
10.4476832394559
20
0.73163060044962
30
0
41
1
10
10.2105274231214
20
0.857069328490866
30
0
41
1
10
9.85144941011447
20
1.03248353165324
30
0
41
1
10
9.7311709675904
20
1.08875442127103
30
0
41
1
10
9.49287413194895
20
1.19348042026419
30
0
41
1
10
9.37396458450232
20
1.24263195308032
30
0
41
1
10
9.13678182027297
20
1.33497812244704
30
0
41
1
10
9.01841416690388
20
1.37802547020721
30
0
41
1
10
8.78179964793645
20
1.45528667909537
30
0
41
1
10
8.66352568136637
20
1.49014686803517
30
0
41
1
10
8.42640882604164
20
1.55315944023218
30
0
41
1
10
8.30764722634018
20
1.5811565418289
30
0
41
1
10
8.06921686461104
20
1.62798189866146
30
0
41
1
10
7.94909451146361
20
1.64671494636815
30
0
41
1
10
7.62349158465952
20
1.68746239249106
30
0
41
1
10
7.41911932800818
20
1.69976748303509
30
0
41
1
10
7.21480602520933
20
1.69943601062698
30
0
0
SPLINE
5
C9
100
AcDbEntity
8
1
62
256
6
ByLayer
370
18
48
1
60
0
100
AcDbSpline
70
4
71
1
72
4
73
2
40
0
40
0
40
1
40
1
41
1
10
29.3081343441133
20
-1.70058890016395
30
0
41
1
10
29.7058643620176
20
-0.357874862240919
30
0
0
SPLINE
5
CA
100
AcDbEntity
8
1
62
256
6
ByLayer
370
13
48
1
60
0
100
AcDbSpline
70
4
71
3
72
113
73
109
40
0
40
0
40
0
40
0
40
0.0046773842645674
40
0.0093350776623056
40
0.0186504644577808
40
0.0279658512532574
40
0.041938931446473
40
0.04659662484421
40
0.0559120116396851
40
0.0652273984351617
40
0.0792004786283756
40
0.0838581720261138
40
0.0931735588215913
40
0.102488945617068
40
0.116462025810281
40
0.121119719208018
40
0.130435106003494
40
0.13975049279897
40
0.153723572992183
40
0.158381266389922
40
0.167696653185396
40
0.177012039980874
40
0.190985120174088
40
0.195642813571826
40
0.204958200367301
40
0.214273587162779
40
0.22824666735599
40
0.23290436075373
40
0.242219747549206
40
0.251535134344682
40
0.265508214537897
40
0.270165907935634
40
0.27948129473111
40
0.288796681526585
40
0.3027697617198
40
0.307427455117538
40
0.316742841913014
40
0.32605822870849
40
0.340031308901705
40
0.344689002299442
40
0.354004389094917
40
0.363319775890393
40
0.377292856083608
40
0.381950549481346
40
0.391265936276822
40
0.400581323072298
40
0.414554403265513
40
0.41921209666325
40
0.428527483458726
40
0.437842870254202
40
0.451815950447416
40
0.456473643845154
40
0.46578903064063
40
0.475104417436106
40
0.48907749762932
40
0.493735191027058
40
0.503050577822534
40
0.51236596461801
40
0.526339044811224
40
0.530996738208962
40
0.540312125004439
40
0.549627511799914
40
0.563600591993128
40
0.568258285390866
40
0.577573672186342
40
0.586889058981818
40
0.600862139175032
40
0.60551983257277
40
0.614835219368246
40
0.624150606163722
40
0.638123686356936
40
0.642781379754674
40
0.65209676655015
40
0.661412153345626
40
0.67538523353884
40
0.680042926936578
40
0.689358313732054
40
0.69867370052753
40
0.712646780720744
40
0.717304474118482
40
0.726619860913958
40
0.735935247709434
40
0.749908327902648
40
0.754566021300386
40
0.763881408095862
40
0.773196794891338
40
0.787169875084552
40
0.79182756848229
40
0.801142955277764
40
0.810458342073243
40
0.824431422266457
40
0.829089115664194
40
0.838404502459669
40
0.847719889255145
40
0.860528546098925
40
0.866350662846098
40
0.872172779593272
40
0.884981436437049
40
0.903612210028001
40
0.936216063812167
40
0.940873757209906
40
0.950189144005384
40
0.959504530800857
40
0.973477610994074
40
0.97813530439181
40
0.987450691187286
40
0.996766077982761
40
1
40
1
40
1
40
1
41
1.00000000000001
10
25.0424748963866
20
0.0244850084353343
30
0
41
1.00000000000001
10
25.0338122716356
20
0.0268895476626196
30
0
41
1.00000000000001
10
25.0165234895334
20
0.0316884175192908
30
0
41
1.00000000000001
10
24.9819821383088
20
0.041273479256176
30
0
41
1.00000000000001
10
24.9388495480733
20
0.0532167221511197
30
0
41
1.00000000000001
10
24.8784645640927
20
0.0699143661394708
30
0
41
1.00000000000001
10
24.8267079775071
20
0.0842195791425972
30
0
41
1.00000000000001
10
24.7749506781765
20
0.0984985308218702
30
0
41
1.00000000000001
10
24.7318181228069
20
0.110360083136498
30
0
41
1.00000000000001
10
24.6714331985958
20
0.126922078161384
30
0
41
1.00000000000001
10
24.6196766723738
20
0.141088663017142
30
0
41
1.00000000000001
10
24.5679194362135
20
0.155209966192471
30
0
41
1.00000000000001
10
24.5247869297571
20
0.166927778175504
30
0
41
1.00000000000001
10
24.4644020578758
20
0.183266959388162
30
0
41
1.00000000000001
10
24.4126455550443
20
0.197220083023607
30
0
41
1.00000000000001
10
24.3608883193557
20
0.211109268935813
30
0
41
1.00000000000001
10
24.3177557973629
20
0.222621692992588
30
0
41
1.00000000000001
10
24.2573708808616
20
0.238652360056077
30
0
41
1.00000000000001
10
24.2056143231047
20
0.252319105561211
30
0
41
1.00000000000001
10
24.1538570279176
20
0.265903791605181
30
0
41
1.00000000000001
10
24.1107244608932
20
0.277150950865886
30
0
41
1.00000000000001
10
24.0503394991803
20
0.292789939198596
30
0
41
1.00000000000001
10
23.9985829248126
20
0.306099625049993
30
0
41
1.00000000000001
10
23.9468256353702
20
0.319309720986322
30
0
41
1.00000000000001
10
23.9036930877102
20
0.330233694379157
30
0
41
1.00000000000001
10
23.8433081723216
20
0.34540049472275
30
0
41
1.00000000000001
10
23.7915516501617
20
0.358284441602646
30
0
41
1.00000000000001
10
23.739794413704
20
0.371051424684506
30
0
41
1.00000000000001
10
23.6966619031636
20
0.381595278920028
30
0
41
1.00000000000001
10
23.6362770186635
20
0.396210492844201
30
0
41
1.00000000000001
10
23.5845204988691
20
0.408601033766725
30
0
41
1.00000000000001
10
23.5327632425112
20
0.420857867914375
30
0
41
1.00000000000001
10
23.4896307027333
20
0.43096628443882
30
0
41
1.00000000000001
10
23.4292457639486
20
0.444953303617037
30
0
41
1.00000000000001
10
23.377489191938
20
0.456785560601755
30
0
41
1.00000000000001
10
23.3257318890023
20
0.468468113509256
30
0
41
1.00000000000001
10
23.2825993210292
20
0.478088226606896
30
0
41
1.00000000000001
10
23.2222143675821
20
0.49137393548781
30
0
41
1.00000000000001
10
23.1704578087347
20
0.502586081831335
30
0
41
1.00000000000001
10
23.1187005396717
20
0.513633313196261
30
0
41
1.00000000000001
10
23.0755680099212
20
0.522714863698492
30
0
41
1.00000000000001
10
23.0151831176824
20
0.535229881398687
30
0
41
1.00000000000001
10
22.963426611533
20
0.545763409171054
30
0
41
1.00000000000001
10
22.911669385619
20
0.556117724439071
30
0
41
1.00000000000001
10
22.8685368797211
20
0.564613402691544
30
0
41
1.00000000000001
10
22.8081519953087
20
0.576292562280566
30
0
41
1.00000000000001
10
22.7563954704065
20
0.586092611006899
30
0
41
1.00000000000001
10
22.7046382066229
20
0.595700023405806
30
0
41
1.00000000000001
10
22.6615056612018
20
0.603565479481256
30
0
41
1.00000000000001
10
22.6011207185627
20
0.61434769867426
30
0
41
1.00000000000001
10
22.5493641488153
20
0.62336288497317
30
0
41
1.00000000000001
10
22.4976068543296
20
0.632172908149209
30
0
41
1.00000000000001
10
22.4544742979502
20
0.639366736636498
30
0
41
1.00000000000001
10
22.3940893674987
20
0.649195102399199
30
0
41
1.00000000000001
10
22.3423328333618
20
0.657377655007104
30
0
41
1.00000000000001
10
22.2905755905224
20
0.665343427625538
30
0
41
1.00000000000001
10
22.2474430815213
20
0.671827249258962
30
0
41
1.00000000000001
10
22.1870582132442
20
0.680649371625344
30
0
41
1.00000000000001
10
22.135301720848
20
0.687955995329809
30
0
41
1.00000000000001
10
22.0835445013848
20
0.695035958823063
30
0
41
1.00000000000001
10
22.0404119960164
20
0.70077639031316
30
0
41
1.00000000000001
10
21.9800271056675
20
0.708547416531325
30
0
41
1.00000000000001
10
21.928270570911
20
0.714941297187146
30
0
41
1.00000000000001
10
21.8765132961958
20
0.721099709630857
30
0
41
1.00000000000001
10
21.8333807431108
20
0.726067652136145
30
0
41
1.00000000000001
10
21.7729957944447
20
0.732747945302656
30
0
41
1.00000000000001
10
21.7212392247869
20
0.738196190837635
30
0
41
1.00000000000001
10
21.6694819351566
20
0.743401131649471
30
0
41
1.00000000000001
10
21.6263493856144
20
0.747570681581458
30
0
41
1.00000000000001
10
21.5659644679087
20
0.75312509645746
30
0
41
1.00000000000001
10
21.5142079463096
20
0.757598672352934
30
0
41
1.00000000000001
10
21.4624507150447
20
0.761822062088094
30
0
41
1.00000000000001
10
21.4193182152834
20
0.765170496686544
30
0
41
1.00000000000001
10
21.3589333627082
20
0.769568705604961
30
0
41
1.00000000000001
10
21.3071768896878
20
0.773043527871487
30
0
41
1.00000000000001
10
21.2554196989243
20
0.776263402542803
30
0
41
1.00000000000001
10
21.2122872144067
20
0.778773925085652
30
0
41
1.00000000000001
10
21.1519023188494
20
0.78199466115094
30
0
41
1.00000000000001
10
21.1001457243246
20
0.784454386598149
30
0
41
1.00000000000001
10
21.0483883205164
20
0.786655478180386
30
0
41
1.00000000000001
10
21.0052556240587
20
0.788315972878358
30
0
41
1.00000000000001
10
20.9448704672187
20
0.790343326137041
30
0
41
1.00000000000001
10
20.8931137587371
20
0.791775475393557
30
0
41
1.00000000000001
10
20.8413564211101
20
0.792946449353643
30
0
41
1.00000000000001
10
20.7982239026597
20
0.793748302839127
30
0
41
1.00000000000001
10
20.7378391165834
20
0.794571467178621
30
0
41
1.00000000000001
10
20.6860827520957
20
0.794967842298568
30
0
41
1.00000000000001
10
20.6343256549221
20
0.795101178010007
30
0
41
1.00000000000001
10
20.5911932266824
20
0.79503854242855
30
0
41
1.00000000000001
10
20.5308084041748
20
0.794650626549348
30
0
41
1.00000000000001
10
20.4790519042027
20
0.794007349493135
30
0
41
1.00000000000001
10
20.4272946681312
20
0.79310173351066
30
0
41
1.00000000000001
10
20.3841621456736
20
0.792175337832809
30
0
41
1.00000000000001
10
20.325934056702
20
0.790638694443707
30
0
41
1.00000000000001
10
20.2741771856809
20
0.788975660154755
30
0
41
1.00000000000001
10
20.2288898838589
20
0.787296514790278
30
0
41
1.00000000000001
10
20.1835999387502
20
0.785461458452595
30
0
41
1.00000000000001
10
20.1145856395475
20
0.782317964818582
30
0
41
1.00000000000001
10
19.995965438295
20
0.775919565577759
30
0
41
1.00000000000001
10
19.8924563577641
20
0.769011517273576
30
0
41
1.00000000000001
10
19.8062005893273
20
0.762422861865865
30
0
41
1.00000000000001
10
19.7630682227914
20
0.758951743343993
30
0
41
1.00000000000001
10
19.7026834147972
20
0.753805597369869
30
0
41
1.00000000000001
10
19.6509268990363
20
0.749093457966915
30
0
41
1.00000000000001
10
19.5991696393889
20
0.744133096533425
30
0
41
1.00000000000001
10
19.5560371017586
20
0.739842848227163
30
0
41
1.00000000000001
10
19.5155421059106
20
0.735628918028419
30
0
41
1.00000000000001
10
19.4923002466293
20
0.733138922079427
30
0
41
1.00000000000001
10
19.4863109021042
20
0.732492501326612
30
0
0
SPLINE
5
CB
100
AcDbEntity
8
1
62
256
6
ByLayer
370
18
48
1
60
0
100
AcDbSpline
70
4
71
3
72
8
73
4
40
0
40
0
40
0
40
0
40
1
40
1
40
1
40
1
41
1
10
29.9996831726334
20
0.0629095445464714
30
0
41
1
10
30.0001056091179
20
0.0209698481821476
30
0
41
1
10
30.0001056091179
20
-0.0209698481821761
30
0
41
1
10
29.9996831726334
20
-0.0629095445465282
30
0
0
SPLINE
5
CC
100
AcDbEntity
8
1
62
256
6
ByLayer
370
18
48
1
60
0
100
AcDbSpline
70
4
71
3
72
48
73
44
40
0
40
0
40
0
40
0
40
0.0293740780109559
40
0.0293740780109559
40
0.0890168474060652
40
0.0890168474060652
40
0.148659616801175
40
0.148659616801175
40
0.208302386196284
40
0.208302386196284
40
0.238123770893838
40
0.238123770893838
40
0.267945155591392
40
0.267945155591392
40
0.327587924986499
40
0.327587924986499
40
0.387230694381605
40
0.387230694381605
40
0.417052079079159
40
0.417052079079159
40
0.446873463776712
40
0.446873463776712
40
0.566159002566928
40
0.566159002566928
40
0.595980387264482
40
0.595980387264482
40
0.625801771962035
40
0.625801771962035
40
0.685444541357143
40
0.685444541357143
40
0.74508731075225
40
0.74508731075225
40
0.804730080147357
40
0.804730080147357
40
0.864372849542465
40
0.864372849542465
40
0.894194234240019
40
0.894194234240019
40
0.924015618937572
40
0.924015618937572
40
0.98365838833268
40
0.98365838833268
40
1
40
1
40
1
40
1
41
1
10
9.42554847178369
20
1.2099806199744
30
0
41
1
10
9.53715432703814
20
1.26014566024256
30
0
41
1
10
9.64949133683851
20
1.30783425531922
30
0
41
1
10
9.98760166073578
20
1.44203382400843
30
0
41
1
10
10.2121860733353
20
1.51862032031522
30
0
41
1
10
10.6608668956288
20
1.64272443378786
30
0
41
1
10
10.8850743675256
20
1.69017891173755
30
0
41
1
10
11.3363017322499
20
1.75363017270604
30
0
41
1
10
11.5641723005221
20
1.76943570493523
30
0
41
1
10
11.9044583646164
20
1.76788778301389
30
0
41
1
10
12.0177285164902
20
1.76322553135063
30
0
41
1
10
12.2445715775482
20
1.74561441658207
30
0
41
1
10
12.3583703503678
20
1.73259496280366
30
0
41
1
10
12.698466367919
20
1.68167503398683
30
0
41
1
10
12.9233243518775
20
1.63208859169293
30
0
41
1
10
13.3715501493077
20
1.50364767736721
30
0
41
1
10
13.5956854408412
20
1.42538132451338
30
0
41
1
10
13.9335831618707
20
1.28827307814905
30
0
41
1
10
14.0465865273453
20
1.23936988198878
30
0
41
1
10
14.2736243864498
20
1.13532227294533
30
0
41
1
10
14.3870441687454
20
1.08053784356463
30
0
41
1
10
14.9511198463321
20
0.796407503513166
30
0
41
1
10
15.3958257739756
20
0.533938632949372
30
0
41
1
10
15.960584760322
20
0.187547449078124
30
0
41
1
10
16.0744027845685
20
0.1171770793718
30
0
41
1
10
16.3007744098766
20
-0.0230037220564157
30
0
41
1
10
16.4134091423233
20
-0.0929778475085072
30
0
41
1
10
16.7505189388324
20
-0.301170333119387
30
0
41
1
10
16.9740631695738
20
-0.437886842588711
30
0
41
1
10
17.4223568876587
20
-0.701450771031801
30
0
41
1
10
17.6469551994303
20
-0.828534213828988
30
0
41
1
10
18.1007437005207
20
-1.06740008698003
30
0
41
1
10
18.326117671489
20
-1.17695327678453
30
0
41
1
10
18.7740645169058
20
-1.37237343068151
30
0
41
1
10
18.9976627527427
20
-1.45775138337325
30
0
41
1
10
19.3342368545653
20
-1.56559397689332
30
0
41
1
10
19.4465502979343
20
-1.59820403219987
30
0
41
1
10
19.6724358142973
20
-1.65586159850383
30
0
41
1
10
19.7861636947381
20
-1.68111837637099
30
0
41
1
10
20.1252633826639
20
-1.74447751167057
30
0
41
1
10
20.3492757782297
20
-1.77052094433853
30
0
41
1
10
20.6343418416567
20
-1.78295069347192
30
0
41
1
10
20.6956303250566
20
-1.78440274036856
30
0
41
1
10
20.7569328389106
20
-1.78463025819067
30
0
0
SPLINE
5
CD
100
AcDbEntity
8
1
62
256
6
ByLayer
370
18
48
1
60
0
100
AcDbSpline
70
4
71
3
72
14
73
10
40
0
40
0
40
0
40
0
40
0.291153305914949
40
0.291153305914949
40
0.645576652957467
40
0.645576652957467
40
0.822788326478734
40
0.822788326478734
40
1
40
1
40
1
40
1
41
1
10
27.4444308954202
20
1.23725535512801
30
0
41
1
10
27.6288559575442
20
1.32133254385454
30
0
41
1
10
27.8124109824845
20
1.39719697277135
30
0
41
1
10
28.2191844578101
20
1.54575798823953
30
0
41
1
10
28.4424499144002
20
1.6140624636634
30
0
41
1
10
28.7797983083414
20
1.69412239561853
30
0
41
1
10
28.8929788815856
20
1.71710050433262
30
0
41
1
10
29.1190973504364
20
1.75485527307447
30
0
41
1
10
29.2318539989204
20
1.76965877005304
30
0
41
1
10
29.3445685604511
20
1.78032551007482
30
0
0
SPLINE
5
CE
100
AcDbEntity
8
1
62
256
6
ByLayer
370
18
48
1
60
0
100
AcDbSpline
70
4
71
3
72
16
73
12
40
0
40
0
40
0
40
0
40
0.250000000000003
40
0.250000000000003
40
0.375000000000002
40
0.375000000000002
40
0.5
40
0.5
40
0.75
40
0.75
40
1
40
1
40
1
40
1
41
1
10
29.2310501347835
20
0.286310671408898
30
0
41
1
10
29.209428413302
20
0.195371596198044
30
0
41
1
10
29.1913896087021
20
0.103630133037967
30
0
41
1
10
29.1697489463462
20
-0.0351953112966044
30
0
41
1
10
29.1634425807162
20
-0.0816736226780961
30
0
41
1
10
29.1527067353725
20
-0.175050570749363
30
0
41
1
10
29.1482648393888
20
-0.222184652450295
30
0
41
1
10
29.1380646847538
20
-0.361766753916868
30
0
41
1
10
29.1353257753081
20
-0.452774710766704
30
0
41
1
10
29.137833770122
20
-0.630765900473023
30
0
41
1
10
29.1431561388764
20
-0.718294958054145
30
0
41
1
10
29.1525215391394
20
-0.802113335199323
30
0
0
SPLINE
5
CF
100
AcDbEntity
8
1
62
256
6
ByLayer
370
13
48
1
60
0
100
AcDbSpline
70
4
71
3
72
40
73
36
40
0
40
0
40
0
40
0
40
0.0250252549550644
40
0.0250252549550644
40
0.0702844473547942
40
0.0702844473547942
40
0.160802832154252
40
0.160802832154252
40
0.251321216953709
40
0.251321216953709
40
0.341839601753167
40
0.341839601753167
40
0.432357986552624
40
0.432357986552624
40
0.477617178952352
40
0.477617178952352
40
0.52287637135208
40
0.52287637135208
40
0.568135563751808
40
0.568135563751808
40
0.613394756151536
40
0.613394756151536
40
0.703913140950992
40
0.703913140950992
40
0.749172333350719
40
0.749172333350719
40
0.794431525750447
40
0.794431525750447
40
0.884949910549905
40
0.884949910549905
40
0.930209102949633
40
0.930209102949633
40
0.97546829534936
40
0.97546829534936
40
1
40
1
40
1
40
1
41
1
10
21.6243429173852
20
-1.72565408637391
30
0
41
1
10
21.5554739443399
20
-1.72527221357214
30
0
41
1
10
21.4864978493961
20
-1.72342217551059
30
0
41
1
10
21.2924517690196
20
-1.71406814740018
30
0
41
1
10
21.1667282640272
20
-1.70304999627035
30
0
41
1
10
20.7920863878811
20
-1.65525033348285
30
0
41
1
10
20.5440332741636
20
-1.60487404314344
30
0
41
1
10
20.0475725583985
20
-1.46851520204774
30
0
41
1
10
19.7987128396865
20
-1.38333501667236
30
0
41
1
10
19.2967165583902
20
-1.18087674219043
30
0
41
1
10
19.0480296949653
20
-1.06626808670646
30
0
41
1
10
18.5513193177833
20
-0.815748807856664
30
0
41
1
10
18.3031053168969
20
-0.680274778643167
30
0
41
1
10
17.9278769119091
20
-0.46599789410493
30
0
41
1
10
17.8020319972
20
-0.392722711946106
30
0
41
1
10
17.551142013437
20
-0.244674246078944
30
0
41
1
10
17.4258115109022
20
-0.169795923371879
30
0
41
1
10
17.17472960189
20
-0.0193799677880975
30
0
41
1
10
17.0490715689809
20
0.0559843127565216
30
0
41
1
10
16.7992766178478
20
0.205346381614447
30
0
41
1
10
16.67484619308
20
0.279475116654822
30
0
41
1
10
16.3017814073139
20
0.498165160134192
30
0
41
1
10
16.0536089146043
20
0.639565380754874
30
0
41
1
10
15.6788321491846
20
0.83957489499187
30
0
41
1
10
15.5530386493826
20
0.904290112688614
30
0
41
1
10
15.3021166538869
20
1.028110715396
30
0
41
1
10
15.1773025355368
20
1.0870845955732
30
0
41
1
10
14.8034203540111
20
1.25328341742971
30
0
41
1
10
14.5552957630967
20
1.35075961244402
30
0
41
1
10
14.1813279433652
20
1.47258141257839
30
0
41
1
10
14.0562900836552
20
1.50903759096434
30
0
41
1
10
13.8052876021412
20
1.57377383973042
30
0
41
1
10
13.6795840105253
20
1.60197310944929
30
0
41
1
10
13.4868944679291
20
1.63764085607284
30
0
41
1
10
13.4192204428016
20
1.64872607481951
30
0
41
1
10
13.3516159874143
20
1.65841781075514
30
0
0
SPLINE
5
D0
100
AcDbEntity
8
1
62
256
6
ByLayer
370
18
48
1
60
0
100
AcDbSpline
70
4
71
1
72
4
73
2
40
0
40
0
40
1
40
1
41
1
10
29.7058643620152
20
-0.35787486224018
30
0
41
1
10
29.7072037911969
20
-0.353353025104099
30
0
0
SPLINE
5
D1
100
AcDbEntity
8
1
62
256
6
ByLayer
370
13
48
1
60
0
100
AcDbSpline
70
4
71
3
72
112
73
108
40
0
40
0
40
0
40
0
40
0.0038146952686735
40
0.0131612631403578
40
0.0271811149478832
40
0.0318543988837263
40
0.0412009667554092
40
0.0505475346270934
40
0.0645673864346202
40
0.0692406703704633
40
0.0785872382421507
40
0.0879338061138318
40
0.101953657921357
40
0.106626941857201
40
0.115973509728885
40
0.125320077600568
40
0.139339929408095
40
0.144013213343939
40
0.153359781215623
40
0.162706349087308
40
0.176726200894835
40
0.181399484830676
40
0.190746052702359
40
0.200092620574045
40
0.21411247238157
40
0.218785756317414
40
0.228132324189099
40
0.237478892060781
40
0.251498743868309
40
0.256172027804151
40
0.265518595675836
40
0.27486516354752
40
0.288885015355048
40
0.293558299290889
40
0.302904867162573
40
0.312251435034257
40
0.326271286841785
40
0.330944570777627
40
0.340291138649311
40
0.349637706520995
40
0.363657558328522
40
0.368330842264364
40
0.377677410136048
40
0.387023978007732
40
0.40104382981526
40
0.405717113751102
40
0.415063681622786
40
0.42441024949447
40
0.438430101301997
40
0.443103385237839
40
0.452449953109524
40
0.461796520981207
40
0.475816372788734
40
0.480489656724577
40
0.489836224596261
40
0.499182792467945
40
0.513202644275472
40
0.517875928211314
40
0.527222496082998
40
0.536569063954683
40
0.55058891576221
40
0.555262199698052
40
0.564608767569737
40
0.573955335441421
40
0.587975187248947
40
0.592648471184789
40
0.601995039056474
40
0.611341606928158
40
0.625361458735685
40
0.630034742671527
40
0.639381310543211
40
0.648727878414896
40
0.662747730222422
40
0.667421014158265
40
0.676767582029949
40
0.686114149901634
40
0.70013400170916
40
0.704807285645002
40
0.714153853516686
40
0.723500421388371
40
0.737520273195898
40
0.74219355713174
40
0.751540125003424
40
0.760886692875109
40
0.774906544682635
40
0.779579828618477
40
0.788926396490161
40
0.798272964361846
40
0.812292816169371
40
0.816966100105215
40
0.826312667976898
40
0.835659235848583
40
0.849679087656112
40
0.854352371591953
40
0.863698939463635
40
0.87304550733532
40
0.885897038158887
40
0.89173864307869
40
0.897580247998494
40
0.91043177882206
40
0.929124914565427
40
0.961837902116323
40
0.966511186052165
40
0.97585775392385
40
0.985204321795535
40
0.99922417360306
40
1
40
1
40
1
40
1
41
1
10
17.446683933055
20
-0.735360647671087
30
0
41
1
10
17.4396425287832
20
-0.736104753565371
30
0
41
1
10
17.4153488997212
20
-0.738647943762459
30
0
41
1
10
17.3651765380155
20
-0.743733571129781
30
0
41
1
10
17.3134174769791
20
-0.74868312628945
30
0
41
1
10
17.2616591797737
20
-0.753392357904829
30
0
41
1
10
17.2185287525417
20
-0.757156383227567
30
0
41
1
10
17.1581455121039
20
-0.762134372957405
30
0
41
1
10
17.1063864794833
20
-0.766099218636015
30
0
41
1
10
17.0546281655808
20
-0.769818362526081
30
0
41
1
10
17.0114977155529
20
-0.772752695486872
30
0
41
1
10
16.9511144379297
20
-0.776563312711744
30
0
41
1
10
16.8993553646156
20
-0.779523130290755
30
0
41
1
10
16.8475970008826
20
-0.78223262646415
30
0
41
1
10
16.8044665065947
20
-0.784321507202804
30
0
41
1
10
16.7440831709424
20
-0.786943632532143
30
0
41
1
10
16.6923240575331
20
-0.788881261345807
30
0
41
1
10
16.6405656683972
20
-0.79056472255786
30
0
41
1
10
16.5974351650685
20
-0.791795041969948
30
0
41
1
10
16.5370518389987
20
-0.79321188115901
30
0
41
1
10
16.4852927553899
20
-0.794115173718581
30
0
41
1
10
16.4335344114488
20
-0.794763063314633
30
0
41
1
10
16.3904039493949
20
-0.795128737962131
30
0
41
1
10
16.3300206761297
20
-0.795334583669558
30
0
41
1
10
16.2782616268972
20
-0.795200950384611
30
0
41
1
10
16.2265033010634
20
-0.794811807150268
30
0
41
1
10
16.1833728415188
20
-0.794312247124452
30
0
41
1
10
16.1229895509595
20
-0.793307343759409
30
0
41
1
10
16.0712304684786
20
-0.792138043262895
30
0
41
1
10
16.0194720985651
20
-0.790713999821492
30
0
41
1
10
15.9763416023074
20
-0.789351611762584
30
0
41
1
10
15.9159582704152
20
-0.787140400135996
30
0
41
1
10
15.8641991665768
20
-0.784940292744693
30
0
41
1
10
15.8124407915762
20
-0.782487105209782
30
0
41
1
10
15.7693103019889
20
-0.78026733026968
30
0
41
1
10
15.7089269952402
20
-0.776858987093391
30
0
41
1
10
15.65716792543
20
-0.773638020788695
30
0
41
1
10
15.6054095896063
20
-0.770167974543625
30
0
41
1
10
15.5622791290906
20
-0.767102729110235
30
0
41
1
10
15.5018958482936
20
-0.762516466091455
30
0
41
1
10
15.4501367834914
20
-0.758293204698873
30
0
41
1
10
15.3983784359949
20
-0.753825996289294
30
0
41
1
10
15.3552479564159
20
-0.74993237583115
30
0
41
1
10
15.2948646366959
20
-0.74419325656865
30
0
41
1
10
15.2431055288531
20
-0.738990273950321
30
0
41
1
10
15.191347134528
20
-0.733549409138845
30
0
41
1
10
15.1482166191076
20
-0.728847683335374
30
0
41
1
10
15.0878332609205
20
-0.721985209825704
30
0
41
1
10
15.0360741329658
20
-0.715828881939302
30
0
41
1
10
14.9843157304918
20
-0.709441681329821
30
0
41
1
10
14.9411852112453
20
-0.703955304330776
30
0
41
1
10
14.880801846882
20
-0.696003784215179
30
0
41
1
10
14.829042712051
20
-0.688925354402329
30
0
41
1
10
14.7772842999881
20
-0.681625063157441
30
0
41
1
10
14.7341537683657
20
-0.675383192402904
30
0
41
1
10
14.6737703776502
20
-0.666385630658965
30
0
41
1
10
14.6220112125875
20
-0.658423786951374
30
0
41
1
10
14.5702527657157
20
-0.65025016805555
30
0
41
1
10
14.527122207341
20
-0.643286625109454
30
0
41
1
10
14.4667387912085
20
-0.63329147715146
30
0
41
1
10
14.4149796196123
20
-0.624488803471394
30
0
41
1
10
14.3632211817207
20
-0.615485359442033
30
0
41
1
10
14.320090644615
20
-0.607837075683165
30
0
41
1
10
14.259707284409
20
-0.596897129963594
30
0
41
1
10
14.2079481849816
20
-0.587299904847924
30
0
41
1
10
14.1561898351147
20
-0.577513825290396
30
0
41
1
10
14.1130593760101
20
-0.569220798026919
30
0
41
1
10
14.0526761216159
20
-0.557393109586343
30
0
41
1
10
14.000917101989
20
-0.547051235487459
30
0
41
1
10
13.9491588139708
20
-0.536533303645854
30
0
41
1
10
13.9060283904111
20
-0.527638512129556
30
0
41
1
10
13.845645157803
20
-0.514984281431964
30
0
41
1
10
13.7938861324239
20
-0.503951171617899
30
0
41
1
10
13.7421278247327
20
-0.492755638531804
30
0
41
1
10
13.6989973829817
20
-0.483304925710797
30
0
41
1
10
13.6386141303938
20
-0.469889323719258
30
0
41
1
10
13.5868550961053
20
-0.458221763370659
30
0
41
1
10
13.5350967898724
20
-0.446406242268779
30
0
41
1
10
13.4919663568674
20
-0.436448238699796
30
0
41
1
10
13.4315831248889
20
-0.422340298724436
30
0
41
1
10
13.3798241108631
20
-0.410098341429006
30
0
41
1
10
13.3280658198752
20
-0.39772368012828
30
0
41
1
10
13.2849353901775
20
-0.38730969069087
30
0
41
1
10
13.2245521425119
20
-0.372582192848228
30
0
41
1
10
13.1727930962774
20
-0.359829152522792
30
0
41
1
10
13.1210347610384
20
-0.34695955203199
30
0
41
1
10
13.0779042856481
20
-0.336143747902582
30
0
41
1
10
13.0175209613973
20
-0.320873525921201
30
0
41
1
10
12.9657618424464
20
-0.307676130594757
30
0
41
1
10
12.9140034358031
20
-0.294379031627784
30
0
41
1
10
12.8708729074254
20
-0.28321814693669
30
0
41
1
10
12.8104895228132
20
-0.267485423436682
30
0
41
1
10
12.758730363398
20
-0.253913153040912
30
0
41
1
10
12.7069719202726
20
-0.240258695356886
30
0
41
1
10
12.663841379023
20
-0.228811695709965
30
0
41
1
10
12.605614343249
20
-0.213278394786414
30
0
41
1
10
12.5538555582255
20
-0.199404912631962
30
0
41
1
10
12.5085666699358
20
-0.187216535356384
30
0
41
1
10
12.4632804302118
20
-0.174965649904948
30
0
41
1
10
12.3942738796174
20
-0.156203547009085
30
0
41
1
10
12.2756707543391
20
-0.123722744151507
30
0
41
1
10
12.1721485674808
20
-0.0952972564723211
30
0
41
1
10
12.0858782829475
20
-0.0715509316428324
30
0
41
1
10
12.0427476246535
20
-0.0596108363944552
30
0
41
1
10
11.982364191738
20
-0.0428735164277896
30
0
41
1
10
11.937799470768
20
-0.0305227944305386
30
0
41
1
10
11.9104881007571
20
-0.0229495487377562
30
0
41
1
10
11.9090560025258
20
-0.0225524227353446
30
0
0
SPLINE
5
D2
100
AcDbEntity
8
1
62
256
6
ByLayer
370
13
48
1
60
0
100
AcDbSpline
70
4
71
3
72
31
73
27
40
0
40
0
40
0
40
0
40
0.0389919641137341
40
0.101727221873605
40
0.122638974460233
40
0.164462479633482
40
0.206285984806735
40
0.269021242566621
40
0.28993299515326
40
0.331756500326516
40
0.373580005499771
40
0.436315263259648
40
0.45722701584629
40
0.499050521019567
40
0.540874026192815
40
0.603609283952692
40
0.624521036539317
40
0.666344541712569
40
0.708168046885836
40
0.770903304645729
40
0.791815057232345
40
0.83363856240561
40
0.875462067578872
40
0.938197325338739
40
0.959109077925374
40
1
40
1
40
1
40
1
41
1.00000000000001
10
29.6970640746987
20
0.794860512571425
30
0
41
1.00000000000001
10
29.6809792156324
20
0.794961874712122
30
0
41
1.00000000000001
10
29.6390152087857
20
0.795129272599716
30
0
41
1.00000000000001
10
29.5884266534604
20
0.795036054789527
30
0
41
1.00000000000001
10
29.5366693664926
20
0.794678008785802
30
0
41
1.00000000000001
10
29.4935368179048
20
0.794206915739345
30
0
41
1.00000000000001
10
29.4331518984462
20
0.793248115994736
30
0
41
1.00000000000001
10
29.3813953709003
20
0.792115797405408
30
0
41
1.00000000000001
10
29.3296381290161
20
0.790721866735559
30
0
41
1.00000000000001
10
29.2865056151363
20
0.789389667680148
30
0
41
1.00000000000001
10
29.2261207299674
20
0.787227357130199
30
0
41
1.00000000000001
10
29.1743642147036
20
0.7850642171692
30
0
41
1.00000000000001
10
29.1226069682621
20
0.782641399375557
30
0
41
1.00000000000001
10
29.0794744386278
20
0.780454502825158
30
0
41
1.00000000000001
10
29.0190895146594
20
0.777098622087316
30
0
41
1.00000000000001
10
28.9673329550977
20
0.773914178971886
30
0
41
1.00000000000001
10
28.9155756630665
20
0.770472859204425
30
0
41
1.00000000000001
10
28.8724431023534
20
0.767440490385774
30
0
41
1.00000000000001
10
28.81205815465
20
0.762905571549702
30
0
41
1.00000000000001
10
28.7603015956164
20
0.758714675217555
30
0
41
1.00000000000001
10
28.708544321463
20
0.754272511669307
30
0
41
1.00000000000001
10
28.6654117870364
20
0.75041133843282
30
0
41
1.00000000000001
10
28.6050268917064
20
0.744723595179658
30
0
41
1.00000000000001
10
28.5532703876986
20
0.739551040370337
30
0
41
1.00000000000001
10
28.5018978645074
20
0.734174125704975
30
0
41
1.00000000000001
10
28.4764030900492
20
0.73141632477887
30
0
41
1.00000000000001
10
28.4595348870901
20
0.729554235823536
30
0
0
SPLINE
5
D3
100
AcDbEntity
8
1
62
256
6
ByLayer
370
13
48
1
60
0
100
AcDbSpline
70
4
71
3
72
106
73
102
40
0
40
0
40
0
40
0
40
0.0011825701692936
40
0.0104450876002697
40
0.0243388637467364
40
0.0289701224622247
40
0.0382326398932013
40
0.0474951573241779
40
0.0613889334706427
40
0.0660201921861324
40
0.0752827096171098
40
0.084545227048086
40
0.0984390031945517
40
0.10307026191004
40
0.112332779341017
40
0.121595296771994
40
0.135489072918459
40
0.140120331633948
40
0.149382849064924
40
0.158645366495901
40
0.172539142642367
40
0.177170401357856
40
0.186432918788833
40
0.195695436219809
40
0.209589212366274
40
0.214220471081764
40
0.223482988512741
40
0.232745505943718
40
0.246639282090183
40
0.251270540805672
40
0.260533058236648
40
0.269795575667625
40
0.283689351814091
40
0.288320610529579
40
0.297583127960556
40
0.306845645391533
40
0.320739421537999
40
0.325370680253487
40
0.334633197684464
40
0.343895715115441
40
0.357789491261906
40
0.362420749977395
40
0.371683267408372
40
0.38094578483935
40
0.394839560985815
40
0.399470819701303
40
0.408733337132279
40
0.417995854563256
40
0.431889630709721
40
0.436520889425211
40
0.445783406856187
40
0.455045924287165
40
0.468939700433631
40
0.473570959149119
40
0.482833476580093
40
0.492095994011072
40
0.504831955478666
40
0.510621028873026
40
0.516410102267388
40
0.529146063734981
40
0.547671098596934
40
0.580089909605354
40
0.584721168320842
40
0.593983685751819
40
0.603246203182797
40
0.617139979329261
40
0.62177123804475
40
0.631033755475726
40
0.640296272906704
40
0.653032234374296
40
0.658821307768657
40
0.664610381163018
40
0.677346342630611
40
0.695871377492565
40
0.728290188500984
40
0.732921447216473
40
0.74218396464745
40
0.751446482078427
40
0.765340258224893
40
0.769971516940381
40
0.779234034371358
40
0.788496551802335
40
0.801232513269928
40
0.807021586664289
40
0.81281066005865
40
0.825546621526243
40
0.844071656388197
40
0.876490467396616
40
0.881121726112104
40
0.890384243543081
40
0.899646760974058
40
0.913540537120524
40
0.918171795836012
40
0.927434313266989
40
0.936696830697966
40
0.94943279216556
40
0.95522186555992
40
0.961010938954281
40
0.973746900421874
40
0.992271935283827
40
1
40
1
40
1
40
1
41
1.00000000000001
10
16.0431136922953
20
0.0242913264893046
30
0
41
1.00000000000001
10
16.0409109637635
20
0.0249020033398322
30
0
41
1.00000000000001
10
16.0214553002604
20
0.0302955046948338
30
0
41
1.00000000000001
10
15.9761205077926
20
0.0428579770146481
30
0
41
1.00000000000001
10
15.9243639897101
20
0.0572040747957767
30
0
41
1.00000000000001
10
15.8726067586358
20
0.071532782252546
30
0
41
1.00000000000001
10
15.8294742539678
20
0.0834415657489266
30
0
41
1.00000000000001
10
15.7690893835717
20
0.100079941825782
30
0
41
1.00000000000001
10
15.717332885603
20
0.11432291241374
30
0
41
1.00000000000001
10
15.6655756626823
20
0.128530005948476
30
0
41
1.00000000000001
10
15.6224431618424
20
0.140325428992269
30
0
41
1.00000000000001
10
15.5620582976203
20
0.156783891988538
30
0
41
1.00000000000001
10
15.5103018065236
20
0.170850244493123
30
0
41
1.00000000000001
10
15.4585445931886
20
0.184861622821954
30
0
41
1.00000000000001
10
15.415412104722
20
0.196481570514775
30
0
41
1.00000000000001
10
15.3550272668456
20
0.212672685268073
30
0
41
1.00000000000001
10
15.3032708059723
20
0.226487238199039
30
0
41
1.00000000000001
10
15.2515136274345
20
0.240228085784251
30
0
41
1.00000000000001
10
15.2083811657112
20
0.251610650645146
30
0
41
1.00000000000001
10
15.1479963532438
20
0.267448409104444
30
0
41
1.00000000000001
10
15.0962398989001
20
0.280938036956312
30
0
41
1.00000000000001
10
15.0444827113794
20
0.294335805975206
30
0
41
1.00000000000001
10
15.0013502283872
20
0.305421002451848
30
0
41
1.00000000000001
10
14.9409653599994
20
0.320822136057924
30
0
41
1.00000000000001
10
14.8892088334982
20
0.333916113699271
30
0
41
1.00000000000001
10
14.8374515579691
20
0.34690070313641
30
0
41
1.00000000000001
10
14.7943189969891
20
0.357630611061264
30
0
41
1.00000000000001
10
14.7339340228049
20
0.372514787400913
30
0
41
1.00000000000001
10
14.6821774165144
20
0.38514495787717
30
0
41
1.00000000000001
10
14.6304200791472
20
0.397648883481533
30
0
41
1.00000000000001
10
14.5872874826297
20
0.407967802181755
30
0
41
1.00000000000001
10
14.5269024866648
20
0.422257866751746
30
0
41
1.00000000000001
10
14.4751458861246
20
0.434358865501476
30
0
41
1.00000000000001
10
14.4233885684221
20
0.446317485680506
30
0
41
1.00000000000001
10
14.3802559900887
20
0.456172116490531
30
0
41
1.00000000000001
10
14.3198710140965
20
0.469794337660171
30
0
41
1.00000000000001
10
14.2681144224615
20
0.481303795704572
30
0
41
1.00000000000001
10
14.2163571032972
20
0.492655513902885
30
0
41
1.00000000000001
10
14.1732245162149
20
0.501995115276652
30
0
41
1.00000000000001
10
14.1128395196099
20
0.514879370694753
30
0
41
1.00000000000001
10
14.0610829077107
20
0.525738052118238
30
0
41
1.00000000000001
10
14.0093255733023
20
0.536424444658304
30
0
41
1.00000000000001
10
13.9661929829122
20
0.545200945713101
30
0
41
1.00000000000001
10
13.9058080019897
20
0.557280852261864
30
0
41
1.00000000000001
10
13.8540514222941
20
0.567432674203355
30
0
41
1.00000000000001
10
13.8022941321327
20
0.577398364909266
30
0
41
1.00000000000001
10
13.7591615874322
20
0.58556615776916
30
0
41
1.00000000000001
10
13.69877668309
20
0.596778728648809
30
0
41
1.00000000000001
10
13.6470201761038
20
0.606170557444694
30
0
41
1.00000000000001
10
13.5952629573359
20
0.615363261061953
30
0
41
1.00000000000001
10
13.5521304656136
20
0.622879423848724
30
0
41
1.00000000000001
10
13.4917456216223
20
0.633165600937525
30
0
41
1.00000000000001
10
13.439989155094
20
0.641747810994553
30
0
41
1.00000000000001
10
13.3882319728028
20
0.650118811938194
30
0
41
1.00000000000001
10
13.3450994939585
20
0.656943426235381
30
0
41
1.00000000000001
10
13.2868714519995
20
0.665919241177869
30
0
41
1.00000000000001
10
13.2351146112959
20
0.673656602435295
30
0
41
1.00000000000001
10
13.1898273270525
20
0.680239916280379
30
0
41
1.00000000000001
10
13.144537396153
20
0.686672116060259
30
0
41
1.00000000000001
10
13.0755231161209
20
0.696157899341807
30
0
41
1.00000000000001
10
12.9569029402283
20
0.711550329684166
30
0
41
1.00000000000001
10
12.853393872422
20
0.723868243941404
30
0
41
1.00000000000001
10
12.7671381102272
20
0.733369270479579
30
0
41
1.00000000000001
10
12.7240057483926
20
0.737918549416883
30
0
41
1.00000000000001
10
12.6636209526881
20
0.744008126430821
30
0
41
1.00000000000001
10
12.6118644532002
20
0.748944771339574
30
0
41
1.00000000000001
10
12.5601072148682
20
0.753634390170497
30
0
41
1.00000000000001
10
12.516974693632
20
0.75737279306491
30
0
41
1.00000000000001
10
12.4587466118825
20
0.762145852878938
30
0
41
1.00000000000001
10
12.4069897511944
20
0.766107420261556
30
0
41
1.00000000000001
10
12.361702459493
20
0.769358671398315
30
0
41
1.00000000000001
10
12.3164125250024
20
0.772447369665365
30
0
41
1.00000000000001
10
12.247398243508
20
0.776804744579032
30
0
41
1.00000000000001
10
12.1287780736579
20
0.783289720137042
30
0
41
1.00000000000001
10
12.0252690150418
20
0.787674049610381
30
0
41
1.00000000000001
10
11.9390132541696
20
0.790489617234606
30
0
41
1.00000000000001
10
11.8958808905315
20
0.791695599551268
30
0
41
1.00000000000001
10
11.8354960870094
20
0.793085346110154
30
0
41
1.00000000000001
10
11.7837395758814
20
0.793969089410943
30
0
41
1.00000000000001
10
11.7319823224782
20
0.794590826461238
30
0
41
1.00000000000001
10
11.6888497882657
20
0.794935212009584
30
0
41
1.00000000000001
10
11.6306216906883
20
0.795113028469522
30
0
41
1.00000000000001
10
11.5788648183701
20
0.79497355894113
30
0
41
1.00000000000001
10
11.5335775192531
20
0.794626191976555
30
0
41
1.00000000000001
10
11.4882875786138
20
0.794118421984216
30
0
41
1.00000000000001
10
11.4192732886713
20
0.792991091413249
30
0
41
1.00000000000001
10
11.3006531046044
20
0.790039863607085
30
0
41
1.00000000000001
10
11.1971440283928
20
0.786134845476362
30
0
41
1.00000000000001
10
11.1108882437708
20
0.78203734669443
30
0
41
1.00000000000001
10
11.0677558657357
20
0.779802830241657
30
0
41
1.00000000000001
10
11.0073710382557
20
0.776381116649155
30
0
41
1.00000000000001
10
10.9556145044384
20
0.773141377177631
30
0
41
1.00000000000001
10
10.903857228624
20
0.769645988244143
30
0
41
1.00000000000001
10
10.8607246781928
20
0.766569468030518
30
0
41
1.00000000000001
10
10.8024965651776
20
0.762139026359613
30
0
41
1.00000000000001
10
10.7507396858889
20
0.757911009311947
30
0
41
1.00000000000001
10
10.7054523859325
20
0.753994123248269
30
0
41
1.00000000000001
10
10.6601624469541
20
0.749931946954597
30
0
41
1.00000000000001
10
10.5911481628802
20
0.743412537529757
30
0
41
1.00000000000001
10
10.5185209176545
20
0.735975807959669
30
0
41
1.00000000000001
10
10.4696211123769
20
0.730657773407352
30
0
41
1.00000000000001
10
10.4552268283166
20
0.729065352678383
30
0
0
SPLINE
5
D4
100
AcDbEntity
8
1
62
256
6
ByLayer
370
18
48
1
60
0
100
AcDbSpline
70
4
71
3
72
10
73
6
40
0
40
0
40
0
40
0
40
0.5
40
0.5
40
1
40
1
40
1
40
1
41
1
10
29.6558967434383
20
0.580738966488468
30
0
41
1
10
29.6839276953189
20
0.607703506484711
30
0
41
1
10
29.7055983300704
20
0.641948058229929
30
0
41
1
10
29.7193178858886
20
0.719136729720276
30
0
41
1
10
29.7116341595129
20
0.758517817034573
30
0
41
1
10
29.6970640706155
20
0.794860522776304
30
0
0
SPLINE
5
D5
100
AcDbEntity
8
1
62
256
6
ByLayer
370
18
48
1
60
0
100
AcDbSpline
70
4
71
3
72
8
73
4
40
0
40
0
40
0
40
0
40
1
40
1
40
1
40
1
41
1
10
29.6970639994437
20
0.794860513590237
30
0
41
1
10
29.6629152435372
20
0.880039020614902
30
0
41
1
10
29.6473614469263
20
0.968461418277599
30
0
41
1
10
29.6407560199542
20
1.05844485821183
30
0
0
SPLINE
5
D6
100
AcDbEntity
8
1
62
256
6
ByLayer
370
18
48
1
60
0
100
AcDbSpline
70
4
71
3
72
14
73
10
40
0
40
0
40
0
40
0
40
0.0371145045209996
40
0.0371145045209996
40
0.358076336347333
40
0.358076336347333
40
0.679038168173667
40
0.679038168173667
40
1
40
1
40
1
40
1
41
1
10
4.96394805917956
20
1.75620953057879
30
0
41
1
10
4.96394408922842
20
1.75621974282211
30
0
41
1
10
4.96394012322418
20
1.75613049241306
30
0
41
1
10
4.96390178504606
20
1.75430954448518
30
0
41
1
10
4.96386647570017
20
1.74502213826048
30
0
41
1
10
4.96377756184853
20
1.71185152182366
30
0
41
1
10
4.96372381627046
20
1.68806532008318
30
0
41
1
10
4.96357667277667
20
1.62617565591347
30
0
41
1
10
4.96348238690416
20
1.58773739880425
30
0
41
1
10
4.9633586284551
20
1.54266484743599
30
0
0
SPLINE
5
D7
100
AcDbEntity
8
1
62
256
6
ByLayer
370
18
48
1
60
0
100
AcDbSpline
70
4
71
3
72
8
73
4
40
0
40
0
40
0
40
0
40
1
40
1
40
1
40
1
41
1
10
29.2310501347835
20
0.28631067140887
30
0
41
1
10
29.3176390997009
20
0.231405980561533
30
0
41
1
10
29.4050050728177
20
0.179841365036566
30
0
41
1
10
29.4932679376327
20
0.132132160343247
30
0
0
SPLINE
5
D8
100
AcDbEntity
8
1
62
256
6
ByLayer
370
18
48
1
60
0
100
AcDbSpline
70
4
71
3
72
12
73
8
40
0
40
0
40
0
40
0
40
0.499999999999991
40
0.499999999999991
40
0.749999999999995
40
0.749999999999995
40
1
40
1
40
1
40
1
41
1
10
29.3445685604511
20
1.78032551007485
30
0
41
1
10
29.3928431135696
20
1.66843629091571
30
0
41
1
10
29.4421325759028
20
1.55276299881302
30
0
41
1
10
29.5166086463619
20
1.3725857591015
30
0
41
1
10
29.5415236949975
20
1.31142457297878
30
0
41
1
10
29.5913207478529
20
1.1866305344806
30
0
41
1
10
29.6162884105889
20
1.12274294341662
30
0
41
1
10
29.6407560199542
20
1.05844485821183
30
0
0
SPLINE
5
D9
100
AcDbEntity
8
1
62
256
6
ByLayer
370
18
48
1
60
0
100
AcDbSpline
70
4
71
3
72
10
73
6
40
0
40
0
40
0
40
0
40
0.5
40
0.5
40
1
40
1
40
1
40
1
41
1
10
4.9650051074546
20
-1.24580992599272
30
0
41
1
10
5.02210149511274
20
-1.24906648892804
30
0
41
1
10
5.07995505599305
20
-1.25890512050958
30
0
41
1
10
5.19348059348914
20
-1.28777639126676
30
0
41
1
10
5.24951938711945
20
-1.30679641433099
30
0
41
1
10
5.30499727451911
20
-1.32940928390857
30
0
0
SPLINE
5
DA
100
AcDbEntity
8
1
62
256
6
ByLayer
370
18
48
1
60
0
100
AcDbSpline
70
4
71
3
72
8
73
4
40
0
40
0
40
0
40
0
40
1
40
1
40
1
40
1
41
1
10
29.3445685604511
20
-1.78032551007482
30
0
41
1
10
29.3295049611727
20
-1.7639149912489
30
0
41
1
10
29.3174946305114
20
-1.73728616438791
30
0
41
1
10
29.3081343441116
20
-1.70058890015196
30
0
0
SPLINE
5
DB
100
AcDbEntity
8
1
62
256
6
ByLayer
370
18
48
1
60
0
100
AcDbSpline
70
4
71
3
72
14
73
10
40
0
40
0
40
0
40
0
40
0.285691050420184
40
0.285691050420184
40
0.571382100840368
40
0.571382100840368
40
0.857073151260552
40
0.857073151260552
40
1
40
1
40
1
40
1
41
1
10
6.71169095359448
20
-0.776972346743605
30
0
41
1
10
6.74911802178153
20
-0.67569906830704
30
0
41
1
10
6.80033160268681
20
-0.570746447849217
30
0
41
1
10
6.91852387429253
20
-0.377680629463384
30
0
41
1
10
6.98539148471795
20
-0.289748879983051
30
0
41
1
10
7.11925251176152
20
-0.151361437641981
30
0
41
1
10
7.18612012218694
20
-0.101035805020757
30
0
41
1
10
7.27478114793146
20
-0.0625445770573663
30
0
41
1
10
7.30237315469736
20
-0.0558958138442449
30
0
41
1
10
7.32725302239669
20
-0.0554471059037951
30
0
0
SPLINE
5
DC
100
AcDbEntity
8
1
62
256
6
ByLayer
370
13
48
1
60
0
100
AcDbSpline
70
4
71
3
72
106
73
102
40
0
40
0
40
0
40
0
40
0.0174742572409915
40
0.0500467936542768
40
0.0547000131418915
40
0.0640064521171173
40
0.0733128910923395
40
0.0872725495551773
40
0.0919257690427915
40
0.101232208018018
40
0.110538646993242
40
0.123335000584177
40
0.129151524943692
40
0.134968049303206
40
0.147764402894144
40
0.16637728084459
40
0.198949817257879
40
0.203603036745492
40
0.212909475720715
40
0.222215914695942
40
0.23617557315878
40
0.240828792646392
40
0.250135231621618
40
0.259441670596842
40
0.272238024187775
40
0.278054548547292
40
0.283871072906808
40
0.296667426497742
40
0.315280304448192
40
0.34785284086148
40
0.352506060349092
40
0.361812499324317
40
0.371118938299542
40
0.385078596762379
40
0.389731816249992
40
0.399038255225216
40
0.408344694200442
40
0.422304352663281
40
0.426957572150892
40
0.436264011126117
40
0.445570450101343
40
0.45953010856418
40
0.464183328051792
40
0.473489767027019
40
0.482796206002245
40
0.496755864465081
40
0.501409083952692
40
0.510715522927917
40
0.520021961903143
40
0.53398162036598
40
0.538634839853592
40
0.547941278828816
40
0.557247717804043
40
0.57120737626688
40
0.575860595754492
40
0.585167034729716
40
0.594473473704944
40
0.608433132167779
40
0.613086351655392
40
0.622392790630618
40
0.631699229605843
40
0.645658888068681
40
0.650312107556292
40
0.659618546531518
40
0.668924985506742
40
0.68288464396958
40
0.687537863457193
40
0.696844302432418
40
0.706150741407643
40
0.720110399870481
40
0.724763619358093
40
0.734070058333317
40
0.743376497308542
40
0.75733615577138
40
0.761989375258993
40
0.771295814234218
40
0.780602253209443
40
0.794561911672281
40
0.799215131159893
40
0.808521570135118
40
0.817828009110343
40
0.831787667573181
40
0.836440887060793
40
0.845747326036018
40
0.855053765011243
40
0.869013423474081
40
0.873666642961693
40
0.882973081936918
40
0.892279520912143
40
0.906239179374981
40
0.910892398862593
40
0.920198837837819
40
0.929505276813043
40
0.943464935275881
40
0.948118154763493
40
0.957424593738718
40
0.966731032713943
40
0.980690691176781
40
0.985343910664393
40
0.994650349639618
40
1
40
1
40
1
40
1
41
1
10
26.4768491398772
20
-0.732135169189718
30
0
41
1
10
26.4444568083963
20
-0.735638949133403
30
0
41
1
10
26.3516847100821
20
-0.745264007223881
30
0
41
1
10
26.250273488614
20
-0.754552932168053
30
0
41
1
10
26.1640032227019
20
-0.761654523355361
30
0
41
1
10
26.1208725757452
20
-0.765030028819439
30
0
41
1
10
26.0604891629758
20
-0.769461104702401
30
0
41
1
10
26.0087300575007
20
-0.772954624466564
30
0
41
1
10
25.9569716937103
20
-0.776199829112898
30
0
41
1
10
25.9138412138335
20
-0.778736994572995
30
0
41
1
10
25.8556142399365
20
-0.78187397916173
30
0
41
1
10
25.8038554899456
20
-0.784366872791225
30
0
41
1
10
25.7585666177251
20
-0.786330170714763
30
0
41
1
10
25.7132803877811
20
-0.788138510240771
30
0
41
1
10
25.6442738445709
20
-0.790536587828683
30
0
41
1
10
25.5256707166487
20
-0.793628848349471
30
0
41
1
10
25.4221485217532
20
-0.794996298638893
30
0
41
1
10
25.3358782440604
20
-0.795304506162751
30
0
41
1
10
25.2927475938451
20
-0.795260799449238
30
0
41
1
10
25.2323641807903
20
-0.794893715333984
30
0
41
1
10
25.1806050779809
20
-0.794269781437862
30
0
41
1
10
25.128846717467
20
-0.793390488965002
30
0
41
1
10
25.0857162386086
20
-0.792482127631786
30
0
41
1
10
25.0274892614319
20
-0.790963937458542
30
0
41
1
10
24.9757305040085
20
-0.789319622614784
30
0
41
1
10
24.9304416220607
20
-0.787663321273783
30
0
41
1
10
24.8851553809035
20
-0.785844487714684
30
0
41
1
10
24.8161488188463
20
-0.782712328142964
30
0
41
1
10
24.6975456574406
20
-0.776301315869148
30
0
41
1
10
24.594023440535
20
-0.769441414043968
30
0
41
1
10
24.5077531578158
20
-0.762932433431246
30
0
41
1
10
24.4646225109359
20
-0.759474206597929
30
0
41
1
10
24.4042391195689
20
-0.754341228353752
30
0
41
1
10
24.3524800556698
20
-0.74965347321222
30
0
41
1
10
24.3007217547969
20
-0.744724725759028
30
0
41
1
10
24.2575913249577
20
-0.740448069338242
30
0
41
1
10
24.1972080803687
20
-0.734176514704046
30
0
41
1
10
24.1454490410387
20
-0.728521685575544
30
0
41
1
10
24.0936907149801
20
-0.722632257884726
30
0
41
1
10
24.0505602502666
20
-0.717558562097167
30
0
41
1
10
23.9901769458937
20
-0.710179831389013
30
0
41
1
10
23.9384178461852
20
-0.703586504587292
30
0
41
1
10
23.8866594569403
20
-0.696766772106855
30
0
41
1
10
23.843528943303
20
-0.690922655106363
30
0
41
1
10
23.7831455865925
20
-0.682475991338578
30
0
41
1
10
23.7313864634926
20
-0.674979489006518
30
0
41
1
10
23.679628073778
20
-0.667265827428082
30
0
41
1
10
23.6364975756799
20
-0.660682285478686
30
0
41
1
10
23.5761142635955
20
-0.651212189579724
30
0
41
1
10
23.5243551954294
20
-0.642851720112219
30
0
41
1
10
23.4725968652253
20
-0.634284278063802
30
0
41
1
10
23.4294664121674
20
-0.626995461284849
30
0
41
1
10
23.369083145301
20
-0.616550846578377
30
0
41
1
10
23.3173240937454
20
-0.607369379331487
30
0
41
1
10
23.2655657577923
20
-0.597992034250296
30
0
41
1
10
23.2224352853649
20
-0.590035185149674
30
0
41
1
10
23.1620519721648
20
-0.578669434553177
30
0
41
1
10
23.110292868391
20
-0.568714095021278
30
0
41
1
10
23.0585344794408
20
-0.558575356690682
30
0
41
1
10
23.0154039698857
20
-0.549991918897859
30
0
41
1
10
22.9550206257931
20
-0.53776459922463
30
0
41
1
10
22.9032615196568
20
-0.527087785832833
30
0
41
1
10
22.8515031506139
20
-0.516240997309069
30
0
41
1
10
22.8083726703029
20
-0.507076070991417
30
0
41
1
10
22.7479893805036
20
-0.49405132976878
30
0
41
1
10
22.6962303265921
20
-0.482708970445202
30
0
41
1
10
22.6444720041376
20
-0.471210903466328
30
0
41
1
10
22.601341552029
20
-0.46151243177971
30
0
41
1
10
22.5409582768963
20
-0.447758361942249
30
0
41
1
10
22.4891992098185
20
-0.435809717883416
30
0
41
1
10
22.4374408534827
20
-0.42372042654074
30
0
41
1
10
22.3943103631431
20
-0.413539059108103
30
0
41
1
10
22.3339270267907
20
-0.399127472158142
30
0
41
1
10
22.2821679070055
20
-0.386634892683844
30
0
41
1
10
22.2304095075112
20
-0.374017413023069
30
0
41
1
10
22.1872789933137
20
-0.363406204341828
30
0
41
1
10
22.1268956491342
20
-0.348412177765482
30
0
41
1
10
22.0751365481076
20
-0.335440765953479
30
0
41
1
10
22.0233781864935
20
-0.322360924265808
30
0
41
1
10
21.980247711828
20
-0.311375284271747
30
0
41
1
10
21.9198644258856
20
-0.295877212630472
30
0
41
1
10
21.868105369712
20
-0.282494904824119
30
0
41
1
10
21.8163470388084
20
-0.269021311324593
30
0
41
1
10
21.7732165751068
20
-0.257718934485922
30
0
41
1
10
21.712833276979
20
-0.241798351460801
30
0
41
1
10
21.6610741851904
20
-0.228075711488344
30
0
41
1
10
21.6093158026295
20
-0.214279549931348
30
0
41
1
10
21.5661852915396
20
-0.202720241865592
30
0
41
1
10
21.5058019312259
20
-0.18646131913232
30
0
41
1
10
21.4540427976886
20
-0.172470554166693
30
0
41
1
10
21.4022843917454
20
-0.158423821178985
30
0
41
1
10
21.3591538770198
20
-0.146667463730381
30
0
41
1
10
21.2987705387789
20
-0.130153881261293
30
0
41
1
10
21.2470114476089
20
-0.115966708379886
30
0
41
1
10
21.1952530969297
20
-0.101741534941397
30
0
41
1
10
21.1521226299305
20
-0.0898486480917029
30
0
41
1
10
21.0917393500165
20
-0.0731656940744472
30
0
41
1
10
21.0399802937532
20
-0.0588556905950952
30
0
41
1
10
20.9882219579931
20
-0.0445261030652944
30
0
41
1
10
20.9524265446211
20
-0.0345939888578926
30
0
41
1
10
20.9252569943111
20
-0.0270515734536616
30
0
41
1
10
20.9153397156771
20
-0.0242986012549125
30
0
0
SPLINE
5
DD
100
AcDbEntity
8
1
62
256
6
ByLayer
370
13
48
1
60
0
100
AcDbSpline
70
4
71
3
72
41
73
37
40
0
40
0
40
0
40
0
40
0.0056659322222279
40
0.0495336116830114
40
0.0641561715032726
40
0.0934012911437963
40
0.122646410784317
40
0.166514090245102
40
0.181136650065363
40
0.210381769705887
40
0.239626889346409
40
0.283494568807194
40
0.298117128627455
40
0.327362248267978
40
0.3566073679085
40
0.400475047369284
40
0.415097607189546
40
0.444342726830069
40
0.473587846470591
40
0.517455525931376
40
0.532078085751637
40
0.561323205392159
40
0.590568325032682
40
0.634436004493467
40
0.649058564313728
40
0.67830368395425
40
0.707548803594772
40
0.751416483055557
40
0.766039042875818
40
0.795284162516341
40
0.824529282156863
40
0.868396961617648
40
0.883019521437909
40
0.89764208125817
40
0.941509760718955
40
1
40
1
40
1
40
1
41
1
10
8.48148660250948
20
-0.731642541459877
30
0
41
1
10
8.47814410702182
20
-0.7320059574852
30
0
41
1
10
8.44892273755175
20
-0.735170167697049
30
0
41
1
10
8.41107410602541
20
-0.739123057688602
30
0
41
1
10
8.35931575994917
20
-0.744290839255683
30
0
41
1
10
8.31618527886252
20
-0.748438973030545
30
0
41
1
10
8.25580195268196
20
-0.753957189285273
30
0
41
1
10
8.20404283712062
20
-0.758386990701069
30
0
41
1
10
8.15228443605386
20
-0.762573274471407
30
0
41
1
10
8.10915391627032
20
-0.76589886985505
30
0
41
1
10
8.04877055792406
20
-0.770259730590709
30
0
41
1
10
7.99701143993346
20
-0.773693109488335
30
0
41
1
10
7.94525305967346
20
-0.776878345511307
30
0
41
1
10
7.90212257055117
20
-0.779365619537572
30
0
41
1
10
7.84173926967136
20
-0.782547946431919
30
0
41
1
10
7.78998020779423
20
-0.784967692912375
30
0
41
1
10
7.73822187882206
20
-0.787135472237566
30
0
41
1
10
7.69509142234986
20
-0.788771317786512
30
0
41
1
10
7.63470814346974
20
-0.790757750592064
30
0
41
1
10
7.58294907595268
20
-0.792149970329518
30
0
41
1
10
7.5311907216572
20
-0.793287211231899
30
0
41
1
10
7.48806023511074
20
-0.794061304963066
30
0
41
1
10
7.42767690781483
20
-0.794838896026874
30
0
41
1
10
7.37591779901749
20
-0.795194561073117
30
0
41
1
10
7.32415941221748
20
-0.79529456971224
30
0
41
1
10
7.28102890957794
20
-0.795203000895924
30
0
41
1
10
7.22064558281602
20
-0.794768806886935
30
0
41
1
10
7.16888649728975
20
-0.794087494927993
30
0
41
1
10
7.11712815074159
20
-0.793150938726313
30
0
41
1
10
7.07399768821318
20
-0.792194889776539
30
0
41
1
10
7.01361441731356
20
-0.790551641094567
30
0
41
1
10
6.96185537064736
20
-0.788836764098335
30
0
41
1
10
6.91872264864807
20
-0.787203022773127
30
0
41
1
10
6.87559305507725
20
-0.785433939780972
30
0
41
1
10
6.80658600860755
20
-0.782244153508088
30
0
41
1
10
6.7461982508411
20
-0.778991679240391
30
0
41
1
10
6.7116909535946
20
-0.776972346743634
30
0
0
SPLINE
5
DE
100
AcDbEntity
8
1
62
256
6
ByLayer
370
18
48
1
60
0
100
AcDbSpline
70
4
71
3
72
10
73
6
40
0
40
0
40
0
40
0
40
0.5
40
0.5
40
1
40
1
40
1
40
1
41
1
10
29.2961861319204
20
-1.6878190721882
30
0
41
1
10
29.2956490111792
20
-1.65554719265452
30
0
41
1
10
29.2912807336314
20
-1.62781854004092
30
0
41
1
10
29.2783615875486
20
-1.57954924925434
30
0
41
1
10
29.2699153177384
20
-1.55912995182291
30
0
41
1
10
29.2600886602637
20
-1.54129213567782
30
0
0
SPLINE
5
DF
100
AcDbEntity
8
1
62
256
6
ByLayer
370
18
48
1
60
0
100
AcDbSpline
70
4
71
3
72
8
73
4
40
0
40
0
40
0
40
0
40
1
40
1
40
1
40
1
41
1
10
29.9996831726336
20
-0.0629095445459598
30
0
41
1
10
29.9657829519402
20
-0.150651902948368
30
0
41
1
10
29.9328673938862
20
-0.239126261780683
30
0
41
1
10
29.9008358027322
20
-0.328329317283021
30
0
0
SPLINE
5
E0
100
AcDbEntity
8
1
62
256
6
ByLayer
370
18
48
1
60
0
100
AcDbSpline
70
4
71
3
72
18
73
14
40
0
40
0
40
0
40
0
40
0.335964828320828
40
0.335964828320828
40
0.419956035401032
40
0.419956035401032
40
0.503947242481236
40
0.503947242481236
40
0.671929656641648
40
0.671929656641648
40
0.83991207080206
40
0.83991207080206
40
1
40
1
40
1
40
1
41
1
10
7.72997215269322
20
-0.287777901057581
30
0
41
1
10
8.185147074144
20
-0.5645704303993
30
0
41
1
10
8.63144778163655
20
-0.82390481193093
30
0
41
1
10
9.19429102151562
20
-1.10310364717844
30
0
41
1
10
9.30712677751202
20
-1.15666257048957
30
0
41
1
10
9.53368545612415
20
-1.25867188836347
30
0
41
1
10
9.64774199185962
20
-1.30713895784692
30
0
41
1
10
9.98754294812466
20
-1.44201244751662
30
0
41
1
10
10.2121216504008
20
-1.51859953889255
30
0
41
1
10
10.6607909907635
20
-1.64270639992813
30
0
41
1
10
10.8849925028704
20
-1.69016319403474
30
0
41
1
10
11.3256045713146
20
-1.75212995247068
30
0
41
1
10
11.5426592017473
20
-1.76790982107599
30
0
41
1
10
11.7589335861217
20
-1.76843753605158
30
0
0
SPLINE
5
E1
100
AcDbEntity
8
1
62
256
6
ByLayer
370
18
48
1
60
0
100
AcDbSpline
70
4
71
3
72
48
73
44
40
0
40
0
40
0
40
0
40
0.0104197587574586
40
0.0104197587574586
40
0.0722685238351191
40
0.0722685238351191
40
0.10319290637395
40
0.10319290637395
40
0.13411728891278
40
0.13411728891278
40
0.195966053990442
40
0.195966053990442
40
0.257814819068104
40
0.257814819068104
40
0.319663584145766
40
0.319663584145766
40
0.381512349223428
40
0.381512349223428
40
0.443361114301089
40
0.443361114301089
40
0.474285496839921
40
0.474285496839921
40
0.505209879378751
40
0.505209879378751
40
0.628907409534074
40
0.628907409534074
40
0.690756174611734
40
0.690756174611734
40
0.721680557150564
40
0.721680557150564
40
0.752604939689394
40
0.752604939689394
40
0.783529322228221
40
0.783529322228221
40
0.814453704767047
40
0.814453704767047
40
0.876302469844698
40
0.876302469844698
40
0.938151234922349
40
0.938151234922349
40
0.969075617461175
40
0.969075617461175
40
1
40
1
40
1
40
1
41
1
10
18.4364940777045
20
1.22415406731881
30
0
41
1
10
18.4743065694192
20
1.24127961395539
30
0
41
1
10
18.5120786678393
20
1.25807843341838
30
0
41
1
10
18.7737788286952
20
1.37225893676481
30
0
41
1
10
18.9973715381265
20
1.45764526621502
30
0
41
1
10
19.3339350839179
20
1.56550367716366
30
0
41
1
10
19.4462452187297
20
1.59811907244242
30
0
41
1
10
19.6721227340524
20
1.65578875290242
30
0
41
1
10
19.7858475391995
20
1.68105185432643
30
0
41
1
10
20.1249411896388
20
1.74443217987707
30
0
41
1
10
20.3489478010922
20
1.77049068785757
30
0
41
1
10
20.7964553564499
20
1.7900352687661
30
0
41
1
10
21.0199483427444
20
1.78354205255397
30
0
41
1
10
21.4696651035689
20
1.73769636364648
30
0
41
1
10
21.6972819338028
20
1.69789848328685
30
0
41
1
10
22.1472684797271
20
1.58850705540837
30
0
41
1
10
22.3706571407994
20
1.51892326851655
30
0
41
1
10
22.8179392598158
20
1.35347195424208
30
0
41
1
10
23.0416864342632
20
1.2574729348166
30
0
41
1
10
23.3801309783535
20
1.09594203192
30
0
41
1
10
23.4937304892362
20
1.03899201809247
30
0
41
1
10
23.7194593162718
20
0.921345374227712
30
0
41
1
10
23.8318128159939
20
0.860454363420104
30
0
41
1
10
24.3921572977762
20
0.547404967975154
30
0
41
1
10
24.8362062982233
20
0.26974008640309
30
0
41
1
10
25.5161595646745
20
-0.15532186583934
30
0
41
1
10
25.7415674754581
20
-0.296303276097404
30
0
41
1
10
26.0805221123965
20
-0.502419704600584
30
0
41
1
10
26.1938503745708
20
-0.570338046868557
30
0
41
1
10
26.4201027273701
20
-0.702860251712849
30
0
41
1
10
26.5328442448401
20
-0.76775852785326
30
0
41
1
10
26.7587469673363
20
-0.89312111651563
30
0
41
1
10
26.8716158323829
20
-0.954008720721077
30
0
41
1
10
27.0978221426434
20
-1.07128070197135
30
0
41
1
10
27.2110568467224
20
-1.12770901419645
30
0
41
1
10
27.5485610177685
20
-1.28771595674252
30
0
41
1
10
27.7720259077675
20
-1.38242811600853
30
0
41
1
10
28.2186558358462
20
-1.54558437880988
30
0
41
1
10
28.4419129279872
20
-1.61391053656692
30
0
41
1
10
28.7792491198894
20
-1.69400426148613
30
0
41
1
10
28.8923864837662
20
-1.71698887815145
30
0
41
1
10
29.1186272180357
20
-1.75478943010469
30
0
41
1
10
29.2315606556873
20
-1.7696310095227
30
0
41
1
10
29.344568560451
20
-1.78032551007482
30
0
0
SPLINE
5
E2
100
AcDbEntity
8
1
62
256
6
ByLayer
370
18
48
1
60
0
100
AcDbSpline
70
4
71
3
72
20
73
16
40
0
40
0
40
0
40
0
40
0.235484796371211
40
0.235484796371211
40
0.470969592742422
40
0.470969592742422
40
0.588711990928027
40
0.588711990928027
40
0.706454389113633
40
0.706454389113633
40
0.824196787299238
40
0.824196787299238
40
0.941939185484843
40
0.941939185484843
40
1
40
1
40
1
40
1
41
1
10
6.39663124971975
20
-1.62948713511037
30
0
41
1
10
6.63723944190849
20
-1.66983700023186
30
0
41
1
10
6.87500486961986
20
-1.69294473810066
30
0
41
1
10
7.34953541748757
20
-1.7034803904119
30
0
41
1
10
7.58610541945518
20
-1.69189930337507
30
0
41
1
10
7.94283686404188
20
-1.64761495763858
30
0
41
1
10
8.06198182987703
20
-1.62921323198671
30
0
41
1
10
8.30145265334727
20
-1.58255232340963
30
0
41
1
10
8.42189588023578
20
-1.55428218708488
30
0
41
1
10
8.66094238111788
20
-1.49090767270752
30
0
41
1
10
8.77995933412114
20
-1.45585572882069
30
0
41
1
10
9.01753474812588
20
-1.37834412572829
30
0
41
1
10
9.13607528530591
20
-1.33524039939169
30
0
41
1
10
9.31306033379022
20
-1.26635103701278
30
0
41
1
10
9.37153462090185
20
-1.24289693790504
30
0
41
1
10
9.43002038513546
20
-1.21871751908094
30
0
0
SPLINE
5
E3
100
AcDbEntity
8
1
62
256
6
ByLayer
370
18
48
1
60
0
100
AcDbSpline
70
4
71
3
72
64
73
60
40
0
40
0
40
0
40
0
40
0.0172963550473927
40
0.0172963550473927
40
0.049033324058277
40
0.049033324058277
40
0.0807702930691614
40
0.0807702930691614
40
0.112507262080046
40
0.112507262080046
40
0.14424423109093
40
0.14424423109093
40
0.175981200101814
40
0.175981200101814
40
0.207718169112699
40
0.207718169112699
40
0.239455138123583
40
0.239455138123583
40
0.271192107134467
40
0.271192107134467
40
0.302929076145352
40
0.302929076145352
40
0.334666045156236
40
0.334666045156236
40
0.36640301416712
40
0.36640301416712
40
0.398139983178004
40
0.398139983178004
40
0.461613921199772
40
0.461613921199772
40
0.493350890210656
40
0.493350890210656
40
0.52508785922154
40
0.52508785922154
40
0.556824828232425
40
0.556824828232425
40
0.588561797243309
40
0.588561797243309
40
0.620298766254193
40
0.620298766254193
40
0.652035735265078
40
0.652035735265078
40
0.683772704275962
40
0.683772704275962
40
0.715509673286846
40
0.715509673286846
40
0.747246642297731
40
0.747246642297731
40
0.778983611308615
40
0.778983611308615
40
0.810720580319499
40
0.810720580319499
40
0.842457549330384
40
0.842457549330384
40
0.905931487352153
40
0.905931487352153
40
0.969405425373925
40
0.969405425373925
40
1
40
1
40
1
40
1
41
1
10
16.2051974427712
20
1.71607260223277
30
0
41
1
10
16.2698113406459
20
1.71621377759376
30
0
41
1
10
16.334479604505
20
1.71511413359016
30
0
41
1
10
16.5180491127218
20
1.70870064636711
30
0
41
1
10
16.6371204833078
20
1.70012871087917
30
0
41
1
10
16.8767991040327
20
1.67272803657991
30
0
41
1
10
16.9967189439442
20
1.65426921623467
30
0
41
1
10
17.2350641680524
20
1.61066677540634
30
0
41
1
10
17.3538972123201
20
1.58477549603904
30
0
41
1
10
17.5908739179037
20
1.52418370253037
30
0
41
1
10
17.7092834274965
20
1.48970482036032
30
0
41
1
10
17.9461153229738
20
1.41424845732081
30
0
41
1
10
18.0645998737726
20
1.37304941859651
30
0
41
1
10
18.3020364838717
20
1.28254589175296
30
0
41
1
10
18.4210908581703
20
1.23347268950812
30
0
41
1
10
18.6601966149073
20
1.12929380861834
30
0
41
1
10
18.7803336734839
20
1.07419105110802
30
0
41
1
10
19.0188449157134
20
0.958954424663034
30
0
41
1
10
19.1373785025309
20
0.89847529682504
30
0
41
1
10
19.3742891149989
20
0.774178879432526
30
0
41
1
10
19.4924248890329
20
0.710233645065045
30
0
41
1
10
19.7286399409067
20
0.578577794677528
30
0
41
1
10
19.8467964007922
20
0.511059555006796
30
0
41
1
10
20.0834828799088
20
0.373429782160343
30
0
41
1
10
20.2019485753458
20
0.303478292280829
30
0
41
1
10
20.4398446305734
20
0.161701621546172
30
0
41
1
10
20.5596532259621
20
0.0895512351360424
30
0
41
1
10
20.9186570589901
20
-0.126397126390231
30
0
41
1
10
21.1556457932763
20
-0.269759836445815
30
0
41
1
10
21.5105523936763
20
-0.477271033705023
30
0
41
1
10
21.6287607572088
20
-0.545342292216759
30
0
41
1
10
21.8653296366604
20
-0.679246596194332
30
0
41
1
10
21.9837250691434
20
-0.744660252582833
30
0
41
1
10
22.2214329567455
20
-0.871249186354987
30
0
41
1
10
22.3407916520779
20
-0.932393005620838
30
0
41
1
10
22.5802510974818
20
-1.05151219567213
30
0
41
1
10
22.6994397679567
20
-1.10836460457958
30
0
41
1
10
22.9368011170779
20
-1.21434465656623
30
0
41
1
10
23.0550398058838
20
-1.2638588115949
30
0
41
1
10
23.2912600322376
20
-1.35713148071525
30
0
41
1
10
23.409130515599
20
-1.40103884285767
30
0
41
1
10
23.6450577408159
20
-1.47997810486041
30
0
41
1
10
23.7631922008195
20
-1.515355194477
30
0
41
1
10
23.9998838471018
20
-1.57943764003556
30
0
41
1
10
24.1183091948963
20
-1.60863550016993
30
0
41
1
10
24.3567529726464
20
-1.65700997892674
30
0
41
1
10
24.4765979189024
20
-1.6766058538054
30
0
41
1
10
24.7154825963622
20
-1.70673485365691
30
0
41
1
10
24.8348220459369
20
-1.71732276960586
30
0
41
1
10
25.0735177354569
20
-1.72987397914037
30
0
41
1
10
25.1931103986253
20
-1.73182863430196
30
0
41
1
10
25.4322558835757
20
-1.727484406298
30
0
41
1
10
25.5512660525638
20
-1.72116938093859
30
0
41
1
10
25.9070636934191
20
-1.68810822247215
30
0
41
1
10
26.1426410598797
20
-1.64764098576882
30
0
41
1
10
26.6146911285368
20
-1.53428832118581
30
0
41
1
10
26.8512085743177
20
-1.46102976409139
30
0
41
1
10
27.2049998037531
20
-1.33080198993991
30
0
41
1
10
27.3202473170824
20
-1.2849580253532
30
0
41
1
10
27.4351512844642
20
-1.23614710859192
30
0
0
SPLINE
5
E4
100
AcDbEntity
8
1
62
256
6
ByLayer
370
18
48
1
60
0
100
AcDbSpline
70
4
71
3
72
24
73
20
40
0
40
0
40
0
40
0
40
0.249999999999995
40
0.249999999999995
40
0.374999999999996
40
0.374999999999996
40
0.499999999999997
40
0.499999999999997
40
0.624999999999998
40
0.624999999999998
40
0.749999999999998
40
0.749999999999998
40
0.812499999999999
40
0.812499999999999
40
0.874999999999999
40
0.874999999999999
40
0.9375
40
0.9375
40
1
40
1
40
1
40
1
41
1
10
4.96500510745443
20
-1.2458099259905
30
0
41
1
10
4.78794031529892
20
-1.1567471287787
30
0
41
1
10
4.61672276821895
20
-1.05408086236542
30
0
41
1
10
4.37308567816839
20
-0.868924233950395
30
0
41
1
10
4.29379045724221
20
-0.801538703213879
30
0
41
1
10
4.14501301384161
20
-0.655864884584588
30
0
41
1
10
4.07497070708189
20
-0.577234789403036
30
0
41
1
10
3.94799622290901
20
-0.404810995398151
30
0
41
1
10
3.89278638441348
20
-0.313402961002282
30
0
41
1
10
3.80439497297593
20
-0.11672424058716
30
0
41
1
10
3.77122898994187
20
-0.0094233751017896
30
0
41
1
10
3.74766917067854
20
0.152596822005307
30
0
41
1
10
3.7439551203675
20
0.207487165490903
30
0
41
1
10
3.74547395888794
20
0.316726667218461
30
0
41
1
10
3.75063007932988
20
0.370152068609116
30
0
41
1
10
3.76909504637962
20
0.474786083530176
30
0
41
1
10
3.78256304571167
20
0.526411330993909
30
0
41
1
10
3.81649514668555
20
0.625392069388681
30
0
41
1
10
3.83678364380282
20
0.672521835631329
30
0
41
1
10
3.85986875236429
20
0.717665213939199
30
0
0
SPLINE
5
E5
100
AcDbEntity
8
1
62
256
6
ByLayer
370
18
48
1
60
0
100
AcDbSpline
70
4
71
3
72
8
73
4
40
0
40
0
40
0
40
0
40
1
40
1
40
1
40
1
41
1
10
29.9008358027322
20
-0.328329317282936
30
0
41
1
10
29.8135230304053
20
-0.571481961136158
30
0
41
1
10
29.7268286514872
20
-0.814853412530823
30
0
41
1
10
29.6407560199541
20
-1.05844485821206
30
0
0
SPLINE
5
E6
100
AcDbEntity
8
1
62
256
6
ByLayer
370
18
48
1
60
0
100
AcDbSpline
70
4
71
4
72
10
73
5
40
0
40
0
40
0
40
0
40
0
40
1
40
1
40
1
40
1
40
1
41
1
10
6.7116909535946
20
-0.776972346743662
30
0
41
1
10
6.63292602762587
20
-0.990101043835352
30
0
41
1
10
6.55416110165714
20
-1.20322974092704
30
0
41
1
10
6.47539617568845
20
-1.41635843801873
30
0
41
1
10
6.39663124971969
20
-1.62948713511042
30
0
0
SPLINE
5
E7
100
AcDbEntity
8
1
62
256
6
ByLayer
370
18
48
1
60
0
100
AcDbSpline
70
4
71
2
72
6
73
3
40
0
40
0
40
0
40
1
40
1
40
1
41
1
10
11.9311520086533
20
-0.0286788151555584
30
0
41
1
10
11.6201644395126
20
0.0564094452353459
30
0
41
1
10
11.3126990402552
20
0.24057341606445
30
0
0
SPLINE
5
E8
100
AcDbEntity
8
1
62
256
6
ByLayer
370
18
48
1
60
0
100
AcDbSpline
70
4
71
2
72
6
73
3
40
0
40
0
40
0
40
1
40
1
40
1
41
1
10
29.1181833279879
20
0.345309972497034
30
0
41
1
10
29.0604147412616
20
0.381823123325404
30
0
41
1
10
29.00312243274
20
0.422276403338742
30
0
0
SPLINE
5
E9
100
AcDbEntity
8
1
62
256
6
ByLayer
370
18
48
1
60
0
100
AcDbSpline
70
4
71
2
72
6
73
3
40
0
40
0
40
0
40
1
40
1
40
1
41
1
10
20.9301707311871
20
-0.0284156073325619
30
0
41
1
10
20.5987110143995
20
0.0643821571859746
30
0
41
1
10
20.2730258856812
20
0.261129772876842
30
0
0
SPLINE
5
EA
100
AcDbEntity
8
1
62
256
6
ByLayer
370
18
48
1
60
0
100
AcDbSpline
70
4
71
2
72
6
73
3
40
0
40
0
40
0
40
1
40
1
40
1
41
1
10
16.0290565864387
20
0.0281880457796433
30
0
41
1
10
16.3820070004754
20
-0.0705296799184794
30
0
41
1
10
16.7291263946356
20
-0.287570280610339
30
0
0
SPLINE
5
EB
100
AcDbEntity
8
1
62
256
6
ByLayer
370
18
48
1
60
0
100
AcDbSpline
70
4
71
3
72
14
73
10
40
0
40
0
40
0
40
0
40
0.212715719391746
40
0.369524684139277
40
0.470992174164158
40
0.550804406474682
40
0.657724441901396
40
0.799952208101439
40
1
40
1
40
1
40
1
41
1
10
21.6190699844763
20
-1.72564027504762
30
0
41
1
10
21.8761228376287
20
-1.72591867542448
30
0
41
1
10
22.3227350904682
20
-1.72651049439412
30
0
41
1
10
22.8923948151116
20
-1.72815026071927
30
0
41
1
10
23.3010681648986
20
-1.72868386503325
30
0
41
1
10
23.6495690436309
20
-1.72963717196927
30
0
41
1
10
24.0473722326589
20
-1.72945003282342
30
0
41
1
10
24.5905832400113
20
-1.73130335246486
30
0
41
1
10
25.0044704950849
20
-1.73099231400312
30
0
41
1
10
25.2463676117312
20
-1.73061603963305
30
0
0
SPLINE
5
EC
100
AcDbEntity
8
1
62
256
6
ByLayer
370
18
48
1
60
0
100
AcDbSpline
70
4
71
3
72
14
73
10
40
0
40
0
40
0
40
0
40
0.215556909675098
40
0.374651181517578
40
0.477080974452304
40
0.557797301769891
40
0.665937774331869
40
0.806806960366441
40
1
40
1
40
1
40
1
41
1
10
12.6169185324557
20
-1.70903544731297
30
0
41
1
10
12.877676872141
20
-1.70954050277066
30
0
41
1
10
13.3309368071596
20
-1.71066865611021
30
0
41
1
10
13.9084355350596
20
-1.71076184103035
30
0
41
1
10
14.3225083430719
20
-1.71334366542007
30
0
41
1
10
14.6750980484748
20
-1.71279039091908
30
0
41
1
10
15.0740927851019
20
-1.71477046419415
30
0
41
1
10
15.6093530611167
20
-1.71438678778577
30
0
41
1
10
16.0136287277554
20
-1.71545172873826
30
0
41
1
10
16.2474228271884
20
-1.7160807553249
30
0
0
SPLINE
5
ED
100
AcDbEntity
8
1
62
256
6
ByLayer
370
18
48
1
60
0
100
AcDbSpline
70
4
71
2
72
6
73
3
40
0
40
0
40
0
40
1
40
1
40
1
41
1
10
7.24679530566658
20
1.69953358692496
30
0
41
1
10
6.2761234551474
20
1.69804009912184
30
0
41
1
10
5.3053985212334
20
1.69650121060164
30
0
0
SPLINE
5
EE
100
AcDbEntity
8
1
62
256
6
ByLayer
370
18
48
1
60
0
100
AcDbSpline
70
4
71
2
72
6
73
3
40
0
40
0
40
0
40
1
40
1
40
1
41
1
10
5.3053985212334
20
-1.6965012106017
30
0
41
1
10
6.27612345514729
20
-1.69804009912187
30
0
41
1
10
7.24679530566641
20
-1.69953358692504
30
0
0
SPLINE
5
EF
100
AcDbEntity
8
1
62
256
6
ByLayer
370
18
48
1
60
0
100
AcDbSpline
70
4
71
3
72
14
73
10
40
0
40
0
40
0
40
0
40
0.214852905137689
40
0.371515660283122
40
0.491780317524302
40
0.581546167521409
40
0.695459891465256
40
0.872391040542712
40
1
40
1
40
1
40
1
41
1
10
16.2474228271881
20
1.71608075532501
30
0
41
1
10
16.0136287277552
20
1.7154517287384
30
0
41
1
10
15.6093530611166
20
1.71438678778591
30
0
41
1
10
15.0740927851019
20
1.71477046419426
30
0
41
1
10
14.6750980484748
20
1.71279039091917
30
0
41
1
10
14.3225083430719
20
1.71334366542018
30
0
41
1
10
13.9084355350595
20
1.71076184103043
30
0
41
1
10
13.4529687314084
20
1.71068834712355
30
0
41
1
10
13.121624652242
20
1.71007125156663
30
0
41
1
10
12.9827991578589
20
1.70978811929035
30
0
0
SPLINE
5
F0
100
AcDbEntity
8
1
62
256
6
ByLayer
370
18
48
1
60
0
100
AcDbSpline
70
4
71
3
72
14
73
10
40
0
40
0
40
0
40
0
40
0.216927482129709
40
0.371156183770881
40
0.487097948757101
40
0.573644600604381
40
0.683673743741653
40
0.853713980503014
40
1
40
1
40
1
40
1
41
1
10
25.2463676117318
20
1.73061603963279
30
0
41
1
10
25.0044704950853
20
1.73099231400289
30
0
41
1
10
24.5905832400115
20
1.73130335246472
30
0
41
1
10
24.0473722326589
20
1.72945003282328
30
0
41
1
10
23.6495690436309
20
1.72963717196907
30
0
41
1
10
23.3010681648986
20
1.72868386503305
30
0
41
1
10
22.8923948151116
20
1.72815026071916
30
0
41
1
10
22.4168485464069
20
1.72678140011041
30
0
41
1
10
22.0642277818522
20
1.7261987234038
30
0
41
1
10
21.9011827535728
20
1.72597901698956
30
0
0
SPLINE
5
F1
100
AcDbEntity
8
1
62
256
6
ByLayer
370
18
48
1
60
0
100
AcDbSpline
70
4
71
2
72
6
73
3
40
0
40
0
40
0
40
1
40
1
40
1
41
1
10
25.0288655384437
20
0.0282625668047558
30
0
41
1
10
25.3798615857131
20
-0.0696672143560022
30
0
41
1
10
25.7287066168133
20
-0.287472752263398
30
0
0
LINE
5
7B
100
AcDbEntity
8
SK1
62
256
6
ByLayer
370
18
48
1
60
0
100
AcDbLine
10
-34.989637
20
3
30
0
11
-34.989637
21
-3
31
0
39
0
210
0
220
0
230
1
0
LINE
5
7D
100
AcDbEntity
8
SK1
62
256
6
ByLayer
370
18
48
1
60
0
100
AcDbLine
10
-36
20
1.25
30
0
11
-36
21
-1.25
31
0
39
0
210
0
220
0
230
1
0
LINE
5
7E
100
AcDbEntity
8
SK1
62
256
6
ByLayer
370
18
48
1
60
0
100
AcDbLine
10
0
20
-3
30
0
11
0
21
3
31
0
39
0
210
0
220
0
230
1
0
LINE
5
7F
100
AcDbEntity
8
1
62
256
6
ByLayer
370
13
48
1
60
0
100
AcDbLine
10
1.640828
20
1.750227
30
0
11
1.640828
21
-1.750227
31
0
39
0
210
0
220
0
230
1
0
LINE
5
80
100
AcDbEntity
8
1
62
256
6
ByLayer
370
18
48
1
60
0
100
AcDbLine
10
0
20
-3
30
0
11
0
21
3
31
0
39
0
210
0
220
0
230
1
0
LINE
5
81
100
AcDbEntity
8
1
62
256
6
ByLayer
370
18
48
1
60
0
100
AcDbLine
10
29.705864
20
-0.357875
30
0
11
29.706642
21
-0.352792
31
0
39
0
210
0
220
0
230
1
0
LINE
5
82
100
AcDbEntity
8
1
62
256
6
ByLayer
370
13
48
1
60
0
100
AcDbLine
10
0.819649
20
2.375113
30
0
11
0.819649
21
-2.375113
31
0
39
0
210
0
220
0
230
1
0
LINE
5
83
100
AcDbEntity
8
1
62
256
6
ByLayer
370
18
48
1
60
0
100
AcDbLine
10
29.152522
20
-0.802113
30
0
11
29.705864
21
-0.357875
31
0
39
0
210
0
220
0
230
1
0
LINE
5
84
100
AcDbEntity
8
80
62
256
6
ByLayer
370
18
48
1
60
0
100
AcDbLine
10
0
20
0
30
0
11
-5
21
0
31
0
39
0
210
0
220
0
230
1
0
LINE
5
85
100
AcDbEntity
8
4
62
256
6
ByLayer
370
18
48
0.05
60
0
100
AcDbLine
10
30
20
0
30
0
11
0
21
0
31
0
39
0
210
0
220
0
230
1
0
LINE
5
87
100
AcDbEntity
8
SK4
62
256
6
ByLayer
370
18
48
0.05
60
0
100
AcDbLine
10
35
20
0
30
0
11
-41
21
0
31
0
39
0
210
0
220
0
230
1
0
LINE
5
89
100
AcDbEntity
8
SK1
62
256
6
ByLayer
370
18
48
1
60
0
100
AcDbLine
10
-36
20
-1.25
30
0
11
-34.989637
21
-3
31
0
39
0
210
0
220
0
230
1
0
LINE
5
8A
100
AcDbEntity
8
SK1
62
256
6
ByLayer
370
18
48
1
60
0
100
AcDbLine
10
-34.989637
20
3
30
0
11
-36
21
1.25
31
0
39
0
210
0
220
0
230
1
0
LINE
5
8B
100
AcDbEntity
8
SK1
62
256
6
ByLayer
370
18
48
1
60
0
100
AcDbLine
10
-34.989637
20
-3
30
0
11
0
21
-3
31
0
39
0
210
0
220
0
230
1
0
LINE
5
8C
100
AcDbEntity
8
SK1
62
256
6
ByLayer
370
18
48
1
60
0
100
AcDbLine
10
0
20
3
30
0
11
-34.989637
21
3
31
0
39
0
210
0
220
0
230
1
0
LINE
5
8D
100
AcDbEntity
8
1
62
256
6
ByLayer
370
18
48
1
60
0
100
AcDbLine
10
1.640828
20
-1.750227
30
0
11
4.963916
21
-1.756209
31
0
39
0
210
0
220
0
230
1
0
LINE
5
8E
100
AcDbEntity
8
1
62
256
6
ByLayer
370
18
48
1
60
0
100
AcDbLine
10
11.760712
20
-1.768443
30
0
11
12.312954
21
-1.769437
31
0
39
0
210
0
220
0
230
1
0
LINE
5
8F
100
AcDbEntity
8
1
62
256
6
ByLayer
370
18
48
1
60
0
100
AcDbLine
10
20.764874
20
-1.784651
30
0
11
21.314715
21
-1.78564
31
0
39
0
210
0
220
0
230
1
0
LINE
5
90
100
AcDbEntity
8
1
62
256
6
ByLayer
370
18
48
1
60
0
100
AcDbLine
10
21.314715
20
1.78564
30
0
11
20.764874
21
1.784651
31
0
39
0
210
0
220
0
230
1
0
LINE
5
91
100
AcDbEntity
8
1
62
256
6
ByLayer
370
18
48
1
60
0
100
AcDbLine
10
12.312954
20
1.769437
30
0
11
11.760712
21
1.768443
31
0
39
0
210
0
220
0
230
1
0
LINE
5
92
100
AcDbEntity
8
1
62
256
6
ByLayer
370
18
48
1
60
0
100
AcDbLine
10
4.963916
20
1.756209
30
0
11
1.640828
21
1.750227
31
0
39
0
210
0
220
0
230
1
0
LINE
5
93
100
AcDbEntity
8
81
62
256
6
ByLayer
370
18
48
1
60
0
100
AcDbLine
10
30
20
0
30
0
11
35
21
0
31
0
39
0
210
0
220
0
230
1
0
LINE
5
94
100
AcDbEntity
8
SK2
62
256
6
ByLayer
370
13
48
1
60
0
100
AcDbLine
10
-44.625163
20
32.117107
30
0
11
-44.625163
21
-11.75
31
0
39
0
210
0
220
0
230
1
0
LINE
5
96
100
AcDbEntity
8
SK2
62
256
6
ByLayer
370
13
48
1
60
0
100
AcDbLine
10
-37.5875
20
3
30
0
11
-46.625163
21
3
31
0
39
0
210
0
220
0
230
1
0
LINE
5
97
100
AcDbEntity
8
SK2
62
256
6
ByLayer
370
13
48
1
60
0
100
AcDbLine
10
-37.5875
20
-3
30
0
11
-46.625163
21
-3
31
0
39
0
210
0
220
0
230
1
0
LINE
5
98
100
AcDbEntity
8
1
62
256
6
ByLayer
370
18
48
1
60
1
100
AcDbLine
10
-44.625163
20
3
30
0
11
-45.085946
21
6.499998
31
0
39
0
210
0
220
0
230
1
0
LINE
5
99
100
AcDbEntity
8
1
62
256
6
ByLayer
370
18
48
1
60
1
100
AcDbLine
10
-45.085946
20
6.499998
30
0
11
-44.164379
21
6.500002
31
0
39
0
210
0
220
0
230
1
0
LINE
5
9A
100
AcDbEntity
8
1
62
256
6
ByLayer
370
18
48
1
60
1
100
AcDbLine
10
-44.164379
20
6.500002
30
0
11
-44.625163
21
3
31
0
39
0
210
0
220
0
230
1
0
LINE
5
9B
100
AcDbEntity
8
1
62
256
6
ByLayer
370
18
48
1
60
1
100
AcDbLine
10
-44.625163
20
-3
30
0
11
-44.164379
21
-6.499998
31
0
39
0
210
0
220
0
230
1
0
LINE
5
9C
100
AcDbEntity
8
1
62
256
6
ByLayer
370
18
48
1
60
1
100
AcDbLine
10
-44.164379
20
-6.499998
30
0
11
-45.085946
21
-6.500002
31
0
39
0
210
0
220
0
230
1
0
LINE
5
9D
100
AcDbEntity
8
1
62
256
6
ByLayer
370
18
48
1
60
1
100
AcDbLine
10
-45.085946
20
-6.500002
30
0
11
-44.625163
21
-3
31
0
39
0
210
0
220
0
230
1
0
LINE
5
9E
100
AcDbEntity
8
2
62
256
6
ByLayer
370
13
48
1
60
0
100
AcDbLine
10
42.083343
20
29.510193
30
0
11
42.083343
21
-10.55
31
0
39
0
210
0
220
0
230
1
0
LINE
5
A0
100
AcDbEntity
8
2
62
256
6
ByLayer
370
13
48
1
60
0
100
AcDbLine
10
30.8798
20
1.8
30
0
11
44.083343
21
1.8
31
0
39
0
210
0
220
0
230
1
0
LINE
5
A1
100
AcDbEntity
8
2
62
256
6
ByLayer
370
13
48
1
60
0
100
AcDbLine
10
30.8798
20
-1.8
30
0
11
44.083343
21
-1.8
31
0
39
0
210
0
220
0
230
1
0
LINE
5
A2
100
AcDbEntity
8
1
62
256
6
ByLayer
370
18
48
1
60
1
100
AcDbLine
10
42.083343
20
1.8
30
0
11
41.622559
21
5.299998
31
0
39
0
210
0
220
0
230
1
0
LINE
5
A3
100
AcDbEntity
8
1
62
256
6
ByLayer
370
18
48
1
60
1
100
AcDbLine
10
41.622559
20
5.299998
30
0
11
42.544126
21
5.300002
31
0
39
0
210
0
220
0
230
1
0
LINE
5
A4
100
AcDbEntity
8
1
62
256
6
ByLayer
370
18
48
1
60
1
100
AcDbLine
10
42.544126
20
5.300002
30
0
11
42.083343
21
1.8
31
0
39
0
210
0
220
0
230
1
0
LINE
5
A5
100
AcDbEntity
8
1
62
256
6
ByLayer
370
18
48
1
60
1
100
AcDbLine
10
42.083343
20
-1.8
30
0
11
42.544126
21
-5.299998
31
0
39
0
210
0
220
0
230
1
0
LINE
5
A6
100
AcDbEntity
8
1
62
256
6
ByLayer
370
18
48
1
60
1
100
AcDbLine
10
42.544126
20
-5.299998
30
0
11
41.622559
21
-5.300002
31
0
39
0
210
0
220
0
230
1
0
LINE
5
A7
100
AcDbEntity
8
1
62
256
6
ByLayer
370
18
48
1
60
1
100
AcDbLine
10
41.622559
20
-5.300002
30
0
11
42.083343
21
-1.8
31
0
39
0
210
0
220
0
230
1
0
LINE
5
F8
100
AcDbEntity
8
1
62
256
6
ByLayer
370
18
48
1
60
1
100
AcDbLine
10
-44.625163
20
3
30
0
11
-45.085946
21
6.499998
31
0
39
0
210
0
220
0
230
1
0
LINE
5
F9
100
AcDbEntity
8
1
62
256
6
ByLayer
370
18
48
1
60
1
100
AcDbLine
10
-45.085946
20
6.499998
30
0
11
-44.164379
21
6.500002
31
0
39
0
210
0
220
0
230
1
0
LINE
5
FA
100
AcDbEntity
8
1
62
256
6
ByLayer
370
18
48
1
60
1
100
AcDbLine
10
-44.164379
20
6.500002
30
0
11
-44.625163
21
3
31
0
39
0
210
0
220
0
230
1
0
LINE
5
FC
100
AcDbEntity
8
1
62
256
6
ByLayer
370
18
48
1
60
1
100
AcDbLine
10
-44.625163
20
-3
30
0
11
-44.164379
21
-6.499998
31
0
39
0
210
0
220
0
230
1
0
LINE
5
FD
100
AcDbEntity
8
1
62
256
6
ByLayer
370
18
48
1
60
1
100
AcDbLine
10
-44.164379
20
-6.499998
30
0
11
-45.085946
21
-6.500002
31
0
39
0
210
0
220
0
230
1
0
LINE
5
FE
100
AcDbEntity
8
1
62
256
6
ByLayer
370
18
48
1
60
1
100
AcDbLine
10
-45.085946
20
-6.500002
30
0
11
-44.625163
21
-3
31
0
39
0
210
0
220
0
230
1
0
LINE
5
102
100
AcDbEntity
8
1
62
256
6
ByLayer
370
18
48
1
60
1
100
AcDbLine
10
42.083343
20
1.8
30
0
11
41.622559
21
5.299998
31
0
39
0
210
0
220
0
230
1
0
LINE
5
103
100
AcDbEntity
8
1
62
256
6
ByLayer
370
18
48
1
60
1
100
AcDbLine
10
41.622559
20
5.299998
30
0
11
42.544126
21
5.300002
31
0
39
0
210
0
220
0
230
1
0
LINE
5
104
100
AcDbEntity
8
1
62
256
6
ByLayer
370
18
48
1
60
1
100
AcDbLine
10
42.544126
20
5.300002
30
0
11
42.083343
21
1.8
31
0
39
0
210
0
220
0
230
1
0
LINE
5
106
100
AcDbEntity
8
1
62
256
6
ByLayer
370
18
48
1
60
1
100
AcDbLine
10
42.083343
20
-1.8
30
0
11
42.544126
21
-5.299998
31
0
39
0
210
0
220
0
230
1
0
LINE
5
107
100
AcDbEntity
8
1
62
256
6
ByLayer
370
18
48
1
60
1
100
AcDbLine
10
42.544126
20
-5.299998
30
0
11
41.622559
21
-5.300002
31
0
39
0
210
0
220
0
230
1
0
LINE
5
108
100
AcDbEntity
8
1
62
256
6
ByLayer
370
18
48
1
60
1
100
AcDbLine
10
41.622559
20
-5.300002
30
0
11
42.083343
21
-1.8
31
0
39
0
210
0
220
0
230
1
0
MTEXT
5
F2
100
AcDbEntity
8
SK6
62
256
6
ByLayer
370
13
48
1
60
0
100
AcDbMText
10
-30.671593
20
34.340328
30
0
210
0
220
0
230
1
1
\W0.7280;860.1-0360-021A1-PM P1BM
40
3.5
41
0
44
1.084337
50
0
71
7
72
5
7
iso_b_vert
0
MTEXT
5
F6
100
AcDbEntity
8
SK2
62
256
6
ByLayer
370
18
48
1
60
0
100
AcDbMText
10
-46.189796
20
16.409024
30
0
210
0
220
0
230
1
1
%%c
40
3.5
41
0
44
1.084337
50
90
71
7
72
5
7
iso_b_vert
0
MTEXT
5
F7
100
AcDbEntity
8
SK2
62
256
6
ByLayer
370
18
48
1
60
0
100
AcDbMText
10
-46.189796
20
21.63168
30
0
210
0
220
0
230
1
1
\W0.7317;6,000
40
3.5
41
0
44
1.084337
50
90
71
7
72
5
7
iso_b_vert
0
MTEXT
5
100
100
AcDbEntity
8
2
62
256
6
ByLayer
370
18
48
1
60
0
100
AcDbMText
10
40.518709
20
13.80211
30
0
210
0
220
0
230
1
1
%%c
40
3.5
41
0
44
1.084337
50
90
71
7
72
5
7
iso_b_vert
0
MTEXT
5
101
100
AcDbEntity
8
2
62
256
6
ByLayer
370
18
48
1
60
0
100
AcDbMText
10
40.518709
20
19.024766
30
0
210
0
220
0
230
1
1
\W0.7317;3,600
40
3.5
41
0
44
1.084337
50
90
71
7
72
5
7
iso_b_vert
0
HATCH
5
FB
100
AcDbEntity
8
SK2
62
256
6
ByLayer
370
13
48
1
60
0
100
AcDbHatch
10
0
20
0
30
0
210
0
220
0
230
1
2
ANSI31
70
0
71
0
91
1
92
5
93
3
72
1
10
-44.6251625675374
20
3
11
-45.0859463090902
21
6.49999830744682
72
1
10
-45.0859463090902
20
6.49999830744682
11
-44.1643788259847
21
6.50000169255318
72
1
10
-44.1643788259847
20
6.50000169255318
11
-44.6251625675374
21
3
97
0
75
0
76
1
52
0
41
0.0062
77
0
78
1
53
45
43
0
44
0
45
-0.0139193969876572
46
0.0139193969876572
79
0
47
0
98
1
10
0
20
0
0
HATCH
5
FF
100
AcDbEntity
8
SK2
62
256
6
ByLayer
370
13
48
1
60
0
100
AcDbHatch
10
0
20
0
30
0
210
0
220
0
230
1
2
ANSI31
70
0
71
0
91
1
92
5
93
3
72
1
10
-44.6251625675374
20
-3
11
-44.1643788259847
21
-6.49999830744682
72
1
10
-44.1643788259847
20
-6.49999830744682
11
-45.0859463090902
21
-6.50000169255318
72
1
10
-45.0859463090902
20
-6.50000169255318
11
-44.6251625675374
21
-3
97
0
75
0
76
1
52
0
41
0.0062
77
0
78
1
53
45
43
0
44
0
45
-0.0139193969876572
46
0.0139193969876572
79
0
47
0
98
1
10
0
20
0
0
HATCH
5
105
100
AcDbEntity
8
2
62
256
6
ByLayer
370
13
48
1
60
0
100
AcDbHatch
10
0
20
0
30
0
210
0
220
0
230
1
2
ANSI31
70
0
71
0
91
1
92
5
93
3
72
1
10
42.083342615295
20
1.80000000000001
11
41.6225588737423
21
5.29999830744683
72
1
10
41.6225588737423
20
5.29999830744683
11
42.5441263568478
21
5.3000016925532
72
1
10
42.5441263568478
20
5.3000016925532
11
42.083342615295
21
1.80000000000001
97
0
75
0
76
1
52
0
41
0.0062
77
0
78
1
53
45
43
0
44
0
45
-0.0139193969876572
46
0.0139193969876572
79
0
47
0
98
1
10
0
20
0
0
HATCH
5
109
100
AcDbEntity
8
2
62
256
6
ByLayer
370
13
48
1
60
0
100
AcDbHatch
10
0
20
0
30
0
210
0
220
0
230
1
2
ANSI31
70
0
71
0
91
1
92
5
93
3
72
1
10
42.083342615295
20
-1.79999999999998
11
42.5441263568478
21
-5.2999983074468
72
1
10
42.5441263568478
20
-5.2999983074468
11
41.6225588737423
21
-5.30000169255317
72
1
10
41.6225588737423
20
-5.30000169255317
11
42.083342615295
21
-1.79999999999998
97
0
75
0
76
1
52
0
41
0.0062
77
0
78
1
53
45
43
0
44
0
45
-0.0139193969876572
46
0.0139193969876572
79
0
47
0
98
1
10
0
20
0
0
DIMENSION
5
10B
100
AcDbEntity
8
2
62
256
6
ByLayer
370
13
48
1
60
0
100
AcDbDimension
2
_U0
10
29.2923
20
-12.013398
30
0
11
14.64615
21
-12.013398
31
0
70
32
71
1
72
1
41
1
210
0
220
0
230
1
3
Standard
100
AcDbAlignedDimension
13
0
23
0
33
0
14
29.2923
24
-1.8
34
0
50
0
100
AcDbRotatedDimension
1001
ACAD
1000
DSTYLE
1002
{
1070
   371
1070
    13
1070
   372
1070
    13
1070
   170
1070
     0
1070
   144
1040
1.0
1070
   277
1070
     2
1070
   278
1070
    44
1070
   146
1040
1.0
1070
   345
1005
16
1070
   347
1005
16
1070
   346
1005
16
1070
   344
1005
0
1070
   343
1005
0
1070
   172
1070
     1
1070
    76
1070
     0
1070
    75
1070
     0
1070
   282
1070
     0
1070
   281
1070
     0
1070
    71
1070
     0
1070
    74
1070
     0
1070
   279
1070
     0
1070
   173
1070
     1
1070
   340
1005
F3
1070
   271
1070
     2
1070
   272
1070
     2
1070
    77
1070
     1
1070
    73
1070
     1
1070
   171
1070
     3
1070
   274
1070
     4
1070
   177
1070
    35
1070
   176
1070
    35
1070
   178
1070
    35
1070
    48
1040
-0.1
1070
    41
1040
3.5
1070
   147
1040
1.75
1070
    42
1040
1.5875
1070
    44
1040
2.0
1070
   140
1040
3.5
1002
}
1001
ACAD_DSTYLE_DIM_LINETYPE
1070
   380
1005
16
1001
ACAD_DSTYLE_DIM_EXT1_LINETYPE
1070
   381
1005
16
1001
ACAD_DSTYLE_DIM_EXT2_LINETYPE
1070
   382
1005
16
0
DIMENSION
5
124
100
AcDbEntity
8
SK2
62
256
6
ByLayer
370
13
48
1
60
0
100
AcDbDimension
2
_U1
10
30
20
-31.692985
30
0
11
-3
21
-31.692985
31
0
70
32
71
1
72
1
41
1
210
0
220
0
230
1
3
Standard
100
AcDbAlignedDimension
13
-36
23
-3
33
0
14
30
24
0
34
0
50
0
100
AcDbRotatedDimension
1001
ACAD
1000
DSTYLE
1002
{
1070
   371
1070
    13
1070
   372
1070
    13
1070
   170
1070
     0
1070
   144
1040
1.0
1070
   277
1070
     2
1070
   278
1070
    44
1070
   146
1040
1.0
1070
   345
1005
16
1070
   347
1005
16
1070
   346
1005
16
1070
   344
1005
0
1070
   343
1005
0
1070
   172
1070
     1
1070
    76
1070
     0
1070
    75
1070
     0
1070
   282
1070
     0
1070
   281
1070
     0
1070
    71
1070
     0
1070
    74
1070
     0
1070
   279
1070
     0
1070
   173
1070
     1
1070
   340
1005
F3
1070
   271
1070
     2
1070
   272
1070
     2
1070
    77
1070
     1
1070
    73
1070
     1
1070
   171
1070
     3
1070
   274
1070
     4
1070
   177
1070
    35
1070
   176
1070
    35
1070
   178
1070
    35
1070
    48
1040
-0.1
1070
    41
1040
3.5
1070
   147
1040
1.75
1070
    42
1040
1.5875
1070
    44
1040
2.0
1070
   140
1040
3.5
1002
}
1001
ACAD_DSTYLE_DIM_LINETYPE
1070
   380
1005
16
1001
ACAD_DSTYLE_DIM_EXT1_LINETYPE
1070
   381
1005
16
1001
ACAD_DSTYLE_DIM_EXT2_LINETYPE
1070
   382
1005
16
0
DIMENSION
5
13C
100
AcDbEntity
8
SK2
62
256
6
ByLayer
370
13
48
1
60
0
100
AcDbDimension
2
_U2
10
30
20
13.409119
30
0
11
20.645
21
13.409119
31
0
70
32
71
1
72
1
41
1
210
0
220
0
230
1
3
Standard
100
AcDbAlignedDimension
13
11.29
23
1.8
33
0
14
30
24
0
34
0
50
0
100
AcDbRotatedDimension
1001
ACAD
1000
DSTYLE
1002
{
1070
   371
1070
    13
1070
   372
1070
    13
1070
   170
1070
     0
1070
   144
1040
1.0
1070
   277
1070
     2
1070
   278
1070
    44
1070
   146
1040
1.0
1070
   345
1005
16
1070
   347
1005
16
1070
   346
1005
16
1070
   344
1005
0
1070
   343
1005
0
1070
   172
1070
     1
1070
    76
1070
     0
1070
    75
1070
     0
1070
   282
1070
     0
1070
   281
1070
     0
1070
    71
1070
     0
1070
    74
1070
     0
1070
   279
1070
     0
1070
   173
1070
     1
1070
   340
1005
F3
1070
   271
1070
     2
1070
   272
1070
     2
1070
    77
1070
     1
1070
    73
1070
     1
1070
   171
1070
     3
1070
   274
1070
     4
1070
   177
1070
    35
1070
   176
1070
    35
1070
   178
1070
    35
1070
    48
1040
-0.1
1070
    41
1040
3.5
1070
   147
1040
1.75
1070
    42
1040
1.5875
1070
    44
1040
2.0
1070
   140
1040
3.5
1002
}
1001
ACAD_DSTYLE_DIM_LINETYPE
1070
   380
1005
16
1001
ACAD_DSTYLE_DIM_EXT1_LINETYPE
1070
   381
1005
16
1001
ACAD_DSTYLE_DIM_EXT2_LINETYPE
1070
   382
1005
16
0
DIMENSION
5
154
100
AcDbEntity
8
SK2
62
256
6
ByLayer
370
13
48
1
60
0
100
AcDbDimension
2
_U3
10
29.2923
20
-14.602503
30
0
11
47.083333
21
-14.602503
31
0
70
32
71
1
72
1
41
1
210
0
220
0
230
1
3
Standard
100
AcDbAlignedDimension
13
30
23
0
33
0
14
29.2923
24
-1.8
34
0
50
0
100
AcDbRotatedDimension
1001
ACAD
1000
DSTYLE
1002
{
1070
   371
1070
    13
1070
   372
1070
    13
1070
   170
1070
     0
1070
   144
1040
1.0
1070
   277
1070
     2
1070
   278
1070
    44
1070
   146
1040
1.0
1070
   345
1005
16
1070
   347
1005
16
1070
   346
1005
16
1070
   344
1005
0
1070
   343
1005
0
1070
   172
1070
     1
1070
    76
1070
     0
1070
    75
1070
     0
1070
   282
1070
     0
1070
   281
1070
     0
1070
    71
1070
     0
1070
    74
1070
     0
1070
   279
1070
     0
1070
   173
1070
     1
1070
   340
1005
F3
1070
   271
1070
     2
1070
   272
1070
     2
1070
    77
1070
     1
1070
    73
1070
     1
1070
   171
1070
     3
1070
   274
1070
     4
1070
   177
1070
    35
1070
   176
1070
    35
1070
   178
1070
    35
1070
    48
1040
-0.1
1070
    41
1040
3.5
1070
   147
1040
1.75
1070
    42
1040
1.5875
1070
    44
1040
2.0
1070
   140
1040
3.5
1002
}
1001
ACAD_DSTYLE_DIM_LINETYPE
1070
   380
1005
16
1001
ACAD_DSTYLE_DIM_EXT1_LINETYPE
1070
   381
1005
16
1001
ACAD_DSTYLE_DIM_EXT2_LINETYPE
1070
   382
1005
16
0
DIMENSION
5
16E
100
AcDbEntity
8
SK2
62
256
6
ByLayer
370
13
48
1
60
0
100
AcDbDimension
2
_U4
10
29.2923
20
-21.343428
30
0
11
-3.35385
21
-21.343428
31
0
70
32
71
1
72
1
41
1
210
0
220
0
230
1
3
Standard
100
AcDbAlignedDimension
13
-36
23
-3
33
0
14
29.2923
24
-1.8
34
0
50
0
100
AcDbRotatedDimension
1001
ACAD
1000
DSTYLE
1002
{
1070
   371
1070
    13
1070
   372
1070
    13
1070
   170
1070
     0
1070
   144
1040
1.0
1070
   277
1070
     2
1070
   278
1070
    44
1070
   146
1040
1.0
1070
   345
1005
16
1070
   347
1005
16
1070
   346
1005
16
1070
   344
1005
0
1070
   343
1005
0
1070
   172
1070
     1
1070
    76
1070
     0
1070
    75
1070
     0
1070
   282
1070
     0
1070
   281
1070
     0
1070
    71
1070
     0
1070
    74
1070
     0
1070
   279
1070
     0
1070
   173
1070
     1
1070
   340
1005
F3
1070
   271
1070
     2
1070
   272
1070
     2
1070
    77
1070
     1
1070
    73
1070
     1
1070
   171
1070
     3
1070
   274
1070
     4
1070
   177
1070
    35
1070
   176
1070
    35
1070
   178
1070
    35
1070
    48
1040
-0.1
1070
    41
1040
3.5
1070
   147
1040
1.75
1070
    42
1040
1.5875
1070
    44
1040
2.0
1070
   140
1040
3.5
1002
}
1001
ACAD_DSTYLE_DIM_LINETYPE
1070
   380
1005
16
1001
ACAD_DSTYLE_DIM_EXT1_LINETYPE
1070
   381
1005
16
1001
ACAD_DSTYLE_DIM_EXT2_LINETYPE
1070
   382
1005
16
0
ENDSEC
0
SECTION
2
OBJECTS
0
DICTIONARY
5
1f6
330
0
100
AcDbDictionary
280
0
281
1
3
ACAD_GROUP
350
1f7
3
ACAD_MLINESTYLE
350
1f8
0
DICTIONARY
5
1f7
330
0
100
AcDbDictionary
280
0
281
1
0
DICTIONARY
5
1f8
330
0
100
AcDbDictionary
280
0
281
1
3
Standard
350
18
0
MLINESTYLE
5
18
330
1f8
100
AcDbMlineStyle
2
Standard
70
0
3

62
256
51
90
52
90
71
2
49
-0.5
62
256
6
ByLayer
49
0.5
62
256
6
ByLayer
0
RASTERVARIABLES
5
1e4
330

100
AcDbRasterVariables
90
0
70
1
71
1
72
1
0
ENDSEC
0
EOF
