0
SECTION
2
HEADER
9
$ACADVER
1
AC1015
9
$DWGCODEPAGE
3
ANSI_1252
9
$HANDSEED
5
203
9
$ANGBASE
50
0
9
$ANGDIR
70
0
9
$ATTMODE
70
1
9
$AUNITS
70
0
9
$AUPREC
70
0
9
$CECOLOR
62
256
9
$CELTSCALE
40
1
9
$CELTYPE
6
ByLayer
9
$CELWEIGHT
370
18
9
$CLAYER
8
0
9
$CMLJUST
70
0
9
$CMLSCALE
40
1
9
$CMLSTYLE
2
Standard
9
$DIMSTYLE
2
Standard
9
$TEXTSIZE
40
0.2
9
$TEXTSTYLE
7
Standard
9
$LUNITS
70
2
9
$LUPREC
70
4
9
$EXTNAMES
290
1
9
$INSUNITS
70
4
9
$LTSCALE
40
1
9
$LWDISPLAY
290
1
9
$PDMODE
70
0
9
$PDSIZE
40
0
9
$PLINEGEN
70
0
0
ENDSEC
0
SECTION
2
CLASSES
0
CLASS
1
RASTERVARIABLES
2
AcDbRasterVariables
3
ISM
90
0
280
0
281
0
0
ENDSEC
0
SECTION
2
TABLES
0
TABLE
2
VPORT
5
1f9
100
AcDbSymbolTable
0
VPORT
5
1
100
AcDbSymbolTableRecord
100
AcDbViewportTableRecord
2
*Active
70
0
10
0
20
0
11
1
21
1
12
-1
22
1
13
0
23
0
14
0.5
24
0.5
15
10
25
10
16
0
26
0
36
1
17
0
27
0
37
0
0
ENDTAB
0
TABLE
2
LTYPE
5
1fa
100
AcDbSymbolTable
0
LTYPE
5
14
100
AcDbSymbolTableRecord
100
AcDbLinetypeTableRecord
70
0
2
ByBlock
3

72
65
73
0
40
0
0
LTYPE
5
15
100
AcDbSymbolTableRecord
100
AcDbLinetypeTableRecord
70
0
2
ByLayer
3

72
65
73
0
40
0
0
LTYPE
5
16
100
AcDbSymbolTableRecord
100
AcDbLinetypeTableRecord
70
0
2
Continuous
3
Solid line
72
65
73
0
40
0
0
LTYPE
5
6E
100
AcDbSymbolTableRecord
100
AcDbLinetypeTableRecord
70
0
2
CENTER
3
____ _ ____ _ ____ _ ____
72
65
73
4
40
47.5
49
22
74
0
49
-8.5
74
0
49
8.5
74
0
49
-8.5
74
0
0
LTYPE
5
6F
100
AcDbSymbolTableRecord
100
AcDbLinetypeTableRecord
70
0
2
DASHED
3
__ __ __ __ __ __ __ __ __
72
65
73
2
40
25.72
49
12.86
74
0
49
-12.86
74
0
0
ENDTAB
0
TABLE
2
LAYER
5
1fb
100
AcDbSymbolTable
0
LAYER
5
10
100
AcDbSymbolTableRecord
100
AcDbLayerTableRecord
2
0
70
0
62
7
6
Continuous
290
1
370
-3
390
0
0
LAYER
5
71
100
AcDbSymbolTableRecord
100
AcDbLayerTableRecord
2
80
70
0
62
-6
6
Continuous
290
1
370
-3
390
0
0
LAYER
5
73
100
AcDbSymbolTableRecord
100
AcDbLayerTableRecord
2
81
70
0
62
-3
6
Continuous
290
1
370
-3
390
0
0
LAYER
5
75
100
AcDbSymbolTableRecord
100
AcDbLayerTableRecord
2
1
70
0
62
4
6
Continuous
290
1
370
-3
390
0
0
LAYER
5
86
100
AcDbSymbolTableRecord
100
AcDbLayerTableRecord
2
4
70
0
62
-2
6
CENTER
290
1
370
-3
390
0
0
LAYER
5
9F
100
AcDbSymbolTableRecord
100
AcDbLayerTableRecord
2
2
70
0
62
7
6
Continuous
290
1
370
-3
390
0
0
LAYER
5
10E
100
AcDbSymbolTableRecord
100
AcDbLayerTableRecord
2
Defpoints
70
0
62
7
6
Continuous
290
0
370
-3
390
0
0
LAYER
5
1e5
100
AcDbSymbolTableRecord
100
AcDbLayerTableRecord
2
SK1
70
0
62
4
6
Continuous
290
1
370
-3
390
0
0
LAYER
5
1e6
100
AcDbSymbolTableRecord
100
AcDbLayerTableRecord
2
SK4
70
0
62
2
6
CENTER
290
1
370
-3
390
0
0
LAYER
5
1e7
100
AcDbSymbolTableRecord
100
AcDbLayerTableRecord
2
SK2
70
0
62
7
6
Continuous
290
1
370
-3
390
0
0
LAYER
5
1e8
100
AcDbSymbolTableRecord
100
AcDbLayerTableRecord
2
SK6
70
0
62
5
6
Continuous
290
1
370
-3
390
0
0
ENDTAB
0
TABLE
2
STYLE
5
1fc
100
AcDbSymbolTable
0
STYLE
5
11
100
AcDbSymbolTableRecord
100
AcDbTextStyleTableRecord
2
Standard
3
txt
70
0
71
0
40
0
41
1
42
0
50
0
0
STYLE
5
F3
100
AcDbSymbolTableRecord
100
AcDbTextStyleTableRecord
2
iso_b_vert
3
simplex.shx
70
0
71
0
40
0
41
1
42
0
50
0
0
STYLE
5
F4
100
AcDbSymbolTableRecord
100
AcDbTextStyleTableRecord
2
DWGDirectTextStyle
3
simplex
70
0
71
0
40
0
41
1
42
0
50
0
0
ENDTAB
0
TABLE
2
DIMSTYLE
5
1fd
100
AcDbSymbolTable
100
AcDbDimStyleTable
0
DIMSTYLE
105
27
100
AcDbSymbolTableRecord
100
AcDbDimStyleTableRecord
2
Standard
70
0
3
<>
41
0.18
42
0.0625
44
0.18
140
0.18
147
0.09
73
0
74
0
77
1
271
2
275
0
278
52
280
0
340
11
0
ENDTAB
0
TABLE
2
VIEW
5
1fe
100
AcDbSymbolTable
0
ENDTAB
0
TABLE
2
UCS
5
1ff
100
AcDbSymbolTable
0
ENDTAB
0
TABLE
2
APPID
5
200
100
AcDbSymbolTable
0
APPID
5
12
100
AcDbSymbolTableRecord
100
AcDbRegAppTableRecord
2
ACAD
70
0
0
APPID
5
10A
100
AcDbSymbolTableRecord
100
AcDbRegAppTableRecord
2
ACAD_DSTYLE_DIMBREAK
70
0
0
APPID
5
1A4
100
AcDbSymbolTableRecord
100
AcDbRegAppTableRecord
2
ACAD_DSTYLE_DIM_LINETYPE
70
0
0
APPID
5
1A5
100
AcDbSymbolTableRecord
100
AcDbRegAppTableRecord
2
ACAD_DSTYLE_DIM_EXT1_LINETYPE
70
0
0
APPID
5
1A6
100
AcDbSymbolTableRecord
100
AcDbRegAppTableRecord
2
ACAD_DSTYLE_DIM_EXT2_LINETYPE
70
0
0
APPID
5
1E1
100
AcDbSymbolTableRecord
100
AcDbRegAppTableRecord
2
ACAD_MLEADERVER
70
0
0
ENDTAB
0
TABLE
2
BLOCK_RECORD
5
201
100
AcDbSymbolTable
0
BLOCK_RECORD
5
1F
100
AcDbSymbolTableRecord
100
AcDbBlockTableRecord
2
*Model_Space
340
0
70
0
0
BLOCK_RECORD
5
1B
100
AcDbSymbolTableRecord
100
AcDbBlockTableRecord
2
*Paper_Space
340
0
70
0
0
BLOCK_RECORD
5
23
100
AcDbSymbolTableRecord
100
AcDbBlockTableRecord
2
*Paper_Space0
340
0
70
0
0
BLOCK_RECORD
5
10F
100
AcDbSymbolTableRecord
100
AcDbBlockTableRecord
2
*D1
340
0
70
0
0
BLOCK_RECORD
5
11B
100
AcDbSymbolTableRecord
100
AcDbBlockTableRecord
2
_U0
340
0
70
0
0
BLOCK_RECORD
5
127
100
AcDbSymbolTableRecord
100
AcDbBlockTableRecord
2
*D3
340
0
70
0
0
BLOCK_RECORD
5
133
100
AcDbSymbolTableRecord
100
AcDbBlockTableRecord
2
_U1
340
0
70
0
0
BLOCK_RECORD
5
13F
100
AcDbSymbolTableRecord
100
AcDbBlockTableRecord
2
*D5
340
0
70
0
0
BLOCK_RECORD
5
14B
100
AcDbSymbolTableRecord
100
AcDbBlockTableRecord
2
_U2
340
0
70
0
0
BLOCK_RECORD
5
157
100
AcDbSymbolTableRecord
100
AcDbBlockTableRecord
2
*D7
340
0
70
0
0
BLOCK_RECORD
5
165
100
AcDbSymbolTableRecord
100
AcDbBlockTableRecord
2
_U3
340
0
70
0
0
BLOCK_RECORD
5
171
100
AcDbSymbolTableRecord
100
AcDbBlockTableRecord
2
*D9
340
0
70
0
0
BLOCK_RECORD
5
17D
100
AcDbSymbolTableRecord
100
AcDbBlockTableRecord
2
_U4
340
0
70
0
0
ENDTAB
0
ENDSEC
0
SECTION
2
BLOCKS
0
BLOCK
5
20
100
AcDbEntity
8
0
100
AcDbBlockBegin
2
*Model_Space
70
0
10
0
20
0
30
0
3
*Model_Space
0
ENDBLK
5
21
100
AcDbEntity
8
0
100
AcDbBlockEnd
0
BLOCK
5
1C
100
AcDbEntity
8
0
100
AcDbBlockBegin
2
*Paper_Space
70
0
10
0
20
0
30
0
3
*Paper_Space
0
ENDBLK
5
1D
100
AcDbEntity
8
0
100
AcDbBlockEnd
0
BLOCK
5
24
100
AcDbEntity
8
0
100
AcDbBlockBegin
2
*Paper_Space0
70
0
10
0
20
0
30
0
3
*Paper_Space0
0
ENDBLK
5
25
100
AcDbEntity
8
0
100
AcDbBlockEnd
0
BLOCK
5
110
100
AcDbEntity
8
0
100
AcDbBlockBegin
2
*D1
70
1
10
0
20
0
30
0
3
*D1
0
LINE
5
112
100
AcDbEntity
8
0
62
256
6
ByLayer
370
-2
48
1
60
0
100
AcDbLine
10
0
20
-1.5875
30
0
11
0
21
-13.998398
31
0
39
0
210
0
220
0
230
1
0
LINE
5
113
100
AcDbEntity
8
0
62
256
6
ByLayer
370
-2
48
1
60
0
100
AcDbLine
10
29.2979
20
-3.3725
30
0
11
29.2979
21
-13.998398
31
0
39
0
210
0
220
0
230
1
0
LINE
5
114
100
AcDbEntity
8
0
62
256
6
ByLayer
370
-2
48
1
60
0
100
AcDbLine
10
3.5
20
-11.998398
30
0
11
25.7979
21
-11.998398
31
0
39
0
210
0
220
0
230
1
0
SOLID
5
115
100
AcDbEntity
8
0
62
256
6
ByLayer
370
-1
48
1
60
0
100
AcDbTrace
10
3.5
20
-11.415065
30
0
11
3.5
21
-12.581732
31
0
12
0
22
-11.998398
32
0
13
0
23
-11.998398
33
0
39
0
210
0
220
0
230
1
0
SOLID
5
116
100
AcDbEntity
8
0
62
256
6
ByLayer
370
-1
48
1
60
0
100
AcDbTrace
10
25.7979
20
-12.581732
30
0
11
25.7979
21
-11.415065
31
0
12
29.2979
22
-11.998398
32
0
13
29.2979
23
-11.998398
33
0
39
0
210
0
220
0
230
1
0
MTEXT
5
117
100
AcDbEntity
8
0
62
256
6
ByLayer
370
18
48
1
60
0
100
AcDbMText
10
14.64895
20
-4.998398
30
0
210
0
220
0
230
1
1
\A1;29.30
40
3.5
41
0
44
1
50
0
71
5
72
5
7
iso_b_vert
0
POINT
5
118
100
AcDbEntity
8
Defpoints
62
0
6
ByLayer
370
-1
48
1
60
0
100
AcDbPoint
10
0
20
0
30
0
39
0
210
0
220
0
230
1
50
360
0
POINT
5
119
100
AcDbEntity
8
Defpoints
62
0
6
ByLayer
370
-1
48
1
60
0
100
AcDbPoint
10
29.2979
20
-1.785
30
0
39
0
210
0
220
0
230
1
50
360
0
POINT
5
11A
100
AcDbEntity
8
Defpoints
62
0
6
ByLayer
370
-1
48
1
60
0
100
AcDbPoint
10
29.2979
20
-11.998398
30
0
39
0
210
0
220
0
230
1
50
360
0
ENDBLK
5
111
100
AcDbEntity
8
0
100
AcDbBlockEnd
0
BLOCK
5
122
100
AcDbEntity
8
0
100
AcDbBlockBegin
2
_U0
70
0
10
0
20
0
30
0
3
_U0
0
MTEXT
5
11C
100
AcDbEntity
8
2
62
256
6
ByLayer
370
13
48
1
60
0
100
AcDbMText
10
9.511651
20
-10.965765
30
0
210
0
220
0
230
1
1
\W0.7317;29,30
40
3.5
41
0
44
1.084337
50
0
71
7
72
5
7
iso_b_vert
0
LINE
5
11D
100
AcDbEntity
8
2
62
256
6
ByLayer
370
13
48
1
60
0
100
AcDbLine
10
0
20
-1.5875
30
0
11
0
21
-13.998398
31
0
39
0
210
0
220
0
230
1
0
LINE
5
11E
100
AcDbEntity
8
2
62
256
6
ByLayer
370
13
48
1
60
0
100
AcDbLine
10
29.2979
20
-3.3725
30
0
11
29.2979
21
-13.998398
31
0
39
0
210
0
220
0
230
1
0
LINE
5
11F
100
AcDbEntity
8
2
62
256
6
ByLayer
370
13
48
1
60
0
100
AcDbLine
10
0
20
-11.998398
30
0
11
29.2979
21
-11.998398
31
0
39
0
210
0
220
0
230
1
0
SOLID
5
120
100
AcDbEntity
8
2
62
256
6
ByLayer
370
18
48
1
60
0
100
AcDbTrace
10
0
20
-11.998398
30
0
11
3.499998
21
-11.537615
31
0
12
3.500002
22
-12.459182
32
0
13
3.500002
23
-12.459182
33
0
39
0
210
0
220
0
230
1
0
SOLID
5
121
100
AcDbEntity
8
2
62
256
6
ByLayer
370
18
48
1
60
0
100
AcDbTrace
10
29.2979
20
-11.998398
30
0
11
25.797902
21
-12.459182
31
0
12
25.797898
22
-11.537615
32
0
13
25.797898
23
-11.537615
33
0
39
0
210
0
220
0
230
1
0
ENDBLK
5
123
100
AcDbEntity
8
0
100
AcDbBlockEnd
0
BLOCK
5
128
100
AcDbEntity
8
0
100
AcDbBlockBegin
2
*D3
70
1
10
0
20
0
30
0
3
*D3
0
LINE
5
12A
100
AcDbEntity
8
0
62
256
6
ByLayer
370
-2
48
1
60
0
100
AcDbLine
10
-36
20
-4.5875
30
0
11
-36
21
-33.692985
31
0
39
0
210
0
220
0
230
1
0
LINE
5
12B
100
AcDbEntity
8
0
62
256
6
ByLayer
370
-2
48
1
60
0
100
AcDbLine
10
30
20
-1.5875
30
0
11
30
21
-33.692985
31
0
39
0
210
0
220
0
230
1
0
LINE
5
12C
100
AcDbEntity
8
0
62
256
6
ByLayer
370
-2
48
1
60
0
100
AcDbLine
10
-32.5
20
-31.692985
30
0
11
26.5
21
-31.692985
31
0
39
0
210
0
220
0
230
1
0
SOLID
5
12D
100
AcDbEntity
8
0
62
256
6
ByLayer
370
-1
48
1
60
0
100
AcDbTrace
10
-32.5
20
-31.109652
30
0
11
-32.5
21
-32.276319
31
0
12
-36
22
-31.692985
32
0
13
-36
23
-31.692985
33
0
39
0
210
0
220
0
230
1
0
SOLID
5
12E
100
AcDbEntity
8
0
62
256
6
ByLayer
370
-1
48
1
60
0
100
AcDbTrace
10
26.5
20
-32.276319
30
0
11
26.5
21
-31.109652
31
0
12
30
22
-31.692985
32
0
13
30
23
-31.692985
33
0
39
0
210
0
220
0
230
1
0
MTEXT
5
12F
100
AcDbEntity
8
0
62
256
6
ByLayer
370
18
48
1
60
0
100
AcDbMText
10
-3
20
-24.692985
30
0
210
0
220
0
230
1
1
\A1;66.00
40
3.5
41
0
44
1
50
0
71
5
72
5
7
iso_b_vert
0
POINT
5
130
100
AcDbEntity
8
Defpoints
62
0
6
ByLayer
370
-1
48
1
60
0
100
AcDbPoint
10
-36
20
-3
30
0
39
0
210
0
220
0
230
1
50
360
0
POINT
5
131
100
AcDbEntity
8
Defpoints
62
0
6
ByLayer
370
-1
48
1
60
0
100
AcDbPoint
10
30
20
0
30
0
39
0
210
0
220
0
230
1
50
360
0
POINT
5
132
100
AcDbEntity
8
Defpoints
62
0
6
ByLayer
370
-1
48
1
60
0
100
AcDbPoint
10
30
20
-31.692985
30
0
39
0
210
0
220
0
230
1
50
360
0
ENDBLK
5
129
100
AcDbEntity
8
0
100
AcDbBlockEnd
0
BLOCK
5
13A
100
AcDbEntity
8
0
100
AcDbBlockBegin
2
_U1
70
0
10
0
20
0
30
0
3
_U1
0
MTEXT
5
134
100
AcDbEntity
8
SK2
62
256
6
ByLayer
370
13
48
1
60
0
100
AcDbMText
10
-8.137299
20
-30.660352
30
0
210
0
220
0
230
1
1
\W0.7317;66,00
40
3.5
41
0
44
1.084337
50
0
71
7
72
5
7
iso_b_vert
0
LINE
5
135
100
AcDbEntity
8
SK2
62
256
6
ByLayer
370
13
48
1
60
0
100
AcDbLine
10
-36
20
-4.5875
30
0
11
-36
21
-33.692985
31
0
39
0
210
0
220
0
230
1
0
LINE
5
136
100
AcDbEntity
8
SK2
62
256
6
ByLayer
370
13
48
1
60
0
100
AcDbLine
10
30
20
-1.5875
30
0
11
30
21
-33.692985
31
0
39
0
210
0
220
0
230
1
0
LINE
5
137
100
AcDbEntity
8
SK2
62
256
6
ByLayer
370
13
48
1
60
0
100
AcDbLine
10
-36
20
-31.692985
30
0
11
30
21
-31.692985
31
0
39
0
210
0
220
0
230
1
0
SOLID
5
138
100
AcDbEntity
8
SK2
62
256
6
ByLayer
370
18
48
1
60
0
100
AcDbTrace
10
-36
20
-31.692985
30
0
11
-32.500002
21
-31.232202
31
0
12
-32.499998
22
-32.153769
32
0
13
-32.499998
23
-32.153769
33
0
39
0
210
0
220
0
230
1
0
SOLID
5
139
100
AcDbEntity
8
SK2
62
256
6
ByLayer
370
18
48
1
60
0
100
AcDbTrace
10
30
20
-31.692985
30
0
11
26.500002
21
-32.153769
31
0
12
26.499998
22
-31.232202
32
0
13
26.499998
23
-31.232202
33
0
39
0
210
0
220
0
230
1
0
ENDBLK
5
13B
100
AcDbEntity
8
0
100
AcDbBlockEnd
0
BLOCK
5
140
100
AcDbEntity
8
0
100
AcDbBlockBegin
2
*D5
70
1
10
0
20
0
30
0
3
*D5
0
LINE
5
142
100
AcDbEntity
8
0
62
256
6
ByLayer
370
-2
48
1
60
0
100
AcDbLine
10
11.45
20
3.3725
30
0
11
11.45
21
15.394119
31
0
39
0
210
0
220
0
230
1
0
LINE
5
143
100
AcDbEntity
8
0
62
256
6
ByLayer
370
-2
48
1
60
0
100
AcDbLine
10
30
20
1.5875
30
0
11
30
21
15.394119
31
0
39
0
210
0
220
0
230
1
0
LINE
5
144
100
AcDbEntity
8
0
62
256
6
ByLayer
370
-2
48
1
60
0
100
AcDbLine
10
14.95
20
13.394119
30
0
11
26.5
21
13.394119
31
0
39
0
210
0
220
0
230
1
0
SOLID
5
145
100
AcDbEntity
8
0
62
256
6
ByLayer
370
-1
48
1
60
0
100
AcDbTrace
10
14.95
20
13.977453
30
0
11
14.95
21
12.810786
31
0
12
11.45
22
13.394119
32
0
13
11.45
23
13.394119
33
0
39
0
210
0
220
0
230
1
0
SOLID
5
146
100
AcDbEntity
8
0
62
256
6
ByLayer
370
-1
48
1
60
0
100
AcDbTrace
10
26.5
20
12.810786
30
0
11
26.5
21
13.977453
31
0
12
30
22
13.394119
32
0
13
30
23
13.394119
33
0
39
0
210
0
220
0
230
1
0
MTEXT
5
147
100
AcDbEntity
8
0
62
256
6
ByLayer
370
18
48
1
60
0
100
AcDbMText
10
20.725
20
20.394119
30
0
210
0
220
0
230
1
1
\A1;18.55
40
3.5
41
0
44
1
50
0
71
5
72
5
7
iso_b_vert
0
POINT
5
148
100
AcDbEntity
8
Defpoints
62
0
6
ByLayer
370
-1
48
1
60
0
100
AcDbPoint
10
11.45
20
1.785
30
0
39
0
210
0
220
0
230
1
50
360
0
POINT
5
149
100
AcDbEntity
8
Defpoints
62
0
6
ByLayer
370
-1
48
1
60
0
100
AcDbPoint
10
30
20
0
30
0
39
0
210
0
220
0
230
1
50
360
0
POINT
5
14A
100
AcDbEntity
8
Defpoints
62
0
6
ByLayer
370
-1
48
1
60
0
100
AcDbPoint
10
30
20
13.394119
30
0
39
0
210
0
220
0
230
1
50
360
0
ENDBLK
5
141
100
AcDbEntity
8
0
100
AcDbBlockEnd
0
BLOCK
5
152
100
AcDbEntity
8
0
100
AcDbBlockBegin
2
_U2
70
0
10
0
20
0
30
0
3
_U2
0
MTEXT
5
14C
100
AcDbEntity
8
SK2
62
256
6
ByLayer
370
13
48
1
60
0
100
AcDbMText
10
16.025135
20
14.426753
30
0
210
0
220
0
230
1
1
\W0.6713;18,55
40
3.5
41
0
44
1.084337
50
0
71
7
72
5
7
iso_b_vert
0
LINE
5
14D
100
AcDbEntity
8
SK2
62
256
6
ByLayer
370
13
48
1
60
0
100
AcDbLine
10
11.45
20
3.3725
30
0
11
11.45
21
15.394119
31
0
39
0
210
0
220
0
230
1
0
LINE
5
14E
100
AcDbEntity
8
SK2
62
256
6
ByLayer
370
13
48
1
60
0
100
AcDbLine
10
30
20
1.5875
30
0
11
30
21
15.394119
31
0
39
0
210
0
220
0
230
1
0
LINE
5
14F
100
AcDbEntity
8
SK2
62
256
6
ByLayer
370
13
48
1
60
0
100
AcDbLine
10
11.45
20
13.394119
30
0
11
30
21
13.394119
31
0
39
0
210
0
220
0
230
1
0
SOLID
5
150
100
AcDbEntity
8
SK2
62
256
6
ByLayer
370
18
48
1
60
0
100
AcDbTrace
10
11.45
20
13.394119
30
0
11
14.949998
21
13.854903
31
0
12
14.950002
22
12.933335
32
0
13
14.950002
23
12.933335
33
0
39
0
210
0
220
0
230
1
0
SOLID
5
151
100
AcDbEntity
8
SK2
62
256
6
ByLayer
370
18
48
1
60
0
100
AcDbTrace
10
30
20
13.394119
30
0
11
26.500002
21
12.933335
31
0
12
26.499998
22
13.854903
32
0
13
26.499998
23
13.854903
33
0
39
0
210
0
220
0
230
1
0
ENDBLK
5
153
100
AcDbEntity
8
0
100
AcDbBlockEnd
0
BLOCK
5
158
100
AcDbEntity
8
0
100
AcDbBlockBegin
2
*D7
70
1
10
0
20
0
30
0
3
*D7
0
LINE
5
15A
100
AcDbEntity
8
0
62
256
6
ByLayer
370
-2
48
1
60
0
100
AcDbLine
10
30
20
-1.5875
30
0
11
30
21
-16.587503
31
0
39
0
210
0
220
0
230
1
0
LINE
5
15B
100
AcDbEntity
8
0
62
256
6
ByLayer
370
-2
48
1
60
0
100
AcDbLine
10
29.2979
20
-3.3725
30
0
11
29.2979
21
-16.587503
31
0
39
0
210
0
220
0
230
1
0
LINE
5
15C
100
AcDbEntity
8
0
62
256
6
ByLayer
370
-2
48
1
60
0
100
AcDbLine
10
30
20
-14.587503
30
0
11
58.166667
21
-14.587503
31
0
39
0
210
0
220
0
230
1
0
LINE
5
15D
100
AcDbEntity
8
0
62
256
6
ByLayer
370
-2
48
1
60
0
100
AcDbLine
10
33.5
20
-14.587503
30
0
11
37
21
-14.587503
31
0
39
0
210
0
220
0
230
1
0
LINE
5
15E
100
AcDbEntity
8
0
62
256
6
ByLayer
370
-2
48
1
60
0
100
AcDbLine
10
25.7979
20
-14.587503
30
0
11
22.2979
21
-14.587503
31
0
39
0
210
0
220
0
230
1
0
SOLID
5
15F
100
AcDbEntity
8
0
62
256
6
ByLayer
370
-1
48
1
60
0
100
AcDbTrace
10
33.5
20
-14.00417
30
0
11
33.5
21
-15.170837
31
0
12
30
22
-14.587503
32
0
13
30
23
-14.587503
33
0
39
0
210
0
220
0
230
1
0
SOLID
5
160
100
AcDbEntity
8
0
62
256
6
ByLayer
370
-1
48
1
60
0
100
AcDbTrace
10
25.7979
20
-15.170837
30
0
11
25.7979
21
-14.00417
31
0
12
29.2979
22
-14.587503
32
0
13
29.2979
23
-14.587503
33
0
39
0
210
0
220
0
230
1
0
MTEXT
5
161
100
AcDbEntity
8
0
62
256
6
ByLayer
370
18
48
1
60
0
100
AcDbMText
10
47.583333
20
-7.587503
30
0
210
0
220
0
230
1
1
\A1;0.70
40
3.5
41
0
44
1
50
0
71
5
72
5
7
iso_b_vert
0
POINT
5
162
100
AcDbEntity
8
Defpoints
62
0
6
ByLayer
370
-1
48
1
60
0
100
AcDbPoint
10
30
20
0
30
0
39
0
210
0
220
0
230
1
50
360
0
POINT
5
163
100
AcDbEntity
8
Defpoints
62
0
6
ByLayer
370
-1
48
1
60
0
100
AcDbPoint
10
29.2979
20
-1.785
30
0
39
0
210
0
220
0
230
1
50
360
0
POINT
5
164
100
AcDbEntity
8
Defpoints
62
0
6
ByLayer
370
-1
48
1
60
0
100
AcDbPoint
10
29.2979
20
-14.587503
30
0
39
0
210
0
220
0
230
1
50
360
0
ENDBLK
5
159
100
AcDbEntity
8
0
100
AcDbBlockEnd
0
BLOCK
5
16C
100
AcDbEntity
8
0
100
AcDbBlockBegin
2
_U3
70
0
10
0
20
0
30
0
3
_U3
0
MTEXT
5
166
100
AcDbEntity
8
SK2
62
256
6
ByLayer
370
13
48
1
60
0
100
AcDbMText
10
36.15186
20
-13.55487
30
0
210
0
220
0
230
1
1
\W0.7150;0,70
40
3.5
41
0
44
1.084337
50
0
71
7
72
5
7
iso_b_vert
0
LINE
5
167
100
AcDbEntity
8
SK2
62
256
6
ByLayer
370
13
48
1
60
0
100
AcDbLine
10
30
20
-1.5875
30
0
11
30
21
-16.587503
31
0
39
0
210
0
220
0
230
1
0
LINE
5
168
100
AcDbEntity
8
SK2
62
256
6
ByLayer
370
13
48
1
60
0
100
AcDbLine
10
29.2979
20
-3.3725
30
0
11
29.2979
21
-16.587503
31
0
39
0
210
0
220
0
230
1
0
LINE
5
169
100
AcDbEntity
8
SK2
62
256
6
ByLayer
370
13
48
1
60
0
100
AcDbLine
10
20.5479
20
-14.587503
30
0
11
43.996491
21
-14.587503
31
0
39
0
210
0
220
0
230
1
0
SOLID
5
16A
100
AcDbEntity
8
SK2
62
256
6
ByLayer
370
18
48
1
60
0
100
AcDbTrace
10
30
20
-14.587503
30
0
11
33.499998
21
-14.126719
31
0
12
33.500002
22
-15.048287
32
0
13
33.500002
23
-15.048287
33
0
39
0
210
0
220
0
230
1
0
SOLID
5
16B
100
AcDbEntity
8
SK2
62
256
6
ByLayer
370
18
48
1
60
0
100
AcDbTrace
10
29.2979
20
-14.587503
30
0
11
25.797902
21
-15.048287
31
0
12
25.797898
22
-14.126719
32
0
13
25.797898
23
-14.126719
33
0
39
0
210
0
220
0
230
1
0
ENDBLK
5
16D
100
AcDbEntity
8
0
100
AcDbBlockEnd
0
BLOCK
5
172
100
AcDbEntity
8
0
100
AcDbBlockBegin
2
*D9
70
1
10
0
20
0
30
0
3
*D9
0
LINE
5
174
100
AcDbEntity
8
0
62
256
6
ByLayer
370
-2
48
1
60
0
100
AcDbLine
10
-36
20
-4.5875
30
0
11
-36
21
-23.343428
31
0
39
0
210
0
220
0
230
1
0
LINE
5
175
100
AcDbEntity
8
0
62
256
6
ByLayer
370
-2
48
1
60
0
100
AcDbLine
10
29.2979
20
-3.3725
30
0
11
29.2979
21
-23.343428
31
0
39
0
210
0
220
0
230
1
0
LINE
5
176
100
AcDbEntity
8
0
62
256
6
ByLayer
370
-2
48
1
60
0
100
AcDbLine
10
-32.5
20
-21.343428
30
0
11
25.7979
21
-21.343428
31
0
39
0
210
0
220
0
230
1
0
SOLID
5
177
100
AcDbEntity
8
0
62
256
6
ByLayer
370
-1
48
1
60
0
100
AcDbTrace
10
-32.5
20
-20.760095
30
0
11
-32.5
21
-21.926762
31
0
12
-36
22
-21.343428
32
0
13
-36
23
-21.343428
33
0
39
0
210
0
220
0
230
1
0
SOLID
5
178
100
AcDbEntity
8
0
62
256
6
ByLayer
370
-1
48
1
60
0
100
AcDbTrace
10
25.7979
20
-21.926762
30
0
11
25.7979
21
-20.760095
31
0
12
29.2979
22
-21.343428
32
0
13
29.2979
23
-21.343428
33
0
39
0
210
0
220
0
230
1
0
MTEXT
5
179
100
AcDbEntity
8
0
62
256
6
ByLayer
370
18
48
1
60
0
100
AcDbMText
10
-3.35105
20
-14.343428
30
0
210
0
220
0
230
1
1
\A1;65.30
40
3.5
41
0
44
1
50
0
71
5
72
5
7
iso_b_vert
0
POINT
5
17A
100
AcDbEntity
8
Defpoints
62
0
6
ByLayer
370
-1
48
1
60
0
100
AcDbPoint
10
-36
20
-3
30
0
39
0
210
0
220
0
230
1
50
360
0
POINT
5
17B
100
AcDbEntity
8
Defpoints
62
0
6
ByLayer
370
-1
48
1
60
0
100
AcDbPoint
10
29.2979
20
-1.785
30
0
39
0
210
0
220
0
230
1
50
360
0
POINT
5
17C
100
AcDbEntity
8
Defpoints
62
0
6
ByLayer
370
-1
48
1
60
0
100
AcDbPoint
10
29.2979
20
-21.343428
30
0
39
0
210
0
220
0
230
1
50
360
0
ENDBLK
5
173
100
AcDbEntity
8
0
100
AcDbBlockEnd
0
BLOCK
5
184
100
AcDbEntity
8
0
100
AcDbBlockBegin
2
_U4
70
0
10
0
20
0
30
0
3
_U4
0
MTEXT
5
17E
100
AcDbEntity
8
SK2
62
256
6
ByLayer
370
13
48
1
60
0
100
AcDbMText
10
-8.488349
20
-20.310795
30
0
210
0
220
0
230
1
1
\W0.7317;65,30
40
3.5
41
0
44
1.084337
50
0
71
7
72
5
7
iso_b_vert
0
LINE
5
17F
100
AcDbEntity
8
SK2
62
256
6
ByLayer
370
13
48
1
60
0
100
AcDbLine
10
-36
20
-4.5875
30
0
11
-36
21
-23.343428
31
0
39
0
210
0
220
0
230
1
0
LINE
5
180
100
AcDbEntity
8
SK2
62
256
6
ByLayer
370
13
48
1
60
0
100
AcDbLine
10
29.2979
20
-3.3725
30
0
11
29.2979
21
-23.343428
31
0
39
0
210
0
220
0
230
1
0
LINE
5
181
100
AcDbEntity
8
SK2
62
256
6
ByLayer
370
13
48
1
60
0
100
AcDbLine
10
-36
20
-21.343428
30
0
11
29.2979
21
-21.343428
31
0
39
0
210
0
220
0
230
1
0
SOLID
5
182
100
AcDbEntity
8
SK2
62
256
6
ByLayer
370
18
48
1
60
0
100
AcDbTrace
10
-36
20
-21.343428
30
0
11
-32.500002
21
-20.882645
31
0
12
-32.499998
22
-21.804212
32
0
13
-32.499998
23
-21.804212
33
0
39
0
210
0
220
0
230
1
0
SOLID
5
183
100
AcDbEntity
8
SK2
62
256
6
ByLayer
370
18
48
1
60
0
100
AcDbTrace
10
29.2979
20
-21.343428
30
0
11
25.797902
21
-21.804212
31
0
12
25.797898
22
-20.882645
32
0
13
25.797898
23
-20.882645
33
0
39
0
210
0
220
0
230
1
0
ENDBLK
5
185
100
AcDbEntity
8
0
100
AcDbBlockEnd
0
ENDSEC
0
SECTION
2
ENTITIES
0
ARC
5
A8
100
AcDbEntity
8
1
62
256
6
ByLayer
370
18
48
1
60
0
100
AcDbCircle
39
0
10
1.643344
20
-2.585223
30
0
40
0.849999999999998
210
0
220
0
230
1
100
AcDbArc
50
89.896868
51
165.166344
0
ARC
5
A9
100
AcDbEntity
8
1
62
256
6
ByLayer
370
18
48
1
60
0
100
AcDbCircle
39
0
10
1.643344
20
2.585223
30
0
40
0.849999999999998
210
0
220
0
230
1
100
AcDbArc
50
194.833656
51
270.103132
0
ARC
5
AA
100
AcDbEntity
8
1
62
256
6
ByLayer
370
18
48
1
60
0
100
AcDbCircle
39
0
10
0
20
-2.15
30
0
40
0.850000000000005
210
0
220
0
230
1
100
AcDbArc
50
270
51
345.166344
0
ARC
5
AB
100
AcDbEntity
8
1
62
256
6
ByLayer
370
18
48
1
60
0
100
AcDbCircle
39
0
10
0
20
2.15
30
0
40
0.850000000000005
210
0
220
0
230
1
100
AcDbArc
50
14.833656
51
90
0
ELLIPSE
5
AC
100
AcDbEntity
8
1
62
256
6
ByLayer
370
13
48
1
60
0
100
AcDbEllipse
10
5.380802
20
1.627203
30
0
11
0.109900777818673
21
0.279144799404987
31
0
210
0
220
0
230
1
40
0.467585
41
-3.05243421663604
42
-2.43912653143415
0
ELLIPSE
5
AD
100
AcDbEntity
8
1
62
256
6
ByLayer
370
18
48
1
60
0
100
AcDbEllipse
10
30.07355
20
0.000822
30
0
11
0.636413429904728
21
1.76802676492212
31
0
210
0
220
0
230
1
40
0.400064
41
2.93426177680418
42
2.94894468020241
0
ELLIPSE
5
AE
100
AcDbEntity
8
1
62
256
6
ByLayer
370
13
48
1
60
0
100
AcDbEllipse
10
6.71254
20
-50.075663
30
0
11
-53.892599464026
21
51.7145839218864
31
0
210
0
220
0
230
1
40
0.535437
41
-1.09617151455455
42
-1.04913863461642
0
ELLIPSE
5
AF
100
AcDbEntity
8
1
62
256
6
ByLayer
370
13
48
1
60
0
100
AcDbEllipse
10
74.194174
20
43.437707
30
0
11
-61.8499999999999
21
7.57419029839139E-15
31
0
210
0
220
0
230
1
40
0.99863
41
0.767065393974921
42
0.772536346715944
0
ELLIPSE
5
B0
100
AcDbEntity
8
1
62
256
6
ByLayer
370
18
48
1
60
0
100
AcDbEllipse
10
5.379753
20
-2.681825
30
0
11
1
21
0
31
0
210
0
220
0
230
1
40
0.999985
41
1.57222025679875
42
1.9118361631771
0
ELLIPSE
5
B1
100
AcDbEntity
8
1
62
256
6
ByLayer
370
18
48
1
60
0
100
AcDbEllipse
10
5.379753
20
2.681825
30
0
11
1
21
0
31
0
210
0
220
0
230
1
40
0.999985
41
-1.90986220734398
42
-1.56776401331344
0
POINT
5
70
100
AcDbEntity
8
80
62
256
6
ByLayer
370
18
48
1
60
0
100
AcDbPoint
10
0
20
0
30
0
39
0
210
0
220
0
230
1
50
360
0
POINT
5
72
100
AcDbEntity
8
81
62
256
6
ByLayer
370
18
48
1
60
0
100
AcDbPoint
10
30
20
0
30
0
39
0
210
0
220
0
230
1
50
360
0
POINT
5
74
100
AcDbEntity
8
1
62
256
6
ByLayer
370
18
48
1
60
1
100
AcDbPoint
10
29.2979
20
-1.785
30
0
39
0
210
0
220
0
230
1
50
360
0
POINT
5
76
100
AcDbEntity
8
1
62
256
6
ByLayer
370
18
48
1
60
1
100
AcDbPoint
10
-36
20
-3
30
0
39
0
210
0
220
0
230
1
50
360
0
POINT
5
77
100
AcDbEntity
8
1
62
256
6
ByLayer
370
18
48
1
60
1
100
AcDbPoint
10
11.45
20
1.785
30
0
39
0
210
0
220
0
230
1
50
360
0
POINT
5
78
100
AcDbEntity
8
1
62
256
6
ByLayer
370
18
48
1
60
1
100
AcDbPoint
10
29.2979
20
-1.785
30
0
39
0
210
0
220
0
230
1
50
360
0
POINT
5
79
100
AcDbEntity
8
1
62
256
6
ByLayer
370
18
48
1
60
1
100
AcDbPoint
10
-36
20
-3
30
0
39
0
210
0
220
0
230
1
50
360
0
POINT
5
7A
100
AcDbEntity
8
1
62
256
6
ByLayer
370
18
48
1
60
1
100
AcDbPoint
10
29.2979
20
-1.785
30
0
39
0
210
0
220
0
230
1
50
360
0
SPLINE
5
B2
100
AcDbEntity
8
1
62
256
6
ByLayer
370
13
48
1
60
0
100
AcDbSpline
70
4
71
3
72
111
73
107
40
0
40
0
40
0
40
0
40
0.0061578464349954
40
0.0154946381121355
40
0.0294998256278441
40
0.0341682214664153
40
0.0435050131435541
40
0.0528418048206937
40
0.0668469923364046
40
0.0715153881749757
40
0.0808521798521181
40
0.0901889715292551
40
0.104194159044964
40
0.108862554883536
40
0.118199346560676
40
0.127536138237815
40
0.141541325753525
40
0.146209721592097
40
0.155546513269237
40
0.164883304946377
40
0.178888492462088
40
0.183556888300657
40
0.192893679977796
40
0.202230471654936
40
0.216235659170646
40
0.220904055009218
40
0.230240846686359
40
0.239577638363497
40
0.253582825879208
40
0.258251221717778
40
0.267588013394919
40
0.276924805072058
40
0.29092999258777
40
0.295598388426338
40
0.304935180103478
40
0.314271971780619
40
0.328277159296329
40
0.332945555134899
40
0.342282346812039
40
0.351619138489179
40
0.36562432600489
40
0.370292721843459
40
0.3796295135206
40
0.388966305197739
40
0.40297149271345
40
0.40763988855202
40
0.41697668022916
40
0.426313471906299
40
0.44031865942201
40
0.444987055260581
40
0.454323846937721
40
0.46366063861486
40
0.477665826130571
40
0.482334221969141
40
0.491671013646281
40
0.501007805323421
40
0.515012992839132
40
0.519681388677701
40
0.529018180354841
40
0.538354972031981
40
0.552360159547692
40
0.557028555386262
40
0.566365347063402
40
0.575702138740543
40
0.589707326256252
40
0.594375722094823
40
0.603712513771962
40
0.613049305449103
40
0.627054492964813
40
0.631722888803383
40
0.641059680480523
40
0.650396472157664
40
0.664401659673374
40
0.669070055511944
40
0.678406847189083
40
0.687743638866224
40
0.701748826381934
40
0.706417222220504
40
0.715754013897644
40
0.725090805574784
40
0.739095993090494
40
0.743764388929065
40
0.753101180606205
40
0.762437972283346
40
0.776443159799055
40
0.781111555637625
40
0.790448347314765
40
0.799785138991904
40
0.813790326507614
40
0.818458722346186
40
0.827795514023325
40
0.837132305700466
40
0.851137493216177
40
0.855805889054746
40
0.865142680731884
40
0.874479472409026
40
0.887317560965094
40
0.893153055763306
40
0.898988550561521
40
0.911826639117588
40
0.930500222471867
40
0.963178993341858
40
0.967847389180428
40
0.977184180857568
40
0.986520972534708
40
1
40
1
40
1
40
1
41
1
10
17.4605439397672
20
-0.732151741492686
30
0
41
1
10
17.4491652981975
20
-0.733367114146034
30
0
41
1
10
17.4205347149075
20
-0.736379109063137
30
0
41
1
10
17.366025364282
20
-0.741902619782053
30
0
41
1
10
17.3142663392434
20
-0.746853776609498
30
0
41
1
10
17.2625080887513
20
-0.75156674952666
30
0
41
1
10
17.2193777094486
20
-0.755335099536808
30
0
41
1
10
17.1589945432047
20
-0.760321223257591
30
0
41
1
10
17.1072355762244
20
-0.764295015014596
30
0
41
1
10
17.0554773320172
20
-0.768024226085913
30
0
41
1
10
17.0123469445077
20
-0.77096751720731
30
0
41
1
10
16.9519637528929
20
-0.774791567819392
30
0
41
1
10
16.9002047465898
20
-0.777763603086896
30
0
41
1
10
16.8484464474738
20
-0.780485419542941
30
0
41
1
10
16.8053160070661
20
-0.782584498099141
30
0
41
1
10
16.744932737011
20
-0.785220604835104
30
0
41
1
10
16.6931736647359
20
-0.787169650233977
30
0
41
1
10
16.6414153081291
20
-0.788863612426496
30
0
41
1
10
16.5982848290134
20
-0.790101976541024
30
0
41
1
10
16.5379015253186
20
-0.791529029001339
30
0
41
1
10
16.4861424469792
20
-0.792440164931776
30
0
41
1
10
16.4343841044916
20
-0.793095262218714
30
0
41
1
10
16.3912536435675
20
-0.793466527108166
30
0
41
1
10
16.3308703644025
20
-0.793679693533448
30
0
41
1
10
16.2791113004566
20
-0.793552008153199
30
0
41
1
10
16.2273529591988
20
-0.793168643982909
30
0
41
1
10
16.1842224888753
20
-0.792673775503147
30
0
41
1
10
16.1238391798312
20
-0.79167548144153
30
0
41
1
10
16.0720800759388
20
-0.790512105661122
30
0
41
1
10
16.0203216868337
20
-0.789094287553411
30
0
41
1
10
15.9771911786805
20
-0.787737256702428
30
0
41
1
10
15.9168078305197
20
-0.785534135781745
30
0
41
1
10
15.8650487108877
20
-0.783341811864574
30
0
41
1
10
15.8132903249892
20
-0.780897180197769
30
0
41
1
10
15.7701598313025
20
-0.778684999597289
30
0
41
1
10
15.7097765191165
20
-0.775288262066169
30
0
41
1
10
15.6580174417485
20
-0.772078322728476
30
0
41
1
10
15.6062591010655
20
-0.768620045891765
30
0
41
1
10
15.5631286406201
20
-0.765565010334029
30
0
41
1
10
15.5027453595371
20
-0.760993898004699
30
0
41
1
10
15.4509862908549
20
-0.756784576502838
30
0
41
1
10
15.3992279417271
20
-0.752331951200546
30
0
41
1
10
15.3560974645976
20
-0.748450824363857
30
0
41
1
10
15.295714147314
20
-0.742729937792262
30
0
41
1
10
15.2439550373189
20
-0.737543412367586
30
0
41
1
10
15.1921966426574
20
-0.732119550150259
30
0
41
1
10
15.1490661304758
20
-0.727432274364105
30
0
41
1
10
15.0886827753042
20
-0.720590658728611
30
0
41
1
10
15.0369236451858
20
-0.71445291500055
30
0
41
1
10
14.9851652420086
20
-0.708084747489124
30
0
41
1
10
14.9420347256373
20
-0.702614454005698
30
0
41
1
10
14.8816513639254
20
-0.694685984198088
30
0
41
1
10
14.829892226855
20
-0.687627933658575
30
0
41
1
10
14.7781338143465
20
-0.680348428349788
30
0
41
1
10
14.7350032858642
20
-0.674124081805076
30
0
41
1
10
14.6746198980618
20
-0.665151546397311
30
0
41
1
10
14.6228607308836
20
-0.657211729790816
30
0
41
1
10
14.5711022835978
20
-0.649060510722478
30
0
41
1
10
14.5279717283388
20
-0.642115817748902
30
0
41
1
10
14.4675883149931
20
-0.632147512291311
30
0
41
1
10
14.4158291410661
20
-0.62336837728455
30
0
41
1
10
14.3640707024507
20
-0.614388811700053
30
0
41
1
10
14.3209401681411
20
-0.606760591801986
30
0
41
1
10
14.2605568101794
20
-0.595849149037434
30
0
41
1
10
14.208797707877
20
-0.586276841327191
30
0
41
1
10
14.157039356707
20
-0.576515986796039
30
0
41
1
10
14.1139088998871
20
-0.568244127988294
30
0
41
1
10
14.0535256469982
20
-0.556446450674912
30
0
41
1
10
14.0017666238872
20
-0.546130742616981
30
0
41
1
10
13.9500083340328
20
-0.535639252912006
30
0
41
1
10
13.9068779123727
20
-0.526766627142194
30
0
41
1
10
13.8464946808242
20
-0.514143766045066
30
0
41
1
10
13.7947356516586
20
-0.503137942901418
30
0
41
1
10
13.7429773418667
20
-0.491969941648534
30
0
41
1
10
13.6998469018305
20
-0.482542286245774
30
0
41
1
10
13.6394636501155
20
-0.469159264902174
30
0
41
1
10
13.587704611943
20
-0.457519985670302
30
0
41
1
10
13.5359463035463
20
-0.445732960325501
30
0
41
1
10
13.4928158722257
20
-0.435798801486641
30
0
41
1
10
13.4324326411542
20
-0.421724507375728
30
0
41
1
10
13.3806736233881
20
-0.40951170062371
30
0
41
1
10
13.3289153305129
20
-0.397166374164414
30
0
41
1
10
13.2857849028053
20
-0.386776913002422
30
0
41
1
10
13.2254016565553
20
-0.372083977704989
30
0
41
1
10
13.1736426070595
20
-0.359360822803353
30
0
41
1
10
13.1218842703904
20
-0.346521251944807
30
0
41
1
10
13.0787537973563
20
-0.335730532582375
30
0
41
1
10
13.0183704749957
20
-0.320495602085742
30
0
41
1
10
12.9666113531256
20
-0.307328658879868
30
0
41
1
10
12.9148529453159
20
-0.294062114782776
30
0
41
1
10
12.8717224194634
20
-0.282926730187825
30
0
41
1
10
12.8113390369094
20
-0.267229829246531
30
0
41
1
10
12.7595798746691
20
-0.253688407575766
30
0
41
1
10
12.7078214304574
20
-0.240064859644775
30
0
41
1
10
12.6646908918213
20
-0.22864363336771
30
0
41
1
10
12.6064638574974
20
-0.213145199663444
30
0
41
1
10
12.5547050700654
20
-0.199302785012407
30
0
41
1
10
12.5094161793102
20
-0.187141619656472
30
0
41
1
10
12.4641299432546
20
-0.174917921610444
30
0
41
1
10
12.3951234010515
20
-0.156197256671106
30
0
41
1
10
12.2765202955943
20
-0.123787673030336
30
0
41
1
10
12.1729980944316
20
-0.0954243986531651
30
0
41
1
10
12.0867277947159
20
-0.0717297468341371
30
0
41
1
10
12.0435971392065
20
-0.0598154115134832
30
0
41
1
10
11.9841859404506
20
-0.0433829898624083
30
0
41
1
10
11.9420256353156
20
-0.031723651509509
30
0
41
1
10
11.9171185869433
20
-0.0248323393975625
30
0
0
SPLINE
5
B3
100
AcDbEntity
8
1
62
256
6
ByLayer
370
18
48
1
60
0
100
AcDbSpline
70
4
71
3
72
14
73
10
40
0
40
0
40
0
40
0
40
0.0811390651583775
40
0.0811390651583775
40
0.387426043438919
40
0.387426043438919
40
0.693713021719459
40
0.693713021719459
40
1
40
1
40
1
40
1
41
1
10
5.04003479394621
20
1.74133579942065
30
0
41
1
10
5.04002377536847
20
1.74127223712148
30
0
41
1
10
5.04001280606553
20
1.74068914750367
30
0
41
1
10
5.03996001104139
20
1.73542524534793
30
0
41
1
10
5.03991656075706
20
1.72363064896535
30
0
41
1
10
5.0398108872281
20
1.68561593411994
30
0
41
1
10
5.03974855453151
20
1.65950440140702
30
0
41
1
10
5.0395844858929
20
1.59320668834357
30
0
41
1
10
5.03948185082518
20
1.55268315665353
30
0
41
1
10
5.0393501264752
20
1.50560926864429
30
0
0
SPLINE
5
B4
100
AcDbEntity
8
1
62
256
6
ByLayer
370
18
48
1
60
0
100
AcDbSpline
70
4
71
3
72
32
73
28
40
0
40
0
40
0
40
0
40
0.125
40
0.125
40
0.25
40
0.25
40
0.375
40
0.375
40
0.4375
40
0.4375
40
0.5
40
0.5
40
0.5625
40
0.5625
40
0.625
40
0.625
40
0.6875
40
0.6875
40
0.75
40
0.75
40
0.8125
40
0.8125
40
0.875
40
0.875
40
0.9375
40
0.9375
40
1
40
1
40
1
40
1
41
1
10
5.04110601360773
20
-1.26687243440924
30
0
41
1
10
4.94974882564702
20
-1.22335631724249
30
0
41
1
10
4.85863809288125
20
-1.17565681543135
30
0
41
1
10
4.68102771279547
20
-1.07221745051638
30
0
41
1
10
4.59445631806872
20
-1.01651093715799
30
0
41
1
10
4.42673893278402
20
-0.895355324038405
30
0
41
1
10
4.34557340594881
20
-0.829942178547554
30
0
41
1
10
4.22915811178697
20
-0.722184360473932
30
0
41
1
10
4.19124891405622
20
-0.684645726016043
30
0
41
1
10
4.11758467053437
20
-0.605662001864573
30
0
41
1
10
4.08188159142946
20
-0.564232793693691
30
0
41
1
10
4.01449110811024
20
-0.478386796456789
30
0
41
1
10
3.98262998454359
20
-0.433798372894017
30
0
41
1
10
3.92327426773232
20
-0.340649502597387
30
0
41
1
10
3.89563289793642
20
-0.291748119685025
30
0
41
1
10
3.84690357106922
20
-0.191552973664386
30
0
41
1
10
3.82569132127753
20
-0.140144231311751
30
0
41
1
10
3.79046926715736
20
-0.0343290941499959
30
0
41
1
10
3.77639311232827
20
0.0204313488943626
30
0
41
1
10
3.75705929104458
20
0.13194000555788
30
0
41
1
10
3.75194930356491
20
0.187580109943042
30
0
41
1
10
3.75094099239888
20
0.29862711644293
30
0
41
1
10
3.75516422631506
20
0.354600500286835
30
0
41
1
10
3.77253258881879
20
0.462932208053275
30
0
41
1
10
3.78554509361081
20
0.515310380362877
30
0
41
1
10
3.81930888793985
20
0.616869520482396
30
0
41
1
10
3.84022247441629
20
0.666236808071716
30
0
41
1
10
3.86387086634903
20
0.712711338278581
30
0
0
SPLINE
5
B5
100
AcDbEntity
8
1
62
256
6
ByLayer
370
18
48
1
60
0
100
AcDbSpline
70
4
71
3
72
14
73
10
40
0
40
0
40
0
40
0
40
0.25
40
0.25
40
0.5
40
0.5
40
0.75
40
0.75
40
1
40
1
40
1
40
1
41
1
10
29.7081197968326
20
-0.353490016851936
30
0
41
1
10
29.726137671052
20
-0.354902101625186
30
0
41
1
10
29.7466044798043
20
-0.345745096054799
30
0
41
1
10
29.7930567615878
20
-0.30612471232385
30
0
41
1
10
29.8178475218307
20
-0.276674918768123
30
0
41
1
10
29.8703227867638
20
-0.200139945090712
30
0
41
1
10
29.8968564389283
20
-0.154724148753417
30
0
41
1
10
29.9498918980485
20
-0.0517757523647617
30
0
41
1
10
29.9753514993726
20
0.0037180407471453
30
0
41
1
10
29.9996806041662
20
0.0628869116031012
30
0
0
SPLINE
5
B6
100
AcDbEntity
8
1
62
256
6
ByLayer
370
18
48
1
60
0
100
AcDbSpline
70
4
71
3
72
16
73
12
40
0
40
0
40
0
40
0
40
0.250000000000001
40
0.250000000000001
40
0.375000000000001
40
0.375000000000001
40
0.500000000000001
40
0.500000000000001
40
0.75
40
0.75
40
1
40
1
40
1
40
1
41
1
10
29.7077487669012
20
-0.353119528496478
30
0
41
1
10
29.6791219279204
20
-0.340303364727561
30
0
41
1
10
29.6535783128107
20
-0.317319164277308
30
0
41
1
10
29.6187261906374
20
-0.271421387930786
30
0
41
1
10
29.6076507258591
20
-0.254049516902256
30
0
41
1
10
29.5871049986039
20
-0.216580962563739
30
0
41
1
10
29.5775715136162
20
-0.196426618703811
30
0
41
1
10
29.550944936109
20
-0.132172515168037
30
0
41
1
10
29.5357290910788
20
-0.0840170379577216
30
0
41
1
10
29.5103822146286
20
0.0200264948579729
30
0
41
1
10
29.5003913504757
20
0.075174808827029
30
0
41
1
10
29.4928588964093
20
0.133188406607019
30
0
0
SPLINE
5
B7
100
AcDbEntity
8
1
62
256
6
ByLayer
370
18
48
1
60
0
100
AcDbSpline
70
4
71
1
72
4
73
2
40
0
40
0
40
1
40
1
41
1
10
29.707235326324
20
-0.356475939265778
30
0
41
1
10
29.7081197968378
20
-0.353490016852391
30
0
0
SPLINE
5
B8
100
AcDbEntity
8
1
62
256
6
ByLayer
370
18
48
1
60
0
100
AcDbSpline
70
4
71
3
72
8
73
4
40
0
40
0
40
0
40
0
40
1
40
1
40
1
40
1
41
1
10
29.7118503818217
20
0.79316998259398
30
0
41
1
10
29.682975436603
20
0.863187589146094
30
0
41
1
10
29.6668980421845
20
0.935588051505874
30
0
41
1
10
29.6579727773565
20
1.00932021197556
30
0
0
SPLINE
5
B9
100
AcDbEntity
8
1
62
256
6
ByLayer
370
18
48
1
60
0
100
AcDbSpline
70
4
71
3
72
8
73
4
40
0
40
0
40
0
40
0
40
1
40
1
40
1
40
1
41
1
10
29.3497173699579
20
-1.76542709954461
30
0
41
1
10
29.3346821984486
20
-1.74901044957372
30
0
41
1
10
29.3227785386793
20
-1.72245119284995
30
0
41
1
10
29.3134861391316
20
-1.68575091792209
30
0
0
SPLINE
5
BA
100
AcDbEntity
8
1
62
256
6
ByLayer
370
18
48
1
60
0
100
AcDbSpline
70
4
71
3
72
14
73
10
40
0
40
0
40
0
40
0
40
0.25
40
0.25
40
0.5
40
0.5
40
0.75
40
0.75
40
1
40
1
40
1
40
1
41
1
10
29.2686490038917
20
-1.53196675542293
30
0
41
1
10
29.2462951543267
20
-1.49208783453102
30
0
41
1
10
29.2270654002861
20
-1.44655714030225
30
0
41
1
10
29.1949384204977
20
-1.34403963141546
30
0
41
1
10
29.1819951166486
20
-1.28676350224839
30
0
41
1
10
29.1631667638386
20
-1.16104867879625
30
0
41
1
10
29.1574369934329
20
-1.09390915453733
30
0
41
1
10
29.1531808415924
20
-0.951258139901284
30
0
41
1
10
29.1546731833309
20
-0.875463284159167
30
0
41
1
10
29.1599058266238
20
-0.795886754948924
30
0
0
SPLINE
5
BB
100
AcDbEntity
8
1
62
256
6
ByLayer
370
18
48
1
60
0
100
AcDbSpline
70
4
71
3
72
12
73
8
40
0
40
0
40
0
40
0
40
0.499999999999991
40
0.499999999999991
40
0.749999999999996
40
0.749999999999996
40
1
40
1
40
1
40
1
41
1
10
29.3497173699626
20
-1.76542709952972
30
0
41
1
10
29.4000524030713
20
-1.64841738562066
30
0
41
1
10
29.4514661919714
20
-1.52736629676173
30
0
41
1
10
29.5290597316559
20
-1.33860112967511
30
0
41
1
10
29.5550035520006
20
-1.27449803781843
30
0
41
1
10
29.6067923434731
20
-1.14358473254316
30
0
41
1
10
29.6326904580862
20
-1.07662882058591
30
0
41
1
10
29.6579727773478
20
-1.00932021198759
30
0
0
SPLINE
5
BC
100
AcDbEntity
8
1
62
256
6
ByLayer
370
13
48
1
60
0
100
AcDbSpline
70
4
71
3
72
32
73
28
40
0
40
0
40
0
40
0
40
0.103922285692866
40
0.103922285692866
40
0.207844571385733
40
0.207844571385733
40
0.311766857078599
40
0.311766857078599
40
0.363727999925034
40
0.363727999925034
40
0.415689142771469
40
0.415689142771469
40
0.51961142846434
40
0.51961142846434
40
0.62353371415721
40
0.62353371415721
40
0.675494857003644
40
0.675494857003644
40
0.727455999850078
40
0.727455999850078
40
0.831378285542947
40
0.831378285542947
40
0.883339428389382
40
0.883339428389382
40
0.935300571235817
40
0.935300571235817
40
1
40
1
40
1
40
1
41
1
10
29.2686490038917
20
-1.53196675542293
30
0
41
1
10
29.0192488445603
20
-1.46262976494461
30
0
41
1
10
28.7710736181412
20
-1.37644611546833
30
0
41
1
10
28.2738155001857
20
-1.17476723440007
30
0
41
1
10
28.0233906211539
20
-1.05851440827863
30
0
41
1
10
27.5270156200913
20
-0.807327570348974
30
0
41
1
10
27.2803446250179
20
-0.671988811835348
30
0
41
1
10
26.9091546881183
20
-0.459774278460344
30
0
41
1
10
26.7852254825038
20
-0.387513226211581
30
0
41
1
10
26.5365307270142
20
-0.240614280127858
30
0
41
1
10
26.4113351624155
20
-0.165738212787232
30
0
41
1
10
26.0374918405786
20
0.0584188877647875
30
0
41
1
10
25.7904594841902
20
0.207732538533463
30
0
41
1
10
25.2958962350905
20
0.49791561777667
30
0
41
1
10
25.0483319525221
20
0.638803639337993
30
0
41
1
10
24.6736979871512
20
0.839057009976727
30
0
41
1
10
24.5487053499994
20
0.903655127184464
30
0
41
1
10
24.3002574438727
20
1.02662154263018
30
0
41
1
10
24.1765040806679
20
1.08517419790655
30
0
41
1
10
23.8051852394952
20
1.25043854014737
30
0
41
1
10
23.5582954207958
20
1.34825915825675
30
0
41
1
10
23.1851350088541
20
1.47055355021908
30
0
41
1
10
23.0598813050193
20
1.50759898137224
30
0
41
1
10
22.8103150508091
20
1.57279507378942
30
0
41
1
10
22.6861507456477
20
1.6008517744844
30
0
41
1
10
22.4077881295495
20
1.6529867272404
30
0
41
1
10
22.2538217462656
20
1.67498944087478
30
0
41
1
10
22.0997385719032
20
1.68960253226589
30
0
0
SPLINE
5
BD
100
AcDbEntity
8
1
62
256
6
ByLayer
370
13
48
1
60
0
100
AcDbSpline
70
4
71
3
72
30
73
26
40
0
40
0
40
0
40
0
40
0.0203655616838754
40
0.0203655616838754
40
0.0719252689636722
40
0.0719252689636722
40
0.175044683523265
40
0.175044683523265
40
0.278164098082858
40
0.278164098082858
40
0.329723805362655
40
0.329723805362655
40
0.381283512642452
40
0.381283512642452
40
0.484402927202044
40
0.484402927202044
40
0.587522341761637
40
0.587522341761637
40
0.69064175632123
40
0.69064175632123
40
0.742201463601025
40
0.742201463601025
40
0.793761170880821
40
0.793761170880821
40
1
40
1
40
1
40
1
41
1
10
12.6347496323282
20
-1.69436502313675
30
0
41
1
10
12.5856229947898
20
-1.69421141705061
30
0
41
1
10
12.5364502969394
20
-1.69331115045989
30
0
41
1
10
12.3626306042093
20
-1.68753346848095
30
0
41
1
10
12.2374977029699
20
-1.67859292731916
30
0
41
1
10
11.8615942831254
20
-1.63717533423161
30
0
41
1
10
11.6130047454308
20
-1.5908568970099
30
0
41
1
10
11.1168090186254
20
-1.46362654928524
30
0
41
1
10
10.8685133527992
20
-1.38316572258168
30
0
41
1
10
10.493598100044
20
-1.23886302673171
30
0
41
1
10
10.3677561409983
20
-1.18687688231179
30
0
41
1
10
10.1177884571886
20
-1.07717952965936
30
0
41
1
10
9.99332721194324
20
-1.01926593263406
30
0
41
1
10
9.62060360283056
20
-0.83752171526703
30
0
41
1
10
9.3725107950782
20
-0.706514035080858
30
0
41
1
10
8.87425578430674
20
-0.42913116162984
30
0
41
1
10
8.6221211371855
20
-0.283090106508496
30
0
41
1
10
8.12374950343718
20
0.0100317729478263
30
0
41
1
10
7.87566866481501
20
0.156804030366118
30
0
41
1
10
7.50266143815591
20
0.372920591346627
30
0
41
1
10
7.37805973062558
20
0.444077654043184
30
0
41
1
10
7.12791804240908
20
0.583950492948816
30
0
41
1
10
7.00204412810558
20
0.652934182440674
30
0
41
1
10
6.37633566370266
20
0.985466657471619
30
0
41
1
10
5.88342910373061
20
1.21319019132599
30
0
41
1
10
5.38125216248358
20
1.380943429761
30
0
0
SPLINE
5
BE
100
AcDbEntity
8
1
62
256
6
ByLayer
370
18
48
1
60
0
100
AcDbSpline
70
4
71
3
72
18
73
14
40
0
40
0
40
0
40
0
40
0.335036399376761
40
0.335036399376761
40
0.418795499220953
40
0.418795499220953
40
0.502554599065147
40
0.502554599065147
40
0.670072798753532
40
0.670072798753532
40
0.837590998441918
40
0.837590998441918
40
1
40
1
40
1
40
1
41
1
10
7.72227217217653
20
-0.277084282111417
30
0
41
1
10
8.17783345178179
20
-0.5519649485569
30
0
41
1
10
8.62455923035387
20
-0.809844176480823
30
0
41
1
10
9.18782738467272
20
-1.08776207009259
30
0
41
1
10
9.30074070475797
20
-1.14109471783777
30
0
41
1
10
9.52744122247611
20
-1.24270612571138
30
0
41
1
10
9.64159440897083
20
-1.29101750026277
30
0
41
1
10
9.98177253813887
20
-1.42556178468561
30
0
41
1
10
10.2065870774853
20
-1.50204528328999
30
0
41
1
10
10.6556515792088
20
-1.62618374396928
30
0
41
1
10
10.8800172137919
20
-1.67376984241864
30
0
41
1
10
11.3245763900268
20
-1.73676546535398
30
0
41
1
10
11.5455786785858
20
-1.75295192886628
30
0
41
1
10
11.7657726012684
20
-1.7534411325716
30
0
0
SPLINE
5
BF
100
AcDbEntity
8
1
62
256
6
ByLayer
370
18
48
1
60
0
100
AcDbSpline
70
4
71
3
72
50
73
46
40
0
40
0
40
0
40
0
40
0.0098398320532868
40
0.0098398320532868
40
0.071724842549955
40
0.071724842549955
40
0.10266734779829
40
0.10266734779829
40
0.133609853046625
40
0.133609853046625
40
0.195494863543295
40
0.195494863543295
40
0.257379874039964
40
0.257379874039964
40
0.288322379288298
40
0.288322379288298
40
0.319264884536632
40
0.319264884536632
40
0.3811498950333
40
0.3811498950333
40
0.443034905529969
40
0.443034905529969
40
0.473977410778302
40
0.473977410778302
40
0.504919916026635
40
0.504919916026635
40
0.628689937019973
40
0.628689937019973
40
0.659632442268308
40
0.659632442268308
40
0.690574947516642
40
0.690574947516642
40
0.752459958013311
40
0.752459958013311
40
0.783402463261646
40
0.783402463261646
40
0.814344968509981
40
0.814344968509981
40
0.876229979006651
40
0.876229979006651
40
0.907172484254988
40
0.907172484254988
40
0.938114989503324
40
0.938114989503324
40
1
40
1
40
1
40
1
41
1
10
18.4446129020038
20
1.21479364442305
30
0
41
1
10
18.4803453810615
20
1.23082319145092
30
0
41
1
10
18.5160420157151
20
1.2465660018176
30
0
41
1
10
18.7760100595837
20
1.35920083337672
30
0
41
1
10
18.9997516224888
20
1.44410464118226
30
0
41
1
10
19.3363528535402
20
1.5512858337068
30
0
41
1
10
19.4486247770025
20
1.58370101398822
30
0
41
1
10
19.6743660046685
20
1.64100086744264
30
0
41
1
10
19.787958209781
20
1.66612505190648
30
0
41
1
10
20.1279742500052
20
1.72938978219361
30
0
41
1
10
20.3524571652821
20
1.75539165285167
30
0
41
1
10
20.8004376449304
20
1.77501612656266
30
0
41
1
10
21.0240500578355
20
1.76864362429248
30
0
41
1
10
21.3611927217593
20
1.73470613658546
30
0
41
1
10
21.4739103316141
20
1.71934078448695
30
0
41
1
10
21.7003672380011
20
1.68045080841716
30
0
41
1
10
21.8139387586446
20
1.65690471201734
30
0
41
1
10
22.1523124230657
20
1.5754533837615
30
0
41
1
10
22.3760769879249
20
1.50634569251511
30
0
41
1
10
22.8237021768722
20
1.3421707996759
30
0
41
1
10
23.0474419970982
20
1.24700417913567
30
0
41
1
10
23.3854696631827
20
1.08699591332666
30
0
41
1
10
23.4989294782676
20
1.03062938573356
30
0
41
1
10
23.7253967558589
20
0.913603958841975
30
0
41
1
10
23.8380516500872
20
0.853036599264158
30
0
41
1
10
24.3996978118668
20
0.541900267925598
30
0
41
1
10
24.8437932450672
20
0.266452018313032
30
0
41
1
10
25.4094308236728
20
-0.0842317342342653
30
0
41
1
10
25.5228742024245
20
-0.154663611042537
30
0
41
1
10
25.7480779584895
20
-0.293595980121836
30
0
41
1
10
25.86045060534
20
-0.361958505898741
30
0
41
1
10
26.1963888581205
20
-0.564621698253745
30
0
41
1
10
26.4193771712904
20
-0.695483906099128
30
0
41
1
10
26.7554934257772
20
-0.880719763242098
30
0
41
1
10
26.8676543241932
20
-0.940843758439655
30
0
41
1
10
27.0928360800584
20
-1.0569032569708
30
0
41
1
10
27.2060744052357
20
-1.11304431067606
30
0
41
1
10
27.5456421151215
20
-1.27316561753995
30
0
41
1
10
27.771270685844
20
-1.36832106587764
30
0
41
1
10
28.1106213817362
20
-1.49152443559683
30
0
41
1
10
28.2239697593462
20
-1.52939249722772
30
0
41
1
10
28.4498672484608
20
-1.59723410915123
30
0
41
1
10
28.562402401933
20
-1.62749669438853
30
0
41
1
10
28.8996395193684
20
-1.70676094187036
30
0
41
1
10
29.1240717829907
20
-1.74421832696723
30
0
41
1
10
29.3497173699568
20
-1.76542709954325
30
0
0
SPLINE
5
C0
100
AcDbEntity
8
1
62
256
6
ByLayer
370
18
48
1
60
0
100
AcDbSpline
70
4
71
3
72
26
73
22
40
0
40
0
40
0
40
0
40
0.0625000000000036
40
0.0625000000000036
40
0.125000000000007
40
0.125000000000007
40
0.187500000000011
40
0.187500000000011
40
0.250000000000014
40
0.250000000000014
40
0.375000000000012
40
0.375000000000012
40
0.500000000000009
40
0.500000000000009
40
0.625000000000007
40
0.625000000000007
40
0.750000000000005
40
0.750000000000005
40
0.875000000000002
40
0.875000000000002
40
1
40
1
40
1
40
1
41
1
10
3.863870866349
20
0.712711338278581
30
0
41
1
10
3.88274750115079
20
0.749808268031586
30
0
41
1
10
3.90973985502313
20
0.781706555628915
30
0
41
1
10
3.97304432743661
20
0.83730140014265
30
0
41
1
10
4.00838139729262
20
0.860305658346959
30
0
41
1
10
4.0837320775571
20
0.90045717136644
30
0
41
1
10
4.12372561861849
20
0.917436859652412
30
0
41
1
10
4.20485895353684
20
0.946348371925609
30
0
41
1
10
4.24635079132455
20
0.958431033993065
30
0
41
1
10
4.3729816572548
20
0.989339768882388
30
0
41
1
10
4.46061123895618
20
1.00287660669036
30
0
41
1
10
4.63478809164269
20
1.01920512966899
30
0
41
1
10
4.72209167317482
20
1.02210665610258
30
0
41
1
10
4.89707714912501
20
1.0187713312294
30
0
41
1
10
4.98531549708568
20
1.01242024165546
30
0
41
1
10
5.15923081386788
20
0.990489939834589
30
0
41
1
10
5.24465962769983
20
0.974998508837842
30
0
41
1
10
5.41247767855162
20
0.934439121831218
30
0
41
1
10
5.49486401761249
20
0.909365988234441
30
0
41
1
10
5.65644801676274
20
0.84826490665111
30
0
41
1
10
5.73460025392114
20
0.812550319978243
30
0
41
1
10
5.80901670395227
20
0.771903044900995
30
0
0
SPLINE
5
C1
100
AcDbEntity
8
1
62
256
6
ByLayer
370
18
48
1
60
0
100
AcDbSpline
70
4
71
3
72
16
73
12
40
0
40
0
40
0
40
0
40
0.21124120668649
40
0.21124120668649
40
0.42248241337298
40
0.42248241337298
40
0.63372362005947
40
0.63372362005947
40
0.844964826745961
40
0.844964826745961
40
1
40
1
40
1
40
1
41
1
10
5.04110601360779
20
-1.26687243440918
30
0
41
1
10
5.04099710276935
20
-1.33047648137492
30
0
41
1
10
5.04088957864045
20
-1.38848010414233
30
0
41
1
10
5.04068745081543
20
-1.49312033962732
30
0
41
1
10
5.04059293093522
20
-1.53967807765787
30
0
41
1
10
5.04042749281879
20
-1.61796740781816
30
0
41
1
10
5.04035556616122
20
-1.65022399325008
30
0
41
1
10
5.04023048318632
20
-1.70086894102087
30
0
41
1
10
5.04017718574235
20
-1.71921084870439
30
0
41
1
10
5.04009637713921
20
-1.73767593877454
30
0
41
1
10
5.04006546671039
20
-1.74150006250372
30
0
41
1
10
5.04003493909849
20
-1.74133660668369
30
0
0
SPLINE
5
C2
100
AcDbEntity
8
1
62
256
6
ByLayer
370
18
48
1
60
0
100
AcDbSpline
70
4
71
3
72
14
73
10
40
0
40
0
40
0
40
0
40
0.25
40
0.25
40
0.5
40
0.5
40
0.75
40
0.75
40
1
40
1
40
1
40
1
41
1
10
29.6652379934836
20
0.571059950711657
30
0
41
1
10
29.6804409351632
20
0.584697823420299
30
0
41
1
10
29.6938827807632
20
0.599737094067109
30
0
41
1
10
29.7156016596184
20
0.633925551597059
30
0
41
1
10
29.7236477093998
20
0.653196934890417
30
0
41
1
10
29.7316604538142
20
0.693192411185606
30
0
41
1
10
29.7317363672464
20
0.713947403180782
30
0
41
1
10
29.7256775948065
20
0.754468914596941
30
0
41
1
10
29.7196847635328
20
0.774173057835213
30
0
41
1
10
29.7118505053897
20
0.793170006321617
30
0
0
SPLINE
5
C3
100
AcDbEntity
8
1
62
256
6
ByLayer
370
18
48
1
60
0
100
AcDbSpline
70
4
71
3
72
8
73
4
40
0
40
0
40
0
40
0
40
1
40
1
40
1
40
1
41
1
10
29.9996806041662
20
-0.0628869116031296
30
0
41
1
10
29.9657501845503
20
-0.150666708750379
30
0
41
1
10
29.932806195842
20
-0.239179297607421
30
0
41
1
10
29.9007464684826
20
-0.328420853796189
30
0
0
SPLINE
5
C4
100
AcDbEntity
8
1
62
256
6
ByLayer
370
18
48
1
60
0
100
AcDbSpline
70
4
71
3
72
8
73
4
40
0
40
0
40
0
40
0
40
1
40
1
40
1
40
1
41
1
10
29.9007464684826
20
0.328420853796075
30
0
41
1
10
29.8192789628254
20
0.555194054395969
30
0
41
1
10
29.7383534729545
20
0.782160177470729
30
0
41
1
10
29.6579727773512
20
1.0093202119796
30
0
0
SPLINE
5
C5
100
AcDbEntity
8
1
62
256
6
ByLayer
370
13
48
1
60
0
100
AcDbSpline
70
4
71
3
72
8
73
4
40
0
40
0
40
0
40
0
40
1
40
1
40
1
40
1
41
1
10
5.03935012647528
20
1.50560926864483
30
0
41
1
10
5.14971129353066
20
1.44898021857898
30
0
41
1
10
5.26424179252607
20
1.40824326274819
30
0
41
1
10
5.38125216248358
20
1.380943429761
30
0
0
SPLINE
5
C6
100
AcDbEntity
8
1
62
256
6
ByLayer
370
13
48
1
60
0
100
AcDbSpline
70
4
71
3
72
113
73
109
40
0
40
0
40
0
40
0
40
0.0062010820713014
40
0.0108521249172469
40
0.0201542106091354
40
0.0294562963010251
40
0.0434094248388609
40
0.0480604676848047
40
0.0573625533766935
40
0.0666646390685837
40
0.0806177676064177
40
0.0852688104523624
40
0.0945708961442535
40
0.103872981836144
40
0.117826110373977
40
0.122477153219921
40
0.13177923891181
40
0.1410813246037
40
0.155034453141533
40
0.159685495987478
40
0.168987581679366
40
0.178289667371257
40
0.192242795909091
40
0.196893838755036
40
0.206195924446925
40
0.215498010138816
40
0.229451138676648
40
0.234102181522594
40
0.243404267214484
40
0.252706352906373
40
0.266659481444208
40
0.271310524290152
40
0.280612609982042
40
0.28991469567393
40
0.303867824211765
40
0.30851886705771
40
0.3178209527496
40
0.327123038441489
40
0.341076166979324
40
0.345727209825268
40
0.355029295517157
40
0.364331381209046
40
0.378284509746881
40
0.382935552592826
40
0.392237638284715
40
0.401539723976605
40
0.41549285251444
40
0.420143895360384
40
0.429445981052274
40
0.438748066744162
40
0.452701195281997
40
0.457352238127942
40
0.466654323819832
40
0.475956409511721
40
0.489909538049555
40
0.494560580895499
40
0.503862666587389
40
0.513164752279278
40
0.527117880817113
40
0.531768923663057
40
0.541071009354947
40
0.550373095046836
40
0.56432622358467
40
0.568977266430615
40
0.578279352122504
40
0.587581437814394
40
0.601534566352228
40
0.606185609198173
40
0.615487694890063
40
0.624789780581952
40
0.638742909119786
40
0.643393951965731
40
0.65269603765762
40
0.66199812334951
40
0.675951251887344
40
0.680602294733289
40
0.689904380425178
40
0.699206466117068
40
0.713159594654902
40
0.717810637500847
40
0.727112723192736
40
0.736414808884626
40
0.75036793742246
40
0.755018980268405
40
0.764321065960294
40
0.773623151652184
40
0.787576280190018
40
0.792227323035962
40
0.80152940872785
40
0.810831494419742
40
0.824784622957576
40
0.829435665803521
40
0.838737751495409
40
0.848039837187298
40
0.860830205013646
40
0.866644008571078
40
0.87245781212851
40
0.885248179954855
40
0.903852351338635
40
0.936409651260249
40
0.941060694106194
40
0.950362779798085
40
0.959664865489971
40
0.973617994027809
40
0.978269036873752
40
0.987571122565641
40
0.99687320825753
40
1
40
1
40
1
40
1
41
1.00000000000002
10
25.0492851003238
20
0.0265083909610264
30
0
41
1.00000000000002
10
25.0377841260746
20
0.0296934640969363
30
0
41
1.00000000000002
10
25.0176570235297
20
0.0352674263325235
30
0
41
1.00000000000002
10
24.9802773066043
20
0.0456153803386875
30
0
41
1.00000000000002
10
24.9371447140681
20
0.0575291262670693
30
0
41
1.00000000000002
10
24.8767597283665
20
0.0741838480903412
30
0
41
1.00000000000002
10
24.8250031448914
20
0.0884506061827308
30
0
41
1.00000000000002
10
24.7732458468993
20
0.102689707321273
30
0
41
1.00000000000002
10
24.7301132891277
20
0.114517130662049
30
0
41
1.00000000000002
10
24.6697283630044
20
0.13102977479181
30
0
41
1.00000000000002
10
24.6179718397117
20
0.145152457791622
30
0
41
1.00000000000002
10
24.5662146047333
20
0.159228522203475
30
0
41
1.00000000000002
10
24.5230820957619
20
0.170907754611843
30
0
41
1.00000000000002
10
24.4626972218557
20
0.187191425575687
30
0
41
1.00000000000002
10
24.410940721926
20
0.20109544340735
30
0
41
1.00000000000002
10
24.3591834874702
20
0.214934250530714
30
0
41
1.00000000000002
10
24.3160509630645
20
0.226403853744724
30
0
41
1.00000000000002
10
24.2556660447565
20
0.242373148301051
30
0
41
1.00000000000002
10
24.2039094901247
20
0.255985842717133
30
0
41
1.00000000000002
10
24.1521521963682
20
0.269515272226779
30
0
41
1.00000000000002
10
24.1090196270786
20
0.280715590465457
30
0
41
1.00000000000002
10
24.0486346637211
20
0.29628765761205
30
0
41
1.00000000000002
10
23.9968780925425
20
0.309538619886746
30
0
41
1.00000000000002
10
23.9451208045054
20
0.322688857907161
30
0
41
1.00000000000002
10
23.9019882544917
20
0.333562202848691
30
0
41
1.00000000000002
10
23.8416033372568
20
0.348656866026766
30
0
41
1.00000000000002
10
23.789846818088
20
0.361477712185114
30
0
41
1.00000000000002
10
23.7380895828871
20
0.37418054356072
30
0
41
1.00000000000002
10
23.6949570699038
20
0.384670246895006
30
0
41
1.00000000000002
10
23.6345721834906
20
0.399208491222531
30
0
41
1.00000000000002
10
23.5828156667005
20
0.411531893045087
30
0
41
1.00000000000002
10
23.5310584116757
20
0.42372062499043
30
0
41
1.00000000000002
10
23.4879258695685
20
0.433771656505136
30
0
41
1.00000000000002
10
23.4275409290866
20
0.447677281002334
30
0
41
1.00000000000002
10
23.3757843602735
20
0.459438713318824
30
0
41
1.00000000000002
10
23.3240270588092
20
0.471049569573629
30
0
41
1.00000000000002
10
23.2808944885815
20
0.480609362479376
30
0
41
1.00000000000002
10
23.2205095334667
20
0.493809673667945
30
0
41
1.00000000000002
10
23.1687529777567
20
0.504947675087967
30
0
41
1.00000000000002
10
23.1169957100312
20
0.515919983730489
30
0
41
1.00000000000002
10
23.073863177857
20
0.524938587905827
30
0
41
1.00000000000002
10
23.0134782836538
20
0.537364642408382
30
0
41
1.00000000000002
10
22.9617217803856
20
0.547821086584084
30
0
41
1.00000000000002
10
22.9099645556262
20
0.55809764211627
30
0
41
1.00000000000002
10
22.8668320472084
20
0.566528077359426
30
0
41
1.00000000000002
10
22.8064471607849
20
0.578115177226938
30
0
41
1.00000000000002
10
22.7546906388069
20
0.587835612075043
30
0
41
1.00000000000002
10
22.7029333762709
20
0.597362839466303
30
0
41
1.00000000000002
10
22.6598008284476
20
0.605161100807653
30
0
41
1.00000000000002
10
22.599415884003
20
0.615848649699803
30
0
41
1.00000000000002
10
22.5476593173468
20
0.624782111357308
30
0
41
1.00000000000002
10
22.4959020242075
20
0.633509946348272
30
0
41
1.00000000000002
10
22.4527694654551
20
0.640634981848069
30
0
41
1.00000000000002
10
22.3923845331543
20
0.650366564373445
30
0
41
1.00000000000002
10
22.3406280019932
20
0.658465710879812
30
0
41
1.00000000000002
10
22.28887076034
20
0.66634772375217
30
0
41
1.00000000000002
10
22.245738248792
20
0.672761515338623
30
0
41
1.00000000000002
10
22.1853533783846
20
0.681485249025075
30
0
41
1.00000000000002
10
22.1335968887444
20
0.688707221283112
30
0
41
1.00000000000002
10
22.0818396703339
20
0.695702289813044
30
0
41
1.00000000000002
10
22.0387071623801
20
0.701371817881396
30
0
41
1.00000000000002
10
21.9783222699569
20
0.70904335955011
30
0
41
1.00000000000002
10
21.9265657380889
20
0.715351781130367
30
0
41
1.00000000000002
10
21.8748084645864
20
0.721424602728904
30
0
41
1.00000000000002
10
21.8316759090713
20
0.726321135808193
30
0
41
1.00000000000002
10
21.7712909585651
20
0.732901364954232
30
0
41
1.00000000000002
10
21.7195343919711
20
0.738263788485299
30
0
41
1.00000000000002
10
21.6677771036593
20
0.74338288896307
30
0
41
1.00000000000002
10
21.6246445517193
20
0.747480896537085
30
0
41
1.00000000000002
10
21.5642596321345
20
0.752935191968946
30
0
41
1.00000000000002
10
21.5125031135008
20
0.757323033850256
30
0
41
1.00000000000002
10
21.4607458834347
20
0.761460786054287
30
0
41
1.00000000000002
10
21.4176133811569
20
0.764737923123094
30
0
41
1.00000000000002
10
21.3572285265165
20
0.769036485460206
30
0
41
1.00000000000002
10
21.3054720563124
20
0.772426111707305
30
0
41
1.00000000000002
10
21.2537148666444
20
0.775560996871107
30
0
41
1.00000000000002
10
21.2105823795439
20
0.778000834184937
30
0
41
1.00000000000002
10
21.1501974819353
20
0.781122906195279
30
0
41
1.00000000000002
10
21.0984408904493
20
0.783498407380378
30
0
41
1.00000000000002
10
21.0466834882333
20
0.785615591228791
30
0
41
1.00000000000002
10
21.0035507898701
20
0.787206375066362
30
0
41
1.00000000000002
10
20.943165632108
20
0.789136554824282
30
0
41
1.00000000000002
10
20.8914089274061
20
0.790485888153441
30
0
41
1.00000000000002
10
20.8396515914432
20
0.791574473556793
30
0
41
1.00000000000002
10
20.7965190705666
20
0.792307955412227
30
0
41
1.00000000000002
10
20.7361342822011
20
0.793035948139036
30
0
41
1.00000000000002
10
20.6843779201914
20
0.793351354497489
30
0
41
1.00000000000002
10
20.6326208239192
20
0.793404259900868
30
0
41
1.00000000000002
10
20.589488393219
20
0.793274957776546
30
0
41
1.00000000000002
10
20.5291035692212
20
0.792794399843032
30
0
41
1.00000000000002
10
20.4773470728609
20
0.792072486833305
30
0
41
1.00000000000002
10
20.4255898386677
20
0.791088931131682
30
0
41
1.00000000000002
10
20.3824573142387
20
0.790098051117255
30
0
41
1.00000000000002
10
20.3242292245739
20
0.788475199429584
30
0
41
1.00000000000002
10
20.2724723564076
20
0.786736462321287
30
0
41
1.00000000000002
10
20.2271850571672
20
0.784991816153351
30
0
41
1.00000000000002
10
20.1818951083032
20
0.783091777999786
30
0
41
1.00000000000002
10
20.1128807999699
20
0.779850495609125
30
0
41
1.00000000000002
10
19.9942605752366
20
0.773287804748535
30
0
41
1.00000000000002
10
19.8907515011044
20
0.766241851488659
30
0
41
1.00000000000002
10
19.8044957371174
20
0.759542149711834
30
0
41
1.00000000000002
10
19.761363360863
20
0.756016353761724
30
0
41
1.00000000000002
10
19.7009785379836
20
0.750794956290847
30
0
41
1.00000000000002
10
19.6492220119111
20
0.746019556779928
30
0
41
1.00000000000002
10
19.5974647392948
20
0.740996836103975
30
0
41
1.00000000000002
10
19.5543321869328
20
0.736655188986405
30
0
41
1.00000000000002
10
19.5140273111666
20
0.732413599593785
30
0
41
1.00000000000002
10
19.4909755723939
20
0.729917608363836
30
0
41
1.00000000000002
10
19.4851763541272
20
0.729285233499597
30
0
0
SPLINE
5
C7
100
AcDbEntity
8
1
62
256
6
ByLayer
370
18
48
1
60
0
100
AcDbSpline
70
4
71
3
72
10
73
6
40
0
40
0
40
0
40
0
40
0.5
40
0.5
40
1
40
1
40
1
40
1
41
1
10
5.38010805848529
20
-1.34365415979229
30
0
41
1
10
5.54721367561442
20
-1.40815317438259
30
0
41
1
10
5.71625630835777
20
-1.4616356871847
30
0
41
1
10
6.05733873290998
20
-1.55199127585917
30
0
41
1
10
6.2295386580243
20
-1.58784347718111
30
0
41
1
10
6.40323450583406
20
-1.6153308442409
30
0
0
SPLINE
5
C8
100
AcDbEntity
8
1
62
256
6
ByLayer
370
18
48
1
60
0
100
AcDbSpline
70
4
71
3
72
10
73
6
40
0
40
0
40
0
40
0
40
0.5
40
0.5
40
1
40
1
40
1
40
1
41
1
10
29.3051639927658
20
-1.67693001059135
30
0
41
1
10
29.3044942380003
20
-1.64489346405153
30
0
41
1
10
29.300073644988
20
-1.61756026824514
30
0
41
1
10
29.2870089547479
20
-1.56973987685305
30
0
41
1
10
29.2785106852028
20
-1.54955984191565
30
0
41
1
10
29.2686490038883
20
-1.53196675541685
30
0
0
SPLINE
5
C9
100
AcDbEntity
8
1
62
256
6
ByLayer
370
18
48
1
60
0
100
AcDbSpline
70
4
71
3
72
12
73
8
40
0
40
0
40
0
40
0
40
0.25
40
0.25
40
0.5
40
0.5
40
1
40
1
40
1
40
1
41
1
10
5.80901670395235
20
0.771903044900938
30
0
41
1
10
5.96533985670931
20
0.686517217057855
30
0
41
1
10
6.12359167149054
20
0.600098514665291
30
0
41
1
10
6.44341386310259
20
0.425300703791862
30
0
41
1
10
6.60448908879906
20
0.337192072626323
30
0
41
1
10
7.08508545648084
20
0.0739013000177522
30
0
41
1
10
7.40431895078163
20
-0.101536164140555
30
0
41
1
10
7.72227217217656
20
-0.277084282111446
30
0
0
SPLINE
5
CA
100
AcDbEntity
8
1
62
256
6
ByLayer
370
13
48
1
60
0
100
AcDbSpline
70
4
71
3
72
42
73
38
40
0
40
0
40
0
40
0
40
0.0255129066987345
40
0.0255129066987345
40
0.070753668161639
40
0.070753668161639
40
0.161235191087448
40
0.161235191087448
40
0.206475952550353
40
0.206475952550353
40
0.251716714013257
40
0.251716714013257
40
0.342198236939065
40
0.342198236939065
40
0.432679759864872
40
0.432679759864872
40
0.477920521327776
40
0.477920521327776
40
0.52316128279068
40
0.52316128279068
40
0.568402044253583
40
0.568402044253583
40
0.613642805716487
40
0.613642805716487
40
0.704124328642294
40
0.704124328642294
40
0.749365090105198
40
0.749365090105198
40
0.794605851568102
40
0.794605851568102
40
0.885087374493909
40
0.885087374493909
40
0.930328135956813
40
0.930328135956813
40
0.975568897419716
40
0.975568897419716
40
1
40
1
40
1
40
1
41
1
10
21.6568032530907
20
-1.71098683703048
30
0
41
1
10
21.5866735742705
20
-1.71114267647616
30
0
41
1
10
21.5164161420396
20
-1.70978946307841
30
0
41
1
10
21.3211957684436
20
-1.70181104581152
30
0
41
1
10
21.1960121000483
20
-1.69179701795059
30
0
41
1
10
20.8229280616215
20
-1.64722724908054
30
0
41
1
10
20.5756779280264
20
-1.59922376086828
30
0
41
1
10
20.2042499992456
20
-1.50062859544124
30
0
41
1
10
20.0801790452316
20
-1.46352504841232
30
0
41
1
10
19.8314829501681
20
-1.38108018097972
30
0
41
1
10
19.7063675952043
20
-1.33559821325852
30
0
41
1
10
19.331516689573
20
-1.18794516053992
30
0
41
1
10
19.0837177175902
20
-1.07608771355575
30
0
41
1
10
18.588453840433
20
-0.830754920679482
30
0
41
1
10
18.3408076607286
20
-0.697705879924399
30
0
41
1
10
17.966246059763
20
-0.486688593934588
30
0
41
1
10
17.8407666956646
20
-0.41453186776576
30
0
41
1
10
17.590671950754
20
-0.26864350348734
30
0
41
1
10
17.4657211630756
20
-0.194772303231275
30
0
41
1
10
17.2153714996911
20
-0.0462121717790183
30
0
41
1
10
17.0900560959419
20
0.0283154104365622
30
0
41
1
10
16.8409453052056
20
0.176165980489458
30
0
41
1
10
16.716854850366
20
0.249626131355939
30
0
41
1
10
16.3448217459134
20
0.466582279801258
30
0
41
1
10
16.0973501372087
20
0.607180521863711
30
0
41
1
10
15.7237169930654
20
0.806579019274778
30
0
41
1
10
15.5983615447359
20
0.871172665975735
30
0
41
1
10
15.3480578966009
20
0.995087411305207
30
0
41
1
10
15.2235566003689
20
1.0542160920379
30
0
41
1
10
14.85065085822
20
1.22119188369373
30
0
41
1
10
14.603211728148
20
1.31958689469499
30
0
41
1
10
14.2304148180944
20
1.44342740893339
30
0
41
1
10
14.1057883368993
20
1.48065628159219
30
0
41
1
10
13.8556616793187
20
1.54714504098709
30
0
41
1
10
13.7302062586673
20
1.57637728901861
30
0
41
1
10
13.5382116362092
20
1.61371211861996
30
0
41
1
10
13.4709485976682
20
1.62538385043649
30
0
41
1
10
13.4037600736303
20
1.63569498245002
30
0
0
SPLINE
5
CB
100
AcDbEntity
8
1
62
256
6
ByLayer
370
18
48
1
60
0
100
AcDbSpline
70
4
71
3
72
16
73
12
40
0
40
0
40
0
40
0
40
0.0137383756152946
40
0.0137383756152946
40
0.260303781711471
40
0.260303781711471
40
0.506869187807647
40
0.506869187807647
40
0.753434593903824
40
0.753434593903824
40
1
40
1
40
1
40
1
41
1
10
29.3393186068763
20
0.214864955472336
30
0
41
1
10
29.340498580174
20
0.215944653695431
30
0
41
1
10
29.3416829824824
20
0.217035491826437
30
0
41
1
10
29.3642059570611
20
0.237912547434348
30
0
41
1
10
29.3874054389728
20
0.261696319897652
30
0
41
1
10
29.4359879597803
20
0.314873952531514
30
0
41
1
10
29.4612247749502
20
0.344082472815245
30
0
41
1
10
29.5145259350643
20
0.406860162556228
30
0
41
1
10
29.5424022531841
20
0.440286967078777
30
0
41
1
10
29.6004199889785
20
0.506612812328143
30
0
41
1
10
29.6306638596167
20
0.540045055922178
30
0
41
1
10
29.6652379934834
20
0.571059950711799
30
0
0
SPLINE
5
CC
100
AcDbEntity
8
1
62
256
6
ByLayer
370
13
48
1
60
0
100
AcDbSpline
70
4
71
3
72
106
73
102
40
0
40
0
40
0
40
0
40
0.0183867184554444
40
0.0509808395592859
40
0.0556371425741227
40
0.0649497486037927
40
0.0742623546334596
40
0.0882312636779642
40
0.092887566692801
40
0.102200172722472
40
0.111512778752141
40
0.124317612042936
40
0.130137990811479
40
0.135958369580021
40
0.148763202870821
40
0.167388414930156
40
0.199982536034001
40
0.204638839048836
40
0.213951445078504
40
0.223264051108176
40
0.23723296015268
40
0.241889263167514
40
0.251201869197186
40
0.260514475226854
40
0.273319308517648
40
0.279139687286193
40
0.284960066054736
40
0.297764899345532
40
0.316390111404871
40
0.348984232508716
40
0.35364053552355
40
0.362953141553219
40
0.372265747582889
40
0.386234656627392
40
0.390890959642228
40
0.400203565671897
40
0.409516171701567
40
0.423485080746073
40
0.428141383760906
40
0.437453989790575
40
0.446766595820246
40
0.46073550486475
40
0.465391807879585
40
0.474704413909256
40
0.484017019938926
40
0.497985928983429
40
0.502642231998263
40
0.511954838027933
40
0.521267444057602
40
0.535236353102106
40
0.539892656116942
40
0.549205262146609
40
0.558517868176281
40
0.572486777220785
40
0.57714308023562
40
0.586455686265288
40
0.59576829229496
40
0.609737201339462
40
0.614393504354298
40
0.623706110383968
40
0.633018716413637
40
0.646987625458143
40
0.651643928472977
40
0.660956534502646
40
0.670269140532315
40
0.68423804957682
40
0.688894352591655
40
0.698206958621325
40
0.707519564650995
40
0.721488473695499
40
0.726144776710333
40
0.735457382740003
40
0.744769988769672
40
0.758738897814177
40
0.763395200829012
40
0.772707806858681
40
0.782020412888351
40
0.795989321932856
40
0.80064562494769
40
0.80995823097736
40
0.819270837007029
40
0.833239746051534
40
0.837896049066369
40
0.847208655096039
40
0.856521261125708
40
0.870490170170212
40
0.875146473185047
40
0.884459079214717
40
0.893771685244386
40
0.90774059428889
40
0.912396897303725
40
0.921709503333395
40
0.931022109363065
40
0.944991018407569
40
0.949647321422404
40
0.958959927452073
40
0.968272533481743
40
0.982241442526248
40
0.986897745541082
40
0.996210351570752
40
1
40
1
40
1
40
1
41
1
10
26.4827052857111
20
-0.72990804594275
30
0
41
1
10
26.4486440612666
20
-0.733603540402868
30
0
41
1
10
26.3542033382753
20
-0.743411315961765
30
0
41
1
10
26.2511230165729
20
-0.752844608058524
30
0
41
1
10
26.164852735143
20
-0.759941031107502
30
0
41
1
10
26.1217220907989
20
-0.763314113107157
30
0
41
1
10
26.0613386798778
20
-0.767742457507325
30
0
41
1
10
26.0095795711854
20
-0.771234412453424
30
0
41
1
10
25.9578212059581
20
-0.774478598131225
30
0
41
1
10
25.9146907284416
20
-0.777015202853562
30
0
41
1
10
25.8564637556908
20
-0.780152087577534
30
0
41
1
10
25.8047050030633
20
-0.782645623822873
30
0
41
1
10
25.7594161282073
20
-0.784609995594906
30
0
41
1
10
25.7141299017804
20
-0.786419611337465
30
0
41
1
10
25.6451233667731
20
-0.788820333713289
30
0
41
1
10
25.5265202584305
20
-0.791919193599568
30
0
41
1
10
25.4229980490553
20
-0.793296072441933
30
0
41
1
10
25.3367277559682
20
-0.793614084572994
30
0
41
1
10
25.2935971084206
20
-0.793575422230361
30
0
41
1
10
25.2332136972872
20
-0.793216053101048
30
0
41
1
10
25.1814545913254
20
-0.792599498505183
30
0
41
1
10
25.129696229451
20
-0.791728112696063
30
0
41
1
10
25.086565753022
20
-0.79082661404999
30
0
41
1
10
25.0283387770901
20
-0.789318323270805
30
0
41
1
10
24.9765800171227
20
-0.787683512337679
30
0
41
1
10
24.9312911326226
20
-0.78603601271405
30
0
41
1
10
24.8860048950704
20
-0.784226162931162
30
0
41
1
10
24.8169983413669
20
-0.781108349427342
30
0
41
1
10
24.6983951998212
20
-0.77472391068207
30
0
41
1
10
24.5948729686579
20
-0.767890639929277
30
0
41
1
10
24.5086026706591
20
-0.761405617392825
30
0
41
1
10
24.4654720264937
20
-0.757959479591307
30
0
41
1
10
24.4050886370841
20
-0.75284401296571
30
0
41
1
10
24.353329570015
20
-0.748171957245972
30
0
41
1
10
24.3015712677084
20
-0.743259371677766
30
0
41
1
10
24.25844084017
20
-0.738996418344897
30
0
41
1
10
24.198057597302
20
-0.732744613792022
30
0
41
1
10
24.1462985548615
20
-0.727107378363286
30
0
41
1
10
24.0945402274643
20
-0.721235989273083
30
0
41
1
10
24.0514097651529
20
-0.71617755096733
30
0
41
1
10
23.9910264626923
20
-0.708820722489548
30
0
41
1
10
23.9392673600543
20
-0.702246802812795
30
0
41
1
10
23.8875089696275
20
-0.695446894711893
30
0
41
1
10
23.8443784585053
20
-0.689619506733266
30
0
41
1
10
23.7839951038198
20
-0.681196771248921
30
0
41
1
10
23.7322359778178
20
-0.673721374280831
30
0
41
1
10
23.6804775868704
20
-0.666029207256599
30
0
41
1
10
23.6373470911854
20
-0.659463770553344
30
0
41
1
10
23.5769637809078
20
-0.650019496727509
30
0
41
1
10
23.5252047096163
20
-0.641681718356409
30
0
41
1
10
23.4734463779816
20
-0.633137329517893
30
0
41
1
10
23.4303159271891
20
-0.625867902132285
30
0
41
1
10
23.3699326619673
20
-0.615450875316327
30
0
41
1
10
23.3181736072224
20
-0.60629357587203
30
0
41
1
10
23.2664152698641
20
-0.596940734505182
30
0
41
1
10
23.2232847997905
20
-0.58900446958188
30
0
41
1
10
23.1629014884367
20
-0.5776679454045
30
0
41
1
10
23.1111423816717
20
-0.567738135467067
30
0
41
1
10
23.0593839914646
20
-0.557625228336747
30
0
41
1
10
23.0162534843527
20
-0.549063461346066
30
0
41
1
10
22.9558701421732
20
-0.536866846992609
30
0
41
1
10
22.9041110330325
20
-0.526216782234798
30
0
41
1
10
22.8523526626565
20
-0.515397009014606
30
0
41
1
10
22.8092221846747
20
-0.506254721258983
30
0
41
1
10
22.7488388965729
20
-0.493261998379666
30
0
41
1
10
22.6970798394637
20
-0.481947464770542
30
0
41
1
10
22.6453215155377
20
-0.470477455637195
30
0
41
1
10
22.6021910656839
20
-0.460802472734258
30
0
41
1
10
22.5418077922188
20
-0.447081569982657
30
0
41
1
10
22.4900487220036
20
-0.435161687948437
30
0
41
1
10
22.4382903643301
20
-0.423101356549779
30
0
41
1
10
22.3951598764144
20
-0.412944211447666
30
0
41
1
10
22.3347765420266
20
-0.398566775563751
30
0
41
1
10
22.28301741936
20
-0.386103749770712
30
0
41
1
10
22.2312590187111
20
-0.373515983007167
30
0
41
1
10
22.1881285070336
20
-0.362929602850784
30
0
41
1
10
22.1277451648652
20
-0.347970528363817
30
0
41
1
10
22.0759860609143
20
-0.335029301489527
30
0
41
1
10
22.0242276980526
20
-0.32197976458454
30
0
41
1
10
21.9810972257895
20
-0.311019425242364
30
0
41
1
10
21.9207139416526
20
-0.295556918849826
30
0
41
1
10
21.8689548823876
20
-0.282205265772205
30
0
41
1
10
21.8171965501376
20
-0.268762407264205
30
0
41
1
10
21.7740660888092
20
-0.257485668449874
30
0
41
1
10
21.7136827925307
20
-0.241601074771694
30
0
41
1
10
21.661923697766
20
-0.227909396688744
30
0
41
1
10
21.6101653140189
20
-0.214144237453638
30
0
41
1
10
21.567034805476
20
-0.202610768986574
30
0
41
1
10
21.5066514472926
20
-0.186388069673654
30
0
41
1
10
21.4548923109993
20
-0.172428411453296
30
0
41
1
10
21.4031339040033
20
-0.158412787171073
30
0
41
1
10
21.3600033918633
20
-0.146682337870317
30
0
41
1
10
21.2996200556968
20
-0.130205027780136
30
0
41
1
10
21.2478609616381
20
-0.116048948215536
30
0
41
1
10
21.1961026097462
20
-0.101854831188064
30
0
41
1
10
21.1529721451771
20
-0.0899877884757245
30
0
41
1
10
21.0925888671033
20
-0.0733409693528131
30
0
41
1
10
21.0408298077761
20
-0.0590618849006148
30
0
41
1
10
20.9890714706974
20
-0.0447631398439512
30
0
41
1
10
20.9561726282066
20
-0.0356542948191532
30
0
41
1
10
20.9318996945187
20
-0.0289307543420705
30
0
41
1
10
20.9248790524469
20
-0.0269860217961195
30
0
0
SPLINE
5
CD
100
AcDbEntity
8
1
62
256
6
ByLayer
370
13
48
1
60
0
100
AcDbSpline
70
4
71
3
72
41
73
37
40
0
40
0
40
0
40
0
40
0.0113240615066553
40
0.0549421176166564
40
0.0694814696533225
40
0.0985601737266561
40
0.127638877799988
40
0.17125693390999
40
0.185796285946657
40
0.214874990019991
40
0.243953694093324
40
0.287571750203325
40
0.302111102239991
40
0.331189806313325
40
0.360268510386659
40
0.40388656649666
40
0.418425918533326
40
0.44750462260666
40
0.476583326679993
40
0.520201382789994
40
0.534740734826662
40
0.563819438899994
40
0.592898142973328
40
0.636516199083329
40
0.651055551119996
40
0.68013425519333
40
0.709212959266664
40
0.752831015376663
40
0.767370367413331
40
0.796449071486665
40
0.825527775559998
40
0.869145831669998
40
0.883685183706665
40
0.898224535743332
40
0.941842591853333
40
1
40
1
40
1
40
1
41
1
10
8.49246446407867
20
-0.728853666449567
30
0
41
1
10
8.48574587727771
20
-0.729589310218387
30
0
41
1
10
8.45314847254446
20
-0.733129510412965
30
0
41
1
10
8.411923619329
20
-0.737430334515096
30
0
41
1
10
8.36016527199001
20
-0.742592788839062
30
0
41
1
10
8.31703479337759
20
-0.746736773849875
30
0
41
1
10
8.25665146921716
20
-0.752249845173765
30
0
41
1
10
8.20489235081652
20
-0.756676010578616
30
0
41
1
10
8.15313394864495
20
-0.760859201431458
30
0
41
1
10
8.1100034314305
20
-0.764182506571558
30
0
41
1
10
8.04962007516929
20
-0.768540822689118
30
0
41
1
10
7.99786095431415
20
-0.771972794924125
30
0
41
1
10
7.94610257285171
20
-0.775157166103241
30
0
41
1
10
7.90297208616053
20
-0.777644004771958
30
0
41
1
10
7.84258878710438
20
-0.780826384534805
30
0
41
1
10
7.79082972211816
20
-0.783246953341006
30
0
41
1
10
7.73907139174497
20
-0.78541609756553
30
0
41
1
10
7.69594093757314
20
-0.787053365573371
30
0
41
1
10
7.63555766039602
20
-0.789042455024088
30
0
41
1
10
7.58379858973925
20
-0.790437733452592
30
0
41
1
10
7.53204023407531
20
-0.791578578367535
30
0
41
1
10
7.48890974990462
20
-0.792355961712076
30
0
41
1
10
7.42852642446724
20
-0.793138823622058
30
0
41
1
10
7.37676731266433
20
-0.793499784304885
30
0
41
1
10
7.32500892456815
20
-0.793605624194271
30
0
41
1
10
7.28187842432087
20
-0.793519193460753
30
0
41
1
10
7.22149509937864
20
-0.793092846014162
30
0
41
1
10
7.16973601075813
20
-0.792419025210194
30
0
41
1
10
7.11797766279648
20
-0.791490485896446
30
0
41
1
10
7.07484720253746
20
-0.790541390293754
30
0
41
1
10
7.01446393327731
20
-0.788908519383568
30
0
41
1
10
6.96270488340821
20
-0.787203292633194
30
0
41
1
10
6.91957215837155
20
-0.785578059859375
30
0
41
1
10
6.8764425691792
20
-0.783817568672646
30
0
41
1
10
6.80743553053054
20
-0.780642205927222
30
0
41
1
10
6.74704776421203
20
-0.777403726312684
30
0
41
1
10
6.71254046210339
20
-0.775392756368831
30
0
0
SPLINE
5
CE
100
AcDbEntity
8
1
62
256
6
ByLayer
370
18
48
1
60
0
100
AcDbSpline
70
4
71
3
72
8
73
4
40
0
40
0
40
0
40
0
40
1
40
1
40
1
40
1
41
1
10
29.2378483857901
20
0.284475882637452
30
0
41
1
10
29.3220672852582
20
0.230686758296343
30
0
41
1
10
29.4070333337534
20
0.180097203225273
30
0
41
1
10
29.4928588964093
20
0.133188406607019
30
0
0
SPLINE
5
CF
100
AcDbEntity
8
1
62
256
6
ByLayer
370
18
48
1
60
0
100
AcDbSpline
70
4
71
3
72
22
73
18
40
0
40
0
40
0
40
0
40
0.176774113609563
40
0.176774113609563
40
0.265161170414344
40
0.265161170414344
40
0.353548227219126
40
0.353548227219126
40
0.530322340828689
40
0.530322340828689
40
0.707096454438252
40
0.707096454438252
40
0.883870568047815
40
0.883870568047815
40
0.972257624852598
40
0.972257624852598
40
1
40
1
40
1
40
1
41
1
10
29.2378483857902
20
0.284475882637452
30
0
41
1
10
28.999763631948
20
0.425760799940491
30
0
41
1
10
28.7622395338466
20
0.563529152228966
30
0
41
1
10
28.4037073421366
20
0.760731544938295
30
0
41
1
10
28.2843534287138
20
0.824606575126609
30
0
41
1
10
28.0455289465025
20
0.947609467562501
30
0
41
1
10
27.9258566205825
20
1.00691815881632
30
0
41
1
10
27.5687162209824
20
1.17530855026044
30
0
41
1
10
27.3326801030677
20
1.27579347781904
30
0
41
1
10
26.8610843224834
20
1.44781996554599
30
0
41
1
10
26.6254380417616
20
1.52046431304311
30
0
41
1
10
26.1508790007955
20
1.63360637467156
30
0
41
1
10
25.9111503588377
20
1.67438946475912
30
0
41
1
10
25.5535944825099
20
1.70687381370143
30
0
41
1
10
25.4344562750356
20
1.71297630969525
30
0
41
1
10
25.277707831945
20
1.7156640722616
30
0
41
1
10
25.2402010310698
20
1.71590333364657
30
0
41
1
10
25.2026786508756
20
1.71573410772299
30
0
0
SPLINE
5
D0
100
AcDbEntity
8
1
62
256
6
ByLayer
370
18
48
1
60
0
100
AcDbSpline
70
4
71
3
72
66
73
62
40
0
40
0
40
0
40
0
40
0.0229422437624952
40
0.0229422437624952
40
0.0548086928735018
40
0.0548086928735018
40
0.0866751419845084
40
0.0866751419845084
40
0.118541591095515
40
0.118541591095515
40
0.150408040206522
40
0.150408040206522
40
0.182274489317528
40
0.182274489317528
40
0.214140938428535
40
0.214140938428535
40
0.246007387539541
40
0.246007387539541
40
0.309740285761556
40
0.309740285761556
40
0.341606734872563
40
0.341606734872563
40
0.37347318398357
40
0.37347318398357
40
0.405339633094577
40
0.405339633094577
40
0.437206082205585
40
0.437206082205585
40
0.469072531316592
40
0.469072531316592
40
0.500938980427599
40
0.500938980427599
40
0.532805429538607
40
0.532805429538607
40
0.564671878649614
40
0.564671878649614
40
0.596538327760621
40
0.596538327760621
40
0.628404776871629
40
0.628404776871629
40
0.660271225982636
40
0.660271225982636
40
0.692137675093643
40
0.692137675093643
40
0.72400412420465
40
0.72400412420465
40
0.755870573315658
40
0.755870573315658
40
0.787737022426665
40
0.787737022426665
40
0.819603471537672
40
0.819603471537672
40
0.851469920648679
40
0.851469920648679
40
0.883336369759687
40
0.883336369759687
40
0.915202818870694
40
0.915202818870694
40
0.947069267981701
40
0.947069267981701
40
1
40
1
40
1
40
1
41
1
10
18.4424426840386
20
-1.2163302771574
30
0
41
1
10
18.3565008722219
20
-1.25222750565322
30
0
41
1
10
18.2708363049246
20
-1.28640428389616
30
0
41
1
10
18.0666621713948
20
-1.36329964360655
30
0
41
1
10
17.9482628645917
20
-1.40390287537818
30
0
41
1
10
17.7116746790517
20
-1.47857623345652
30
0
41
1
10
17.5934658678484
20
-1.51256099606616
30
0
41
1
10
17.3570379990959
20
-1.57220331374054
30
0
41
1
10
17.2385513851648
20
-1.59755559728333
30
0
41
1
10
17.0010835860337
20
-1.64064214586386
30
0
41
1
10
16.8820091290326
20
-1.658865642259
30
0
41
1
10
16.6426423849882
20
-1.68574231179767
30
0
41
1
10
16.5229205190892
20
-1.69410362746905
30
0
41
1
10
16.2848847384171
20
-1.70229730657096
30
0
41
1
10
16.1662079231432
20
-1.70259143131196
30
0
41
1
10
15.9293436299255
20
-1.69431581150451
30
0
41
1
10
15.8111215057186
20
-1.6853941935351
30
0
41
1
10
15.4564349723802
20
-1.64525119397683
30
0
41
1
10
15.2197608692926
20
-1.60351891022683
30
0
41
1
10
14.8616525995678
20
-1.51308607327405
30
0
41
1
10
14.7413897717936
20
-1.4789336704541
30
0
41
1
10
14.5023949026929
20
-1.40414573260938
30
0
41
1
10
14.3834371796262
20
-1.36300295096319
30
0
41
1
10
14.1462294966025
20
-1.27322136886284
30
0
41
1
10
14.0278751556266
20
-1.22524379175286
30
0
41
1
10
13.791113449279
20
-1.12438905150265
30
0
41
1
10
13.6728235002432
20
-1.07135228024166
30
0
41
1
10
13.4359485081095
20
-0.957551863637661
30
0
41
1
10
13.3172291394578
20
-0.898011435474046
30
0
41
1
10
13.0790801732549
20
-0.775358551317282
30
0
41
1
10
12.959416817007
20
-0.712103155519799
30
0
41
1
10
12.7195575694732
20
-0.580635133988892
30
0
41
1
10
12.6000771122077
20
-0.512872056258828
30
0
41
1
10
12.3608701118763
20
-0.376200196977265
30
0
41
1
10
12.2412624818355
20
-0.30699262429053
30
0
41
1
10
12.0019039726018
20
-0.166559525367205
30
0
41
1
10
11.8816757811429
20
-0.0954348377231327
30
0
41
1
10
11.642509233642
20
0.0459380083793519
30
0
41
1
10
11.5234004636722
20
0.116405874658824
30
0
41
1
10
11.2857366457467
20
0.25590476193176
30
0
41
1
10
11.1674803479519
20
0.325183681374256
30
0
41
1
10
10.9304974748951
20
0.46096960218577
30
0
41
1
10
10.8120483472304
20
0.527936222698401
30
0
41
1
10
10.5749099097594
20
0.659208344217632
30
0
41
1
10
10.4561905420394
20
0.72325032862409
30
0
41
1
10
10.2178481544433
20
0.847559456720802
30
0
41
1
10
10.0979792938984
20
0.907944765445052
30
0
41
1
10
9.85783749826294
20
1.0242648855552
30
0
41
1
10
9.73847303936878
20
1.0793991796144
30
0
41
1
10
9.50076188169834
20
1.18296922055651
30
0
41
1
10
9.38202662721665
20
1.23180578051935
30
0
41
1
10
9.14508364870284
20
1.32335168513072
30
0
41
1
10
9.02677692058666
20
1.36586168055959
30
0
41
1
10
8.79001328068182
20
1.44232592252402
30
0
41
1
10
8.67155553724234
20
1.47721469238667
30
0
41
1
10
8.43395379847269
20
1.53993623342652
30
0
41
1
10
8.31487316182773
20
1.5677580108204
30
0
41
1
10
8.0755500306031
20
1.61389647421453
30
0
41
1
10
7.95509624360619
20
1.63274205790248
30
0
41
1
10
7.63662514456814
20
1.67230423424274
30
0
41
1
10
7.43897994122943
20
1.68437735114671
30
0
41
1
10
7.24130770778231
20
1.68481795547771
30
0
0
SPLINE
5
D1
100
AcDbEntity
8
1
62
256
6
ByLayer
370
18
48
1
60
0
100
AcDbSpline
70
4
71
3
72
34
73
30
40
0
40
0
40
0
40
0
40
0.0493194294417741
40
0.0493194294417741
40
0.0986388588835481
40
0.0986388588835481
40
0.197277717767098
40
0.197277717767098
40
0.295916576650649
40
0.295916576650649
40
0.345236006092423
40
0.345236006092423
40
0.394555435534197
40
0.394555435534197
40
0.493194294417745
40
0.493194294417745
40
0.542513723859518
40
0.542513723859518
40
0.591833153301291
40
0.591833153301291
40
0.789110871068381
40
0.789110871068381
40
0.838430300510154
40
0.838430300510154
40
0.887749729951927
40
0.887749729951927
40
0.986388588835472
40
0.986388588835472
40
1
40
1
40
1
40
1
41
1
10
5.28295991215339
20
1.34459124256486
30
0
41
1
10
5.4095955734461
20
1.29576485468093
30
0
41
1
10
5.5360167317296
20
1.24304413598165
30
0
41
1
10
5.78908559848369
20
1.13057467691445
30
0
41
1
10
5.91580146300521
20
1.07083890111974
30
0
41
1
10
6.29337296245413
20
0.883953794966317
30
0
41
1
10
6.54296452922728
20
0.748697070597444
30
0
41
1
10
7.04229917889339
20
0.463656743668281
30
0
41
1
10
7.29222121936675
20
0.31415966221212
30
0
41
1
10
7.67067609042141
20
0.0843235148184931
30
0
41
1
10
7.79733034127796
20
0.006826895397154
30
0
41
1
10
8.04874070361416
20
-0.146411808888672
30
0
41
1
10
8.17393910082171
20
-0.222515458209756
30
0
41
1
10
8.54879406056961
20
-0.448035364665685
30
0
41
1
10
8.79789383028361
20
-0.59436632131866
30
0
41
1
10
9.17340521010391
20
-0.802887458757112
30
0
41
1
10
9.29893455299313
20
-0.870487611369015
30
0
41
1
10
9.5513294820156
20
-1.00088386219832
30
0
41
1
10
9.67792153888632
20
-1.06355142709623
30
0
41
1
10
10.3057918078685
20
-1.35871822375088
30
0
41
1
10
10.8002359595471
20
-1.53933733600408
30
0
41
1
10
11.430819865572
20
-1.67291096573894
30
0
41
1
10
11.5572632704609
20
-1.69485215998094
30
0
41
1
10
11.8083066298596
20
-1.7285477935767
30
0
41
1
10
11.9333431432729
20
-1.74040881947758
30
0
41
1
10
12.307636486069
20
-1.76106873589595
30
0
41
1
10
12.5565415953738
20
-1.75493289245634
30
0
41
1
10
12.8411361899836
20
-1.72519541546097
30
0
41
1
10
12.8756750265185
20
-1.72120887179597
30
0
41
1
10
12.9102500144822
20
-1.71684238541366
30
0
0
SPLINE
5
D2
100
AcDbEntity
8
1
62
256
6
ByLayer
370
18
48
1
60
0
100
AcDbSpline
70
4
71
3
72
34
73
30
40
0
40
0
40
0
40
0
40
0.0634097347089745
40
0.0634097347089745
40
0.157068761238077
40
0.157068761238077
40
0.250727787767179
40
0.250727787767179
40
0.344386814296282
40
0.344386814296282
40
0.438045840825384
40
0.438045840825384
40
0.531704867354487
40
0.531704867354487
40
0.578534380619039
40
0.578534380619039
40
0.625363893883591
40
0.625363893883591
40
0.812681946941801
40
0.812681946941801
40
0.859511460206351
40
0.859511460206351
40
0.9063409734709
40
0.9063409734709
40
0.95317048673545
40
0.95317048673545
40
0.976585243367725
40
0.976585243367725
40
1
40
1
40
1
40
1
41
1
10
21.3067663583346
20
1.7706118348151
30
0
41
1
10
21.4754091035326
20
1.77097761116229
30
0
41
1
10
21.6435550188486
20
1.76213656550209
30
0
41
1
10
22.0608111300757
20
1.71779557914837
30
0
41
1
10
22.309959494954
20
1.67148898928116
30
0
41
1
10
22.8143402488855
20
1.54013482147548
30
0
41
1
10
23.0634418216488
20
1.45636989484228
30
0
41
1
10
23.5608614917828
20
1.25888405916746
30
0
41
1
10
23.8088126477561
20
1.14474150616508
30
0
41
1
10
24.3086396215797
20
0.891845442703755
30
0
41
1
10
24.561532200027
20
0.751827286951283
30
0
41
1
10
25.0606807410173
20
0.461064612921916
30
0
41
1
10
25.3086082320958
20
0.309715782966265
30
0
41
1
10
25.6812803963457
20
0.0789872851532323
30
0
41
1
10
25.8056394970973
20
0.0014662948439934
30
0
41
1
10
26.055338645979
20
-0.15364739748162
30
0
41
1
10
26.1809188989991
20
-0.231432615480884
30
0
41
1
10
26.8097449579935
20
-0.616678595782389
30
0
41
1
10
27.3018142644377
20
-0.903674013167205
30
0
41
1
10
27.9262494932495
20
-1.20252829281898
30
0
41
1
10
28.0518871644465
20
-1.25946455292453
30
0
41
1
10
28.3032564801136
20
-1.36578885741531
30
0
41
1
10
28.428510497168
20
-1.41496576728454
30
0
41
1
10
28.6787916702097
20
-1.50483980703504
30
0
41
1
10
28.8038148678882
20
-1.54554498829756
30
0
41
1
10
28.9915318222086
20
-1.59994267569942
30
0
41
1
10
29.0541312496653
20
-1.61696692519311
30
0
41
1
10
29.1794417809398
20
-1.64873634781142
30
0
41
1
10
29.2418867508455
20
-1.66362523461541
30
0
41
1
10
29.3051639927657
20
-1.67693001059138
30
0
0
SPLINE
5
D3
100
AcDbEntity
8
1
62
256
6
ByLayer
370
18
48
1
60
0
100
AcDbSpline
70
4
71
3
72
20
73
16
40
0
40
0
40
0
40
0
40
0.235402823774306
40
0.235402823774306
40
0.470805647548612
40
0.470805647548612
40
0.588507059435766
40
0.588507059435766
40
0.706208471322919
40
0.706208471322919
40
0.823909883210072
40
0.823909883210072
40
0.941611295097225
40
0.941611295097225
40
1
40
1
40
1
40
1
41
1
10
6.40323450583401
20
-1.61533084424087
30
0
41
1
10
6.64393391649972
20
-1.65527376882329
30
0
41
1
10
6.88183017285104
20
-1.67844769134493
30
0
41
1
10
7.35659460332926
20
-1.68879174979611
30
0
41
1
10
7.59326299909901
20
-1.67749325716548
30
0
41
1
10
7.95014260584364
20
-1.63345363959323
30
0
41
1
10
8.06938375546733
20
-1.61491956823389
30
0
41
1
10
8.30882993623621
20
-1.56908050703848
30
0
41
1
10
8.42933058550366
20
-1.54107248612445
30
0
41
1
10
8.66847394377891
20
-1.47810966731996
30
0
41
1
10
8.78753959995629
20
-1.443081443354
30
0
41
1
10
9.02520176014934
20
-1.36641302392081
30
0
41
1
10
9.14375501502366
20
-1.3238440127285
30
0
41
1
10
9.321115679397
20
-1.25534974890644
30
0
41
1
10
9.37995187377425
20
-1.23189841251175
30
0
41
1
10
9.4387975255575
20
-1.20772347777512
30
0
0
SPLINE
5
D4
100
AcDbEntity
8
1
62
256
6
ByLayer
370
18
48
1
60
0
100
AcDbSpline
70
4
71
3
72
64
73
60
40
0
40
0
40
0
40
0
40
0.017104657548421
40
0.017104657548421
40
0.0488375843749647
40
0.0488375843749647
40
0.0805705112015085
40
0.0805705112015085
40
0.112303438028052
40
0.112303438028052
40
0.144036364854596
40
0.144036364854596
40
0.17576929168114
40
0.17576929168114
40
0.207502218507683
40
0.207502218507683
40
0.239235145334227
40
0.239235145334227
40
0.270968072160771
40
0.270968072160771
40
0.302700998987315
40
0.302700998987315
40
0.334433925813858
40
0.334433925813858
40
0.366166852640402
40
0.366166852640402
40
0.397899779466945
40
0.397899779466945
40
0.461365633120032
40
0.461365633120032
40
0.493098559946574
40
0.493098559946574
40
0.524831486773116
40
0.524831486773116
40
0.556564413599659
40
0.556564413599659
40
0.588297340426201
40
0.588297340426201
40
0.620030267252744
40
0.620030267252744
40
0.651763194079286
40
0.651763194079286
40
0.683496120905828
40
0.683496120905828
40
0.715229047732371
40
0.715229047732371
40
0.746961974558913
40
0.746961974558913
40
0.778694901385455
40
0.778694901385455
40
0.810427828211998
40
0.810427828211998
40
0.84216075503854
40
0.84216075503854
40
0.905626608691623
40
0.905626608691623
40
0.969092462344707
40
0.969092462344707
40
1
40
1
40
1
40
1
41
1
10
16.217351397696
20
1.70133593007245
30
0
41
1
10
16.2812443089213
20
1.701415260803
30
0
41
1
10
16.3451796697694
20
1.70028474486889
30
0
41
1
10
16.5279386069883
20
1.69380644684668
30
0
41
1
10
16.646877562154
20
1.68537655788839
30
0
41
1
10
16.8861823438926
20
1.65828335503133
30
0
41
1
10
17.0064316173093
20
1.63978919180488
30
0
41
1
10
17.2451737342448
20
1.59623058389479
30
0
41
1
10
17.3641709990569
20
1.57057262154134
30
0
41
1
10
17.6013939186134
20
1.51038125390528
30
0
41
1
10
17.7198805556283
20
1.47613420607692
30
0
41
1
10
17.9568081241209
20
1.40104695815881
30
0
41
1
10
18.0752894692077
20
1.3602283674247
30
0
41
1
10
18.3125922323997
20
1.27048706956026
30
0
41
1
10
18.4315275893179
20
1.22185769808422
30
0
41
1
10
18.6703308174787
20
1.1185196458683
30
0
41
1
10
18.7905425663109
20
1.06384349450229
30
0
41
1
10
19.0295779574948
20
0.949288379015542
30
0
41
1
10
19.1483235834653
20
0.889187898801708
30
0
41
1
10
19.3855579973672
20
0.765663277171001
30
0
41
1
10
19.5038220621092
20
0.702138987145304
30
0
41
1
10
19.7401731606488
20
0.571500330649428
30
0
41
1
10
19.8583346389198
20
0.504528333589406
30
0
41
1
10
20.094931736546
20
0.368061306505268
30
0
41
1
10
20.2133349109393
20
0.298732566085874
30
0
41
1
10
20.4509188006659
20
0.158327197372444
30
0
41
1
10
20.5701278899307
20
0.0871347127173294
30
0
41
1
10
20.9299330745697
20
-0.127441366865554
30
0
41
1
10
21.167547765717
20
-0.269923018123564
30
0
41
1
10
21.5227828751167
20
-0.475823428956374
30
0
41
1
10
21.641057085729
20
-0.54327008190819
30
0
41
1
10
21.8776576402549
20
-0.675934652688767
30
0
41
1
10
21.9959879079825
20
-0.740765948013461
30
0
41
1
10
22.2334505373274
20
-0.866060744017119
30
0
41
1
10
22.3526165382122
20
-0.926525842129024
30
0
41
1
10
22.5916110459748
20
-1.04421111511547
30
0
41
1
10
22.7114660646511
20
-1.10089638622685
30
0
41
1
10
22.9493419833467
20
-1.20609370489799
30
0
41
1
10
23.0677646306503
20
-1.25517614587727
30
0
41
1
10
23.3042492010604
20
-1.34747889551008
30
0
41
1
10
23.4221931135558
20
-1.39095176892016
30
0
41
1
10
23.658099741286
20
-1.46903837823339
30
0
41
1
10
23.7761461694379
20
-1.50398547808902
30
0
41
1
10
24.0125314155455
20
-1.56719678173377
30
0
41
1
10
24.1307645502238
20
-1.59596464870185
30
0
41
1
10
24.3685903472007
20
-1.64366358726164
30
0
41
1
10
24.4882987675529
20
-1.66299838965182
30
0
41
1
10
24.7272311430782
20
-1.69267338321626
30
0
41
1
10
24.8461886574208
20
-1.70302219618017
30
0
41
1
10
25.0833904185985
20
-1.71522497717544
30
0
41
1
10
25.2018240854887
20
-1.71707167934682
30
0
41
1
10
25.4380891474844
20
-1.71280317147116
30
0
41
1
10
25.5561595023435
20
-1.70668267960355
30
0
41
1
10
25.9108355824233
20
-1.67433340192557
30
0
41
1
10
26.1481083684641
20
-1.63423606242347
30
0
41
1
10
26.6269218026085
20
-1.52014135207884
30
0
41
1
10
26.8637970576873
20
-1.44694285724896
30
0
41
1
10
27.2151251013227
20
-1.31861875408336
30
0
41
1
10
27.3300374125736
20
-1.27322218351603
30
0
41
1
10
27.4450169840034
20
-1.22479752422043
30
0
0
SPLINE
5
D5
100
AcDbEntity
8
1
62
256
6
ByLayer
370
18
48
1
60
0
100
AcDbSpline
70
4
71
3
72
12
73
8
40
0
40
0
40
0
40
0
40
0.249999999999991
40
0.249999999999991
40
0.499999999999981
40
0.499999999999981
40
1
40
1
40
1
40
1
41
1
10
5.03935012647634
20
1.50560926864406
30
0
41
1
10
5.03930396458469
20
1.48911254865578
30
0
41
1
10
5.05281248204187
20
1.47296372799846
30
0
41
1
10
5.0865917313792
20
1.4430931031998
30
0
41
1
10
5.10783253051801
20
1.4290062069546
30
0
41
1
10
5.17574677043169
20
1.38949533017527
30
0
41
1
10
5.22786005024329
20
1.36583586830852
30
0
41
1
10
5.28295991215336
20
1.34459124256483
30
0
0
SPLINE
5
D6
100
AcDbEntity
8
1
62
256
6
ByLayer
370
18
48
1
60
0
100
AcDbSpline
70
4
71
3
72
8
73
4
40
0
40
0
40
0
40
0
40
1
40
1
40
1
40
1
41
1
10
29.9996806041662
20
0.0628869116031012
30
0
41
1
10
29.9658382464672
20
0.150438887895348
30
0
41
1
10
29.9328918784195
20
0.238940791319891
30
0
41
1
10
29.9007464684826
20
0.328420853796018
30
0
0
SPLINE
5
D7
100
AcDbEntity
8
1
62
256
6
ByLayer
370
18
48
1
60
0
100
AcDbSpline
70
4
71
3
72
12
73
8
40
0
40
0
40
0
40
0
40
0.500000000000009
40
0.500000000000009
40
0.750000000000004
40
0.750000000000004
40
1
40
1
40
1
40
1
41
1
10
29.3497173699567
20
1.76542709954325
30
0
41
1
10
29.4000423568178
20
1.64844073932036
30
0
41
1
10
29.4514517856537
20
1.52740072887448
30
0
41
1
10
29.529049351561
20
1.3386266890578
30
0
41
1
10
29.5549962385844
20
1.27451643376182
30
0
41
1
10
29.6067948906047
20
1.1435783849528
30
0
41
1
10
29.6326925853242
20
1.07662315728348
30
0
41
1
10
29.6579727773509
20
1.0093202119792
30
0
0
SPLINE
5
D8
100
AcDbEntity
8
1
62
256
6
ByLayer
370
18
48
1
60
0
100
AcDbSpline
70
4
71
3
72
10
73
6
40
0
40
0
40
0
40
0
40
0.5
40
0.5
40
1
40
1
40
1
40
1
41
1
10
5.04110601360773
20
-1.26687243440924
30
0
41
1
10
5.09782082246909
20
-1.26922264474825
30
0
41
1
10
5.15535064938109
20
-1.27790868478306
30
0
41
1
10
5.26865722362794
20
-1.30444434826973
30
0
41
1
10
5.32464439783251
20
-1.32224643263666
30
0
41
1
10
5.38010805848609
20
-1.34365415979261
30
0
0
SPLINE
5
D9
100
AcDbEntity
8
1
62
256
6
ByLayer
370
18
48
1
60
0
100
AcDbSpline
70
4
71
3
72
8
73
4
40
0
40
0
40
0
40
0
40
1
40
1
40
1
40
1
41
1
10
29.9996806041662
20
0.0628869116031581
30
0
41
1
10
30.0001064652737
20
0.0209623038677194
30
0
41
1
10
30.0001064652737
20
-0.0209623038677194
30
0
41
1
10
29.9996806041662
20
-0.0628869116031581
30
0
0
SPLINE
5
DA
100
AcDbEntity
8
1
62
256
6
ByLayer
370
18
48
1
60
0
100
AcDbSpline
70
4
71
3
72
16
73
12
40
0
40
0
40
0
40
0
40
0.249999999999996
40
0.249999999999996
40
0.374999999999996
40
0.374999999999996
40
0.499999999999997
40
0.499999999999997
40
0.749999999999999
40
0.749999999999999
40
1
40
1
40
1
40
1
41
1
10
29.2378483857902
20
0.284475882637452
30
0
41
1
10
29.2163730522908
20
0.194216348978017
30
0
41
1
10
29.1984562385463
20
0.103155953503318
30
0
41
1
10
29.1769630641967
20
-0.0346458948478414
30
0
41
1
10
29.1706999197506
20
-0.0807826742274926
30
0
41
1
10
29.1600385345497
20
-0.173475938442977
30
0
41
1
10
29.1556281902741
20
-0.220264893492669
30
0
41
1
10
29.1455038109859
20
-0.358809642197343
30
0
41
1
10
29.1427889813472
20
-0.4491431380427
30
0
41
1
10
29.1452954044532
20
-0.6258179116696
30
0
41
1
10
29.1505924555754
20
-0.712703481121508
30
0
41
1
10
29.1599058266238
20
-0.795886754948924
30
0
0
SPLINE
5
DB
100
AcDbEntity
8
1
62
256
6
ByLayer
370
13
48
1
60
0
100
AcDbSpline
70
4
71
3
72
16
73
12
40
0
40
0
40
0
40
0
40
0.0274327878808123
40
0.0274327878808123
40
0.270574590910609
40
0.270574590910609
40
0.513716393940406
40
0.513716393940406
40
0.756858196970203
40
0.756858196970203
40
1
40
1
40
1
40
1
41
1
10
5.38054607168436
20
-1.68186468871846
30
0
41
1
10
5.38054328641138
20
-1.68183676053309
30
0
41
1
10
5.38054052994474
20
-1.68172245600502
30
0
41
1
10
5.38051354680732
20
-1.67974367308824
30
0
41
1
10
5.38049130380261
20
-1.6709814559994
30
0
41
1
10
5.38044240384042
20
-1.64026326577519
30
0
41
1
10
5.3804156153906
20
-1.6183029867168
30
0
41
1
10
5.38035016030761
20
-1.56093933009936
30
0
41
1
10
5.38031132565916
20
-1.52538916227823
30
0
41
1
10
5.38022027831187
20
-1.44319808790851
30
0
41
1
10
5.38016781905171
20
-1.39633129086832
30
0
41
1
10
5.38010805848606
20
-1.34365415979261
30
0
0
SPLINE
5
DC
100
AcDbEntity
8
1
62
256
6
ByLayer
370
13
48
1
60
0
100
AcDbSpline
70
4
71
3
72
10
73
6
40
0
40
0
40
0
40
0
40
0.514387376517692
40
0.514387376517692
40
1
40
1
40
1
40
1
41
1
10
5.38125216248358
20
1.380943429761
30
0
41
1
10
5.38101134711158
20
1.48202134069584
30
0
41
1
10
5.38085438030345
20
1.55948736481682
30
0
41
1
10
5.38064725543978
20
1.65865748643489
30
0
41
1
10
5.38059260436782
20
1.68235559349276
30
0
41
1
10
5.38054600158694
20
1.68186396754311
30
0
0
SPLINE
5
DD
100
AcDbEntity
8
1
62
256
6
ByLayer
370
18
48
1
60
0
100
AcDbSpline
70
4
71
4
72
10
73
5
40
0
40
0
40
0
40
0
40
0
40
1
40
1
40
1
40
1
40
1
41
1
10
6.71254046210339
20
-0.775392756368859
30
0
41
1
10
6.63521397303603
20
-0.98537727833687
30
0
41
1
10
6.55788748396867
20
-1.19536180030488
30
0
41
1
10
6.48056099490134
20
-1.40534632227289
30
0
41
1
10
6.40323450583398
20
-1.6153308442409
30
0
0
SPLINE
5
DE
100
AcDbEntity
8
1
62
256
6
ByLayer
370
18
48
1
60
0
100
AcDbSpline
70
4
71
3
72
8
73
4
40
0
40
0
40
0
40
0
40
1
40
1
40
1
40
1
41
1
10
29.9007464684826
20
-0.328420853796103
30
0
41
1
10
29.8192786300491
20
-0.555194980713168
30
0
41
1
10
29.7383531440592
20
-0.782161106946148
30
0
41
1
10
29.6579727773482
20
-1.00932021198813
30
0
0
SPLINE
5
DF
100
AcDbEntity
8
1
62
256
6
ByLayer
370
18
48
1
60
0
100
AcDbSpline
70
4
71
3
72
14
73
10
40
0
40
0
40
0
40
0
40
0.285695940084689
40
0.285695940084689
40
0.571391880169378
40
0.571391880169378
40
0.857087820254068
40
0.857087820254068
40
1
40
1
40
1
40
1
41
1
10
6.71254046210325
20
-0.775392756368774
30
0
41
1
10
6.74982720059626
20
-0.674138476591821
30
0
41
1
10
6.80084876041923
20
-0.569113272075015
30
0
41
1
10
6.91859787988622
20
-0.375735855273945
30
0
41
1
10
6.98521477574147
20
-0.287565384285983
30
0
41
1
10
7.11857390194481
20
-0.148589694484372
30
0
41
1
10
7.18519079780006
20
-0.0979150887610558
30
0
41
1
10
7.27351586936302
20
-0.0588799273471068
30
0
41
1
10
7.30100136586907
20
-0.0520458545042288
30
0
41
1
10
7.32578562748114
20
-0.0514123109951754
30
0
0
SPLINE
5
E0
100
AcDbEntity
8
1
62
256
6
ByLayer
370
18
48
1
60
0
100
AcDbSpline
70
4
71
3
72
8
73
4
40
0
40
0
40
0
40
0
40
1
40
1
40
1
40
1
41
1
10
29.7077487669012
20
-0.353119528496478
30
0
41
1
10
29.7078724429612
20
-0.353243025201493
30
0
41
1
10
29.7079961196075
20
-0.353366521319373
30
0
41
1
10
29.7081197968402
20
-0.353490016850088
30
0
0
SPLINE
5
E1
100
AcDbEntity
8
1
62
256
6
ByLayer
370
13
48
1
60
0
100
AcDbSpline
70
4
71
3
72
32
73
28
40
0
40
0
40
0
40
0
40
0.010407275754996
40
0.0518844890999875
40
0.114100309117422
40
0.134838915789905
40
0.176316129134865
40
0.217793342479826
40
0.280009162497277
40
0.300747769169772
40
0.342224982514735
40
0.383702195859699
40
0.445918015877142
40
0.466656622549636
40
0.508133835894624
40
0.54961104923958
40
0.61182686925702
40
0.632565475929501
40
0.674042689274463
40
0.715519902619438
40
0.777735722636895
40
0.798474329309366
40
0.839951542654339
40
0.881428755999311
40
0.94364457601674
40
0.96438318268923
40
1
40
1
40
1
40
1
41
1.00000000000002
10
29.711850515929
20
0.793169980776085
30
0
41
1.00000000000002
10
29.7075214841142
20
0.793197400522146
30
0
41
1.00000000000002
10
29.6859394952731
20
0.793320379792121
30
0
41
1.00000000000002
10
29.6384783841623
20
0.793443494736423
30
0
41
1.00000000000002
10
29.5867218217045
20
0.793268183437661
30
0
41
1.00000000000002
10
29.5349645360364
20
0.792830781973223
30
0
41
1.00000000000002
10
29.4918319850354
20
0.792293948918385
30
0
41
1.00000000000002
10
29.4314470636911
20
0.79124383915034
30
0
41
1.00000000000002
10
29.3796905391369
20
0.790034041945703
30
0
41
1.00000000000002
10
29.3279332985221
20
0.788563320681348
30
0
41
1.00000000000002
10
29.2848007822167
20
0.787167586671231
30
0
41
1.00000000000002
10
29.2244158951645
20
0.784917169849322
30
0
41
1.00000000000002
10
29.1726593829244
20
0.782679417644161
30
0
41
1.00000000000002
10
29.1209021378179
20
0.780182777544113
30
0
41
1.00000000000002
10
29.0777696058366
20
0.777934886969704
30
0
41
1.00000000000002
10
29.0173846801055
20
0.774494573512826
30
0
41
1.00000000000002
10
28.9656281236441
20
0.771238786810486
30
0
41
1.00000000000002
10
28.9138708329558
20
0.767727014754613
30
0
41
1.00000000000002
10
28.8707382698588
20
0.764636527146607
30
0
41
1.00000000000002
10
28.810353320284
20
0.760021311649681
30
0
41
1.00000000000002
10
28.7585967642115
20
0.755762725800893
30
0
41
1.00000000000002
10
28.7068394912445
20
0.751253850092682
30
0
41
1.00000000000002
10
28.6637069542957
20
0.747337730695919
30
0
41
1.00000000000002
10
28.6033220569082
20
0.741574227658348
30
0
41
1.00000000000002
10
28.5515655557346
20
0.736337969608756
30
0
41
1.00000000000002
10
28.5022459643627
20
0.731116232656079
30
0
41
1.00000000000002
10
28.4788042524563
20
0.728559106756664
30
0
41
1.00000000000002
10
28.4639890288012
20
0.726914093681573
30
0
0
SPLINE
5
E2
100
AcDbEntity
8
1
62
256
6
ByLayer
370
13
48
1
60
0
100
AcDbSpline
70
4
71
3
72
106
73
102
40
0
40
0
40
0
40
0
40
0.0027610159696587
40
0.0120138050371672
40
0.0258929886384325
40
0.0305193831721866
40
0.0397721722396956
40
0.0490249613072037
40
0.0629041449084676
40
0.0675305394422226
40
0.0767833285097325
40
0.0860361175772406
40
0.0999153011785046
40
0.10454169571226
40
0.113794484779768
40
0.123047273847277
40
0.136926457448542
40
0.141552851982296
40
0.150805641049805
40
0.160058430117314
40
0.173937613718578
40
0.178564008252333
40
0.187816797319841
40
0.197069586387351
40
0.210948769988614
40
0.215575164522369
40
0.224827953589878
40
0.234080742657387
40
0.247959926258651
40
0.252586320792405
40
0.261839109859914
40
0.271091898927424
40
0.284971082528687
40
0.289597477062442
40
0.298850266129951
40
0.30810305519746
40
0.321982238798724
40
0.326608633332478
40
0.335861422399988
40
0.345114211467497
40
0.35899339506876
40
0.363619789602515
40
0.372872578670024
40
0.382125367737534
40
0.396004551338797
40
0.400630945872552
40
0.40988373494006
40
0.419136524007569
40
0.433015707608832
40
0.437642102142588
40
0.446894891210096
40
0.456147680277606
40
0.470026863878871
40
0.474653258412625
40
0.483906047480132
40
0.493158836547642
40
0.505881421515468
40
0.511664414682661
40
0.517447407849856
40
0.53016999281768
40
0.548675570952697
40
0.581060332688981
40
0.585686727222734
40
0.594939516290244
40
0.604192305357753
40
0.618071488959017
40
0.622697883492771
40
0.63195067256028
40
0.64120346162779
40
0.653926046595613
40
0.659709039762807
40
0.665492032930001
40
0.678214617897826
40
0.696720196032844
40
0.729104957769126
40
0.73373135230288
40
0.742984141370389
40
0.752236930437899
40
0.766116114039162
40
0.770742508572917
40
0.779995297640426
40
0.789248086707935
40
0.80197067167576
40
0.807753664842953
40
0.813536658010148
40
0.826259242977972
40
0.84476482111299
40
0.877149582849272
40
0.881775977383027
40
0.891028766450536
40
0.900281555518045
40
0.914160739119309
40
0.918787133653063
40
0.928039922720572
40
0.937292711788081
40
0.950015296755906
40
0.9557982899231
40
0.961581283090293
40
0.974303868058118
40
0.992809446193135
40
1
40
1
40
1
40
1
41
1.00000000000002
10
16.0502454210697
20
0.0262279015435918
30
0
41
1.00000000000002
10
16.045097175211
20
0.0276522101135294
30
0
41
1.00000000000002
10
16.0226959725122
20
0.033848508047526
30
0
41
1.00000000000002
10
15.9744156783776
20
0.047195734674971
30
0
41
1.00000000000002
10
15.9226591624485
20
0.0615062678564289
30
0
41
1.00000000000002
10
15.8709019317114
20
0.0757979016597106
30
0
41
1.00000000000002
10
15.8277694238054
20
0.0876748047411111
30
0
41
1.00000000000002
10
15.7673845503945
20
0.104266875774213
30
0
41
1.00000000000002
10
15.7156280545897
20
0.11846846686876
30
0
41
1.00000000000002
10
15.6638708323721
20
0.132632796568655
30
0
41
1.00000000000002
10
15.6207383286572
20
0.144391677202092
30
0
41
1.00000000000002
10
15.5603534617837
20
0.160797438013529
30
0
41
1.00000000000002
10
15.5085969729264
20
0.174817047073386
30
0
41
1.00000000000002
10
15.456839760037
20
0.188780374036124
30
0
41
1.00000000000002
10
15.4137072684303
20
0.200359418046244
30
0
41
1.00000000000002
10
15.3533224276412
20
0.21649180597171
30
0
41
1.00000000000002
10
15.3015659688832
20
0.23025453715422
30
0
41
1.00000000000002
10
15.2498087907595
20
0.243942327338029
30
0
41
1.00000000000002
10
15.2066763259206
20
0.255279864244239
30
0
41
1.00000000000002
10
15.1462915106666
20
0.271053206995641
30
0
41
1.00000000000002
10
15.0945350586535
20
0.284486226498695
30
0
41
1.00000000000002
10
15.0427778718567
20
0.297826227280462
30
0
41
1.00000000000002
10
14.9996453860687
20
0.308862519956614
30
0
41
1.00000000000002
10
14.9392605154367
20
0.324193900667461
30
0
41
1.00000000000002
10
14.8875039918102
20
0.337226788679396
30
0
41
1.00000000000002
10
14.8357467175842
20
0.350149207820885
30
0
41
1.00000000000002
10
14.7926141543197
20
0.360826595820833
30
0
41
1.00000000000002
10
14.7322291786302
20
0.375636049579179
30
0
41
1.00000000000002
10
14.6804725758235
20
0.388200968014495
30
0
41
1.00000000000002
10
14.6287152402925
20
0.400638643565735
30
0
41
1.00000000000002
10
14.5855826418754
20
0.410901697155701
30
0
41
1.00000000000002
10
14.5251976448509
20
0.425112452536403
30
0
41
1.00000000000002
10
14.473441048097
20
0.437144368896717
30
0
41
1.00000000000002
10
14.4216837324952
20
0.449032994565804
30
0
41
1.00000000000002
10
14.378551152447
20
0.458828696693323
30
0
41
1.00000000000002
10
14.3181661755818
20
0.472367419829814
30
0
41
1.00000000000002
10
14.2664095878306
20
0.483804309552644
30
0
41
1.00000000000002
10
14.21465227083
20
0.495082636257726
30
0
41
1.00000000000002
10
14.1715196820633
20
0.504360537045462
30
0
41
1.00000000000002
10
14.1111346845514
20
0.517157517341095
30
0
41
1.00000000000002
10
14.0593780763925
20
0.527940500848492
30
0
41
1.00000000000002
10
14.0076207438713
20
0.538550464239127
30
0
41
1.00000000000002
10
13.9644881514911
20
0.547262794280063
30
0
41
1.00000000000002
10
13.9041031691532
20
0.559252077198256
30
0
41
1.00000000000002
10
13.8523465927188
20
0.569325449166815
30
0
41
1.00000000000002
10
13.8005893039875
20
0.579212063110635
30
0
41
1.00000000000002
10
13.757456756931
20
0.58731354839826
30
0
41
1.00000000000002
10
13.6970718506988
20
0.598432627331494
30
0
41
1.00000000000002
10
13.6453153466317
20
0.607743675660533
30
0
41
1.00000000000002
10
13.5935581290302
20
0.616855080450864
30
0
41
1.00000000000002
10
13.5504256347828
20
0.624303155452043
30
0
41
1.00000000000002
10
13.4900407887335
20
0.634493473926756
30
0
41
1.00000000000002
10
13.4382843250301
20
0.642993005768932
30
0
41
1.00000000000002
10
13.3865271438252
20
0.651280920953968
30
0
41
1.00000000000002
10
13.3433946623676
20
0.658036031435063
30
0
41
1.00000000000002
10
13.2851666189585
20
0.666917627336135
30
0
41
1.00000000000002
10
13.2334097806633
20
0.674570871043431
30
0
41
1.00000000000002
10
13.1881224988852
20
0.681080331027447
30
0
41
1.00000000000002
10
13.1428325643175
20
0.687438491363013
30
0
41
1.00000000000002
10
13.0738182758945
20
0.696811100768246
30
0
41
1.00000000000002
10
12.9551980801817
20
0.712008162604848
30
0
41
1.00000000000002
10
12.8516890266792
20
0.724154837836993
30
0
41
1.00000000000002
10
12.7654332796659
20
0.733512950374079
30
0
41
1.00000000000002
10
12.7223009150469
20
0.737990699260181
30
0
41
1.00000000000002
10
12.6619161172516
20
0.743980112566036
30
0
41
1.00000000000002
10
12.6101596207757
20
0.748830921823683
30
0
41
1.00000000000002
10
12.5584023836824
20
0.753434747374471
30
0
41
1.00000000000002
10
12.5152698599237
20
0.757101687170135
30
0
41
1.00000000000002
10
12.4570417768173
20
0.761778378217784
30
0
41
1.00000000000002
10
12.4052849185937
20
0.765654430228168
30
0
41
1.00000000000002
10
12.3599976293949
20
0.768830991698636
30
0
41
1.00000000000002
10
12.3147076912673
20
0.771845091300336
30
0
41
1.00000000000002
10
12.2456934014155
20
0.776089052882768
30
0
41
1.00000000000002
10
12.1270732117828
20
0.782380010608833
30
0
41
1.00000000000002
10
12.0235641675175
20
0.786596553060619
30
0
41
1.00000000000002
10
11.9373084219202
20
0.789273524413929
30
0
41
1.00000000000002
10
11.8941760555539
20
0.790410469771601
30
0
41
1.00000000000002
10
11.8337912500336
20
0.791704052654197
30
0
41
1.00000000000002
10
11.7820347420092
20
0.792505913663192
30
0
41
1.00000000000002
10
11.7302774899429
20
0.793046252890136
30
0
41
1.00000000000002
10
11.6871449532968
20
0.793323130040946
30
0
41
1.00000000000002
10
11.6289168544956
20
0.793410399000337
30
0
41
1.00000000000002
10
11.5771599847688
20
0.793191085861068
30
0
41
1.00000000000002
10
11.5318726882675
20
0.792774365956021
30
0
41
1.00000000000002
10
11.4865827441045
20
0.792197601967885
30
0
41
1.00000000000002
10
11.4175684459792
20
0.790965987272856
30
0
41
1.00000000000002
10
11.2989482424445
20
0.78783811465884
30
0
41
1.00000000000002
10
11.1954391808958
20
0.783782615390649
30
0
41
1.00000000000002
10
11.1091834118501
20
0.77956228509494
30
0
41
1.00000000000002
10
11.0660510312442
20
0.777266927476021
30
0
41
1.00000000000002
10
11.0056662019875
20
0.77376099561225
30
0
41
1.00000000000002
10
10.9539096714544
20
0.770450095173985
30
0
41
1.00000000000002
10
10.9021523971371
20
0.766884434476268
30
0
41
1.00000000000002
10
10.8590198443928
20
0.76374994449212
30
0
41
1.00000000000002
10
10.8007917302935
20
0.759242269917522
30
0
41
1.00000000000002
10
10.7490348536935
20
0.754946693003135
30
0
41
1.00000000000002
10
10.7037475564162
20
0.750971537766092
30
0
41
1.00000000000002
10
10.6584576139616
20
0.746851691978905
30
0
41
1.00000000000002
10
10.5894433217386
20
0.740245779130491
30
0
41
1.00000000000002
10
10.5178032355996
20
0.732822800631867
30
0
41
1.00000000000002
10
10.4698904645581
20
0.727561143164523
30
0
41
1.00000000000002
10
10.4564832356751
20
0.726065487494837
30
0
0
SPLINE
5
E3
100
AcDbEntity
8
1
62
256
6
ByLayer
370
18
48
1
60
0
100
AcDbSpline
70
4
71
1
72
4
73
2
40
0
40
0
40
1
40
1
41
1
10
29.3134861391332
20
-1.68575091793412
30
0
41
1
10
29.7072353263264
20
-0.356475939266488
30
0
0
SPLINE
5
E4
100
AcDbEntity
8
1
62
256
6
ByLayer
370
18
48
1
60
0
100
AcDbSpline
70
4
71
3
72
42
73
38
40
0
40
0
40
0
40
0
40
0.0518258675680268
40
0.0518258675680268
40
0.0908791459282772
40
0.0908791459282772
40
0.129932424288528
40
0.129932424288528
40
0.20803898100903
40
0.20803898100903
40
0.286145537729533
40
0.286145537729533
40
0.325198816089784
40
0.325198816089784
40
0.364252094450036
40
0.364252094450036
40
0.442358651170538
40
0.442358651170538
40
0.481411929530789
40
0.481411929530789
40
0.520465207891039
40
0.520465207891039
40
0.676678321332043
40
0.676678321332043
40
0.715731599692294
40
0.715731599692294
40
0.754784878052545
40
0.754784878052545
40
0.832891434773048
40
0.832891434773048
40
0.8719447131333
40
0.8719447131333
40
0.910997991493552
40
0.910997991493552
40
0.989104548214053
40
0.989104548214053
40
1
40
1
40
1
40
1
41
1
10
12.3111750476898
20
1.75443491990413
30
0
41
1
10
12.4766327503323
20
1.75463053579713
30
0
41
1
10
12.6420847620664
20
1.74604460750254
30
0
41
1
10
12.93312677943
20
1.71554506617784
30
0
41
1
10
13.0585791691135
20
1.69744025123373
30
0
41
1
10
13.3109250592562
20
1.6512949208163
30
0
41
1
10
13.4373586178343
20
1.62333198582857
30
0
41
1
10
13.8135569167512
20
1.5260075526779
30
0
41
1
10
14.0624971360111
20
1.44336486068534
30
0
41
1
10
14.5611280039894
20
1.2472694217889
30
0
41
1
10
14.8105915756195
20
1.13352779541427
30
0
41
1
10
15.189021175432
20
0.943412892547173
30
0
41
1
10
15.3151597135303
20
0.876950129198775
30
0
41
1
10
15.565832530387
20
0.740359342675674
30
0
41
1
10
15.6907641159991
20
0.670103975098897
30
0
41
1
10
16.064808176465
20
0.454235030535557
30
0
41
1
10
16.3133458428745
20
0.30378173284231
30
0
41
1
10
16.6884876424905
20
0.0739817245445522
30
0
41
1
10
16.8138614553133
20
-0.0034120132726514
30
0
41
1
10
17.0660861937853
20
-0.158453945641469
30
0
41
1
10
17.192191090024
20
-0.235577546392818
30
0
41
1
10
17.8184663512486
20
-0.61506591150345
30
0
41
1
10
18.3116962711534
20
-0.900575267719631
30
0
41
1
10
18.942260778897
20
-1.19832925763748
30
0
41
1
10
19.0680495827048
20
-1.25452064280702
30
0
41
1
10
19.3182733188892
20
-1.35880400469745
30
0
41
1
10
19.4430049433493
20
-1.40694336829486
30
0
41
1
10
19.8165549370536
20
-1.53905556484605
30
0
41
1
10
20.0648106499139
20
-1.61059428152899
30
0
41
1
10
20.4397981920164
20
-1.68990208351445
30
0
41
1
10
20.5651498919409
20
-1.71171688627976
30
0
41
1
10
20.8172834641155
20
-1.7454839822438
30
0
41
1
10
20.9429488207002
20
-1.75724637741149
30
0
41
1
10
21.3180896512869
20
-1.77735374786334
30
0
41
1
10
21.5662804783242
20
-1.77051364546347
30
0
41
1
10
21.8498518198555
20
-1.74018956323798
30
0
41
1
10
21.8845735570349
20
-1.73609055686128
30
0
41
1
10
21.9193098587658
20
-1.73160614972139
30
0
0
SPLINE
5
E5
100
AcDbEntity
8
1
62
256
6
ByLayer
370
18
48
1
60
0
100
AcDbSpline
70
4
71
3
72
48
73
44
40
0
40
0
40
0
40
0
40
0.0281709700312499
40
0.0281709700312499
40
0.0878548196311544
40
0.0878548196311544
40
0.147538669231059
40
0.147538669231059
40
0.207222518830963
40
0.207222518830963
40
0.237064443630915
40
0.237064443630915
40
0.266906368430868
40
0.266906368430868
40
0.326590218030772
40
0.326590218030772
40
0.386274067630677
40
0.386274067630677
40
0.416115992430628
40
0.416115992430628
40
0.44595791723058
40
0.44595791723058
40
0.565325616430384
40
0.565325616430384
40
0.595167541230336
40
0.595167541230336
40
0.625009466030287
40
0.625009466030287
40
0.68469331563019
40
0.68469331563019
40
0.744377165230093
40
0.744377165230093
40
0.774219090030044
40
0.774219090030044
40
0.804061014829995
40
0.804061014829995
40
0.863744864429895
40
0.863744864429895
40
0.893586789229846
40
0.893586789229846
40
0.923428714029796
40
0.923428714029796
40
1
40
1
40
1
40
1
41
1
10
9.43347805856348
20
1.20056222577978
30
0
41
1
10
9.54058365330462
20
1.24826097810177
30
0
41
1
10
9.64832622061704
20
1.29368679114088
30
0
41
1
10
9.98221716772895
20
1.42572322914938
30
0
41
1
10
10.2070748227558
20
1.5022024174971
30
0
41
1
10
10.6562263975935
20
1.62632028984393
30
0
41
1
10
10.880636971031
20
1.67388917785578
30
0
41
1
10
11.3321762559887
20
1.7378107865527
30
0
41
1
10
11.5602484274554
20
1.75399281631999
30
0
41
1
10
11.9009115181112
20
1.75316175128779
30
0
41
1
10
12.0142944174298
20
1.74876401524568
30
0
41
1
10
12.2413387607164
20
1.73173826034213
30
0
41
1
10
12.3552026755304
20
1.71904341375654
30
0
41
1
10
12.6958901683964
20
1.66911023450672
30
0
41
1
10
12.9210592701936
20
1.62023774460002
30
0
41
1
10
13.3698235377422
20
1.49342380293106
30
0
41
1
10
13.5941467759899
20
1.4160453801401
30
0
41
1
10
13.9322188266909
20
1.28044737598023
30
0
41
1
10
14.0452553157775
20
1.23207076522033
30
0
41
1
10
14.2723051430253
20
1.12912706118635
30
0
41
1
10
14.3860699949522
20
1.07476235410496
30
0
41
1
10
14.9511635177472
20
0.793009098996748
30
0
41
1
10
15.3963401218296
20
0.532625215780286
30
0
41
1
10
15.9611341498369
20
0.189254693298324
30
0
41
1
10
16.0749257805912
20
0.119517409638377
30
0
41
1
10
16.301802893797
20
-0.0197990918263713
30
0
41
1
10
16.4146640168151
20
-0.0893321159206835
30
0
41
1
10
16.7523868814115
20
-0.296144271358486
30
0
41
1
10
16.9762033826098
20
-0.431947136350004
30
0
41
1
10
17.4248120804999
20
-0.693596907892015
30
0
41
1
10
17.6494703380137
20
-0.819657667414162
30
0
41
1
10
17.9896328848216
20
-0.997347304549493
30
0
41
1
10
18.1033314090821
20
-1.05454250844107
30
0
41
1
10
18.3291747643619
20
-1.16293241602625
30
0
41
1
10
18.4416575808535
20
-1.21437568100234
30
0
41
1
10
18.7781736994581
20
-1.3600616030574
30
0
41
1
10
19.0019562177237
20
-1.44490208445282
30
0
41
1
10
19.3386355597465
20
-1.55196424777142
30
0
41
1
10
19.4509323925174
20
-1.58433893917794
30
0
41
1
10
19.6767322902152
20
-1.64154822604158
30
0
41
1
10
19.7903575179745
20
-1.66662665731044
30
0
41
1
10
20.1945622045801
20
-1.74163569508937
30
0
41
1
10
20.4818350726964
20
-1.76899534256836
30
0
41
1
10
20.7691236991256
20
-1.76966178637602
30
0
0
SPLINE
5
E6
100
AcDbEntity
8
1
62
256
6
ByLayer
370
18
48
1
60
0
100
AcDbSpline
70
4
71
3
72
14
73
10
40
0
40
0
40
0
40
0
40
0.294404530025089
40
0.294404530025089
40
0.470803397518817
40
0.470803397518817
40
0.647202265012545
40
0.647202265012545
40
1
40
1
40
1
40
1
41
1
10
27.4355186810131
20
1.22023536925556
30
0
41
1
10
27.6242874096041
20
1.30597979618963
30
0
41
1
10
27.8126963101789
20
1.38347905163766
30
0
41
1
10
28.1146566463656
20
1.49291663188819
30
0
41
1
10
28.2280502776401
20
1.53069947440724
30
0
41
1
10
28.4537172981209
20
1.59830592724435
30
0
41
1
10
28.5660302985324
20
1.628423045555
30
0
41
1
10
28.9022821572395
20
1.70723146776948
30
0
41
1
10
29.1256252947103
20
1.74436434390114
30
0
41
1
10
29.3497173699566
20
1.76542709954325
30
0
0
SPLINE
5
E7
100
AcDbEntity
8
1
62
256
6
ByLayer
370
18
48
1
60
0
100
AcDbSpline
70
4
71
2
72
6
73
3
40
0
40
0
40
0
40
1
40
1
40
1
41
1
10
11.9388256149865
20
-0.0308375205696905
30
0
41
1
10
11.6331811370606
20
0.0526169162654071
30
0
41
1
10
11.3309153905402
20
0.232216874766237
30
0
0
SPLINE
5
E8
100
AcDbEntity
8
1
62
256
6
ByLayer
370
18
48
1
60
0
100
AcDbSpline
70
4
71
2
72
6
73
3
40
0
40
0
40
0
40
1
40
1
40
1
41
1
10
29.1226922603411
20
0.344729423683987
30
0
41
1
10
29.0684456500527
20
0.378928944735918
30
0
41
1
10
29.0146332795306
20
0.416541452779285
30
0
0
SPLINE
5
E9
100
AcDbEntity
8
1
62
256
6
ByLayer
370
18
48
1
60
0
100
AcDbSpline
70
4
71
2
72
6
73
3
40
0
40
0
40
0
40
1
40
1
40
1
41
1
10
20.9378488192179
20
-0.0305785864238715
30
0
41
1
10
20.6122949124117
20
0.060349362385864
30
0
41
1
10
20.2921860290895
20
0.25215547176083
30
0
0
SPLINE
5
EA
100
AcDbEntity
8
1
62
256
6
ByLayer
370
18
48
1
60
0
100
AcDbSpline
70
4
71
3
72
14
73
10
40
0
40
0
40
0
40
0
40
0.217229677343613
40
0.376498554727754
40
0.478326370137199
40
0.557733530819964
40
0.664100862486493
40
0.804324207764686
40
1
40
1
40
1
40
1
41
1
10
21.6141752262698
20
-1.71091680239596
30
0
41
1
10
21.8773792930083
20
-1.71122950347876
30
0
41
1
10
22.333598121414
20
-1.71185870182512
30
0
41
1
10
22.9134293489112
20
-1.71352196670983
30
0
41
1
10
23.3260702431926
20
-1.71401680293312
30
0
41
1
10
23.6747231074341
20
-1.71491092828458
30
0
41
1
10
24.0698270648952
20
-1.71479326038758
30
0
41
1
10
24.6059690950109
20
-1.71660611751807
30
0
41
1
10
25.013088071988
20
-1.71627575548982
30
0
41
1
10
25.2502464477176
20
-1.71587852933834
30
0
0
SPLINE
5
EB
100
AcDbEntity
8
1
62
256
6
ByLayer
370
18
48
1
60
0
100
AcDbSpline
70
4
71
3
72
15
73
11
40
0
40
0
40
0
40
0
40
0.225224992256044
40
0.386506702183065
40
0.458072729531211
40
0.511673781277471
40
0.564763446397448
40
0.670109630344558
40
0.80284275784852
40
1
40
1
40
1
40
1
41
1
10
12.6119248455722
20
-1.69429989094397
30
0
41
1
10
12.8851071273922
20
-1.69482018493326
30
0
41
1
10
13.353939980015
20
-1.69586743243582
30
0
41
1
10
13.9097707872773
20
-1.69636974220077
30
0
41
1
10
14.2572514772452
20
-1.69775264309024
30
0
41
1
10
14.4735484512298
20
-1.69871895364486
30
0
41
1
10
14.73084010557
20
-1.69822287560498
30
0
41
1
10
15.0839707744132
20
-1.69997331481648
30
0
41
1
10
15.6121663068597
20
-1.69954324931689
30
0
41
1
10
16.0123046249788
20
-1.7006785279533
30
0
41
1
10
16.2514279767894
20
-1.70140129718996
30
0
0
SPLINE
5
EC
100
AcDbEntity
8
1
62
256
6
ByLayer
370
18
48
1
60
0
100
AcDbSpline
70
4
71
2
72
6
73
3
40
0
40
0
40
0
40
1
40
1
40
1
41
1
10
16.0353691540075
20
0.030342873712101
30
0
41
1
10
16.3822171748149
20
-0.0664177943649236
30
0
41
1
10
16.7236949644545
20
-0.278254254539121
30
0
0
SPLINE
5
ED
100
AcDbEntity
8
1
62
256
6
ByLayer
370
18
48
1
60
0
100
AcDbSpline
70
4
71
2
72
6
73
3
40
0
40
0
40
0
40
1
40
1
40
1
41
1
10
7.25104115404571
20
1.68486095497178
30
0
41
1
10
6.31583818620837
20
1.68342406569459
30
0
41
1
10
5.38052078887381
20
1.6819688653899
30
0
0
SPLINE
5
EE
100
AcDbEntity
8
1
62
256
6
ByLayer
370
18
48
1
60
0
100
AcDbSpline
70
4
71
2
72
6
73
3
40
0
40
0
40
0
40
1
40
1
40
1
41
1
10
5.38052078887375
20
-1.68196886539002
30
0
41
1
10
6.31583818620828
20
-1.68342406569477
30
0
41
1
10
7.25104115404557
20
-1.68486095497187
30
0
0
SPLINE
5
EF
100
AcDbEntity
8
1
62
256
6
ByLayer
370
18
48
1
60
0
100
AcDbSpline
70
4
71
3
72
15
73
11
40
0
40
0
40
0
40
0
40
0.214786529437143
40
0.35938830762596
40
0.474154273068203
40
0.531991077821947
40
0.59038499606267
40
0.668350271251005
40
0.844053371775686
40
1
40
1
40
1
40
1
41
1
10
16.2514279767894
20
1.70140129719002
30
0
41
1
10
16.0123046249789
20
1.70067852795339
30
0
41
1
10
15.6121663068597
20
1.699543249317
30
0
41
1
10
15.0839707744133
20
1.6999733148165
30
0
41
1
10
14.73084010557
20
1.69822287560501
30
0
41
1
10
14.4735484512298
20
1.69871895364491
30
0
41
1
10
14.2572514772452
20
1.6977526430903
30
0
41
1
10
13.9097707872773
20
1.69636974220083
30
0
41
1
10
13.4535346027615
20
1.69595743707555
30
0
41
1
10
13.0842360509735
20
1.69523685607044
30
0
41
1
10
12.9105983771623
20
1.69488996108598
30
0
0
SPLINE
5
F0
100
AcDbEntity
8
1
62
256
6
ByLayer
370
18
48
1
60
0
100
AcDbSpline
70
4
71
3
72
14
73
10
40
0
40
0
40
0
40
0
40
0.213707343438189
40
0.3668522892953
40
0.483021385223808
40
0.569745926699419
40
0.680957189322534
40
0.854902715692065
40
1
40
1
40
1
40
1
41
1
10
25.2502464477175
20
1.71587852933834
30
0
41
1
10
25.0130880719879
20
1.71627575548982
30
0
41
1
10
24.6059690950109
20
1.71660611751804
30
0
41
1
10
24.0698270648951
20
1.71479326038755
30
0
41
1
10
23.674723107434
20
1.71491092828458
30
0
41
1
10
23.3260702431925
20
1.71401680293315
30
0
41
1
10
22.9134293489112
20
1.71352196670981
30
0
41
1
10
22.4358781688196
20
1.71215209549416
30
0
41
1
10
22.0818693942754
20
1.71154566640047
30
0
41
1
10
21.9208835204586
20
1.71131426887052
30
0
0
SPLINE
5
F1
100
AcDbEntity
8
1
62
256
6
ByLayer
370
18
48
1
60
0
100
AcDbSpline
70
4
71
2
72
6
73
3
40
0
40
0
40
0
40
1
40
1
40
1
41
1
10
25.0351530318824
20
0.0304220640747133
30
0
41
1
10
25.3796127844913
20
-0.065334580969818
30
0
41
1
10
25.7232952405945
20
-0.278162027168065
30
0
0
LINE
5
7B
100
AcDbEntity
8
SK1
62
256
6
ByLayer
370
18
48
1
60
0
100
AcDbLine
10
0
20
-3
30
0
11
0
21
3
31
0
39
0
210
0
220
0
230
1
0
LINE
5
7D
100
AcDbEntity
8
SK1
62
256
6
ByLayer
370
18
48
1
60
0
100
AcDbLine
10
-36
20
1.25
30
0
11
-36
21
-1.25
31
0
39
0
210
0
220
0
230
1
0
LINE
5
7E
100
AcDbEntity
8
SK1
62
256
6
ByLayer
370
18
48
1
60
0
100
AcDbLine
10
-34.989637
20
3
30
0
11
-34.989637
21
-3
31
0
39
0
210
0
220
0
230
1
0
LINE
5
7F
100
AcDbEntity
8
1
62
256
6
ByLayer
370
13
48
1
60
0
100
AcDbLine
10
1.644874
20
1.735225
30
0
11
1.644874
21
-1.735225
31
0
39
0
210
0
220
0
230
1
0
LINE
5
80
100
AcDbEntity
8
1
62
256
6
ByLayer
370
13
48
1
60
0
100
AcDbLine
10
0.821672
20
2.367612
30
0
11
0.821672
21
-2.367612
31
0
39
0
210
0
220
0
230
1
0
LINE
5
81
100
AcDbEntity
8
1
62
256
6
ByLayer
370
18
48
1
60
0
100
AcDbLine
10
29.707235
20
-0.356476
30
0
11
29.707749
21
-0.35312
31
0
39
0
210
0
220
0
230
1
0
LINE
5
82
100
AcDbEntity
8
1
62
256
6
ByLayer
370
18
48
1
60
0
100
AcDbLine
10
29.159906
20
-0.795887
30
0
11
29.707235
21
-0.356476
31
0
39
0
210
0
220
0
230
1
0
LINE
5
83
100
AcDbEntity
8
1
62
256
6
ByLayer
370
18
48
1
60
0
100
AcDbLine
10
0
20
-3
30
0
11
0
21
3
31
0
39
0
210
0
220
0
230
1
0
LINE
5
84
100
AcDbEntity
8
80
62
256
6
ByLayer
370
18
48
1
60
0
100
AcDbLine
10
0
20
0
30
0
11
-5
21
0
31
0
39
0
210
0
220
0
230
1
0
LINE
5
85
100
AcDbEntity
8
4
62
256
6
ByLayer
370
18
48
0.05
60
0
100
AcDbLine
10
30
20
0
30
0
11
0
21
0
31
0
39
0
210
0
220
0
230
1
0
LINE
5
87
100
AcDbEntity
8
SK4
62
256
6
ByLayer
370
18
48
0.05
60
0
100
AcDbLine
10
35
20
0
30
0
11
-41
21
0
31
0
39
0
210
0
220
0
230
1
0
LINE
5
89
100
AcDbEntity
8
SK1
62
256
6
ByLayer
370
18
48
1
60
0
100
AcDbLine
10
-36
20
-1.25
30
0
11
-34.989637
21
-3
31
0
39
0
210
0
220
0
230
1
0
LINE
5
8A
100
AcDbEntity
8
SK1
62
256
6
ByLayer
370
18
48
1
60
0
100
AcDbLine
10
-34.989637
20
3
30
0
11
-36
21
1.25
31
0
39
0
210
0
220
0
230
1
0
LINE
5
8B
100
AcDbEntity
8
SK1
62
256
6
ByLayer
370
18
48
1
60
0
100
AcDbLine
10
-34.989637
20
-3
30
0
11
0
21
-3
31
0
39
0
210
0
220
0
230
1
0
LINE
5
8C
100
AcDbEntity
8
SK1
62
256
6
ByLayer
370
18
48
1
60
0
100
AcDbLine
10
0
20
3
30
0
11
-34.989637
21
3
31
0
39
0
210
0
220
0
230
1
0
LINE
5
8D
100
AcDbEntity
8
1
62
256
6
ByLayer
370
18
48
1
60
0
100
AcDbLine
10
1.644874
20
-1.735225
30
0
11
5.039999
21
-1.741336
31
0
39
0
210
0
220
0
230
1
0
LINE
5
8E
100
AcDbEntity
8
1
62
256
6
ByLayer
370
18
48
1
60
0
100
AcDbLine
10
11.766596
20
-1.753444
30
0
11
12.308018
21
-1.754418
31
0
39
0
210
0
220
0
230
1
0
LINE
5
8F
100
AcDbEntity
8
1
62
256
6
ByLayer
370
18
48
1
60
0
100
AcDbLine
10
20.771227
20
-1.769652
30
0
11
21.308651
21
-1.770619
31
0
39
0
210
0
220
0
230
1
0
LINE
5
90
100
AcDbEntity
8
1
62
256
6
ByLayer
370
18
48
1
60
0
100
AcDbLine
10
21.308651
20
1.770619
30
0
11
20.771227
21
1.769652
31
0
39
0
210
0
220
0
230
1
0
LINE
5
91
100
AcDbEntity
8
1
62
256
6
ByLayer
370
18
48
1
60
0
100
AcDbLine
10
12.308018
20
1.754418
30
0
11
11.766596
21
1.753444
31
0
39
0
210
0
220
0
230
1
0
LINE
5
92
100
AcDbEntity
8
1
62
256
6
ByLayer
370
18
48
1
60
0
100
AcDbLine
10
5.039999
20
1.741336
30
0
11
1.644874
21
1.735225
31
0
39
0
210
0
220
0
230
1
0
LINE
5
93
100
AcDbEntity
8
81
62
256
6
ByLayer
370
18
48
1
60
0
100
AcDbLine
10
30
20
0
30
0
11
35
21
0
31
0
39
0
210
0
220
0
230
1
0
LINE
5
94
100
AcDbEntity
8
SK2
62
256
6
ByLayer
370
13
48
1
60
0
100
AcDbLine
10
-44.625163
20
32.117107
30
0
11
-44.625163
21
-11.75
31
0
39
0
210
0
220
0
230
1
0
LINE
5
96
100
AcDbEntity
8
SK2
62
256
6
ByLayer
370
13
48
1
60
0
100
AcDbLine
10
-37.5875
20
3
30
0
11
-46.625163
21
3
31
0
39
0
210
0
220
0
230
1
0
LINE
5
97
100
AcDbEntity
8
SK2
62
256
6
ByLayer
370
13
48
1
60
0
100
AcDbLine
10
-37.5875
20
-3
30
0
11
-46.625163
21
-3
31
0
39
0
210
0
220
0
230
1
0
LINE
5
98
100
AcDbEntity
8
1
62
256
6
ByLayer
370
18
48
1
60
1
100
AcDbLine
10
-44.625163
20
3
30
0
11
-45.085946
21
6.499998
31
0
39
0
210
0
220
0
230
1
0
LINE
5
99
100
AcDbEntity
8
1
62
256
6
ByLayer
370
18
48
1
60
1
100
AcDbLine
10
-45.085946
20
6.499998
30
0
11
-44.164379
21
6.500002
31
0
39
0
210
0
220
0
230
1
0
LINE
5
9A
100
AcDbEntity
8
1
62
256
6
ByLayer
370
18
48
1
60
1
100
AcDbLine
10
-44.164379
20
6.500002
30
0
11
-44.625163
21
3
31
0
39
0
210
0
220
0
230
1
0
LINE
5
9B
100
AcDbEntity
8
1
62
256
6
ByLayer
370
18
48
1
60
1
100
AcDbLine
10
-44.625163
20
-3
30
0
11
-44.164379
21
-6.499998
31
0
39
0
210
0
220
0
230
1
0
LINE
5
9C
100
AcDbEntity
8
1
62
256
6
ByLayer
370
18
48
1
60
1
100
AcDbLine
10
-44.164379
20
-6.499998
30
0
11
-45.085946
21
-6.500002
31
0
39
0
210
0
220
0
230
1
0
LINE
5
9D
100
AcDbEntity
8
1
62
256
6
ByLayer
370
18
48
1
60
1
100
AcDbLine
10
-45.085946
20
-6.500002
30
0
11
-44.625163
21
-3
31
0
39
0
210
0
220
0
230
1
0
LINE
5
9E
100
AcDbEntity
8
2
62
256
6
ByLayer
370
13
48
1
60
0
100
AcDbLine
10
42.083343
20
29.495193
30
0
11
42.083343
21
-10.535
31
0
39
0
210
0
220
0
230
1
0
LINE
5
A0
100
AcDbEntity
8
2
62
256
6
ByLayer
370
13
48
1
60
0
100
AcDbLine
10
30.8854
20
1.785
30
0
11
44.083343
21
1.785
31
0
39
0
210
0
220
0
230
1
0
LINE
5
A1
100
AcDbEntity
8
2
62
256
6
ByLayer
370
13
48
1
60
0
100
AcDbLine
10
30.8854
20
-1.785
30
0
11
44.083343
21
-1.785
31
0
39
0
210
0
220
0
230
1
0
LINE
5
A2
100
AcDbEntity
8
1
62
256
6
ByLayer
370
18
48
1
60
1
100
AcDbLine
10
42.083343
20
1.785
30
0
11
41.622559
21
5.284998
31
0
39
0
210
0
220
0
230
1
0
LINE
5
A3
100
AcDbEntity
8
1
62
256
6
ByLayer
370
18
48
1
60
1
100
AcDbLine
10
41.622559
20
5.284998
30
0
11
42.544126
21
5.285002
31
0
39
0
210
0
220
0
230
1
0
LINE
5
A4
100
AcDbEntity
8
1
62
256
6
ByLayer
370
18
48
1
60
1
100
AcDbLine
10
42.544126
20
5.285002
30
0
11
42.083343
21
1.785
31
0
39
0
210
0
220
0
230
1
0
LINE
5
A5
100
AcDbEntity
8
1
62
256
6
ByLayer
370
18
48
1
60
1
100
AcDbLine
10
42.083343
20
-1.785
30
0
11
42.544126
21
-5.284998
31
0
39
0
210
0
220
0
230
1
0
LINE
5
A6
100
AcDbEntity
8
1
62
256
6
ByLayer
370
18
48
1
60
1
100
AcDbLine
10
42.544126
20
-5.284998
30
0
11
41.622559
21
-5.285002
31
0
39
0
210
0
220
0
230
1
0
LINE
5
A7
100
AcDbEntity
8
1
62
256
6
ByLayer
370
18
48
1
60
1
100
AcDbLine
10
41.622559
20
-5.285002
30
0
11
42.083343
21
-1.785
31
0
39
0
210
0
220
0
230
1
0
LINE
5
F8
100
AcDbEntity
8
1
62
256
6
ByLayer
370
18
48
1
60
1
100
AcDbLine
10
-44.625163
20
3
30
0
11
-45.085946
21
6.499998
31
0
39
0
210
0
220
0
230
1
0
LINE
5
F9
100
AcDbEntity
8
1
62
256
6
ByLayer
370
18
48
1
60
1
100
AcDbLine
10
-45.085946
20
6.499998
30
0
11
-44.164379
21
6.500002
31
0
39
0
210
0
220
0
230
1
0
LINE
5
FA
100
AcDbEntity
8
1
62
256
6
ByLayer
370
18
48
1
60
1
100
AcDbLine
10
-44.164379
20
6.500002
30
0
11
-44.625163
21
3
31
0
39
0
210
0
220
0
230
1
0
LINE
5
FC
100
AcDbEntity
8
1
62
256
6
ByLayer
370
18
48
1
60
1
100
AcDbLine
10
-44.625163
20
-3
30
0
11
-44.164379
21
-6.499998
31
0
39
0
210
0
220
0
230
1
0
LINE
5
FD
100
AcDbEntity
8
1
62
256
6
ByLayer
370
18
48
1
60
1
100
AcDbLine
10
-44.164379
20
-6.499998
30
0
11
-45.085946
21
-6.500002
31
0
39
0
210
0
220
0
230
1
0
LINE
5
FE
100
AcDbEntity
8
1
62
256
6
ByLayer
370
18
48
1
60
1
100
AcDbLine
10
-45.085946
20
-6.500002
30
0
11
-44.625163
21
-3
31
0
39
0
210
0
220
0
230
1
0
LINE
5
102
100
AcDbEntity
8
1
62
256
6
ByLayer
370
18
48
1
60
1
100
AcDbLine
10
42.083343
20
1.785
30
0
11
41.622559
21
5.284998
31
0
39
0
210
0
220
0
230
1
0
LINE
5
103
100
AcDbEntity
8
1
62
256
6
ByLayer
370
18
48
1
60
1
100
AcDbLine
10
41.622559
20
5.284998
30
0
11
42.544126
21
5.285002
31
0
39
0
210
0
220
0
230
1
0
LINE
5
104
100
AcDbEntity
8
1
62
256
6
ByLayer
370
18
48
1
60
1
100
AcDbLine
10
42.544126
20
5.285002
30
0
11
42.083343
21
1.785
31
0
39
0
210
0
220
0
230
1
0
LINE
5
106
100
AcDbEntity
8
1
62
256
6
ByLayer
370
18
48
1
60
1
100
AcDbLine
10
42.083343
20
-1.785
30
0
11
42.544126
21
-5.284998
31
0
39
0
210
0
220
0
230
1
0
LINE
5
107
100
AcDbEntity
8
1
62
256
6
ByLayer
370
18
48
1
60
1
100
AcDbLine
10
42.544126
20
-5.284998
30
0
11
41.622559
21
-5.285002
31
0
39
0
210
0
220
0
230
1
0
LINE
5
108
100
AcDbEntity
8
1
62
256
6
ByLayer
370
18
48
1
60
1
100
AcDbLine
10
41.622559
20
-5.285002
30
0
11
42.083343
21
-1.785
31
0
39
0
210
0
220
0
230
1
0
MTEXT
5
F2
100
AcDbEntity
8
SK6
62
256
6
ByLayer
370
13
48
1
60
0
100
AcDbMText
10
-30.671593
20
34.325328
30
0
210
0
220
0
230
1
1
\W0.7280;860.1-0357-021A1-PM P1BM
40
3.5
41
0
44
1.084337
50
0
71
7
72
5
7
iso_b_vert
0
MTEXT
5
F6
100
AcDbEntity
8
SK2
62
256
6
ByLayer
370
18
48
1
60
0
100
AcDbMText
10
-46.189796
20
16.409024
30
0
210
0
220
0
230
1
1
%%c
40
3.5
41
0
44
1.084337
50
90
71
7
72
5
7
iso_b_vert
0
MTEXT
5
F7
100
AcDbEntity
8
SK2
62
256
6
ByLayer
370
18
48
1
60
0
100
AcDbMText
10
-46.189796
20
21.63168
30
0
210
0
220
0
230
1
1
\W0.7317;6,000
40
3.5
41
0
44
1.084337
50
90
71
7
72
5
7
iso_b_vert
0
MTEXT
5
100
100
AcDbEntity
8
2
62
256
6
ByLayer
370
18
48
1
60
0
100
AcDbMText
10
40.518709
20
13.78711
30
0
210
0
220
0
230
1
1
%%c
40
3.5
41
0
44
1.084337
50
90
71
7
72
5
7
iso_b_vert
0
MTEXT
5
101
100
AcDbEntity
8
2
62
256
6
ByLayer
370
18
48
1
60
0
100
AcDbMText
10
40.518709
20
19.009766
30
0
210
0
220
0
230
1
1
\W0.7317;3,570
40
3.5
41
0
44
1.084337
50
90
71
7
72
5
7
iso_b_vert
0
HATCH
5
FB
100
AcDbEntity
8
SK2
62
256
6
ByLayer
370
13
48
1
60
0
100
AcDbHatch
10
0
20
0
30
0
210
0
220
0
230
1
2
ANSI31
70
0
71
0
91
1
92
5
93
3
72
1
10
-44.6251625675374
20
3
11
-45.0859463090902
21
6.49999830744682
72
1
10
-45.0859463090902
20
6.49999830744682
11
-44.1643788259847
21
6.50000169255318
72
1
10
-44.1643788259847
20
6.50000169255318
11
-44.6251625675374
21
3
97
0
75
0
76
1
52
0
41
0.0062
77
0
78
1
53
45
43
0
44
0
45
-0.0139193969876572
46
0.0139193969876572
79
0
47
0
98
1
10
0
20
0
0
HATCH
5
FF
100
AcDbEntity
8
SK2
62
256
6
ByLayer
370
13
48
1
60
0
100
AcDbHatch
10
0
20
0
30
0
210
0
220
0
230
1
2
ANSI31
70
0
71
0
91
1
92
5
93
3
72
1
10
-44.6251625675374
20
-3
11
-44.1643788259847
21
-6.49999830744682
72
1
10
-44.1643788259847
20
-6.49999830744682
11
-45.0859463090902
21
-6.50000169255318
72
1
10
-45.0859463090902
20
-6.50000169255318
11
-44.6251625675374
21
-3
97
0
75
0
76
1
52
0
41
0.0062
77
0
78
1
53
45
43
0
44
0
45
-0.0139193969876572
46
0.0139193969876572
79
0
47
0
98
1
10
0
20
0
0
HATCH
5
105
100
AcDbEntity
8
2
62
256
6
ByLayer
370
13
48
1
60
0
100
AcDbHatch
10
0
20
0
30
0
210
0
220
0
230
1
2
ANSI31
70
0
71
0
91
1
92
5
93
3
72
1
10
42.083342615295
20
1.78500000000003
11
41.6225588737423
21
5.28499830744684
72
1
10
41.6225588737423
20
5.28499830744684
11
42.5441263568478
21
5.28500169255321
72
1
10
42.5441263568478
20
5.28500169255321
11
42.083342615295
21
1.78500000000003
97
0
75
0
76
1
52
0
41
0.0062
77
0
78
1
53
45
43
0
44
0
45
-0.0139193969876572
46
0.0139193969876572
79
0
47
0
98
1
10
0
20
0
0
HATCH
5
109
100
AcDbEntity
8
2
62
256
6
ByLayer
370
13
48
1
60
0
100
AcDbHatch
10
0
20
0
30
0
210
0
220
0
230
1
2
ANSI31
70
0
71
0
91
1
92
5
93
3
72
1
10
42.083342615295
20
-1.785
11
42.5441263568478
21
-5.28499830744681
72
1
10
42.5441263568478
20
-5.28499830744681
11
41.6225588737423
21
-5.28500169255318
72
1
10
41.6225588737423
20
-5.28500169255318
11
42.083342615295
21
-1.785
97
0
75
0
76
1
52
0
41
0.0062
77
0
78
1
53
45
43
0
44
0
45
-0.0139193969876572
46
0.0139193969876572
79
0
47
0
98
1
10
0
20
0
0
DIMENSION
5
10B
100
AcDbEntity
8
2
62
256
6
ByLayer
370
13
48
1
60
0
100
AcDbDimension
2
_U0
10
29.2979
20
-11.998398
30
0
11
14.64895
21
-11.998398
31
0
70
32
71
1
72
1
41
1
210
0
220
0
230
1
3
Standard
100
AcDbAlignedDimension
13
0
23
0
33
0
14
29.2979
24
-1.785
34
0
50
0
100
AcDbRotatedDimension
1001
ACAD
1000
DSTYLE
1002
{
1070
   371
1070
    13
1070
   372
1070
    13
1070
   170
1070
     0
1070
   144
1040
1.0
1070
   277
1070
     2
1070
   278
1070
    44
1070
   146
1040
1.0
1070
   345
1005
16
1070
   347
1005
16
1070
   346
1005
16
1070
   344
1005
0
1070
   343
1005
0
1070
   172
1070
     1
1070
    76
1070
     0
1070
    75
1070
     0
1070
   282
1070
     0
1070
   281
1070
     0
1070
    71
1070
     0
1070
    74
1070
     0
1070
   279
1070
     0
1070
   173
1070
     1
1070
   340
1005
F3
1070
   271
1070
     2
1070
   272
1070
     2
1070
    77
1070
     1
1070
    73
1070
     1
1070
   171
1070
     3
1070
   274
1070
     4
1070
   177
1070
    35
1070
   176
1070
    35
1070
   178
1070
    35
1070
    48
1040
-0.1
1070
    41
1040
3.5
1070
   147
1040
1.75
1070
    42
1040
1.5875
1070
    44
1040
2.0
1070
   140
1040
3.5
1002
}
1001
ACAD_DSTYLE_DIM_LINETYPE
1070
   380
1005
16
1001
ACAD_DSTYLE_DIM_EXT1_LINETYPE
1070
   381
1005
16
1001
ACAD_DSTYLE_DIM_EXT2_LINETYPE
1070
   382
1005
16
0
DIMENSION
5
124
100
AcDbEntity
8
SK2
62
256
6
ByLayer
370
13
48
1
60
0
100
AcDbDimension
2
_U1
10
30
20
-31.692985
30
0
11
-3
21
-31.692985
31
0
70
32
71
1
72
1
41
1
210
0
220
0
230
1
3
Standard
100
AcDbAlignedDimension
13
-36
23
-3
33
0
14
30
24
0
34
0
50
0
100
AcDbRotatedDimension
1001
ACAD
1000
DSTYLE
1002
{
1070
   371
1070
    13
1070
   372
1070
    13
1070
   170
1070
     0
1070
   144
1040
1.0
1070
   277
1070
     2
1070
   278
1070
    44
1070
   146
1040
1.0
1070
   345
1005
16
1070
   347
1005
16
1070
   346
1005
16
1070
   344
1005
0
1070
   343
1005
0
1070
   172
1070
     1
1070
    76
1070
     0
1070
    75
1070
     0
1070
   282
1070
     0
1070
   281
1070
     0
1070
    71
1070
     0
1070
    74
1070
     0
1070
   279
1070
     0
1070
   173
1070
     1
1070
   340
1005
F3
1070
   271
1070
     2
1070
   272
1070
     2
1070
    77
1070
     1
1070
    73
1070
     1
1070
   171
1070
     3
1070
   274
1070
     4
1070
   177
1070
    35
1070
   176
1070
    35
1070
   178
1070
    35
1070
    48
1040
-0.1
1070
    41
1040
3.5
1070
   147
1040
1.75
1070
    42
1040
1.5875
1070
    44
1040
2.0
1070
   140
1040
3.5
1002
}
1001
ACAD_DSTYLE_DIM_LINETYPE
1070
   380
1005
16
1001
ACAD_DSTYLE_DIM_EXT1_LINETYPE
1070
   381
1005
16
1001
ACAD_DSTYLE_DIM_EXT2_LINETYPE
1070
   382
1005
16
0
DIMENSION
5
13C
100
AcDbEntity
8
SK2
62
256
6
ByLayer
370
13
48
1
60
0
100
AcDbDimension
2
_U2
10
30
20
13.394119
30
0
11
20.725
21
13.394119
31
0
70
32
71
1
72
1
41
1
210
0
220
0
230
1
3
Standard
100
AcDbAlignedDimension
13
11.45
23
1.785
33
0
14
30
24
0
34
0
50
0
100
AcDbRotatedDimension
1001
ACAD
1000
DSTYLE
1002
{
1070
   371
1070
    13
1070
   372
1070
    13
1070
   170
1070
     0
1070
   144
1040
1.0
1070
   277
1070
     2
1070
   278
1070
    44
1070
   146
1040
1.0
1070
   345
1005
16
1070
   347
1005
16
1070
   346
1005
16
1070
   344
1005
0
1070
   343
1005
0
1070
   172
1070
     1
1070
    76
1070
     0
1070
    75
1070
     0
1070
   282
1070
     0
1070
   281
1070
     0
1070
    71
1070
     0
1070
    74
1070
     0
1070
   279
1070
     0
1070
   173
1070
     1
1070
   340
1005
F3
1070
   271
1070
     2
1070
   272
1070
     2
1070
    77
1070
     1
1070
    73
1070
     1
1070
   171
1070
     3
1070
   274
1070
     4
1070
   177
1070
    35
1070
   176
1070
    35
1070
   178
1070
    35
1070
    48
1040
-0.1
1070
    41
1040
3.5
1070
   147
1040
1.75
1070
    42
1040
1.5875
1070
    44
1040
2.0
1070
   140
1040
3.5
1002
}
1001
ACAD_DSTYLE_DIM_LINETYPE
1070
   380
1005
16
1001
ACAD_DSTYLE_DIM_EXT1_LINETYPE
1070
   381
1005
16
1001
ACAD_DSTYLE_DIM_EXT2_LINETYPE
1070
   382
1005
16
0
DIMENSION
5
154
100
AcDbEntity
8
SK2
62
256
6
ByLayer
370
13
48
1
60
0
100
AcDbDimension
2
_U3
10
29.2979
20
-14.587503
30
0
11
47.583333
21
-14.587503
31
0
70
32
71
1
72
1
41
1
210
0
220
0
230
1
3
Standard
100
AcDbAlignedDimension
13
30
23
0
33
0
14
29.2979
24
-1.785
34
0
50
0
100
AcDbRotatedDimension
1001
ACAD
1000
DSTYLE
1002
{
1070
   371
1070
    13
1070
   372
1070
    13
1070
   170
1070
     0
1070
   144
1040
1.0
1070
   277
1070
     2
1070
   278
1070
    44
1070
   146
1040
1.0
1070
   345
1005
16
1070
   347
1005
16
1070
   346
1005
16
1070
   344
1005
0
1070
   343
1005
0
1070
   172
1070
     1
1070
    76
1070
     0
1070
    75
1070
     0
1070
   282
1070
     0
1070
   281
1070
     0
1070
    71
1070
     0
1070
    74
1070
     0
1070
   279
1070
     0
1070
   173
1070
     1
1070
   340
1005
F3
1070
   271
1070
     2
1070
   272
1070
     2
1070
    77
1070
     1
1070
    73
1070
     1
1070
   171
1070
     3
1070
   274
1070
     4
1070
   177
1070
    35
1070
   176
1070
    35
1070
   178
1070
    35
1070
    48
1040
-0.1
1070
    41
1040
3.5
1070
   147
1040
1.75
1070
    42
1040
1.5875
1070
    44
1040
2.0
1070
   140
1040
3.5
1002
}
1001
ACAD_DSTYLE_DIM_LINETYPE
1070
   380
1005
16
1001
ACAD_DSTYLE_DIM_EXT1_LINETYPE
1070
   381
1005
16
1001
ACAD_DSTYLE_DIM_EXT2_LINETYPE
1070
   382
1005
16
0
DIMENSION
5
16E
100
AcDbEntity
8
SK2
62
256
6
ByLayer
370
13
48
1
60
0
100
AcDbDimension
2
_U4
10
29.2979
20
-21.343428
30
0
11
-3.35105
21
-21.343428
31
0
70
32
71
1
72
1
41
1
210
0
220
0
230
1
3
Standard
100
AcDbAlignedDimension
13
-36
23
-3
33
0
14
29.2979
24
-1.785
34
0
50
0
100
AcDbRotatedDimension
1001
ACAD
1000
DSTYLE
1002
{
1070
   371
1070
    13
1070
   372
1070
    13
1070
   170
1070
     0
1070
   144
1040
1.0
1070
   277
1070
     2
1070
   278
1070
    44
1070
   146
1040
1.0
1070
   345
1005
16
1070
   347
1005
16
1070
   346
1005
16
1070
   344
1005
0
1070
   343
1005
0
1070
   172
1070
     1
1070
    76
1070
     0
1070
    75
1070
     0
1070
   282
1070
     0
1070
   281
1070
     0
1070
    71
1070
     0
1070
    74
1070
     0
1070
   279
1070
     0
1070
   173
1070
     1
1070
   340
1005
F3
1070
   271
1070
     2
1070
   272
1070
     2
1070
    77
1070
     1
1070
    73
1070
     1
1070
   171
1070
     3
1070
   274
1070
     4
1070
   177
1070
    35
1070
   176
1070
    35
1070
   178
1070
    35
1070
    48
1040
-0.1
1070
    41
1040
3.5
1070
   147
1040
1.75
1070
    42
1040
1.5875
1070
    44
1040
2.0
1070
   140
1040
3.5
1002
}
1001
ACAD_DSTYLE_DIM_LINETYPE
1070
   380
1005
16
1001
ACAD_DSTYLE_DIM_EXT1_LINETYPE
1070
   381
1005
16
1001
ACAD_DSTYLE_DIM_EXT2_LINETYPE
1070
   382
1005
16
0
ENDSEC
0
SECTION
2
OBJECTS
0
DICTIONARY
5
1f6
330
0
100
AcDbDictionary
280
0
281
1
3
ACAD_GROUP
350
1f7
3
ACAD_MLINESTYLE
350
1f8
0
DICTIONARY
5
1f7
330
0
100
AcDbDictionary
280
0
281
1
0
DICTIONARY
5
1f8
330
0
100
AcDbDictionary
280
0
281
1
3
Standard
350
18
0
MLINESTYLE
5
18
330
1f8
100
AcDbMlineStyle
2
Standard
70
0
3

62
256
51
90
52
90
71
2
49
-0.5
62
256
6
ByLayer
49
0.5
62
256
6
ByLayer
0
RASTERVARIABLES
5
1e4
330

100
AcDbRasterVariables
90
0
70
1
71
1
72
1
0
ENDSEC
0
EOF
