0
SECTION
2
HEADER
9
$ACADVER
1
AC1015
9
$DWGCODEPAGE
3
ANSI_1252
9
$HANDSEED
5
203
9
$ANGBASE
50
0
9
$ANGDIR
70
0
9
$ATTMODE
70
1
9
$AUNITS
70
0
9
$AUPREC
70
0
9
$CECOLOR
62
256
9
$CELTSCALE
40
1
9
$CELTYPE
6
ByLayer
9
$CELWEIGHT
370
18
9
$CLAYER
8
0
9
$CMLJUST
70
0
9
$CMLSCALE
40
1
9
$CMLSTYLE
2
Standard
9
$DIMSTYLE
2
Standard
9
$TEXTSIZE
40
0.2
9
$TEXTSTYLE
7
Standard
9
$LUNITS
70
2
9
$LUPREC
70
4
9
$EXTNAMES
290
1
9
$INSUNITS
70
4
9
$LTSCALE
40
1
9
$LWDISPLAY
290
1
9
$PDMODE
70
0
9
$PDSIZE
40
0
9
$PLINEGEN
70
0
0
ENDSEC
0
SECTION
2
CLASSES
0
CLASS
1
RASTERVARIABLES
2
AcDbRasterVariables
3
ISM
90
0
280
0
281
0
0
ENDSEC
0
SECTION
2
TABLES
0
TABLE
2
VPORT
5
1f9
100
AcDbSymbolTable
0
VPORT
5
1
100
AcDbSymbolTableRecord
100
AcDbViewportTableRecord
2
*Active
70
0
10
0
20
0
11
1
21
1
12
-1
22
1
13
0
23
0
14
0.5
24
0.5
15
10
25
10
16
0
26
0
36
1
17
0
27
0
37
0
0
ENDTAB
0
TABLE
2
LTYPE
5
1fa
100
AcDbSymbolTable
0
LTYPE
5
14
100
AcDbSymbolTableRecord
100
AcDbLinetypeTableRecord
70
0
2
ByBlock
3

72
65
73
0
40
0
0
LTYPE
5
15
100
AcDbSymbolTableRecord
100
AcDbLinetypeTableRecord
70
0
2
ByLayer
3

72
65
73
0
40
0
0
LTYPE
5
16
100
AcDbSymbolTableRecord
100
AcDbLinetypeTableRecord
70
0
2
Continuous
3
Solid line
72
65
73
0
40
0
0
LTYPE
5
6E
100
AcDbSymbolTableRecord
100
AcDbLinetypeTableRecord
70
0
2
CENTER
3
____ _ ____ _ ____ _ ____
72
65
73
4
40
47.5
49
22
74
0
49
-8.5
74
0
49
8.5
74
0
49
-8.5
74
0
0
LTYPE
5
6F
100
AcDbSymbolTableRecord
100
AcDbLinetypeTableRecord
70
0
2
DASHED
3
__ __ __ __ __ __ __ __ __
72
65
73
2
40
25.72
49
12.86
74
0
49
-12.86
74
0
0
ENDTAB
0
TABLE
2
LAYER
5
1fb
100
AcDbSymbolTable
0
LAYER
5
10
100
AcDbSymbolTableRecord
100
AcDbLayerTableRecord
2
0
70
0
62
7
6
Continuous
290
1
370
-3
390
0
0
LAYER
5
71
100
AcDbSymbolTableRecord
100
AcDbLayerTableRecord
2
80
70
0
62
-6
6
Continuous
290
1
370
-3
390
0
0
LAYER
5
73
100
AcDbSymbolTableRecord
100
AcDbLayerTableRecord
2
81
70
0
62
-3
6
Continuous
290
1
370
-3
390
0
0
LAYER
5
75
100
AcDbSymbolTableRecord
100
AcDbLayerTableRecord
2
1
70
0
62
4
6
Continuous
290
1
370
-3
390
0
0
LAYER
5
85
100
AcDbSymbolTableRecord
100
AcDbLayerTableRecord
2
4
70
0
62
-2
6
CENTER
290
1
370
-3
390
0
0
LAYER
5
9E
100
AcDbSymbolTableRecord
100
AcDbLayerTableRecord
2
2
70
0
62
7
6
Continuous
290
1
370
-3
390
0
0
LAYER
5
10E
100
AcDbSymbolTableRecord
100
AcDbLayerTableRecord
2
Defpoints
70
0
62
7
6
Continuous
290
0
370
-3
390
0
0
LAYER
5
1e5
100
AcDbSymbolTableRecord
100
AcDbLayerTableRecord
2
SK1
70
0
62
4
6
Continuous
290
1
370
-3
390
0
0
LAYER
5
1e6
100
AcDbSymbolTableRecord
100
AcDbLayerTableRecord
2
SK4
70
0
62
2
6
CENTER
290
1
370
-3
390
0
0
LAYER
5
1e7
100
AcDbSymbolTableRecord
100
AcDbLayerTableRecord
2
SK2
70
0
62
7
6
Continuous
290
1
370
-3
390
0
0
LAYER
5
1e8
100
AcDbSymbolTableRecord
100
AcDbLayerTableRecord
2
SK6
70
0
62
5
6
Continuous
290
1
370
-3
390
0
0
ENDTAB
0
TABLE
2
STYLE
5
1fc
100
AcDbSymbolTable
0
STYLE
5
11
100
AcDbSymbolTableRecord
100
AcDbTextStyleTableRecord
2
Standard
3
txt
70
0
71
0
40
0
41
1
42
0
50
0
0
STYLE
5
F3
100
AcDbSymbolTableRecord
100
AcDbTextStyleTableRecord
2
iso_b_vert
3
simplex.shx
70
0
71
0
40
0
41
1
42
0
50
0
0
STYLE
5
F4
100
AcDbSymbolTableRecord
100
AcDbTextStyleTableRecord
2
DWGDirectTextStyle
3
simplex
70
0
71
0
40
0
41
1
42
0
50
0
0
ENDTAB
0
TABLE
2
DIMSTYLE
5
1fd
100
AcDbSymbolTable
100
AcDbDimStyleTable
0
DIMSTYLE
105
27
100
AcDbSymbolTableRecord
100
AcDbDimStyleTableRecord
2
Standard
70
0
3
<>
41
0.18
42
0.0625
44
0.18
140
0.18
147
0.09
73
0
74
0
77
1
271
2
275
0
278
52
280
0
340
11
0
ENDTAB
0
TABLE
2
VIEW
5
1fe
100
AcDbSymbolTable
0
ENDTAB
0
TABLE
2
UCS
5
1ff
100
AcDbSymbolTable
0
ENDTAB
0
TABLE
2
APPID
5
200
100
AcDbSymbolTable
0
APPID
5
12
100
AcDbSymbolTableRecord
100
AcDbRegAppTableRecord
2
ACAD
70
0
0
APPID
5
10A
100
AcDbSymbolTableRecord
100
AcDbRegAppTableRecord
2
ACAD_DSTYLE_DIMBREAK
70
0
0
APPID
5
1A4
100
AcDbSymbolTableRecord
100
AcDbRegAppTableRecord
2
ACAD_DSTYLE_DIM_LINETYPE
70
0
0
APPID
5
1A5
100
AcDbSymbolTableRecord
100
AcDbRegAppTableRecord
2
ACAD_DSTYLE_DIM_EXT1_LINETYPE
70
0
0
APPID
5
1A6
100
AcDbSymbolTableRecord
100
AcDbRegAppTableRecord
2
ACAD_DSTYLE_DIM_EXT2_LINETYPE
70
0
0
APPID
5
1E1
100
AcDbSymbolTableRecord
100
AcDbRegAppTableRecord
2
ACAD_MLEADERVER
70
0
0
ENDTAB
0
TABLE
2
BLOCK_RECORD
5
201
100
AcDbSymbolTable
0
BLOCK_RECORD
5
1F
100
AcDbSymbolTableRecord
100
AcDbBlockTableRecord
2
*Model_Space
340
0
70
0
0
BLOCK_RECORD
5
1B
100
AcDbSymbolTableRecord
100
AcDbBlockTableRecord
2
*Paper_Space
340
0
70
0
0
BLOCK_RECORD
5
23
100
AcDbSymbolTableRecord
100
AcDbBlockTableRecord
2
*Paper_Space0
340
0
70
0
0
BLOCK_RECORD
5
10F
100
AcDbSymbolTableRecord
100
AcDbBlockTableRecord
2
*D1
340
0
70
0
0
BLOCK_RECORD
5
11B
100
AcDbSymbolTableRecord
100
AcDbBlockTableRecord
2
_U0
340
0
70
0
0
BLOCK_RECORD
5
127
100
AcDbSymbolTableRecord
100
AcDbBlockTableRecord
2
*D3
340
0
70
0
0
BLOCK_RECORD
5
133
100
AcDbSymbolTableRecord
100
AcDbBlockTableRecord
2
_U1
340
0
70
0
0
BLOCK_RECORD
5
13F
100
AcDbSymbolTableRecord
100
AcDbBlockTableRecord
2
*D5
340
0
70
0
0
BLOCK_RECORD
5
14B
100
AcDbSymbolTableRecord
100
AcDbBlockTableRecord
2
_U2
340
0
70
0
0
BLOCK_RECORD
5
157
100
AcDbSymbolTableRecord
100
AcDbBlockTableRecord
2
*D7
340
0
70
0
0
BLOCK_RECORD
5
165
100
AcDbSymbolTableRecord
100
AcDbBlockTableRecord
2
_U3
340
0
70
0
0
BLOCK_RECORD
5
171
100
AcDbSymbolTableRecord
100
AcDbBlockTableRecord
2
*D9
340
0
70
0
0
BLOCK_RECORD
5
17D
100
AcDbSymbolTableRecord
100
AcDbBlockTableRecord
2
_U4
340
0
70
0
0
ENDTAB
0
ENDSEC
0
SECTION
2
BLOCKS
0
BLOCK
5
20
100
AcDbEntity
8
0
100
AcDbBlockBegin
2
*Model_Space
70
0
10
0
20
0
30
0
3
*Model_Space
0
ENDBLK
5
21
100
AcDbEntity
8
0
100
AcDbBlockEnd
0
BLOCK
5
1C
100
AcDbEntity
8
0
100
AcDbBlockBegin
2
*Paper_Space
70
0
10
0
20
0
30
0
3
*Paper_Space
0
ENDBLK
5
1D
100
AcDbEntity
8
0
100
AcDbBlockEnd
0
BLOCK
5
24
100
AcDbEntity
8
0
100
AcDbBlockBegin
2
*Paper_Space0
70
0
10
0
20
0
30
0
3
*Paper_Space0
0
ENDBLK
5
25
100
AcDbEntity
8
0
100
AcDbBlockEnd
0
BLOCK
5
110
100
AcDbEntity
8
0
100
AcDbBlockBegin
2
*D1
70
1
10
0
20
0
30
0
3
*D1
0
LINE
5
112
100
AcDbEntity
8
0
62
256
6
ByLayer
370
-2
48
1
60
0
100
AcDbLine
10
0
20
-1.5875
30
0
11
0
21
-13.913398
31
0
39
0
210
0
220
0
230
1
0
LINE
5
113
100
AcDbEntity
8
0
62
256
6
ByLayer
370
-2
48
1
60
0
100
AcDbLine
10
29.3295
20
-3.2875
30
0
11
29.3295
21
-13.913398
31
0
39
0
210
0
220
0
230
1
0
LINE
5
114
100
AcDbEntity
8
0
62
256
6
ByLayer
370
-2
48
1
60
0
100
AcDbLine
10
3.5
20
-11.913398
30
0
11
25.8295
21
-11.913398
31
0
39
0
210
0
220
0
230
1
0
SOLID
5
115
100
AcDbEntity
8
0
62
256
6
ByLayer
370
-1
48
1
60
0
100
AcDbTrace
10
3.5
20
-11.330065
30
0
11
3.5
21
-12.496732
31
0
12
0
22
-11.913398
32
0
13
0
23
-11.913398
33
0
39
0
210
0
220
0
230
1
0
SOLID
5
116
100
AcDbEntity
8
0
62
256
6
ByLayer
370
-1
48
1
60
0
100
AcDbTrace
10
25.8295
20
-12.496732
30
0
11
25.8295
21
-11.330065
31
0
12
29.3295
22
-11.913398
32
0
13
29.3295
23
-11.913398
33
0
39
0
210
0
220
0
230
1
0
MTEXT
5
117
100
AcDbEntity
8
0
62
256
6
ByLayer
370
18
48
1
60
0
100
AcDbMText
10
14.66475
20
-4.913398
30
0
210
0
220
0
230
1
1
\A1;29.33
40
3.5
41
0
44
1
50
0
71
5
72
5
7
iso_b_vert
0
POINT
5
118
100
AcDbEntity
8
Defpoints
62
0
6
ByLayer
370
-1
48
1
60
0
100
AcDbPoint
10
0
20
0
30
0
39
0
210
0
220
0
230
1
50
360
0
POINT
5
119
100
AcDbEntity
8
Defpoints
62
0
6
ByLayer
370
-1
48
1
60
0
100
AcDbPoint
10
29.3295
20
-1.7
30
0
39
0
210
0
220
0
230
1
50
360
0
POINT
5
11A
100
AcDbEntity
8
Defpoints
62
0
6
ByLayer
370
-1
48
1
60
0
100
AcDbPoint
10
29.3295
20
-11.913398
30
0
39
0
210
0
220
0
230
1
50
360
0
ENDBLK
5
111
100
AcDbEntity
8
0
100
AcDbBlockEnd
0
BLOCK
5
122
100
AcDbEntity
8
0
100
AcDbBlockBegin
2
_U0
70
0
10
0
20
0
30
0
3
_U0
0
MTEXT
5
11C
100
AcDbEntity
8
2
62
256
6
ByLayer
370
13
48
1
60
0
100
AcDbMText
10
9.527451
20
-10.880765
30
0
210
0
220
0
230
1
1
\W0.7317;29,33
40
3.5
41
0
44
1.084337
50
0
71
7
72
5
7
iso_b_vert
0
LINE
5
11D
100
AcDbEntity
8
2
62
256
6
ByLayer
370
13
48
1
60
0
100
AcDbLine
10
0
20
-1.5875
30
0
11
0
21
-13.913398
31
0
39
0
210
0
220
0
230
1
0
LINE
5
11E
100
AcDbEntity
8
2
62
256
6
ByLayer
370
13
48
1
60
0
100
AcDbLine
10
29.3295
20
-3.2875
30
0
11
29.3295
21
-13.913398
31
0
39
0
210
0
220
0
230
1
0
LINE
5
11F
100
AcDbEntity
8
2
62
256
6
ByLayer
370
13
48
1
60
0
100
AcDbLine
10
0
20
-11.913398
30
0
11
29.3295
21
-11.913398
31
0
39
0
210
0
220
0
230
1
0
SOLID
5
120
100
AcDbEntity
8
2
62
256
6
ByLayer
370
18
48
1
60
0
100
AcDbTrace
10
0
20
-11.913398
30
0
11
3.499998
21
-11.452615
31
0
12
3.500002
22
-12.374182
32
0
13
3.500002
23
-12.374182
33
0
39
0
210
0
220
0
230
1
0
SOLID
5
121
100
AcDbEntity
8
2
62
256
6
ByLayer
370
18
48
1
60
0
100
AcDbTrace
10
29.3295
20
-11.913398
30
0
11
25.829502
21
-12.374182
31
0
12
25.829498
22
-11.452615
32
0
13
25.829498
23
-11.452615
33
0
39
0
210
0
220
0
230
1
0
ENDBLK
5
123
100
AcDbEntity
8
0
100
AcDbBlockEnd
0
BLOCK
5
128
100
AcDbEntity
8
0
100
AcDbBlockBegin
2
*D3
70
1
10
0
20
0
30
0
3
*D3
0
LINE
5
12A
100
AcDbEntity
8
0
62
256
6
ByLayer
370
-2
48
1
60
0
100
AcDbLine
10
-36
20
-4.5875
30
0
11
-36
21
-33.692985
31
0
39
0
210
0
220
0
230
1
0
LINE
5
12B
100
AcDbEntity
8
0
62
256
6
ByLayer
370
-2
48
1
60
0
100
AcDbLine
10
30
20
-1.5875
30
0
11
30
21
-33.692985
31
0
39
0
210
0
220
0
230
1
0
LINE
5
12C
100
AcDbEntity
8
0
62
256
6
ByLayer
370
-2
48
1
60
0
100
AcDbLine
10
-32.5
20
-31.692985
30
0
11
26.5
21
-31.692985
31
0
39
0
210
0
220
0
230
1
0
SOLID
5
12D
100
AcDbEntity
8
0
62
256
6
ByLayer
370
-1
48
1
60
0
100
AcDbTrace
10
-32.5
20
-31.109652
30
0
11
-32.5
21
-32.276319
31
0
12
-36
22
-31.692985
32
0
13
-36
23
-31.692985
33
0
39
0
210
0
220
0
230
1
0
SOLID
5
12E
100
AcDbEntity
8
0
62
256
6
ByLayer
370
-1
48
1
60
0
100
AcDbTrace
10
26.5
20
-32.276319
30
0
11
26.5
21
-31.109652
31
0
12
30
22
-31.692985
32
0
13
30
23
-31.692985
33
0
39
0
210
0
220
0
230
1
0
MTEXT
5
12F
100
AcDbEntity
8
0
62
256
6
ByLayer
370
18
48
1
60
0
100
AcDbMText
10
-3
20
-24.692985
30
0
210
0
220
0
230
1
1
\A1;66.00
40
3.5
41
0
44
1
50
0
71
5
72
5
7
iso_b_vert
0
POINT
5
130
100
AcDbEntity
8
Defpoints
62
0
6
ByLayer
370
-1
48
1
60
0
100
AcDbPoint
10
-36
20
-3
30
0
39
0
210
0
220
0
230
1
50
360
0
POINT
5
131
100
AcDbEntity
8
Defpoints
62
0
6
ByLayer
370
-1
48
1
60
0
100
AcDbPoint
10
30
20
0
30
0
39
0
210
0
220
0
230
1
50
360
0
POINT
5
132
100
AcDbEntity
8
Defpoints
62
0
6
ByLayer
370
-1
48
1
60
0
100
AcDbPoint
10
30
20
-31.692985
30
0
39
0
210
0
220
0
230
1
50
360
0
ENDBLK
5
129
100
AcDbEntity
8
0
100
AcDbBlockEnd
0
BLOCK
5
13A
100
AcDbEntity
8
0
100
AcDbBlockBegin
2
_U1
70
0
10
0
20
0
30
0
3
_U1
0
MTEXT
5
134
100
AcDbEntity
8
SK2
62
256
6
ByLayer
370
13
48
1
60
0
100
AcDbMText
10
-8.137299
20
-30.660352
30
0
210
0
220
0
230
1
1
\W0.7317;66,00
40
3.5
41
0
44
1.084337
50
0
71
7
72
5
7
iso_b_vert
0
LINE
5
135
100
AcDbEntity
8
SK2
62
256
6
ByLayer
370
13
48
1
60
0
100
AcDbLine
10
-36
20
-4.5875
30
0
11
-36
21
-33.692985
31
0
39
0
210
0
220
0
230
1
0
LINE
5
136
100
AcDbEntity
8
SK2
62
256
6
ByLayer
370
13
48
1
60
0
100
AcDbLine
10
30
20
-1.5875
30
0
11
30
21
-33.692985
31
0
39
0
210
0
220
0
230
1
0
LINE
5
137
100
AcDbEntity
8
SK2
62
256
6
ByLayer
370
13
48
1
60
0
100
AcDbLine
10
-36
20
-31.692985
30
0
11
30
21
-31.692985
31
0
39
0
210
0
220
0
230
1
0
SOLID
5
138
100
AcDbEntity
8
SK2
62
256
6
ByLayer
370
18
48
1
60
0
100
AcDbTrace
10
-36
20
-31.692985
30
0
11
-32.500002
21
-31.232202
31
0
12
-32.499998
22
-32.153769
32
0
13
-32.499998
23
-32.153769
33
0
39
0
210
0
220
0
230
1
0
SOLID
5
139
100
AcDbEntity
8
SK2
62
256
6
ByLayer
370
18
48
1
60
0
100
AcDbTrace
10
30
20
-31.692985
30
0
11
26.500002
21
-32.153769
31
0
12
26.499998
22
-31.232202
32
0
13
26.499998
23
-31.232202
33
0
39
0
210
0
220
0
230
1
0
ENDBLK
5
13B
100
AcDbEntity
8
0
100
AcDbBlockEnd
0
BLOCK
5
140
100
AcDbEntity
8
0
100
AcDbBlockBegin
2
*D5
70
1
10
0
20
0
30
0
3
*D5
0
LINE
5
142
100
AcDbEntity
8
0
62
256
6
ByLayer
370
-2
48
1
60
0
100
AcDbLine
10
12.33
20
3.2875
30
0
11
12.33
21
15.309119
31
0
39
0
210
0
220
0
230
1
0
LINE
5
143
100
AcDbEntity
8
0
62
256
6
ByLayer
370
-2
48
1
60
0
100
AcDbLine
10
30
20
1.5875
30
0
11
30
21
15.309119
31
0
39
0
210
0
220
0
230
1
0
LINE
5
144
100
AcDbEntity
8
0
62
256
6
ByLayer
370
-2
48
1
60
0
100
AcDbLine
10
15.83
20
13.309119
30
0
11
26.5
21
13.309119
31
0
39
0
210
0
220
0
230
1
0
SOLID
5
145
100
AcDbEntity
8
0
62
256
6
ByLayer
370
-1
48
1
60
0
100
AcDbTrace
10
15.83
20
13.892453
30
0
11
15.83
21
12.725786
31
0
12
12.33
22
13.309119
32
0
13
12.33
23
13.309119
33
0
39
0
210
0
220
0
230
1
0
SOLID
5
146
100
AcDbEntity
8
0
62
256
6
ByLayer
370
-1
48
1
60
0
100
AcDbTrace
10
26.5
20
12.725786
30
0
11
26.5
21
13.892453
31
0
12
30
22
13.309119
32
0
13
30
23
13.309119
33
0
39
0
210
0
220
0
230
1
0
MTEXT
5
147
100
AcDbEntity
8
0
62
256
6
ByLayer
370
18
48
1
60
0
100
AcDbMText
10
21.165
20
20.309119
30
0
210
0
220
0
230
1
1
\A1;17.67
40
3.5
41
0
44
1
50
0
71
5
72
5
7
iso_b_vert
0
POINT
5
148
100
AcDbEntity
8
Defpoints
62
0
6
ByLayer
370
-1
48
1
60
0
100
AcDbPoint
10
12.33
20
1.7
30
0
39
0
210
0
220
0
230
1
50
360
0
POINT
5
149
100
AcDbEntity
8
Defpoints
62
0
6
ByLayer
370
-1
48
1
60
0
100
AcDbPoint
10
30
20
0
30
0
39
0
210
0
220
0
230
1
50
360
0
POINT
5
14A
100
AcDbEntity
8
Defpoints
62
0
6
ByLayer
370
-1
48
1
60
0
100
AcDbPoint
10
30
20
13.309119
30
0
39
0
210
0
220
0
230
1
50
360
0
ENDBLK
5
141
100
AcDbEntity
8
0
100
AcDbBlockEnd
0
BLOCK
5
152
100
AcDbEntity
8
0
100
AcDbBlockBegin
2
_U2
70
0
10
0
20
0
30
0
3
_U2
0
MTEXT
5
14C
100
AcDbEntity
8
SK2
62
256
6
ByLayer
370
13
48
1
60
0
100
AcDbMText
10
16.465135
20
14.341753
30
0
210
0
220
0
230
1
1
\W0.6713;17,67
40
3.5
41
0
44
1.084337
50
0
71
7
72
5
7
iso_b_vert
0
LINE
5
14D
100
AcDbEntity
8
SK2
62
256
6
ByLayer
370
13
48
1
60
0
100
AcDbLine
10
12.33
20
3.2875
30
0
11
12.33
21
15.309119
31
0
39
0
210
0
220
0
230
1
0
LINE
5
14E
100
AcDbEntity
8
SK2
62
256
6
ByLayer
370
13
48
1
60
0
100
AcDbLine
10
30
20
1.5875
30
0
11
30
21
15.309119
31
0
39
0
210
0
220
0
230
1
0
LINE
5
14F
100
AcDbEntity
8
SK2
62
256
6
ByLayer
370
13
48
1
60
0
100
AcDbLine
10
12.33
20
13.309119
30
0
11
30
21
13.309119
31
0
39
0
210
0
220
0
230
1
0
SOLID
5
150
100
AcDbEntity
8
SK2
62
256
6
ByLayer
370
18
48
1
60
0
100
AcDbTrace
10
12.33
20
13.309119
30
0
11
15.829998
21
13.769903
31
0
12
15.830002
22
12.848335
32
0
13
15.830002
23
12.848335
33
0
39
0
210
0
220
0
230
1
0
SOLID
5
151
100
AcDbEntity
8
SK2
62
256
6
ByLayer
370
18
48
1
60
0
100
AcDbTrace
10
30
20
13.309119
30
0
11
26.500002
21
12.848335
31
0
12
26.499998
22
13.769903
32
0
13
26.499998
23
13.769903
33
0
39
0
210
0
220
0
230
1
0
ENDBLK
5
153
100
AcDbEntity
8
0
100
AcDbBlockEnd
0
BLOCK
5
158
100
AcDbEntity
8
0
100
AcDbBlockBegin
2
*D7
70
1
10
0
20
0
30
0
3
*D7
0
LINE
5
15A
100
AcDbEntity
8
0
62
256
6
ByLayer
370
-2
48
1
60
0
100
AcDbLine
10
30
20
-1.5875
30
0
11
30
21
-16.502503
31
0
39
0
210
0
220
0
230
1
0
LINE
5
15B
100
AcDbEntity
8
0
62
256
6
ByLayer
370
-2
48
1
60
0
100
AcDbLine
10
29.3295
20
-3.2875
30
0
11
29.3295
21
-16.502503
31
0
39
0
210
0
220
0
230
1
0
LINE
5
15C
100
AcDbEntity
8
0
62
256
6
ByLayer
370
-2
48
1
60
0
100
AcDbLine
10
30
20
-14.502503
30
0
11
58.166667
21
-14.502503
31
0
39
0
210
0
220
0
230
1
0
LINE
5
15D
100
AcDbEntity
8
0
62
256
6
ByLayer
370
-2
48
1
60
0
100
AcDbLine
10
33.5
20
-14.502503
30
0
11
37
21
-14.502503
31
0
39
0
210
0
220
0
230
1
0
LINE
5
15E
100
AcDbEntity
8
0
62
256
6
ByLayer
370
-2
48
1
60
0
100
AcDbLine
10
25.8295
20
-14.502503
30
0
11
22.3295
21
-14.502503
31
0
39
0
210
0
220
0
230
1
0
SOLID
5
15F
100
AcDbEntity
8
0
62
256
6
ByLayer
370
-1
48
1
60
0
100
AcDbTrace
10
33.5
20
-13.91917
30
0
11
33.5
21
-15.085837
31
0
12
30
22
-14.502503
32
0
13
30
23
-14.502503
33
0
39
0
210
0
220
0
230
1
0
SOLID
5
160
100
AcDbEntity
8
0
62
256
6
ByLayer
370
-1
48
1
60
0
100
AcDbTrace
10
25.8295
20
-15.085837
30
0
11
25.8295
21
-13.91917
31
0
12
29.3295
22
-14.502503
32
0
13
29.3295
23
-14.502503
33
0
39
0
210
0
220
0
230
1
0
MTEXT
5
161
100
AcDbEntity
8
0
62
256
6
ByLayer
370
18
48
1
60
0
100
AcDbMText
10
47.583333
20
-7.502503
30
0
210
0
220
0
230
1
1
\A1;0.67
40
3.5
41
0
44
1
50
0
71
5
72
5
7
iso_b_vert
0
POINT
5
162
100
AcDbEntity
8
Defpoints
62
0
6
ByLayer
370
-1
48
1
60
0
100
AcDbPoint
10
30
20
0
30
0
39
0
210
0
220
0
230
1
50
360
0
POINT
5
163
100
AcDbEntity
8
Defpoints
62
0
6
ByLayer
370
-1
48
1
60
0
100
AcDbPoint
10
29.3295
20
-1.7
30
0
39
0
210
0
220
0
230
1
50
360
0
POINT
5
164
100
AcDbEntity
8
Defpoints
62
0
6
ByLayer
370
-1
48
1
60
0
100
AcDbPoint
10
29.3295
20
-14.502503
30
0
39
0
210
0
220
0
230
1
50
360
0
ENDBLK
5
159
100
AcDbEntity
8
0
100
AcDbBlockEnd
0
BLOCK
5
16C
100
AcDbEntity
8
0
100
AcDbBlockBegin
2
_U3
70
0
10
0
20
0
30
0
3
_U3
0
MTEXT
5
166
100
AcDbEntity
8
SK2
62
256
6
ByLayer
370
13
48
1
60
0
100
AcDbMText
10
36.15186
20
-13.46987
30
0
210
0
220
0
230
1
1
\W0.7150;0,67
40
3.5
41
0
44
1.084337
50
0
71
7
72
5
7
iso_b_vert
0
LINE
5
167
100
AcDbEntity
8
SK2
62
256
6
ByLayer
370
13
48
1
60
0
100
AcDbLine
10
30
20
-1.5875
30
0
11
30
21
-16.502503
31
0
39
0
210
0
220
0
230
1
0
LINE
5
168
100
AcDbEntity
8
SK2
62
256
6
ByLayer
370
13
48
1
60
0
100
AcDbLine
10
29.3295
20
-3.2875
30
0
11
29.3295
21
-16.502503
31
0
39
0
210
0
220
0
230
1
0
LINE
5
169
100
AcDbEntity
8
SK2
62
256
6
ByLayer
370
13
48
1
60
0
100
AcDbLine
10
20.5795
20
-14.502503
30
0
11
43.996491
21
-14.502503
31
0
39
0
210
0
220
0
230
1
0
SOLID
5
16A
100
AcDbEntity
8
SK2
62
256
6
ByLayer
370
18
48
1
60
0
100
AcDbTrace
10
30
20
-14.502503
30
0
11
33.499998
21
-14.041719
31
0
12
33.500002
22
-14.963287
32
0
13
33.500002
23
-14.963287
33
0
39
0
210
0
220
0
230
1
0
SOLID
5
16B
100
AcDbEntity
8
SK2
62
256
6
ByLayer
370
18
48
1
60
0
100
AcDbTrace
10
29.3295
20
-14.502503
30
0
11
25.829502
21
-14.963287
31
0
12
25.829498
22
-14.041719
32
0
13
25.829498
23
-14.041719
33
0
39
0
210
0
220
0
230
1
0
ENDBLK
5
16D
100
AcDbEntity
8
0
100
AcDbBlockEnd
0
BLOCK
5
172
100
AcDbEntity
8
0
100
AcDbBlockBegin
2
*D9
70
1
10
0
20
0
30
0
3
*D9
0
LINE
5
174
100
AcDbEntity
8
0
62
256
6
ByLayer
370
-2
48
1
60
0
100
AcDbLine
10
-36
20
-4.5875
30
0
11
-36
21
-23.343428
31
0
39
0
210
0
220
0
230
1
0
LINE
5
175
100
AcDbEntity
8
0
62
256
6
ByLayer
370
-2
48
1
60
0
100
AcDbLine
10
29.3295
20
-3.2875
30
0
11
29.3295
21
-23.343428
31
0
39
0
210
0
220
0
230
1
0
LINE
5
176
100
AcDbEntity
8
0
62
256
6
ByLayer
370
-2
48
1
60
0
100
AcDbLine
10
-32.5
20
-21.343428
30
0
11
25.8295
21
-21.343428
31
0
39
0
210
0
220
0
230
1
0
SOLID
5
177
100
AcDbEntity
8
0
62
256
6
ByLayer
370
-1
48
1
60
0
100
AcDbTrace
10
-32.5
20
-20.760095
30
0
11
-32.5
21
-21.926762
31
0
12
-36
22
-21.343428
32
0
13
-36
23
-21.343428
33
0
39
0
210
0
220
0
230
1
0
SOLID
5
178
100
AcDbEntity
8
0
62
256
6
ByLayer
370
-1
48
1
60
0
100
AcDbTrace
10
25.8295
20
-21.926762
30
0
11
25.8295
21
-20.760095
31
0
12
29.3295
22
-21.343428
32
0
13
29.3295
23
-21.343428
33
0
39
0
210
0
220
0
230
1
0
MTEXT
5
179
100
AcDbEntity
8
0
62
256
6
ByLayer
370
18
48
1
60
0
100
AcDbMText
10
-3.33525
20
-14.343428
30
0
210
0
220
0
230
1
1
\A1;65.33
40
3.5
41
0
44
1
50
0
71
5
72
5
7
iso_b_vert
0
POINT
5
17A
100
AcDbEntity
8
Defpoints
62
0
6
ByLayer
370
-1
48
1
60
0
100
AcDbPoint
10
-36
20
-3
30
0
39
0
210
0
220
0
230
1
50
360
0
POINT
5
17B
100
AcDbEntity
8
Defpoints
62
0
6
ByLayer
370
-1
48
1
60
0
100
AcDbPoint
10
29.3295
20
-1.7
30
0
39
0
210
0
220
0
230
1
50
360
0
POINT
5
17C
100
AcDbEntity
8
Defpoints
62
0
6
ByLayer
370
-1
48
1
60
0
100
AcDbPoint
10
29.3295
20
-21.343428
30
0
39
0
210
0
220
0
230
1
50
360
0
ENDBLK
5
173
100
AcDbEntity
8
0
100
AcDbBlockEnd
0
BLOCK
5
184
100
AcDbEntity
8
0
100
AcDbBlockBegin
2
_U4
70
0
10
0
20
0
30
0
3
_U4
0
MTEXT
5
17E
100
AcDbEntity
8
SK2
62
256
6
ByLayer
370
13
48
1
60
0
100
AcDbMText
10
-8.472549
20
-20.310795
30
0
210
0
220
0
230
1
1
\W0.7317;65,33
40
3.5
41
0
44
1.084337
50
0
71
7
72
5
7
iso_b_vert
0
LINE
5
17F
100
AcDbEntity
8
SK2
62
256
6
ByLayer
370
13
48
1
60
0
100
AcDbLine
10
-36
20
-4.5875
30
0
11
-36
21
-23.343428
31
0
39
0
210
0
220
0
230
1
0
LINE
5
180
100
AcDbEntity
8
SK2
62
256
6
ByLayer
370
13
48
1
60
0
100
AcDbLine
10
29.3295
20
-3.2875
30
0
11
29.3295
21
-23.343428
31
0
39
0
210
0
220
0
230
1
0
LINE
5
181
100
AcDbEntity
8
SK2
62
256
6
ByLayer
370
13
48
1
60
0
100
AcDbLine
10
-36
20
-21.343428
30
0
11
29.3295
21
-21.343428
31
0
39
0
210
0
220
0
230
1
0
SOLID
5
182
100
AcDbEntity
8
SK2
62
256
6
ByLayer
370
18
48
1
60
0
100
AcDbTrace
10
-36
20
-21.343428
30
0
11
-32.500002
21
-20.882645
31
0
12
-32.499998
22
-21.804212
32
0
13
-32.499998
23
-21.804212
33
0
39
0
210
0
220
0
230
1
0
SOLID
5
183
100
AcDbEntity
8
SK2
62
256
6
ByLayer
370
18
48
1
60
0
100
AcDbTrace
10
29.3295
20
-21.343428
30
0
11
25.829502
21
-21.804212
31
0
12
25.829498
22
-20.882645
32
0
13
25.829498
23
-20.882645
33
0
39
0
210
0
220
0
230
1
0
ENDBLK
5
185
100
AcDbEntity
8
0
100
AcDbBlockEnd
0
ENDSEC
0
SECTION
2
ENTITIES
0
ARC
5
A7
100
AcDbEntity
8
1
62
256
6
ByLayer
370
18
48
1
60
0
100
AcDbCircle
39
0
10
1.663538
20
2.500203
30
0
40
0.849999999999996
210
0
220
0
230
1
100
AcDbArc
50
191.888135
51
270.103132
0
ARC
5
A8
100
AcDbEntity
8
1
62
256
6
ByLayer
370
18
48
1
60
0
100
AcDbCircle
39
0
10
1.663538
20
-2.500203
30
0
40
0.849999999999996
210
0
220
0
230
1
100
AcDbArc
50
89.896868
51
168.111865
0
ARC
5
A9
100
AcDbEntity
8
1
62
256
6
ByLayer
370
18
48
1
60
0
100
AcDbCircle
39
0
10
0
20
-2.15
30
0
40
0.850000000000003
210
0
220
0
230
1
100
AcDbArc
50
270
51
348.111865
0
ARC
5
AA
100
AcDbEntity
8
1
62
256
6
ByLayer
370
18
48
1
60
0
100
AcDbCircle
39
0
10
0
20
2.15
30
0
40
0.850000000000003
210
0
220
0
230
1
100
AcDbArc
50
11.888135
51
90
0
ELLIPSE
5
AB
100
AcDbEntity
8
1
62
256
6
ByLayer
370
18
48
1
60
0
100
AcDbEllipse
10
30.071468
20
0.000925
30
0
11
0.606176775064276
21
1.68398225680571
31
0
210
0
220
0
230
1
40
0.400048
41
2.92385626710979
42
2.94213133283506
0
ELLIPSE
5
AC
100
AcDbEntity
8
1
62
256
6
ByLayer
370
13
48
1
60
0
100
AcDbEllipse
10
6.717562
20
-49.270976
30
0
11
-55.0536716412274
21
50.4767640209202
31
0
210
0
220
0
230
1
40
0.532697
41
-1.11646268220808
42
-1.07024441351547
0
ELLIPSE
5
AD
100
AcDbEntity
8
1
62
256
6
ByLayer
370
13
48
1
60
0
100
AcDbEllipse
10
74.194174
20
43.437707
30
0
11
-61.8499999999999
21
7.57419029839139E-15
31
0
210
0
220
0
230
1
40
0.99863
41
0.768210045816667
42
0.772523907242135
0
ELLIPSE
5
AE
100
AcDbEntity
8
1
62
256
6
ByLayer
370
13
48
1
60
0
100
AcDbEllipse
10
5.840015
20
1.396385
30
0
11
0.122722825044327
21
0.273750083494306
31
0
210
0
220
0
230
1
40
0.406832
41
-2.90691534053137
42
-2.30492551747131
0
ELLIPSE
5
AF
100
AcDbEntity
8
1
62
256
6
ByLayer
370
18
48
1
60
0
100
AcDbEllipse
10
5.838928
20
2.599494
30
0
11
1
21
0
31
0
210
0
220
0
230
1
40
0.999989
41
-1.91115201278701
42
-1.56686425913505
0
ELLIPSE
5
B0
100
AcDbEntity
8
1
62
256
6
ByLayer
370
18
48
1
60
0
100
AcDbEllipse
10
5.838928
20
-2.599494
30
0
11
1
21
0
31
0
210
0
220
0
230
1
40
0.999989
41
1.5733747198763
42
1.91104043475724
0
POINT
5
70
100
AcDbEntity
8
80
62
256
6
ByLayer
370
18
48
1
60
0
100
AcDbPoint
10
0
20
0
30
0
39
0
210
0
220
0
230
1
50
360
0
POINT
5
72
100
AcDbEntity
8
81
62
256
6
ByLayer
370
18
48
1
60
0
100
AcDbPoint
10
30
20
0
30
0
39
0
210
0
220
0
230
1
50
360
0
POINT
5
74
100
AcDbEntity
8
1
62
256
6
ByLayer
370
18
48
1
60
1
100
AcDbPoint
10
29.3295
20
-1.7
30
0
39
0
210
0
220
0
230
1
50
360
0
POINT
5
76
100
AcDbEntity
8
1
62
256
6
ByLayer
370
18
48
1
60
1
100
AcDbPoint
10
-36
20
-3
30
0
39
0
210
0
220
0
230
1
50
360
0
POINT
5
77
100
AcDbEntity
8
1
62
256
6
ByLayer
370
18
48
1
60
1
100
AcDbPoint
10
12.33
20
1.7
30
0
39
0
210
0
220
0
230
1
50
360
0
POINT
5
78
100
AcDbEntity
8
1
62
256
6
ByLayer
370
18
48
1
60
1
100
AcDbPoint
10
29.3295
20
-1.7
30
0
39
0
210
0
220
0
230
1
50
360
0
POINT
5
79
100
AcDbEntity
8
1
62
256
6
ByLayer
370
18
48
1
60
1
100
AcDbPoint
10
-36
20
-3
30
0
39
0
210
0
220
0
230
1
50
360
0
POINT
5
7A
100
AcDbEntity
8
1
62
256
6
ByLayer
370
18
48
1
60
1
100
AcDbPoint
10
29.3295
20
-1.7
30
0
39
0
210
0
220
0
230
1
50
360
0
SPLINE
5
B1
100
AcDbEntity
8
1
62
256
6
ByLayer
370
18
48
1
60
0
100
AcDbSpline
70
4
71
3
72
14
73
10
40
0
40
0
40
0
40
0
40
0.232386029722845
40
0.232386029722845
40
0.488257353148563
40
0.488257353148563
40
0.744128676574282
40
0.744128676574282
40
1
40
1
40
1
40
1
41
1
10
29.3670928696751
20
0.206617625192962
30
0
41
1
10
29.3879555684229
20
0.223829512529733
30
0
41
1
10
29.4103702588433
20
0.244055105327533
30
0
41
1
10
29.459968886116
20
0.291217795106547
30
0
41
1
10
29.487090460978
20
0.318320236724532
30
0
41
1
10
29.5448988773403
20
0.375934392933516
30
0
41
1
10
29.5756328581416
20
0.406565710499535
30
0
41
1
10
29.6406630169473
20
0.465940165922831
30
0
41
1
10
29.6756004211638
20
0.495433877484203
30
0
41
1
10
29.7144018778915
20
0.520187768737969
30
0
0
SPLINE
5
B2
100
AcDbEntity
8
1
62
256
6
ByLayer
370
13
48
1
60
0
100
AcDbSpline
70
4
71
3
72
8
73
4
40
0
40
0
40
0
40
0
40
1
40
1
40
1
40
1
41
1
10
5.50327166689516
20
1.30397678817801
30
0
41
1
10
5.61211369849553
20
1.24815128891478
30
0
41
1
10
5.72503148253193
20
1.20636659574373
30
0
41
1
10
5.84048125757619
20
1.17592169350516
30
0
0
SPLINE
5
B3
100
AcDbEntity
8
1
62
256
6
ByLayer
370
18
48
1
60
0
100
AcDbSpline
70
4
71
3
72
24
73
20
40
0
40
0
40
0
40
0
40
0.176992282255899
40
0.176992282255899
40
0.265488423383848
40
0.265488423383848
40
0.353984564511798
40
0.353984564511798
40
0.530976846767697
40
0.530976846767697
40
0.619472987895647
40
0.619472987895647
40
0.707969129023596
40
0.707969129023596
40
0.884961411279495
40
0.884961411279495
40
0.973457552407445
40
0.973457552407445
40
1
40
1
40
1
40
1
41
1
10
29.2759296942996
20
0.272191664362282
30
0
41
1
10
29.0381384429077
20
0.406433504833728
30
0
41
1
10
28.8009350078972
20
0.537248141356059
30
0
41
1
10
28.4432632996397
20
0.724408131452037
30
0
41
1
10
28.3239746639447
20
0.785152553926935
30
0
41
1
10
28.0868141399916
20
0.901362411659562
30
0
41
1
10
27.9687349257122
20
0.957020371337194
30
0
41
1
10
27.6149932700943
20
1.11582983842197
30
0
41
1
10
27.3799610924943
20
1.21136625975888
30
0
41
1
10
27.0259416347359
20
1.33445755708513
30
0
41
1
10
26.907834813717
20
1.37245819393917
30
0
41
1
10
26.6703501738326
20
1.44146125919468
30
0
41
1
10
26.5509294115483
20
1.4726780570808
30
0
41
1
10
26.1933514527588
20
1.55392472747457
30
0
41
1
10
25.9559221253925
20
1.59250205814118
30
0
41
1
10
25.5983219591609
20
1.62337318628991
30
0
41
1
10
25.478800743837
20
1.62930352647871
30
0
41
1
10
25.3243991757163
20
1.63211637514067
30
0
41
1
10
25.2887957504869
20
1.6324178528229
30
0
41
1
10
25.2532174063445
20
1.63236717902149
30
0
0
SPLINE
5
B4
100
AcDbEntity
8
1
62
256
6
ByLayer
370
18
48
1
60
0
100
AcDbSpline
70
4
71
3
72
58
73
54
40
0
40
0
40
0
40
0
40
0.0542754195518985
40
0.0542754195518985
40
0.117943347107962
40
0.117943347107962
40
0.149777310885994
40
0.149777310885994
40
0.181611274664026
40
0.181611274664026
40
0.213445238442059
40
0.213445238442059
40
0.245279202220091
40
0.245279202220091
40
0.277113165998123
40
0.277113165998123
40
0.308947129776156
40
0.308947129776156
40
0.340781093554188
40
0.340781093554188
40
0.37261505733222
40
0.37261505733222
40
0.404449021110252
40
0.404449021110252
40
0.436282984888285
40
0.436282984888285
40
0.468116948666317
40
0.468116948666317
40
0.499950912444349
40
0.499950912444349
40
0.531784876222382
40
0.531784876222382
40
0.563618840000414
40
0.563618840000414
40
0.595452803778446
40
0.595452803778446
40
0.627286767556479
40
0.627286767556479
40
0.659120731334511
40
0.659120731334511
40
0.690954695112543
40
0.690954695112543
40
0.754622622668609
40
0.754622622668609
40
0.818290550224675
40
0.818290550224675
40
0.850124514002708
40
0.850124514002708
40
0.881958477780741
40
0.881958477780741
40
0.945626405336809
40
0.945626405336809
40
1
40
1
40
1
40
1
41
1
10
18.4821724870265
20
-1.15731481009405
30
0
41
1
10
18.2794366809736
20
-1.23763471640507
30
0
41
1
10
18.0780670536282
20
-1.30802765331063
30
0
41
1
10
17.6404765176622
20
-1.44060996495676
30
0
41
1
10
17.4045777350211
20
-1.49674678697087
30
0
41
1
10
17.0485327160082
20
-1.55982615322998
30
0
41
1
10
16.929503113177
20
-1.5769528378072
30
0
41
1
10
16.6900782767115
20
-1.60189609473656
30
0
41
1
10
16.570936700188
20
-1.60999518705398
30
0
41
1
10
16.3332133487992
20
-1.61911050438547
30
0
41
1
10
16.21471699319
20
-1.61974383756848
30
0
41
1
10
15.9782251479117
20
-1.61141359887304
30
0
41
1
10
15.8601017290646
20
-1.6027865187161
30
0
41
1
10
15.623729930948
20
-1.57875234655768
30
0
41
1
10
15.5055139667538
20
-1.56302223158843
30
0
41
1
10
15.2684707653286
20
-1.52228753022115
30
0
41
1
10
15.1496769838622
20
-1.49750313010537
30
0
41
1
10
14.9111283389813
20
-1.44134940894284
30
0
41
1
10
14.7911033717258
20
-1.40979725779988
30
0
41
1
10
14.5520950712806
20
-1.33818981277602
30
0
41
1
10
14.4327803034353
20
-1.29840549424384
30
0
41
1
10
14.1939761736613
20
-1.21368680036017
30
0
41
1
10
14.0745838544687
20
-1.16867871207174
30
0
41
1
10
13.8352703388893
20
-1.07146049772265
30
0
41
1
10
13.7154586819844
20
-1.01871885968723
30
0
41
1
10
13.4763398343202
20
-0.910364669648345
30
0
41
1
10
13.3568288921794
20
-0.854304835741175
30
0
41
1
10
13.1178372939047
20
-0.737471959629346
30
0
41
1
10
12.9982795298481
20
-0.676117716366264
30
0
41
1
10
12.758430762507
20
-0.55096076206695
30
0
41
1
10
12.6389615632383
20
-0.487225858915878
30
0
41
1
10
12.4008714082486
20
-0.358137616186127
30
0
41
1
10
12.2823320047388
20
-0.292502268577522
30
0
41
1
10
12.0456293375443
20
-0.160285581102102
30
0
41
1
10
11.9273123961918
20
-0.0939895455118744
30
0
41
1
10
11.690660769538
20
0.0388476666912823
30
0
41
1
10
11.5723967678053
20
0.105540102511611
30
0
41
1
10
11.3351665913646
20
0.237946377123706
30
0
41
1
10
11.216428966298
20
0.30405095165176
30
0
41
1
10
10.9777207464136
20
0.43429400136182
30
0
41
1
10
10.8574908777272
20
0.49897046963062
30
0
41
1
10
10.498672763883
20
0.687343354278056
30
0
41
1
10
10.2611789681934
20
0.806852936803921
30
0
41
1
10
9.78745244046627
20
1.02403086784545
30
0
41
1
10
9.55087973538767
20
1.12440786201802
30
0
41
1
10
9.19397487282814
20
1.25466575617594
30
0
41
1
10
9.07466757174373
20
1.29512329133064
30
0
41
1
10
8.83490895475427
20
1.36978014746134
30
0
41
1
10
8.71472828779446
20
1.40359947626985
30
0
41
1
10
8.35532683884747
20
1.4930137764257
30
0
41
1
10
8.11617929526241
20
1.53827389053029
30
0
41
1
10
7.67064599708689
20
1.59009270154345
30
0
41
1
10
7.46661267614798
20
1.60231974557956
30
0
41
1
10
7.26277512319689
20
1.60205104690064
30
0
0
SPLINE
5
B5
100
AcDbEntity
8
1
62
256
6
ByLayer
370
13
48
1
60
0
100
AcDbSpline
70
4
71
3
72
32
73
28
40
0
40
0
40
0
40
0
40
0.140400413102669
40
0.140400413102669
40
0.314601945645267
40
0.314601945645267
40
0.358152328780917
40
0.358152328780917
40
0.401702711916567
40
0.401702711916567
40
0.488803478187866
40
0.488803478187866
40
0.532353861323516
40
0.532353861323516
40
0.575904244459167
40
0.575904244459167
40
0.66300501073047
40
0.66300501073047
40
0.750105777001773
40
0.750105777001773
40
0.837206543273076
40
0.837206543273076
40
0.880756926408726
40
0.880756926408726
40
0.924307309544377
40
0.924307309544377
40
1
40
1
40
1
40
1
41
1
10
21.7019910462877
20
-1.62770357682564
30
0
41
1
10
21.3094934469184
20
-1.62693530948732
30
0
41
1
10
20.9187652790097
20
-1.58071561898822
30
0
41
1
10
20.0308805987374
20
-1.3770147715434
30
0
41
1
10
19.5478763438569
20
-1.20120728022775
30
0
41
1
10
18.9362210815096
20
-0.923984588078127
30
0
41
1
10
18.8130772818534
20
-0.865582813739877
30
0
41
1
10
18.5674675514638
20
-0.744537266830264
30
0
41
1
10
18.4450581746021
20
-0.681952324327852
30
0
41
1
10
18.0780681718221
20
-0.489504435151673
30
0
41
1
10
17.8338754864142
20
-0.354824670333471
30
0
41
1
10
17.4653719499267
20
-0.148103085835345
30
0
41
1
10
17.342156970831
20
-0.0785323079066131
30
0
41
1
10
17.0972792051956
20
0.0599474241019493
30
0
41
1
10
16.9752854413568
20
0.129054404643341
30
0
41
1
10
16.6096483310889
20
0.334129557203085
30
0
41
1
10
16.3665212384578
20
0.468235771365897
30
0
41
1
10
15.8777208940095
20
0.724518354222568
30
0
41
1
10
15.6307283360112
20
0.847239016243577
30
0
41
1
10
15.1415556669165
20
1.06898408902884
30
0
41
1
10
14.8982931489997
20
1.16876209629047
30
0
41
1
10
14.5325728846682
20
1.29792122337327
30
0
41
1
10
14.4104177837256
20
1.33740550295875
30
0
41
1
10
14.1655168660523
20
1.40943319336404
30
0
41
1
10
14.0425012303515
20
1.44206327311102
30
0
41
1
10
13.7058835907946
20
1.51966093435524
30
0
41
1
10
13.4934758457912
20
1.55599782574743
30
0
41
1
10
13.2816208007038
20
1.57948970511831
30
0
0
SPLINE
5
B6
100
AcDbEntity
8
1
62
256
6
ByLayer
370
18
48
1
60
0
100
AcDbSpline
70
4
71
3
72
28
73
24
40
0
40
0
40
0
40
0
40
0.25
40
0.25
40
0.375
40
0.375
40
0.5
40
0.5
40
0.5625
40
0.5625
40
0.625
40
0.625
40
0.6875
40
0.6875
40
0.75
40
0.75
40
0.8125
40
0.8125
40
0.875
40
0.875
40
0.9375
40
0.9375
40
1
40
1
40
1
40
1
41
1
10
5.50539474727259
20
-1.36569958728586
30
0
41
1
10
5.28879864609564
20
-1.29134860288025
30
0
41
1
10
5.07504031111063
20
-1.20140523413684
30
0
41
1
10
4.76065990984534
20
-1.03099205639009
30
0
41
1
10
4.65845038089361
20
-0.9689265403006
30
0
41
1
10
4.46169820884936
20
-0.832325517813302
30
0
41
1
10
4.366938933348
20
-0.757769971828765
30
0
41
1
10
4.23235216261833
20
-0.632780766099756
30
0
41
1
10
4.18876124627502
20
-0.588902646322822
30
0
41
1
10
4.10478608986847
20
-0.495539456667103
30
0
41
1
10
4.06454218651967
20
-0.446137921553998
30
0
41
1
10
3.99028814537715
20
-0.343011436451064
30
0
41
1
10
3.95601704999419
20
-0.289032866836152
30
0
41
1
10
3.89473080223414
20
-0.174928583661909
30
0
41
1
10
3.8683788638653
20
-0.115953910684937
30
0
41
1
10
3.826096986251
20
0.0055859624394259
30
0
41
1
10
3.81000095855433
20
0.0688587128083213
30
0
41
1
10
3.79076766451954
20
0.19747116444816
30
0
41
1
10
3.78774585925277
20
0.261407297569718
30
0
41
1
10
3.79503118683866
20
0.388527426480721
30
0
41
1
10
3.80552967313085
20
0.451508290348869
30
0
41
1
10
3.83797102455395
20
0.570735681363715
30
0
41
1
10
3.8601993581477
20
0.62832873089468
30
0
41
1
10
3.88681319188751
20
0.682361149395689
30
0
0
SPLINE
5
B7
100
AcDbEntity
8
1
62
256
6
ByLayer
370
13
48
1
60
0
100
AcDbSpline
70
4
71
3
72
106
73
102
40
0
40
0
40
0
40
0
40
0.0103905463849282
40
0.0289387396893219
40
0.0613980779720095
40
0.0660351262981103
40
0.0753092229503078
40
0.0845833196025022
40
0.0984944645807979
40
0.103131512906899
40
0.112405609559097
40
0.121679706211293
40
0.134431589108064
40
0.140227899515687
40
0.146024209923309
40
0.158776092820084
40
0.177324286124474
40
0.209783624407165
40
0.214420672733264
40
0.22369476938546
40
0.232968866037658
40
0.246880011015954
40
0.251517059342052
40
0.260791155994251
40
0.270065252646446
40
0.282817135543216
40
0.28861344595084
40
0.294409756358464
40
0.307161639255234
40
0.325709832559628
40
0.35816917084232
40
0.362806219168418
40
0.372080315820615
40
0.381354412472812
40
0.395265557451107
40
0.399902605777206
40
0.409176702429402
40
0.4184507990816
40
0.432361944059897
40
0.436998992385994
40
0.446273089038191
40
0.455547185690389
40
0.469458330668684
40
0.474095378994783
40
0.483369475646981
40
0.49264357229918
40
0.506554717277474
40
0.511191765603571
40
0.520465862255768
40
0.529739958907965
40
0.543651103886261
40
0.54828815221236
40
0.557562248864555
40
0.566836345516754
40
0.580747490495049
40
0.585384538821148
40
0.594658635473344
40
0.603932732125544
40
0.617843877103836
40
0.622480925429936
40
0.631755022082134
40
0.641029118734331
40
0.654940263712627
40
0.659577312038725
40
0.668851408690922
40
0.678125505343118
40
0.692036650321415
40
0.696673698647514
40
0.705947795299711
40
0.715221891951908
40
0.729133036930204
40
0.733770085256302
40
0.743044181908498
40
0.752318278560695
40
0.766229423538992
40
0.77086647186509
40
0.780140568517287
40
0.789414665169484
40
0.803325810147781
40
0.807962858473879
40
0.817236955126076
40
0.826511051778273
40
0.840422196756568
40
0.845059245082667
40
0.854333341734865
40
0.863607438387061
40
0.877518583365357
40
0.882155631691455
40
0.891429728343653
40
0.90070382499585
40
0.914614969974145
40
0.919252018300244
40
0.928526114952441
40
0.937800211604638
40
0.951711356582934
40
0.956348404909032
40
0.965622501561229
40
0.974896598213426
40
0.988807743191722
40
0.993444791517821
40
1
40
1
40
1
40
1
41
1
10
26.5470374630742
20
-0.713697278453395
30
0
41
1
10
26.527708897909
20
-0.715887627115251
30
0
41
1
10
26.4738772911727
20
-0.721848213676907
30
0
41
1
10
26.3596667926088
20
-0.733665818417023
30
0
41
1
10
26.2561445238878
20
-0.74311469601372
30
0
41
1
10
26.1698741536898
20
-0.750201533730746
30
0
41
1
10
26.1267435243587
20
-0.753570759441999
30
0
41
1
10
26.0663601240609
20
-0.757997461974838
30
0
41
1
10
26.0146009969525
20
-0.761492405579702
30
0
41
1
10
25.9628426235112
20
-0.764742668369706
30
0
41
1
10
25.9197121595315
20
-0.767285974861124
30
0
41
1
10
25.8614851933609
20
-0.770435620712476
30
0
41
1
10
25.8097264256242
20
-0.772944623954857
30
0
41
1
10
25.764437535635
20
-0.774925408742064
30
0
41
1
10
25.7191513293073
20
-0.776752581800167
30
0
41
1
10
25.6501448412288
20
-0.779184000734432
30
0
41
1
10
25.5315418449858
20
-0.782347159954782
30
0
41
1
10
25.4280195527115
20
-0.783800700780915
30
0
41
1
10
25.3417491715482
20
-0.78419345896404
30
0
41
1
10
25.2986185393198
20
-0.784192959212959
30
0
41
1
10
25.2382351392126
20
-0.783890653879155
30
0
41
1
10
25.1864760151941
20
-0.78332727514703
30
0
41
1
10
25.134717645529
20
-0.782511989046213
30
0
41
1
10
25.0915871830211
20
-0.781658755351287
30
0
41
1
10
25.0333602142195
20
-0.780219139923446
30
0
41
1
10
24.9816014396611
20
-0.778649273793576
30
0
41
1
10
24.9363125404938
20
-0.777061282720496
30
0
41
1
10
24.8910263235346
20
-0.775311935851391
30
0
41
1
10
24.8220198176094
20
-0.772289930261366
30
0
41
1
10
24.7034167897466
20
-0.766080686995878
30
0
41
1
10
24.5998944769347
20
-0.759419248271371
30
0
41
1
10
24.5136240914973
20
-0.753087063526721
30
0
41
1
10
24.4704934629093
20
-0.749717912070963
30
0
41
1
10
24.4101100847154
20
-0.744713422049983
30
0
41
1
10
24.3583509994707
20
-0.740140248550688
30
0
41
1
10
24.3065926889333
20
-0.735329047164669
30
0
41
1
10
24.2634622745586
20
-0.7311518388411
30
0
41
1
10
24.203079041529
20
-0.725023137046378
30
0
41
1
10
24.1513199812575
20
-0.719495023343882
30
0
41
1
10
24.0995616461797
20
-0.713735145502085
30
0
41
1
10
24.0564311976148
20
-0.708770828611193
30
0
41
1
10
23.9960479060925
20
-0.701548678864526
30
0
41
1
10
23.9442887866654
20
-0.695093611504149
30
0
41
1
10
23.8925303894658
20
-0.688414777839455
30
0
41
1
10
23.8493998927499
20
-0.682689379253645
30
0
41
1
10
23.7890165496693
20
-0.67441213166822
30
0
41
1
10
23.7372574070535
20
-0.667064621731953
30
0
41
1
10
23.6854990090552
20
-0.659502394471048
30
0
41
1
10
23.6423685271999
20
-0.6530462394214
30
0
41
1
10
23.5819852272804
20
-0.64375746347099
30
0
41
1
10
23.5302261380956
20
-0.635555926870126
30
0
41
1
10
23.4784677982742
20
-0.627149668862046
30
0
41
1
10
23.4353373604624
20
-0.619996258434924
30
0
41
1
10
23.3749541046668
20
-0.609743965219195
30
0
41
1
10
23.3231950316578
20
-0.600730602613197
30
0
41
1
10
23.2714366862548
20
-0.591523428592978
30
0
41
1
10
23.2283062296664
20
-0.583709374895534
30
0
41
1
10
23.1679229288929
20
-0.572546051247173
30
0
41
1
10
23.1161638050006
20
-0.562767183276463
30
0
41
1
10
23.0644054076041
20
-0.552806746728692
30
0
41
1
10
23.021274914496
20
-0.544372744017352
30
0
41
1
10
22.9608915832906
20
-0.532356855569191
30
0
41
1
10
22.9091324569556
20
-0.521863899239747
30
0
41
1
10
22.8573740789578
20
-0.511202558134727
30
0
41
1
10
22.8142436143282
20
-0.502192889946087
30
0
41
1
10
22.7538603359605
20
-0.489387444782949
30
0
41
1
10
22.7021012605442
20
-0.478235353137705
30
0
41
1
10
22.6503429281991
20
-0.466928907221899
30
0
41
1
10
22.6072124912679
20
-0.457390709749518
30
0
41
1
10
22.5468292273637
20
-0.443862673202091
30
0
41
1
10
22.4950701391845
20
-0.432109741539392
30
0
41
1
10
22.4433117738558
20
-0.420217281448743
30
0
41
1
10
22.4001812998266
20
-0.410200404023215
30
0
41
1
10
22.339797976693
20
-0.396020459006223
30
0
41
1
10
22.2880388375225
20
-0.383728048779972
30
0
41
1
10
22.2362804302606
20
-0.371311595827876
30
0
41
1
10
22.1931499330176
20
-0.360868229100902
30
0
41
1
10
22.1327666023664
20
-0.346110215800536
30
0
41
1
10
22.0810074816624
20
-0.333342348061905
30
0
41
1
10
22.0292491116496
20
-0.320466642762824
30
0
41
1
10
21.9861186531404
20
-0.309651293111386
30
0
41
1
10
21.9257353793348
20
-0.294392340385912
30
0
41
1
10
21.8739763023534
20
-0.28121586408497
30
0
41
1
10
21.8222179623845
20
-0.267948428192625
30
0
41
1
10
21.7790875146442
20
-0.25681788311411
30
0
41
1
10
21.7187042289531
20
-0.241138252626115
30
0
41
1
10
21.6669451171381
20
-0.227622637876266
30
0
41
1
10
21.6151867265922
20
-0.214033560118708
30
0
41
1
10
21.5720562326334
20
-0.202646712508084
30
0
41
1
10
21.5116728866418
20
-0.186629300055017
30
0
41
1
10
21.4599137345515
20
-0.172845666564314
30
0
41
1
10
21.4081553215139
20
-0.159005868143538
30
0
41
1
10
21.3650248241719
20
-0.147421713110674
30
0
41
1
10
21.3046414998676
20
-0.131148967810418
30
0
41
1
10
21.2528823892451
20
-0.117167982567338
30
0
41
1
10
21.2011240303889
20
-0.103148542510013
30
0
41
1
10
21.1579935797236
20
-0.0914267215012217
30
0
41
1
10
21.0976103121689
20
-0.0749826963673854
30
0
41
1
10
21.0458512352771
20
-0.0608768714540702
30
0
41
1
10
20.9991508909368
20
-0.0481311987704487
30
0
41
1
10
20.9783303012805
20
-0.042438273860256
30
0
41
1
10
20.9661358862863
20
-0.0391023572677227
30
0
0
SPLINE
5
B8
100
AcDbEntity
8
1
62
256
6
ByLayer
370
13
48
1
60
0
100
AcDbSpline
70
4
71
3
72
42
73
38
40
0
40
0
40
0
40
0
40
0.013623261178564
40
0.0418054537163193
40
0.0840787425229522
40
0.0981698387918298
40
0.126352031329587
40
0.154534223867339
40
0.196807512673973
40
0.210898608942851
40
0.239080801480606
40
0.267262994018362
40
0.309536282824996
40
0.323627379093872
40
0.351809571631627
40
0.379991764169383
40
0.422265052976016
40
0.436356149244893
40
0.46453834178265
40
0.492720534320405
40
0.534993823127038
40
0.549084919395916
40
0.57726711193367
40
0.605449304471425
40
0.647722593278059
40
0.661813689546937
40
0.689995882084692
40
0.718178074622447
40
0.76045136342908
40
0.774542459697958
40
0.802724652235713
40
0.830906844773468
40
0.873180133580101
40
0.887271229848979
40
0.901362326117856
40
0.943635614924489
40
1
40
1
40
1
40
1
41
1
10
8.55410651408553
20
-0.71289917536339
30
0
41
1
10
8.54576676022685
20
-0.713849836281355
30
0
41
1
10
8.52017481506465
20
-0.716738629853751
30
0
41
1
10
8.46870412496656
20
-0.722373898509119
30
0
41
1
10
8.41694504271476
20
-0.727752175852174
30
0
41
1
10
8.36518668822768
20
-0.732896206705362
30
0
41
1
10
8.32205622376762
20
-0.737026507830194
30
0
41
1
10
8.26167291115772
20
-0.742524206620885
30
0
41
1
10
8.20991377647309
20
-0.746941594906758
30
0
41
1
10
8.15815536796333
20
-0.75111909575125
30
0
41
1
10
8.1150248654601
20
-0.754439299246258
30
0
41
1
10
8.05464152113819
20
-0.758797030965098
30
0
41
1
10
8.00288238387475
20
-0.762232885810619
30
0
41
1
10
7.95112399552571
20
-0.765424204543024
30
0
41
1
10
7.90799352275891
20
-0.767918452611411
30
0
41
1
10
7.84761023414663
20
-0.771114948976987
30
0
41
1
10
7.79585115135211
20
-0.77355199687733
30
0
41
1
10
7.74409281295704
20
-0.775740674260391
30
0
41
1
10
7.70096237196466
20
-0.777395827969912
30
0
41
1
10
7.64057910454855
20
-0.779413698534114
30
0
41
1
10
7.58882001591604
20
-0.780838032306775
30
0
41
1
10
7.53706165242454
20
-0.782010986874099
30
0
41
1
10
7.49393118187081
20
-0.782816733150611
30
0
41
1
10
7.4335478670917
20
-0.783643027033605
30
0
41
1
10
7.38178873808627
20
-0.784045560678294
30
0
41
1
10
7.33003034258053
20
-0.784195958175786
30
0
41
1
10
7.28689985604814
20
-0.784148211153934
30
0
41
1
10
7.22651654154512
20
-0.783779658319617
30
0
41
1
10
7.17475743521445
20
-0.783159633670408
30
0
41
1
10
7.12299907916795
20
-0.782287804501181
30
0
41
1
10
7.07986863191462
20
-0.781387475383298
30
0
41
1
10
7.01948537205129
20
-0.779826439605841
30
0
41
1
10
6.96772630384078
20
-0.778186965757385
30
0
41
1
10
6.9245935614112
20
-0.776619102675824
30
0
41
1
10
6.88146399730346
20
-0.774916428041024
30
0
41
1
10
6.81245700345841
20
-0.771837297627997
30
0
41
1
10
6.75206918814831
20
-0.768690606824663
30
0
41
1
10
6.71756185817861
20
-0.766734093443972
30
0
0
SPLINE
5
B9
100
AcDbEntity
8
1
62
256
6
ByLayer
370
18
48
1
60
0
100
AcDbSpline
70
4
71
3
72
18
73
14
40
0
40
0
40
0
40
0
40
0.23523525868574
40
0.23523525868574
40
0.470470517371481
40
0.470470517371481
40
0.588088146714351
40
0.588088146714351
40
0.705705776057221
40
0.705705776057221
40
0.940941034742967
40
0.940941034742967
40
1
40
1
40
1
40
1
41
1
10
6.44046601801119
20
-1.53540336776803
30
0
41
1
10
6.68075329029344
20
-1.57414716751506
30
0
41
1
10
6.9182397492248
20
-1.59529308047664
30
0
41
1
10
7.3921980066624
20
-1.60619623254911
30
0
41
1
10
7.62853215086798
20
-1.5945268246636
30
0
41
1
10
7.98441226520927
20
-1.55381689894296
30
0
41
1
10
8.10334353801397
20
-1.53606219447479
30
0
41
1
10
8.34213690870337
20
-1.49212168117956
30
0
41
1
10
8.46237660612277
20
-1.46609141444586
30
0
41
1
10
8.820944033844
20
-1.37770902514885
30
0
41
1
10
9.05789415046181
20
-1.30365243594235
30
0
41
1
10
9.35383343980527
20
-1.19646158054403
30
0
41
1
10
9.41321550470803
20
-1.17406973264096
30
0
41
1
10
9.47261039591561
20
-1.15088025875349
30
0
0
SPLINE
5
BA
100
AcDbEntity
8
1
62
256
6
ByLayer
370
18
48
1
60
0
100
AcDbSpline
70
4
71
3
72
66
73
62
40
0
40
0
40
0
40
0
40
0.016859362318838
40
0.016859362318838
40
0.0486618728134228
40
0.0486618728134228
40
0.0804643833080074
40
0.0804643833080074
40
0.112266893802592
40
0.112266893802592
40
0.144069404297177
40
0.144069404297177
40
0.175871914791762
40
0.175871914791762
40
0.207674425286346
40
0.207674425286346
40
0.239476935780931
40
0.239476935780931
40
0.271279446275516
40
0.271279446275516
40
0.3030819567701
40
0.3030819567701
40
0.334884467264685
40
0.334884467264685
40
0.36668697775927
40
0.36668697775927
40
0.398489488253854
40
0.398489488253854
40
0.430291998748439
40
0.430291998748439
40
0.462094509243024
40
0.462094509243024
40
0.493897019737609
40
0.493897019737609
40
0.525699530232193
40
0.525699530232193
40
0.557502040726778
40
0.557502040726778
40
0.589304551221363
40
0.589304551221363
40
0.621107061715947
40
0.621107061715947
40
0.652909572210532
40
0.652909572210532
40
0.684712082705117
40
0.684712082705117
40
0.716514593199701
40
0.716514593199701
40
0.780119614188873
40
0.780119614188873
40
0.811922124683458
40
0.811922124683458
40
0.843724635178043
40
0.843724635178043
40
0.875527145672629
40
0.875527145672629
40
0.907329656167214
40
0.907329656167214
40
0.970934677156388
40
0.970934677156388
40
1
40
1
40
1
40
1
41
1
10
16.2474852308209
20
1.61834260752349
30
0
41
1
10
16.3109676281134
20
1.61847622443895
30
0
41
1
10
16.3745004961087
20
1.61734603456475
30
0
41
1
10
16.5578848094989
20
1.61078571805189
30
0
41
1
10
16.6774129080039
20
1.60288410823037
30
0
41
1
10
16.9164011977797
20
1.5786152806094
30
0
41
1
10
17.0358518681191
20
1.56181186040442
30
0
41
1
10
17.2751220698004
20
1.51991869689783
30
0
41
1
10
17.3952174034539
20
1.49533308350752
30
0
41
1
10
17.6344477923487
20
1.43858308140585
30
0
41
1
10
17.753916491928
20
1.4061734358786
30
0
41
1
10
17.9929197271126
20
1.33389021225244
30
0
41
1
10
18.1124956454311
20
1.29444818208299
30
0
41
1
10
18.3518054184648
20
1.20888840857575
30
0
41
1
10
18.4715862262833
20
1.16257083152064
30
0
41
1
10
18.7096599725564
20
1.0643408739316
30
0
41
1
10
18.8283084537431
20
1.01260093675785
30
0
41
1
10
19.0652194490771
20
0.90503362748936
30
0
41
1
10
19.1832430080582
20
0.848415704732616
30
0
41
1
10
19.419645026021
20
0.731452599492826
30
0
41
1
10
19.537844270265
20
0.670865870102119
30
0
41
1
10
19.7745059884852
20
0.546708641748921
30
0
41
1
10
19.8930870275687
20
0.482918637467378
30
0
41
1
10
20.1311681844481
20
0.352355050754369
30
0
41
1
10
20.2510697274346
20
0.285530641904558
30
0
41
1
10
20.4900428981649
20
0.151272513263763
30
0
41
1
10
20.6089190621813
20
0.0837263167285016
30
0
41
1
10
20.8460735118846
20
-0.0508555202243883
30
0
41
1
10
20.964343051776
20
-0.117933029825196
30
0
41
1
10
21.2006018349152
20
-0.251437064757624
30
0
41
1
10
21.3186214331889
20
-0.317777967418209
30
0
41
1
10
21.5549353363315
20
-0.448320947729144
30
0
41
1
10
21.6732436951613
20
-0.512554529918873
30
0
41
1
10
21.910507413912
20
-0.638671798992476
30
0
41
1
10
22.0292840564071
20
-0.700938517133352
30
0
41
1
10
22.2682350052127
20
-0.821322241986167
30
0
41
1
10
22.3880110111688
20
-0.879282909657377
30
0
41
1
10
22.6258849936113
20
-0.990179011253758
30
0
41
1
10
22.7444291439521
20
-1.04376548452518
30
0
41
1
10
22.9810074228211
20
-1.14403216474767
30
0
41
1
10
23.0990422041201
20
-1.19086159262835
30
0
41
1
10
23.3352347152228
20
-1.27844215011575
30
0
41
1
10
23.4532726786343
20
-1.31975141701534
30
0
41
1
10
23.6897565325744
20
-1.39507497775929
30
0
41
1
10
23.8083307037116
20
-1.42876723323985
30
0
41
1
10
24.0462671765913
20
-1.48931021770309
30
0
41
1
10
24.1658275273988
20
-1.51666507003793
30
0
41
1
10
24.5244308818095
20
-1.58639566273226
30
0
41
1
10
24.7621195705075
20
-1.61425849175745
30
0
41
1
10
25.1201096612435
20
-1.63189122946207
30
0
41
1
10
25.2399194278176
20
-1.63363766808857
30
0
41
1
10
25.478503123518
20
-1.62932656576595
30
0
41
1
10
25.5976459142911
20
-1.62341368847933
30
0
41
1
10
25.8359510833138
20
-1.60287674410685
30
0
41
1
10
25.9551910349752
20
-1.58806904131495
30
0
41
1
10
26.1940650836703
20
-1.54987855675745
30
0
41
1
10
26.3134784332437
20
-1.52664086809733
30
0
41
1
10
26.6696799766557
20
-1.44567490542664
30
0
41
1
10
26.9054223044023
20
-1.37626493682663
30
0
41
1
10
27.2488773118123
20
-1.2569870046008
30
0
41
1
10
27.3565979874749
20
-1.21669690111253
30
0
41
1
10
27.4644808717823
20
-1.17380176806955
30
0
0
SPLINE
5
BB
100
AcDbEntity
8
1
62
256
6
ByLayer
370
18
48
1
60
0
100
AcDbSpline
70
4
71
3
72
8
73
4
40
0
40
0
40
0
40
0
40
1
40
1
40
1
40
1
41
1
10
29.7096070211937
20
-0.352881648150685
30
0
41
1
10
29.7108639753325
20
-0.353267377122393
30
0
41
1
10
29.7121287987985
20
-0.353626839870742
30
0
41
1
10
29.7134012990634
20
-0.353959755631536
30
0
0
SPLINE
5
BC
100
AcDbEntity
8
1
62
256
6
ByLayer
370
18
48
1
60
0
100
AcDbSpline
70
4
71
3
72
10
73
6
40
0
40
0
40
0
40
0
40
0.5
40
0.5
40
1
40
1
40
1
40
1
41
1
10
29.3005225273256
20
-1.44905772861335
30
0
41
1
10
29.2597825696884
20
-1.37309904414826
30
0
41
1
10
29.2302676984562
20
-1.27673098449534
30
0
41
1
10
29.1960657262455
20
-1.04139639931986
30
0
41
1
10
29.1922020281231
20
-0.908588605480389
30
0
41
1
10
29.2017546602308
20
-0.760599157079696
30
0
0
SPLINE
5
BD
100
AcDbEntity
8
1
62
256
6
ByLayer
370
18
48
1
60
0
100
AcDbSpline
70
4
71
3
72
8
73
4
40
0
40
0
40
0
40
0
40
1
40
1
40
1
40
1
41
1
10
29.7328409469917
20
-0.783973347508635
30
0
41
1
10
29.7543785048292
20
-0.722723037130947
30
0
41
1
10
29.777029485427
20
-0.66345519340183
30
0
41
1
10
29.8007897423935
20
-0.60586270778461
30
0
0
SPLINE
5
BE
100
AcDbEntity
8
1
62
256
6
ByLayer
370
18
48
1
60
0
100
AcDbSpline
70
4
71
3
72
8
73
4
40
0
40
0
40
0
40
0
40
1
40
1
40
1
40
1
41
1
10
5.83917855031601
20
-1.40733626677178
30
0
41
1
10
6.03809289310271
20
-1.46164449901525
30
0
41
1
10
6.23859346722966
20
-1.5037384964117
30
0
41
1
10
6.44046601801125
20
-1.53540336776805
30
0
0
SPLINE
5
BF
100
AcDbEntity
8
1
62
256
6
ByLayer
370
18
48
1
60
0
100
AcDbSpline
70
4
71
1
72
4
73
2
40
0
40
0
40
1
40
1
41
1
10
29.343827399543
20
-1.60162033089898
30
0
41
1
10
29.7134012990658
20
-0.353959755632189
30
0
0
SPLINE
5
C0
100
AcDbEntity
8
1
62
256
6
ByLayer
370
18
48
1
60
0
100
AcDbSpline
70
4
71
3
72
16
73
12
40
0
40
0
40
0
40
0
40
0.25
40
0.25
40
0.375
40
0.375
40
0.5
40
0.5
40
0.75
40
0.75
40
1
40
1
40
1
40
1
41
1
10
29.7096070211937
20
-0.352881648150003
30
0
41
1
10
29.6803850351376
20
-0.340821641997763
30
0
41
1
10
29.6542248871688
20
-0.318100363750716
30
0
41
1
10
29.6184683723035
20
-0.271888233056359
30
0
41
1
10
29.6071626217015
20
-0.254384661227078
30
0
41
1
10
29.5862236390371
20
-0.216597626057336
30
0
41
1
10
29.5765002689536
20
-0.196203986535266
30
0
41
1
10
29.5493348719019
20
-0.13099247072708
30
0
41
1
10
29.5337567224321
20
-0.0816345195627832
30
0
41
1
10
29.5081868286294
20
0.0237992486623853
30
0
41
1
10
29.4981460824629
20
0.0797167695513963
30
0
41
1
10
29.4906237213324
20
0.138571552157572
30
0
0
SPLINE
5
C1
100
AcDbEntity
8
1
62
256
6
ByLayer
370
18
48
1
60
0
100
AcDbSpline
70
4
71
3
72
22
73
18
40
0
40
0
40
0
40
0
40
0.164921278465073
40
0.164921278465073
40
0.329842556930146
40
0.329842556930146
40
0.494763835395219
40
0.494763835395219
40
0.659685113860292
40
0.659685113860292
40
0.74214575309283
40
0.74214575309283
40
0.824606392325369
40
0.824606392325369
40
0.98952767079045
40
0.98952767079045
40
1
40
1
40
1
40
1
41
1
10
7.67893766708829
20
-0.219076283231175
30
0
41
1
10
7.90603340472103
20
-0.349947918383776
30
0
41
1
10
8.13229498637054
20
-0.477646807413208
30
0
41
1
10
8.58535977953753
20
-0.723095662237967
30
0
41
1
10
8.81266043199224
20
-0.840560993887095
30
0
41
1
10
9.26549355370975
20
-1.05684661980448
30
0
41
1
10
9.49228460146432
20
-1.1564231208109
30
0
41
1
10
9.94580903101144
20
-1.33197924375852
30
0
41
1
10
10.1717257974577
20
-1.40785511531095
30
0
41
1
10
10.5117013598922
20
-1.50139963847573
30
0
41
1
10
10.6252562016069
20
-1.52921729758913
30
0
41
1
10
10.8517662236289
20
-1.57734084477127
30
0
41
1
10
10.9649636806197
20
-1.59768119479634
30
0
41
1
10
11.3043834240207
20
-1.64757713176669
30
0
41
1
10
11.5314444523552
20
-1.66575652334953
30
0
41
1
10
11.7722691744743
20
-1.66832975851881
30
0
41
1
10
11.7866450331134
20
-1.66842029907568
30
0
41
1
10
11.8010182288134
20
-1.66844779142661
30
0
0
SPLINE
5
C2
100
AcDbEntity
8
1
62
256
6
ByLayer
370
18
48
1
60
0
100
AcDbSpline
70
4
71
3
72
48
73
44
40
0
40
0
40
0
40
0
40
0.0050044552599953
40
0.0050044552599953
40
0.0360980660331202
40
0.0360980660331202
40
0.0671916768062451
40
0.0671916768062451
40
0.129378898352493
40
0.129378898352493
40
0.160472509125618
40
0.160472509125618
40
0.191566119898742
40
0.191566119898742
40
0.253753341444991
40
0.253753341444991
40
0.315940562991241
40
0.315940562991241
40
0.37812778453749
40
0.37812778453749
40
0.44031500608374
40
0.44031500608374
40
0.502502227629989
40
0.502502227629989
40
0.564689449176239
40
0.564689449176239
40
0.626876670722488
40
0.626876670722488
40
0.689063892268738
40
0.689063892268738
40
0.751251113814988
40
0.751251113814988
40
0.813438335361239
40
0.813438335361239
40
0.844531946134365
40
0.844531946134365
40
0.875625556907492
40
0.875625556907492
40
0.906719167680619
40
0.906719167680619
40
0.937812778453746
40
0.937812778453746
40
1
40
1
40
1
40
1
41
1
10
18.4910614422947
20
1.16179672347971
30
0
41
1
10
18.509235884446
20
1.16953116129315
30
0
41
1
10
18.5274043522265
20
1.17719499845322
30
0
41
1
10
18.6584069455744
20
1.23195434656603
30
0
41
1
10
18.7714167372613
20
1.27613904629169
30
0
41
1
10
18.9974411859513
20
1.35890631850049
30
0
41
1
10
19.1107932644009
20
1.39730324341338
30
0
41
1
10
19.4499504443826
20
1.50210168410936
30
0
41
1
10
19.6752686637513
20
1.55845995949036
30
0
41
1
10
20.0145384910132
20
1.62084705989776
30
0
41
1
10
20.1277607197529
20
1.6379413470691
30
0
41
1
10
20.3535789892144
20
1.66431136004746
30
0
41
1
10
20.4664991354394
20
1.67360094296089
30
0
41
1
10
20.8050189012881
20
1.68987369263385
30
0
41
1
10
21.0316077221519
20
1.68498382229365
30
0
41
1
10
21.4830780806414
20
1.64408326666265
30
0
41
1
10
21.7086435577475
20
1.60807147894579
30
0
41
1
10
22.1611241373596
20
1.50660643426625
30
0
41
1
10
22.3863072822941
20
1.44150950174765
30
0
41
1
10
22.8377767243132
20
1.28530631155951
30
0
41
1
10
23.0641087805435
20
1.19426881907089
30
0
41
1
10
23.515073801455
20
0.992110343547182
30
0
41
1
10
23.741269797232
20
0.880422441736243
30
0
41
1
10
24.1927679759232
20
0.643206212934473
30
0
41
1
10
24.4177800326696
20
0.517665816455121
30
0
41
1
10
24.8698239852144
20
0.25823894090135
30
0
41
1
10
25.0953205157434
20
0.125101648053942
30
0
41
1
10
25.5461431506959
20
-0.1413578494234
30
0
41
1
10
25.7724647015982
20
-0.27497063093432
30
0
41
1
10
26.2232193343723
20
-0.533914835530567
30
0
41
1
10
26.4486908777831
20
-0.659945917173673
30
0
41
1
10
26.9004730383814
20
-0.897315997736541
30
0
41
1
10
27.125136493923
20
-1.0087810414918
30
0
41
1
10
27.4635547695108
20
-1.16055047380999
30
0
41
1
10
27.5767060505251
20
-1.20868683718871
30
0
41
1
10
27.8022361367895
20
-1.29894497066519
30
0
41
1
10
27.9148166867556
20
-1.3410780632837
30
0
41
1
10
28.139735350952
20
-1.41920165445646
30
0
41
1
10
28.2523558683047
20
-1.45491806689213
30
0
41
1
10
28.4778765889645
20
-1.51971296918103
30
0
41
1
10
28.5909147558064
20
-1.54881152144492
30
0
41
1
10
28.9290530885199
20
-1.62475625056024
30
0
41
1
10
29.1535582726294
20
-1.66063900416228
30
0
41
1
10
29.3788949684235
20
-1.68100118219962
30
0
0
SPLINE
5
C3
100
AcDbEntity
8
1
62
256
6
ByLayer
370
18
48
1
60
0
100
AcDbSpline
70
4
71
3
72
10
73
6
40
0
40
0
40
0
40
0
40
0.5
40
0.5
40
1
40
1
40
1
40
1
41
1
10
29.3788949684235
20
-1.68100118219962
30
0
41
1
10
29.4374206421349
20
-1.54266515088494
30
0
41
1
10
29.497255203956
20
-1.39932002827331
30
0
41
1
10
29.6167717376165
20
-1.10020544060947
30
0
41
1
10
29.6768274573349
20
-0.943269199558955
30
0
41
1
10
29.7328409469917
20
-0.783973347508635
30
0
0
SPLINE
5
C4
100
AcDbEntity
8
1
62
256
6
ByLayer
370
18
48
1
60
0
100
AcDbSpline
70
4
71
3
72
26
73
22
40
0
40
0
40
0
40
0
40
0.0625
40
0.0625
40
0.125
40
0.125
40
0.1875
40
0.1875
40
0.25
40
0.25
40
0.375
40
0.375
40
0.5
40
0.5
40
0.625
40
0.625
40
0.75
40
0.75
40
0.875
40
0.875
40
1
40
1
40
1
40
1
41
1
10
3.88681319188751
20
0.682361149395689
30
0
41
1
10
3.90552164307084
20
0.720343759256593
30
0
41
1
10
3.9332572163587
20
0.752892312288793
30
0
41
1
10
3.99809312019335
20
0.808874191473222
30
0
41
1
10
4.03441537357202
20
0.831885042991644
30
0
41
1
10
4.11193005204473
20
0.871939349577815
30
0
41
1
10
4.15277117486698
20
0.888663727147957
30
0
41
1
10
4.23577894567649
20
0.917177680808862
30
0
41
1
10
4.27824183066716
20
0.929067811810341
30
0
41
1
10
4.40786117037788
20
0.959433016542221
30
0
41
1
10
4.49713607744181
20
0.972576025632776
30
0
41
1
10
4.67460965592818
20
0.988365427888368
30
0
41
1
10
4.76364471862425
20
0.991097261765304
30
0
41
1
10
4.94224297956788
20
0.987539030291714
30
0
41
1
10
5.03236289068798
20
0.981123959228853
30
0
41
1
10
5.20942805087816
20
0.959258954319495
30
0
41
1
10
5.29654666044851
20
0.943854768919749
30
0
41
1
10
5.46795969417119
20
0.903492301710799
30
0
41
1
10
5.55225110067465
20
0.878527945342
30
0
41
1
10
5.71787853648476
20
0.817619463052154
30
0
41
1
10
5.79755373164576
20
0.782251829492878
30
0
41
1
10
5.8739841809261
20
0.741832335934447
30
0
0
SPLINE
5
C5
100
AcDbEntity
8
1
62
256
6
ByLayer
370
18
48
1
60
0
100
AcDbSpline
70
4
71
3
72
32
73
28
40
0
40
0
40
0
40
0
40
0.050279038257801
40
0.050279038257801
40
0.100558076515602
40
0.100558076515602
40
0.201116153031202
40
0.201116153031202
40
0.301674229546802
40
0.301674229546802
40
0.351953267804601
40
0.351953267804601
40
0.4022323060624
40
0.4022323060624
40
0.502790382577998
40
0.502790382577998
40
0.553069420835797
40
0.553069420835797
40
0.603348459093596
40
0.603348459093596
40
0.804464612124793
40
0.804464612124793
40
0.854743650382594
40
0.854743650382594
40
0.905022688640394
40
0.905022688640394
40
1
40
1
40
1
40
1
41
1
10
5.74655328240053
20
1.11852897992557
30
0
41
1
10
5.87092970376921
20
1.0655030685763
30
0
41
1
10
5.99511254636954
20
1.00936195291158
30
0
41
1
10
6.24367993142789
20
0.891663756764217
30
0
41
1
10
6.36818941172913
20
0.830095496830978
30
0
41
1
10
6.73925136380072
20
0.639941283374895
30
0
41
1
10
6.98457592412845
20
0.505601572971557
30
0
41
1
10
7.47497688790605
20
0.228357585871691
30
0
41
1
10
7.72023284890199
20
0.0857643045429484
30
0
41
1
10
8.09096708942849
20
-0.12935791975184
30
0
41
1
10
8.21547920408287
20
-0.201494673718599
30
0
41
1
10
8.46319537420783
20
-0.343366787007653
30
0
41
1
10
8.58649058767287
20
-0.413206943711032
30
0
41
1
10
8.95527927172887
20
-0.618517331819447
30
0
41
1
10
9.1999004857168
20
-0.749390365499465
30
0
41
1
10
9.56793350829378
20
-0.932026772294876
30
0
41
1
10
9.69080792917595
20
-0.990605790794831
30
0
41
1
10
9.93748513045483
20
-1.10233142593361
30
0
41
1
10
10.0615678443176
20
-1.15564644682914
30
0
41
1
10
10.6818260739585
20
-1.4054561795204
30
0
41
1
10
11.1680881539057
20
-1.54681654423874
30
0
41
1
10
11.7831588436283
20
-1.63542453226867
30
0
41
1
10
11.9065752042311
20
-1.64871590242206
30
0
41
1
10
12.1547270393854
20
-1.66607083332752
30
0
41
1
10
12.27863941293
20
-1.67006336207874
30
0
41
1
10
12.6344687814872
20
-1.6681610071777
30
0
41
1
10
12.8657256041475
20
-1.65044225418373
30
0
41
1
10
13.0969033264415
20
-1.61680620810969
30
0
0
SPLINE
5
C6
100
AcDbEntity
8
1
62
256
6
ByLayer
370
18
48
1
60
0
100
AcDbSpline
70
4
71
3
72
36
73
32
40
0
40
0
40
0
40
0
40
0.030560322557567
40
0.030560322557567
40
0.0767241167214909
40
0.0767241167214909
40
0.261379293377193
40
0.261379293377193
40
0.307543087541118
40
0.307543087541118
40
0.353706881705044
40
0.353706881705044
40
0.446034470032894
40
0.446034470032894
40
0.49219826419682
40
0.49219826419682
40
0.538362058360745
40
0.538362058360745
40
0.630689646688596
40
0.630689646688596
40
0.723017235016447
40
0.723017235016447
40
0.815344823344298
40
0.815344823344298
40
0.907672411672149
40
0.907672411672149
40
0.953836205836075
40
0.953836205836075
40
0.976918102918038
40
0.976918102918038
40
1
40
1
40
1
40
1
41
1
10
21.3697440980283
20
1.68567138783749
30
0
41
1
10
21.4510346784298
20
1.68578058763228
30
0
41
1
10
21.5324932822883
20
1.68385257344127
30
0
41
1
10
21.7376549239454
20
1.67381765231247
30
0
41
1
10
21.8617494510347
20
1.66303916503625
30
0
41
1
10
22.4772519814549
20
1.58667529623096
30
0
41
1
10
22.9613190546077
20
1.45333724456975
30
0
41
1
10
23.5772078321874
20
1.21256271813024
30
0
41
1
10
23.7012663774658
20
1.16043858410657
30
0
41
1
10
23.9477598810095
20
1.05069200813145
30
0
41
1
10
24.0704786042009
20
0.993031301549564
30
0
41
1
10
24.4377760819975
20
0.812852573284317
30
0
41
1
10
24.6813413981308
20
0.682905209184099
30
0
41
1
10
25.0479137723031
20
0.478147451641064
30
0
41
1
10
25.170309398538
20
0.408257562391697
30
0
41
1
10
25.4160443531214
20
0.266037532485797
30
0
41
1
10
25.5397865178896
20
0.193457655863938
30
0
41
1
10
25.9100275088196
20
-0.0251167909086121
30
0
41
1
10
26.1543440997831
20
-0.170802486024968
30
0
41
1
10
26.6422637412458
20
-0.454898369607974
30
0
41
1
10
26.8858672944014
20
-0.593312456593537
30
0
41
1
10
27.3763008361649
20
-0.856269557698681
30
0
41
1
10
27.6245744300192
20
-0.981218914436596
30
0
41
1
10
28.1145872810795
20
-1.20396400275206
30
0
41
1
10
28.3576465835046
20
-1.3027538446027
30
0
41
1
10
28.7227884807865
20
-1.42835770851013
30
0
41
1
10
28.8445830349387
20
-1.4664849345468
30
0
41
1
10
29.0276996599243
20
-1.51773224980269
30
0
41
1
10
29.0888068282134
20
-1.53382561643147
30
0
41
1
10
29.2112077494667
20
-1.563970092962
30
0
41
1
10
29.2722770524795
20
-1.57815889904077
30
0
41
1
10
29.3340771203879
20
-1.59091170356794
30
0
0
SPLINE
5
C7
100
AcDbEntity
8
1
62
256
6
ByLayer
370
18
48
1
60
0
100
AcDbSpline
70
4
71
3
72
8
73
4
40
0
40
0
40
0
40
0
40
1
40
1
40
1
40
1
41
1
10
29.7328409469917
20
0.783973347508635
30
0
41
1
10
29.754378504829
20
0.722723037131459
30
0
41
1
10
29.7770294854266
20
0.663455193402825
30
0
41
1
10
29.8007897423929
20
0.605862707786059
30
0
0
SPLINE
5
C8
100
AcDbEntity
8
1
62
256
6
ByLayer
370
13
48
1
60
0
100
AcDbSpline
70
4
71
3
72
34
73
30
40
0
40
0
40
0
40
0
40
0.102541423959001
40
0.102541423959001
40
0.205082847918003
40
0.205082847918003
40
0.256353559897502
40
0.256353559897502
40
0.307624271877
40
0.307624271877
40
0.410165695835997
40
0.410165695835997
40
0.461436407815496
40
0.461436407815496
40
0.512707119794994
40
0.512707119794994
40
0.615248543753994
40
0.615248543753994
40
0.717789967712993
40
0.717789967712993
40
0.769060679692494
40
0.769060679692494
40
0.820331391671994
40
0.820331391671994
40
0.922872815630998
40
0.922872815630998
40
0.9741435276105
40
0.9741435276105
40
1
40
1
40
1
40
1
41
1
10
29.3005225273405
20
-1.4490577286121
30
0
41
1
10
29.0552310483513
20
-1.38266950019747
30
0
41
1
10
28.8119554536034
20
-1.3011324845865
30
0
41
1
10
28.3265581889528
20
-1.11243575522138
30
0
41
1
10
28.0843474650033
20
-1.00524647570489
30
0
41
1
10
27.7185501608731
20
-0.829083687023456
30
0
41
1
10
27.595958231776
20
-0.76765576883443
30
0
41
1
10
27.3508019866337
20
-0.640865692150754
30
0
41
1
10
27.2287814422593
20
-0.575823804808749
30
0
41
1
10
26.86351178878
20
-0.377303649067699
30
0
41
1
10
26.6212275260843
20
-0.240149261283364
30
0
41
1
10
26.2567353938728
20
-0.0322878362824497
30
0
41
1
10
26.1350474538349
20
0.037328526986613
30
0
41
1
10
25.8909113013297
20
0.176564978131978
30
0
41
1
10
25.7680754977675
20
0.246412025389901
30
0
41
1
10
25.4006342657715
20
0.452100362977149
30
0
41
1
10
25.1574730984319
20
0.584298888206774
30
0
41
1
10
24.6714700102775
20
0.833671439141597
30
0
41
1
10
24.4287437590363
20
0.950909151084034
30
0
41
1
10
24.0614035201466
20
1.10964179970577
30
0
41
1
10
23.9382567374806
20
1.15996465839734
30
0
41
1
10
23.6936321748669
20
1.25353563768289
30
0
41
1
10
23.5718299812647
20
1.29688304292122
30
0
41
1
10
23.2067256229081
20
1.4152738964577
30
0
41
1
10
22.9641656878945
20
1.48002616172585
30
0
41
1
10
22.5984684975194
20
1.55155670457495
30
0
41
1
10
22.4762130904791
20
1.57135907286346
30
0
41
1
10
22.291645772229
20
1.59482664542423
30
0
41
1
10
22.2297414816123
20
1.60158039092624
30
0
41
1
10
22.1679078844015
20
1.60718470656852
30
0
0
SPLINE
5
C9
100
AcDbEntity
8
1
62
256
6
ByLayer
370
13
48
1
60
0
100
AcDbSpline
70
4
71
3
72
32
73
28
40
0
40
0
40
0
40
0
40
0.0350515741110618
40
0.0350515741110618
40
0.0886598199937822
40
0.0886598199937822
40
0.142268065876503
40
0.142268065876503
40
0.249484557641944
40
0.249484557641944
40
0.303092803524663
40
0.303092803524663
40
0.356701049407383
40
0.356701049407383
40
0.463917541172822
40
0.463917541172822
40
0.571134032938261
40
0.571134032938261
40
0.624742278820979
40
0.624742278820979
40
0.678350524703698
40
0.678350524703698
40
0.785567016469132
40
0.785567016469132
40
0.892783508234566
40
0.892783508234566
40
1
40
1
40
1
40
1
41
1
10
12.6932948661972
20
-1.61097153741048
30
0
41
1
10
12.613381967128
20
-1.61062469250854
30
0
41
1
10
12.5333627361043
20
-1.60839853868691
30
0
41
1
10
12.3305924200465
20
-1.59800824517538
30
0
41
1
10
12.2070582278087
20
-1.58718339762834
30
0
41
1
10
11.9613172539591
20
-1.55707403741218
30
0
41
1
10
11.838964539092
20
-1.53776203114467
30
0
41
1
10
11.4726730207844
20
-1.46739926657918
30
0
41
1
10
11.2290496129962
20
-1.40436959676799
30
0
41
1
10
10.8626087320693
20
-1.28732722185399
30
0
41
1
10
10.740108740101
20
-1.24466726014208
30
0
41
1
10
10.4941481178921
20
-1.15250775312677
30
0
41
1
10
10.3706846330646
20
-1.10287279692048
30
0
41
1
10
10.0027833658457
20
-0.946023438828178
30
0
41
1
10
9.75883965769521
20
-0.831119152280877
30
0
41
1
10
9.27103980486731
20
-0.584922326754395
30
0
41
1
10
9.02666449617033
20
-0.454437971761052
30
0
41
1
10
8.65712157415459
20
-0.251262809372463
30
0
41
1
10
8.53389593000338
20
-0.18279145756145
30
0
41
1
10
8.28867611724189
20
-0.0459532292341578
30
0
41
1
10
8.16646620850435
20
0.0226389260103304
30
0
41
1
10
7.80024835660754
20
0.227464845346503
30
0
41
1
10
7.55639247044135
20
0.362303643043703
30
0
41
1
10
7.06621771172411
20
0.623114623975027
30
0
41
1
10
6.81860597454374
20
0.748880906729056
30
0
41
1
10
6.32873591475919
20
0.978985811077024
30
0
41
1
10
6.08492175849526
20
1.08365353299956
30
0
41
1
10
5.84048125757622
20
1.17592169350513
30
0
0
SPLINE
5
CA
100
AcDbEntity
8
1
62
256
6
ByLayer
370
13
48
1
60
0
100
AcDbSpline
70
4
71
3
72
12
73
8
40
0
40
0
40
0
40
0
40
0.416784414587729
40
0.416784414587729
40
0.833568829175457
40
0.833568829175457
40
1
40
1
40
1
40
1
41
1
10
5.84048125757619
20
1.17592169350516
30
0
41
1
10
5.84024335766165
20
1.28891005499136
30
0
41
1
10
5.84007843229364
20
1.38203795124548
30
0
41
1
10
5.83983647676146
20
1.52183258096215
30
0
41
1
10
5.83976121748128
20
1.56687859809273
30
0
41
1
10
5.83966458275859
20
1.59548284928937
30
0
41
1
10
5.83963824780884
20
1.59953718843141
30
0
41
1
10
5.83961146734495
20
1.59951773833615
30
0
0
SPLINE
5
CB
100
AcDbEntity
8
1
62
256
6
ByLayer
370
18
48
1
60
0
100
AcDbSpline
70
4
71
3
72
10
73
6
40
0
40
0
40
0
40
0
40
0.5
40
0.5
40
1
40
1
40
1
40
1
41
1
10
29.3340771203874
20
-1.59091170356822
30
0
41
1
10
29.3336702138653
20
-1.55988805880847
30
0
41
1
10
29.3297385790296
20
-1.53314116675242
30
0
41
1
10
29.3177407509213
20
-1.48623456895382
30
0
41
1
10
29.3098120976823
20
-1.46637791215045
30
0
41
1
10
29.3005225273226
20
-1.44905772860781
30
0
0
SPLINE
5
CC
100
AcDbEntity
8
1
62
256
6
ByLayer
370
13
48
1
60
0
100
AcDbSpline
70
4
71
3
72
113
73
109
40
0
40
0
40
0
40
0
40
0.0002118847274521
40
0.0141013520053709
40
0.0187311744313445
40
0.0279908192832898
40
0.0372504641352369
40
0.0511399314131576
40
0.0557697538391298
40
0.0650293986910756
40
0.0742890435430223
40
0.088178510820942
40
0.0928083332469151
40
0.102067978098863
40
0.11132762295081
40
0.125217090228728
40
0.1298469126547
40
0.139106557506647
40
0.148366202358593
40
0.162255669636512
40
0.166885492062485
40
0.17614513691443
40
0.185404781766378
40
0.199294249044297
40
0.203924071470271
40
0.213183716322216
40
0.222443361174164
40
0.236332828452081
40
0.240962650878056
40
0.250222295730003
40
0.259481940581948
40
0.273371407859869
40
0.278001230285841
40
0.287260875137787
40
0.296520519989732
40
0.310409987267653
40
0.315039809693626
40
0.324299454545573
40
0.333559099397519
40
0.347448566675439
40
0.352078389101411
40
0.361338033953357
40
0.370597678805303
40
0.384487146083224
40
0.389116968509197
40
0.398376613361143
40
0.407636258213089
40
0.421525725491009
40
0.426155547916982
40
0.435415192768929
40
0.444674837620875
40
0.458564304898794
40
0.463194127324767
40
0.472453772176714
40
0.481713417028659
40
0.49560288430658
40
0.500232706732552
40
0.509492351584499
40
0.518751996436445
40
0.532641463714364
40
0.537271286140338
40
0.546530930992284
40
0.55579057584423
40
0.569680043122149
40
0.574309865548122
40
0.583569510400069
40
0.592829155252015
40
0.606718622529935
40
0.611348444955908
40
0.620608089807854
40
0.6298677346598
40
0.64375720193772
40
0.648387024363693
40
0.657646669215639
40
0.666906314067586
40
0.680795781345505
40
0.685425603771478
40
0.694685248623425
40
0.703944893475371
40
0.71783436075329
40
0.722464183179263
40
0.73172382803121
40
0.740983472883156
40
0.754872940161076
40
0.759502762587049
40
0.768762407438995
40
0.778022052290941
40
0.791911519568861
40
0.796541341994834
40
0.805800986846778
40
0.815060631698727
40
0.828950098976646
40
0.833579921402619
40
0.842839566254564
40
0.85209921110651
40
0.864831222777937
40
0.870618500810404
40
0.876405778842872
40
0.889137790514295
40
0.907657080218188
40
0.940065837200001
40
0.944695659625974
40
0.953955304477922
40
0.963214949329866
40
0.977104416607789
40
0.98173423903376
40
0.990993883885706
40
1
40
1
40
1
40
1
41
1.00000000000003
10
25.0837357999365
20
0.0386822198299501
30
0
41
1.00000000000003
10
25.0833410162675
20
0.0387901026963664
30
0
41
1.00000000000003
10
25.0570673829186
20
0.0459699395532298
30
0
41
1.00000000000003
10
25.0221682477586
20
0.0555087155767621
30
0
41
1.00000000000003
10
24.9704109329082
20
0.0696379788043637
30
0
41
1.00000000000003
10
24.9272783272088
20
0.0813807243252687
30
0
41
1.00000000000003
10
24.8668933316692
20
0.0977870512658086
30
0
41
1.00000000000003
10
24.8151367660242
20
0.111831704510191
30
0
41
1.00000000000003
10
24.7633794757124
20
0.125840988611767
30
0
41
1.00000000000003
10
24.7202469041948
20
0.137471808450779
30
0
41
1.00000000000003
10
24.6598619671337
20
0.153700537623162
30
0
41
1.00000000000003
10
24.6081054606294
20
0.167571036087163
30
0
41
1.00000000000003
10
24.5563482324235
20
0.181387540827979
30
0
41
1.00000000000003
10
24.5132157090464
20
0.192845610269808
30
0
41
1.00000000000003
10
24.4528308235357
20
0.208811391993288
30
0
41
1.00000000000003
10
24.4010743402192
20
0.222434537152645
30
0
41
1.00000000000003
10
24.349317112814
20
0.235985462300214
30
0
41
1.00000000000003
10
24.306184574579
20
0.247210540626888
30
0
41
1.00000000000003
10
24.2457996459134
20
0.262829670632577
30
0
41
1.00000000000003
10
24.1940431091742
20
0.276134282765802
30
0
41
1.00000000000003
10
24.1422858236039
20
0.289349006620191
30
0
41
1.00000000000003
10
24.0991532413343
20
0.300282700947682
30
0
41
1.00000000000003
10
24.038768268551
20
0.315474118831664
30
0
41
1.00000000000003
10
23.9870117156358
20
0.328391346303808
30
0
41
1.00000000000003
10
23.935254435643
20
0.341201631905808
30
0
41
1.00000000000003
10
23.8921218721448
20
0.351787581632767
30
0
41
1.00000000000003
10
23.8317369443301
20
0.366473007229718
30
0
41
1.00000000000003
10
23.7799804422879
20
0.378936147015668
30
0
41
1.00000000000003
10
23.7282232142763
20
0.391275526794078
30
0
41
1.00000000000003
10
23.6850906872897
20
0.401458567022518
30
0
41
1.00000000000003
10
23.6247057899031
20
0.415561158690894
30
0
41
1.00000000000003
10
23.5729492903066
20
0.42750479992826
30
0
41
1.00000000000003
10
23.5211920429032
20
0.439308523412579
30
0
41
1.00000000000003
10
23.4780594874445
20
0.449035255141028
30
0
41
1.00000000000003
10
23.4176745372288
20
0.462481116011546
30
0
41
1.00000000000003
10
23.365917986722
20
0.473842728777172
30
0
41
1.00000000000003
10
23.3141606936765
20
0.485049032927137
30
0
41
1.00000000000003
10
23.2710281105267
20
0.494268579425593
30
0
41
1.00000000000003
10
23.2106431458515
20
0.506987401986421
30
0
41
1.00000000000003
10
23.1588866081048
20
0.517707589630347
30
0
41
1.00000000000003
10
23.1071293480342
20
0.528257884319244
30
0
41
1.00000000000003
10
23.0639968019741
20
0.53692204179505
30
0
41
1.00000000000003
10
23.0036118965172
20
0.548847353671119
30
0
41
1.00000000000003
10
22.9518554097523
20
0.558870142728848
30
0
41
1.00000000000003
10
22.9000981916056
20
0.568709414578945
30
0
41
1.00000000000003
10
22.8569656687541
20
0.576773057110427
30
0
41
1.00000000000003
10
22.796580770814
20
0.587842797126154
30
0
41
1.00000000000003
10
22.7448242655884
20
0.597116029550062
30
0
41
1.00000000000003
10
22.6930670102031
20
0.606193015851073
30
0
41
1.00000000000003
10
22.6499344486265
20
0.613614075666003
30
0
41
1.00000000000003
10
22.589549493851
20
0.623770376279377
30
0
41
1.00000000000003
10
22.5377929449105
20
0.632245443795266
30
0
41
1.00000000000003
10
22.4860356594897
20
0.640512450180675
30
0
41
1.00000000000003
10
22.4429030871496
20
0.647251859874568
30
0
41
1.00000000000003
10
22.3825181442617
20
0.656441099523799
30
0
41
1.00000000000003
10
22.3307616301503
20
0.664073070151981
30
0
41
1.00000000000003
10
22.2790043952954
20
0.671486089744898
30
0
41
1.00000000000003
10
22.235871869164
20
0.677507858731937
30
0
41
1.00000000000003
10
22.1754869865652
20
0.68568100262909
30
0
41
1.00000000000003
10
22.1237305127212
20
0.692429462323369
30
0
41
1.00000000000003
10
22.0719733003521
20
0.698949816380158
30
0
41
1.00000000000003
10
22.0288407776009
20
0.704222959666887
30
0
41
1.00000000000003
10
21.9684558733161
20
0.711338512589614
30
0
41
1.00000000000003
10
21.9166993580112
20
0.717169529197868
30
0
41
1.00000000000003
10
21.8649420914726
20
0.722764367990841
30
0
41
1.00000000000003
10
21.8218095220544
20
0.727262205185305
30
0
41
1.00000000000003
10
21.7614245610295
20
0.733283929723548
30
0
41
1.00000000000003
10
21.7096680119993
20
0.738167538598795
30
0
41
1.00000000000003
10
21.6579107312484
20
0.742807880054847
30
0
41
1.00000000000003
10
21.6147781655779
20
0.746506963429091
30
0
41
1.00000000000003
10
21.5543932352308
20
0.751403164020821
30
0
41
1.00000000000003
10
21.5026367335786
20
0.755313298864343
30
0
41
1.00000000000003
10
21.4508795103735
20
0.758974040765828
30
0
41
1.00000000000003
10
21.4077469936771
20
0.761854134201264
30
0
41
1.00000000000003
10
21.3473621272014
20
0.765597959818229
30
0
41
1.00000000000003
10
21.2956056731204
20
0.768513496231697
30
0
41
1.00000000000003
10
21.2438484897155
20
0.771175600100156
30
0
41
1.00000000000003
10
21.2007159878091
20
0.773222319660766
30
0
41
1.00000000000003
10
21.1403310784427
20
0.775795847183423
30
0
41
1.00000000000003
10
21.0885745043703
20
0.777703285866102
30
0
41
1.00000000000003
10
21.0368171113039
20
0.779354327113146
30
0
41
1.00000000000003
10
20.9936844020685
20
0.780557930601992
30
0
41
1.00000000000003
10
20.9332992390964
20
0.781948580578648
30
0
41
1.00000000000003
10
20.8815425560907
20
0.782838304201027
30
0
41
1.00000000000003
10
20.8297852296655
20
0.783469815654121
30
0
41
1.00000000000003
10
20.7866526948649
20
0.783824081492503
30
0
41
1.00000000000003
10
20.7262678933113
20
0.784024399748125
30
0
41
1.00000000000003
10
20.6745115454131
20
0.783891087032293
30
0
41
1.00000000000003
10
20.6227544543113
20
0.783498426377525
30
0
41
1.00000000000003
10
20.5796220088026
20
0.782999905490561
30
0
41
1.00000000000003
10
20.5192371736497
20
0.782006355805271
30
0
41
1.00000000000003
10
20.4674806947032
20
0.78084899767743
30
0
41
1.00000000000003
10
20.4157234678765
20
0.779433710344313
30
0
41
1.00000000000003
10
20.3725909293834
20
0.778085507259255
30
0
41
1.00000000000003
10
20.3143628327363
20
0.775984632611119
30
0
41
1.00000000000003
10
20.2626059796864
20
0.773825681025591
30
0
41
1.00000000000003
10
20.2173186958867
20
0.771717012769051
30
0
41
1.00000000000003
10
20.1720287274369
20
0.769455521611696
30
0
41
1.00000000000003
10
20.103014373398
20
0.765669457177899
30
0
41
1.00000000000003
10
19.9843940394607
20
0.758188540542597
30
0
41
1.00000000000003
10
19.8808850508751
20
0.750366581546025
30
0
41
1.00000000000003
10
19.7946293761861
20
0.74303760253327
30
0
41
1.00000000000003
10
19.751496985027
20
0.73920105136424
30
0
41
1.00000000000003
10
19.6911121514381
20
0.733550999366749
30
0
41
1.00000000000003
10
19.6393556435078
20
0.728414980886875
30
0
41
1.00000000000003
10
19.5875983787391
20
0.723037478869749
30
0
41
1.00000000000003
10
19.5449381997584
20
0.718454780541073
30
0
41
1.00000000000003
10
19.5109050201249
20
0.714648934048861
30
0
41
1.00000000000003
10
19.4941248132863
20
0.712736235066537
30
0
0
SPLINE
5
CD
100
AcDbEntity
8
1
62
256
6
ByLayer
370
13
48
1
60
0
100
AcDbSpline
70
4
71
3
72
32
73
28
40
0
40
0
40
0
40
0
40
0.0347366457687655
40
0.0757440158782154
40
0.137255071042334
40
0.157758756097046
40
0.198766126206461
40
0.239773496315879
40
0.301284551480012
40
0.321788236534736
40
0.362795606644156
40
0.403802976753577
40
0.465314031917703
40
0.485817716972425
40
0.526825087081869
40
0.567832457191282
40
0.629343512355407
40
0.649847197410117
40
0.690854567519533
40
0.731861937628966
40
0.793372992793106
40
0.813876677847806
40
0.854884047957237
40
0.895891418066663
40
0.957402473230778
40
0.977906158285496
40
1
40
1
40
1
40
1
41
1.00000000000003
10
29.7328409456646
20
0.783973347509635
30
0
41
1.00000000000003
10
29.7182264458175
20
0.783983872335205
30
0
41
1.00000000000003
10
29.6863586972156
20
0.783935891797461
30
0
41
1.00000000000003
10
29.6286119926211
20
0.783587400927735
30
0
41
1.00000000000003
10
29.5768554476719
20
0.782969378217933
30
0
41
1.00000000000003
10
29.5250981694556
20
0.782092679754874
30
0
41
1.00000000000003
10
29.4819656046347
20
0.78119202203053
30
0
41
1.00000000000003
10
29.4215806724898
20
0.77963676766226
30
0
41
1.00000000000003
10
29.3698241650653
20
0.777998559230105
30
0
41
1.00000000000003
10
29.3180669317102
20
0.77610340640897
30
0
41
1.00000000000003
10
29.2749344014995
20
0.774356610030884
30
0
41
1.00000000000003
10
29.21454950364
20
0.771619560684576
30
0
41
1.00000000000003
10
29.1627930087026
20
0.768969929161137
30
0
41
1.00000000000003
10
29.1110357712264
20
0.766065952834373
30
0
41
1.00000000000003
10
29.0679032257921
20
0.763481618754816
30
0
41
1.00000000000003
10
29.0075182899576
20
0.759575781696248
30
0
41
1.00000000000003
10
28.9557617512551
20
0.755926871212245
30
0
41
1.00000000000003
10
28.9040044682665
20
0.752027078775888
30
0
41
1.00000000000003
10
28.8608718915276
20
0.74861661436288
30
0
41
1.00000000000003
10
28.800486931259
20
0.743559539554958
30
0
41
1.00000000000003
10
28.74873039217
20
0.738928712484586
30
0
41
1.00000000000003
10
28.6969731260176
20
0.734053171358319
30
0
41
1.00000000000003
10
28.6538405746353
20
0.729835177810891
30
0
41
1.00000000000003
10
28.5934556654746
20
0.72365568094768
30
0
41
1.00000000000003
10
28.5416991805388
20
0.718069885849595
30
0
41
1.00000000000003
10
28.4978991691657
20
0.713141840918845
30
0
41
1.00000000000003
10
28.4799773313
20
0.71108259265413
30
0
41
1.00000000000003
10
28.4706818641318
20
0.710003284895841
30
0
0
SPLINE
5
CE
100
AcDbEntity
8
1
62
256
6
ByLayer
370
13
48
1
60
0
100
AcDbSpline
70
4
71
3
72
107
73
103
40
0
40
0
40
0
40
0
40
0.001198084267769
40
0.0103990909581885
40
0.0196000976486067
40
0.0334016076842368
40
0.0380021110294457
40
0.0472031177198648
40
0.0564041244102829
40
0.0702056344459118
40
0.074806137791122
40
0.0840071444815419
40
0.0932081511719596
40
0.107009661207589
40
0.111610164552799
40
0.120811171243217
40
0.130012177933636
40
0.143813687969265
40
0.148414191314475
40
0.157615198004893
40
0.166816204695313
40
0.180617714730942
40
0.185218218076151
40
0.19441922476657
40
0.203620231456989
40
0.217421741492617
40
0.222022244837827
40
0.231223251528247
40
0.240424258218666
40
0.254225768254294
40
0.258826271599504
40
0.268027278289923
40
0.277228284980342
40
0.291029795015971
40
0.29563029836118
40
0.304831305051599
40
0.314032311742019
40
0.327833821777647
40
0.332434325122857
40
0.341635331813276
40
0.350836338503695
40
0.364637848539324
40
0.369238351884533
40
0.378439358574953
40
0.387640365265372
40
0.401441875301
40
0.40604237864621
40
0.415243385336628
40
0.424444392027047
40
0.438245902062675
40
0.442846405407886
40
0.452047412098304
40
0.461248418788724
40
0.475049928824354
40
0.479650432169562
40
0.48885143885998
40
0.4980524455504
40
0.510703829749727
40
0.516454458931239
40
0.522205088112752
40
0.534856472312078
40
0.553258485692915
40
0.585462009109382
40
0.590062512454592
40
0.599263519145011
40
0.608464525835431
40
0.622266035871059
40
0.626866539216268
40
0.636067545906687
40
0.645268552597106
40
0.657919936796432
40
0.663670565977944
40
0.669421195159456
40
0.682072579358783
40
0.700474592739621
40
0.732678116156087
40
0.737278619501297
40
0.746479626191716
40
0.755680632882136
40
0.769482142917764
40
0.774082646262973
40
0.783283652953393
40
0.792484659643812
40
0.805136043843138
40
0.81088667302465
40
0.816637302206163
40
0.829288686405488
40
0.847690699786326
40
0.879894223202793
40
0.884494726548003
40
0.893695733238422
40
0.902896739928841
40
0.91669824996447
40
0.921298753309679
40
0.930499760000098
40
0.939700766690518
40
0.952352150889843
40
0.958102780071356
40
0.963853409252868
40
0.976504793452194
40
0.994906806833031
40
1
40
1
40
1
40
1
41
1.00000000000003
10
16.0834323799682
20
0.0387549401950753
30
0
41
1.00000000000003
10
16.0811858885464
20
0.0393693771032406
30
0
41
1.00000000000003
10
16.0616868207587
20
0.0447017428038792
30
0
41
1.00000000000003
10
16.0249342194704
20
0.054735534890453
30
0
41
1.00000000000003
10
15.964549297132
20
0.0711978155046872
30
0
41
1.00000000000003
10
15.9127927978845
20
0.0853007339922531
30
0
41
1.00000000000003
10
15.861035573669
20
0.0993769042929642
30
0
41
1.00000000000003
10
15.8179030510088
20
0.11106907542111
30
0
41
1.00000000000003
10
15.757518165024
20
0.127393667584553
30
0
41
1.00000000000003
10
15.7057616842767
20
0.141356944115098
30
0
41
1.00000000000003
10
15.6540044667272
20
0.15527537373526
30
0
41
1.00000000000003
10
15.6108719465616
20
0.166824332472397
30
0
41
1.00000000000003
10
15.5504870645825
20
0.182927693393106
30
0
41
1.00000000000003
10
15.4987305885957
20
0.196679454106311
30
0
41
1.00000000000003
10
15.446973378343
20
0.210367725020455
30
0
41
1.00000000000003
10
15.403840868834
20
0.221712805669164
30
0
41
1.00000000000003
10
15.3434560114724
20
0.237509596999466
30
0
41
1.00000000000003
10
15.2916995649209
20
0.250976513346749
30
0
41
1.00000000000003
10
15.2399423892498
20
0.264361692128709
30
0
41
1.00000000000003
10
15.1968099066272
20
0.275442571869056
30
0
41
1.00000000000003
10
15.1364250754873
20
0.290849030042031
30
0
41
1.00000000000003
10
15.0846686368763
20
0.303959925975582
30
0
41
1.00000000000003
10
15.0329114542673
20
0.316971437166065
30
0
41
1.00000000000003
10
14.9897789524938
20
0.327729790018215
30
0
41
1.00000000000003
10
14.9293940690366
20
0.34266499543826
30
0
41
1.00000000000003
10
14.8776375618895
20
0.355351184569475
30
0
41
1.00000000000003
10
14.8258802951303
20
0.3679209885665
30
0
41
1.00000000000003
10
14.782747718778
20
0.37830062802492
30
0
41
1.00000000000003
10
14.7223627344507
20
0.392686700940334
30
0
41
1.00000000000003
10
14.6706061515705
20
0.404882153938604
30
0
41
1.00000000000003
10
14.6188488265146
20
0.416944916619018
30
0
41
1.00000000000003
10
14.5757162171721
20
0.426891949252012
30
0
41
1.00000000000003
10
14.515331214001
20
0.440654289982164
30
0
41
1.00000000000003
10
14.4635746388526
20
0.452295856442178
30
0
41
1.00000000000003
10
14.4118173351909
20
0.463789171613386
30
0
41
1.00000000000003
10
14.3686847452393
20
0.4732521760249
30
0
41
1.00000000000003
10
14.3082997632547
20
0.486319704116809
30
0
41
1.00000000000003
10
14.2565431976452
20
0.497347310261844
30
0
41
1.00000000000003
10
14.2047858929368
20
0.50821189661319
30
0
41
1.00000000000003
10
14.1616532944424
20
0.517142074484681
30
0
41
1.00000000000003
10
14.1012682916364
20
0.529447410539446
30
0
41
1.00000000000003
10
14.0495117048297
20
0.539804193855231
30
0
41
1.00000000000003
10
13.9977543830485
20
0.549984020707866
30
0
41
1.00000000000003
10
13.9546217793439
20
0.55833530862064
30
0
41
1.00000000000003
10
13.894236789286
20
0.569814935551944
30
0
41
1.00000000000003
10
13.8424802320422
20
0.579447364333118
30
0
41
1.00000000000003
10
13.7907229520277
20
0.58888972775959
30
0
41
1.00000000000003
10
13.7475903919016
20
0.596618830780085
30
0
41
1.00000000000003
10
13.687205475308
20
0.607213123265989
30
0
41
1.00000000000003
10
13.6354489881007
20
0.616071038823389
30
0
41
1.00000000000003
10
13.5836917769774
20
0.624726660543427
30
0
41
1.00000000000003
10
13.5405592678452
20
0.631793174014159
30
0
41
1.00000000000003
10
13.4801744088211
20
0.64144661622954
30
0
41
1.00000000000003
10
13.4284179595311
20
0.649483447337057
30
0
41
1.00000000000003
10
13.3766607820476
20
0.657306681777366
30
0
41
1.00000000000003
10
13.3335282830204
20
0.663673255951873
30
0
41
1.00000000000003
10
13.2753002267403
20
0.67202850507932
30
0
41
1.00000000000003
10
13.2235433969875
20
0.679212223765299
30
0
41
1.00000000000003
10
13.1782561238265
20
0.685309751641179
30
0
41
1.00000000000003
10
13.1329661616205
20
0.691255128215582
30
0
41
1.00000000000003
10
13.063951811512
20
0.699997158161076
30
0
41
1.00000000000003
10
12.9453314722764
20
0.714106340730901
30
0
41
1.00000000000003
10
12.8418224720875
20
0.72529957492251
30
0
41
1.00000000000003
10
12.7555667940007
20
0.733860998727074
30
0
41
1.00000000000003
10
12.712434405829
20
0.737939770392423
30
0
41
1.00000000000003
10
12.6520495889276
20
0.74337000189994
30
0
41
1.00000000000003
10
12.6002931080776
20
0.74774099238116
30
0
41
1.00000000000003
10
12.5485358808979
20
0.751864605695494
30
0
41
1.00000000000003
10
12.5054033482697
20
0.75513111475093
30
0
41
1.00000000000003
10
12.44717527163
20
0.759266958909684
30
0
41
1.00000000000003
10
12.3954184478473
20
0.762662069988756
30
0
41
1.00000000000003
10
12.350131196943
20
0.765417729799885
30
0
41
1.00000000000003
10
12.3048412668553
20
0.768010871865107
30
0
41
1.00000000000003
10
12.235826985989
20
0.771613629833189
30
0
41
1.00000000000003
10
12.1172068092519
20
0.77680519196972
30
0
41
1.00000000000003
10
12.0136979806181
20
0.780069661526119
30
0
41
1.00000000000003
10
11.9274424295551
20
0.781961679688555
30
0
41
1.00000000000003
10
11.8843100996973
20
0.782707949794235
30
0
41
1.00000000000003
10
11.823925351304
20
0.783458208832945
30
0
41
1.00000000000003
10
11.7721689133282
20
0.783798617181566
30
0
41
1.00000000000003
10
11.7204117138978
20
0.783881480894144
30
0
41
1.00000000000003
10
11.6772791952459
20
0.783779781304736
30
0
41
1.00000000000003
10
11.6190511207102
20
0.783361016963602
30
0
41
1.00000000000003
10
11.5672942798812
20
0.782697584411983
30
0
41
1.00000000000003
10
11.5220069992387
20
0.781896895096543
30
0
41
1.00000000000003
10
11.4767170279258
20
0.780939340243157
30
0
41
1.00000000000003
10
11.4077026537613
20
0.779134911311934
30
0
41
1.00000000000003
10
11.289082244121
20
0.775043703097856
30
0
41
1.00000000000003
10
11.1855731398166
20
0.770175320484418
30
0
41
1.00000000000003
10
11.0993173479155
20
0.765293900097794
30
0
41
1.00000000000003
10
11.0561848958345
20
0.762671490685967
30
0
41
1.00000000000003
10
10.9957999773767
20
0.758713355095217
30
0
41
1.00000000000003
10
10.9440434002987
20
0.755020662870016
30
0
41
1.00000000000003
10
10.8922860733667
20
0.751077927577348
30
0
41
1.00000000000003
10
10.8491534598331
20
0.747632275188927
30
0
41
1.00000000000003
10
10.7909252832633
20
0.74270962293253
30
0
41
1.00000000000003
10
10.7391683817557
20
0.738050356592801
30
0
41
1.00000000000003
10
10.6938810731629
20
0.733760771878771
30
0
41
1.00000000000003
10
10.6485910893535
20
0.729329188486766
30
0
41
1.00000000000003
10
10.5795767284876
20
0.72225440466989
30
0
41
1.00000000000003
10
10.5117941088287
20
0.71478142379079
30
0
41
1.00000000000003
10
10.4677383637144
20
0.70967827338334
30
0
41
1.00000000000003
10
10.4581882581188
20
0.708560479125233
30
0
0
SPLINE
5
CF
100
AcDbEntity
8
1
62
256
6
ByLayer
370
18
48
1
60
0
100
AcDbSpline
70
4
71
3
72
14
73
10
40
0
40
0
40
0
40
0
40
0.0467960505363805
40
0.0467960505363805
40
0.285097037902285
40
0.285097037902285
40
0.52339802526819
40
0.52339802526819
40
1
40
1
40
1
40
1
41
1
10
5.5044624496644
20
1.65710606020863
30
0
41
1
10
5.50444878598083
20
1.65710465846629
30
0
41
1
10
5.50443519724871
20
1.65683318086133
30
0
41
1
10
5.50435280139521
20
1.65352210262475
30
0
41
1
10
5.50428556480779
20
1.64386460316487
30
0
41
1
10
5.50414243827083
20
1.61102565761692
30
0
41
1
10
5.50406595306345
20
1.58761444452472
30
0
41
1
10
5.50380407804994
20
1.497566170786
30
0
41
1
10
5.50359055050586
20
1.41296494017487
30
0
41
1
10
5.50327166689476
20
1.30397678817744
30
0
0
SPLINE
5
D0
100
AcDbEntity
8
1
62
256
6
ByLayer
370
18
48
1
60
0
100
AcDbSpline
70
4
71
3
72
10
73
6
40
0
40
0
40
0
40
0
40
0.5
40
0.5
40
1
40
1
40
1
40
1
41
1
10
29.3788949684285
20
1.68100118218766
30
0
41
1
10
29.4374092742923
20
1.54269202084001
30
0
41
1
10
29.4972399340072
20
1.39935751009327
30
0
41
1
10
29.6167671515574
20
1.10021765239151
30
0
41
1
10
29.6768276059885
20
0.943268776805382
30
0
41
1
10
29.7328409469916
20
0.783973347508635
30
0
0
SPLINE
5
D1
100
AcDbEntity
8
1
62
256
6
ByLayer
370
18
48
1
60
0
100
AcDbSpline
70
4
71
3
72
16
73
12
40
0
40
0
40
0
40
0
40
0.250000000000006
40
0.250000000000006
40
0.375000000000006
40
0.375000000000006
40
0.500000000000006
40
0.500000000000006
40
0.750000000000003
40
0.750000000000003
40
1
40
1
40
1
40
1
41
1
10
29.2759296942996
20
0.272191664362254
30
0
41
1
10
29.2553687759471
20
0.185911629069182
30
0
41
1
10
29.2382180763877
20
0.0988521376830533
30
0
41
1
10
29.217656719756
20
-0.032917566527658
30
0
41
1
10
29.2116677948859
20
-0.0770384780007873
30
0
41
1
10
29.201481023943
20
-0.165689678575689
30
0
41
1
10
29.1972727528795
20
-0.210435507968441
30
0
41
1
10
29.1876352532071
20
-0.342863592382059
30
0
41
1
10
29.185082350824
20
-0.429212345848811
30
0
41
1
10
29.1876028543083
20
-0.598095541655852
30
0
41
1
10
29.192752565154
20
-0.681158879163377
30
0
41
1
10
29.2017546602308
20
-0.760599157079668
30
0
0
SPLINE
5
D2
100
AcDbEntity
8
1
62
256
6
ByLayer
370
18
48
1
60
0
100
AcDbSpline
70
4
71
4
72
10
73
5
40
0
40
0
40
0
40
0
40
0
40
1
40
1
40
1
40
1
40
1
41
1
10
6.71756185817861
20
-0.766734093444001
30
0
41
1
10
6.64828789813674
20
-0.958901412025
30
0
41
1
10
6.5790139380949
20
-1.15106873060603
30
0
41
1
10
6.50973997805303
20
-1.34323604918705
30
0
41
1
10
6.44046601801119
20
-1.53540336776805
30
0
0
SPLINE
5
D3
100
AcDbEntity
8
1
62
256
6
ByLayer
370
18
48
1
60
0
100
AcDbSpline
70
4
71
3
72
8
73
4
40
0
40
0
40
0
40
0
40
1
40
1
40
1
40
1
41
1
10
29.9002094791472
20
-0.328971088952528
30
0
41
1
10
29.866975295985
20
-0.421234817750332
30
0
41
1
10
29.8338353152951
20
-0.513531999730247
30
0
41
1
10
29.8007897423865
20
-0.605862707801634
30
0
0
SPLINE
5
D4
100
AcDbEntity
8
1
62
256
6
ByLayer
370
18
48
1
60
0
100
AcDbSpline
70
4
71
3
72
8
73
4
40
0
40
0
40
0
40
0
40
1
40
1
40
1
40
1
41
1
10
29.9996652249889
20
0.0627514645954932
30
0
41
1
10
29.9656380996225
20
0.150537178065463
30
0
41
1
10
29.9325208731433
20
0.239269179379647
30
0
41
1
10
29.9002094791472
20
0.328971088952414
30
0
0
SPLINE
5
D5
100
AcDbEntity
8
1
62
256
6
ByLayer
370
18
48
1
60
0
100
AcDbSpline
70
4
71
3
72
42
73
38
40
0
40
0
40
0
40
0
40
0.0030228150818355
40
0.0030228150818355
40
0.0795632293895039
40
0.0795632293895039
40
0.156103643697172
40
0.156103643697172
40
0.194373850851007
40
0.194373850851007
40
0.232644058004841
40
0.232644058004841
40
0.309184472312508
40
0.309184472312508
40
0.347454679466342
40
0.347454679466342
40
0.385724886620176
40
0.385724886620176
40
0.538805715235509
40
0.538805715235509
40
0.577075922389343
40
0.577075922389343
40
0.615346129543176
40
0.615346129543176
40
0.691886543850843
40
0.691886543850843
40
0.76842695815851
40
0.76842695815851
40
0.844967372466176
40
0.844967372466176
40
0.921507786773843
40
0.921507786773843
40
0.959777993927676
40
0.959777993927676
40
0.99804820108151
40
0.99804820108151
40
1
40
1
40
1
40
1
41
1
10
12.3717378253707
20
1.66947323929807
30
0
41
1
10
12.3814742519876
20
1.66948100551196
30
0
41
1
10
12.3912062905262
20
1.66945974309903
30
0
41
1
10
12.6472391125832
20
1.66813646230824
30
0
41
1
10
12.891966818241
20
1.64839934783589
30
0
41
1
10
13.3814146841038
20
1.5733207595014
30
0
41
1
10
13.6266499014747
20
1.51823287264057
30
0
41
1
10
13.9975439239485
20
1.40995942608174
30
0
41
1
10
14.1217853069913
20
1.36951643550182
30
0
41
1
10
14.3685324318454
20
1.28202822241036
30
0
41
1
10
14.4915061607197
20
1.23490085585419
30
0
41
1
10
14.8593540286925
20
1.08367659972367
30
0
41
1
10
15.1034426580844
20
0.970035113433624
30
0
41
1
10
15.4712074140107
20
0.78490679808823
30
0
41
1
10
15.5939939075862
20
0.72064162794652
30
0
41
1
10
15.8406601184199
20
0.587988787332108
30
0
41
1
10
15.9649901703756
20
0.519369733157959
30
0
41
1
10
16.5829160602487
20
0.171544718837538
30
0
41
1
10
17.0680076995601
20
-0.121900582351458
30
0
41
1
10
17.6832379385621
20
-0.472128501018403
30
0
41
1
10
17.8069961468348
20
-0.541575930505985
30
0
41
1
10
18.054622258313
20
-0.676987021739876
30
0
41
1
10
18.1778273387588
20
-0.742595037477599
30
0
41
1
10
18.546172343804
20
-0.932443061546593
30
0
41
1
10
18.7902270514212
20
-1.04940747629112
30
0
41
1
10
19.279336948908
20
-1.25872942341897
30
0
41
1
10
19.5243157638111
20
-1.35116919078681
30
0
41
1
10
20.019555026584
20
-1.50567778787865
30
0
41
1
10
20.265293319362
20
-1.5663920700147
30
0
41
1
10
20.7544651407488
20
-1.65201426969693
30
0
41
1
10
20.9982135717777
20
-1.67716972283884
30
0
41
1
10
21.3658750616251
20
-1.68720547116214
30
0
41
1
10
21.4887033544029
20
-1.68594113929268
30
0
41
1
10
21.735542819727
20
-1.67397336437992
30
0
41
1
10
21.8596273941905
20
-1.66324900992086
30
0
41
1
10
21.9889958382056
20
-1.64725426512726
30
0
41
1
10
21.9952721662525
20
-1.64646636437757
30
0
41
1
10
22.0015471699439
20
-1.64566674512133
30
0
0
SPLINE
5
D6
100
AcDbEntity
8
1
62
256
6
ByLayer
370
18
48
1
60
0
100
AcDbSpline
70
4
71
3
72
14
73
10
40
0
40
0
40
0
40
0
40
0.25
40
0.25
40
0.5
40
0.5
40
0.75
40
0.75
40
1
40
1
40
1
40
1
41
1
10
29.7134012990579
20
-0.353959755631706
30
0
41
1
10
29.7314708424179
20
-0.353381179231121
30
0
41
1
10
29.7517784120012
20
-0.342723738846843
30
0
41
1
10
29.7976234821547
20
-0.301165179413175
30
0
41
1
10
29.8219195582496
20
-0.271387706905841
30
0
41
1
10
29.8733001741055
20
-0.195103391746955
30
0
41
1
10
29.899187057985
20
-0.150358348672796
30
0
41
1
10
29.9509792457575
20
-0.049326164528253
30
0
41
1
10
29.9759436941983
20
0.0051659265407693
30
0
41
1
10
29.9996652249888
20
0.0627514645954932
30
0
0
SPLINE
5
D7
100
AcDbEntity
8
1
62
256
6
ByLayer
370
18
48
1
60
0
100
AcDbSpline
70
4
71
3
72
14
73
10
40
0
40
0
40
0
40
0
40
0.262929212794196
40
0.262929212794196
40
0.525858425588391
40
0.525858425588391
40
0.788787638382587
40
0.788787638382587
40
1
40
1
40
1
40
1
41
1
10
5.50539474727259
20
-1.36569958728586
30
0
41
1
10
5.50530657752284
20
-1.41517465550436
30
0
41
1
10
5.50521615770947
20
-1.45869133744102
30
0
41
1
10
5.50503837460644
20
-1.5337991472752
30
0
41
1
10
5.50495037446788
20
-1.56552600551504
30
0
41
1
10
5.504785612728
20
-1.61477697006677
30
0
41
1
10
5.50470832006235
20
-1.63260168009026
30
0
41
1
10
5.50457556117678
20
-1.65259096446508
30
0
41
1
10
5.50451841169124
20
-1.6571081844034
30
0
41
1
10
5.50446251672167
20
-1.65710606491964
30
0
0
SPLINE
5
D8
100
AcDbEntity
8
1
62
256
6
ByLayer
370
18
48
1
60
0
100
AcDbSpline
70
4
71
3
72
14
73
10
40
0
40
0
40
0
40
0
40
0.285693496648277
40
0.285693496648277
40
0.571386993296554
40
0.571386993296554
40
0.857080489944831
40
0.857080489944831
40
1
40
1
40
1
40
1
41
1
10
6.7175618581785
20
-0.766734093443944
30
0
41
1
10
6.75403069612793
20
-0.665568824470313
30
0
41
1
10
6.80393307623177
20
-0.560124077251515
30
0
41
1
10
6.91909931844239
20
-0.364987198722247
30
0
41
1
10
6.98425494421787
20
-0.275478462297457
30
0
41
1
10
7.114688780996
20
-0.133217725893815
30
0
41
1
10
7.17984440677148
20
-0.080599426380445
30
0
41
1
10
7.26623375396304
20
-0.0385317816871407
30
0
41
1
10
7.29311783813432
20
-0.0306684146785869
30
0
41
1
10
7.31735958082436
20
-0.0290181987191431
30
0
0
SPLINE
5
D9
100
AcDbEntity
8
1
62
256
6
ByLayer
370
13
48
1
60
0
100
AcDbSpline
70
4
71
3
72
14
73
10
40
0
40
0
40
0
40
0
40
0.0639238752022622
40
0.0639238752022622
40
0.375949250134842
40
0.375949250134842
40
0.687974625067421
40
0.687974625067421
40
1
40
1
40
1
40
1
41
1
10
5.83961182056464
20
-1.59951775862595
30
0
41
1
10
5.8396049518563
20
-1.59952195884119
30
0
41
1
10
5.83959805432028
20
-1.59925808501836
30
0
41
1
10
5.83955715149767
20
-1.59613302823723
30
0
41
1
10
5.83952160801948
20
-1.58725366576019
30
0
41
1
10
5.83944107591975
20
-1.55673624579745
30
0
41
1
10
5.83939584924786
20
-1.53490647542273
30
0
41
1
10
5.83929534569404
20
-1.47982705806842
30
0
41
1
10
5.83923976375442
20
-1.44648765239487
30
0
41
1
10
5.83917855031603
20
-1.40733626677181
30
0
0
SPLINE
5
DA
100
AcDbEntity
8
1
62
256
6
ByLayer
370
18
48
1
60
0
100
AcDbSpline
70
4
71
3
72
48
73
44
40
0
40
0
40
0
40
0
40
0.0222552529373581
40
0.0222552529373581
40
0.0821132887312212
40
0.0821132887312212
40
0.112042306628152
40
0.112042306628152
40
0.141971324525083
40
0.141971324525083
40
0.201829360318943
40
0.201829360318943
40
0.261687396112804
40
0.261687396112804
40
0.321545431906664
40
0.321545431906664
40
0.381403467700525
40
0.381403467700525
40
0.441261503494385
40
0.441261503494385
40
0.501119539288245
40
0.501119539288245
40
0.560977575082106
40
0.560977575082106
40
0.620835610875966
40
0.620835610875966
40
0.680693646669827
40
0.680693646669827
40
0.740551682463687
40
0.740551682463687
40
0.800409718257548
40
0.800409718257548
40
0.830338736154477
40
0.830338736154477
40
0.860267754051407
40
0.860267754051407
40
0.920125789845266
40
0.920125789845266
40
0.950054807742195
40
0.950054807742195
40
0.979983825639123
40
0.979983825639123
40
1
40
1
40
1
40
1
41
1
10
9.46631860371704
20
1.14164857475856
30
0
41
1
10
9.55062536578839
20
1.17738198241489
30
0
41
1
10
9.63494877527464
20
1.21165011914846
30
0
41
1
10
9.94605403643675
20
1.33206681357217
30
0
41
1
10
10.1719952302312
20
1.40794124067901
30
0
41
1
10
10.5120087317468
20
1.50147820499257
30
0
41
1
10
10.6255753511041
20
1.52929239595133
30
0
41
1
10
10.8521097945985
20
1.57740652437408
30
0
41
1
10
10.965318991291
20
1.5977416678989
30
0
41
1
10
11.3047762157356
20
1.64761835104767
30
0
41
1
10
11.5318626395133
20
1.66578120571339
30
0
41
1
10
11.9848009574324
20
1.67058042747325
30
0
41
1
10
12.2104793529643
20
1.65732618948186
30
0
41
1
10
12.6644701848386
20
1.59992857402568
30
0
41
1
10
12.8904449836325
20
1.5561416384148
30
0
41
1
10
13.3427451734382
20
1.43974729527798
30
0
41
1
10
13.5699185388886
20
1.36743573811199
30
0
41
1
10
14.0221931495107
20
1.19893538774088
30
0
41
1
10
14.2487693374085
20
1.10231539245947
30
0
41
1
10
14.7017618726874
20
0.890528036939742
30
0
41
1
10
14.9274312573661
20
0.775573370144286
30
0
41
1
10
15.3802608056482
20
0.532145699000665
30
0
41
1
10
15.6067082527662
20
0.40431397339978
30
0
41
1
10
16.0586664693612
20
0.143608114993441
30
0
41
1
10
16.2855307124072
20
0.0101195847293809
30
0
41
1
10
16.737712110781
20
-0.253687006762959
30
0
41
1
10
16.9634119085094
20
-0.384484847416417
30
0
41
1
10
17.4166619580044
20
-0.637475808492582
30
0
41
1
10
17.6422106090282
20
-0.758635224817084
30
0
41
1
10
18.0942611409164
20
-0.985494647158532
30
0
41
1
10
18.3210322951979
20
-1.09097123347951
30
0
41
1
10
18.6595934959217
20
-1.2324300844717
30
0
41
1
10
18.7726161913228
20
-1.27659928834973
30
0
41
1
10
18.998666505613
20
-1.35933377126119
30
0
41
1
10
19.1120319417162
20
-1.39771038340427
30
0
41
1
10
19.451221765505
20
-1.50244532579759
30
0
41
1
10
19.6765667285653
20
-1.55875497666548
30
0
41
1
10
20.0158747268178
20
-1.62106436730997
30
0
41
1
10
20.1291067801843
20
-1.63812962392805
30
0
41
1
10
20.3549491240283
20
-1.66443989172868
30
0
41
1
10
20.4678798590947
20
-1.67369938318413
30
0
41
1
10
20.6562078716161
20
-1.68269852094929
30
0
41
1
10
20.7317840088285
20
-1.68454467198813
30
0
41
1
10
20.8073956689694
20
-1.68463724228278
30
0
0
SPLINE
5
DB
100
AcDbEntity
8
1
62
256
6
ByLayer
370
18
48
1
60
0
100
AcDbSpline
70
4
71
3
72
14
73
10
40
0
40
0
40
0
40
0
40
0.287847461559035
40
0.287847461559035
40
0.465885596169272
40
0.465885596169272
40
0.64392373077951
40
0.64392373077951
40
1
40
1
40
1
40
1
41
1
10
27.4826172587143
20
1.1678926307516
30
0
41
1
10
27.6651030759623
20
1.24637751404148
30
0
41
1
10
27.8476697083415
20
1.3178287133253
30
0
41
1
10
28.1421619198971
20
1.41999821736692
30
0
41
1
10
28.2548893997983
20
1.45569759562318
30
0
41
1
10
28.4806642203225
20
1.52046104466757
30
0
41
1
10
28.5935980340792
20
1.5494670207849
30
0
41
1
10
28.9309790634568
20
1.62508139794483
30
0
41
1
10
29.1546788369063
20
1.66074026210094
30
0
41
1
10
29.3788949684235
20
1.68100118219962
30
0
0
SPLINE
5
DC
100
AcDbEntity
8
1
62
256
6
ByLayer
370
18
48
1
60
0
100
AcDbSpline
70
4
71
3
72
8
73
4
40
0
40
0
40
0
40
0
40
1
40
1
40
1
40
1
41
1
10
29.7144018778909
20
0.520187768740072
30
0
41
1
10
29.7490382579926
20
0.542284495481113
30
0
41
1
10
29.780922445946
20
0.569748790876105
30
0
41
1
10
29.8007897423865
20
0.605862707801606
30
0
0
SPLINE
5
DD
100
AcDbEntity
8
1
62
256
6
ByLayer
370
18
48
1
60
0
100
AcDbSpline
70
4
71
3
72
12
73
8
40
0
40
0
40
0
40
0
40
0.250000000000002
40
0.250000000000002
40
0.500000000000004
40
0.500000000000004
40
1
40
1
40
1
40
1
41
1
10
5.87398418092624
20
0.74183233593439
30
0
41
1
10
6.02149177311952
20
0.663824392390779
30
0
41
1
10
6.17057264986732
20
0.584927791501258
30
0
41
1
10
6.47143801168335
20
0.425452062858312
30
0
41
1
10
6.62364408555499
20
0.344648473419511
30
0
41
1
10
7.07784311460333
20
0.103005642512329
30
0
41
1
10
7.37916433515321
20
-0.0579955680108526
30
0
41
1
10
7.67893766708829
20
-0.219076283231175
30
0
0
SPLINE
5
DE
100
AcDbEntity
8
1
62
256
6
ByLayer
370
18
48
1
60
0
100
AcDbSpline
70
4
71
3
72
8
73
4
40
0
40
0
40
0
40
0
40
1
40
1
40
1
40
1
41
1
10
29.3788949684235
20
-1.68100118219965
30
0
41
1
10
29.3642536630531
20
-1.66479672643612
30
0
41
1
10
29.3527565536555
20
-1.63848470059159
30
0
41
1
10
29.3438273995415
20
-1.60162033088665
30
0
0
SPLINE
5
DF
100
AcDbEntity
8
1
62
256
6
ByLayer
370
18
48
1
60
0
100
AcDbSpline
70
4
71
3
72
12
73
8
40
0
40
0
40
0
40
0
40
0.25
40
0.25
40
0.5
40
0.5
40
1
40
1
40
1
40
1
41
1
10
5.50327166689476
20
1.30397678817744
30
0
41
1
10
5.50321346778401
20
1.28408547576697
30
0
41
1
10
5.51678170632476
20
1.26488747308315
30
0
41
1
10
5.55066232049288
20
1.22984678594574
30
0
41
1
10
5.57190967564918
20
1.21357649999589
30
0
41
1
10
5.63973387841713
20
1.16838241168554
30
0
41
1
10
5.69175124484056
20
1.14189295802825
30
0
41
1
10
5.74655328240016
20
1.11852897992517
30
0
0
SPLINE
5
E0
100
AcDbEntity
8
1
62
256
6
ByLayer
370
18
48
1
60
0
100
AcDbSpline
70
4
71
3
72
8
73
4
40
0
40
0
40
0
40
0
40
1
40
1
40
1
40
1
41
1
10
29.2759296942996
20
0.272191664362282
30
0
41
1
10
29.2916978983219
20
0.26172838571199
30
0
41
1
10
29.3074948330901
20
0.25138565987649
30
0
41
1
10
29.3233213159989
20
0.241166916604527
30
0
0
SPLINE
5
E1
100
AcDbEntity
8
1
62
256
6
ByLayer
370
18
48
1
60
0
100
AcDbSpline
70
4
71
3
72
8
73
4
40
0
40
0
40
0
40
0
40
1
40
1
40
1
40
1
41
1
10
29.38174875893
20
0.204096103887196
30
0
41
1
10
29.4178794626652
20
0.181579246584135
30
0
41
1
10
29.454167919919
20
0.159724315386029
30
0
41
1
10
29.4906237213324
20
0.138571552157572
30
0
0
SPLINE
5
E2
100
AcDbEntity
8
1
62
256
6
ByLayer
370
18
48
1
60
0
100
AcDbSpline
70
4
71
3
72
10
73
6
40
0
40
0
40
0
40
0
40
0.5
40
0.5
40
1
40
1
40
1
40
1
41
1
10
5.50539474727259
20
-1.36569958728603
30
0
41
1
10
5.56066499996035
20
-1.36336773315298
30
0
41
1
10
5.61617121930095
20
-1.36628471305636
30
0
41
1
10
5.72758092381258
20
-1.38065208197654
30
0
41
1
10
5.78365613848845
20
-1.39217735970644
30
0
41
1
10
5.83917855031603
20
-1.40733626677178
30
0
0
SPLINE
5
E3
100
AcDbEntity
8
1
62
256
6
ByLayer
370
18
48
1
60
0
100
AcDbSpline
70
4
71
3
72
8
73
4
40
0
40
0
40
0
40
0
40
1
40
1
40
1
40
1
41
1
10
29.9996652249889
20
0.0627514645954932
30
0
41
1
10
30.0001115916661
20
0.0209171548651739
30
0
41
1
10
30.0001115916661
20
-0.0209171548651739
30
0
41
1
10
29.9996652249889
20
-0.0627514645954932
30
0
0
SPLINE
5
E4
100
AcDbEntity
8
1
62
256
6
ByLayer
370
18
48
1
60
0
100
AcDbSpline
70
4
71
3
72
8
73
4
40
0
40
0
40
0
40
0
40
1
40
1
40
1
40
1
41
1
10
29.9002094791472
20
0.328971088952471
30
0
41
1
10
29.8669753545989
20
0.421234655028172
30
0
41
1
10
29.8338353736189
20
0.513531836771165
30
0
41
1
10
29.8007897423865
20
0.605862707801606
30
0
0
SPLINE
5
E5
100
AcDbEntity
8
1
62
256
6
ByLayer
370
13
48
1
60
0
100
AcDbSpline
70
4
71
3
72
113
73
109
40
0
40
0
40
0
40
0
40
0.0032617116422029
40
0.0079107504043105
40
0.0172088279285254
40
0.0265069054527402
40
0.0404540217390605
40
0.0451030605011686
40
0.0544011380253812
40
0.0636992155495956
40
0.0776463318359181
40
0.0822953705980262
40
0.0915934481222433
40
0.100891525646455
40
0.114838641932775
40
0.119487680694884
40
0.128785758219098
40
0.138083835743311
40
0.152030952029633
40
0.156679990791742
40
0.165978068315956
40
0.17527614584017
40
0.189223262126493
40
0.193872300888599
40
0.203170378412813
40
0.212468455937028
40
0.226415572223349
40
0.231064610985457
40
0.240362688509673
40
0.249660766033886
40
0.263607882320208
40
0.268256921082315
40
0.27755499860653
40
0.286853076130744
40
0.300800192417067
40
0.305449231179173
40
0.314747308703387
40
0.324045386227601
40
0.337992502513924
40
0.342641541276031
40
0.351939618800245
40
0.36123769632446
40
0.375184812610781
40
0.379833851372888
40
0.389131928897103
40
0.398430006421316
40
0.41237712270764
40
0.417026161469746
40
0.42632423899396
40
0.435622316518174
40
0.449569432804496
40
0.454218471566604
40
0.463516549090819
40
0.472814626615032
40
0.486761742901354
40
0.491410781663462
40
0.500708859187676
40
0.51000693671189
40
0.523954052998212
40
0.528603091760319
40
0.537901169284533
40
0.547199246808748
40
0.56114636309507
40
0.565795401857177
40
0.575093479381392
40
0.584391556905606
40
0.598338673191927
40
0.602987711954035
40
0.61228578947825
40
0.621583867002464
40
0.635530983288785
40
0.640180022050893
40
0.649478099575107
40
0.658776177099321
40
0.672723293385643
40
0.67737233214775
40
0.686670409671965
40
0.695968487196179
40
0.709915603482501
40
0.714564642244608
40
0.723862719768822
40
0.733160797293037
40
0.747107913579359
40
0.751756952341466
40
0.761055029865681
40
0.770353107389896
40
0.784300223676217
40
0.788949262438324
40
0.798247339962538
40
0.807545417486752
40
0.821492533773073
40
0.826141572535182
40
0.835439650059395
40
0.844737727583611
40
0.858684843869933
40
0.863333882632039
40
0.872631960156252
40
0.881930037680467
40
0.894714894276263
40
0.900526192728897
40
0.906337491181533
40
0.919122347777327
40
0.937718502825755
40
0.970261774160506
40
0.974910812922613
40
0.984208890446828
40
0.993506967971042
40
1
40
1
40
1
40
1
41
1
10
17.5272267750645
20
-0.715769261456899
30
0
41
1
10
17.5211741856886
20
-0.716446506741306
30
0
41
1
10
17.5064945795241
20
-0.718077837551164
30
0
41
1
10
17.4745608320517
20
-0.721567242797335
30
0
41
1
10
17.4314302109269
20
-0.726119540899987
30
0
41
1
10
17.3710468606186
20
-0.73221476273423
30
0
41
1
10
17.3192878149935
20
-0.737150012626586
30
0
41
1
10
17.267529553376
20
-0.741850075306701
30
0
41
1
10
17.2243991845014
20
-0.745609259827262
30
0
41
1
10
17.1640160236275
20
-0.750586229243908
30
0
41
1
10
17.1122570343267
20
-0.754556487690053
30
0
41
1
10
17.0604987774474
20
-0.758285206096957
30
0
41
1
10
17.0173683991823
20
-0.761229700066593
30
0
41
1
10
16.9569852117974
20
-0.765059175517308
30
0
41
1
10
16.9052261828143
20
-0.768040254090636
30
0
41
1
10
16.8534678712665
20
-0.770774210173755
30
0
41
1
10
16.8103374407859
20
-0.772885047624982
30
0
41
1
10
16.7499541767308
20
-0.775541433726744
30
0
41
1
10
16.6981950839656
20
-0.777512346655726
30
0
41
1
10
16.6464367174323
20
-0.779231339922092
30
0
41
1
10
16.6033062504478
20
-0.780492243707926
30
0
41
1
10
16.5429229558005
20
-0.781954702704439
30
0
41
1
10
16.4911638593121
20
-0.782900658731677
30
0
41
1
10
16.4394055087441
20
-0.783593654839564
30
0
41
1
10
16.3962750610783
20
-0.783998112355761
30
0
41
1
10
16.3358917919518
20
-0.78426148210886
30
0
41
1
10
16.2841327103278
20
-0.784181180070192
30
0
41
1
10
16.2323743614507
20
-0.783848180352209
30
0
41
1
10
16.189243904819
20
-0.783396830451153
30
0
41
1
10
16.1288606064563
20
-0.78246308982483
30
0
41
1
10
16.0771014854212
20
-0.781359287675258
30
0
41
1
10
16.0253430891484
20
-0.780003937028681
30
0
41
1
10
15.982212595067
20
-0.778700456581873
30
0
41
1
10
15.92182925812
20
-0.776575838411816
30
0
41
1
10
15.8700701217057
20
-0.774454944567225
30
0
41
1
10
15.8183117288236
20
-0.772084559604849
30
0
41
1
10
15.775181249199
20
-0.769935699359223
30
0
41
1
10
15.7147979479746
20
-0.766631039231498
30
0
41
1
10
15.6630388534653
20
-0.763504034415092
30
0
41
1
10
15.6112805054605
20
-0.760131384998118
30
0
41
1
10
15.5681500587707
20
-0.757149075082111
30
0
41
1
10
15.5077667882055
20
-0.752683057996677
30
0
41
1
10
15.4560077021009
20
-0.748567666448082
30
0
41
1
10
15.4042493455732
20
-0.744211541083757
30
0
41
1
10
15.3611188823298
20
-0.740412128696619
30
0
41
1
10
15.3007355760892
20
-0.734808781174422
30
0
41
1
10
15.2489764494113
20
-0.729726696768864
30
0
41
1
10
15.1972180482275
20
-0.724409731098319
30
0
41
1
10
15.1540875508004
20
-0.719812768800097
30
0
41
1
10
15.0937042082028
20
-0.713100598960807
30
0
41
1
10
15.0419450630258
20
-0.707077354099141
30
0
41
1
10
14.9901866551801
20
-0.700826034347216
30
0
41
1
10
14.94705615526
20
-0.695454288722402
30
0
41
1
10
14.8866728086543
20
-0.687666637681957
30
0
41
1
10
14.8349136587128
20
-0.680732625626945
30
0
41
1
10
14.7831552435677
20
-0.673579314130762
30
0
41
1
10
14.7400247329886
20
-0.667461184053707
30
0
41
1
10
14.6796413617596
20
-0.658639960902576
30
0
41
1
10
14.6278821823747
20
-0.650832906548999
30
0
41
1
10
14.5761237326364
20
-0.642816404295559
30
0
41
1
10
14.532993195162
20
-0.635984915788384
30
0
41
1
10
14.4726097977032
20
-0.626177469236978
30
0
41
1
10
14.4208506103736
20
-0.617539013234477
30
0
41
1
10
14.3690921675704
20
-0.608701886113124
30
0
41
1
10
14.3259616492471
20
-0.601193195797691
30
0
41
1
10
14.2655783041112
20
-0.590451235923922
30
0
41
1
10
14.2138191853288
20
-0.581026736865766
30
0
41
1
10
14.1620608266917
20
-0.571415260059382
30
0
41
1
10
14.1189303829601
20
-0.56326860824592
30
0
41
1
10
14.0585471387094
20
-0.551648135388774
30
0
41
1
10
14.0067880956709
20
-0.541486594835845
30
0
41
1
10
13.9550297953408
20
-0.531150655071627
30
0
41
1
10
13.9118993846065
20
-0.522408277975472
30
0
41
1
10
13.8515161592046
20
-0.509969456132097
30
0
41
1
10
13.7997571084322
20
-0.499123401286624
30
0
41
1
10
13.7479987866994
20
-0.488116367707761
30
0
41
1
10
13.7048683565669
20
-0.478823377233454
30
0
41
1
10
13.6444851099714
20
-0.465630357124667
30
0
41
1
10
13.5927260496559
20
-0.454155700181786
30
0
41
1
10
13.5409677289664
20
-0.442534315995431
30
0
41
1
10
13.4978373073739
20
-0.432738620849307
30
0
41
1
10
13.4374540815967
20
-0.418859427336003
30
0
41
1
10
13.3856950424777
20
-0.406815357693944
30
0
41
1
10
13.3339367388624
20
-0.394639608006798
30
0
41
1
10
13.2908063224799
20
-0.384391796027046
30
0
41
1
10
13.2304230839504
20
-0.369898171052057
30
0
41
1
10
13.1786640152631
20
-0.357347037511659
30
0
41
1
10
13.1269056698765
20
-0.34468005527313
30
0
41
1
10
13.0837752099125
20
-0.334033335259875
30
0
41
1
10
13.023391897913
20
-0.319000662050797
30
0
41
1
10
12.9716327591818
20
-0.306007874426598
30
0
41
1
10
12.9198743448926
20
-0.292915768120054
30
0
41
1
10
12.8767438339249
20
-0.281925765179494
30
0
41
1
10
12.816360464345
20
-0.266432712570577
30
0
41
1
10
12.7646012876896
20
-0.253066416130338
30
0
41
1
10
12.712842839755
20
-0.239617989439267
30
0
41
1
10
12.6697123186883
20
-0.228342555387456
30
0
41
1
10
12.6114852972344
20
-0.213040933951646
30
0
41
1
10
12.5597265012583
20
-0.199373430752502
30
0
41
1
10
12.5144376018846
20
-0.187365123430879
30
0
41
1
10
12.4691513934677
20
-0.175293916683188
30
0
41
1
10
12.4001449129531
20
-0.156805193313716
30
0
41
1
10
12.2815419510291
20
-0.12479331457962
30
0
41
1
10
12.1780196965569
20
-0.096777124011993
30
0
41
1
10
12.0917493279179
20
-0.0733715317164751
30
0
41
1
10
12.0486186959655
20
-0.0616014522194916
30
0
41
1
10
12.0020661936909
20
-0.0488812893083264
30
0
41
1
10
11.9727653505949
20
-0.0408758801651743
30
0
41
1
10
11.9607173100404
20
-0.0375838825767971
30
0
0
SPLINE
5
E6
100
AcDbEntity
8
1
62
256
6
ByLayer
370
18
48
1
60
0
100
AcDbSpline
70
4
71
3
72
8
73
4
40
0
40
0
40
0
40
0
40
1
40
1
40
1
40
1
41
1
10
29.9996652249889
20
-0.0627514645954648
30
0
41
1
10
29.9655532404112
20
-0.150756104181795
30
0
41
1
10
29.9324383410271
20
-0.239498302531132
30
0
41
1
10
29.9002094791471
20
-0.328971088952585
30
0
0
SPLINE
5
E7
100
AcDbEntity
8
1
62
256
6
ByLayer
370
18
48
1
60
0
100
AcDbSpline
70
4
71
2
72
6
73
3
40
0
40
0
40
0
40
1
40
1
40
1
41
1
10
16.0692487202413
20
0.0426328716054627
30
0
41
1
10
16.3852242898597
20
-0.044684701005167
30
0
41
1
10
16.6913016201553
20
-0.226483994034169
30
0
0
SPLINE
5
E8
100
AcDbEntity
8
1
62
256
6
ByLayer
370
18
48
1
60
0
100
AcDbSpline
70
4
71
2
72
6
73
3
40
0
40
0
40
0
40
1
40
1
40
1
41
1
10
25.0691502167041
20
0.0426681351809179
30
0
41
1
10
25.3798969002703
20
-0.0425573015587304
30
0
41
1
10
25.690849068778
20
-0.226366240380116
30
0
0
SPLINE
5
E9
100
AcDbEntity
8
1
62
256
6
ByLayer
370
18
48
1
60
0
100
AcDbSpline
70
4
71
2
72
6
73
3
40
0
40
0
40
0
40
1
40
1
40
1
41
1
10
20.9799645241208
20
-0.0428845301465799
30
0
41
1
10
20.6875962162094
20
0.0375549392981043
30
0
41
1
10
20.3983852670753
20
0.202799773319413
30
0
0
SPLINE
5
EA
100
AcDbEntity
8
1
62
256
6
ByLayer
370
18
48
1
60
0
100
AcDbSpline
70
4
71
2
72
6
73
3
40
0
40
0
40
0
40
1
40
1
40
1
41
1
10
11.9809172960969
20
-0.0431031075327724
30
0
41
1
10
11.7084006387512
20
0.0301688728015677
30
0
41
1
10
11.4384729335016
20
0.182919276821224
30
0
0
SPLINE
5
EB
100
AcDbEntity
8
1
62
256
6
ByLayer
370
18
48
1
60
0
100
AcDbSpline
70
4
71
3
72
14
73
10
40
0
40
0
40
0
40
0
40
0.209013280625479
40
0.350407256869734
40
0.465993461293375
40
0.556336020562717
40
0.668606403571379
40
0.847711901161365
40
1
40
1
40
1
40
1
41
1
10
25.2855338540288
20
1.63241792274681
30
0
41
1
10
25.0564267233216
20
1.63300556403209
30
0
41
1
10
24.6722302339775
20
1.63352803964401
30
0
41
1
10
24.1608328892907
20
1.63114082624813
30
0
41
1
10
23.7798706868511
20
1.63157529481146
30
0
41
1
10
23.430753419945
20
1.63047744450466
30
0
41
1
10
23.0119275622171
20
1.63046544458851
30
0
41
1
10
22.5251360294701
20
1.6288963358717
30
0
41
1
10
22.1616117404435
20
1.62830579685323
30
0
41
1
10
21.9945728090879
20
1.62808430499581
30
0
0
SPLINE
5
EC
100
AcDbEntity
8
1
62
256
6
ByLayer
370
18
48
1
60
0
100
AcDbSpline
70
4
71
3
72
15
73
11
40
0
40
0
40
0
40
0
40
0.226292761644081
40
0.389727377519644
40
0.463800558611928
40
0.519924188494651
40
0.574548094783101
40
0.679998172361272
40
0.809075578242917
40
1
40
1
40
1
40
1
41
1
10
21.6797895597468
20
-1.62770786353604
30
0
41
1
10
21.9517957450241
20
-1.6280133263538
30
0
41
1
10
22.4203081581932
20
-1.62839861423916
30
0
41
1
10
22.9780364125258
20
-1.63065962429209
30
0
41
1
10
23.3311286690833
20
-1.63005589605495
30
0
41
1
10
23.5533596564348
20
-1.63121408762567
30
0
41
1
10
23.8133308105728
20
-1.63135644792888
30
0
41
1
10
24.1609230786724
20
-1.63121748446224
30
0
41
1
10
24.6726401686171
20
-1.63349440448627
30
0
41
1
10
25.0571754112875
20
-1.63300759945449
30
0
41
1
10
25.2865428486839
20
-1.63241982094209
30
0
0
SPLINE
5
ED
100
AcDbEntity
8
1
62
256
6
ByLayer
370
18
48
1
60
0
100
AcDbSpline
70
4
71
3
72
14
73
10
40
0
40
0
40
0
40
0
40
0.187931325694181
40
0.326638701346708
40
0.433754416292729
40
0.513700004534292
40
0.615566994311518
40
0.777587362377153
40
1
40
1
40
1
40
1
41
1
10
12.6781106622873
20
-1.61089119899165
30
0
41
1
10
12.9041819960203
20
-1.61126750582571
30
0
41
1
10
13.2971241345058
20
-1.6118719237181
30
0
41
1
10
13.8189163270319
20
-1.61394100570698
30
0
41
1
10
14.2108749165349
20
-1.61359206494305
30
0
41
1
10
14.5583031584893
20
-1.61498591028888
30
0
41
1
10
14.9718775843938
20
-1.6154796868787
30
0
41
1
10
15.5569736775025
20
-1.61727251388558
30
0
41
1
10
16.0193621852401
20
-1.61800298869264
30
0
41
1
10
16.2868594895899
20
-1.61838896436507
30
0
0
SPLINE
5
EE
100
AcDbEntity
8
1
62
256
6
ByLayer
370
18
48
1
60
0
100
AcDbSpline
70
4
71
2
72
6
73
3
40
0
40
0
40
0
40
1
40
1
40
1
41
1
10
5.83957791462564
20
-1.59967193151954
30
0
41
1
10
6.56269627328348
20
-1.60097410762731
30
0
41
1
10
7.28581690884786
20
-1.60209611459212
30
0
0
SPLINE
5
EF
100
AcDbEntity
8
1
62
256
6
ByLayer
370
18
48
1
60
0
100
AcDbSpline
70
4
71
2
72
6
73
3
40
0
40
0
40
0
40
1
40
1
40
1
41
1
10
29.1785554510798
20
0.322262049136185
30
0
41
1
10
29.12798106066
20
0.352069497018931
30
0
41
1
10
29.0778123598497
20
0.383942391969157
30
0
0
SPLINE
5
F0
100
AcDbEntity
8
1
62
256
6
ByLayer
370
18
48
1
60
0
100
AcDbSpline
70
4
71
3
72
15
73
11
40
0
40
0
40
0
40
0
40
0.251349808791867
40
0.434421941990191
40
0.518277402001574
40
0.579579744148953
40
0.639770580667138
40
0.760734056660242
40
0.917374174400166
40
1
40
1
40
1
40
1
41
1
10
16.2878693709437
20
1.61838828516804
30
0
41
1
10
16.0201768915673
20
1.61800310320976
30
0
41
1
10
15.5574685613611
20
1.61745359833174
30
0
41
1
10
15.0053234439136
20
1.61523436445492
30
0
41
1
10
14.6556473122964
20
1.61558733258283
30
0
41
1
10
14.4370349508659
20
1.61418168014657
30
0
41
1
10
14.1788045947525
20
1.61378936503812
30
0
41
1
10
13.8189258681844
20
1.61386543639034
30
0
41
1
10
13.4351857246791
20
1.61242377751657
30
0
41
1
10
13.1803049710466
20
1.61181909858405
30
0
41
1
10
13.0922873123254
20
1.61163541871221
30
0
0
SPLINE
5
F1
100
AcDbEntity
8
1
62
256
6
ByLayer
370
18
48
1
60
0
100
AcDbSpline
70
4
71
2
72
6
73
3
40
0
40
0
40
0
40
1
40
1
40
1
41
1
10
7.28480665150107
20
1.60209456705701
30
0
41
1
10
6.56219116119794
20
1.60097213691725
30
0
41
1
10
5.8395779337454
20
1.59967183560508
30
0
0
LINE
5
7B
100
AcDbEntity
8
SK1
62
256
6
ByLayer
370
18
48
1
60
0
100
AcDbLine
10
-36
20
1.25
30
0
11
-36
21
-1.25
31
0
39
0
210
0
220
0
230
1
0
LINE
5
7D
100
AcDbEntity
8
SK1
62
256
6
ByLayer
370
18
48
1
60
0
100
AcDbLine
10
0
20
-3
30
0
11
0
21
3
31
0
39
0
210
0
220
0
230
1
0
LINE
5
7E
100
AcDbEntity
8
SK1
62
256
6
ByLayer
370
18
48
1
60
0
100
AcDbLine
10
-34.989637
20
3
30
0
11
-34.989637
21
-3
31
0
39
0
210
0
220
0
230
1
0
LINE
5
7F
100
AcDbEntity
8
1
62
256
6
ByLayer
370
13
48
1
60
0
100
AcDbLine
10
0.831769
20
2.325101
30
0
11
0.831769
21
-2.325101
31
0
39
0
210
0
220
0
230
1
0
LINE
5
80
100
AcDbEntity
8
1
62
256
6
ByLayer
370
13
48
1
60
0
100
AcDbLine
10
1.665068
20
1.650204
30
0
11
1.665068
21
-1.650204
31
0
39
0
210
0
220
0
230
1
0
LINE
5
81
100
AcDbEntity
8
1
62
256
6
ByLayer
370
18
48
1
60
0
100
AcDbLine
10
0
20
-3
30
0
11
0
21
3
31
0
39
0
210
0
220
0
230
1
0
LINE
5
82
100
AcDbEntity
8
1
62
256
6
ByLayer
370
18
48
1
60
0
100
AcDbLine
10
29.201755
20
-0.760599
30
0
11
29.709607
21
-0.352882
31
0
39
0
210
0
220
0
230
1
0
LINE
5
83
100
AcDbEntity
8
80
62
256
6
ByLayer
370
18
48
1
60
0
100
AcDbLine
10
0
20
0
30
0
11
-5
21
0
31
0
39
0
210
0
220
0
230
1
0
LINE
5
84
100
AcDbEntity
8
4
62
256
6
ByLayer
370
18
48
0.05
60
0
100
AcDbLine
10
30
20
0
30
0
11
0
21
0
31
0
39
0
210
0
220
0
230
1
0
LINE
5
86
100
AcDbEntity
8
SK4
62
256
6
ByLayer
370
18
48
0.05
60
0
100
AcDbLine
10
35
20
0
30
0
11
-41
21
0
31
0
39
0
210
0
220
0
230
1
0
LINE
5
88
100
AcDbEntity
8
SK1
62
256
6
ByLayer
370
18
48
1
60
0
100
AcDbLine
10
-36
20
-1.25
30
0
11
-34.989637
21
-3
31
0
39
0
210
0
220
0
230
1
0
LINE
5
89
100
AcDbEntity
8
SK1
62
256
6
ByLayer
370
18
48
1
60
0
100
AcDbLine
10
-34.989637
20
3
30
0
11
-36
21
1.25
31
0
39
0
210
0
220
0
230
1
0
LINE
5
8A
100
AcDbEntity
8
SK1
62
256
6
ByLayer
370
18
48
1
60
0
100
AcDbLine
10
-34.989637
20
-3
30
0
11
0
21
-3
31
0
39
0
210
0
220
0
230
1
0
LINE
5
8B
100
AcDbEntity
8
SK1
62
256
6
ByLayer
370
18
48
1
60
0
100
AcDbLine
10
0
20
3
30
0
11
-34.989637
21
3
31
0
39
0
210
0
220
0
230
1
0
LINE
5
8C
100
AcDbEntity
8
1
62
256
6
ByLayer
370
18
48
1
60
0
100
AcDbLine
10
1.665068
20
-1.650204
30
0
11
5.504453
21
-1.657115
31
0
39
0
210
0
220
0
230
1
0
LINE
5
8D
100
AcDbEntity
8
1
62
256
6
ByLayer
370
18
48
1
60
0
100
AcDbLine
10
11.800526
20
-1.668448
30
0
11
12.365865
21
-1.669465
31
0
39
0
210
0
220
0
230
1
0
LINE
5
8E
100
AcDbEntity
8
1
62
256
6
ByLayer
370
18
48
1
60
0
100
AcDbLine
10
20.805771
20
-1.684657
30
0
11
21.36764
21
-1.685669
31
0
39
0
210
0
220
0
230
1
0
LINE
5
8F
100
AcDbEntity
8
1
62
256
6
ByLayer
370
18
48
1
60
0
100
AcDbLine
10
21.367508
20
1.685668
30
0
11
20.805771
21
1.684657
31
0
39
0
210
0
220
0
230
1
0
LINE
5
90
100
AcDbEntity
8
1
62
256
6
ByLayer
370
18
48
1
60
0
100
AcDbLine
10
12.365775
20
1.669465
30
0
11
11.800526
21
1.668448
31
0
39
0
210
0
220
0
230
1
0
LINE
5
91
100
AcDbEntity
8
1
62
256
6
ByLayer
370
18
48
1
60
0
100
AcDbLine
10
5.504453
20
1.657115
30
0
11
1.665068
21
1.650204
31
0
39
0
210
0
220
0
230
1
0
LINE
5
92
100
AcDbEntity
8
81
62
256
6
ByLayer
370
18
48
1
60
0
100
AcDbLine
10
30
20
0
30
0
11
35
21
0
31
0
39
0
210
0
220
0
230
1
0
LINE
5
93
100
AcDbEntity
8
SK2
62
256
6
ByLayer
370
13
48
1
60
0
100
AcDbLine
10
-44.625163
20
32.117107
30
0
11
-44.625163
21
-11.75
31
0
39
0
210
0
220
0
230
1
0
LINE
5
95
100
AcDbEntity
8
SK2
62
256
6
ByLayer
370
13
48
1
60
0
100
AcDbLine
10
-37.5875
20
3
30
0
11
-46.625163
21
3
31
0
39
0
210
0
220
0
230
1
0
LINE
5
96
100
AcDbEntity
8
SK2
62
256
6
ByLayer
370
13
48
1
60
0
100
AcDbLine
10
-37.5875
20
-3
30
0
11
-46.625163
21
-3
31
0
39
0
210
0
220
0
230
1
0
LINE
5
97
100
AcDbEntity
8
1
62
256
6
ByLayer
370
18
48
1
60
1
100
AcDbLine
10
-44.625163
20
3
30
0
11
-45.085946
21
6.499998
31
0
39
0
210
0
220
0
230
1
0
LINE
5
98
100
AcDbEntity
8
1
62
256
6
ByLayer
370
18
48
1
60
1
100
AcDbLine
10
-45.085946
20
6.499998
30
0
11
-44.164379
21
6.500002
31
0
39
0
210
0
220
0
230
1
0
LINE
5
99
100
AcDbEntity
8
1
62
256
6
ByLayer
370
18
48
1
60
1
100
AcDbLine
10
-44.164379
20
6.500002
30
0
11
-44.625163
21
3
31
0
39
0
210
0
220
0
230
1
0
LINE
5
9A
100
AcDbEntity
8
1
62
256
6
ByLayer
370
18
48
1
60
1
100
AcDbLine
10
-44.625163
20
-3
30
0
11
-44.164379
21
-6.499998
31
0
39
0
210
0
220
0
230
1
0
LINE
5
9B
100
AcDbEntity
8
1
62
256
6
ByLayer
370
18
48
1
60
1
100
AcDbLine
10
-44.164379
20
-6.499998
30
0
11
-45.085946
21
-6.500002
31
0
39
0
210
0
220
0
230
1
0
LINE
5
9C
100
AcDbEntity
8
1
62
256
6
ByLayer
370
18
48
1
60
1
100
AcDbLine
10
-45.085946
20
-6.500002
30
0
11
-44.625163
21
-3
31
0
39
0
210
0
220
0
230
1
0
LINE
5
9D
100
AcDbEntity
8
2
62
256
6
ByLayer
370
13
48
1
60
0
100
AcDbLine
10
42.083343
20
29.778727
30
0
11
42.083343
21
-10.45
31
0
39
0
210
0
220
0
230
1
0
LINE
5
9F
100
AcDbEntity
8
2
62
256
6
ByLayer
370
13
48
1
60
0
100
AcDbLine
10
30.917
20
1.7
30
0
11
44.083343
21
1.7
31
0
39
0
210
0
220
0
230
1
0
LINE
5
A0
100
AcDbEntity
8
2
62
256
6
ByLayer
370
13
48
1
60
0
100
AcDbLine
10
30.917
20
-1.7
30
0
11
44.083343
21
-1.7
31
0
39
0
210
0
220
0
230
1
0
LINE
5
A1
100
AcDbEntity
8
1
62
256
6
ByLayer
370
18
48
1
60
1
100
AcDbLine
10
42.083343
20
1.7
30
0
11
41.622559
21
5.199998
31
0
39
0
210
0
220
0
230
1
0
LINE
5
A2
100
AcDbEntity
8
1
62
256
6
ByLayer
370
18
48
1
60
1
100
AcDbLine
10
41.622559
20
5.199998
30
0
11
42.544126
21
5.200002
31
0
39
0
210
0
220
0
230
1
0
LINE
5
A3
100
AcDbEntity
8
1
62
256
6
ByLayer
370
18
48
1
60
1
100
AcDbLine
10
42.544126
20
5.200002
30
0
11
42.083343
21
1.7
31
0
39
0
210
0
220
0
230
1
0
LINE
5
A4
100
AcDbEntity
8
1
62
256
6
ByLayer
370
18
48
1
60
1
100
AcDbLine
10
42.083343
20
-1.7
30
0
11
42.544126
21
-5.199998
31
0
39
0
210
0
220
0
230
1
0
LINE
5
A5
100
AcDbEntity
8
1
62
256
6
ByLayer
370
18
48
1
60
1
100
AcDbLine
10
42.544126
20
-5.199998
30
0
11
41.622559
21
-5.200002
31
0
39
0
210
0
220
0
230
1
0
LINE
5
A6
100
AcDbEntity
8
1
62
256
6
ByLayer
370
18
48
1
60
1
100
AcDbLine
10
41.622559
20
-5.200002
30
0
11
42.083343
21
-1.7
31
0
39
0
210
0
220
0
230
1
0
LINE
5
F8
100
AcDbEntity
8
1
62
256
6
ByLayer
370
18
48
1
60
1
100
AcDbLine
10
-44.625163
20
3
30
0
11
-45.085946
21
6.499998
31
0
39
0
210
0
220
0
230
1
0
LINE
5
F9
100
AcDbEntity
8
1
62
256
6
ByLayer
370
18
48
1
60
1
100
AcDbLine
10
-45.085946
20
6.499998
30
0
11
-44.164379
21
6.500002
31
0
39
0
210
0
220
0
230
1
0
LINE
5
FA
100
AcDbEntity
8
1
62
256
6
ByLayer
370
18
48
1
60
1
100
AcDbLine
10
-44.164379
20
6.500002
30
0
11
-44.625163
21
3
31
0
39
0
210
0
220
0
230
1
0
LINE
5
FC
100
AcDbEntity
8
1
62
256
6
ByLayer
370
18
48
1
60
1
100
AcDbLine
10
-44.625163
20
-3
30
0
11
-44.164379
21
-6.499998
31
0
39
0
210
0
220
0
230
1
0
LINE
5
FD
100
AcDbEntity
8
1
62
256
6
ByLayer
370
18
48
1
60
1
100
AcDbLine
10
-44.164379
20
-6.499998
30
0
11
-45.085946
21
-6.500002
31
0
39
0
210
0
220
0
230
1
0
LINE
5
FE
100
AcDbEntity
8
1
62
256
6
ByLayer
370
18
48
1
60
1
100
AcDbLine
10
-45.085946
20
-6.500002
30
0
11
-44.625163
21
-3
31
0
39
0
210
0
220
0
230
1
0
LINE
5
102
100
AcDbEntity
8
1
62
256
6
ByLayer
370
18
48
1
60
1
100
AcDbLine
10
42.083343
20
1.7
30
0
11
41.622559
21
5.199998
31
0
39
0
210
0
220
0
230
1
0
LINE
5
103
100
AcDbEntity
8
1
62
256
6
ByLayer
370
18
48
1
60
1
100
AcDbLine
10
41.622559
20
5.199998
30
0
11
42.544126
21
5.200002
31
0
39
0
210
0
220
0
230
1
0
LINE
5
104
100
AcDbEntity
8
1
62
256
6
ByLayer
370
18
48
1
60
1
100
AcDbLine
10
42.544126
20
5.200002
30
0
11
42.083343
21
1.7
31
0
39
0
210
0
220
0
230
1
0
LINE
5
106
100
AcDbEntity
8
1
62
256
6
ByLayer
370
18
48
1
60
1
100
AcDbLine
10
42.083343
20
-1.7
30
0
11
42.544126
21
-5.199998
31
0
39
0
210
0
220
0
230
1
0
LINE
5
107
100
AcDbEntity
8
1
62
256
6
ByLayer
370
18
48
1
60
1
100
AcDbLine
10
42.544126
20
-5.199998
30
0
11
41.622559
21
-5.200002
31
0
39
0
210
0
220
0
230
1
0
LINE
5
108
100
AcDbEntity
8
1
62
256
6
ByLayer
370
18
48
1
60
1
100
AcDbLine
10
41.622559
20
-5.200002
30
0
11
42.083343
21
-1.7
31
0
39
0
210
0
220
0
230
1
0
MTEXT
5
F2
100
AcDbEntity
8
SK6
62
256
6
ByLayer
370
13
48
1
60
0
100
AcDbMText
10
-31.293293
20
34.240328
30
0
210
0
220
0
230
1
1
\W0.7433;860.1-0340-021A0-PM P1BM
40
3.5
41
0
44
1.084337
50
0
71
7
72
5
7
iso_b_vert
0
MTEXT
5
F6
100
AcDbEntity
8
SK2
62
256
6
ByLayer
370
18
48
1
60
0
100
AcDbMText
10
-46.189796
20
16.409024
30
0
210
0
220
0
230
1
1
%%c
40
3.5
41
0
44
1.084337
50
90
71
7
72
5
7
iso_b_vert
0
MTEXT
5
F7
100
AcDbEntity
8
SK2
62
256
6
ByLayer
370
18
48
1
60
0
100
AcDbMText
10
-46.189796
20
21.63168
30
0
210
0
220
0
230
1
1
\W0.7317;6,000
40
3.5
41
0
44
1.084337
50
90
71
7
72
5
7
iso_b_vert
0
MTEXT
5
100
100
AcDbEntity
8
2
62
256
6
ByLayer
370
18
48
1
60
0
100
AcDbMText
10
40.518709
20
13.70211
30
0
210
0
220
0
230
1
1
%%c
40
3.5
41
0
44
1.084337
50
90
71
7
72
5
7
iso_b_vert
0
MTEXT
5
101
100
AcDbEntity
8
2
62
256
6
ByLayer
370
18
48
1
60
0
100
AcDbMText
10
40.518709
20
18.924766
30
0
210
0
220
0
230
1
1
\W0.7581;3,400
40
3.5
41
0
44
1.084337
50
90
71
7
72
5
7
iso_b_vert
0
HATCH
5
FB
100
AcDbEntity
8
SK2
62
256
6
ByLayer
370
13
48
1
60
0
100
AcDbHatch
10
0
20
0
30
0
210
0
220
0
230
1
2
ANSI31
70
0
71
0
91
1
92
5
93
3
72
1
10
-44.6251625675374
20
3
11
-45.0859463090902
21
6.49999830744682
72
1
10
-45.0859463090902
20
6.49999830744682
11
-44.1643788259847
21
6.50000169255318
72
1
10
-44.1643788259847
20
6.50000169255318
11
-44.6251625675374
21
3
97
0
75
0
76
1
52
0
41
0.0062
77
0
78
1
53
45
43
0
44
0
45
-0.0139193969876572
46
0.0139193969876572
79
0
47
0
98
1
10
0
20
0
0
HATCH
5
FF
100
AcDbEntity
8
SK2
62
256
6
ByLayer
370
13
48
1
60
0
100
AcDbHatch
10
0
20
0
30
0
210
0
220
0
230
1
2
ANSI31
70
0
71
0
91
1
92
5
93
3
72
1
10
-44.6251625675374
20
-3
11
-44.1643788259847
21
-6.49999830744682
72
1
10
-44.1643788259847
20
-6.49999830744682
11
-45.0859463090902
21
-6.50000169255318
72
1
10
-45.0859463090902
20
-6.50000169255318
11
-44.6251625675374
21
-3
97
0
75
0
76
1
52
0
41
0.0062
77
0
78
1
53
45
43
0
44
0
45
-0.0139193969876572
46
0.0139193969876572
79
0
47
0
98
1
10
0
20
0
0
HATCH
5
105
100
AcDbEntity
8
2
62
256
6
ByLayer
370
13
48
1
60
0
100
AcDbHatch
10
0
20
0
30
0
210
0
220
0
230
1
2
ANSI31
70
0
71
0
91
1
92
5
93
3
72
1
10
42.083342615295
20
1.70000000000002
11
41.6225588737423
21
5.19999830744683
72
1
10
41.6225588737423
20
5.19999830744683
11
42.5441263568478
21
5.2000016925532
72
1
10
42.5441263568478
20
5.2000016925532
11
42.083342615295
21
1.70000000000002
97
0
75
0
76
1
52
0
41
0.0062
77
0
78
1
53
45
43
0
44
0
45
-0.0139193969876572
46
0.0139193969876572
79
0
47
0
98
1
10
0
20
0
0
HATCH
5
109
100
AcDbEntity
8
2
62
256
6
ByLayer
370
13
48
1
60
0
100
AcDbHatch
10
0
20
0
30
0
210
0
220
0
230
1
2
ANSI31
70
0
71
0
91
1
92
5
93
3
72
1
10
42.083342615295
20
-1.69999999999999
11
42.5441263568478
21
-5.1999983074468
72
1
10
42.5441263568478
20
-5.1999983074468
11
41.6225588737423
21
-5.20000169255317
72
1
10
41.6225588737423
20
-5.20000169255317
11
42.083342615295
21
-1.69999999999999
97
0
75
0
76
1
52
0
41
0.0062
77
0
78
1
53
45
43
0
44
0
45
-0.0139193969876572
46
0.0139193969876572
79
0
47
0
98
1
10
0
20
0
0
DIMENSION
5
10B
100
AcDbEntity
8
2
62
256
6
ByLayer
370
13
48
1
60
0
100
AcDbDimension
2
_U0
10
29.3295
20
-11.913398
30
0
11
14.66475
21
-11.913398
31
0
70
32
71
1
72
1
41
1
210
0
220
0
230
1
3
Standard
100
AcDbAlignedDimension
13
0
23
0
33
0
14
29.3295
24
-1.7
34
0
50
0
100
AcDbRotatedDimension
1001
ACAD
1000
DSTYLE
1002
{
1070
   371
1070
    13
1070
   372
1070
    13
1070
   170
1070
     0
1070
   144
1040
1.0
1070
   277
1070
     2
1070
   278
1070
    44
1070
   146
1040
1.0
1070
   345
1005
16
1070
   347
1005
16
1070
   346
1005
16
1070
   344
1005
0
1070
   343
1005
0
1070
   172
1070
     1
1070
    76
1070
     0
1070
    75
1070
     0
1070
   282
1070
     0
1070
   281
1070
     0
1070
    71
1070
     0
1070
    74
1070
     0
1070
   279
1070
     0
1070
   173
1070
     1
1070
   340
1005
F3
1070
   271
1070
     2
1070
   272
1070
     2
1070
    77
1070
     1
1070
    73
1070
     1
1070
   171
1070
     3
1070
   274
1070
     4
1070
   177
1070
    35
1070
   176
1070
    35
1070
   178
1070
    35
1070
    48
1040
-0.1
1070
    41
1040
3.5
1070
   147
1040
1.75
1070
    42
1040
1.5875
1070
    44
1040
2.0
1070
   140
1040
3.5
1002
}
1001
ACAD_DSTYLE_DIM_LINETYPE
1070
   380
1005
16
1001
ACAD_DSTYLE_DIM_EXT1_LINETYPE
1070
   381
1005
16
1001
ACAD_DSTYLE_DIM_EXT2_LINETYPE
1070
   382
1005
16
0
DIMENSION
5
124
100
AcDbEntity
8
SK2
62
256
6
ByLayer
370
13
48
1
60
0
100
AcDbDimension
2
_U1
10
30
20
-31.692985
30
0
11
-3
21
-31.692985
31
0
70
32
71
1
72
1
41
1
210
0
220
0
230
1
3
Standard
100
AcDbAlignedDimension
13
-36
23
-3
33
0
14
30
24
0
34
0
50
0
100
AcDbRotatedDimension
1001
ACAD
1000
DSTYLE
1002
{
1070
   371
1070
    13
1070
   372
1070
    13
1070
   170
1070
     0
1070
   144
1040
1.0
1070
   277
1070
     2
1070
   278
1070
    44
1070
   146
1040
1.0
1070
   345
1005
16
1070
   347
1005
16
1070
   346
1005
16
1070
   344
1005
0
1070
   343
1005
0
1070
   172
1070
     1
1070
    76
1070
     0
1070
    75
1070
     0
1070
   282
1070
     0
1070
   281
1070
     0
1070
    71
1070
     0
1070
    74
1070
     0
1070
   279
1070
     0
1070
   173
1070
     1
1070
   340
1005
F3
1070
   271
1070
     2
1070
   272
1070
     2
1070
    77
1070
     1
1070
    73
1070
     1
1070
   171
1070
     3
1070
   274
1070
     4
1070
   177
1070
    35
1070
   176
1070
    35
1070
   178
1070
    35
1070
    48
1040
-0.1
1070
    41
1040
3.5
1070
   147
1040
1.75
1070
    42
1040
1.5875
1070
    44
1040
2.0
1070
   140
1040
3.5
1002
}
1001
ACAD_DSTYLE_DIM_LINETYPE
1070
   380
1005
16
1001
ACAD_DSTYLE_DIM_EXT1_LINETYPE
1070
   381
1005
16
1001
ACAD_DSTYLE_DIM_EXT2_LINETYPE
1070
   382
1005
16
0
DIMENSION
5
13C
100
AcDbEntity
8
SK2
62
256
6
ByLayer
370
13
48
1
60
0
100
AcDbDimension
2
_U2
10
30
20
13.309119
30
0
11
21.165
21
13.309119
31
0
70
32
71
1
72
1
41
1
210
0
220
0
230
1
3
Standard
100
AcDbAlignedDimension
13
12.33
23
1.7
33
0
14
30
24
0
34
0
50
0
100
AcDbRotatedDimension
1001
ACAD
1000
DSTYLE
1002
{
1070
   371
1070
    13
1070
   372
1070
    13
1070
   170
1070
     0
1070
   144
1040
1.0
1070
   277
1070
     2
1070
   278
1070
    44
1070
   146
1040
1.0
1070
   345
1005
16
1070
   347
1005
16
1070
   346
1005
16
1070
   344
1005
0
1070
   343
1005
0
1070
   172
1070
     1
1070
    76
1070
     0
1070
    75
1070
     0
1070
   282
1070
     0
1070
   281
1070
     0
1070
    71
1070
     0
1070
    74
1070
     0
1070
   279
1070
     0
1070
   173
1070
     1
1070
   340
1005
F3
1070
   271
1070
     2
1070
   272
1070
     2
1070
    77
1070
     1
1070
    73
1070
     1
1070
   171
1070
     3
1070
   274
1070
     4
1070
   177
1070
    35
1070
   176
1070
    35
1070
   178
1070
    35
1070
    48
1040
-0.1
1070
    41
1040
3.5
1070
   147
1040
1.75
1070
    42
1040
1.5875
1070
    44
1040
2.0
1070
   140
1040
3.5
1002
}
1001
ACAD_DSTYLE_DIM_LINETYPE
1070
   380
1005
16
1001
ACAD_DSTYLE_DIM_EXT1_LINETYPE
1070
   381
1005
16
1001
ACAD_DSTYLE_DIM_EXT2_LINETYPE
1070
   382
1005
16
0
DIMENSION
5
154
100
AcDbEntity
8
SK2
62
256
6
ByLayer
370
13
48
1
60
0
100
AcDbDimension
2
_U3
10
29.3295
20
-14.502503
30
0
11
47.583333
21
-14.502503
31
0
70
32
71
1
72
1
41
1
210
0
220
0
230
1
3
Standard
100
AcDbAlignedDimension
13
30
23
0
33
0
14
29.3295
24
-1.7
34
0
50
0
100
AcDbRotatedDimension
1001
ACAD
1000
DSTYLE
1002
{
1070
   371
1070
    13
1070
   372
1070
    13
1070
   170
1070
     0
1070
   144
1040
1.0
1070
   277
1070
     2
1070
   278
1070
    44
1070
   146
1040
1.0
1070
   345
1005
16
1070
   347
1005
16
1070
   346
1005
16
1070
   344
1005
0
1070
   343
1005
0
1070
   172
1070
     1
1070
    76
1070
     0
1070
    75
1070
     0
1070
   282
1070
     0
1070
   281
1070
     0
1070
    71
1070
     0
1070
    74
1070
     0
1070
   279
1070
     0
1070
   173
1070
     1
1070
   340
1005
F3
1070
   271
1070
     2
1070
   272
1070
     2
1070
    77
1070
     1
1070
    73
1070
     1
1070
   171
1070
     3
1070
   274
1070
     4
1070
   177
1070
    35
1070
   176
1070
    35
1070
   178
1070
    35
1070
    48
1040
-0.1
1070
    41
1040
3.5
1070
   147
1040
1.75
1070
    42
1040
1.5875
1070
    44
1040
2.0
1070
   140
1040
3.5
1002
}
1001
ACAD_DSTYLE_DIM_LINETYPE
1070
   380
1005
16
1001
ACAD_DSTYLE_DIM_EXT1_LINETYPE
1070
   381
1005
16
1001
ACAD_DSTYLE_DIM_EXT2_LINETYPE
1070
   382
1005
16
0
DIMENSION
5
16E
100
AcDbEntity
8
SK2
62
256
6
ByLayer
370
13
48
1
60
0
100
AcDbDimension
2
_U4
10
29.3295
20
-21.343428
30
0
11
-3.33525
21
-21.343428
31
0
70
32
71
1
72
1
41
1
210
0
220
0
230
1
3
Standard
100
AcDbAlignedDimension
13
-36
23
-3
33
0
14
29.3295
24
-1.7
34
0
50
0
100
AcDbRotatedDimension
1001
ACAD
1000
DSTYLE
1002
{
1070
   371
1070
    13
1070
   372
1070
    13
1070
   170
1070
     0
1070
   144
1040
1.0
1070
   277
1070
     2
1070
   278
1070
    44
1070
   146
1040
1.0
1070
   345
1005
16
1070
   347
1005
16
1070
   346
1005
16
1070
   344
1005
0
1070
   343
1005
0
1070
   172
1070
     1
1070
    76
1070
     0
1070
    75
1070
     0
1070
   282
1070
     0
1070
   281
1070
     0
1070
    71
1070
     0
1070
    74
1070
     0
1070
   279
1070
     0
1070
   173
1070
     1
1070
   340
1005
F3
1070
   271
1070
     2
1070
   272
1070
     2
1070
    77
1070
     1
1070
    73
1070
     1
1070
   171
1070
     3
1070
   274
1070
     4
1070
   177
1070
    35
1070
   176
1070
    35
1070
   178
1070
    35
1070
    48
1040
-0.1
1070
    41
1040
3.5
1070
   147
1040
1.75
1070
    42
1040
1.5875
1070
    44
1040
2.0
1070
   140
1040
3.5
1002
}
1001
ACAD_DSTYLE_DIM_LINETYPE
1070
   380
1005
16
1001
ACAD_DSTYLE_DIM_EXT1_LINETYPE
1070
   381
1005
16
1001
ACAD_DSTYLE_DIM_EXT2_LINETYPE
1070
   382
1005
16
0
ENDSEC
0
SECTION
2
OBJECTS
0
DICTIONARY
5
1f6
330
0
100
AcDbDictionary
280
0
281
1
3
ACAD_GROUP
350
1f7
3
ACAD_MLINESTYLE
350
1f8
0
DICTIONARY
5
1f7
330
0
100
AcDbDictionary
280
0
281
1
0
DICTIONARY
5
1f8
330
0
100
AcDbDictionary
280
0
281
1
3
Standard
350
18
0
MLINESTYLE
5
18
330
1f8
100
AcDbMlineStyle
2
Standard
70
0
3

62
256
51
90
52
90
71
2
49
-0.5
62
256
6
ByLayer
49
0.5
62
256
6
ByLayer
0
RASTERVARIABLES
5
1e4
330

100
AcDbRasterVariables
90
0
70
1
71
1
72
1
0
ENDSEC
0
EOF
