0
SECTION
2
HEADER
9
$ACADVER
1
AC1015
9
$DWGCODEPAGE
3
ANSI_1252
9
$HANDSEED
5
1fe
9
$ANGBASE
50
0
9
$ANGDIR
70
0
9
$ATTMODE
70
1
9
$AUNITS
70
0
9
$AUPREC
70
0
9
$CECOLOR
62
256
9
$CELTSCALE
40
1
9
$CELTYPE
6
ByLayer
9
$CELWEIGHT
370
18
9
$CLAYER
8
0
9
$CMLJUST
70
0
9
$CMLSCALE
40
1
9
$CMLSTYLE
2
Standard
9
$DIMSTYLE
2
Standard
9
$TEXTSIZE
40
0.2
9
$TEXTSTYLE
7
Standard
9
$LUNITS
70
2
9
$LUPREC
70
4
9
$EXTNAMES
290
1
9
$INSUNITS
70
4
9
$LTSCALE
40
1
9
$LWDISPLAY
290
1
9
$PDMODE
70
0
9
$PDSIZE
40
0
9
$PLINEGEN
70
0
0
ENDSEC
0
SECTION
2
CLASSES
0
CLASS
1
RASTERVARIABLES
2
AcDbRasterVariables
3
ISM
90
0
280
0
281
0
0
ENDSEC
0
SECTION
2
TABLES
0
TABLE
2
VPORT
5
1f4
100
AcDbSymbolTable
0
VPORT
5
1
100
AcDbSymbolTableRecord
100
AcDbViewportTableRecord
2
*Active
70
0
10
0
20
0
11
1
21
1
12
-1
22
1
13
0
23
0
14
0.5
24
0.5
15
10
25
10
16
0
26
0
36
1
17
0
27
0
37
0
0
ENDTAB
0
TABLE
2
LTYPE
5
1f5
100
AcDbSymbolTable
0
LTYPE
5
14
100
AcDbSymbolTableRecord
100
AcDbLinetypeTableRecord
70
0
2
ByBlock
3

72
65
73
0
40
0
0
LTYPE
5
15
100
AcDbSymbolTableRecord
100
AcDbLinetypeTableRecord
70
0
2
ByLayer
3

72
65
73
0
40
0
0
LTYPE
5
16
100
AcDbSymbolTableRecord
100
AcDbLinetypeTableRecord
70
0
2
Continuous
3
Solid line
72
65
73
0
40
0
0
LTYPE
5
6E
100
AcDbSymbolTableRecord
100
AcDbLinetypeTableRecord
70
0
2
CENTER
3
____ _ ____ _ ____ _ ____
72
65
73
4
40
47.5
49
22
74
0
49
-8.5
74
0
49
8.5
74
0
49
-8.5
74
0
0
LTYPE
5
6F
100
AcDbSymbolTableRecord
100
AcDbLinetypeTableRecord
70
0
2
DASHED
3
__ __ __ __ __ __ __ __ __
72
65
73
2
40
25.72
49
12.86
74
0
49
-12.86
74
0
0
ENDTAB
0
TABLE
2
LAYER
5
1f6
100
AcDbSymbolTable
0
LAYER
5
10
100
AcDbSymbolTableRecord
100
AcDbLayerTableRecord
2
0
70
0
62
7
6
Continuous
290
1
370
-3
390
0
0
LAYER
5
71
100
AcDbSymbolTableRecord
100
AcDbLayerTableRecord
2
80
70
0
62
-6
6
Continuous
290
1
370
-3
390
0
0
LAYER
5
73
100
AcDbSymbolTableRecord
100
AcDbLayerTableRecord
2
81
70
0
62
-3
6
Continuous
290
1
370
-3
390
0
0
LAYER
5
75
100
AcDbSymbolTableRecord
100
AcDbLayerTableRecord
2
1
70
0
62
4
6
Continuous
290
1
370
-3
390
0
0
LAYER
5
85
100
AcDbSymbolTableRecord
100
AcDbLayerTableRecord
2
4
70
0
62
-2
6
CENTER
290
1
370
-3
390
0
0
LAYER
5
9E
100
AcDbSymbolTableRecord
100
AcDbLayerTableRecord
2
2
70
0
62
7
6
Continuous
290
1
370
-3
390
0
0
LAYER
5
108
100
AcDbSymbolTableRecord
100
AcDbLayerTableRecord
2
Defpoints
70
0
62
7
6
Continuous
290
0
370
-3
390
0
0
LAYER
5
1e0
100
AcDbSymbolTableRecord
100
AcDbLayerTableRecord
2
SK1
70
0
62
4
6
Continuous
290
1
370
-3
390
0
0
LAYER
5
1e1
100
AcDbSymbolTableRecord
100
AcDbLayerTableRecord
2
SK4
70
0
62
2
6
CENTER
290
1
370
-3
390
0
0
LAYER
5
1e2
100
AcDbSymbolTableRecord
100
AcDbLayerTableRecord
2
SK2
70
0
62
7
6
Continuous
290
1
370
-3
390
0
0
LAYER
5
1e3
100
AcDbSymbolTableRecord
100
AcDbLayerTableRecord
2
SK6
70
0
62
5
6
Continuous
290
1
370
-3
390
0
0
ENDTAB
0
TABLE
2
STYLE
5
1f7
100
AcDbSymbolTable
0
STYLE
5
11
100
AcDbSymbolTableRecord
100
AcDbTextStyleTableRecord
2
Standard
3
txt
70
0
71
0
40
0
41
1
42
0
50
0
0
STYLE
5
ED
100
AcDbSymbolTableRecord
100
AcDbTextStyleTableRecord
2
iso_b_vert
3
simplex.shx
70
0
71
0
40
0
41
1
42
0
50
0
0
STYLE
5
EE
100
AcDbSymbolTableRecord
100
AcDbTextStyleTableRecord
2
DWGDirectTextStyle
3
simplex
70
0
71
0
40
0
41
1
42
0
50
0
0
ENDTAB
0
TABLE
2
DIMSTYLE
5
1f8
100
AcDbSymbolTable
100
AcDbDimStyleTable
0
DIMSTYLE
105
27
100
AcDbSymbolTableRecord
100
AcDbDimStyleTableRecord
2
Standard
70
0
3
<>
41
0.18
42
0.0625
44
0.18
140
0.18
147
0.09
73
0
74
0
77
1
271
2
275
0
278
52
280
0
340
11
0
ENDTAB
0
TABLE
2
VIEW
5
1f9
100
AcDbSymbolTable
0
ENDTAB
0
TABLE
2
UCS
5
1fa
100
AcDbSymbolTable
0
ENDTAB
0
TABLE
2
APPID
5
1fb
100
AcDbSymbolTable
0
APPID
5
12
100
AcDbSymbolTableRecord
100
AcDbRegAppTableRecord
2
ACAD
70
0
0
APPID
5
104
100
AcDbSymbolTableRecord
100
AcDbRegAppTableRecord
2
ACAD_DSTYLE_DIMBREAK
70
0
0
APPID
5
19F
100
AcDbSymbolTableRecord
100
AcDbRegAppTableRecord
2
ACAD_DSTYLE_DIM_LINETYPE
70
0
0
APPID
5
1A0
100
AcDbSymbolTableRecord
100
AcDbRegAppTableRecord
2
ACAD_DSTYLE_DIM_EXT1_LINETYPE
70
0
0
APPID
5
1A1
100
AcDbSymbolTableRecord
100
AcDbRegAppTableRecord
2
ACAD_DSTYLE_DIM_EXT2_LINETYPE
70
0
0
APPID
5
1DC
100
AcDbSymbolTableRecord
100
AcDbRegAppTableRecord
2
ACAD_MLEADERVER
70
0
0
ENDTAB
0
TABLE
2
BLOCK_RECORD
5
1fc
100
AcDbSymbolTable
0
BLOCK_RECORD
5
1F
100
AcDbSymbolTableRecord
100
AcDbBlockTableRecord
2
*Model_Space
340
0
70
0
0
BLOCK_RECORD
5
1B
100
AcDbSymbolTableRecord
100
AcDbBlockTableRecord
2
*Paper_Space
340
0
70
0
0
BLOCK_RECORD
5
23
100
AcDbSymbolTableRecord
100
AcDbBlockTableRecord
2
*Paper_Space0
340
0
70
0
0
BLOCK_RECORD
5
109
100
AcDbSymbolTableRecord
100
AcDbBlockTableRecord
2
*D1
340
0
70
0
0
BLOCK_RECORD
5
115
100
AcDbSymbolTableRecord
100
AcDbBlockTableRecord
2
_U0
340
0
70
0
0
BLOCK_RECORD
5
121
100
AcDbSymbolTableRecord
100
AcDbBlockTableRecord
2
*D3
340
0
70
0
0
BLOCK_RECORD
5
12D
100
AcDbSymbolTableRecord
100
AcDbBlockTableRecord
2
_U1
340
0
70
0
0
BLOCK_RECORD
5
139
100
AcDbSymbolTableRecord
100
AcDbBlockTableRecord
2
*D5
340
0
70
0
0
BLOCK_RECORD
5
146
100
AcDbSymbolTableRecord
100
AcDbBlockTableRecord
2
_U2
340
0
70
0
0
BLOCK_RECORD
5
152
100
AcDbSymbolTableRecord
100
AcDbBlockTableRecord
2
*D7
340
0
70
0
0
BLOCK_RECORD
5
160
100
AcDbSymbolTableRecord
100
AcDbBlockTableRecord
2
_U3
340
0
70
0
0
BLOCK_RECORD
5
16C
100
AcDbSymbolTableRecord
100
AcDbBlockTableRecord
2
*D9
340
0
70
0
0
BLOCK_RECORD
5
178
100
AcDbSymbolTableRecord
100
AcDbBlockTableRecord
2
_U4
340
0
70
0
0
ENDTAB
0
ENDSEC
0
SECTION
2
BLOCKS
0
BLOCK
5
20
100
AcDbEntity
8
0
100
AcDbBlockBegin
2
*Model_Space
70
0
10
0
20
0
30
0
3
*Model_Space
0
ENDBLK
5
21
100
AcDbEntity
8
0
100
AcDbBlockEnd
0
BLOCK
5
1C
100
AcDbEntity
8
0
100
AcDbBlockBegin
2
*Paper_Space
70
0
10
0
20
0
30
0
3
*Paper_Space
0
ENDBLK
5
1D
100
AcDbEntity
8
0
100
AcDbBlockEnd
0
BLOCK
5
24
100
AcDbEntity
8
0
100
AcDbBlockBegin
2
*Paper_Space0
70
0
10
0
20
0
30
0
3
*Paper_Space0
0
ENDBLK
5
25
100
AcDbEntity
8
0
100
AcDbBlockEnd
0
BLOCK
5
10A
100
AcDbEntity
8
0
100
AcDbBlockBegin
2
*D1
70
1
10
0
20
0
30
0
3
*D1
0
LINE
5
10C
100
AcDbEntity
8
0
62
256
6
ByLayer
370
-2
48
1
60
0
100
AcDbLine
10
0
20
-1.5875
30
0
11
0
21
-13.813398
31
0
39
0
210
0
220
0
230
1
0
LINE
5
10D
100
AcDbEntity
8
0
62
256
6
ByLayer
370
-2
48
1
60
0
100
AcDbLine
10
25.3666
20
-3.1875
30
0
11
25.3666
21
-13.813398
31
0
39
0
210
0
220
0
230
1
0
LINE
5
10E
100
AcDbEntity
8
0
62
256
6
ByLayer
370
-2
48
1
60
0
100
AcDbLine
10
3.5
20
-11.813398
30
0
11
21.8666
21
-11.813398
31
0
39
0
210
0
220
0
230
1
0
SOLID
5
10F
100
AcDbEntity
8
0
62
256
6
ByLayer
370
-1
48
1
60
0
100
AcDbTrace
10
3.5
20
-11.230065
30
0
11
3.5
21
-12.396732
31
0
12
0
22
-11.813398
32
0
13
0
23
-11.813398
33
0
39
0
210
0
220
0
230
1
0
SOLID
5
110
100
AcDbEntity
8
0
62
256
6
ByLayer
370
-1
48
1
60
0
100
AcDbTrace
10
21.8666
20
-12.396732
30
0
11
21.8666
21
-11.230065
31
0
12
25.3666
22
-11.813398
32
0
13
25.3666
23
-11.813398
33
0
39
0
210
0
220
0
230
1
0
MTEXT
5
111
100
AcDbEntity
8
0
62
256
6
ByLayer
370
18
48
1
60
0
100
AcDbMText
10
12.6833
20
-4.813398
30
0
210
0
220
0
230
1
1
\A1;25.37
40
3.5
41
0
44
1
50
0
71
5
72
5
7
iso_b_vert
0
POINT
5
112
100
AcDbEntity
8
Defpoints
62
0
6
ByLayer
370
-1
48
1
60
0
100
AcDbPoint
10
0
20
0
30
0
39
0
210
0
220
0
230
1
50
360
0
POINT
5
113
100
AcDbEntity
8
Defpoints
62
0
6
ByLayer
370
-1
48
1
60
0
100
AcDbPoint
10
25.3666
20
-1.6
30
0
39
0
210
0
220
0
230
1
50
360
0
POINT
5
114
100
AcDbEntity
8
Defpoints
62
0
6
ByLayer
370
-1
48
1
60
0
100
AcDbPoint
10
25.3666
20
-11.813398
30
0
39
0
210
0
220
0
230
1
50
360
0
ENDBLK
5
10B
100
AcDbEntity
8
0
100
AcDbBlockEnd
0
BLOCK
5
11C
100
AcDbEntity
8
0
100
AcDbBlockBegin
2
_U0
70
0
10
0
20
0
30
0
3
_U0
0
MTEXT
5
116
100
AcDbEntity
8
2
62
256
6
ByLayer
370
13
48
1
60
0
100
AcDbMText
10
7.546001
20
-10.780765
30
0
210
0
220
0
230
1
1
\W0.7317;25,37
40
3.5
41
0
44
1.084337
50
0
71
7
72
5
7
iso_b_vert
0
LINE
5
117
100
AcDbEntity
8
2
62
256
6
ByLayer
370
13
48
1
60
0
100
AcDbLine
10
0
20
-1.5875
30
0
11
0
21
-13.813398
31
0
39
0
210
0
220
0
230
1
0
LINE
5
118
100
AcDbEntity
8
2
62
256
6
ByLayer
370
13
48
1
60
0
100
AcDbLine
10
25.3666
20
-3.1875
30
0
11
25.3666
21
-13.813398
31
0
39
0
210
0
220
0
230
1
0
LINE
5
119
100
AcDbEntity
8
2
62
256
6
ByLayer
370
13
48
1
60
0
100
AcDbLine
10
0
20
-11.813398
30
0
11
25.3666
21
-11.813398
31
0
39
0
210
0
220
0
230
1
0
SOLID
5
11A
100
AcDbEntity
8
2
62
256
6
ByLayer
370
18
48
1
60
0
100
AcDbTrace
10
0
20
-11.813398
30
0
11
3.499998
21
-11.352615
31
0
12
3.500002
22
-12.274182
32
0
13
3.500002
23
-12.274182
33
0
39
0
210
0
220
0
230
1
0
SOLID
5
11B
100
AcDbEntity
8
2
62
256
6
ByLayer
370
18
48
1
60
0
100
AcDbTrace
10
25.3666
20
-11.813398
30
0
11
21.866602
21
-12.274182
31
0
12
21.866598
22
-11.352615
32
0
13
21.866598
23
-11.352615
33
0
39
0
210
0
220
0
230
1
0
ENDBLK
5
11D
100
AcDbEntity
8
0
100
AcDbBlockEnd
0
BLOCK
5
122
100
AcDbEntity
8
0
100
AcDbBlockBegin
2
*D3
70
1
10
0
20
0
30
0
3
*D3
0
LINE
5
124
100
AcDbEntity
8
0
62
256
6
ByLayer
370
-2
48
1
60
0
100
AcDbLine
10
-36
20
-4.5875
30
0
11
-36
21
-33.692985
31
0
39
0
210
0
220
0
230
1
0
LINE
5
125
100
AcDbEntity
8
0
62
256
6
ByLayer
370
-2
48
1
60
0
100
AcDbLine
10
26
20
-1.5875
30
0
11
26
21
-33.692985
31
0
39
0
210
0
220
0
230
1
0
LINE
5
126
100
AcDbEntity
8
0
62
256
6
ByLayer
370
-2
48
1
60
0
100
AcDbLine
10
-32.5
20
-31.692985
30
0
11
22.5
21
-31.692985
31
0
39
0
210
0
220
0
230
1
0
SOLID
5
127
100
AcDbEntity
8
0
62
256
6
ByLayer
370
-1
48
1
60
0
100
AcDbTrace
10
-32.5
20
-31.109652
30
0
11
-32.5
21
-32.276319
31
0
12
-36
22
-31.692985
32
0
13
-36
23
-31.692985
33
0
39
0
210
0
220
0
230
1
0
SOLID
5
128
100
AcDbEntity
8
0
62
256
6
ByLayer
370
-1
48
1
60
0
100
AcDbTrace
10
22.5
20
-32.276319
30
0
11
22.5
21
-31.109652
31
0
12
26
22
-31.692985
32
0
13
26
23
-31.692985
33
0
39
0
210
0
220
0
230
1
0
MTEXT
5
129
100
AcDbEntity
8
0
62
256
6
ByLayer
370
18
48
1
60
0
100
AcDbMText
10
-5
20
-24.692985
30
0
210
0
220
0
230
1
1
\A1;62.00
40
3.5
41
0
44
1
50
0
71
5
72
5
7
iso_b_vert
0
POINT
5
12A
100
AcDbEntity
8
Defpoints
62
0
6
ByLayer
370
-1
48
1
60
0
100
AcDbPoint
10
-36
20
-3
30
0
39
0
210
0
220
0
230
1
50
360
0
POINT
5
12B
100
AcDbEntity
8
Defpoints
62
0
6
ByLayer
370
-1
48
1
60
0
100
AcDbPoint
10
26
20
0
30
0
39
0
210
0
220
0
230
1
50
360
0
POINT
5
12C
100
AcDbEntity
8
Defpoints
62
0
6
ByLayer
370
-1
48
1
60
0
100
AcDbPoint
10
26
20
-31.692985
30
0
39
0
210
0
220
0
230
1
50
360
0
ENDBLK
5
123
100
AcDbEntity
8
0
100
AcDbBlockEnd
0
BLOCK
5
134
100
AcDbEntity
8
0
100
AcDbBlockBegin
2
_U1
70
0
10
0
20
0
30
0
3
_U1
0
MTEXT
5
12E
100
AcDbEntity
8
SK2
62
256
6
ByLayer
370
13
48
1
60
0
100
AcDbMText
10
-10.137299
20
-30.660352
30
0
210
0
220
0
230
1
1
\W0.7317;62,00
40
3.5
41
0
44
1.084337
50
0
71
7
72
5
7
iso_b_vert
0
LINE
5
12F
100
AcDbEntity
8
SK2
62
256
6
ByLayer
370
13
48
1
60
0
100
AcDbLine
10
-36
20
-4.5875
30
0
11
-36
21
-33.692985
31
0
39
0
210
0
220
0
230
1
0
LINE
5
130
100
AcDbEntity
8
SK2
62
256
6
ByLayer
370
13
48
1
60
0
100
AcDbLine
10
26
20
-1.5875
30
0
11
26
21
-33.692985
31
0
39
0
210
0
220
0
230
1
0
LINE
5
131
100
AcDbEntity
8
SK2
62
256
6
ByLayer
370
13
48
1
60
0
100
AcDbLine
10
-36
20
-31.692985
30
0
11
26
21
-31.692985
31
0
39
0
210
0
220
0
230
1
0
SOLID
5
132
100
AcDbEntity
8
SK2
62
256
6
ByLayer
370
18
48
1
60
0
100
AcDbTrace
10
-36
20
-31.692985
30
0
11
-32.500002
21
-31.232202
31
0
12
-32.499998
22
-32.153769
32
0
13
-32.499998
23
-32.153769
33
0
39
0
210
0
220
0
230
1
0
SOLID
5
133
100
AcDbEntity
8
SK2
62
256
6
ByLayer
370
18
48
1
60
0
100
AcDbTrace
10
26
20
-31.692985
30
0
11
22.500002
21
-32.153769
31
0
12
22.499998
22
-31.232202
32
0
13
22.499998
23
-31.232202
33
0
39
0
210
0
220
0
230
1
0
ENDBLK
5
135
100
AcDbEntity
8
0
100
AcDbBlockEnd
0
BLOCK
5
13A
100
AcDbEntity
8
0
100
AcDbBlockBegin
2
*D5
70
1
10
0
20
0
30
0
3
*D5
0
LINE
5
13C
100
AcDbEntity
8
0
62
256
6
ByLayer
370
-2
48
1
60
0
100
AcDbLine
10
15.77
20
3.1875
30
0
11
15.77
21
15.209119
31
0
39
0
210
0
220
0
230
1
0
LINE
5
13D
100
AcDbEntity
8
0
62
256
6
ByLayer
370
-2
48
1
60
0
100
AcDbLine
10
26
20
1.5875
30
0
11
26
21
15.209119
31
0
39
0
210
0
220
0
230
1
0
LINE
5
13E
100
AcDbEntity
8
0
62
256
6
ByLayer
370
-2
48
1
60
0
100
AcDbLine
10
12.27
20
13.209119
30
0
11
8.77
21
13.209119
31
0
39
0
210
0
220
0
230
1
0
LINE
5
13F
100
AcDbEntity
8
0
62
256
6
ByLayer
370
-2
48
1
60
0
100
AcDbLine
10
29.5
20
13.209119
30
0
11
33
21
13.209119
31
0
39
0
210
0
220
0
230
1
0
SOLID
5
140
100
AcDbEntity
8
0
62
256
6
ByLayer
370
-1
48
1
60
0
100
AcDbTrace
10
12.27
20
12.625786
30
0
11
12.27
21
13.792453
31
0
12
15.77
22
13.209119
32
0
13
15.77
23
13.209119
33
0
39
0
210
0
220
0
230
1
0
SOLID
5
141
100
AcDbEntity
8
0
62
256
6
ByLayer
370
-1
48
1
60
0
100
AcDbTrace
10
29.5
20
13.792453
30
0
11
29.5
21
12.625786
31
0
12
26
22
13.209119
32
0
13
26
23
13.209119
33
0
39
0
210
0
220
0
230
1
0
MTEXT
5
142
100
AcDbEntity
8
0
62
256
6
ByLayer
370
18
48
1
60
0
100
AcDbMText
10
20.885
20
20.209119
30
0
210
0
220
0
230
1
1
\A1;10.23
40
3.5
41
0
44
1
50
0
71
5
72
5
7
iso_b_vert
0
POINT
5
143
100
AcDbEntity
8
Defpoints
62
0
6
ByLayer
370
-1
48
1
60
0
100
AcDbPoint
10
15.77
20
1.6
30
0
39
0
210
0
220
0
230
1
50
360
0
POINT
5
144
100
AcDbEntity
8
Defpoints
62
0
6
ByLayer
370
-1
48
1
60
0
100
AcDbPoint
10
26
20
0
30
0
39
0
210
0
220
0
230
1
50
360
0
POINT
5
145
100
AcDbEntity
8
Defpoints
62
0
6
ByLayer
370
-1
48
1
60
0
100
AcDbPoint
10
26
20
13.209119
30
0
39
0
210
0
220
0
230
1
50
360
0
ENDBLK
5
13B
100
AcDbEntity
8
0
100
AcDbBlockEnd
0
BLOCK
5
14D
100
AcDbEntity
8
0
100
AcDbBlockBegin
2
_U2
70
0
10
0
20
0
30
0
3
_U2
0
MTEXT
5
147
100
AcDbEntity
8
SK2
62
256
6
ByLayer
370
13
48
1
60
0
100
AcDbMText
10
16.185135
20
14.241753
30
0
210
0
220
0
230
1
1
\W0.6713;10,23
40
3.5
41
0
44
1.084337
50
0
71
7
72
5
7
iso_b_vert
0
LINE
5
148
100
AcDbEntity
8
SK2
62
256
6
ByLayer
370
13
48
1
60
0
100
AcDbLine
10
15.77
20
3.1875
30
0
11
15.77
21
15.209119
31
0
39
0
210
0
220
0
230
1
0
LINE
5
149
100
AcDbEntity
8
SK2
62
256
6
ByLayer
370
13
48
1
60
0
100
AcDbLine
10
26
20
1.5875
30
0
11
26
21
15.209119
31
0
39
0
210
0
220
0
230
1
0
LINE
5
14A
100
AcDbEntity
8
SK2
62
256
6
ByLayer
370
13
48
1
60
0
100
AcDbLine
10
15.77
20
13.209119
30
0
11
26
21
13.209119
31
0
39
0
210
0
220
0
230
1
0
SOLID
5
14B
100
AcDbEntity
8
SK2
62
256
6
ByLayer
370
18
48
1
60
0
100
AcDbTrace
10
15.77
20
13.209119
30
0
11
19.269998
21
13.669903
31
0
12
19.270002
22
12.748335
32
0
13
19.270002
23
12.748335
33
0
39
0
210
0
220
0
230
1
0
SOLID
5
14C
100
AcDbEntity
8
SK2
62
256
6
ByLayer
370
18
48
1
60
0
100
AcDbTrace
10
26
20
13.209119
30
0
11
22.500002
21
12.748335
31
0
12
22.499998
22
13.669903
32
0
13
22.499998
23
13.669903
33
0
39
0
210
0
220
0
230
1
0
ENDBLK
5
14E
100
AcDbEntity
8
0
100
AcDbBlockEnd
0
BLOCK
5
153
100
AcDbEntity
8
0
100
AcDbBlockBegin
2
*D7
70
1
10
0
20
0
30
0
3
*D7
0
LINE
5
155
100
AcDbEntity
8
0
62
256
6
ByLayer
370
-2
48
1
60
0
100
AcDbLine
10
26
20
-1.5875
30
0
11
26
21
-16.402503
31
0
39
0
210
0
220
0
230
1
0
LINE
5
156
100
AcDbEntity
8
0
62
256
6
ByLayer
370
-2
48
1
60
0
100
AcDbLine
10
25.3666
20
-3.1875
30
0
11
25.3666
21
-16.402503
31
0
39
0
210
0
220
0
230
1
0
LINE
5
157
100
AcDbEntity
8
0
62
256
6
ByLayer
370
-2
48
1
60
0
100
AcDbLine
10
26
20
-14.402503
30
0
11
54.166667
21
-14.402503
31
0
39
0
210
0
220
0
230
1
0
LINE
5
158
100
AcDbEntity
8
0
62
256
6
ByLayer
370
-2
48
1
60
0
100
AcDbLine
10
29.5
20
-14.402503
30
0
11
33
21
-14.402503
31
0
39
0
210
0
220
0
230
1
0
LINE
5
159
100
AcDbEntity
8
0
62
256
6
ByLayer
370
-2
48
1
60
0
100
AcDbLine
10
21.8666
20
-14.402503
30
0
11
18.3666
21
-14.402503
31
0
39
0
210
0
220
0
230
1
0
SOLID
5
15A
100
AcDbEntity
8
0
62
256
6
ByLayer
370
-1
48
1
60
0
100
AcDbTrace
10
29.5
20
-13.81917
30
0
11
29.5
21
-14.985837
31
0
12
26
22
-14.402503
32
0
13
26
23
-14.402503
33
0
39
0
210
0
220
0
230
1
0
SOLID
5
15B
100
AcDbEntity
8
0
62
256
6
ByLayer
370
-1
48
1
60
0
100
AcDbTrace
10
21.8666
20
-14.985837
30
0
11
21.8666
21
-13.81917
31
0
12
25.3666
22
-14.402503
32
0
13
25.3666
23
-14.402503
33
0
39
0
210
0
220
0
230
1
0
MTEXT
5
15C
100
AcDbEntity
8
0
62
256
6
ByLayer
370
18
48
1
60
0
100
AcDbMText
10
43.583333
20
-7.402503
30
0
210
0
220
0
230
1
1
\A1;0.63
40
3.5
41
0
44
1
50
0
71
5
72
5
7
iso_b_vert
0
POINT
5
15D
100
AcDbEntity
8
Defpoints
62
0
6
ByLayer
370
-1
48
1
60
0
100
AcDbPoint
10
26
20
0
30
0
39
0
210
0
220
0
230
1
50
360
0
POINT
5
15E
100
AcDbEntity
8
Defpoints
62
0
6
ByLayer
370
-1
48
1
60
0
100
AcDbPoint
10
25.3666
20
-1.6
30
0
39
0
210
0
220
0
230
1
50
360
0
POINT
5
15F
100
AcDbEntity
8
Defpoints
62
0
6
ByLayer
370
-1
48
1
60
0
100
AcDbPoint
10
25.3666
20
-14.402503
30
0
39
0
210
0
220
0
230
1
50
360
0
ENDBLK
5
154
100
AcDbEntity
8
0
100
AcDbBlockEnd
0
BLOCK
5
167
100
AcDbEntity
8
0
100
AcDbBlockBegin
2
_U3
70
0
10
0
20
0
30
0
3
_U3
0
MTEXT
5
161
100
AcDbEntity
8
SK2
62
256
6
ByLayer
370
13
48
1
60
0
100
AcDbMText
10
32.15186
20
-13.36987
30
0
210
0
220
0
230
1
1
\W0.7150;0,63
40
3.5
41
0
44
1.084337
50
0
71
7
72
5
7
iso_b_vert
0
LINE
5
162
100
AcDbEntity
8
SK2
62
256
6
ByLayer
370
13
48
1
60
0
100
AcDbLine
10
26
20
-1.5875
30
0
11
26
21
-16.402503
31
0
39
0
210
0
220
0
230
1
0
LINE
5
163
100
AcDbEntity
8
SK2
62
256
6
ByLayer
370
13
48
1
60
0
100
AcDbLine
10
25.3666
20
-3.1875
30
0
11
25.3666
21
-16.402503
31
0
39
0
210
0
220
0
230
1
0
LINE
5
164
100
AcDbEntity
8
SK2
62
256
6
ByLayer
370
13
48
1
60
0
100
AcDbLine
10
16.6166
20
-14.402503
30
0
11
39.996491
21
-14.402503
31
0
39
0
210
0
220
0
230
1
0
SOLID
5
165
100
AcDbEntity
8
SK2
62
256
6
ByLayer
370
18
48
1
60
0
100
AcDbTrace
10
26
20
-14.402503
30
0
11
29.499998
21
-13.941719
31
0
12
29.500002
22
-14.863287
32
0
13
29.500002
23
-14.863287
33
0
39
0
210
0
220
0
230
1
0
SOLID
5
166
100
AcDbEntity
8
SK2
62
256
6
ByLayer
370
18
48
1
60
0
100
AcDbTrace
10
25.3666
20
-14.402503
30
0
11
21.866602
21
-14.863287
31
0
12
21.866598
22
-13.941719
32
0
13
21.866598
23
-13.941719
33
0
39
0
210
0
220
0
230
1
0
ENDBLK
5
168
100
AcDbEntity
8
0
100
AcDbBlockEnd
0
BLOCK
5
16D
100
AcDbEntity
8
0
100
AcDbBlockBegin
2
*D9
70
1
10
0
20
0
30
0
3
*D9
0
LINE
5
16F
100
AcDbEntity
8
0
62
256
6
ByLayer
370
-2
48
1
60
0
100
AcDbLine
10
-36
20
-4.5875
30
0
11
-36
21
-23.343428
31
0
39
0
210
0
220
0
230
1
0
LINE
5
170
100
AcDbEntity
8
0
62
256
6
ByLayer
370
-2
48
1
60
0
100
AcDbLine
10
25.3666
20
-3.1875
30
0
11
25.3666
21
-23.343428
31
0
39
0
210
0
220
0
230
1
0
LINE
5
171
100
AcDbEntity
8
0
62
256
6
ByLayer
370
-2
48
1
60
0
100
AcDbLine
10
-32.5
20
-21.343428
30
0
11
21.8666
21
-21.343428
31
0
39
0
210
0
220
0
230
1
0
SOLID
5
172
100
AcDbEntity
8
0
62
256
6
ByLayer
370
-1
48
1
60
0
100
AcDbTrace
10
-32.5
20
-20.760095
30
0
11
-32.5
21
-21.926762
31
0
12
-36
22
-21.343428
32
0
13
-36
23
-21.343428
33
0
39
0
210
0
220
0
230
1
0
SOLID
5
173
100
AcDbEntity
8
0
62
256
6
ByLayer
370
-1
48
1
60
0
100
AcDbTrace
10
21.8666
20
-21.926762
30
0
11
21.8666
21
-20.760095
31
0
12
25.3666
22
-21.343428
32
0
13
25.3666
23
-21.343428
33
0
39
0
210
0
220
0
230
1
0
MTEXT
5
174
100
AcDbEntity
8
0
62
256
6
ByLayer
370
18
48
1
60
0
100
AcDbMText
10
-5.3167
20
-14.343428
30
0
210
0
220
0
230
1
1
\A1;61.37
40
3.5
41
0
44
1
50
0
71
5
72
5
7
iso_b_vert
0
POINT
5
175
100
AcDbEntity
8
Defpoints
62
0
6
ByLayer
370
-1
48
1
60
0
100
AcDbPoint
10
-36
20
-3
30
0
39
0
210
0
220
0
230
1
50
360
0
POINT
5
176
100
AcDbEntity
8
Defpoints
62
0
6
ByLayer
370
-1
48
1
60
0
100
AcDbPoint
10
25.3666
20
-1.6
30
0
39
0
210
0
220
0
230
1
50
360
0
POINT
5
177
100
AcDbEntity
8
Defpoints
62
0
6
ByLayer
370
-1
48
1
60
0
100
AcDbPoint
10
25.3666
20
-21.343428
30
0
39
0
210
0
220
0
230
1
50
360
0
ENDBLK
5
16E
100
AcDbEntity
8
0
100
AcDbBlockEnd
0
BLOCK
5
17F
100
AcDbEntity
8
0
100
AcDbBlockBegin
2
_U4
70
0
10
0
20
0
30
0
3
_U4
0
MTEXT
5
179
100
AcDbEntity
8
SK2
62
256
6
ByLayer
370
13
48
1
60
0
100
AcDbMText
10
-10.016565
20
-20.310795
30
0
210
0
220
0
230
1
1
\W0.6713;61,37
40
3.5
41
0
44
1.084337
50
0
71
7
72
5
7
iso_b_vert
0
LINE
5
17A
100
AcDbEntity
8
SK2
62
256
6
ByLayer
370
13
48
1
60
0
100
AcDbLine
10
-36
20
-4.5875
30
0
11
-36
21
-23.343428
31
0
39
0
210
0
220
0
230
1
0
LINE
5
17B
100
AcDbEntity
8
SK2
62
256
6
ByLayer
370
13
48
1
60
0
100
AcDbLine
10
25.3666
20
-3.1875
30
0
11
25.3666
21
-23.343428
31
0
39
0
210
0
220
0
230
1
0
LINE
5
17C
100
AcDbEntity
8
SK2
62
256
6
ByLayer
370
13
48
1
60
0
100
AcDbLine
10
-36
20
-21.343428
30
0
11
25.3666
21
-21.343428
31
0
39
0
210
0
220
0
230
1
0
SOLID
5
17D
100
AcDbEntity
8
SK2
62
256
6
ByLayer
370
18
48
1
60
0
100
AcDbTrace
10
-36
20
-21.343428
30
0
11
-32.500002
21
-20.882645
31
0
12
-32.499998
22
-21.804212
32
0
13
-32.499998
23
-21.804212
33
0
39
0
210
0
220
0
230
1
0
SOLID
5
17E
100
AcDbEntity
8
SK2
62
256
6
ByLayer
370
18
48
1
60
0
100
AcDbTrace
10
25.3666
20
-21.343428
30
0
11
21.866602
21
-21.804212
31
0
12
21.866598
22
-20.882645
32
0
13
21.866598
23
-20.882645
33
0
39
0
210
0
220
0
230
1
0
ENDBLK
5
180
100
AcDbEntity
8
0
100
AcDbBlockEnd
0
ENDSEC
0
SECTION
2
ENTITIES
0
ARC
5
A7
100
AcDbEntity
8
1
62
256
6
ByLayer
370
18
48
1
60
0
100
AcDbCircle
39
0
10
1.680405
20
-2.407366
30
0
40
0.85
210
0
220
0
230
1
100
AcDbArc
50
89.896868
51
171.292402
0
ARC
5
A8
100
AcDbEntity
8
1
62
256
6
ByLayer
370
18
48
1
60
0
100
AcDbCircle
39
0
10
1.680405
20
2.407366
30
0
40
0.85
210
0
220
0
230
1
100
AcDbArc
50
188.707598
51
270.103132
0
ARC
5
A9
100
AcDbEntity
8
1
62
256
6
ByLayer
370
18
48
1
60
0
100
AcDbCircle
39
0
10
0
20
-2.15
30
0
40
0.85
210
0
220
0
230
1
100
AcDbArc
50
270
51
351.292402
0
ARC
5
AA
100
AcDbEntity
8
1
62
256
6
ByLayer
370
18
48
1
60
0
100
AcDbCircle
39
0
10
0
20
2.15
30
0
40
0.85
210
0
220
0
230
1
100
AcDbArc
50
8.707598
51
90
0
ELLIPSE
5
AB
100
AcDbEntity
8
1
62
256
6
ByLayer
370
13
48
1
60
0
100
AcDbEllipse
10
7.394784
20
-1.606128
30
0
11
0.0846490532641729
21
0.287809898685711
31
0
210
0
220
0
230
1
40
0.47334
41
0.551891501481158
42
1.14126501879864
0
ELLIPSE
5
AC
100
AcDbEntity
8
1
62
256
6
ByLayer
370
13
48
1
60
0
100
AcDbEllipse
10
8.369319
20
49.132494
30
0
11
-56.1261343765269
21
49.2815128334328
31
0
210
0
220
0
230
1
40
0.538281
41
1.98933564786504
42
2.01231540517028
0
ELLIPSE
5
AD
100
AcDbEntity
8
1
62
256
6
ByLayer
370
13
48
1
60
0
100
AcDbEllipse
10
70.194174
20
43.437707
30
0
11
-61.8499999999999
21
7.57419029839139E-15
31
0
210
0
220
0
230
1
40
0.99863
41
0.769411106078658
42
0.772507520681352
0
ELLIPSE
5
AE
100
AcDbEntity
8
1
62
256
6
ByLayer
370
18
48
1
60
0
100
AcDbEllipse
10
26.068934
20
0.000858
30
0
11
0.570515978276929
21
1.5849191586549
31
0
210
0
220
0
230
1
40
0.400049
41
2.91772080484481
42
2.93314715648509
0
POINT
5
70
100
AcDbEntity
8
80
62
256
6
ByLayer
370
18
48
1
60
0
100
AcDbPoint
10
0
20
0
30
0
39
0
210
0
220
0
230
1
50
360
0
POINT
5
72
100
AcDbEntity
8
81
62
256
6
ByLayer
370
18
48
1
60
0
100
AcDbPoint
10
26
20
0
30
0
39
0
210
0
220
0
230
1
50
360
0
POINT
5
74
100
AcDbEntity
8
1
62
256
6
ByLayer
370
18
48
1
60
1
100
AcDbPoint
10
25.3666
20
-1.6
30
0
39
0
210
0
220
0
230
1
50
360
0
POINT
5
76
100
AcDbEntity
8
1
62
256
6
ByLayer
370
18
48
1
60
1
100
AcDbPoint
10
-36
20
-3
30
0
39
0
210
0
220
0
230
1
50
360
0
POINT
5
77
100
AcDbEntity
8
1
62
256
6
ByLayer
370
18
48
1
60
1
100
AcDbPoint
10
15.77
20
1.6
30
0
39
0
210
0
220
0
230
1
50
360
0
POINT
5
78
100
AcDbEntity
8
1
62
256
6
ByLayer
370
18
48
1
60
1
100
AcDbPoint
10
25.3666
20
-1.6
30
0
39
0
210
0
220
0
230
1
50
360
0
POINT
5
79
100
AcDbEntity
8
1
62
256
6
ByLayer
370
18
48
1
60
1
100
AcDbPoint
10
-36
20
-3
30
0
39
0
210
0
220
0
230
1
50
360
0
POINT
5
7A
100
AcDbEntity
8
1
62
256
6
ByLayer
370
18
48
1
60
1
100
AcDbPoint
10
25.3666
20
-1.6
30
0
39
0
210
0
220
0
230
1
50
360
0
SPLINE
5
AF
100
AcDbEntity
8
1
62
256
6
ByLayer
370
18
48
1
60
0
100
AcDbSpline
70
4
71
3
72
14
73
10
40
0
40
0
40
0
40
0
40
0.25
40
0.25
40
0.5
40
0.5
40
0.75
40
0.75
40
1
40
1
40
1
40
1
41
1
10
25.7198147900955
20
-0.353837339218614
30
0
41
1
10
25.7378927864695
20
-0.351004313405241
30
0
41
1
10
25.7580125194111
20
-0.338648652284689
30
0
41
1
10
25.8029803587941
20
-0.295099102913099
30
0
41
1
10
25.8268082399206
20
-0.264845438760005
30
0
41
1
10
25.8766984792055
20
-0.189252091032415
30
0
41
1
10
25.9020050634043
20
-0.145017691639424
30
0
41
1
10
25.9521538224077
20
-0.0466436214367718
30
0
41
1
10
25.9766107927128
20
0.0067913282449013
30
0
41
1
10
25.999645121729
20
0.0625745975276004
30
0
0
SPLINE
5
B0
100
AcDbEntity
8
1
62
256
6
ByLayer
370
18
48
1
60
0
100
AcDbSpline
70
4
71
3
72
38
73
34
40
0
40
0
40
0
40
0
40
0.0639277019588825
40
0.0639277019588825
40
0.127855403917765
40
0.127855403917765
40
0.191783105876648
40
0.191783105876648
40
0.25571080783553
40
0.25571080783553
40
0.319638509794413
40
0.319638509794413
40
0.383566211753295
40
0.383566211753295
40
0.447493913712178
40
0.447493913712178
40
0.51142161567106
40
0.51142161567106
40
0.575349317629943
40
0.575349317629943
40
0.639277019588825
40
0.639277019588825
40
0.703204721547708
40
0.703204721547708
40
0.76713242350659
40
0.76713242350659
40
0.831060125465473
40
0.831060125465473
40
0.894987827424355
40
0.894987827424355
40
0.958915529383238
40
0.958915529383238
40
1
40
1
40
1
40
1
41
1
10
8.6315179243841
20
1.51074297714737
30
0
41
1
10
8.80701259096514
20
1.48484636142695
30
0
41
1
10
8.98198212884245
20
1.450577188485
30
0
41
1
10
9.33185760832441
20
1.36615830542689
30
0
41
1
10
9.50708840329602
20
1.31599327073641
30
0
41
1
10
9.85802762110535
20
1.20137769487175
30
0
41
1
10
10.0328514034896
20
1.137093960659
30
0
41
1
10
10.382559895983
20
0.996226265701097
30
0
41
1
10
10.5579865769993
20
0.919697232392821
30
0
41
1
10
10.9086186320841
20
0.757373755023366
30
0
41
1
10
11.0833954621164
20
0.671658222418102
30
0
41
1
10
11.4330637303826
20
0.493034964137763
30
0
41
1
10
11.6085999767827
20
0.400262250695675
30
0
41
1
10
11.9588135960779
20
0.211544184709766
30
0
41
1
10
12.1334997828407
20
0.115668948509551
30
0
41
1
10
12.4834137541033
20
-0.0765950579442745
30
0
41
1
10
12.6589215275614
20
-0.173392516984336
30
0
41
1
10
13.0087447011048
20
-0.363501071528958
30
0
41
1
10
13.1834249719206
20
-0.456694572566448
30
0
41
1
10
13.5332714706726
20
-0.637694196781723
30
0
41
1
10
13.7087864884683
20
-0.725420148062341
30
0
41
1
10
14.0584457854895
20
-0.891356251894706
30
0
41
1
10
14.2330816332758
20
-0.969602990645399
30
0
41
1
10
14.5829695067004
20
-1.11512961436244
30
0
41
1
10
14.7582971794421
20
-1.18224357756191
30
0
41
1
10
15.1079117186593
20
-1.3019337132389
30
0
41
1
10
15.282442023648
20
-1.35491257299094
30
0
41
1
10
15.6324821924541
20
-1.44546818209869
30
0
41
1
10
15.8075282318288
20
-1.48299347210519
30
0
41
1
10
16.1569538234645
20
-1.54077316449397
30
0
41
1
10
16.3315209884317
20
-1.56126247339634
30
0
41
1
10
16.6191704973457
20
-1.58052956785448
30
0
41
1
10
16.7315878671784
20
-1.58441736606574
30
0
41
1
10
16.843895876228
20
-1.58465379622046
30
0
0
SPLINE
5
B1
100
AcDbEntity
8
1
62
256
6
ByLayer
370
18
48
1
60
0
100
AcDbSpline
70
4
71
3
72
14
73
10
40
0
40
0
40
0
40
0
40
0.174750018958368
40
0.174750018958368
40
0.449833345972245
40
0.449833345972245
40
0.724916672986122
40
0.724916672986122
40
1
40
1
40
1
40
1
41
1
10
23.5095570299755
20
1.09383977303014
30
0
41
1
10
23.6205074708587
20
1.13904347379727
30
0
41
1
10
23.7314335107513
20
1.18180145028057
30
0
41
1
10
24.0165439455062
20
1.28445274617781
30
0
41
1
10
24.190732205625
20
1.34046689678135
30
0
41
1
10
24.5401756164223
20
1.4373934356878
30
0
41
1
10
24.7147759162349
20
1.47814774331468
30
0
41
1
10
25.0637213914669
20
1.54275947710875
30
0
41
1
10
25.2386390930616
20
1.56664586670055
30
0
41
1
10
25.4132242053429
20
1.58167225757285
30
0
0
SPLINE
5
B2
100
AcDbEntity
8
1
62
256
6
ByLayer
370
18
48
1
60
0
100
AcDbSpline
70
4
71
3
72
14
73
10
40
0
40
0
40
0
40
0
40
0.25
40
0.25
40
0.5
40
0.5
40
0.75
40
0.75
40
1
40
1
40
1
40
1
41
1
10
25.3199370288235
20
0.253705130764871
30
0
41
1
10
25.3006606300848
20
0.17238473036565
30
0
41
1
10
25.2845916763321
20
0.0903434906469158
30
0
41
1
10
25.2589407035188
20
-0.0751968587171064
30
0
41
1
10
25.2493091341248
20
-0.159474488343449
30
0
41
1
10
25.2373870266098
20
-0.325749542355254
30
0
41
1
10
25.2350732828953
20
-0.40704994805094
30
0
41
1
10
25.2376358691406
20
-0.566029176025125
30
0
41
1
10
25.242585366077
20
-0.644208013664667
30
0
41
1
10
25.2511652212058
20
-0.718942525458914
30
0
0
SPLINE
5
B3
100
AcDbEntity
8
1
62
256
6
ByLayer
370
18
48
1
60
0
100
AcDbSpline
70
4
71
3
72
8
73
4
40
0
40
0
40
0
40
0
40
1
40
1
40
1
40
1
41
1
10
25.4132242053429
20
-1.58167225757285
30
0
41
1
10
25.5187143361284
20
-1.3273263517539
30
0
41
1
10
25.6274943291914
20
-1.06017257294039
30
0
41
1
10
25.7290250213028
20
-0.773157149591469
30
0
0
SPLINE
5
B4
100
AcDbEntity
8
1
62
256
6
ByLayer
370
18
48
1
60
0
100
AcDbSpline
70
4
71
3
72
10
73
6
40
0
40
0
40
0
40
0
40
0.5
40
0.5
40
1
40
1
40
1
40
1
41
1
10
25.3408454434352
20
-1.35642794582483
30
0
41
1
10
25.3039331459298
20
-1.28534025215492
30
0
41
1
10
25.2772546961993
20
-1.19613503090753
30
0
41
1
10
25.2461594957475
20
-0.978748356945829
30
0
41
1
10
25.2426870759214
20
-0.853317018581265
30
0
41
1
10
25.2511652212058
20
-0.718942525458914
30
0
0
SPLINE
5
B5
100
AcDbEntity
8
1
62
256
6
ByLayer
370
18
48
1
60
0
100
AcDbSpline
70
4
71
3
72
42
73
38
40
0
40
0
40
0
40
0
40
0.0014596694322198
40
0.0014596694322198
40
0.118234349922169
40
0.118234349922169
40
0.176621690167144
40
0.176621690167144
40
0.235009030412119
40
0.235009030412119
40
0.351783710902067
40
0.351783710902067
40
0.410171051147042
40
0.410171051147042
40
0.468558391392017
40
0.468558391392017
40
0.526945731636992
40
0.526945731636992
40
0.55613940175948
40
0.55613940175948
40
0.585333071881968
40
0.585333071881968
40
0.702107752371926
40
0.702107752371926
40
0.760495092616905
40
0.760495092616905
40
0.789688762739396
40
0.789688762739396
40
0.818882432861886
40
0.818882432861886
40
0.935657113351845
40
0.935657113351845
40
0.964850783474336
40
0.964850783474336
40
0.994044453596826
40
0.994044453596826
40
1
40
1
40
1
40
1
41
1
10
8.42949431412137
20
1.56950860099761
30
0
41
1
10
8.43419711096084
20
1.56951087721654
30
0
41
1
10
8.43889959287364
20
1.56950680104182
30
0
41
1
10
8.81978003088119
20
1.56866231077041
30
0
41
1
10
9.19340251862445
20
1.52716402057101
30
0
41
1
10
9.76031938527558
20
1.40657269804598
30
0
41
1
10
9.95114086255842
20
1.35643768232367
30
0
41
1
10
10.3289057479818
20
1.23988003332093
30
0
41
1
10
10.51671980887
20
1.1734190919789
30
0
41
1
10
11.0796865594066
20
0.953260846044174
30
0
41
1
10
11.4536875866236
20
0.777770802167083
30
0
41
1
10
12.0238390942654
20
0.48726958379666
30
0
41
1
10
12.2129357627909
20
0.387123041307205
30
0
41
1
10
12.588877837246
20
0.183565918838838
30
0
41
1
10
12.7761834133472
20
0.080358099558083
30
0
41
1
10
13.1509409350593
20
-0.126176245807358
30
0
41
1
10
13.3385084634137
20
-0.229288205606537
30
0
41
1
10
13.6212303991538
20
-0.381706017104932
30
0
41
1
10
13.7157413338292
20
-0.432058978795453
30
0
41
1
10
13.9054519671348
20
-0.53158421407349
30
0
41
1
10
14.000521552389
20
-0.580781597799984
30
0
41
1
10
14.4730785330336
20
-0.820321256586169
30
0
41
1
10
14.8464115994703
20
-0.992986225135638
30
0
41
1
10
15.4089931472485
20
-1.20963200478357
30
0
41
1
10
15.5969161448328
20
-1.27481840141834
30
0
41
1
10
15.8808793727326
20
-1.36002590394071
30
0
41
1
10
15.9760449563476
20
-1.38635293649784
30
0
41
1
10
16.1653385218418
20
-1.4340800439054
30
0
41
1
10
16.2596476417196
20
-1.45558912351865
30
0
41
1
10
16.7297786478609
20
-1.55124584349224
30
0
41
1
10
17.1025103441265
20
-1.58887137570076
30
0
41
1
10
17.5724514031948
20
-1.58465892836344
30
0
41
1
10
17.6666472471199
20
-1.58125697147398
30
0
41
1
10
17.8556268104489
20
-1.56926273800929
30
0
41
1
10
17.9506564614688
20
-1.56063130010992
30
0
41
1
10
18.0645834957688
20
-1.5472075021305
30
0
41
1
10
18.0838725837614
20
-1.54482876975589
30
0
41
1
10
18.1031483598374
20
-1.54234663088604
30
0
0
SPLINE
5
B6
100
AcDbEntity
8
1
62
256
6
ByLayer
370
18
48
1
60
0
100
AcDbSpline
70
4
71
3
72
8
73
4
40
0
40
0
40
0
40
0
40
1
40
1
40
1
40
1
41
1
10
7.48099991058257
20
0.167158243049897
30
0
41
1
10
7.45290633428237
20
0.181716779177748
30
0
41
1
10
7.42482868891284
20
0.196273843716284
30
0
41
1
10
7.39676667759377
20
0.210829896277772
30
0
0
SPLINE
5
B7
100
AcDbEntity
8
1
62
256
6
ByLayer
370
13
48
1
60
0
100
AcDbSpline
70
4
71
3
72
88
73
84
40
0
40
0
40
0
40
0
40
0.0008206188999438
40
0.0174955585418877
40
0.0258330283628592
40
0.0341704981838317
40
0.0435501517324249
40
0.0508454378257752
40
0.0581407239191256
40
0.0675203774677181
40
0.0841953171096624
40
0.109207726572579
40
0.117545196393551
40
0.134220136035494
40
0.150895075677438
40
0.18007622005084
40
0.184244954961326
40
0.192582424782297
40
0.20091989460327
40
0.217594834245213
40
0.225932304066186
40
0.234269773887157
40
0.24364942743575
40
0.250944713529101
40
0.258239999622451
40
0.267619653171045
40
0.284294592812988
40
0.309307002275904
40
0.317644472096876
40
0.334319411738819
40
0.350994351380764
40
0.380175495754165
40
0.384344230664651
40
0.392681700485623
40
0.401019170306594
40
0.417694109948539
40
0.42603157976951
40
0.434369049590482
40
0.443748703139076
40
0.451043989232426
40
0.458339275325776
40
0.46771892887437
40
0.484393868516314
40
0.509406277979229
40
0.517743747800201
40
0.534418687442146
40
0.551093627084091
40
0.580274771457489
40
0.584443506367976
40
0.59278097618895
40
0.60111844600992
40
0.617793385651864
40
0.626130855472836
40
0.634468325293807
40
0.643847978842402
40
0.651143264935751
40
0.658438551029101
40
0.667818204577696
40
0.684493144219638
40
0.709505553682557
40
0.717843023503527
40
0.734517963145469
40
0.751192902787414
40
0.780374047160816
40
0.784542782071302
40
0.792880251892275
40
0.801217721713244
40
0.817892661355189
40
0.826230131176161
40
0.834567600997131
40
0.843947254545726
40
0.851242540639077
40
0.858537826732427
40
0.867917480281018
40
0.884592419922967
40
0.909604829385882
40
0.917942299206852
40
0.934617238848794
40
0.951292178490739
40
0.98047332286414
40
0.984642057774627
40
0.992979527595599
40
1
40
1
40
1
40
1
41
1
10
22.6347958454652
20
-0.692422764899447
30
0
41
1
10
22.6332579783409
20
-0.692607369562182
30
0
41
1
10
22.6004706893476
20
-0.696536799362917
30
0
41
1
10
22.5520575918198
20
-0.702140081711491
30
0
41
1
10
22.4895560445673
20
-0.709005544982631
30
0
41
1
10
22.4407279533
20
-0.714162284481603
30
0
41
1
10
22.3938525252855
20
-0.718910698446763
30
0
41
1
10
22.3489305300597
20
-0.723279607800094
30
0
41
1
10
22.3040095586837
20
-0.727483695476394
30
0
41
1
10
22.2415121850744
20
-0.733062287434024
30
0
41
1
10
22.1458146301599
20
-0.74096213922445
30
0
41
1
10
22.0520607970429
20
-0.747752864161953
30
0
41
1
10
21.9583082392084
20
-0.753747482096884
30
0
41
1
10
21.8801863662691
20
-0.758207092003914
30
0
41
1
10
21.7630042498129
20
-0.763859619920737
30
0
41
1
10
21.6692488382207
20
-0.767318405326478
30
0
41
1
10
21.5911178420939
20
-0.769540874532595
30
0
41
1
10
21.5520561089482
20
-0.770495446376913
30
0
41
1
10
21.4895578592286
20
-0.771737004863155
30
0
41
1
10
21.4270575832986
20
-0.772581008576481
30
0
41
1
10
21.3645560191586
20
-0.773029733991734
30
0
41
1
10
21.3157279157021
20
-0.773147527247062
30
0
41
1
10
21.2688524764393
20
-0.773043308366056
30
0
41
1
10
21.2239304706187
20
-0.772748106153443
30
0
41
1
10
21.1790094874299
20
-0.77227307159697
30
0
41
1
10
21.1165120936339
20
-0.771317344846892
30
0
41
1
10
21.0208144992981
20
-0.769167597269018
30
0
41
1
10
20.9270606141212
20
-0.766112880159653
30
0
41
1
10
20.8333079932396
20
-0.762247003026545
30
0
41
1
10
20.7551860610464
20
-0.758464116118319
30
0
41
1
10
20.6380038599153
20
-0.751751107819217
30
0
41
1
10
20.5442484041517
20
-0.745372137912057
30
0
41
1
10
20.4661174054942
20
-0.739430571791416
30
0
41
1
10
20.427055679013
20
-0.736294267372813
30
0
41
1
10
20.3645574559843
20
-0.731000819915693
30
0
41
1
10
20.3020572272013
20
-0.725339749347484
30
0
41
1
10
20.2395557238397
20
-0.719317765347029
30
0
41
1
10
20.1907276733115
20
-0.714390775415268
30
0
41
1
10
20.1438522888307
20
-0.709462574361794
30
0
41
1
10
20.0989303372954
20
-0.704561778831078
30
0
41
1
10
20.0540094100322
20
-0.699494860976387
30
0
41
1
10
19.9915120968097
20
-0.692172684061035
30
0
41
1
10
19.8958146265174
20
-0.680337099428499
30
0
41
1
10
19.8020608485763
20
-0.667936716245663
30
0
41
1
10
19.7083083054338
20
-0.654827387065609
30
0
41
1
10
19.6301864147171
20
-0.643396642733705
30
0
41
1
10
19.5130042264418
20
-0.625358466707183
30
0
41
1
10
19.4192487253483
20
-0.610117239237724
30
0
41
1
10
19.3411176539093
20
-0.596913920398805
30
0
41
1
10
19.3020558834932
20
-0.590161982558755
30
0
41
1
10
19.2395575769372
20
-0.579133531801062
30
0
41
1
10
19.1770572513328
20
-0.567819948914234
30
0
41
1
10
19.1145556514031
20
-0.556231460857219
30
0
41
1
10
19.0657275292409
20
-0.546998251559017
30
0
41
1
10
19.0188520826713
20
-0.53798358056514
30
0
41
1
10
18.9739300806534
20
-0.529209562092916
30
0
41
1
10
18.9290091126495
20
-0.520307126771854
30
0
41
1
10
18.8665117575558
20
-0.507710741846893
30
0
41
1
10
18.7708142574614
20
-0.487954404307601
30
0
41
1
10
18.6770605010106
20
-0.468060584779408
30
0
41
1
10
18.5833080159088
20
-0.447673172278769
30
0
41
1
10
18.5051861963556
20
-0.430313732309514
30
0
41
1
10
18.3880041457252
20
-0.403673003918811
30
0
41
1
10
18.2942487712822
20
-0.381879367149395
30
0
41
1
10
18.2161177967319
20
-0.363420126183513
30
0
41
1
10
18.1770560734779
20
-0.35407917658415
30
0
41
1
10
18.1145578393297
20
-0.338994250582715
30
0
41
1
10
18.0520575791456
20
-0.323752319638345
30
0
41
1
10
17.9895560313534
20
-0.308365148642508
30
0
41
1
10
17.9407279401121
20
-0.296235017204225
30
0
41
1
10
17.8938525125081
20
-0.284510490749142
30
0
41
1
10
17.8489305179568
20
-0.273203597558108
30
0
41
1
10
17.8040095474776
20
-0.261825944506711
30
0
41
1
10
17.7415121754522
20
-0.245880485140219
30
0
41
1
10
17.6458146236088
20
-0.221223361354873
30
0
41
1
10
17.5520607940912
20
-0.196876986616758
30
0
41
1
10
17.4583082397926
20
-0.172326406469153
30
0
41
1
10
17.3801863698304
20
-0.15168938689348
30
0
41
1
10
17.2630042576977
20
-0.120512719311336
30
0
41
1
10
17.1692488489395
20
-0.0954917081393489
30
0
41
1
10
17.0911178543269
20
-0.0745921881345453
30
0
41
1
10
17.0545242182929
20
-0.0647506700395013
30
0
41
1
10
17.0257431505447
20
-0.0569965247397874
30
0
41
1
10
17.0125865619035
20
-0.0534512373464224
30
0
0
SPLINE
5
B8
100
AcDbEntity
8
1
62
256
6
ByLayer
370
18
48
1
60
0
100
AcDbSpline
70
4
71
3
72
9
73
5
40
0
40
0
40
0
40
0
40
0.189720507392144
40
1
40
1
40
1
40
1
41
1
10
17.0125865618196
20
-0.0534512373237988
30
0
41
1
10
17.0101184667888
20
-0.0527861632353108
30
0
41
1
10
16.9971093390148
20
-0.0492804890964749
30
0
41
1
10
16.9841000941484
20
-0.0457745413916939
30
0
41
1
10
16.9735589023814
20
-0.0429337186672569
30
0
0
SPLINE
5
B9
100
AcDbEntity
8
1
62
256
6
ByLayer
370
18
48
1
60
0
100
AcDbSpline
70
4
71
3
72
14
73
10
40
0
40
0
40
0
40
0
40
0.176890911756958
40
0.176890911756958
40
0.451260607837973
40
0.451260607837973
40
0.725630303918987
40
0.725630303918987
40
1
40
1
40
1
40
1
41
1
10
4.82033253351651
20
-1.56300886957925
30
0
41
1
10
4.81961332201084
20
-1.56308572209335
30
0
41
1
10
4.81990898375878
20
-1.56260440949302
30
0
41
1
10
4.82329761627599
20
-1.5599259321547
30
0
41
1
10
4.82788159013481
20
-1.55690952493706
30
0
41
1
10
4.84153393918038
20
-1.54843549555878
30
0
41
1
10
4.85061137668455
20
-1.54296886534334
30
0
41
1
10
4.87291146302331
20
-1.52977087873236
30
0
41
1
10
4.8862355632487
20
-1.5219812429354
30
0
41
1
10
4.90113251102304
20
-1.51334431376142
30
0
0
SPLINE
5
BA
100
AcDbEntity
8
1
62
256
6
ByLayer
370
13
48
1
60
0
100
AcDbSpline
70
4
71
3
72
88
73
84
40
0
40
0
40
0
40
0
40
0.0070972553175866
40
0.015416415180978
40
0.0320547349077624
40
0.0403738947711545
40
0.0486930546345466
40
0.0580521094808624
40
0.0653313743613307
40
0.0726106392417986
40
0.0819696940881144
40
0.0986080138148986
40
0.123565493405074
40
0.131884653268466
40
0.148522972995251
40
0.165161292722037
40
0.194278352243905
40
0.198437932175602
40
0.206757092038995
40
0.215076251902386
40
0.23171457162917
40
0.240033731492562
40
0.248352891355954
40
0.257711946202271
40
0.264991211082738
40
0.272270475963205
40
0.281629530809523
40
0.298267850536305
40
0.323225330126484
40
0.331544489989874
40
0.348182809716657
40
0.364821129443442
40
0.393938188965315
40
0.39809776889701
40
0.406416928760403
40
0.414736088623792
40
0.431374408350578
40
0.43969356821397
40
0.44801272807736
40
0.457371782923678
40
0.464651047804146
40
0.471930312684614
40
0.481289367530927
40
0.497927687257716
40
0.522885166847892
40
0.531204326711282
40
0.547842646438064
40
0.564480966164849
40
0.593598025686721
40
0.597757605618418
40
0.60607676548181
40
0.614395925345201
40
0.631034245071986
40
0.639353404935378
40
0.647672564798771
40
0.657031619645086
40
0.664310884525554
40
0.671590149406022
40
0.680949204252338
40
0.697587523979121
40
0.722545003569298
40
0.73086416343269
40
0.747502483159473
40
0.764140802886259
40
0.79325786240813
40
0.797417442339826
40
0.805736602203219
40
0.814055762066609
40
0.830694081793394
40
0.839013241656786
40
0.847332401520177
40
0.856691456366493
40
0.863970721246961
40
0.871249986127429
40
0.880609040973745
40
0.897247360700529
40
0.922204840290705
40
0.930524000154097
40
0.947162319880881
40
0.963800639607665
40
0.992917699129537
40
0.997077279061233
40
1
40
1
40
1
40
1
41
1.00000000000001
10
21.1124329093512
20
0.0555135989656316
30
0
41
1.00000000000001
10
21.0991032438387
20
0.0591087609717812
30
0
41
1.00000000000001
10
21.0701476252634
20
0.0668983638159937
30
0
41
1.00000000000001
10
21.0099408845838
20
0.0830609066192373
30
0
41
1.00000000000001
10
20.9474411138609
20
0.0998189839648083
30
0
41
1.00000000000001
10
20.8849426201485
20
0.11654557721249
30
0
41
1.00000000000001
10
20.8361144206211
20
0.129557768983118
30
0
41
1.00000000000001
10
20.7892398059648
20
0.142016671318969
30
0
41
1.00000000000001
10
20.7443180078445
20
0.153922955577512
30
0
41
1.00000000000001
10
20.6993951835042
20
0.165786199552228
30
0
41
1.00000000000001
10
20.6368924917879
20
0.182209364532154
30
0
41
1.00000000000001
10
20.5411837014122
20
0.207172782042589
30
0
41
1.00000000000001
10
20.4474374864655
20
0.23146274684859
30
0
41
1.00000000000001
10
20.353690034396
20
0.255502366178061
30
0
41
1.00000000000001
10
20.2755619192355
20
0.275304098919546
30
0
41
1.00000000000001
10
20.1583690974835
20
0.304612774805489
30
0
41
1.00000000000001
10
20.064624608934
20
0.327739949529555
30
0
41
1.00000000000001
10
19.9865056915381
20
0.346746977171162
30
0
41
1.00000000000001
10
19.9474424603945
20
0.356142855080944
30
0
41
1.00000000000001
10
19.8849407635637
20
0.371035028881462
30
0
41
1.00000000000001
10
19.8224410897159
20
0.385757798317055
30
0
41
1.00000000000001
10
19.7599426926257
20
0.400300309927783
30
0
41
1.00000000000001
10
19.7111145647732
20
0.411525658097187
30
0
41
1.00000000000001
10
19.6642400122437
20
0.422190226295694
30
0
41
1.00000000000001
10
19.6193182646407
20
0.432304970438164
30
0
41
1.00000000000001
10
19.5743954810754
20
0.442313199596892
30
0
41
1.00000000000001
10
19.5118928312774
20
0.456055921993307
30
0
41
1.00000000000001
10
19.416184070768
20
0.476680814119898
30
0
41
1.00000000000001
10
19.3224378343654
20
0.496368901528309
30
0
41
1.00000000000001
10
19.2286903242474
20
0.515519360370258
30
0
41
1.00000000000001
10
19.1505621378861
20
0.531067228045539
30
0
41
1.00000000000001
10
19.0333691783966
20
0.553652957202099
30
0
41
1.00000000000001
10
18.9396245631117
20
0.571034651205475
30
0
41
1.00000000000001
10
18.8615055487816
20
0.585035005507843
30
0
41
1.00000000000001
10
18.8224422704571
20
0.59188712252759
30
0
41
1.00000000000001
10
18.7599405011936
20
0.602626096259565
30
0
41
1.00000000000001
10
18.6974407619065
20
0.613070403286452
30
0
41
1.00000000000001
10
18.6349423126643
20
0.623211328682908
30
0
41
1.00000000000001
10
18.5861141538832
20
0.630937287488558
30
0
41
1.00000000000001
10
18.5392395823832
20
0.638179766447047
30
0
41
1.00000000000001
10
18.4943178273103
20
0.644958554481343
30
0
41
1.00000000000001
10
18.4493950462167
20
0.651583175070095
30
0
41
1.00000000000001
10
18.386892413344
20
0.660545886249417
30
0
41
1.00000000000001
10
18.2911837045735
20
0.673680198245756
30
0
41
1.00000000000001
10
18.197437541236
20
0.685756976447459
30
0
41
1.00000000000001
10
18.103690100329
20
0.697091756244014
30
0
41
1.00000000000001
10
18.0255619644004
20
0.706010467737195
30
0
41
1.00000000000001
10
17.9083690664548
20
0.71842397016777
30
0
41
1.00000000000001
10
17.8146244855062
20
0.727406807366372
30
0
41
1.00000000000001
10
17.7365054912275
20
0.734263681648507
30
0
41
1.00000000000001
10
17.6974422222049
20
0.737526277852247
30
0
41
1.00000000000001
10
17.6349404679998
20
0.742473030025047
30
0
41
1.00000000000001
10
17.5724407446533
20
0.747044475493333
30
0
41
1.00000000000001
10
17.5099423128291
20
0.751234800309782
30
0
41
1.00000000000001
10
17.4611141676214
20
0.754280575244956
30
0
41
1.00000000000001
10
17.4142396096375
20
0.756993233977703
30
0
41
1.00000000000001
10
17.3693178681279
20
0.759398334711357
30
0
41
1.00000000000001
10
17.3243951025818
20
0.761624275628172
30
0
41
1.00000000000001
10
17.2618924963571
20
0.764432380578221
30
0
41
1.00000000000001
10
17.1661838395589
20
0.768059482112442
30
0
41
1.00000000000001
10
17.072437743834
20
0.7706695546268
30
0
41
1.00000000000001
10
16.9786903829937
20
0.772448967244877
30
0
41
1.00000000000001
10
16.9005623214016
20
0.773371311772898
30
0
41
1.00000000000001
10
16.7833695318626
20
0.773713520884535
30
0
41
1.00000000000001
10
16.6896250142323
20
0.772928274886589
30
0
41
1.00000000000001
10
16.6115060374412
20
0.771600170912557
30
0
41
1.00000000000001
10
16.5724427690083
20
0.770778465049624
30
0
41
1.00000000000001
10
16.5099409991108
20
0.769184631534209
30
0
41
1.00000000000001
10
16.4474412385451
20
0.76719467185287
30
0
41
1.00000000000001
10
16.3849427544064
20
0.764806936790074
30
0
41
1.00000000000001
10
16.3361145619832
20
0.762718715089811
30
0
41
1.00000000000001
10
16.2892399537236
20
0.76049988664888
30
0
41
1.00000000000001
10
16.2443181613112
20
0.758177735224784
30
0
41
1.00000000000001
10
16.1993953422529
20
0.755680309166984
30
0
41
1.00000000000001
10
16.1368926571148
20
0.751927892429443
30
0
41
1.00000000000001
10
16.0411838748224
20
0.745530919652702
30
0
41
1.00000000000001
10
15.9474376642239
20
0.738309081144415
30
0
41
1.00000000000001
10
15.8536902131403
20
0.730285207499912
30
0
41
1.00000000000001
10
15.7755620964944
20
0.723082681192459
30
0
41
1.00000000000001
10
15.658369268342
20
0.711306746918631
30
0
41
1.00000000000001
10
15.5646247707145
20
0.700865310801981
30
0
41
1.00000000000001
10
15.4966406178243
20
0.69275244647394
30
0
41
1.00000000000001
10
15.4833389844568
20
0.691140768665997
30
0
41
1.00000000000001
10
15.4778495885927
20
0.690471642111185
30
0
0
SPLINE
5
BB
100
AcDbEntity
8
1
62
256
6
ByLayer
370
13
48
1
60
0
100
AcDbSpline
70
4
71
3
72
18
73
14
40
0
40
0
40
0
40
0
40
0.25
40
0.25
40
0.5
40
0.5
40
0.625
40
0.625
40
0.75
40
0.75
40
0.875
40
0.875
40
1
40
1
40
1
40
1
41
1
10
7.39543940396072
20
-1.3400400527492
30
0
41
1
10
7.39552258218777
20
-1.2679158716729
30
0
41
1
10
7.39560495714858
20
-1.17472710946652
30
0
41
1
10
7.39579726080501
20
-0.952953817465811
30
0
41
1
10
7.39590422028289
20
-0.828172603514361
30
0
41
1
10
7.39608720130968
20
-0.620810447014406
30
0
41
1
10
7.39615138604387
20
-0.548715352958851
30
0
41
1
10
7.39628108727985
20
-0.402423149553925
30
0
41
1
10
7.39634707418855
20
-0.327698969772513
30
0
41
1
10
7.39647801133864
20
-0.175052755773351
30
0
41
1
10
7.39654314330895
20
-0.0968300267016389
30
0
41
1
10
7.39666315948387
20
0.0575737380131898
30
0
41
1
10
7.39671862448839
20
0.134393010096375
30
0
41
1
10
7.39676667758627
20
0.210829896266972
30
0
0
SPLINE
5
BC
100
AcDbEntity
8
1
62
256
6
ByLayer
370
18
48
1
60
0
100
AcDbSpline
70
4
71
3
72
8
73
4
40
0
40
0
40
0
40
0
40
1
40
1
40
1
40
1
41
1
10
25.9996451217288
20
0.0625745975272025
30
0
41
1
10
26.0001182927572
20
0.0208581991800827
30
0
41
1
10
26.0001182927573
20
-0.0208581991670655
30
0
41
1
10
25.9996451217289
20
-0.0625745975141854
30
0
0
SPLINE
5
BD
100
AcDbEntity
8
1
62
256
6
ByLayer
370
18
48
1
60
0
100
AcDbSpline
70
4
71
3
72
8
73
4
40
0
40
0
40
0
40
0
40
1
40
1
40
1
40
1
41
1
10
25.8995021117467
20
0.329695925760319
30
0
41
1
10
25.8782713063845
20
0.388430490512178
30
0
41
1
10
25.8570810022252
20
0.44717957683406
30
0
41
1
10
25.8359312594243
20
0.505943206294546
30
0
0
SPLINE
5
BE
100
AcDbEntity
8
1
62
256
6
ByLayer
370
18
48
1
60
0
100
AcDbSpline
70
4
71
3
72
10
73
6
40
0
40
0
40
0
40
0
40
0.5
40
0.5
40
1
40
1
40
1
40
1
41
1
10
25.371892979426
20
-1.49384003999336
30
0
41
1
10
25.3716156331047
20
-1.46401509169579
30
0
41
1
10
25.3681024699091
20
-1.43823380474859
30
0
41
1
10
25.3570121583555
20
-1.39262152412115
30
0
41
1
10
25.3495977405614
20
-1.3732835917485
30
0
41
1
10
25.3408454434325
20
-1.35642794581969
30
0
0
SPLINE
5
BF
100
AcDbEntity
8
1
62
256
6
ByLayer
370
18
48
1
60
0
100
AcDbSpline
70
4
71
3
72
8
73
4
40
0
40
0
40
0
40
0
40
1
40
1
40
1
40
1
41
1
10
25.9996451217288
20
-0.0625745975272878
30
0
41
1
10
25.9652938845715
20
-0.150874839562249
30
0
41
1
10
25.9319538111785
20
-0.239918999776108
30
0
41
1
10
25.8995021117466
20
-0.329695925760376
30
0
0
SPLINE
5
C0
100
AcDbEntity
8
1
62
256
6
ByLayer
370
18
48
1
60
0
100
AcDbSpline
70
4
71
3
72
14
73
10
40
0
40
0
40
0
40
0
40
0.185841880080185
40
0.185841880080185
40
0.457227920053457
40
0.457227920053457
40
0.728613960026729
40
0.728613960026729
40
1
40
1
40
1
40
1
41
1
10
7.76117596062338
20
0.0121441182409114
30
0
41
1
10
7.7907138071258
20
0.0087238653716213
30
0
41
1
10
7.82554947248423
20
0.0170549326550145
30
0
41
1
10
7.91987128827549
20
0.0660652222703106
30
0
41
1
10
7.98321793554553
20
0.119814619209052
30
0
41
1
10
8.11003041186083
20
0.264239854496566
30
0
41
1
10
8.17337705913087
20
0.354779958125619
30
0
41
1
10
8.28534582983792
20
0.551640012301363
30
0
41
1
10
8.33386272201344
20
0.657774948475577
30
0
41
1
10
8.36931904042694
20
0.759379441796369
30
0
0
SPLINE
5
C1
100
AcDbEntity
8
1
62
256
6
ByLayer
370
18
48
1
60
0
100
AcDbSpline
70
4
71
3
72
12
73
8
40
0
40
0
40
0
40
0
40
0.500000000000005
40
0.500000000000005
40
0.750000000000003
40
0.750000000000003
40
1
40
1
40
1
40
1
41
1
10
25.4132242053429
20
1.58167225757285
30
0
41
1
10
25.4657018512871
20
1.45514407627726
30
0
41
1
10
25.519064059955
20
1.3250043489237
30
0
41
1
10
25.5987542377249
20
1.12313384554577
30
0
41
1
10
25.6252497993559
20
1.05471303880586
30
0
41
1
10
25.6777676740675
20
0.915374692484562
30
0
41
1
10
25.7038049781009
20
0.84445126988112
30
0
41
1
10
25.7290250213028
20
0.773157149591469
30
0
0
SPLINE
5
C2
100
AcDbEntity
8
1
62
256
6
ByLayer
370
18
48
1
60
0
100
AcDbSpline
70
4
71
3
72
8
73
4
40
0
40
0
40
0
40
0
40
1
40
1
40
1
40
1
41
1
10
25.4132242053429
20
-1.58167225757285
30
0
41
1
10
25.3991141453102
20
-1.56577744391959
30
0
41
1
10
25.387950833278
20
-1.53926476742959
30
0
41
1
10
25.3795586671802
20
-1.50252275937717
30
0
0
SPLINE
5
C3
100
AcDbEntity
8
1
62
256
6
ByLayer
370
18
48
1
60
0
100
AcDbSpline
70
4
71
3
72
12
73
8
40
0
40
0
40
0
40
0
40
0.320861462130677
40
0.320861462130677
40
0.641722924261354
40
0.641722924261354
40
1
40
1
40
1
40
1
41
1
10
7.30617896889646
20
-1.44984257525798
30
0
41
1
10
7.49654649104866
20
-1.4897249346476
30
0
41
1
10
7.68675464645196
20
-1.51999026804239
30
0
41
1
10
8.06681211383093
20
-1.56016051682678
30
0
41
1
10
8.25534728408047
20
-1.56990665536318
30
0
41
1
10
8.65338940292909
20
-1.56903917412072
30
0
41
1
10
8.86257856120332
20
-1.55591076457054
30
0
41
1
10
9.07216725924695
20
-1.53041901576634
30
0
0
SPLINE
5
C4
100
AcDbEntity
8
1
62
256
6
ByLayer
370
18
48
1
60
0
100
AcDbSpline
70
4
71
3
72
35
73
31
40
0
40
0
40
0
40
0
40
0.0071625309225804
40
0.0071625309225804
40
0.0426210119610604
40
0.0426210119610604
40
0.07807949299954
40
0.07807949299954
40
0.1489964550765
40
0.1489964550765
40
0.290830379230419
40
0.290830379230419
40
0.361747341307377
40
0.361747341307377
40
0.432664303384336
40
0.432664303384336
40
0.574498227538251
40
0.574498227538251
40
0.716332151692166
40
0.716332151692166
40
0.787249113769124
40
0.787249113769124
40
0.858166075846083
40
0.858166075846083
40
0.929083037923041
40
0.929083037923041
40
0.964541518961521
40
0.98227075948076
40
0.98227075948076
40
1
40
1
40
1
40
1
41
1
10
17.419760920271
20
1.5856946846996
30
0
41
1
10
17.4387269343753
20
1.58573980750964
30
0
41
1
10
17.4577002872238
20
1.58568069575537
30
0
41
1
10
17.5706509316661
20
1.58470708681685
30
0
41
1
10
17.6648270479519
20
1.5813387038753
30
0
41
1
10
17.8537658011631
20
1.56941399402751
30
0
41
1
10
17.9487753913592
20
1.56081867702352
30
0
41
1
10
18.2326103061172
20
1.52747674763265
30
0
41
1
10
18.4204599271868
20
1.49522904391526
30
0
41
1
10
18.982581695403
20
1.37082757478856
30
0
41
1
10
19.3552786511997
20
1.25091321785757
30
0
41
1
10
19.9211678834792
20
1.02475416403584
30
0
41
1
10
20.1114146805241
20
0.941634420409116
30
0
41
1
10
20.4877509350491
20
0.765641634159721
30
0
41
1
10
20.674890634172
20
0.672498785640443
30
0
41
1
10
21.2358169380372
20
0.382074713917831
30
0
41
1
10
21.6096547843268
20
0.173741200964457
30
0
41
1
10
22.367626972561
20
-0.247945353643132
30
0
41
1
10
22.7404641666647
20
-0.454895900291092
30
0
41
1
10
23.3012740103775
20
-0.740877099205392
30
0
41
1
10
23.488477375859
20
-0.832137186518338
30
0
41
1
10
23.8647039401578
20
-1.00426607216579
30
0
41
1
10
24.0545065160052
20
-1.0853320913933
30
0
41
1
10
24.4316527491911
20
-1.23077692618011
30
0
41
1
10
24.6195031480234
20
-1.29562404871663
30
0
41
1
10
24.9013230976301
20
-1.37997033499156
30
0
41
1
10
25.0422299666492
20
-1.41892392156794
30
0
41
1
10
25.183344198306
20
-1.45280912831316
30
0
41
1
10
25.2774906507447
20
-1.47424428782955
30
0
41
1
10
25.324472953288
20
-1.48446515824449
30
0
41
1
10
25.3718929794261
20
-1.49384003999327
30
0
0
SPLINE
5
C5
100
AcDbEntity
8
1
62
256
6
ByLayer
370
18
48
1
60
0
100
AcDbSpline
70
4
71
3
72
14
73
10
40
0
40
0
40
0
40
0
40
0.149817946156836
40
0.149817946156836
40
0.433211964104557
40
0.433211964104557
40
0.716605982052279
40
0.716605982052279
40
1
40
1
40
1
40
1
41
1
10
25.418598039622
20
0.209172157615683
30
0
41
1
10
25.4323260385228
20
0.219716337796797
30
0
41
1
10
25.4465819593491
20
0.231111309898012
30
0
41
1
10
25.4892617286894
20
0.266114708108916
30
0
41
1
10
25.5184747403918
20
0.291140350812469
30
0
41
1
10
25.5810471832071
20
0.343560144423037
30
0
41
1
10
25.614662779698
20
0.371204373300429
30
0
41
1
10
25.6859247961951
20
0.422981920147691
30
0
41
1
10
25.7243343844991
20
0.447660481002856
30
0
41
1
10
25.7660512137654
20
0.466869064463481
30
0
0
SPLINE
5
C6
100
AcDbEntity
8
1
62
256
6
ByLayer
370
18
48
1
60
0
100
AcDbSpline
70
4
71
3
72
8
73
4
40
0
40
0
40
0
40
0
40
1
40
1
40
1
40
1
41
1
10
25.7290250213028
20
-0.773157149591469
30
0
41
1
10
25.7620880366233
20
-0.679691861981752
30
0
41
1
10
25.7976606240072
20
-0.590870261892348
30
0
41
1
10
25.8359312594326
20
-0.505943206276044
30
0
0
SPLINE
5
C7
100
AcDbEntity
8
1
62
256
6
ByLayer
370
13
48
1
60
0
100
AcDbSpline
70
4
71
3
72
87
73
83
40
0
40
0
40
0
40
0
40
0.0012378412145064
40
0.0180680084915229
40
0.0264830921300311
40
0.0348981757685411
40
0.0443651448618636
40
0.0517283430455573
40
0.0590915412292534
40
0.0685585103225745
40
0.0853886775995934
40
0.110633928515119
40
0.119049012153627
40
0.135879179430645
40
0.152709346707661
40
0.182162139442444
40
0.186369681261697
40
0.194784764900206
40
0.203199848538715
40
0.220030015815732
40
0.22844509945424
40
0.23686018309275
40
0.246327152186072
40
0.253690350369767
40
0.261053548553462
40
0.270520517646784
40
0.287350684923801
40
0.312595935839327
40
0.321011019477836
40
0.337841186754854
40
0.354671354031871
40
0.384124146766652
40
0.388331688585906
40
0.396746772224415
40
0.405161855862924
40
0.421992023139941
40
0.43040710677845
40
0.438822190416959
40
0.448289159510281
40
0.455652357693976
40
0.463015555877671
40
0.472482524970993
40
0.489312692248011
40
0.514557943163537
40
0.522973026802045
40
0.539803194079063
40
0.55663336135608
40
0.586086154090861
40
0.590293695910115
40
0.598708779548624
40
0.607123863187132
40
0.62395403046415
40
0.632369114102659
40
0.640784197741168
40
0.65025116683449
40
0.657614365018185
40
0.66497756320188
40
0.674444532295202
40
0.69127469957222
40
0.716519950487746
40
0.724935034126255
40
0.741765201403272
40
0.758595368680289
40
0.78804816141507
40
0.792255703234325
40
0.800670786872833
40
0.809085870511342
40
0.825916037788359
40
0.834331121426868
40
0.842746205065377
40
0.852213174158699
40
0.859576372342394
40
0.866939570526089
40
0.876406539619412
40
0.893236706896429
40
0.918481957811955
40
0.926897041450464
40
0.943727208727481
40
0.960557376004499
40
0.990010168739279
40
0.994217710558533
40
1
40
1
40
1
40
1
41
1
10
13.6370773233968
20
-0.692148679458001
30
0
41
1
10
13.6347789652992
20
-0.692425012706991
30
0
41
1
10
13.6012312002799
20
-0.696448778606111
30
0
41
1
10
13.5520575918198
20
-0.702140081711491
30
0
41
1
10
13.4895560445673
20
-0.709005544982631
30
0
41
1
10
13.4407279532999
20
-0.714162284481603
30
0
41
1
10
13.3938525252855
20
-0.718910698446763
30
0
41
1
10
13.3489305300597
20
-0.723279607800094
30
0
41
1
10
13.3040095586837
20
-0.727483695476394
30
0
41
1
10
13.2415121850744
20
-0.733062287434024
30
0
41
1
10
13.1458146301599
20
-0.74096213922445
30
0
41
1
10
13.0520607970429
20
-0.747752864161953
30
0
41
1
10
12.9583082392084
20
-0.753747482096884
30
0
41
1
10
12.8801863662691
20
-0.758207092003943
30
0
41
1
10
12.7630042498129
20
-0.763859619920737
30
0
41
1
10
12.6692488382207
20
-0.767318405326478
30
0
41
1
10
12.5911178420939
20
-0.769540874532623
30
0
41
1
10
12.5520561089481
20
-0.770495446376913
30
0
41
1
10
12.4895578592286
20
-0.771737004863155
30
0
41
1
10
12.4270575832986
20
-0.772581008576481
30
0
41
1
10
12.3645560191586
20
-0.773029733991734
30
0
41
1
10
12.3157279157021
20
-0.773147527247062
30
0
41
1
10
12.2688524764393
20
-0.773043308366056
30
0
41
1
10
12.2239304706187
20
-0.772748106153443
30
0
41
1
10
12.1790094874298
20
-0.77227307159697
30
0
41
1
10
12.1165120936339
20
-0.771317344846892
30
0
41
1
10
12.020814499298
20
-0.769167597269018
30
0
41
1
10
11.9270606141212
20
-0.766112880159682
30
0
41
1
10
11.8333079932396
20
-0.762247003026545
30
0
41
1
10
11.7551860610464
20
-0.75846411611829
30
0
41
1
10
11.6380038599153
20
-0.751751107819217
30
0
41
1
10
11.5442484041517
20
-0.745372137912085
30
0
41
1
10
11.4661174054942
20
-0.739430571791416
30
0
41
1
10
11.427055679013
20
-0.736294267372813
30
0
41
1
10
11.3645574559843
20
-0.731000819915693
30
0
41
1
10
11.3020572272013
20
-0.725339749347484
30
0
41
1
10
11.2395557238397
20
-0.719317765347029
30
0
41
1
10
11.1907276733115
20
-0.714390775415268
30
0
41
1
10
11.1438522888307
20
-0.709462574361794
30
0
41
1
10
11.0989303372954
20
-0.704561778831078
30
0
41
1
10
11.0540094100322
20
-0.699494860976415
30
0
41
1
10
10.9915120968097
20
-0.692172684061035
30
0
41
1
10
10.8958146265174
20
-0.680337099428499
30
0
41
1
10
10.8020608485763
20
-0.667936716245663
30
0
41
1
10
10.7083083054338
20
-0.654827387065609
30
0
41
1
10
10.6301864147171
20
-0.643396642733705
30
0
41
1
10
10.5130042264417
20
-0.625358466707183
30
0
41
1
10
10.4192487253483
20
-0.610117239237724
30
0
41
1
10
10.3411176539093
20
-0.596913920398805
30
0
41
1
10
10.3020558834931
20
-0.590161982558755
30
0
41
1
10
10.2395575769372
20
-0.579133531801091
30
0
41
1
10
10.1770572513328
20
-0.567819948914234
30
0
41
1
10
10.1145556514031
20
-0.556231460857219
30
0
41
1
10
10.0657275292409
20
-0.546998251559046
30
0
41
1
10
10.0188520826713
20
-0.537983580565168
30
0
41
1
10
9.97393008065339
20
-0.529209562092916
30
0
41
1
10
9.92900911264945
20
-0.520307126771854
30
0
41
1
10
9.86651175755577
20
-0.507710741846893
30
0
41
1
10
9.77081425746135
20
-0.487954404307629
30
0
41
1
10
9.67706050101063
20
-0.468060584779408
30
0
41
1
10
9.58330801590884
20
-0.447673172278769
30
0
41
1
10
9.50518619635568
20
-0.430313732309514
30
0
41
1
10
9.38800414572523
20
-0.403673003918811
30
0
41
1
10
9.29424877128224
20
-0.381879367149395
30
0
41
1
10
9.21611779671912
20
-0.363420126174901
30
0
41
1
10
9.17705607358059
20
-0.354079176652931
30
0
41
1
10
9.11455783991258
20
-0.338994268087959
30
0
41
1
10
9.05205758041859
20
-0.323752406058787
30
0
41
1
10
8.98955603311737
20
-0.308365406543572
30
0
41
1
10
8.94072794203862
20
-0.296235475806839
30
0
41
1
10
8.89385251425315
20
-0.284511223642397
30
0
41
1
10
8.84893051911263
20
-0.273204680678902
30
0
41
1
10
8.80400954758659
20
-0.261827463676269
30
0
41
1
10
8.74151217321395
20
-0.245882762370627
30
0
41
1
10
8.64581461524193
20
-0.221227207398158
30
0
41
1
10
8.55206077459408
20
-0.196883136712188
30
0
41
1
10
8.45830820394252
20
-0.172335627901362
30
0
41
1
10
8.38018631432354
20
-0.151701678077188
30
0
41
1
10
8.26300416508198
20
-0.120529808604601
30
0
41
1
10
8.16924872659257
20
-0.0955119404733296
30
0
41
1
10
8.09600662392216
20
-0.075921327412118
30
0
41
1
10
8.07745764549011
20
-0.0709385390607338
30
0
41
1
10
8.06672128904995
20
-0.068051446465546
30
0
0
SPLINE
5
C8
100
AcDbEntity
8
1
62
256
6
ByLayer
370
13
48
1
60
0
100
AcDbSpline
70
4
71
3
72
30
73
26
40
0
40
0
40
0
40
0
40
0.160120325094517
40
0.160120325094517
40
0.240180487641775
40
0.240180487641775
40
0.320240650189032
40
0.320240650189032
40
0.40030081273629
40
0.40030081273629
40
0.480360975283547
40
0.480360975283547
40
0.64048130037806
40
0.64048130037806
40
0.68051138165169
40
0.68051138165169
40
0.720541462925319
40
0.720541462925319
40
0.80060162547258
40
0.80060162547258
40
0.880661788019841
40
0.880661788019841
40
0.960721950567102
40
0.960721950567102
40
1
40
1
40
1
40
1
41
1
10
25.3408454434352
20
-1.35642794582483
30
0
41
1
10
24.965776064808
20
-1.25936671487591
30
0
41
1
10
24.5936453720819
20
-1.12894624900326
30
0
41
1
10
24.031750776724
20
-0.893844396823283
30
0
41
1
10
23.8439595299182
20
-0.808543873195333
30
0
41
1
10
23.4708234867427
20
-0.630955761383404
30
0
41
1
10
23.28490466528
20
-0.538154509982121
30
0
41
1
10
22.913123449465
20
-0.3467787161415
30
0
41
1
10
22.7273687622491
20
-0.247984945448252
30
0
41
1
10
22.353862820008
20
-0.0481980612492237
30
0
41
1
10
22.1653948736119
20
0.0532093112538519
30
0
41
1
10
21.604347459139
20
0.352640525595177
30
0
41
1
10
21.2340020381696
20
0.546095943432647
30
0
41
1
10
20.7678000855933
20
0.766371284575172
30
0
41
1
10
20.6743737582769
20
0.809298568172494
30
0
41
1
10
20.4870514799612
20
0.892731557737562
30
0
41
1
10
20.3929789258074
20
0.933369908468819
30
0
41
1
10
20.1118256934722
20
1.04959404219198
30
0
41
1
10
19.9251051766479
20
1.11996430864633
30
0
41
1
10
19.5526737890713
20
1.24637686518028
30
0
41
1
10
19.3668468207696
20
1.30218962173336
30
0
41
1
10
18.9944295018562
20
1.39612493038368
30
0
41
1
10
18.8073259988339
20
1.43414108689569
30
0
41
1
10
18.526890585304
20
1.47778331137695
30
0
41
1
10
18.4348966475682
20
1.48981721113924
30
0
41
1
10
18.343115363459
20
1.49951408239158
30
0
0
SPLINE
5
C9
100
AcDbEntity
8
1
62
256
6
ByLayer
370
13
48
1
60
0
100
AcDbSpline
70
4
71
3
72
10
73
6
40
0
40
0
40
0
40
0
40
0.174065895635658
40
0.174065895635658
40
1
40
1
40
1
40
1
41
1
10
8.75355782104742
20
-1.51304814648114
30
0
41
1
10
8.67443634586283
20
-1.51260537192295
30
0
41
1
10
8.5954558702324
20
-1.5104109112568
30
0
41
1
10
8.14231706803838
20
-1.48837167300212
30
0
41
1
10
7.77087625957043
20
-1.4321423848788
30
0
41
1
10
7.39543940396072
20
-1.34004005274926
30
0
0
SPLINE
5
CA
100
AcDbEntity
8
1
62
256
6
ByLayer
370
18
48
1
60
0
100
AcDbSpline
70
4
71
3
72
8
73
4
40
0
40
0
40
0
40
0
40
1
40
1
40
1
40
1
41
1
10
17.8002856045059
20
-1.5295712788367
30
0
41
1
10
17.7887459306532
20
-1.52962502124137
30
0
41
1
10
17.7772066921227
20
-1.5296412178256
30
0
41
1
10
17.7656676996895
20
-1.52961985472794
30
0
0
SPLINE
5
CB
100
AcDbEntity
8
1
62
256
6
ByLayer
370
13
48
1
60
0
100
AcDbSpline
70
4
71
3
72
38
73
34
40
0
40
0
40
0
40
0
40
0.0318855007970011
40
0.0318855007970011
40
0.0987280694112834
40
0.0987280694112834
40
0.165570638025566
40
0.165570638025566
40
0.232413206639848
40
0.232413206639848
40
0.29925577525413
40
0.29925577525413
40
0.366098343868413
40
0.366098343868413
40
0.432940912482695
40
0.432940912482695
40
0.566626049711258
40
0.566626049711258
40
0.600047334018398
40
0.600047334018398
40
0.633468618325539
40
0.633468618325539
40
0.70031118693982
40
0.70031118693982
40
0.767153755554102
40
0.767153755554102
40
0.833996324168383
40
0.833996324168383
40
0.900838892782664
40
0.900838892782664
40
0.967681461396946
40
0.967681461396946
40
1
40
1
40
1
40
1
41
1
10
17.7656686996442
20
-1.52961985657919
30
0
41
1
10
17.6768950621097
20
-1.5294555192452
30
0
41
1
10
17.5881359908592
20
-1.52706810671347
30
0
41
1
10
17.3130868228822
20
-1.51277296645409
30
0
41
1
10
17.1263956164816
20
-1.49350590986541
30
0
41
1
10
16.7510646809562
20
-1.43619322497509
30
0
41
1
10
16.5628587462842
20
-1.39794452185347
30
0
41
1
10
16.1871027027657
20
-1.30328289277281
30
0
41
1
10
15.9987550347822
20
-1.24731140898706
30
0
41
1
10
15.6248867700672
20
-1.12140817182498
30
0
41
1
10
15.4387555326001
20
-1.05113373272627
30
0
41
1
10
15.0664253081153
20
-0.897608152789587
30
0
41
1
10
14.879846964192
20
-0.814998974084574
30
0
41
1
10
14.5053720052127
20
-0.639788303446693
30
0
41
1
10
14.3165906833188
20
-0.546846432490241
30
0
41
1
10
13.7550714269926
20
-0.260603966916108
30
0
41
1
10
13.3836751535429
20
-0.0611282639752062
30
0
41
1
10
12.916397220251
20
0.186069276663801
30
0
41
1
10
12.8227611204532
20
0.235351398113266
30
0
41
1
10
12.6349359712507
20
0.333230107853069
30
0
41
1
10
12.5406216018504
20
0.38193894810945
30
0
41
1
10
12.259088776297
20
0.525427564162612
30
0
41
1
10
12.072331124847
20
0.617304617599814
30
0
41
1
10
11.699220757508
20
0.791920972714223
30
0
41
1
10
11.5129713545669
20
0.874801581434809
30
0
41
1
10
11.1397043109369
20
1.02891794959092
30
0
41
1
10
10.9523436685105
20
1.09976035683559
30
0
41
1
10
10.5753989433917
20
1.22694871535245
30
0
41
1
10
10.3881718442201
20
1.2828049271468
30
0
41
1
10
10.0147637176332
20
1.37718916874562
30
0
41
1
10
9.82851044781313
20
1.41544641663072
30
0
41
1
10
9.55154481861729
20
1.45884175630749
30
0
41
1
10
9.4612101390841
20
1.47089674789686
30
0
41
1
10
9.3707203361927
20
1.48076654382643
30
0
0
SPLINE
5
CC
100
AcDbEntity
8
1
62
256
6
ByLayer
370
18
48
1
60
0
100
AcDbSpline
70
4
71
3
72
8
73
4
40
0
40
0
40
0
40
0
40
1
40
1
40
1
40
1
41
1
10
25.7290250213028
20
0.773157149591469
30
0
41
1
10
25.7620880366182
20
0.679691861996361
30
0
41
1
10
25.7976606239961
20
0.590870261920145
30
0
41
1
10
25.8359312594147
20
0.505943206315862
30
0
0
SPLINE
5
CD
100
AcDbEntity
8
1
62
256
6
ByLayer
370
18
48
1
60
0
100
AcDbSpline
70
4
71
3
72
28
73
24
40
0
40
0
40
0
40
0
40
0.0312499999999985
40
0.0312499999999985
40
0.0624999999999971
40
0.0624999999999971
40
0.125000000000001
40
0.125000000000001
40
0.187500000000005
40
0.187500000000005
40
0.250000000000008
40
0.250000000000008
40
0.375000000000007
40
0.375000000000007
40
0.500000000000006
40
0.500000000000006
40
0.625000000000004
40
0.625000000000004
40
0.750000000000003
40
0.750000000000003
40
0.875000000000001
40
0.875000000000001
40
1
40
1
40
1
40
1
41
1
10
4.90113251102275
20
-1.51334431376154
30
0
41
1
10
4.91029952188256
20
-1.5080294784857
30
0
41
1
10
4.92227320437289
20
-1.50250795084116
30
0
41
1
10
4.9495596008156
20
-1.49180462053411
30
0
41
1
10
4.96497251817254
20
-1.48655098924965
30
0
41
1
10
5.01538197880097
20
-1.471168077671
30
0
41
1
10
5.05324520842021
20
-1.46178359126472
30
0
41
1
10
5.13299266127885
20
-1.44478080022691
30
0
41
1
10
5.17536102903441
20
-1.4370903660845
30
0
41
1
10
5.2611070523767
20
-1.42359116473884
30
0
41
1
10
5.30478085408089
20
-1.41771776179357
30
0
41
1
10
5.43761798547774
20
-1.40243002001276
30
0
41
1
10
5.5292439359086
20
-1.395315739235
30
0
41
1
10
5.71200608992197
20
-1.38696405006343
30
0
41
1
10
5.80328590501347
20
-1.38567924139986
30
0
41
1
10
5.98566973262521
20
-1.38830610610449
30
0
41
1
10
6.07677309001559
20
-1.39223314103106
30
0
41
1
10
6.25880360200617
20
-1.40484813630434
30
0
41
1
10
6.34912791248877
20
-1.41352814803349
30
0
41
1
10
6.52514063615524
20
-1.43419932868054
30
0
41
1
10
6.61131644319894
20
-1.44623028119989
30
0
41
1
10
6.77997622144557
20
-1.47203951397589
30
0
41
1
10
6.86293628288917
20
-1.4859069556228
30
0
41
1
10
6.94287691821972
20
-1.49929867776913
30
0
0
SPLINE
5
CE
100
AcDbEntity
8
1
62
256
6
ByLayer
370
18
48
1
60
0
100
AcDbSpline
70
4
71
3
72
18
73
14
40
0
40
0
40
0
40
0
40
0.125
40
0.125
40
0.25
40
0.25
40
0.375
40
0.375
40
0.5
40
0.5
40
0.75
40
0.75
40
1
40
1
40
1
40
1
41
1
10
7.06147658805824
20
0.386351731899111
30
0
41
1
10
7.06140352473656
20
0.306416371864771
30
0
41
1
10
7.06134226443857
20
0.225553852498734
30
0
41
1
10
7.0612509038416
20
0.0619984928354995
30
0
41
1
10
7.06122074529182
20
-0.0214046616802079
30
0
41
1
10
7.06119749726417
20
-0.1864290566526
30
0
41
1
10
7.06120410496288
20
-0.267674121006934
30
0
41
1
10
7.06125168721198
20
-0.427688550488739
30
0
41
1
10
7.06129298265532
20
-0.506861820342436
30
0
41
1
10
7.06145996960908
20
-0.737791880383753
30
0
41
1
10
7.06162542624503
20
-0.878567990667364
30
0
41
1
10
7.06197081408411
20
-1.13357256649925
30
0
41
1
10
7.06214086240078
20
-1.24130296616525
30
0
41
1
10
7.06224628852485
20
-1.32910049211159
30
0
0
SPLINE
5
CF
100
AcDbEntity
8
1
62
256
6
ByLayer
370
18
48
1
60
0
100
AcDbSpline
70
4
71
3
72
8
73
4
40
0
40
0
40
0
40
0
40
1
40
1
40
1
40
1
41
1
10
7.39676667758627
20
0.210829896266972
30
0
41
1
10
7.28317283708606
20
0.269752184273443
30
0
41
1
10
7.17130985990795
20
0.328311767843246
30
0
41
1
10
7.06147658806395
20
0.386351731899111
30
0
0
SPLINE
5
D0
100
AcDbEntity
8
1
62
256
6
ByLayer
370
18
48
1
60
0
100
AcDbSpline
70
4
71
3
72
24
73
20
40
0
40
0
40
0
40
0
40
0.139439554782713
40
0.139439554782713
40
0.278879109565426
40
0.278879109565426
40
0.348598886956783
40
0.348598886956783
40
0.41831866434814
40
0.41831866434814
40
0.557758219130857
40
0.557758219130857
40
0.697197773913574
40
0.697197773913574
40
0.836637328696291
40
0.836637328696291
40
0.976076883479009
40
0.976076883479009
40
1
40
1
40
1
40
1
41
1
10
25.3199370288236
20
0.253705130764899
30
0
41
1
10
25.1344365199924
20
0.352260861237426
30
0
41
1
10
24.9486328890463
20
0.44895658653607
30
0
41
1
10
24.577125687588
20
0.635107291074632
30
0
41
1
10
24.3912556275235
20
0.725366297049248
30
0
41
1
10
24.1129590332773
20
0.853012016704298
30
0
41
1
10
24.0202421694284
20
0.894106452736963
30
0
41
1
10
23.8350650167659
20
0.973182786472364
30
0
41
1
10
23.7425470974619
20
1.01097142452267
30
0
41
1
10
23.4644623256039
20
1.11905415610099
30
0
41
1
10
23.2784463410743
20
1.18543595690662
30
0
41
1
10
22.9076923834956
20
1.30279762408836
30
0
41
1
10
22.7226952203583
20
1.35368639385357
30
0
41
1
10
22.3515885145877
20
1.43559076419945
30
0
41
1
10
22.1655287807942
20
1.46827917120157
30
0
41
1
10
21.794842579121
20
1.51548620926732
30
0
41
1
10
21.6096960389509
20
1.52980420982581
30
0
41
1
10
21.3919436721237
20
1.53413195920896
30
0
41
1
10
21.3600446094256
20
1.53447633243394
30
0
41
1
10
21.3281440817827
20
1.53454978882354
30
0
0
SPLINE
5
D1
100
AcDbEntity
8
1
62
256
6
ByLayer
370
18
48
1
60
0
100
AcDbSpline
70
4
71
3
72
36
73
32
40
0
40
0
40
0
40
0
40
0.0478542267563142
40
0.0478542267563142
40
0.127199707859958
40
0.127199707859958
40
0.206545188963602
40
0.206545188963602
40
0.285890670067245
40
0.285890670067245
40
0.325563410619066
40
0.325563410619066
40
0.365236151170886
40
0.365236151170886
40
0.444581632274528
40
0.444581632274528
40
0.484254372826347
40
0.484254372826347
40
0.523927113378167
40
0.523927113378167
40
0.603272594481806
40
0.603272594481806
40
0.682618075585444
40
0.682618075585444
40
0.761963556689083
40
0.761963556689083
40
0.841309037792722
40
0.841309037792722
40
0.920654518896361
40
0.920654518896361
40
1
40
1
40
1
40
1
41
1
10
14.5116100080162
20
-1.08983362325324
30
0
41
1
10
14.3993011091015
20
-1.1316309391112
30
0
41
1
10
14.2869612899964
20
-1.17102943805699
30
0
41
1
10
13.9891105011848
20
-1.26781712507332
30
0
41
1
10
13.8037493540347
20
-1.31877623114335
30
0
41
1
10
13.4318002445762
20
-1.40602178035834
30
0
41
1
10
13.24534570811
20
-1.44081146080208
30
0
41
1
10
12.8737732907415
20
-1.49289910001505
30
0
41
1
10
12.6881701467891
20
-1.5090654813292
30
0
41
1
10
12.4087105621117
20
-1.51960006892543
30
0
41
1
10
12.3155216440952
20
-1.52088214636453
30
0
41
1
10
12.1296652429757
20
-1.51714998417302
30
0
41
1
10
12.0367874265766
20
-1.51244378823412
30
0
41
1
10
11.7581028287472
20
-1.4935805771766
30
0
41
1
10
11.5719291627615
20
-1.47267828735497
30
0
41
1
10
11.2926903136298
20
-1.42668767419002
30
0
41
1
10
11.1997249994211
20
-1.40907842246193
30
0
41
1
10
11.0140252607969
20
-1.36870190015267
30
0
41
1
10
10.9211986831119
20
-1.3456042767688
30
0
41
1
10
10.6425357446495
20
-1.27193276966489
30
0
41
1
10
10.4560978295221
20
-1.21548919209516
30
0
41
1
10
10.0842633017303
20
-1.0878378345891
30
0
41
1
10
9.8987129891764
20
-1.01620658255152
30
0
41
1
10
9.52685372116318
20
-0.860804887810872
30
0
41
1
10
9.3404645336793
20
-0.777582665252368
30
0
41
1
10
8.96893548945516
20
-0.60280695118567
30
0
41
1
10
8.78331840474618
20
-0.510906349310261
30
0
41
1
10
8.41096426155829
20
-0.321336235469147
30
0
41
1
10
8.22481172077232
20
-0.22428049910485
30
0
41
1
10
7.85325252838726
20
-0.0288989914533602
30
0
41
1
10
7.66755776345732
20
0.0696183358029714
30
0
41
1
10
7.48099991058223
20
0.167158243050096
30
0
0
SPLINE
5
D2
100
AcDbEntity
8
1
62
256
6
ByLayer
370
18
48
1
60
0
100
AcDbSpline
70
4
71
3
72
10
73
6
40
0
40
0
40
0
40
0
40
0.983676748923152
40
0.983676748923152
40
1
40
1
40
1
40
1
41
1
10
6.94287691822132
20
-1.49929867776939
30
0
41
1
10
7.22065943291827
20
-1.54583303715421
30
0
41
1
10
7.50063446607476
20
-1.56708287906414
30
0
41
1
10
7.78684422534732
20
-1.56834885560158
30
0
41
1
10
7.79151653577495
20
-1.56836395590506
30
0
41
1
10
7.79618928275281
20
-1.56837348847239
30
0
0
SPLINE
5
D3
100
AcDbEntity
8
1
62
256
6
ByLayer
370
18
48
1
60
0
100
AcDbSpline
70
4
71
3
72
10
73
6
40
0
40
0
40
0
40
0
40
0.5
40
0.5
40
1
40
1
40
1
40
1
41
1
10
6.94287691822134
20
1.49929867776939
30
0
41
1
10
7.2206594329183
20
1.54583303715421
30
0
41
1
10
7.50063446607476
20
1.56708287906414
30
0
41
1
10
8.06371023709738
20
1.56957350243326
30
0
41
1
10
8.34683389634787
20
1.55061089974092
30
0
41
1
10
8.63151792438418
20
1.51074297714737
30
0
0
SPLINE
5
D4
100
AcDbEntity
8
1
62
256
6
ByLayer
370
18
48
1
60
0
100
AcDbSpline
70
4
71
3
72
26
73
22
40
0
40
0
40
0
40
0
40
0.282134822797003
40
0.282134822797003
40
0.423202234195505
40
0.423202234195505
40
0.493735939894758
40
0.493735939894758
40
0.564269645594012
40
0.564269645594012
40
0.705337056992524
40
0.705337056992524
40
0.775870762691782
40
0.775870762691782
40
0.846404468391041
40
0.846404468391041
40
0.916938174090299
40
0.916938174090299
40
0.987471879789557
40
0.987471879789557
40
1
40
1
40
1
40
1
41
1
10
7.06147658806395
20
0.386351731899111
30
0
41
1
10
6.80265814018898
20
0.521105998341653
30
0
41
1
10
6.54709952051508
20
0.654801030063879
30
0
41
1
10
6.17010469235686
20
0.852941016177397
30
0
41
1
10
6.04550867582296
20
0.918579743904786
30
0
41
1
10
5.86067097422287
20
1.01615321244043
30
0
41
1
10
5.79919733814222
20
1.04863789247264
30
0
41
1
10
5.6785891469608
20
1.11242586867758
30
0
41
1
10
5.61936254358545
20
1.14377761413641
30
0
41
1
10
5.44543956346971
20
1.23589811336598
30
0
41
1
10
5.33432293953075
20
1.29483468583644
30
0
41
1
10
5.17905500958997
20
1.3770972103348
30
0
41
1
10
5.12949857614475
20
1.40333397175539
30
0
41
1
10
5.03807521945723
20
1.45162557146259
30
0
41
1
10
4.99563326642459
20
1.47398429688124
30
0
41
1
10
4.92182505069496
20
1.51262134719514
30
0
41
1
10
4.89089235199862
20
1.52867406288777
30
0
41
1
10
4.8439791786632
20
1.55252519500186
30
0
41
1
10
4.82812729166776
20
1.56023816913034
30
0
41
1
10
4.82143352032392
20
1.56275461907731
30
0
41
1
10
4.82072904505438
20
1.56296646525743
30
0
41
1
10
4.82033268343156
20
1.56300885355341
30
0
0
SPLINE
5
D5
100
AcDbEntity
8
1
62
256
6
ByLayer
370
18
48
1
60
0
100
AcDbSpline
70
4
71
4
72
10
73
5
40
0
40
0
40
0
40
0
40
0
40
1
40
1
40
1
40
1
40
1
41
1
10
8.63151792438399
20
1.5107429771474
30
0
41
1
10
8.56596820339473
20
1.32290209330964
30
0
41
1
10
8.50041848240545
20
1.13506120947187
30
0
41
1
10
8.4348687614162
20
0.947220325634135
30
0
41
1
10
8.36931904042694
20
0.759379441796369
30
0
0
SPLINE
5
D6
100
AcDbEntity
8
1
62
256
6
ByLayer
370
18
48
1
60
0
100
AcDbSpline
70
4
71
3
72
8
73
4
40
0
40
0
40
0
40
0
40
1
40
1
40
1
40
1
41
1
10
25.7660512137642
20
0.466869064468142
30
0
41
1
10
25.7901400192813
20
0.477960795057072
30
0
41
1
10
25.8139006045938
20
0.49071499205516
30
0
41
1
10
25.8359312594245
20
0.505943206293949
30
0
0
SPLINE
5
D7
100
AcDbEntity
8
1
62
256
6
ByLayer
370
18
48
1
60
0
100
AcDbSpline
70
4
71
3
72
8
73
4
40
0
40
0
40
0
40
0
40
1
40
1
40
1
40
1
41
1
10
25.9996451217287
20
0.0625745975273446
30
0
41
1
10
25.9653749986998
20
0.150666334781789
30
0
41
1
10
25.9320326598161
20
0.239700866722131
30
0
41
1
10
25.8995021117467
20
0.329695925760262
30
0
0
SPLINE
5
D8
100
AcDbEntity
8
1
62
256
6
ByLayer
370
18
48
1
60
0
100
AcDbSpline
70
4
71
3
72
46
73
42
40
0
40
0
40
0
40
0
40
0.0380202825907055
40
0.0380202825907055
40
0.0861192684611702
40
0.0861192684611702
40
0.134218254331635
40
0.134218254331635
40
0.182317240202099
40
0.182317240202099
40
0.230416226072564
40
0.230416226072564
40
0.326614197813495
40
0.326614197813495
40
0.37471318368396
40
0.37471318368396
40
0.422812169554424
40
0.422812169554424
40
0.470911155424889
40
0.470911155424889
40
0.519010141295353
40
0.519010141295353
40
0.567109127165818
40
0.567109127165818
40
0.615208113036283
40
0.615208113036283
40
0.663307098906747
40
0.663307098906747
40
0.711406084777212
40
0.711406084777212
40
0.759505070647677
40
0.759505070647677
40
0.807604056518141
40
0.807604056518141
40
0.855703042388606
40
0.855703042388606
40
0.903802028259071
40
0.903802028259071
40
0.951901014129535
40
0.951901014129535
40
1
40
1
40
1
40
1
41
1
10
14.5188095853744
20
1.0876567933704
30
0
41
1
10
14.6572095855495
20
1.1432388639268
30
0
41
1
10
14.7957305834401
20
1.19507536115435
30
0
41
1
10
15.1087548501418
20
1.30220137202491
30
0
41
1
10
15.283308242469
20
1.35516331586732
30
0
41
1
10
15.6333977515435
20
1.44567825028949
30
0
41
1
10
15.8084629770365
20
1.48317906092109
30
0
41
1
10
16.157934538051
20
1.54090413834353
30
0
41
1
10
16.3325250248392
20
1.56136391270826
30
0
41
1
10
16.6827956388081
20
1.58475686374689
30
0
41
1
10
16.8576299455633
20
1.58761231734275
30
0
41
1
10
17.3814063621586
20
1.5696479015111
30
0
41
1
10
17.7319478425303
20
1.52199275719059
30
0
41
1
10
18.255407480491
20
1.40142840519638
30
0
41
1
10
18.4303276846003
20
1.35315362130615
30
0
41
1
10
18.7804311134607
20
1.24204691103017
30
0
41
1
10
18.9548785722455
20
1.17935236670991
30
0
41
1
10
19.3039054205704
20
1.04126140115383
30
0
41
1
10
19.4789926413811
20
0.965804617313495
30
0
41
1
10
19.8286078957726
20
0.805046105057244
30
0
41
1
10
20.0029556463936
20
0.719923659011613
30
0
41
1
10
20.3521070859829
20
0.542422438694274
30
0
41
1
10
20.5272526346919
20
0.449671569113633
30
0
41
1
10
20.8765038546908
20
0.260550859747099
30
0
41
1
10
21.0508768481314
20
0.164423922740923
30
0
41
1
10
21.399971937872
20
-0.0294275878586348
30
0
41
1
10
21.5751425608561
20
-0.127098918059687
30
0
41
1
10
21.9241927354688
20
-0.31939553163474
30
0
41
1
10
22.0984384660751
20
-0.41413190645423
30
0
41
1
10
22.4475982212215
20
-0.598610455106609
30
0
41
1
10
22.6225791081319
20
-0.688422614846928
30
0
41
1
10
22.9715367422233
20
-0.858395504790792
30
0
41
1
10
23.1457170504349
20
-0.93914499923261
30
0
41
1
10
23.4950163634529
20
-1.08979030137175
30
0
41
1
10
23.6697884449845
20
-1.15965799206666
30
0
41
1
10
24.0183981868233
20
-1.28506852545405
30
0
41
1
10
24.1924934561617
20
-1.34100133405113
30
0
41
1
10
24.5416582859441
20
-1.43775834925199
30
0
41
1
10
24.7164569721842
20
-1.47850277920506
30
0
41
1
10
25.0647241425737
20
-1.54290104397583
30
0
41
1
10
25.2387104942613
20
-1.56665201214059
30
0
41
1
10
25.4132242053429
20
-1.58167225757285
30
0
0
SPLINE
5
D9
100
AcDbEntity
8
1
62
256
6
ByLayer
370
18
48
1
60
0
100
AcDbSpline
70
4
71
3
72
14
73
10
40
0
40
0
40
0
40
0
40
0.25
40
0.25
40
0.5
40
0.5
40
0.75
40
0.75
40
1
40
1
40
1
40
1
41
1
10
25.7090140213209
20
-0.351369217555714
30
0
41
1
10
25.6795975359903
20
-0.339650178843726
30
0
41
1
10
25.6531038750382
20
-0.317038273536866
30
0
41
1
10
25.6046742361783
20
-0.254828757674971
30
0
41
1
10
25.5837014749156
20
-0.216363444252465
30
0
41
1
10
25.5471013137176
20
-0.12854025085602
30
0
41
1
10
25.531376106531
20
-0.0785452601481609
30
0
41
1
10
25.5057599551355
20
0.0275700978253326
30
0
41
1
10
25.4956810004142
20
0.0840314699442217
30
0
41
1
10
25.4881574640126
20
0.143679897477369
30
0
0
SPLINE
5
DA
100
AcDbEntity
8
1
62
256
6
ByLayer
370
18
48
1
60
0
100
AcDbSpline
70
4
71
3
72
56
73
52
40
0
40
0
40
0
40
0
40
0.0185911287645966
40
0.0185911287645966
40
0.0682301088558657
40
0.0682301088558657
40
0.117869088947135
40
0.117869088947135
40
0.167508069038404
40
0.167508069038404
40
0.217147049129673
40
0.217147049129673
40
0.266786029220942
40
0.266786029220942
40
0.316425009312212
40
0.316425009312212
40
0.341244499357845
40
0.341244499357845
40
0.366063989403479
40
0.366063989403479
40
0.415702969494747
40
0.415702969494747
40
0.465341949586014
40
0.465341949586014
40
0.514980929677282
40
0.514980929677282
40
0.56461990976855
40
0.56461990976855
40
0.589439399814183
40
0.589439399814183
40
0.614258889859816
40
0.614258889859816
40
0.663897869951082
40
0.663897869951082
40
0.688717359996715
40
0.688717359996715
40
0.713536850042348
40
0.713536850042348
40
0.738356340087982
40
0.738356340087982
40
0.763175830133615
40
0.763175830133615
40
0.812814810224881
40
0.812814810224881
40
0.862453790316147
40
0.862453790316147
40
0.912092770407413
40
0.912092770407413
40
0.96173175049868
40
0.96173175049868
40
1
40
1
40
1
40
1
41
1
10
12.289230409519
20
1.51982757496435
30
0
41
1
10
12.3588045136844
20
1.52013739055121
30
0
41
1
10
12.4284542941608
20
1.51880689479845
30
0
41
1
10
12.6843314866743
20
1.50933614738091
30
0
41
1
10
12.8701683920746
20
1.493276451513
30
0
41
1
10
13.2413763842675
20
1.4414932926849
30
0
41
1
10
13.4272459500654
20
1.40695142004222
30
0
41
1
10
13.7995225689955
20
1.31990308112572
30
0
41
1
10
13.984880362428
20
1.26906514191401
30
0
41
1
10
14.355971347918
20
1.14872793529486
30
0
41
1
10
14.5422891065233
20
1.08036190851144
30
0
41
1
10
14.9142672908168
20
0.932295760675487
30
0
41
1
10
15.0995973378621
20
0.853196718000504
30
0
41
1
10
15.4709460672264
20
0.682193505856958
30
0
41
1
10
15.6574519447385
20
0.591377365937177
30
0
41
1
10
15.9362655445251
20
0.451316487298271
30
0
41
1
10
16.0290348619583
20
0.403754000742367
30
0
41
1
10
16.214709880074
20
0.307896588580036
30
0
41
1
10
16.3074948220372
20
0.259307027413001
30
0
41
1
10
16.5863188024784
20
0.111875400757157
30
0
41
1
10
16.7727783857338
20
0.0122248759124943
30
0
41
1
10
17.1445154317091
20
-0.185200119247213
30
0
41
1
10
17.3300627749582
20
-0.28377925828039
30
0
41
1
10
17.7023504866865
20
-0.476789441372375
30
0
41
1
10
17.888181128823
20
-0.571010879773468
30
0
41
1
10
18.2595743720322
20
-0.749659830140132
30
0
41
1
10
18.4455548270066
20
-0.834757875365653
30
0
41
1
10
18.7246605559719
20
-0.954329480428385
30
0
41
1
10
18.8176084792449
20
-0.992666095422095
30
0
41
1
10
19.003387352238
20
-1.06663466981126
30
0
41
1
10
19.0961409942239
20
-1.10281803802979
30
0
41
1
10
19.3747397532188
20
-1.20389544754056
30
0
41
1
10
19.5611735279622
20
-1.26263529865668
30
0
41
1
10
19.8400685400668
20
-1.33894004117747
30
0
41
1
10
19.932985460143
20
-1.36229760936257
30
0
41
1
10
20.1188061946649
20
-1.40522192211137
30
0
41
1
10
20.2116321512013
20
-1.42517237468664
30
0
41
1
10
20.3975360327734
20
-1.46030538759248
30
0
41
1
10
20.4906106545704
20
-1.47503277785575
30
0
41
1
10
20.6768642869066
20
-1.49960321963013
30
0
41
1
10
20.7698744040589
20
-1.50956359507026
30
0
41
1
10
21.0485126991521
20
-1.5319793673541
30
0
41
1
10
21.2341473503449
20
-1.53713937677804
30
0
41
1
10
21.6064248059331
20
-1.52999552123816
30
0
41
1
10
21.7925243998266
20
-1.51571284924896
30
0
41
1
10
22.1637552004987
20
-1.46857286683479
30
0
41
1
10
22.3494487827391
20
-1.43601355757983
30
0
41
1
10
22.7218976542715
20
-1.35391148245245
30
0
41
1
10
22.9072577340672
20
-1.30292607214039
30
0
41
1
10
23.2357321351063
20
-1.19896411305248
30
0
41
1
10
23.3790794602374
20
-1.14913834036463
30
0
41
1
10
23.5223969337739
20
-1.09558860425218
30
0
0
SPLINE
5
DB
100
AcDbEntity
8
1
62
256
6
ByLayer
370
18
48
1
60
0
100
AcDbSpline
70
4
71
3
72
12
73
8
40
0
40
0
40
0
40
0
40
0.25000000000001
40
0.25000000000001
40
0.500000000000021
40
0.500000000000021
40
1
40
1
40
1
40
1
41
1
10
7.06224628852482
20
-1.3291004921119
30
0
41
1
10
7.06226644528741
20
-1.34588678584345
30
0
41
1
10
7.07600721382326
20
-1.36060045280905
30
0
41
1
10
7.11019018600771
20
-1.38564461787354
30
0
41
1
10
7.1315235597524
20
-1.3963034635884
30
0
41
1
10
7.1995120974353
20
-1.42429211941769
30
0
41
1
10
7.25154646853156
20
-1.4383969621131
30
0
41
1
10
7.30617896889649
20
-1.449842575258
30
0
0
SPLINE
5
DC
100
AcDbEntity
8
1
62
256
6
ByLayer
370
18
48
1
60
0
100
AcDbSpline
70
4
71
3
72
26
73
22
40
0
40
0
40
0
40
0
40
0.0030735947291173
40
0.0030735947291173
40
0.0695353550805095
40
0.0695353550805095
40
0.135997115431902
40
0.135997115431902
40
0.202458875783294
40
0.202458875783294
40
0.335382396486078
40
0.335382396486078
40
0.468305917188862
40
0.468305917188862
40
0.601229437891647
40
0.601229437891647
40
0.734152958594431
40
0.734152958594431
40
0.867076479297216
40
0.867076479297216
40
1
40
1
40
1
40
1
41
1
10
4.9771491733882
20
1.48284936167676
30
0
41
1
10
4.97867924613669
20
1.4823729620324
30
0
41
1
10
4.98022151233454
20
1.48189761811787
30
0
41
1
10
5.01538197880109
20
1.47116807767097
30
0
41
1
10
5.05324520842032
20
1.46178359126469
30
0
41
1
10
5.13299266127899
20
1.44478080022691
30
0
41
1
10
5.17536102903452
20
1.43709036608448
30
0
41
1
10
5.26110705237681
20
1.42359116473881
30
0
41
1
10
5.304780854081
20
1.41771776179357
30
0
41
1
10
5.43761798547783
20
1.40243002001276
30
0
41
1
10
5.52924393590871
20
1.39531573923497
30
0
41
1
10
5.71200608992206
20
1.38696405006343
30
0
41
1
10
5.80328590501358
20
1.38567924139986
30
0
41
1
10
5.9856697326253
20
1.38830610610452
30
0
41
1
10
6.07677309001568
20
1.39223314103106
30
0
41
1
10
6.2588036020062
20
1.40484813630434
30
0
41
1
10
6.34912791248883
20
1.41352814803349
30
0
41
1
10
6.52514063615527
20
1.43419932868054
30
0
41
1
10
6.61131644319897
20
1.44623028119989
30
0
41
1
10
6.77997622144559
20
1.47203951397589
30
0
41
1
10
6.86293628288922
20
1.4859069556228
30
0
41
1
10
6.94287691821972
20
1.49929867776913
30
0
0
SPLINE
5
DD
100
AcDbEntity
8
1
62
256
6
ByLayer
370
18
48
1
60
0
100
AcDbSpline
70
4
71
1
72
4
73
2
40
0
40
0
40
1
40
1
41
1
10
25.3795586671819
20
-1.50252275938428
30
0
41
1
10
25.7198147901014
20
-0.353837339217733
30
0
0
SPLINE
5
DE
100
AcDbEntity
8
1
62
256
6
ByLayer
370
13
48
1
60
0
100
AcDbSpline
70
4
71
3
72
26
73
22
40
0
40
0
40
0
40
0
40
0.0683006315790586
40
0.0868548438783536
40
0.123963268476917
40
0.161071693075483
40
0.235288542272595
40
0.272396966871152
40
0.309505391469714
40
0.351252369143093
40
0.383722240666838
40
0.416192112190583
40
0.457939089863961
40
0.532155939061077
40
0.643481212856762
40
0.680589637455322
40
0.75480648665244
40
0.82902333584956
40
0.958902821944527
40
0.977457034243805
40
1
40
1
40
1
40
1
41
1.00000000000001
10
25.7290250210536
20
0.773157149589444
30
0
41
1.00000000000001
10
25.7002673865368
20
0.772924655313567
30
0
41
1.00000000000001
10
25.6636984104555
20
0.772487495617291
30
0
41
1.00000000000001
10
25.6115060374412
20
0.771600170912557
30
0
41
1.00000000000001
10
25.5724427690083
20
0.770778465049624
30
0
41
1.00000000000001
10
25.5099409991108
20
0.769184631534209
30
0
41
1.00000000000001
10
25.4474412385451
20
0.767194671852899
30
0
41
1.00000000000001
10
25.3849427544064
20
0.764806936790074
30
0
41
1.00000000000001
10
25.3361145619832
20
0.762718715089783
30
0
41
1.00000000000001
10
25.2892399537236
20
0.76049988664888
30
0
41
1.00000000000001
10
25.2443181613112
20
0.758177735224756
30
0
41
1.00000000000001
10
25.199395342253
20
0.755680309166984
30
0
41
1.00000000000001
10
25.1368926571148
20
0.751927892429443
30
0
41
1.00000000000001
10
25.0411838748225
20
0.745530919652702
30
0
41
1.00000000000001
10
24.9474376642239
20
0.738309081144387
30
0
41
1.00000000000001
10
24.8536902131403
20
0.730285207499912
30
0
41
1.00000000000001
10
24.7755620964944
20
0.723082681192459
30
0
41
1.00000000000001
10
24.658369268342
20
0.711306746918631
30
0
41
1.00000000000001
10
24.5646247707145
20
0.700865310801981
30
0
41
1.00000000000001
10
24.4926383491121
20
0.692274837182901
30
0
41
1.00000000000001
10
24.475333942206
20
0.69016864354233
30
0
41
1.00000000000001
10
24.4658418245555
20
0.689001619360192
30
0
0
SPLINE
5
DF
100
AcDbEntity
8
1
62
256
6
ByLayer
370
13
48
1
60
0
100
AcDbSpline
70
4
71
3
72
62
73
58
40
0
40
0
40
0
40
0
40
0.0124206435929185
40
0.0249216481044006
40
0.0499236571273645
40
0.0624246616388467
40
0.0749256661503288
40
0.0889892962257461
40
0.0999276751732927
40
0.110866054120839
40
0.124929684196257
40
0.149931693219221
40
0.187434706753667
40
0.199935711265149
40
0.224937720288114
40
0.249939729311077
40
0.293693245101265
40
0.299943747357006
40
0.312444751868487
40
0.324945756379969
40
0.349947765402934
40
0.362448769914416
40
0.374949774425898
40
0.389013404501315
40
0.399951783448862
40
0.410890162396409
40
0.424953792471826
40
0.44995580149479
40
0.487458815029236
40
0.499959819540718
40
0.524961828563682
40
0.549963837586647
40
0.593717353376834
40
0.599967855632574
40
0.612468860144056
40
0.624969864655539
40
0.649971873678503
40
0.662472878189984
40
0.674973882701466
40
0.689037512776884
40
0.699975891724431
40
0.710914270671978
40
0.724977900747395
40
0.749979909770359
40
0.787482923304806
40
0.799983927816287
40
0.824985936839251
40
0.849987945862215
40
0.893741461652403
40
0.899991963908144
40
0.912492968419626
40
0.924993972931108
40
0.942182854134395
40
0.949995981954072
40
0.957809109773748
40
0.974997990977036
40
1
40
1
40
1
40
1
41
1.00000000000001
10
12.1190162712316
20
0.0537372151896984
30
0
41
1.00000000000001
10
12.1034923949377
20
0.0579279027799084
30
0
41
1.00000000000001
10
12.0723422190549
20
0.0663092235355401
30
0
41
1.00000000000001
10
12.0099408845839
20
0.0830609066192373
30
0
41
1.00000000000001
10
11.9474411138609
20
0.0998189839647798
30
0
41
1.00000000000001
10
11.8849426201485
20
0.11654557721249
30
0
41
1.00000000000001
10
11.836114420621
20
0.129557768983118
30
0
41
1.00000000000001
10
11.7892398059648
20
0.142016671318969
30
0
41
1.00000000000001
10
11.7443180078445
20
0.153922955577484
30
0
41
1.00000000000001
10
11.6993951835042
20
0.165786199552228
30
0
41
1.00000000000001
10
11.6368924917879
20
0.182209364532154
30
0
41
1.00000000000001
10
11.5411837014122
20
0.207172782042589
30
0
41
1.00000000000001
10
11.4474374864655
20
0.23146274684859
30
0
41
1.00000000000001
10
11.353690034396
20
0.255502366178061
30
0
41
1.00000000000001
10
11.2755619192355
20
0.275304098919546
30
0
41
1.00000000000001
10
11.1583690974835
20
0.30461277480546
30
0
41
1.00000000000001
10
11.0646246089339
20
0.327739949529555
30
0
41
1.00000000000001
10
10.9865056915381
20
0.346746977171162
30
0
41
1.00000000000001
10
10.9474424603945
20
0.356142855080944
30
0
41
1.00000000000001
10
10.8849407635637
20
0.371035028881434
30
0
41
1.00000000000001
10
10.8224410897159
20
0.385757798317055
30
0
41
1.00000000000001
10
10.7599426926257
20
0.400300309927783
30
0
41
1.00000000000001
10
10.7111145647732
20
0.411525658097158
30
0
41
1.00000000000001
10
10.6642400122437
20
0.422190226295665
30
0
41
1.00000000000001
10
10.6193182646407
20
0.432304970438164
30
0
41
1.00000000000001
10
10.5743954810754
20
0.442313199596892
30
0
41
1.00000000000001
10
10.5118928312774
20
0.456055921993307
30
0
41
1.00000000000001
10
10.416184070768
20
0.476680814119898
30
0
41
1.00000000000001
10
10.3224378343653
20
0.496368901528309
30
0
41
1.00000000000001
10
10.2286903242474
20
0.515519360370258
30
0
41
1.00000000000001
10
10.1505621378861
20
0.531067228045539
30
0
41
1.00000000000001
10
10.0333691783965
20
0.553652957202071
30
0
41
1.00000000000001
10
9.93962456311169
20
0.571034651205475
30
0
41
1.00000000000001
10
9.86150554879441
20
0.585035005499259
30
0
41
1.00000000000001
10
9.82244227035426
20
0.59188712259637
30
0
41
1.00000000000001
10
9.75994050060953
20
0.602626079634797
30
0
41
1.00000000000001
10
9.69744076063051
20
0.61307031905701
30
0
41
1.00000000000001
10
9.63494231089476
20
0.623211074634293
30
0
41
1.00000000000001
10
9.58611415194878
20
0.630936834180767
30
0
41
1.00000000000001
10
9.53923958062779
20
0.638179040283626
30
0
41
1.00000000000001
10
9.49431782614173
20
0.644957479414154
30
0
41
1.00000000000001
10
9.44939504609249
20
0.651581665203758
30
0
41
1.00000000000001
10
9.38689241556341
20
0.660543619925954
30
0
41
1.00000000000001
10
9.29118371291645
20
0.673676365042888
30
0
41
1.00000000000001
10
9.19743756070483
20
0.68575083974917
30
0
41
1.00000000000001
10
9.10369013614761
20
0.697082547486041
30
0
41
1.00000000000001
10
9.02556201987816
20
0.705998185334772
30
0
41
1.00000000000001
10
8.90836915905579
20
0.718406878287816
30
0
41
1.00000000000001
10
8.81462460785645
20
0.727386561549303
30
0
41
1.00000000000001
10
8.73650563023094
20
0.734242195407398
30
0
41
1.00000000000001
10
8.69744236544359
20
0.737504458658201
30
0
41
1.00000000000001
10
8.64470760529489
20
0.741690292571228
30
0
41
1.00000000000001
10
8.59783347483407
20
0.745188284534031
30
0
41
1.00000000000001
10
8.55681860641719
20
0.748078617207363
30
0
41
1.00000000000001
10
8.51580160977546
20
0.750838064424436
30
0
41
1.00000000000001
10
8.45329895902283
20
0.754764609052721
30
0
41
1.00000000000001
10
8.40056728175024
20
0.757744279906796
30
0
41
1.00000000000001
10
8.36931904042696
20
0.759379441796363
30
0
0
SPLINE
5
E0
100
AcDbEntity
8
1
62
256
6
ByLayer
370
18
48
1
60
0
100
AcDbSpline
70
4
71
3
72
8
73
4
40
0
40
0
40
0
40
0
40
1
40
1
40
1
40
1
41
1
10
25.7090140213209
20
-0.351369217555686
30
0
41
1
10
25.712549595664
20
-0.352399909972433
30
0
41
1
10
25.7161492008148
20
-0.353224710840465
30
0
41
1
10
25.7198147901009
20
-0.353837339219524
30
0
0
SPLINE
5
E1
100
AcDbEntity
8
1
62
256
6
ByLayer
370
13
48
1
60
0
100
AcDbSpline
70
4
71
3
72
8
73
4
40
0
40
0
40
0
40
0
40
1
40
1
40
1
40
1
41
1
10
7.06224628852374
20
-1.32910049211068
30
0
41
1
10
7.16979032486898
20
-1.3172735825199
30
0
41
1
10
7.28132166364679
20
-1.32034987251424
30
0
41
1
10
7.39543940396066
20
-1.34004005274926
30
0
0
SPLINE
5
E2
100
AcDbEntity
8
1
62
256
6
ByLayer
370
18
48
1
60
0
100
AcDbSpline
70
4
71
3
72
8
73
4
40
0
40
0
40
0
40
0
40
1
40
1
40
1
40
1
41
1
10
25.3199370288236
20
0.253705130764871
30
0
41
1
10
25.3755972002919
20
0.21533194385745
30
0
41
1
10
25.431656996177
20
0.178600650251866
30
0
41
1
10
25.4881574640126
20
0.143679897477398
30
0
0
SPLINE
5
E3
100
AcDbEntity
8
1
62
256
6
ByLayer
370
18
48
1
60
0
100
AcDbSpline
70
4
71
3
72
8
73
4
40
0
40
0
40
0
40
0
40
1
40
1
40
1
40
1
41
1
10
25.8995021117467
20
-0.329695925760348
30
0
41
1
10
25.878271280684
20
-0.388430561612154
30
0
41
1
10
25.8570809766101
20
-0.447179648004209
30
0
41
1
10
25.8359312594243
20
-0.505943206294546
30
0
0
SPLINE
5
E4
100
AcDbEntity
8
1
62
256
6
ByLayer
370
18
48
1
60
0
100
AcDbSpline
70
4
71
2
72
6
73
3
40
0
40
0
40
0
40
1
40
1
40
1
41
1
10
8.13862242600504
20
-0.0873172885518443
30
0
41
1
10
7.9676623872983
20
-0.0561558663238486
30
0
41
1
10
7.79701016602374
20
0.0036028284965539
30
0
0
SPLINE
5
E5
100
AcDbEntity
8
1
62
256
6
ByLayer
370
18
48
1
60
0
100
AcDbSpline
70
4
71
2
72
6
73
3
40
0
40
0
40
0
40
1
40
1
40
1
41
1
10
17.0258693014906
20
-0.0570302092658039
30
0
41
1
10
16.7679474555185
20
0.012944855591428
30
0
41
1
10
16.5173487004332
20
0.148279594984956
30
0
0
SPLINE
5
E6
100
AcDbEntity
8
1
62
256
6
ByLayer
370
18
48
1
60
0
100
AcDbSpline
70
4
71
2
72
6
73
3
40
0
40
0
40
0
40
1
40
1
40
1
41
1
10
21.1042378153576
20
0.0577227949524968
30
0
41
1
10
21.3789653936993
20
-0.0168594893829948
30
0
41
1
10
21.6496741628083
20
-0.168114749282097
30
0
0
SPLINE
5
E7
100
AcDbEntity
8
1
62
256
6
ByLayer
370
18
48
1
60
0
100
AcDbSpline
70
4
71
3
72
19
73
15
40
0
40
0
40
0
40
0
40
0.149890379453534
40
0.249779434132988
40
0.331742473939717
40
0.412036336066294
40
0.489248805987839
40
0.54361231859678
40
0.598146247787765
40
0.652826972792888
40
0.707581450855618
40
0.76573657793101
40
0.860450859976001
40
1
40
1
40
1
40
1
41
1
10
17.7448163387367
20
-1.52965187980601
30
0
41
1
10
17.923551917114
20
-1.53002281200523
30
0
41
1
10
18.2214171866542
20
-1.53043094914742
30
0
41
1
10
18.6171006276918
20
-1.53040376683029
30
0
41
1
10
18.9297430507186
20
-1.53026522805888
30
0
41
1
10
19.2153783636453
20
-1.53291285867226
30
0
41
1
10
19.4680929623673
20
-1.53246831097724
30
0
41
1
10
19.6900811531826
20
-1.53206808881714
30
0
41
1
10
19.8851919857522
20
-1.53182329136985
30
0
41
1
10
20.0807720146804
20
-1.53174322120609
30
0
41
1
10
20.2806646608644
20
-1.53347291897199
30
0
41
1
10
20.52831331648
20
-1.53458939879388
30
0
41
1
10
20.8771010370019
20
-1.53433348453575
30
0
41
1
10
21.1565260499243
20
-1.53458792252965
30
0
41
1
10
21.3229781404999
20
-1.53462626844328
30
0
0
SPLINE
5
E8
100
AcDbEntity
8
1
62
256
6
ByLayer
370
18
48
1
60
0
100
AcDbSpline
70
4
71
3
72
18
73
14
40
0
40
0
40
0
40
0
40
0.153572640629608
40
0.257729575346878
40
0.322032000823129
40
0.382489177361055
40
0.442707664954876
40
0.502771974989663
40
0.680017950197658
40
0.724898613468532
40
0.804256895197604
40
0.928896458619759
40
1
40
1
40
1
40
1
41
1
10
12.3219105405781
20
1.51987942920718
30
0
41
1
10
12.1553932624977
20
1.51851943333528
30
0
41
1
10
11.8759383180001
20
1.51704191204101
30
0
41
1
10
11.5267615686294
20
1.51809215544739
30
0
41
1
10
11.2785434724175
20
1.51823329724314
30
0
41
1
10
11.0779670085512
20
1.51817389983819
30
0
41
1
10
10.8819955608844
20
1.51628577568576
30
0
41
1
10
10.5593812810547
20
1.51543654871207
30
0
41
1
10
10.2534020663156
20
1.51598307290513
30
0
41
1
10
9.92648613094531
20
1.51527216115326
30
0
41
1
10
9.65670716832904
20
1.514044983205
30
0
41
1
10
9.35838849370123
20
1.51394445733581
30
0
41
1
10
9.14617149604516
20
1.51365972426129
30
0
41
1
10
9.06908785960752
20
1.5135456160302
30
0
0
SPLINE
5
E9
100
AcDbEntity
8
1
62
256
6
ByLayer
370
18
48
1
60
0
100
AcDbSpline
70
4
71
3
72
17
73
13
40
0
40
0
40
0
40
0
40
0.146600602255793
40
0.242903042390724
40
0.314489721009955
40
0.385314621772875
40
0.454308932033157
40
0.520473823694309
40
0.614426629448817
40
0.702139239773608
40
0.820696064305393
40
1
40
1
40
1
40
1
41
1
10
8.74493150954498
20
-1.51305085725241
30
0
41
1
10
8.91972097892614
20
-1.51336954425165
30
0
41
1
10
9.2093338244853
20
-1.51392664467511
30
0
41
1
10
9.58430414053046
20
-1.51397356447478
30
0
41
1
10
9.86893387078541
20
-1.51501679067789
30
0
41
1
10
10.1210022335532
20
-1.51577493395445
30
0
41
1
10
10.3666071399961
20
-1.51574863342026
30
0
41
1
10
10.6397862813566
20
-1.51558734554141
30
0
41
1
10
10.9352839633321
20
-1.51682358298683
30
0
41
1
10
11.2932519087039
20
-1.51884349644985
30
0
41
1
10
11.752979227299
20
-1.51692310145407
30
0
41
1
10
12.1081296515564
20
-1.51858408895652
30
0
41
1
10
12.3219206272788
20
-1.51987944371672
30
0
0
SPLINE
5
EA
100
AcDbEntity
8
1
62
256
6
ByLayer
370
18
48
1
60
0
100
AcDbSpline
70
4
71
2
72
6
73
3
40
0
40
0
40
0
40
1
40
1
40
1
41
1
10
12.1042497597822
20
0.0577195765782221
30
0
41
1
10
12.3787225789109
20
-0.0167481966625189
30
0
41
1
10
12.6507832719219
20
-0.168731845414726
30
0
0
SPLINE
5
EB
100
AcDbEntity
8
1
62
256
6
ByLayer
370
18
48
1
60
0
100
AcDbSpline
70
4
71
3
72
19
73
15
40
0
40
0
40
0
40
0
40
0.154995355970121
40
0.260193246635603
40
0.324785384802106
40
0.3856004744769
40
0.446333655394972
40
0.506903797025545
40
0.567284663335741
40
0.653043581943294
40
0.742224961020546
40
0.833260404048007
40
0.94420602137075
40
1
40
1
40
1
40
1
41
1
10
21.3229882372911
20
1.53462630927069
30
0
41
1
10
21.1565357352491
20
1.53458794015739
30
0
41
1
10
20.8771100213719
20
1.53433349589844
30
0
41
1
10
20.5283214079638
20
1.53458937351488
30
0
41
1
10
20.2806720804735
20
1.53347301056272
30
0
41
1
10
20.0807788552769
20
1.53174322976187
30
0
41
1
10
19.8851982365865
20
1.53182328764814
30
0
41
1
10
19.6900867976346
20
1.53206807826854
30
0
41
1
10
19.4680979004874
20
1.5324682997003
30
0
41
1
10
19.2153824918238
20
1.53291287958675
30
0
41
1
10
18.9297461232818
20
1.53026523805479
30
0
41
1
10
18.6171024505935
20
1.53040376367593
30
0
41
1
10
18.3402826124471
20
1.53042278282732
30
0
41
1
10
18.161244766087
20
1.53028026011796
30
0
41
1
10
18.1013375223249
20
1.53021630048036
30
0
0
LINE
5
7B
100
AcDbEntity
8
SK1
62
256
6
ByLayer
370
18
48
1
60
0
100
AcDbLine
10
-36
20
1.25
30
0
11
-36
21
-1.25
31
0
39
0
210
0
220
0
230
1
0
LINE
5
7D
100
AcDbEntity
8
SK1
62
256
6
ByLayer
370
18
48
1
60
0
100
AcDbLine
10
-34.989637
20
3
30
0
11
-34.989637
21
-3
31
0
39
0
210
0
220
0
230
1
0
LINE
5
7E
100
AcDbEntity
8
SK1
62
256
6
ByLayer
370
18
48
1
60
0
100
AcDbLine
10
0
20
-3
30
0
11
0
21
3
31
0
39
0
210
0
220
0
230
1
0
LINE
5
7F
100
AcDbEntity
8
1
62
256
6
ByLayer
370
18
48
1
60
0
100
AcDbLine
10
0
20
-3
30
0
11
0
21
3
31
0
39
0
210
0
220
0
230
1
0
LINE
5
80
100
AcDbEntity
8
1
62
256
6
ByLayer
370
13
48
1
60
0
100
AcDbLine
10
0.840203
20
2.278683
30
0
11
0.840203
21
-2.278683
31
0
39
0
210
0
220
0
230
1
0
LINE
5
81
100
AcDbEntity
8
1
62
256
6
ByLayer
370
18
48
1
60
0
100
AcDbLine
10
25.251165
20
-0.718943
30
0
11
25.709014
21
-0.351369
31
0
39
0
210
0
220
0
230
1
0
LINE
5
82
100
AcDbEntity
8
1
62
256
6
ByLayer
370
13
48
1
60
0
100
AcDbLine
10
1.681935
20
1.557368
30
0
11
1.681935
21
-1.557368
31
0
39
0
210
0
220
0
230
1
0
LINE
5
83
100
AcDbEntity
8
80
62
256
6
ByLayer
370
18
48
1
60
0
100
AcDbLine
10
0
20
0
30
0
11
-5
21
0
31
0
39
0
210
0
220
0
230
1
0
LINE
5
84
100
AcDbEntity
8
4
62
256
6
ByLayer
370
18
48
0.05
60
0
100
AcDbLine
10
26
20
0
30
0
11
0
21
0
31
0
39
0
210
0
220
0
230
1
0
LINE
5
86
100
AcDbEntity
8
SK4
62
256
6
ByLayer
370
18
48
0.05
60
0
100
AcDbLine
10
31
20
0
30
0
11
-41
21
0
31
0
39
0
210
0
220
0
230
1
0
LINE
5
88
100
AcDbEntity
8
SK1
62
256
6
ByLayer
370
18
48
1
60
0
100
AcDbLine
10
-36
20
-1.25
30
0
11
-34.989637
21
-3
31
0
39
0
210
0
220
0
230
1
0
LINE
5
89
100
AcDbEntity
8
SK1
62
256
6
ByLayer
370
18
48
1
60
0
100
AcDbLine
10
-34.989637
20
3
30
0
11
-36
21
1.25
31
0
39
0
210
0
220
0
230
1
0
LINE
5
8A
100
AcDbEntity
8
SK1
62
256
6
ByLayer
370
18
48
1
60
0
100
AcDbLine
10
-34.989637
20
-3
30
0
11
0
21
-3
31
0
39
0
210
0
220
0
230
1
0
LINE
5
8B
100
AcDbEntity
8
SK1
62
256
6
ByLayer
370
18
48
1
60
0
100
AcDbLine
10
0
20
3
30
0
11
-34.989637
21
3
31
0
39
0
210
0
220
0
230
1
0
LINE
5
8C
100
AcDbEntity
8
1
62
256
6
ByLayer
370
18
48
1
60
0
100
AcDbLine
10
1.681935
20
-1.557368
30
0
11
4.829295
21
-1.563033
31
0
39
0
210
0
220
0
230
1
0
LINE
5
8D
100
AcDbEntity
8
1
62
256
6
ByLayer
370
18
48
1
60
0
100
AcDbLine
10
7.7973
20
-1.568375
30
0
11
8.423189
21
-1.569502
31
0
39
0
210
0
220
0
230
1
0
LINE
5
8E
100
AcDbEntity
8
1
62
256
6
ByLayer
370
18
48
1
60
0
100
AcDbLine
10
16.844323
20
-1.58466
30
0
11
17.422244
21
-1.5857
31
0
39
0
210
0
220
0
230
1
0
LINE
5
8F
100
AcDbEntity
8
1
62
256
6
ByLayer
370
18
48
1
60
0
100
AcDbLine
10
17.422244
20
1.5857
30
0
11
16.844323
21
1.58466
31
0
39
0
210
0
220
0
230
1
0
LINE
5
90
100
AcDbEntity
8
1
62
256
6
ByLayer
370
18
48
1
60
0
100
AcDbLine
10
8.423189
20
1.569502
30
0
11
7.7973
21
1.568375
31
0
39
0
210
0
220
0
230
1
0
LINE
5
91
100
AcDbEntity
8
1
62
256
6
ByLayer
370
18
48
1
60
0
100
AcDbLine
10
4.829295
20
1.563033
30
0
11
1.681935
21
1.557368
31
0
39
0
210
0
220
0
230
1
0
LINE
5
92
100
AcDbEntity
8
81
62
256
6
ByLayer
370
18
48
1
60
0
100
AcDbLine
10
26
20
0
30
0
11
31
21
0
31
0
39
0
210
0
220
0
230
1
0
LINE
5
93
100
AcDbEntity
8
SK2
62
256
6
ByLayer
370
13
48
1
60
0
100
AcDbLine
10
-44.625163
20
32.117107
30
0
11
-44.625163
21
-11.75
31
0
39
0
210
0
220
0
230
1
0
LINE
5
95
100
AcDbEntity
8
SK2
62
256
6
ByLayer
370
13
48
1
60
0
100
AcDbLine
10
-37.5875
20
3
30
0
11
-46.625163
21
3
31
0
39
0
210
0
220
0
230
1
0
LINE
5
96
100
AcDbEntity
8
SK2
62
256
6
ByLayer
370
13
48
1
60
0
100
AcDbLine
10
-37.5875
20
-3
30
0
11
-46.625163
21
-3
31
0
39
0
210
0
220
0
230
1
0
LINE
5
97
100
AcDbEntity
8
1
62
256
6
ByLayer
370
18
48
1
60
1
100
AcDbLine
10
-44.625163
20
3
30
0
11
-45.085946
21
6.499998
31
0
39
0
210
0
220
0
230
1
0
LINE
5
98
100
AcDbEntity
8
1
62
256
6
ByLayer
370
18
48
1
60
1
100
AcDbLine
10
-45.085946
20
6.499998
30
0
11
-44.164379
21
6.500002
31
0
39
0
210
0
220
0
230
1
0
LINE
5
99
100
AcDbEntity
8
1
62
256
6
ByLayer
370
18
48
1
60
1
100
AcDbLine
10
-44.164379
20
6.500002
30
0
11
-44.625163
21
3
31
0
39
0
210
0
220
0
230
1
0
LINE
5
9A
100
AcDbEntity
8
1
62
256
6
ByLayer
370
18
48
1
60
1
100
AcDbLine
10
-44.625163
20
-3
30
0
11
-44.164379
21
-6.499998
31
0
39
0
210
0
220
0
230
1
0
LINE
5
9B
100
AcDbEntity
8
1
62
256
6
ByLayer
370
18
48
1
60
1
100
AcDbLine
10
-44.164379
20
-6.499998
30
0
11
-45.085946
21
-6.500002
31
0
39
0
210
0
220
0
230
1
0
LINE
5
9C
100
AcDbEntity
8
1
62
256
6
ByLayer
370
18
48
1
60
1
100
AcDbLine
10
-45.085946
20
-6.500002
30
0
11
-44.625163
21
-3
31
0
39
0
210
0
220
0
230
1
0
LINE
5
9D
100
AcDbEntity
8
2
62
256
6
ByLayer
370
13
48
1
60
0
100
AcDbLine
10
38.083343
20
29.310193
30
0
11
38.083343
21
-10.35
31
0
39
0
210
0
220
0
230
1
0
LINE
5
9F
100
AcDbEntity
8
2
62
256
6
ByLayer
370
13
48
1
60
0
100
AcDbLine
10
26.9541
20
1.6
30
0
11
40.083343
21
1.6
31
0
39
0
210
0
220
0
230
1
0
LINE
5
A0
100
AcDbEntity
8
2
62
256
6
ByLayer
370
13
48
1
60
0
100
AcDbLine
10
26.9541
20
-1.6
30
0
11
40.083343
21
-1.6
31
0
39
0
210
0
220
0
230
1
0
LINE
5
A1
100
AcDbEntity
8
1
62
256
6
ByLayer
370
18
48
1
60
1
100
AcDbLine
10
38.083343
20
1.6
30
0
11
37.622559
21
5.099998
31
0
39
0
210
0
220
0
230
1
0
LINE
5
A2
100
AcDbEntity
8
1
62
256
6
ByLayer
370
18
48
1
60
1
100
AcDbLine
10
37.622559
20
5.099998
30
0
11
38.544126
21
5.100002
31
0
39
0
210
0
220
0
230
1
0
LINE
5
A3
100
AcDbEntity
8
1
62
256
6
ByLayer
370
18
48
1
60
1
100
AcDbLine
10
38.544126
20
5.100002
30
0
11
38.083343
21
1.6
31
0
39
0
210
0
220
0
230
1
0
LINE
5
A4
100
AcDbEntity
8
1
62
256
6
ByLayer
370
18
48
1
60
1
100
AcDbLine
10
38.083343
20
-1.6
30
0
11
38.544126
21
-5.099998
31
0
39
0
210
0
220
0
230
1
0
LINE
5
A5
100
AcDbEntity
8
1
62
256
6
ByLayer
370
18
48
1
60
1
100
AcDbLine
10
38.544126
20
-5.099998
30
0
11
37.622559
21
-5.100002
31
0
39
0
210
0
220
0
230
1
0
LINE
5
A6
100
AcDbEntity
8
1
62
256
6
ByLayer
370
18
48
1
60
1
100
AcDbLine
10
37.622559
20
-5.100002
30
0
11
38.083343
21
-1.6
31
0
39
0
210
0
220
0
230
1
0
LINE
5
F2
100
AcDbEntity
8
1
62
256
6
ByLayer
370
18
48
1
60
1
100
AcDbLine
10
-44.625163
20
3
30
0
11
-45.085946
21
6.499998
31
0
39
0
210
0
220
0
230
1
0
LINE
5
F3
100
AcDbEntity
8
1
62
256
6
ByLayer
370
18
48
1
60
1
100
AcDbLine
10
-45.085946
20
6.499998
30
0
11
-44.164379
21
6.500002
31
0
39
0
210
0
220
0
230
1
0
LINE
5
F4
100
AcDbEntity
8
1
62
256
6
ByLayer
370
18
48
1
60
1
100
AcDbLine
10
-44.164379
20
6.500002
30
0
11
-44.625163
21
3
31
0
39
0
210
0
220
0
230
1
0
LINE
5
F6
100
AcDbEntity
8
1
62
256
6
ByLayer
370
18
48
1
60
1
100
AcDbLine
10
-44.625163
20
-3
30
0
11
-44.164379
21
-6.499998
31
0
39
0
210
0
220
0
230
1
0
LINE
5
F7
100
AcDbEntity
8
1
62
256
6
ByLayer
370
18
48
1
60
1
100
AcDbLine
10
-44.164379
20
-6.499998
30
0
11
-45.085946
21
-6.500002
31
0
39
0
210
0
220
0
230
1
0
LINE
5
F8
100
AcDbEntity
8
1
62
256
6
ByLayer
370
18
48
1
60
1
100
AcDbLine
10
-45.085946
20
-6.500002
30
0
11
-44.625163
21
-3
31
0
39
0
210
0
220
0
230
1
0
LINE
5
FC
100
AcDbEntity
8
1
62
256
6
ByLayer
370
18
48
1
60
1
100
AcDbLine
10
38.083343
20
1.6
30
0
11
37.622559
21
5.099998
31
0
39
0
210
0
220
0
230
1
0
LINE
5
FD
100
AcDbEntity
8
1
62
256
6
ByLayer
370
18
48
1
60
1
100
AcDbLine
10
37.622559
20
5.099998
30
0
11
38.544126
21
5.100002
31
0
39
0
210
0
220
0
230
1
0
LINE
5
FE
100
AcDbEntity
8
1
62
256
6
ByLayer
370
18
48
1
60
1
100
AcDbLine
10
38.544126
20
5.100002
30
0
11
38.083343
21
1.6
31
0
39
0
210
0
220
0
230
1
0
LINE
5
100
100
AcDbEntity
8
1
62
256
6
ByLayer
370
18
48
1
60
1
100
AcDbLine
10
38.083343
20
-1.6
30
0
11
38.544126
21
-5.099998
31
0
39
0
210
0
220
0
230
1
0
LINE
5
101
100
AcDbEntity
8
1
62
256
6
ByLayer
370
18
48
1
60
1
100
AcDbLine
10
38.544126
20
-5.099998
30
0
11
37.622559
21
-5.100002
31
0
39
0
210
0
220
0
230
1
0
LINE
5
102
100
AcDbEntity
8
1
62
256
6
ByLayer
370
18
48
1
60
1
100
AcDbLine
10
37.622559
20
-5.100002
30
0
11
38.083343
21
-1.6
31
0
39
0
210
0
220
0
230
1
0
MTEXT
5
EC
100
AcDbEntity
8
SK6
62
256
6
ByLayer
370
13
48
1
60
0
100
AcDbMText
10
-32.671593
20
34.140328
30
0
210
0
220
0
230
1
1
\W0.7280;860.1-0320-016A1-PM P1BM
40
3.5
41
0
44
1.084337
50
0
71
7
72
5
7
iso_b_vert
0
MTEXT
5
F0
100
AcDbEntity
8
SK2
62
256
6
ByLayer
370
18
48
1
60
0
100
AcDbMText
10
-46.189796
20
16.409024
30
0
210
0
220
0
230
1
1
%%c
40
3.5
41
0
44
1.084337
50
90
71
7
72
5
7
iso_b_vert
0
MTEXT
5
F1
100
AcDbEntity
8
SK2
62
256
6
ByLayer
370
18
48
1
60
0
100
AcDbMText
10
-46.189796
20
21.63168
30
0
210
0
220
0
230
1
1
\W0.7317;6,000
40
3.5
41
0
44
1.084337
50
90
71
7
72
5
7
iso_b_vert
0
MTEXT
5
FA
100
AcDbEntity
8
2
62
256
6
ByLayer
370
18
48
1
60
0
100
AcDbMText
10
36.518709
20
13.60211
30
0
210
0
220
0
230
1
1
%%c
40
3.5
41
0
44
1.084337
50
90
71
7
72
5
7
iso_b_vert
0
MTEXT
5
FB
100
AcDbEntity
8
2
62
256
6
ByLayer
370
18
48
1
60
0
100
AcDbMText
10
36.518709
20
18.824766
30
0
210
0
220
0
230
1
1
\W0.7317;3,200
40
3.5
41
0
44
1.084337
50
90
71
7
72
5
7
iso_b_vert
0
HATCH
5
F5
100
AcDbEntity
8
SK2
62
256
6
ByLayer
370
13
48
1
60
0
100
AcDbHatch
10
0
20
0
30
0
210
0
220
0
230
1
2
ANSI31
70
0
71
0
91
1
92
5
93
3
72
1
10
-44.6251625675374
20
3
11
-45.0859463090902
21
6.49999830744682
72
1
10
-45.0859463090902
20
6.49999830744682
11
-44.1643788259847
21
6.50000169255318
72
1
10
-44.1643788259847
20
6.50000169255318
11
-44.6251625675374
21
3
97
0
75
0
76
1
52
0
41
0.0062
77
0
78
1
53
45
43
0
44
0
45
-0.0139193969876572
46
0.0139193969876572
79
0
47
0
98
1
10
0
20
0
0
HATCH
5
F9
100
AcDbEntity
8
SK2
62
256
6
ByLayer
370
13
48
1
60
0
100
AcDbHatch
10
0
20
0
30
0
210
0
220
0
230
1
2
ANSI31
70
0
71
0
91
1
92
5
93
3
72
1
10
-44.6251625675374
20
-3
11
-44.1643788259847
21
-6.49999830744682
72
1
10
-44.1643788259847
20
-6.49999830744682
11
-45.0859463090902
21
-6.50000169255318
72
1
10
-45.0859463090902
20
-6.50000169255318
11
-44.6251625675374
21
-3
97
0
75
0
76
1
52
0
41
0.0062
77
0
78
1
53
45
43
0
44
0
45
-0.0139193969876572
46
0.0139193969876572
79
0
47
0
98
1
10
0
20
0
0
HATCH
5
FF
100
AcDbEntity
8
2
62
256
6
ByLayer
370
13
48
1
60
0
100
AcDbHatch
10
0
20
0
30
0
210
0
220
0
230
1
2
ANSI31
70
0
71
0
91
1
92
5
93
3
72
1
10
38.083342615295
20
1.60000000000002
11
37.6225588737423
21
5.09999830744684
72
1
10
37.6225588737423
20
5.09999830744684
11
38.5441263568478
21
5.10000169255321
72
1
10
38.5441263568478
20
5.10000169255321
11
38.083342615295
21
1.60000000000002
97
0
75
0
76
1
52
0
41
0.0062
77
0
78
1
53
45
43
0
44
0
45
-0.0139193969876572
46
0.0139193969876572
79
0
47
0
98
1
10
0
20
0
0
HATCH
5
103
100
AcDbEntity
8
2
62
256
6
ByLayer
370
13
48
1
60
0
100
AcDbHatch
10
0
20
0
30
0
210
0
220
0
230
1
2
ANSI31
70
0
71
0
91
1
92
5
93
3
72
1
10
38.083342615295
20
-1.59999999999999
11
38.5441263568478
21
-5.09999830744681
72
1
10
38.5441263568478
20
-5.09999830744681
11
37.6225588737423
21
-5.10000169255318
72
1
10
37.6225588737423
20
-5.10000169255318
11
38.083342615295
21
-1.59999999999999
97
0
75
0
76
1
52
0
41
0.0062
77
0
78
1
53
45
43
0
44
0
45
-0.0139193969876572
46
0.0139193969876572
79
0
47
0
98
1
10
0
20
0
0
DIMENSION
5
105
100
AcDbEntity
8
2
62
256
6
ByLayer
370
13
48
1
60
0
100
AcDbDimension
2
_U0
10
25.3666
20
-11.813398
30
0
11
12.6833
21
-11.813398
31
0
70
32
71
1
72
1
41
1
210
0
220
0
230
1
3
Standard
100
AcDbAlignedDimension
13
0
23
0
33
0
14
25.3666
24
-1.6
34
0
50
0
100
AcDbRotatedDimension
1001
ACAD
1000
DSTYLE
1002
{
1070
   371
1070
    13
1070
   372
1070
    13
1070
   170
1070
     0
1070
   144
1040
1.0
1070
   277
1070
     2
1070
   278
1070
    44
1070
   146
1040
1.0
1070
   345
1005
16
1070
   347
1005
16
1070
   346
1005
16
1070
   344
1005
0
1070
   343
1005
0
1070
   172
1070
     1
1070
    76
1070
     0
1070
    75
1070
     0
1070
   282
1070
     0
1070
   281
1070
     0
1070
    71
1070
     0
1070
    74
1070
     0
1070
   279
1070
     0
1070
   173
1070
     1
1070
   340
1005
ED
1070
   271
1070
     2
1070
   272
1070
     2
1070
    77
1070
     1
1070
    73
1070
     1
1070
   171
1070
     3
1070
   274
1070
     4
1070
   177
1070
    35
1070
   176
1070
    35
1070
   178
1070
    35
1070
    48
1040
-0.1
1070
    41
1040
3.5
1070
   147
1040
1.75
1070
    42
1040
1.5875
1070
    44
1040
2.0
1070
   140
1040
3.5
1002
}
1001
ACAD_DSTYLE_DIM_LINETYPE
1070
   380
1005
16
1001
ACAD_DSTYLE_DIM_EXT1_LINETYPE
1070
   381
1005
16
1001
ACAD_DSTYLE_DIM_EXT2_LINETYPE
1070
   382
1005
16
0
DIMENSION
5
11E
100
AcDbEntity
8
SK2
62
256
6
ByLayer
370
13
48
1
60
0
100
AcDbDimension
2
_U1
10
26
20
-31.692985
30
0
11
-5
21
-31.692985
31
0
70
32
71
1
72
1
41
1
210
0
220
0
230
1
3
Standard
100
AcDbAlignedDimension
13
-36
23
-3
33
0
14
26
24
0
34
0
50
0
100
AcDbRotatedDimension
1001
ACAD
1000
DSTYLE
1002
{
1070
   371
1070
    13
1070
   372
1070
    13
1070
   170
1070
     0
1070
   144
1040
1.0
1070
   277
1070
     2
1070
   278
1070
    44
1070
   146
1040
1.0
1070
   345
1005
16
1070
   347
1005
16
1070
   346
1005
16
1070
   344
1005
0
1070
   343
1005
0
1070
   172
1070
     1
1070
    76
1070
     0
1070
    75
1070
     0
1070
   282
1070
     0
1070
   281
1070
     0
1070
    71
1070
     0
1070
    74
1070
     0
1070
   279
1070
     0
1070
   173
1070
     1
1070
   340
1005
ED
1070
   271
1070
     2
1070
   272
1070
     2
1070
    77
1070
     1
1070
    73
1070
     1
1070
   171
1070
     3
1070
   274
1070
     4
1070
   177
1070
    35
1070
   176
1070
    35
1070
   178
1070
    35
1070
    48
1040
-0.1
1070
    41
1040
3.5
1070
   147
1040
1.75
1070
    42
1040
1.5875
1070
    44
1040
2.0
1070
   140
1040
3.5
1002
}
1001
ACAD_DSTYLE_DIM_LINETYPE
1070
   380
1005
16
1001
ACAD_DSTYLE_DIM_EXT1_LINETYPE
1070
   381
1005
16
1001
ACAD_DSTYLE_DIM_EXT2_LINETYPE
1070
   382
1005
16
0
DIMENSION
5
136
100
AcDbEntity
8
SK2
62
256
6
ByLayer
370
13
48
1
60
0
100
AcDbDimension
2
_U2
10
26
20
13.209119
30
0
11
20.885
21
13.209119
31
0
70
32
71
1
72
1
41
1
210
0
220
0
230
1
3
Standard
100
AcDbAlignedDimension
13
15.77
23
1.6
33
0
14
26
24
0
34
0
50
0
100
AcDbRotatedDimension
1001
ACAD
1000
DSTYLE
1002
{
1070
   371
1070
    13
1070
   372
1070
    13
1070
   170
1070
     0
1070
   144
1040
1.0
1070
   277
1070
     2
1070
   278
1070
    44
1070
   146
1040
1.0
1070
   345
1005
16
1070
   347
1005
16
1070
   346
1005
16
1070
   344
1005
0
1070
   343
1005
0
1070
   172
1070
     1
1070
    76
1070
     0
1070
    75
1070
     0
1070
   282
1070
     0
1070
   281
1070
     0
1070
    71
1070
     0
1070
    74
1070
     0
1070
   279
1070
     0
1070
   173
1070
     1
1070
   340
1005
ED
1070
   271
1070
     2
1070
   272
1070
     2
1070
    77
1070
     1
1070
    73
1070
     1
1070
   171
1070
     3
1070
   274
1070
     4
1070
   177
1070
    35
1070
   176
1070
    35
1070
   178
1070
    35
1070
    48
1040
-0.1
1070
    41
1040
3.5
1070
   147
1040
1.75
1070
    42
1040
1.5875
1070
    44
1040
2.0
1070
   140
1040
3.5
1002
}
1001
ACAD_DSTYLE_DIM_LINETYPE
1070
   380
1005
16
1001
ACAD_DSTYLE_DIM_EXT1_LINETYPE
1070
   381
1005
16
1001
ACAD_DSTYLE_DIM_EXT2_LINETYPE
1070
   382
1005
16
0
DIMENSION
5
14F
100
AcDbEntity
8
SK2
62
256
6
ByLayer
370
13
48
1
60
0
100
AcDbDimension
2
_U3
10
25.3666
20
-14.402503
30
0
11
43.583333
21
-14.402503
31
0
70
32
71
1
72
1
41
1
210
0
220
0
230
1
3
Standard
100
AcDbAlignedDimension
13
26
23
0
33
0
14
25.3666
24
-1.6
34
0
50
0
100
AcDbRotatedDimension
1001
ACAD
1000
DSTYLE
1002
{
1070
   371
1070
    13
1070
   372
1070
    13
1070
   170
1070
     0
1070
   144
1040
1.0
1070
   277
1070
     2
1070
   278
1070
    44
1070
   146
1040
1.0
1070
   345
1005
16
1070
   347
1005
16
1070
   346
1005
16
1070
   344
1005
0
1070
   343
1005
0
1070
   172
1070
     1
1070
    76
1070
     0
1070
    75
1070
     0
1070
   282
1070
     0
1070
   281
1070
     0
1070
    71
1070
     0
1070
    74
1070
     0
1070
   279
1070
     0
1070
   173
1070
     1
1070
   340
1005
ED
1070
   271
1070
     2
1070
   272
1070
     2
1070
    77
1070
     1
1070
    73
1070
     1
1070
   171
1070
     3
1070
   274
1070
     4
1070
   177
1070
    35
1070
   176
1070
    35
1070
   178
1070
    35
1070
    48
1040
-0.1
1070
    41
1040
3.5
1070
   147
1040
1.75
1070
    42
1040
1.5875
1070
    44
1040
2.0
1070
   140
1040
3.5
1002
}
1001
ACAD_DSTYLE_DIM_LINETYPE
1070
   380
1005
16
1001
ACAD_DSTYLE_DIM_EXT1_LINETYPE
1070
   381
1005
16
1001
ACAD_DSTYLE_DIM_EXT2_LINETYPE
1070
   382
1005
16
0
DIMENSION
5
169
100
AcDbEntity
8
SK2
62
256
6
ByLayer
370
13
48
1
60
0
100
AcDbDimension
2
_U4
10
25.3666
20
-21.343428
30
0
11
-5.3167
21
-21.343428
31
0
70
32
71
1
72
1
41
1
210
0
220
0
230
1
3
Standard
100
AcDbAlignedDimension
13
-36
23
-3
33
0
14
25.3666
24
-1.6
34
0
50
0
100
AcDbRotatedDimension
1001
ACAD
1000
DSTYLE
1002
{
1070
   371
1070
    13
1070
   372
1070
    13
1070
   170
1070
     0
1070
   144
1040
1.0
1070
   277
1070
     2
1070
   278
1070
    44
1070
   146
1040
1.0
1070
   345
1005
16
1070
   347
1005
16
1070
   346
1005
16
1070
   344
1005
0
1070
   343
1005
0
1070
   172
1070
     1
1070
    76
1070
     0
1070
    75
1070
     0
1070
   282
1070
     0
1070
   281
1070
     0
1070
    71
1070
     0
1070
    74
1070
     0
1070
   279
1070
     0
1070
   173
1070
     1
1070
   340
1005
ED
1070
   271
1070
     2
1070
   272
1070
     2
1070
    77
1070
     1
1070
    73
1070
     1
1070
   171
1070
     3
1070
   274
1070
     4
1070
   177
1070
    35
1070
   176
1070
    35
1070
   178
1070
    35
1070
    48
1040
-0.1
1070
    41
1040
3.5
1070
   147
1040
1.75
1070
    42
1040
1.5875
1070
    44
1040
2.0
1070
   140
1040
3.5
1002
}
1001
ACAD_DSTYLE_DIM_LINETYPE
1070
   380
1005
16
1001
ACAD_DSTYLE_DIM_EXT1_LINETYPE
1070
   381
1005
16
1001
ACAD_DSTYLE_DIM_EXT2_LINETYPE
1070
   382
1005
16
0
ENDSEC
0
SECTION
2
OBJECTS
0
DICTIONARY
5
1f1
330
0
100
AcDbDictionary
280
0
281
1
3
ACAD_GROUP
350
1f2
3
ACAD_MLINESTYLE
350
1f3
0
DICTIONARY
5
1f2
330
0
100
AcDbDictionary
280
0
281
1
0
DICTIONARY
5
1f3
330
0
100
AcDbDictionary
280
0
281
1
3
Standard
350
18
0
MLINESTYLE
5
18
330
1f3
100
AcDbMlineStyle
2
Standard
70
0
3

62
256
51
90
52
90
71
2
49
-0.5
62
256
6
ByLayer
49
0.5
62
256
6
ByLayer
0
RASTERVARIABLES
5
1df
330

100
AcDbRasterVariables
90
0
70
1
71
1
72
1
0
ENDSEC
0
EOF
