0
SECTION
2
HEADER
9
$ACADVER
1
AC1015
9
$DWGCODEPAGE
3
ANSI_1252
9
$HANDSEED
5
20e
9
$ANGBASE
50
0
9
$ANGDIR
70
0
9
$ATTMODE
70
1
9
$AUNITS
70
0
9
$AUPREC
70
0
9
$CECOLOR
62
256
9
$CELTSCALE
40
1
9
$CELTYPE
6
ByLayer
9
$CELWEIGHT
370
18
9
$CLAYER
8
0
9
$CMLJUST
70
0
9
$CMLSCALE
40
1
9
$CMLSTYLE
2
Standard
9
$DIMSTYLE
2
Standard
9
$TEXTSIZE
40
0.2
9
$TEXTSTYLE
7
Standard
9
$LUNITS
70
2
9
$LUPREC
70
4
9
$EXTNAMES
290
1
9
$INSUNITS
70
4
9
$LTSCALE
40
1
9
$LWDISPLAY
290
1
9
$PDMODE
70
0
9
$PDSIZE
40
0
9
$PLINEGEN
70
0
0
ENDSEC
0
SECTION
2
CLASSES
0
CLASS
1
RASTERVARIABLES
2
AcDbRasterVariables
3
ISM
90
0
280
0
281
0
0
ENDSEC
0
SECTION
2
TABLES
0
TABLE
2
VPORT
5
204
100
AcDbSymbolTable
0
VPORT
5
1
100
AcDbSymbolTableRecord
100
AcDbViewportTableRecord
2
*Active
70
0
10
0
20
0
11
1
21
1
12
-1
22
1
13
0
23
0
14
0.5
24
0.5
15
10
25
10
16
0
26
0
36
1
17
0
27
0
37
0
0
ENDTAB
0
TABLE
2
LTYPE
5
205
100
AcDbSymbolTable
0
LTYPE
5
14
100
AcDbSymbolTableRecord
100
AcDbLinetypeTableRecord
70
0
2
ByBlock
3

72
65
73
0
40
0
0
LTYPE
5
15
100
AcDbSymbolTableRecord
100
AcDbLinetypeTableRecord
70
0
2
ByLayer
3

72
65
73
0
40
0
0
LTYPE
5
16
100
AcDbSymbolTableRecord
100
AcDbLinetypeTableRecord
70
0
2
Continuous
3
Solid line
72
65
73
0
40
0
0
LTYPE
5
6E
100
AcDbSymbolTableRecord
100
AcDbLinetypeTableRecord
70
0
2
CENTER
3
____ _ ____ _ ____ _ ____
72
65
73
4
40
47.5
49
22
74
0
49
-8.5
74
0
49
8.5
74
0
49
-8.5
74
0
0
LTYPE
5
6F
100
AcDbSymbolTableRecord
100
AcDbLinetypeTableRecord
70
0
2
DASHED
3
__ __ __ __ __ __ __ __ __
72
65
73
2
40
25.72
49
12.86
74
0
49
-12.86
74
0
0
ENDTAB
0
TABLE
2
LAYER
5
206
100
AcDbSymbolTable
0
LAYER
5
10
100
AcDbSymbolTableRecord
100
AcDbLayerTableRecord
2
0
70
0
62
7
6
Continuous
290
1
370
-3
390
0
0
LAYER
5
71
100
AcDbSymbolTableRecord
100
AcDbLayerTableRecord
2
80
70
0
62
-6
6
Continuous
290
1
370
-3
390
0
0
LAYER
5
73
100
AcDbSymbolTableRecord
100
AcDbLayerTableRecord
2
81
70
0
62
-3
6
Continuous
290
1
370
-3
390
0
0
LAYER
5
75
100
AcDbSymbolTableRecord
100
AcDbLayerTableRecord
2
1
70
0
62
4
6
Continuous
290
1
370
-3
390
0
0
LAYER
5
87
100
AcDbSymbolTableRecord
100
AcDbLayerTableRecord
2
4
70
0
62
-2
6
CENTER
290
1
370
-3
390
0
0
LAYER
5
A2
100
AcDbSymbolTableRecord
100
AcDbLayerTableRecord
2
2
70
0
62
7
6
Continuous
290
1
370
-3
390
0
0
LAYER
5
119
100
AcDbSymbolTableRecord
100
AcDbLayerTableRecord
2
Defpoints
70
0
62
7
6
Continuous
290
0
370
-3
390
0
0
LAYER
5
1f0
100
AcDbSymbolTableRecord
100
AcDbLayerTableRecord
2
SK1
70
0
62
4
6
Continuous
290
1
370
-3
390
0
0
LAYER
5
1f1
100
AcDbSymbolTableRecord
100
AcDbLayerTableRecord
2
SK4
70
0
62
2
6
CENTER
290
1
370
-3
390
0
0
LAYER
5
1f2
100
AcDbSymbolTableRecord
100
AcDbLayerTableRecord
2
SK2
70
0
62
7
6
Continuous
290
1
370
-3
390
0
0
LAYER
5
1f3
100
AcDbSymbolTableRecord
100
AcDbLayerTableRecord
2
SK6
70
0
62
5
6
Continuous
290
1
370
-3
390
0
0
ENDTAB
0
TABLE
2
STYLE
5
207
100
AcDbSymbolTable
0
STYLE
5
11
100
AcDbSymbolTableRecord
100
AcDbTextStyleTableRecord
2
Standard
3
txt
70
0
71
0
40
0
41
1
42
0
50
0
0
STYLE
5
FE
100
AcDbSymbolTableRecord
100
AcDbTextStyleTableRecord
2
iso_b_vert
3
simplex.shx
70
0
71
0
40
0
41
1
42
0
50
0
0
STYLE
5
FF
100
AcDbSymbolTableRecord
100
AcDbTextStyleTableRecord
2
DWGDirectTextStyle
3
simplex
70
0
71
0
40
0
41
1
42
0
50
0
0
ENDTAB
0
TABLE
2
DIMSTYLE
5
208
100
AcDbSymbolTable
100
AcDbDimStyleTable
0
DIMSTYLE
105
27
100
AcDbSymbolTableRecord
100
AcDbDimStyleTableRecord
2
Standard
70
0
3
<>
41
0.18
42
0.0625
44
0.18
140
0.18
147
0.09
73
0
74
0
77
1
271
2
275
0
278
52
280
0
340
11
0
ENDTAB
0
TABLE
2
VIEW
5
209
100
AcDbSymbolTable
0
ENDTAB
0
TABLE
2
UCS
5
20a
100
AcDbSymbolTable
0
ENDTAB
0
TABLE
2
APPID
5
20b
100
AcDbSymbolTable
0
APPID
5
12
100
AcDbSymbolTableRecord
100
AcDbRegAppTableRecord
2
ACAD
70
0
0
APPID
5
115
100
AcDbSymbolTableRecord
100
AcDbRegAppTableRecord
2
ACAD_DSTYLE_DIMBREAK
70
0
0
APPID
5
1AF
100
AcDbSymbolTableRecord
100
AcDbRegAppTableRecord
2
ACAD_DSTYLE_DIM_LINETYPE
70
0
0
APPID
5
1B0
100
AcDbSymbolTableRecord
100
AcDbRegAppTableRecord
2
ACAD_DSTYLE_DIM_EXT1_LINETYPE
70
0
0
APPID
5
1B1
100
AcDbSymbolTableRecord
100
AcDbRegAppTableRecord
2
ACAD_DSTYLE_DIM_EXT2_LINETYPE
70
0
0
APPID
5
1EC
100
AcDbSymbolTableRecord
100
AcDbRegAppTableRecord
2
ACAD_MLEADERVER
70
0
0
ENDTAB
0
TABLE
2
BLOCK_RECORD
5
20c
100
AcDbSymbolTable
0
BLOCK_RECORD
5
1F
100
AcDbSymbolTableRecord
100
AcDbBlockTableRecord
2
*Model_Space
340
0
70
0
0
BLOCK_RECORD
5
1B
100
AcDbSymbolTableRecord
100
AcDbBlockTableRecord
2
*Paper_Space
340
0
70
0
0
BLOCK_RECORD
5
23
100
AcDbSymbolTableRecord
100
AcDbBlockTableRecord
2
*Paper_Space0
340
0
70
0
0
BLOCK_RECORD
5
11A
100
AcDbSymbolTableRecord
100
AcDbBlockTableRecord
2
*D1
340
0
70
0
0
BLOCK_RECORD
5
126
100
AcDbSymbolTableRecord
100
AcDbBlockTableRecord
2
_U0
340
0
70
0
0
BLOCK_RECORD
5
132
100
AcDbSymbolTableRecord
100
AcDbBlockTableRecord
2
*D3
340
0
70
0
0
BLOCK_RECORD
5
13E
100
AcDbSymbolTableRecord
100
AcDbBlockTableRecord
2
_U1
340
0
70
0
0
BLOCK_RECORD
5
14A
100
AcDbSymbolTableRecord
100
AcDbBlockTableRecord
2
*D5
340
0
70
0
0
BLOCK_RECORD
5
156
100
AcDbSymbolTableRecord
100
AcDbBlockTableRecord
2
_U2
340
0
70
0
0
BLOCK_RECORD
5
162
100
AcDbSymbolTableRecord
100
AcDbBlockTableRecord
2
*D7
340
0
70
0
0
BLOCK_RECORD
5
170
100
AcDbSymbolTableRecord
100
AcDbBlockTableRecord
2
_U3
340
0
70
0
0
BLOCK_RECORD
5
17C
100
AcDbSymbolTableRecord
100
AcDbBlockTableRecord
2
*D9
340
0
70
0
0
BLOCK_RECORD
5
188
100
AcDbSymbolTableRecord
100
AcDbBlockTableRecord
2
_U4
340
0
70
0
0
ENDTAB
0
ENDSEC
0
SECTION
2
BLOCKS
0
BLOCK
5
20
100
AcDbEntity
8
0
100
AcDbBlockBegin
2
*Model_Space
70
0
10
0
20
0
30
0
3
*Model_Space
0
ENDBLK
5
21
100
AcDbEntity
8
0
100
AcDbBlockEnd
0
BLOCK
5
1C
100
AcDbEntity
8
0
100
AcDbBlockBegin
2
*Paper_Space
70
0
10
0
20
0
30
0
3
*Paper_Space
0
ENDBLK
5
1D
100
AcDbEntity
8
0
100
AcDbBlockEnd
0
BLOCK
5
24
100
AcDbEntity
8
0
100
AcDbBlockBegin
2
*Paper_Space0
70
0
10
0
20
0
30
0
3
*Paper_Space0
0
ENDBLK
5
25
100
AcDbEntity
8
0
100
AcDbBlockEnd
0
BLOCK
5
11B
100
AcDbEntity
8
0
100
AcDbBlockBegin
2
*D1
70
1
10
0
20
0
30
0
3
*D1
0
LINE
5
11D
100
AcDbEntity
8
0
62
256
6
ByLayer
370
-2
48
1
60
0
100
AcDbLine
10
0
20
-1.5875
30
0
11
0
21
-13.813398
31
0
39
0
210
0
220
0
230
1
0
LINE
5
11E
100
AcDbEntity
8
0
62
256
6
ByLayer
370
-2
48
1
60
0
100
AcDbLine
10
37.3666
20
-3.1875
30
0
11
37.3666
21
-13.813398
31
0
39
0
210
0
220
0
230
1
0
LINE
5
11F
100
AcDbEntity
8
0
62
256
6
ByLayer
370
-2
48
1
60
0
100
AcDbLine
10
3.5
20
-11.813398
30
0
11
33.8666
21
-11.813398
31
0
39
0
210
0
220
0
230
1
0
SOLID
5
120
100
AcDbEntity
8
0
62
256
6
ByLayer
370
-1
48
1
60
0
100
AcDbTrace
10
3.5
20
-11.230065
30
0
11
3.5
21
-12.396732
31
0
12
0
22
-11.813398
32
0
13
0
23
-11.813398
33
0
39
0
210
0
220
0
230
1
0
SOLID
5
121
100
AcDbEntity
8
0
62
256
6
ByLayer
370
-1
48
1
60
0
100
AcDbTrace
10
33.8666
20
-12.396732
30
0
11
33.8666
21
-11.230065
31
0
12
37.3666
22
-11.813398
32
0
13
37.3666
23
-11.813398
33
0
39
0
210
0
220
0
230
1
0
MTEXT
5
122
100
AcDbEntity
8
0
62
256
6
ByLayer
370
18
48
1
60
0
100
AcDbMText
10
18.6833
20
-4.813398
30
0
210
0
220
0
230
1
1
\A1;37.37
40
3.5
41
0
44
1
50
0
71
5
72
5
7
iso_b_vert
0
POINT
5
123
100
AcDbEntity
8
Defpoints
62
0
6
ByLayer
370
-1
48
1
60
0
100
AcDbPoint
10
0
20
0
30
0
39
0
210
0
220
0
230
1
50
360
0
POINT
5
124
100
AcDbEntity
8
Defpoints
62
0
6
ByLayer
370
-1
48
1
60
0
100
AcDbPoint
10
37.3666
20
-1.6
30
0
39
0
210
0
220
0
230
1
50
360
0
POINT
5
125
100
AcDbEntity
8
Defpoints
62
0
6
ByLayer
370
-1
48
1
60
0
100
AcDbPoint
10
37.3666
20
-11.813398
30
0
39
0
210
0
220
0
230
1
50
360
0
ENDBLK
5
11C
100
AcDbEntity
8
0
100
AcDbBlockEnd
0
BLOCK
5
12D
100
AcDbEntity
8
0
100
AcDbBlockBegin
2
_U0
70
0
10
0
20
0
30
0
3
_U0
0
MTEXT
5
127
100
AcDbEntity
8
2
62
256
6
ByLayer
370
13
48
1
60
0
100
AcDbMText
10
13.546001
20
-10.780765
30
0
210
0
220
0
230
1
1
\W0.7317;37,37
40
3.5
41
0
44
1.084337
50
0
71
7
72
5
7
iso_b_vert
0
LINE
5
128
100
AcDbEntity
8
2
62
256
6
ByLayer
370
13
48
1
60
0
100
AcDbLine
10
0
20
-1.5875
30
0
11
0
21
-13.813398
31
0
39
0
210
0
220
0
230
1
0
LINE
5
129
100
AcDbEntity
8
2
62
256
6
ByLayer
370
13
48
1
60
0
100
AcDbLine
10
37.3666
20
-3.1875
30
0
11
37.3666
21
-13.813398
31
0
39
0
210
0
220
0
230
1
0
LINE
5
12A
100
AcDbEntity
8
2
62
256
6
ByLayer
370
13
48
1
60
0
100
AcDbLine
10
0
20
-11.813398
30
0
11
37.3666
21
-11.813398
31
0
39
0
210
0
220
0
230
1
0
SOLID
5
12B
100
AcDbEntity
8
2
62
256
6
ByLayer
370
18
48
1
60
0
100
AcDbTrace
10
0
20
-11.813398
30
0
11
3.499998
21
-11.352615
31
0
12
3.500002
22
-12.274182
32
0
13
3.500002
23
-12.274182
33
0
39
0
210
0
220
0
230
1
0
SOLID
5
12C
100
AcDbEntity
8
2
62
256
6
ByLayer
370
18
48
1
60
0
100
AcDbTrace
10
37.3666
20
-11.813398
30
0
11
33.866602
21
-12.274182
31
0
12
33.866598
22
-11.352615
32
0
13
33.866598
23
-11.352615
33
0
39
0
210
0
220
0
230
1
0
ENDBLK
5
12E
100
AcDbEntity
8
0
100
AcDbBlockEnd
0
BLOCK
5
133
100
AcDbEntity
8
0
100
AcDbBlockBegin
2
*D3
70
1
10
0
20
0
30
0
3
*D3
0
LINE
5
135
100
AcDbEntity
8
0
62
256
6
ByLayer
370
-2
48
1
60
0
100
AcDbLine
10
-36
20
-4.5875
30
0
11
-36
21
-33.692985
31
0
39
0
210
0
220
0
230
1
0
LINE
5
136
100
AcDbEntity
8
0
62
256
6
ByLayer
370
-2
48
1
60
0
100
AcDbLine
10
38
20
-1.5875
30
0
11
38
21
-33.692985
31
0
39
0
210
0
220
0
230
1
0
LINE
5
137
100
AcDbEntity
8
0
62
256
6
ByLayer
370
-2
48
1
60
0
100
AcDbLine
10
-32.5
20
-31.692985
30
0
11
34.5
21
-31.692985
31
0
39
0
210
0
220
0
230
1
0
SOLID
5
138
100
AcDbEntity
8
0
62
256
6
ByLayer
370
-1
48
1
60
0
100
AcDbTrace
10
-32.5
20
-31.109652
30
0
11
-32.5
21
-32.276319
31
0
12
-36
22
-31.692985
32
0
13
-36
23
-31.692985
33
0
39
0
210
0
220
0
230
1
0
SOLID
5
139
100
AcDbEntity
8
0
62
256
6
ByLayer
370
-1
48
1
60
0
100
AcDbTrace
10
34.5
20
-32.276319
30
0
11
34.5
21
-31.109652
31
0
12
38
22
-31.692985
32
0
13
38
23
-31.692985
33
0
39
0
210
0
220
0
230
1
0
MTEXT
5
13A
100
AcDbEntity
8
0
62
256
6
ByLayer
370
18
48
1
60
0
100
AcDbMText
10
1
20
-24.692985
30
0
210
0
220
0
230
1
1
\A1;74.00
40
3.5
41
0
44
1
50
0
71
5
72
5
7
iso_b_vert
0
POINT
5
13B
100
AcDbEntity
8
Defpoints
62
0
6
ByLayer
370
-1
48
1
60
0
100
AcDbPoint
10
-36
20
-3
30
0
39
0
210
0
220
0
230
1
50
360
0
POINT
5
13C
100
AcDbEntity
8
Defpoints
62
0
6
ByLayer
370
-1
48
1
60
0
100
AcDbPoint
10
38
20
0
30
0
39
0
210
0
220
0
230
1
50
360
0
POINT
5
13D
100
AcDbEntity
8
Defpoints
62
0
6
ByLayer
370
-1
48
1
60
0
100
AcDbPoint
10
38
20
-31.692985
30
0
39
0
210
0
220
0
230
1
50
360
0
ENDBLK
5
134
100
AcDbEntity
8
0
100
AcDbBlockEnd
0
BLOCK
5
145
100
AcDbEntity
8
0
100
AcDbBlockBegin
2
_U1
70
0
10
0
20
0
30
0
3
_U1
0
MTEXT
5
13F
100
AcDbEntity
8
SK2
62
256
6
ByLayer
370
13
48
1
60
0
100
AcDbMText
10
-4.321565
20
-30.660352
30
0
210
0
220
0
230
1
1
\W0.7581;74,00
40
3.5
41
0
44
1.084337
50
0
71
7
72
5
7
iso_b_vert
0
LINE
5
140
100
AcDbEntity
8
SK2
62
256
6
ByLayer
370
13
48
1
60
0
100
AcDbLine
10
-36
20
-4.5875
30
0
11
-36
21
-33.692985
31
0
39
0
210
0
220
0
230
1
0
LINE
5
141
100
AcDbEntity
8
SK2
62
256
6
ByLayer
370
13
48
1
60
0
100
AcDbLine
10
38
20
-1.5875
30
0
11
38
21
-33.692985
31
0
39
0
210
0
220
0
230
1
0
LINE
5
142
100
AcDbEntity
8
SK2
62
256
6
ByLayer
370
13
48
1
60
0
100
AcDbLine
10
-36
20
-31.692985
30
0
11
38
21
-31.692985
31
0
39
0
210
0
220
0
230
1
0
SOLID
5
143
100
AcDbEntity
8
SK2
62
256
6
ByLayer
370
18
48
1
60
0
100
AcDbTrace
10
-36
20
-31.692985
30
0
11
-32.500002
21
-31.232202
31
0
12
-32.499998
22
-32.153769
32
0
13
-32.499998
23
-32.153769
33
0
39
0
210
0
220
0
230
1
0
SOLID
5
144
100
AcDbEntity
8
SK2
62
256
6
ByLayer
370
18
48
1
60
0
100
AcDbTrace
10
38
20
-31.692985
30
0
11
34.500002
21
-32.153769
31
0
12
34.499998
22
-31.232202
32
0
13
34.499998
23
-31.232202
33
0
39
0
210
0
220
0
230
1
0
ENDBLK
5
146
100
AcDbEntity
8
0
100
AcDbBlockEnd
0
BLOCK
5
14B
100
AcDbEntity
8
0
100
AcDbBlockBegin
2
*D5
70
1
10
0
20
0
30
0
3
*D5
0
LINE
5
14D
100
AcDbEntity
8
0
62
256
6
ByLayer
370
-2
48
1
60
0
100
AcDbLine
10
11.77
20
3.1875
30
0
11
11.77
21
15.209119
31
0
39
0
210
0
220
0
230
1
0
LINE
5
14E
100
AcDbEntity
8
0
62
256
6
ByLayer
370
-2
48
1
60
0
100
AcDbLine
10
38
20
1.5875
30
0
11
38
21
15.209119
31
0
39
0
210
0
220
0
230
1
0
LINE
5
14F
100
AcDbEntity
8
0
62
256
6
ByLayer
370
-2
48
1
60
0
100
AcDbLine
10
15.27
20
13.209119
30
0
11
34.5
21
13.209119
31
0
39
0
210
0
220
0
230
1
0
SOLID
5
150
100
AcDbEntity
8
0
62
256
6
ByLayer
370
-1
48
1
60
0
100
AcDbTrace
10
15.27
20
13.792453
30
0
11
15.27
21
12.625786
31
0
12
11.77
22
13.209119
32
0
13
11.77
23
13.209119
33
0
39
0
210
0
220
0
230
1
0
SOLID
5
151
100
AcDbEntity
8
0
62
256
6
ByLayer
370
-1
48
1
60
0
100
AcDbTrace
10
34.5
20
12.625786
30
0
11
34.5
21
13.792453
31
0
12
38
22
13.209119
32
0
13
38
23
13.209119
33
0
39
0
210
0
220
0
230
1
0
MTEXT
5
152
100
AcDbEntity
8
0
62
256
6
ByLayer
370
18
48
1
60
0
100
AcDbMText
10
24.885
20
20.209119
30
0
210
0
220
0
230
1
1
\A1;26.23
40
3.5
41
0
44
1
50
0
71
5
72
5
7
iso_b_vert
0
POINT
5
153
100
AcDbEntity
8
Defpoints
62
0
6
ByLayer
370
-1
48
1
60
0
100
AcDbPoint
10
11.77
20
1.6
30
0
39
0
210
0
220
0
230
1
50
360
0
POINT
5
154
100
AcDbEntity
8
Defpoints
62
0
6
ByLayer
370
-1
48
1
60
0
100
AcDbPoint
10
38
20
0
30
0
39
0
210
0
220
0
230
1
50
360
0
POINT
5
155
100
AcDbEntity
8
Defpoints
62
0
6
ByLayer
370
-1
48
1
60
0
100
AcDbPoint
10
38
20
13.209119
30
0
39
0
210
0
220
0
230
1
50
360
0
ENDBLK
5
14C
100
AcDbEntity
8
0
100
AcDbBlockEnd
0
BLOCK
5
15D
100
AcDbEntity
8
0
100
AcDbBlockBegin
2
_U2
70
0
10
0
20
0
30
0
3
_U2
0
MTEXT
5
157
100
AcDbEntity
8
SK2
62
256
6
ByLayer
370
13
48
1
60
0
100
AcDbMText
10
19.747701
20
14.241753
30
0
210
0
220
0
230
1
1
\W0.7317;26,23
40
3.5
41
0
44
1.084337
50
0
71
7
72
5
7
iso_b_vert
0
LINE
5
158
100
AcDbEntity
8
SK2
62
256
6
ByLayer
370
13
48
1
60
0
100
AcDbLine
10
11.77
20
3.1875
30
0
11
11.77
21
15.209119
31
0
39
0
210
0
220
0
230
1
0
LINE
5
159
100
AcDbEntity
8
SK2
62
256
6
ByLayer
370
13
48
1
60
0
100
AcDbLine
10
38
20
1.5875
30
0
11
38
21
15.209119
31
0
39
0
210
0
220
0
230
1
0
LINE
5
15A
100
AcDbEntity
8
SK2
62
256
6
ByLayer
370
13
48
1
60
0
100
AcDbLine
10
11.77
20
13.209119
30
0
11
38
21
13.209119
31
0
39
0
210
0
220
0
230
1
0
SOLID
5
15B
100
AcDbEntity
8
SK2
62
256
6
ByLayer
370
18
48
1
60
0
100
AcDbTrace
10
11.77
20
13.209119
30
0
11
15.269998
21
13.669903
31
0
12
15.270002
22
12.748335
32
0
13
15.270002
23
12.748335
33
0
39
0
210
0
220
0
230
1
0
SOLID
5
15C
100
AcDbEntity
8
SK2
62
256
6
ByLayer
370
18
48
1
60
0
100
AcDbTrace
10
38
20
13.209119
30
0
11
34.500002
21
12.748335
31
0
12
34.499998
22
13.669903
32
0
13
34.499998
23
13.669903
33
0
39
0
210
0
220
0
230
1
0
ENDBLK
5
15E
100
AcDbEntity
8
0
100
AcDbBlockEnd
0
BLOCK
5
163
100
AcDbEntity
8
0
100
AcDbBlockBegin
2
*D7
70
1
10
0
20
0
30
0
3
*D7
0
LINE
5
165
100
AcDbEntity
8
0
62
256
6
ByLayer
370
-2
48
1
60
0
100
AcDbLine
10
38
20
-1.5875
30
0
11
38
21
-16.402503
31
0
39
0
210
0
220
0
230
1
0
LINE
5
166
100
AcDbEntity
8
0
62
256
6
ByLayer
370
-2
48
1
60
0
100
AcDbLine
10
37.3666
20
-3.1875
30
0
11
37.3666
21
-16.402503
31
0
39
0
210
0
220
0
230
1
0
LINE
5
167
100
AcDbEntity
8
0
62
256
6
ByLayer
370
-2
48
1
60
0
100
AcDbLine
10
38
20
-14.402503
30
0
11
66.166667
21
-14.402503
31
0
39
0
210
0
220
0
230
1
0
LINE
5
168
100
AcDbEntity
8
0
62
256
6
ByLayer
370
-2
48
1
60
0
100
AcDbLine
10
41.5
20
-14.402503
30
0
11
45
21
-14.402503
31
0
39
0
210
0
220
0
230
1
0
LINE
5
169
100
AcDbEntity
8
0
62
256
6
ByLayer
370
-2
48
1
60
0
100
AcDbLine
10
33.8666
20
-14.402503
30
0
11
30.3666
21
-14.402503
31
0
39
0
210
0
220
0
230
1
0
SOLID
5
16A
100
AcDbEntity
8
0
62
256
6
ByLayer
370
-1
48
1
60
0
100
AcDbTrace
10
41.5
20
-13.81917
30
0
11
41.5
21
-14.985837
31
0
12
38
22
-14.402503
32
0
13
38
23
-14.402503
33
0
39
0
210
0
220
0
230
1
0
SOLID
5
16B
100
AcDbEntity
8
0
62
256
6
ByLayer
370
-1
48
1
60
0
100
AcDbTrace
10
33.8666
20
-14.985837
30
0
11
33.8666
21
-13.81917
31
0
12
37.3666
22
-14.402503
32
0
13
37.3666
23
-14.402503
33
0
39
0
210
0
220
0
230
1
0
MTEXT
5
16C
100
AcDbEntity
8
0
62
256
6
ByLayer
370
18
48
1
60
0
100
AcDbMText
10
55.583333
20
-7.402503
30
0
210
0
220
0
230
1
1
\A1;0.63
40
3.5
41
0
44
1
50
0
71
5
72
5
7
iso_b_vert
0
POINT
5
16D
100
AcDbEntity
8
Defpoints
62
0
6
ByLayer
370
-1
48
1
60
0
100
AcDbPoint
10
38
20
0
30
0
39
0
210
0
220
0
230
1
50
360
0
POINT
5
16E
100
AcDbEntity
8
Defpoints
62
0
6
ByLayer
370
-1
48
1
60
0
100
AcDbPoint
10
37.3666
20
-1.6
30
0
39
0
210
0
220
0
230
1
50
360
0
POINT
5
16F
100
AcDbEntity
8
Defpoints
62
0
6
ByLayer
370
-1
48
1
60
0
100
AcDbPoint
10
37.3666
20
-14.402503
30
0
39
0
210
0
220
0
230
1
50
360
0
ENDBLK
5
164
100
AcDbEntity
8
0
100
AcDbBlockEnd
0
BLOCK
5
177
100
AcDbEntity
8
0
100
AcDbBlockBegin
2
_U3
70
0
10
0
20
0
30
0
3
_U3
0
MTEXT
5
171
100
AcDbEntity
8
SK2
62
256
6
ByLayer
370
13
48
1
60
0
100
AcDbMText
10
44.15186
20
-13.36987
30
0
210
0
220
0
230
1
1
\W0.7150;0,63
40
3.5
41
0
44
1.084337
50
0
71
7
72
5
7
iso_b_vert
0
LINE
5
172
100
AcDbEntity
8
SK2
62
256
6
ByLayer
370
13
48
1
60
0
100
AcDbLine
10
38
20
-1.5875
30
0
11
38
21
-16.402503
31
0
39
0
210
0
220
0
230
1
0
LINE
5
173
100
AcDbEntity
8
SK2
62
256
6
ByLayer
370
13
48
1
60
0
100
AcDbLine
10
37.3666
20
-3.1875
30
0
11
37.3666
21
-16.402503
31
0
39
0
210
0
220
0
230
1
0
LINE
5
174
100
AcDbEntity
8
SK2
62
256
6
ByLayer
370
13
48
1
60
0
100
AcDbLine
10
28.6166
20
-14.402503
30
0
11
51.996491
21
-14.402503
31
0
39
0
210
0
220
0
230
1
0
SOLID
5
175
100
AcDbEntity
8
SK2
62
256
6
ByLayer
370
18
48
1
60
0
100
AcDbTrace
10
38
20
-14.402503
30
0
11
41.499998
21
-13.941719
31
0
12
41.500002
22
-14.863287
32
0
13
41.500002
23
-14.863287
33
0
39
0
210
0
220
0
230
1
0
SOLID
5
176
100
AcDbEntity
8
SK2
62
256
6
ByLayer
370
18
48
1
60
0
100
AcDbTrace
10
37.3666
20
-14.402503
30
0
11
33.866602
21
-14.863287
31
0
12
33.866598
22
-13.941719
32
0
13
33.866598
23
-13.941719
33
0
39
0
210
0
220
0
230
1
0
ENDBLK
5
178
100
AcDbEntity
8
0
100
AcDbBlockEnd
0
BLOCK
5
17D
100
AcDbEntity
8
0
100
AcDbBlockBegin
2
*D9
70
1
10
0
20
0
30
0
3
*D9
0
LINE
5
17F
100
AcDbEntity
8
0
62
256
6
ByLayer
370
-2
48
1
60
0
100
AcDbLine
10
-36
20
-4.5875
30
0
11
-36
21
-23.343428
31
0
39
0
210
0
220
0
230
1
0
LINE
5
180
100
AcDbEntity
8
0
62
256
6
ByLayer
370
-2
48
1
60
0
100
AcDbLine
10
37.3666
20
-3.1875
30
0
11
37.3666
21
-23.343428
31
0
39
0
210
0
220
0
230
1
0
LINE
5
181
100
AcDbEntity
8
0
62
256
6
ByLayer
370
-2
48
1
60
0
100
AcDbLine
10
-32.5
20
-21.343428
30
0
11
33.8666
21
-21.343428
31
0
39
0
210
0
220
0
230
1
0
SOLID
5
182
100
AcDbEntity
8
0
62
256
6
ByLayer
370
-1
48
1
60
0
100
AcDbTrace
10
-32.5
20
-20.760095
30
0
11
-32.5
21
-21.926762
31
0
12
-36
22
-21.343428
32
0
13
-36
23
-21.343428
33
0
39
0
210
0
220
0
230
1
0
SOLID
5
183
100
AcDbEntity
8
0
62
256
6
ByLayer
370
-1
48
1
60
0
100
AcDbTrace
10
33.8666
20
-21.926762
30
0
11
33.8666
21
-20.760095
31
0
12
37.3666
22
-21.343428
32
0
13
37.3666
23
-21.343428
33
0
39
0
210
0
220
0
230
1
0
MTEXT
5
184
100
AcDbEntity
8
0
62
256
6
ByLayer
370
18
48
1
60
0
100
AcDbMText
10
0.6833
20
-14.343428
30
0
210
0
220
0
230
1
1
\A1;73.37
40
3.5
41
0
44
1
50
0
71
5
72
5
7
iso_b_vert
0
POINT
5
185
100
AcDbEntity
8
Defpoints
62
0
6
ByLayer
370
-1
48
1
60
0
100
AcDbPoint
10
-36
20
-3
30
0
39
0
210
0
220
0
230
1
50
360
0
POINT
5
186
100
AcDbEntity
8
Defpoints
62
0
6
ByLayer
370
-1
48
1
60
0
100
AcDbPoint
10
37.3666
20
-1.6
30
0
39
0
210
0
220
0
230
1
50
360
0
POINT
5
187
100
AcDbEntity
8
Defpoints
62
0
6
ByLayer
370
-1
48
1
60
0
100
AcDbPoint
10
37.3666
20
-21.343428
30
0
39
0
210
0
220
0
230
1
50
360
0
ENDBLK
5
17E
100
AcDbEntity
8
0
100
AcDbBlockEnd
0
BLOCK
5
18F
100
AcDbEntity
8
0
100
AcDbBlockBegin
2
_U4
70
0
10
0
20
0
30
0
3
_U4
0
MTEXT
5
189
100
AcDbEntity
8
SK2
62
256
6
ByLayer
370
13
48
1
60
0
100
AcDbMText
10
-4.453999
20
-20.310795
30
0
210
0
220
0
230
1
1
\W0.7317;73,37
40
3.5
41
0
44
1.084337
50
0
71
7
72
5
7
iso_b_vert
0
LINE
5
18A
100
AcDbEntity
8
SK2
62
256
6
ByLayer
370
13
48
1
60
0
100
AcDbLine
10
-36
20
-4.5875
30
0
11
-36
21
-23.343428
31
0
39
0
210
0
220
0
230
1
0
LINE
5
18B
100
AcDbEntity
8
SK2
62
256
6
ByLayer
370
13
48
1
60
0
100
AcDbLine
10
37.3666
20
-3.1875
30
0
11
37.3666
21
-23.343428
31
0
39
0
210
0
220
0
230
1
0
LINE
5
18C
100
AcDbEntity
8
SK2
62
256
6
ByLayer
370
13
48
1
60
0
100
AcDbLine
10
-36
20
-21.343428
30
0
11
37.3666
21
-21.343428
31
0
39
0
210
0
220
0
230
1
0
SOLID
5
18D
100
AcDbEntity
8
SK2
62
256
6
ByLayer
370
18
48
1
60
0
100
AcDbTrace
10
-36
20
-21.343428
30
0
11
-32.500002
21
-20.882645
31
0
12
-32.499998
22
-21.804212
32
0
13
-32.499998
23
-21.804212
33
0
39
0
210
0
220
0
230
1
0
SOLID
5
18E
100
AcDbEntity
8
SK2
62
256
6
ByLayer
370
18
48
1
60
0
100
AcDbTrace
10
37.3666
20
-21.343428
30
0
11
33.866602
21
-21.804212
31
0
12
33.866598
22
-20.882645
32
0
13
33.866598
23
-20.882645
33
0
39
0
210
0
220
0
230
1
0
ENDBLK
5
190
100
AcDbEntity
8
0
100
AcDbBlockEnd
0
ENDSEC
0
SECTION
2
ENTITIES
0
ARC
5
AB
100
AcDbEntity
8
1
62
256
6
ByLayer
370
18
48
1
60
0
100
AcDbCircle
39
0
10
1.683571
20
-2.385772
30
0
40
0.850000000000004
210
0
220
0
230
1
100
AcDbArc
50
89.896868
51
172.027987
0
ARC
5
AC
100
AcDbEntity
8
1
62
256
6
ByLayer
370
18
48
1
60
0
100
AcDbCircle
39
0
10
1.683571
20
2.385772
30
0
40
0.850000000000004
210
0
220
0
230
1
100
AcDbArc
50
187.972013
51
270.103132
0
ARC
5
AD
100
AcDbEntity
8
1
62
256
6
ByLayer
370
18
48
1
60
0
100
AcDbCircle
39
0
10
0
20
-2.15
30
0
40
0.849999999999997
210
0
220
0
230
1
100
AcDbArc
50
270
51
352.027987
0
ARC
5
AE
100
AcDbEntity
8
1
62
256
6
ByLayer
370
18
48
1
60
0
100
AcDbCircle
39
0
10
0
20
2.15
30
0
40
0.849999999999997
210
0
220
0
230
1
100
AcDbArc
50
7.972013
51
90
0
ELLIPSE
5
AF
100
AcDbEntity
8
1
62
256
6
ByLayer
370
18
48
1
60
0
100
AcDbEllipse
10
38.068956
20
0.000905
30
0
11
0.570538109709171
21
1.58496530124378
31
0
210
0
220
0
230
1
40
0.400044
41
2.91775947084345
42
2.93315151138142
0
ELLIPSE
5
B0
100
AcDbEntity
8
1
62
256
6
ByLayer
370
13
48
1
60
0
100
AcDbEllipse
10
82.194174
20
43.437707
30
0
11
-61.85
21
7.5741902983914E-15
31
0
210
0
220
0
230
1
40
0.99863
41
0.769408102484176
42
0.77250752068127
0
ELLIPSE
5
B1
100
AcDbEntity
8
1
62
256
6
ByLayer
370
13
48
1
60
0
100
AcDbEllipse
10
6.723929
20
-65.211458
30
0
11
-45.0265782000098
21
59.5937725169514
31
0
210
0
220
0
230
1
40
0.717138
41
-0.811480560411999
42
-0.766596518641113
0
ELLIPSE
5
B2
100
AcDbEntity
8
1
62
256
6
ByLayer
370
13
48
1
60
0
100
AcDbEllipse
10
6.394072
20
0.541137
30
0
11
0.153294104247969
21
0.257877718313957
31
0
210
0
220
0
230
1
40
0.161237
41
-2.42172152900401
42
-1.83345727684915
0
ELLIPSE
5
B3
100
AcDbEntity
8
1
62
256
6
ByLayer
370
18
48
1
60
0
100
AcDbEllipse
10
6.393255
20
2.487084
30
0
11
-1
21
1.22460635382238E-16
31
0
210
0
220
0
230
1
40
1
41
1.2348595522228
42
1.47485163836641
0
POINT
5
70
100
AcDbEntity
8
80
62
256
6
ByLayer
370
18
48
1
60
0
100
AcDbPoint
10
0
20
0
30
0
39
0
210
0
220
0
230
1
50
360
0
POINT
5
72
100
AcDbEntity
8
81
62
256
6
ByLayer
370
18
48
1
60
0
100
AcDbPoint
10
38
20
0
30
0
39
0
210
0
220
0
230
1
50
360
0
POINT
5
74
100
AcDbEntity
8
1
62
256
6
ByLayer
370
18
48
1
60
1
100
AcDbPoint
10
37.3666
20
-1.6
30
0
39
0
210
0
220
0
230
1
50
360
0
POINT
5
76
100
AcDbEntity
8
1
62
256
6
ByLayer
370
18
48
1
60
1
100
AcDbPoint
10
-36
20
-3
30
0
39
0
210
0
220
0
230
1
50
360
0
POINT
5
77
100
AcDbEntity
8
1
62
256
6
ByLayer
370
18
48
1
60
1
100
AcDbPoint
10
11.77
20
1.6
30
0
39
0
210
0
220
0
230
1
50
360
0
POINT
5
78
100
AcDbEntity
8
1
62
256
6
ByLayer
370
18
48
1
60
1
100
AcDbPoint
10
37.3666
20
-1.6
30
0
39
0
210
0
220
0
230
1
50
360
0
POINT
5
79
100
AcDbEntity
8
1
62
256
6
ByLayer
370
18
48
1
60
1
100
AcDbPoint
10
-36
20
-3
30
0
39
0
210
0
220
0
230
1
50
360
0
POINT
5
7A
100
AcDbEntity
8
1
62
256
6
ByLayer
370
18
48
1
60
1
100
AcDbPoint
10
37.3666
20
-1.6
30
0
39
0
210
0
220
0
230
1
50
360
0
SPLINE
5
B4
100
AcDbEntity
8
1
62
256
6
ByLayer
370
13
48
1
60
0
100
AcDbSpline
70
4
71
3
72
102
73
98
40
0
40
0
40
0
40
0
40
0.0099629330610196
40
0.0152576408823491
40
0.0258470565250044
40
0.0364364721676591
40
0.0523205956316433
40
0.0576153034529698
40
0.0682047190956251
40
0.0787941347382792
40
0.0946782582022634
40
0.0999729660235911
40
0.110562381666247
40
0.121151797308902
40
0.137035920772885
40
0.142330628594212
40
0.152920044236867
40
0.163509459879521
40
0.179393583343505
40
0.184688291164833
40
0.195277706807488
40
0.205867122450145
40
0.221751245914127
40
0.227045953735454
40
0.23763536937811
40
0.248224785020764
40
0.264108908484747
40
0.269403616306075
40
0.279993031948731
40
0.290582447591386
40
0.306466571055369
40
0.311761278876696
40
0.322350694519351
40
0.332940110162006
40
0.34882423362599
40
0.354118941447317
40
0.364708357089973
40
0.375297772732628
40
0.391181896196611
40
0.396476604017938
40
0.407066019660594
40
0.417655435303248
40
0.433539558767231
40
0.438834266588559
40
0.449423682231214
40
0.46001309787387
40
0.475897221337853
40
0.481191929159181
40
0.491781344801836
40
0.50237076044449
40
0.518254883908473
40
0.523549591729801
40
0.534139007372457
40
0.544728423015112
40
0.560612546479095
40
0.565907254300422
40
0.576496669943078
40
0.587086085585733
40
0.602970209049716
40
0.608264916871043
40
0.618854332513698
40
0.629443748156354
40
0.645327871620337
40
0.650622579441664
40
0.661211995084317
40
0.671801410726975
40
0.687685534190958
40
0.692980242012286
40
0.703569657654939
40
0.714159073297595
40
0.730043196761584
40
0.735337904582906
40
0.745927320225562
40
0.756516735868215
40
0.772400859332202
40
0.777695567153527
40
0.788284982796181
40
0.798874398438834
40
0.81475852190282
40
0.820053229724149
40
0.830642645366805
40
0.841232061009458
40
0.857116184473443
40
0.86241089229477
40
0.873000307937425
40
0.883589723580079
40
0.899473847044062
40
0.904768554865391
40
0.915357970508048
40
0.925947386150699
40
0.941831509614684
40
0.947126217436012
40
0.957715633078666
40
0.968305048721322
40
0.984189172185302
40
0.989483880006633
40
1
40
1
40
1
40
1
41
1
10
25.6339824109433
20
-0.692505473949296
30
0
41
1
10
25.6153000668092
20
-0.694746538627356
30
0
41
1
10
25.5866889433091
20
-0.698112121427414
30
0
41
1
10
25.5382211410043
20
-0.703639672056113
30
0
41
1
10
25.4885806351275
20
-0.709103558591693
30
0
41
1
10
25.4190830644004
20
-0.716390662291218
30
0
41
1
10
25.3595110194146
20
-0.722259952510058
30
0
41
1
10
25.2999399742361
20
-0.72782222516247
30
0
41
1
10
25.2502994907428
20
-0.732251311484532
30
0
41
1
10
25.1808019372444
20
-0.738078328893891
30
0
41
1
10
25.1212298937769
20
-0.742686853433128
30
0
41
1
10
25.0616588415544
20
-0.746979275783872
30
0
41
1
10
25.0120183473837
20
-0.750342549451545
30
0
41
1
10
24.9425207724907
20
-0.754667665178062
30
0
41
1
10
24.8829487063383
20
-0.757981207130115
30
0
41
1
10
24.8233776310268
20
-0.760970920641995
30
0
41
1
10
24.7737371183593
20
-0.763241961977457
30
0
41
1
10
24.7042395186036
20
-0.766030828354815
30
0
41
1
10
24.6446674314452
20
-0.768023675051722
30
0
41
1
10
24.585096334448
20
-0.769689232027844
30
0
41
1
10
24.5354558033768
20
-0.770853212878649
30
0
41
1
10
24.465958179698
20
-0.772089679911659
30
0
41
1
10
24.4063860762537
20
-0.772751785319258
30
0
41
1
10
24.3468149689658
20
-0.773085044881867
30
0
41
1
10
24.2971744347357
20
-0.773136257199411
30
0
41
1
10
24.2276768184882
20
-0.77281418508835
30
0
41
1
10
24.1681047345901
20
-0.772142125059077
30
0
41
1
10
24.1085336581882
20
-0.771141227911983
30
0
41
1
10
24.0588931567563
20
-0.770079248960542
30
0
41
1
10
23.989395590341
20
-0.768199972191212
30
0
41
1
10
23.9298235437021
20
-0.766196801286696
30
0
41
1
10
23.87025248878
20
-0.763866444205263
30
0
41
1
10
23.8206119910025
20
-0.761696374696555
30
0
41
1
10
23.7511144101344
20
-0.758269709589399
30
0
41
1
10
23.691542340146
20
-0.754947251341036
30
0
41
1
10
23.6319712647322
20
-0.751302964256354
30
0
41
1
10
23.5823307543436
20
-0.748040411558208
30
0
41
1
10
23.5128331641316
20
-0.743092261523259
30
0
41
1
10
23.4532610946794
20
-0.738476132376178
30
0
41
1
10
23.393690026139
20
-0.733545497790828
30
0
41
1
10
23.3440495264555
20
-0.72921466682979
30
0
41
1
10
23.2745519551416
20
-0.722780938268244
30
0
41
1
10
23.2149798989162
20
-0.71690387655164
30
0
41
1
10
23.1554088328657
20
-0.710721333233181
30
0
41
1
10
23.105768326227
20
-0.705352167022966
30
0
41
1
10
23.0362707319022
20
-0.697476806639685
30
0
41
1
10
22.97669864628
20
-0.690378421492426
30
0
41
1
10
22.9171275484275
20
-0.682985249158463
30
0
41
1
10
22.8674870152447
20
-0.676613374549959
30
0
41
1
10
22.7979893884246
20
-0.667348660979968
30
0
41
1
10
22.7384172846318
20
-0.659076549590083
30
0
41
1
10
22.6788461819508
20
-0.650523243744601
30
0
41
1
10
22.629205655423
20
-0.643192852388125
30
0
41
1
10
22.5597080526667
20
-0.632603869447621
30
0
41
1
10
22.5001359782788
20
-0.623216589849449
30
0
41
1
10
22.4405649039055
20
-0.613563545183155
30
0
41
1
10
22.3909243974011
20
-0.60532619570867
30
0
41
1
10
22.3214268171664
20
-0.593487075562024
30
0
41
1
10
22.2618547588723
20
-0.583050006409508
30
0
41
1
10
22.2022837011348
20
-0.572364206827842
30
0
41
1
10
22.1526432085451
20
-0.563276913256999
30
0
41
1
10
22.083145643844
20
-0.550269357645561
30
0
41
1
10
22.0235735914883
20
-0.538854298581953
30
0
41
1
10
21.9640025298206
20
-0.527209110149101
30
0
41
1
10
21.9143620273998
20
-0.517334184158699
30
0
41
1
10
21.8448644397918
20
-0.503247342874744
30
0
41
1
10
21.7852923607679
20
-0.490932593015089
30
0
41
1
10
21.7257212701811
20
-0.47840807833029
30
0
41
1
10
21.6760807429974
20
-0.467813553734544
30
0
41
1
10
21.6065831237039
20
-0.452744672825759
30
0
41
1
10
21.5470110251546
20
-0.439615378987497
30
0
41
1
10
21.4874399264163
20
-0.426298156856831
30
0
41
1
10
21.437799401238
20
-0.415057300240648
30
0
41
1
10
21.3683017962345
20
-0.399110604649309
30
0
41
1
10
21.308729716223
20
-0.385257619566289
30
0
41
1
10
21.2491586338583
20
-0.371239908503469
30
0
41
1
10
21.1995181203913
20
-0.359430607354057
30
0
41
1
10
21.1300205274238
20
-0.342716701133981
30
0
41
1
10
21.0704484511112
20
-0.328236247022403
30
0
41
1
10
21.0108773650468
20
-0.313615550693044
30
0
41
1
10
20.9612368426796
20
-0.301320036218499
30
0
41
1
10
20.891739233976
20
-0.283955239876065
30
0
41
1
10
20.832167149745
20
-0.268947783991024
30
0
41
1
10
20.77259607106
20
-0.253825002944382
30
0
41
1
10
20.7229555660519
20
-0.241127733156475
30
0
41
1
10
20.6534579943789
20
-0.223230857506508
30
0
41
1
10
20.5938859475126
20
-0.207798868667112
30
0
41
1
10
20.5343149009857
20
-0.192277436519106
30
0
41
1
10
20.4846744172602
20
-0.179265440141791
30
0
41
1
10
20.4151768645015
20
-0.160959513145656
30
0
41
1
10
20.3556048218288
20
-0.14520947929401
30
0
41
1
10
20.2960337693792
20
-0.129396849181603
30
0
41
1
10
20.246393274334
20
-0.116160428801777
30
0
41
1
10
20.1768956974942
20
-0.0975729276067909
30
0
41
1
10
20.1173236292503
20
-0.0816150154084312
30
0
41
1
10
20.0578899942692
20
-0.0656591050473878
30
0
41
1
10
20.0282431166833
20
-0.0576756354418819
30
0
41
1
10
20.0085242242426
20
-0.0523622890120521
30
0
0
SPLINE
5
B5
100
AcDbEntity
8
1
62
256
6
ByLayer
370
13
48
1
60
0
100
AcDbSpline
70
4
71
3
72
22
73
18
40
0
40
0
40
0
40
0
40
0.024414714604871
40
0.0894537336312132
40
0.187012262170727
40
0.219531771683898
40
0.28457079071024
40
0.349609809736582
40
0.447168338276095
40
0.479687847789266
40
0.544726866815608
40
0.609765885841951
40
0.715454291759753
40
0.739843923894631
40
0.76423355602951
40
0.869921961947316
40
1
40
1
40
1
40
1
41
1
10
7.63984821937882
20
-0.691799917100155
30
0
41
1
10
7.63239443832538
20
-0.692697647036965
30
0
41
1
10
7.60508439371807
20
-0.695960492184525
30
0
41
1
10
7.54798943018759
20
-0.702580690303989
30
0
41
1
10
7.48841735383601
20
-0.709116248776837
30
0
41
1
10
7.42884626855687
20
-0.715349973350953
30
0
41
1
10
7.37920574770766
20
-0.720342939300991
30
0
41
1
10
7.30970813860486
20
-0.726965098092307
30
0
41
1
10
7.25013604722949
20
-0.732259769495386
30
0
41
1
10
7.19056495078576
20
-0.73724297103567
30
0
41
1
10
7.14092442513288
20
-0.741185829862104
30
0
41
1
10
7.06894513474552
20
-0.746508996904907
30
0
41
1
10
7.00937274493086
20
-0.750507703190323
30
0
41
1
10
6.96221086184212
20
-0.75342713033038
30
0
41
1
10
6.91505403255201
20
-0.756221539257069
30
0
41
1
10
6.83563202190996
20
-0.760475764644212
30
0
41
1
10
6.76364571039224
20
-0.763670282431235
30
0
41
1
10
6.72392930697973
20
-0.765220108256784
30
0
0
SPLINE
5
B6
100
AcDbEntity
8
1
62
256
6
ByLayer
370
18
48
1
60
0
100
AcDbSpline
70
4
71
3
72
54
73
50
40
0
40
0
40
0
40
0
40
0.0034608594768633
40
0.0034608594768633
40
0.0446606861901494
40
0.0446606861901494
40
0.0858605129034354
40
0.0858605129034354
40
0.127060339616721
40
0.127060339616721
40
0.168260166330007
40
0.168260166330007
40
0.209459993043293
40
0.209459993043293
40
0.25065981975658
40
0.25065981975658
40
0.291859646469866
40
0.291859646469866
40
0.333059473183152
40
0.333059473183152
40
0.374259299896438
40
0.374259299896438
40
0.415459126609724
40
0.415459126609724
40
0.497858780036294
40
0.497858780036294
40
0.580258433462865
40
0.580258433462865
40
0.62145826017615
40
0.62145826017615
40
0.662658086889434
40
0.662658086889434
40
0.703857913602719
40
0.703857913602719
40
0.745057740316004
40
0.745057740316004
40
0.786257567029288
40
0.786257567029288
40
0.827457393742573
40
0.827457393742573
40
0.868657220455857
40
0.868657220455857
40
0.909857047169142
40
0.909857047169142
40
0.951056873882427
40
0.951056873882427
40
0.992256700595712
40
0.992256700595712
40
1
40
1
40
1
40
1
41
1
10
8.51888562291575
20
1.06763957005515
30
0
41
1
10
8.53198106262741
20
1.0727760648231
30
0
41
1
10
8.54507892858521
20
1.0778808625096
30
0
41
1
10
8.71413474948065
20
1.14334227482863
30
0
41
1
10
8.87002715382914
20
1.19895922367749
30
0
41
1
10
9.18117436645679
20
1.29885497457173
30
0
41
1
10
9.33657640367557
20
1.34332561467323
30
0
41
1
10
9.64819882910825
20
1.42011682783371
30
0
41
1
10
9.80423680931503
20
1.45249162802651
30
0
41
1
10
10.1154123870704
20
1.50386886414387
30
0
41
1
10
10.2707342625447
20
1.52304143298133
30
0
41
1
10
10.5820963633858
20
1.54779292995809
30
0
41
1
10
10.7381781223222
20
1.55338622700577
30
0
41
1
10
11.0494059205584
20
1.55075430133724
30
0
41
1
10
11.2046803615404
20
1.54256384491708
30
0
41
1
10
11.5158108637848
20
1.51265849868315
30
0
41
1
10
11.6718356683746
20
1.49082128969141
30
0
41
1
10
11.9831473683643
20
1.43432578789174
30
0
41
1
10
12.1384085162537
20
1.3995999896544
30
0
41
1
10
12.4493445113567
20
1.31813649502499
30
0
41
1
10
12.605216861969
20
1.27118638005265
30
0
41
1
10
12.9166437012223
20
1.16661783194871
30
0
41
1
10
13.0719235263608
20
1.10899211362261
30
0
41
1
10
13.5380799119271
20
0.922197482088279
30
0
41
1
10
13.8498847016211
20
0.778411259700619
30
0
41
1
10
14.4711622562442
20
0.469239790685606
30
0
41
1
10
14.7829601490059
20
0.302937866919052
30
0
41
1
10
15.2487888349786
20
0.0502737757553859
30
0
41
1
10
15.4040594523607
20
-0.0344512863139812
30
0
41
1
10
15.7153024079212
20
-0.20359777202907
30
0
41
1
10
15.8710152448995
20
-0.287589025624669
30
0
41
1
10
16.1815231666409
20
-0.452219478112738
30
0
41
1
10
16.3367256667931
20
-0.532748818789571
30
0
41
1
10
16.6476590378944
20
-0.689108013444979
30
0
41
1
10
16.8035229770974
20
-0.76464388275582
30
0
41
1
10
17.1140286255475
20
-0.908162987741434
30
0
41
1
10
17.2691766919176
20
-0.976054542415
30
0
41
1
10
17.5798503372088
20
-1.1032136132028
30
0
41
1
10
17.7357540063915
20
-1.16230163580011
30
0
41
1
10
18.0463105623954
20
-1.26957816648164
30
0
41
1
10
18.2014010890361
20
-1.31771980568186
30
0
41
1
10
18.5118862423746
20
-1.4023062631972
30
0
41
1
10
18.6676966480169
20
-1.43870928733972
30
0
41
1
10
18.9783749460735
20
-1.49839038978342
30
0
41
1
10
19.1333935947712
20
-1.52170629132755
30
0
41
1
10
19.4437464241827
20
-1.55484984281853
30
0
41
1
10
19.5993586423745
20
-1.56468669315311
30
0
41
1
10
19.7839826746463
20
-1.56810666100606
30
0
41
1
10
19.8131815694665
20
-1.56840222202351
30
0
41
1
10
19.8423720762403
20
-1.56845307410171
30
0
0
SPLINE
5
B7
100
AcDbEntity
8
1
62
256
6
ByLayer
370
18
48
1
60
0
100
AcDbSpline
70
4
71
3
72
44
73
40
40
0
40
0
40
0
40
0
40
0.0205336374740818
40
0.0205336374740818
40
0.0631191314969481
40
0.0631191314969481
40
0.105704625519814
40
0.105704625519814
40
0.148290119542681
40
0.148290119542681
40
0.233461107588411
40
0.233461107588411
40
0.318632095634141
40
0.318632095634141
40
0.403803083679871
40
0.403803083679871
40
0.446388577702737
40
0.446388577702737
40
0.488974071725603
40
0.488974071725603
40
0.53155956574847
40
0.53155956574847
40
0.574145059771336
40
0.574145059771336
40
0.616730553794202
40
0.616730553794202
40
0.659316047817069
40
0.659316047817069
40
0.701901541839935
40
0.701901541839935
40
0.744487035862802
40
0.744487035862802
40
0.787072529885668
40
0.787072529885668
40
0.829658023908534
40
0.829658023908534
40
0.914829011954267
40
0.914829011954267
40
1
40
1
40
1
40
1
41
1
10
26.5113256402613
20
1.08460703688908
30
0
41
1
10
26.5861698188231
20
1.11471062913958
30
0
41
1
10
26.6610267707803
20
1.14372150672619
30
0
41
1
10
26.8908103034534
20
1.2291989167656
30
0
41
1
10
27.0455790051395
20
1.28152319305877
30
0
41
1
10
27.3551803075251
20
1.37485619888693
30
0
41
1
10
27.5104814208481
20
1.41575526017877
30
0
41
1
10
27.8206590248923
20
1.48485754034965
30
0
41
1
10
27.975404285285
20
1.51291564463355
30
0
41
1
10
28.4396559182333
20
1.57710953510647
30
0
41
1
10
28.7502492094416
20
1.59284597794456
30
0
41
1
10
29.3691600513878
20
1.56838958560877
30
0
41
1
10
29.6796080856681
20
1.52805000555691
30
0
41
1
10
30.2984357088179
20
1.39602821986148
30
0
41
1
10
30.6087209464625
20
1.30370514500478
30
0
41
1
10
31.0727905423957
20
1.1342145008837
30
0
41
1
10
31.227284056634
20
1.07241874455721
30
0
41
1
10
31.5371602858992
20
0.939840740145797
30
0
41
1
10
31.6922691285796
20
0.868881375578468
30
0
41
1
10
32.0016272015213
20
0.720580556469315
30
0
41
1
10
32.1560763438308
20
0.642903079258588
30
0
41
1
10
32.4656918206554
20
0.482392200377433
30
0
41
1
10
32.620888448403
20
0.399343290566037
30
0
41
1
10
32.9302307527113
20
0.231071961781879
30
0
41
1
10
33.0846623625383
20
0.145614731123828
30
0
41
1
10
33.3940295892105
20
-0.0261815735546804
30
0
41
1
10
33.5492478322985
20
-0.11264117635011
30
0
41
1
10
33.8585972851974
20
-0.283421216113396
30
0
41
1
10
34.0130225804807
20
-0.36777448227167
30
0
41
1
10
34.3221772257977
20
-0.532986575777414
30
0
41
1
10
34.4773389646906
20
-0.613841163439218
30
0
41
1
10
34.7867331661713
20
-0.769344311737711
30
0
41
1
10
34.9411569630076
20
-0.843837403913341
30
0
41
1
10
35.2501343167608
20
-0.985267365821613
30
0
41
1
10
35.4051758216528
20
-1.05210917332621
30
0
41
1
10
35.8692968718543
20
-1.23808167363907
30
0
41
1
10
36.1770638469442
20
-1.34178569362823
30
0
41
1
10
36.7963173833679
20
-1.50089877244238
30
0
41
1
10
37.1043694516385
20
-1.55504078243234
30
0
41
1
10
37.4132241936721
20
-1.58167224442559
30
0
0
SPLINE
5
B8
100
AcDbEntity
8
1
62
256
6
ByLayer
370
13
48
1
60
0
100
AcDbSpline
70
4
71
3
72
29
73
25
40
0
40
0
40
0
40
0
40
0.0540166728155142
40
0.0776215229715206
40
0.124831223283491
40
0.172040923595445
40
0.242855474063422
40
0.266460324219377
40
0.313670024531358
40
0.360879724843291
40
0.431694275311287
40
0.455299125467234
40
0.502508825779204
40
0.549718526091164
40
0.620533076559093
40
0.644137926715091
40
0.691347627027051
40
0.738557327339026
40
0.809371877806936
40
0.832976727962945
40
0.880186428274921
40
0.927396128586869
40
0.998210679054817
40
1
40
1
40
1
40
1
41
1.00000000000003
10
37.7289789688971
20
0.773286485823012
30
0
41
1.00000000000003
10
37.7062594310176
20
0.773097577120557
30
0
41
1.00000000000003
10
37.6736120847423
20
0.772724725785656
30
0
41
1.00000000000003
10
37.6211077800106
20
0.771880062439555
30
0
41
1.00000000000003
10
37.5714644481213
20
0.770858109625726
30
0
41
1.00000000000003
10
37.5019646624715
20
0.769042705671216
30
0
41
1.00000000000003
10
37.4423961327559
20
0.767089025561665
30
0
41
1.00000000000003
10
37.3828266046226
20
0.764799912647765
30
0
41
1.00000000000003
10
37.3331832719653
20
0.762672990568211
30
0
41
1.00000000000003
10
37.2636834762814
20
0.759315128452618
30
0
41
1.00000000000003
10
37.2041149266557
20
0.756041987339279
30
0
41
1.00000000000003
10
37.1445453672956
20
0.752437709309282
30
0
41
1.00000000000003
10
37.0949020018127
20
0.749219866510634
30
0
41
1.00000000000003
10
37.0254021576806
20
0.744340937569183
30
0
41
1.00000000000003
10
36.965833573825
20
0.739768437073883
30
0
41
1.00000000000003
10
36.9062639979819
20
0.734870620567967
30
0
41
1.00000000000003
10
36.8566206341239
20
0.730580885476576
30
0
41
1.00000000000003
10
36.7871208138341
20
0.724210205508718
30
0
41
1.00000000000003
10
36.7275522637047
20
0.718367316817314
30
0
41
1.00000000000003
10
36.6679827208172
20
0.712209349917607
30
0
41
1.00000000000003
10
36.6183393809377
20
0.706878600971358
30
0
41
1.00000000000003
10
36.5488395857899
20
0.699063931698426
30
0
41
1.00000000000003
10
36.4984465566954
20
0.693084108927032
30
0
41
1.00000000000003
10
36.4679093120427
20
0.689341015625992
30
0
41
1.00000000000003
10
36.4671567219831
20
0.689248694607081
30
0
0
SPLINE
5
B9
100
AcDbEntity
8
1
62
256
6
ByLayer
370
13
48
1
60
0
100
AcDbSpline
70
4
71
3
72
103
73
99
40
0
40
0
40
0
40
0
40
0.0077285349660293
40
0.0129788820819595
40
0.0234795763138201
40
0.03398027054568
40
0.0497313118934708
40
0.0549816590094011
40
0.0654823532412616
40
0.0759830474731216
40
0.0917340888209123
40
0.0969844359368426
40
0.107485130168702
40
0.117985824400563
40
0.133736865748354
40
0.138987212864284
40
0.149487907096144
40
0.159988601328005
40
0.175739642675795
40
0.180989989791725
40
0.191490684023586
40
0.201991378255446
40
0.217742419603236
40
0.222992766719167
40
0.233493460951027
40
0.243994155182887
40
0.259745196530678
40
0.264995543646608
40
0.275496237878466
40
0.285996932110328
40
0.301747973458119
40
0.30699832057405
40
0.317499014805908
40
0.327999709037769
40
0.343750750385566
40
0.349001097501491
40
0.359501791733352
40
0.370002485965209
40
0.385753527313004
40
0.391003874428932
40
0.401504568660791
40
0.412005262892648
40
0.427756304240443
40
0.433006651356374
40
0.443507345588235
40
0.454008039820094
40
0.469759081167886
40
0.475009428283814
40
0.485510122515675
40
0.496010816747534
40
0.511761858095326
40
0.517012205211257
40
0.527512899443118
40
0.538013593674975
40
0.553764635022768
40
0.559014982138698
40
0.569515676370557
40
0.580016370602419
40
0.595767411950206
40
0.601017759066139
40
0.611518453297997
40
0.622019147529857
40
0.637770188877647
40
0.643020535993581
40
0.65352123022544
40
0.664021924457299
40
0.679772965805091
40
0.685023312921022
40
0.695524007152883
40
0.70602470138474
40
0.721775742732536
40
0.727026089848464
40
0.737526784080324
40
0.748027478312185
40
0.763778519659975
40
0.769028866775905
40
0.779529561007766
40
0.790030255239626
40
0.805781296587415
40
0.811031643703346
40
0.821532337935208
40
0.832033032167065
40
0.847784073514856
40
0.853034420630788
40
0.863535114862649
40
0.874035809094508
40
0.889786850442297
40
0.895037197558229
40
0.905537891790089
40
0.91603858602195
40
0.931789627369739
40
0.93703997448567
40
0.947540668717531
40
0.958041362949391
40
0.973792404297182
40
0.979042751413112
40
0.989543445644971
40
1
40
1
40
1
40
1
41
1.00000000000003
10
24.1226325551967
20
0.0526975838791641
30
0
41
1.00000000000003
10
24.1080182143811
20
0.0566376902424946
30
0
41
1.00000000000003
10
24.0834757676938
20
0.0632528736463465
30
0
41
1.00000000000003
10
24.0390765473347
20
0.0752088620218933
30
0
41
1.00000000000003
10
23.9894331900264
20
0.0885328975451189
30
0
41
1.00000000000003
10
23.9199333633045
20
0.107138306245926
30
0
41
1.00000000000003
10
23.8603647980364
20
0.123057203793021
30
0
41
1.00000000000003
10
23.8007952405992
20
0.138923773093946
30
0
41
1.00000000000003
10
23.7511518902433
20
0.152084148526849
30
0
41
1.00000000000003
10
23.6816520865268
20
0.17042905010913
30
0
41
1.00000000000003
10
23.6220835506527
20
0.186092228708753
30
0
41
1.00000000000003
10
23.5625140250214
20
0.201676018497943
30
0
41
1.00000000000003
10
23.5128707012177
20
0.214583227591583
30
0
41
1.00000000000003
10
23.4433709300131
20
0.232542929771704
30
0
41
1.00000000000003
10
23.3838024123266
20
0.247843546880879
30
0
41
1.00000000000003
10
23.3242328915388
20
0.263037407461659
30
0
41
1.00000000000003
10
23.2745895610894
20
0.275602058320848
30
0
41
1.00000000000003
10
23.2050897658259
20
0.29305135076614
30
0
41
1.00000000000003
10
23.1455212187285
20
0.307882257954466
30
0
41
1.00000000000003
10
23.0859516696175
20
0.322579897534912
30
0
41
1.00000000000003
10
23.0363083191273
20
0.334714259863365
30
0
41
1.00000000000003
10
22.9668085013145
20
0.351531603871468
30
0
41
1.00000000000003
10
22.9072399380996
20
0.365789801290493
30
0
41
1.00000000000003
10
22.8476703723329
20
0.379889361673509
30
0
41
1.00000000000003
10
22.7980270079165
20
0.391509471807995
30
0
41
1.00000000000003
10
22.7285271745654
20
0.407578726444273
30
0
41
1.00000000000003
10
22.6689586054194
20
0.421165970909856
30
0
41
1.00000000000003
10
22.6093890435992
20
0.434570458760377
30
0
41
1.00000000000003
10
22.5597456890315
20
0.445596475934779
30
0
41
1.00000000000003
10
22.4902458786133
20
0.46080730848847
30
0
41
1.00000000000003
10
22.4306773361552
20
0.47363028177925
30
0
41
1.00000000000003
10
22.371107803266
20
0.486247481700232
30
0
41
1.00000000000003
10
22.3214644734646
20
0.496603429874127
30
0
41
1.00000000000003
10
22.2519646947288
20
0.510850851282483
30
0
41
1.00000000000003
10
22.1923961717893
20
0.522820914461603
30
0
41
1.00000000000003
10
22.1328266470469
20
0.534563576494476
30
0
41
1.00000000000003
10
22.0831833152389
20
0.54417783630488
30
0
41
1.00000000000003
10
22.0136835222151
20
0.557363284890681
30
0
41
1.00000000000003
10
21.9541149807421
20
0.568397579600383
30
0
41
1.00000000000003
10
21.8945454396316
20
0.579184355042667
30
0
41
1.00000000000003
10
21.8449020961154
20
0.587990277157171
30
0
41
1.00000000000003
10
21.7754022910551
20
0.600022239042385
30
0
41
1.00000000000003
10
21.7158337458793
20
0.610044039414741
30
0
41
1.00000000000003
10
21.6562642084625
20
0.61979977609739
30
0
41
1.00000000000003
10
21.6066208738413
20
0.627735906388902
30
0
41
1.00000000000003
10
21.5371210845104
20
0.638530447213166
30
0
41
1.00000000000003
10
21.4775525472469
20
0.647470123159687
30
0
41
1.00000000000003
10
21.4179830024436
20
0.656127561482501
30
0
41
1.00000000000003
10
21.3683396504588
20
0.663139580840331
30
0
41
1.00000000000003
10
21.2988398240943
20
0.672623305603886
30
0
41
1.00000000000003
10
21.2392712494647
20
0.680420327503136
30
0
41
1.00000000000003
10
21.1797016724999
20
0.687920725250799
30
0
41
1.00000000000003
10
21.1300582992279
20
0.693960910093644
30
0
41
1.00000000000003
10
21.0605584539404
20
0.702068964959445
30
0
41
1.00000000000003
10
21.0009898751087
20
0.708669644134723
30
0
41
1.00000000000003
10
20.9414203040595
20
0.714961016672767
30
0
41
1.00000000000003
10
20.8917769421014
20
0.719987276599461
30
0
41
1.00000000000003
10
20.8222771208896
20
0.726662703259598
30
0
41
1.00000000000003
10
20.7627085676313
20
0.732020135627983
30
0
41
1.00000000000003
10
20.7031390214209
20
0.737057289639586
30
0
41
1.00000000000003
10
20.653495678694
20
0.741033186556939
30
0
41
1.00000000000003
10
20.5839958821284
20
0.746227522105449
30
0
41
1.00000000000003
10
20.5244273480611
20
0.750303348146878
30
0
41
1.00000000000003
10
20.4648578201616
20
0.75405139396114
30
0
41
1.00000000000003
10
20.415214491454
20
0.756950322590092
30
0
41
1.00000000000003
10
20.3457147106819
20
0.760630041311549
30
0
41
1.00000000000003
10
20.2861461854817
20
0.763398719064844
30
0
41
1.00000000000003
10
20.2265766619821
20
0.765834084764469
30
0
41
1.00000000000003
10
20.1769333332539
20
0.767637607975564
30
0
41
1.00000000000003
10
20.1074335429962
20
0.769778853513605
30
0
41
1.00000000000003
10
20.0478649976945
20
0.771221869056381
30
0
41
1.00000000000003
10
19.9882954421
20
0.772327737765868
30
0
41
1.00000000000003
10
19.9386520793267
20
0.773023018192935
30
0
41
1.00000000000003
10
19.8691522380869
20
0.773609748791648
30
0
41
1.00000000000003
10
19.8095836556615
20
0.773715289716312
30
0
41
1.00000000000003
10
19.7500140803195
20
0.773481559652031
30
0
41
1.00000000000003
10
19.7003707161172
20
0.773061356760683
30
0
41
1.00000000000003
10
19.6308708938387
20
0.772086168310556
30
0
41
1.00000000000003
10
19.571302340507
20
0.770851534887418
30
0
41
1.00000000000003
10
19.5117327933359
20
0.769279572565443
30
0
41
1.00000000000003
10
19.4620894492018
20
0.767747867442699
30
0
41
1.00000000000003
10
19.3925896469482
20
0.765220584359048
30
0
41
1.00000000000003
10
19.3330211009447
20
0.762657763949198
30
0
41
1.00000000000003
10
19.2734515518158
20
0.759761482924949
30
0
41
1.00000000000003
10
19.2238081990148
20
0.757130929807721
30
0
41
1.00000000000003
10
19.1543083778159
20
0.753071032632482
30
0
41
1.00000000000003
10
19.09473981621
20
0.74919852088201
30
0
41
1.00000000000003
10
19.0351702613257
20
0.744997970320077
30
0
41
1.00000000000003
10
18.985526912176
20
0.741286308248653
30
0
41
1.00000000000003
10
18.9160271089577
20
0.735720343190343
30
0
41
1.00000000000003
10
18.8564585730244
20
0.730562625507196
30
0
41
1.00000000000003
10
18.7968890479099
20
0.725083743341606
30
0
41
1.00000000000003
10
18.7472457246032
20
0.720313531922734
30
0
41
1.00000000000003
10
18.6777459525174
20
0.71327563887926
30
0
41
1.00000000000003
10
18.6181774311883
20
0.706865685137707
30
0
41
1.00000000000003
10
18.5586079029099
20
0.700145725630627
30
0
41
1.00000000000003
10
18.5090480343716
20
0.694360713808501
30
0
41
1.00000000000003
10
18.4694173252719
20
0.689538253937834
30
0
41
1.00000000000003
10
18.449644062007
20
0.687083917777649
30
0
0
SPLINE
5
BA
100
AcDbEntity
8
1
62
256
6
ByLayer
370
18
48
1
60
0
100
AcDbSpline
70
4
71
3
72
36
73
32
40
0
40
0
40
0
40
0
40
0.0744335157142162
40
0.0744335157142162
40
0.124285976166999
40
0.124285976166999
40
0.174138436619782
40
0.174138436619782
40
0.27384335752535
40
0.27384335752535
40
0.323695817978133
40
0.323695817978133
40
0.373548278430916
40
0.373548278430916
40
0.473253199336482
40
0.473253199336482
40
0.572958120242048
40
0.572958120242048
40
0.622810580694831
40
0.622810580694831
40
0.672663041147614
40
0.672663041147614
40
0.772367962053178
40
0.772367962053178
40
0.822220422505959
40
0.822220422505959
40
0.87207288295874
40
0.87207288295874
40
0.971777803864303
40
0.971777803864303
40
1
40
1
40
1
40
1
41
1
10
11.4302611601668
20
1.55330459076677
30
0
41
1
10
11.6721857604599
20
1.55340745246039
30
0
41
1
10
11.9128907101474
20
1.53688372573822
30
0
41
1
10
12.3157413531433
20
1.48249511412499
30
0
41
1
10
12.4774318220327
20
1.45340539369508
30
0
41
1
10
12.802371153611
20
1.38118029661584
30
0
41
1
10
12.9663904987863
20
1.33784652829999
30
0
41
1
10
13.4555079874405
20
1.1895017643545
30
0
41
1
10
13.7777624355966
20
1.06652048709256
30
0
41
1
10
14.2618890343719
20
0.85518784297733
30
0
41
1
10
14.4234561565757
20
0.780388570360628
30
0
41
1
10
14.7476714221047
20
0.623060908043215
30
0
41
1
10
14.9107572331716
20
0.540267969672612
30
0
41
1
10
15.4008677038128
20
0.285216974393109
30
0
41
1
10
15.7233470329173
20
0.10829315075901
30
0
41
1
10
16.3684396206398
20
-0.243111078643977
30
0
41
1
10
16.6909135656647
20
-0.417852149025691
30
0
41
1
10
17.1810401755807
20
-0.666318254833868
30
0
41
1
10
17.3440035921722
20
-0.74598592789755
30
0
41
1
10
17.667915580236
20
-0.896783160524961
30
0
41
1
10
17.8290854017959
20
-0.968223866127573
30
0
41
1
10
18.3127006162841
20
-1.16711809201888
30
0
41
1
10
18.6347498870458
20
-1.27994069267598
30
0
41
1
10
19.1233748329008
20
-1.41122727927288
30
0
41
1
10
19.2868765310217
20
-1.44855099534655
30
0
41
1
10
19.6111081842142
20
-1.50818404987192
30
0
41
1
10
19.7726336950585
20
-1.53070130144425
30
0
41
1
10
20.2564519307756
20
-1.57636668129439
30
0
41
1
10
20.5777553157622
20
-1.57744442898732
30
0
41
1
10
20.9947499277654
20
-1.54003670697242
30
0
41
1
10
21.0871800915697
20
-1.52932531345337
30
0
41
1
10
21.1795254178856
20
-1.51627250806558
30
0
0
SPLINE
5
BB
100
AcDbEntity
8
1
62
256
6
ByLayer
370
18
48
1
60
0
100
AcDbSpline
70
4
71
3
72
34
73
30
40
0
40
0
40
0
40
0
40
0.0262098121307984
40
0.0262098121307984
40
0.147933585614451
40
0.147933585614451
40
0.208795472356276
40
0.208795472356276
40
0.269657359098101
40
0.269657359098101
40
0.391381132581754
40
0.391381132581754
40
0.452243019323581
40
0.452243019323581
40
0.513104906065407
40
0.513104906065407
40
0.634828679549056
40
0.634828679549056
40
0.695690566290881
40
0.695690566290881
40
0.756552453032706
40
0.756552453032706
40
0.878276226516355
40
0.878276226516355
40
0.93913811325818
40
0.93913811325818
40
0.96956905662909
40
0.96956905662909
40
1
40
1
40
1
40
1
41
1
10
29.4263823611747
20
1.5856913939248
30
0
41
1
10
29.4963212283694
20
1.58575141075022
30
0
41
1
10
29.5661367020457
20
1.58440037923438
30
0
41
1
10
29.9588432264742
20
1.56884652266248
30
0
41
1
10
30.2793617362554
20
1.52601585829126
30
0
41
1
10
30.762098334607
20
1.41963030518357
30
0
41
1
10
30.9233937963118
20
1.37717581481778
30
0
41
1
10
31.2478383426465
20
1.27890775627131
30
0
41
1
10
31.4110980671546
20
1.22297780785507
30
0
41
1
10
31.896283038495
20
1.03989818589613
30
0
41
1
10
32.2166127313667
20
0.896642745306906
30
0
41
1
10
32.6988620588136
20
0.659779593771447
30
0
41
1
10
32.8598361458399
20
0.577048940619392
30
0
41
1
10
33.1834948673871
20
0.406009024109977
30
0
41
1
10
33.3468225049174
20
0.317420257070808
30
0
41
1
10
33.8326534173471
20
0.0503932555617723
30
0
41
1
10
34.1529837650571
20
-0.130437022250305
30
0
41
1
10
34.6347750212914
20
-0.393793656399112
30
0
41
1
10
34.7955833505259
20
-0.480275250725839
30
0
41
1
10
35.1185729880222
20
-0.648893714819081
30
0
41
1
10
35.2816065673855
20
-0.731276757088693
30
0
41
1
10
35.7677703580065
20
-0.965220809593717
30
0
41
1
10
36.0875897907459
20
-1.1038569971312
30
0
41
1
10
36.5675454697732
20
-1.27753666694844
30
0
41
1
10
36.7275800682236
20
-1.32971859079186
30
0
41
1
10
36.9684110530601
20
-1.39858079548145
30
0
41
1
10
37.0488119008052
20
-1.4199714757944
30
0
41
1
10
37.209984421021
20
-1.45946778972683
30
0
41
1
10
37.2904534609261
20
-1.4777794866614
30
0
41
1
10
37.3719097289355
20
-1.49385961071874
30
0
0
SPLINE
5
BC
100
AcDbEntity
8
1
62
256
6
ByLayer
370
18
48
1
60
0
100
AcDbSpline
70
4
71
3
72
8
73
4
40
0
40
0
40
0
40
0
40
1
40
1
40
1
40
1
41
1
10
37.3199146759128
20
0.253688562880512
30
0
41
1
10
37.3755829610261
20
0.215323690479806
30
0
41
1
10
37.4316502391985
20
0.178598291328399
30
0
41
1
10
37.4881574019284
20
0.143680389697721
30
0
0
SPLINE
5
BD
100
AcDbEntity
8
1
62
256
6
ByLayer
370
18
48
1
60
0
100
AcDbSpline
70
4
71
1
72
4
73
2
40
0
40
0
40
1
40
1
41
1
10
37.3795586671805
20
-1.50252275938374
30
0
41
1
10
37.719814790097
20
-0.353837339217364
30
0
0
SPLINE
5
BE
100
AcDbEntity
8
1
62
256
6
ByLayer
370
18
48
1
60
0
100
AcDbSpline
70
4
71
3
72
24
73
20
40
0
40
0
40
0
40
0
40
0.0840125081447286
40
0.0840125081447286
40
0.168025016289457
40
0.168025016289457
40
0.336050032578912
40
0.336050032578912
40
0.420062540723639
40
0.420062540723639
40
0.504075048868366
40
0.504075048868366
40
0.672100065157823
40
0.672100065157823
40
0.756112573302552
40
0.756112573302552
40
0.840125081447281
40
0.840125081447281
40
1
40
1
40
1
40
1
41
1
10
6.30622461604565
20
0.330945924631408
30
0
41
1
10
6.47013396797527
20
0.244556638531947
30
0
41
1
10
6.6337081092276
20
0.15658735230636
30
0
41
1
10
6.96161417964652
20
-0.0198715082966316
30
0
41
1
10
7.12480184396867
20
-0.108100966072584
30
0
41
1
10
7.61178147322966
20
-0.369137912777092
30
0
41
1
10
7.93406185034669
20
-0.538081308353526
30
0
41
1
10
8.41990089712075
20
-0.773129459045805
30
0
41
1
10
8.58222991294272
20
-0.848448686630491
30
0
41
1
10
8.90889705885661
20
-0.990846175730638
30
0
41
1
10
9.07283898564927
20
-1.05782674362112
30
0
41
1
10
9.56033332974562
20
-1.24096534910748
30
0
41
1
10
9.88255680993183
20
-1.34036564257661
30
0
41
1
10
10.3676324441648
20
-1.44957100362962
30
0
41
1
10
10.5297101293331
20
-1.47925142297555
30
0
41
1
10
10.8555326252059
20
-1.52433698849265
30
0
41
1
10
11.0197572647102
20
-1.53968326321012
30
0
41
1
10
11.4920621113646
20
-1.56204066198629
30
0
41
1
10
11.7987043005902
20
-1.54937734064288
30
0
41
1
10
12.106064098332
20
-1.5105915293027
30
0
0
SPLINE
5
BF
100
AcDbEntity
8
1
62
256
6
ByLayer
370
18
48
1
60
0
100
AcDbSpline
70
4
71
3
72
38
73
34
40
0
40
0
40
0
40
0
40
0.0492253817323019
40
0.0492253817323019
40
0.099192556759243
40
0.099192556759243
40
0.149159731786184
40
0.149159731786184
40
0.249094081840068
40
0.249094081840068
40
0.29906125686701
40
0.29906125686701
40
0.349028431893952
40
0.349028431893952
40
0.448962781947834
40
0.448962781947834
40
0.498929956974776
40
0.498929956974776
40
0.548897132001717
40
0.548897132001717
40
0.648831482055597
40
0.648831482055597
40
0.698798657082538
40
0.698798657082538
40
0.748765832109478
40
0.748765832109478
40
0.848700182163355
40
0.848700182163355
40
0.898667357190294
40
0.898667357190294
40
0.948634532217233
40
0.948634532217233
40
1
40
1
40
1
40
1
41
1
10
20.4219920098493
20
1.56946560920116
30
0
41
1
10
20.5808429945335
20
1.5697508256994
30
0
41
1
10
20.739997578501
20
1.56280753871371
30
0
41
1
10
21.0625079153581
20
1.53404059971578
30
0
41
1
10
21.2263407038236
20
1.51187915735809
30
0
41
1
10
21.5510034016259
20
1.45350251879196
30
0
41
1
10
21.7124074771133
20
1.41724328681258
30
0
41
1
10
22.195826103123
20
1.28911956269212
30
0
41
1
10
22.5171601880589
20
1.17813595018785
30
0
41
1
10
23.0032206001096
20
0.979069134137916
30
0
41
1
10
23.1666583251908
20
0.906875405877514
30
0
41
1
10
23.4917534048687
20
0.755251476472239
30
0
41
1
10
23.6534914116526
20
0.676055621820154
30
0
41
1
10
24.1372712269593
20
0.430162813465131
30
0
41
1
10
24.4578610760173
20
0.255070663625304
30
0
41
1
10
24.9430086277963
20
-0.0114676420404578
30
0
41
1
10
25.1057649877989
20
-0.101585690868035
30
0
41
1
10
25.4314314852156
20
-0.279905254273729
30
0
41
1
10
25.5933044081555
20
-0.367441511175059
30
0
41
1
10
26.0773518425851
20
-0.623053456904273
30
0
41
1
10
26.3976317754276
20
-0.784610002592188
30
0
41
1
10
26.8819556643062
20
-1.00109522133468
30
0
41
1
10
27.0438573325366
20
-1.06925199722983
30
0
41
1
10
27.3699652125782
20
-1.19532008428831
30
0
41
1
10
27.5320363976387
20
-1.25264191325917
30
0
41
1
10
28.0162070699799
20
-1.40515989734385
30
0
41
1
10
28.3367364018218
20
-1.4812089999466
30
0
41
1
10
28.8200935604685
20
-1.55233693136708
30
0
41
1
10
28.9817042713771
20
-1.56884808190418
30
0
41
1
10
29.3070011230631
20
-1.58676583165158
30
0
41
1
10
29.4698563383641
20
-1.58807765496752
30
0
41
1
10
29.7974713344853
20
-1.57537420853026
30
0
41
1
10
29.962844861308
20
-1.56100119373954
30
0
41
1
10
30.1280554401407
20
-1.53895763935535
30
0
0
SPLINE
5
C0
100
AcDbEntity
8
1
62
256
6
ByLayer
370
13
48
1
60
0
100
AcDbSpline
70
4
71
3
72
30
73
26
40
0
40
0
40
0
40
0
40
0.14000729648116
40
0.14000729648116
40
0.21001094472174
40
0.21001094472174
40
0.28001459296232
40
0.28001459296232
40
0.42002188944348
40
0.42002188944348
40
0.490025537684059
40
0.490025537684059
40
0.560029185924639
40
0.560029185924639
40
0.630032834165219
40
0.630032834165219
40
0.700036482405799
40
0.700036482405799
40
0.840043778886959
40
0.840043778886959
40
0.910047427127539
40
0.910047427127539
40
0.980051075368119
40
0.980051075368119
40
1
40
1
40
1
40
1
41
1
10
37.3408748413532
20
-1.35646012570427
30
0
41
1
10
37.0177441402813
20
-1.27286514385534
30
0
41
1
10
36.6961666276824
20
-1.16445513089053
30
0
41
1
10
36.2110988499753
20
-0.970340218246179
30
0
41
1
10
36.0503168151264
20
-0.900758068509646
30
0
41
1
10
35.7296414098272
20
-0.755221539179644
30
0
41
1
10
35.5697998919179
20
-0.678974058576216
30
0
41
1
10
35.0907658758113
20
-0.44144112394315
30
0
41
1
10
34.77157437149
20
-0.272086512785165
30
0
41
1
10
34.2870622010156
20
-0.0124895563349128
30
0
41
1
10
34.1253995581585
20
0.0746361646673392
30
0
41
1
10
33.8041305834802
20
0.246122749610379
30
0
41
1
10
33.644022546193
20
0.33078361380214
30
0
41
1
10
33.3237118227103
20
0.495904802592179
30
0
41
1
10
33.1635404839559
20
0.576452059028696
30
0
41
1
10
32.8424338251584
20
0.732115981237854
30
0
41
1
10
32.6812139148036
20
0.807229673439451
30
0
41
1
10
32.1957470748441
20
1.0196892712672
30
0
41
1
10
31.8756371967046
20
1.14313772467213
30
0
41
1
10
31.3948913979016
20
1.29289247349217
30
0
41
1
10
31.2345420135916
20
1.33694550544328
30
0
41
1
10
30.9125225687121
20
1.41226775384243
30
0
41
1
10
30.7502422709572
20
1.44370485553881
30
0
41
1
10
30.54283514227
20
1.47488703050877
30
0
41
1
10
30.496898347498
20
1.48121291223691
30
0
41
1
10
30.451010620663
20
1.48695127196007
30
0
0
SPLINE
5
C1
100
AcDbEntity
8
1
62
256
6
ByLayer
370
13
48
1
60
0
100
AcDbSpline
70
4
71
3
72
38
73
34
40
0
40
0
40
0
40
0
40
0.0378832030297253
40
0.0378832030297253
40
0.0950225318549727
40
0.0950225318549727
40
0.15216186068022
40
0.15216186068022
40
0.209301189505467
40
0.209301189505467
40
0.323579847155962
40
0.323579847155962
40
0.380719175981211
40
0.380719175981211
40
0.43785850480646
40
0.43785850480646
40
0.494997833631708
40
0.494997833631708
40
0.552137162456957
40
0.552137162456957
40
0.609276491282206
40
0.609276491282206
40
0.666415820107454
40
0.666415820107454
40
0.723555148932703
40
0.723555148932703
40
0.780694477757951
40
0.780694477757951
40
0.89497313540845
40
0.89497313540845
40
0.952112464233699
40
0.952112464233699
40
1
40
1
40
1
40
1
41
1
10
20.7667264015727
20
-1.51268806498678
30
0
41
1
10
20.6601809838161
20
-1.51243189069936
30
0
41
1
10
20.5536779683622
20
-1.50908684701446
30
0
41
1
10
20.2863709822952
20
-1.49291474973262
30
0
41
1
10
20.1255653681509
20
-1.47596227863409
30
0
41
1
10
19.8020073611204
20
-1.4275140205902
30
0
41
1
10
19.6391343130812
20
-1.39638932232469
30
0
41
1
10
19.316072362756
20
-1.3217181865792
30
0
41
1
10
19.1552567178704
20
-1.27800330307969
30
0
41
1
10
18.6729356162665
20
-1.12947126838088
30
0
41
1
10
18.351728455408
20
-1.00754619472662
30
0
41
1
10
17.8649869346369
20
-0.797679640748669
30
0
41
1
10
17.7029799464521
20
-0.723183767050244
30
0
41
1
10
17.38035409078
20
-0.569695267819412
30
0
41
1
10
17.2194799788545
20
-0.490297691009744
30
0
41
1
10
16.8979057694745
20
-0.327500231563022
30
0
41
1
10
16.737347848166
20
-0.243801802104969
30
0
41
1
10
16.4147949964926
20
-0.0752841957637997
30
0
41
1
10
16.2527336850894
20
0.0098762655548512
30
0
41
1
10
15.9278324834041
20
0.18010044956506
30
0
41
1
10
15.7664766971111
20
0.26464601304275
30
0
41
1
10
15.4441701862013
20
0.429057486900291
30
0
41
1
10
15.2832825778736
20
0.509178570746172
30
0
41
1
10
14.9615478539498
20
0.664384951438535
30
0
41
1
10
14.8007667450352
20
0.73953737348441
30
0
41
1
10
14.4776682400213
20
0.881766819165449
30
0
41
1
10
14.3147722645371
20
0.949248095775516
30
0
41
1
10
13.828375332436
20
1.13704824031024
30
0
41
1
10
13.5074356401459
20
1.2415130287194
30
0
41
1
10
13.024390183664
20
1.36024426496115
30
0
41
1
10
12.8630562579253
20
1.39358245751387
30
0
41
1
10
12.5654884807651
20
1.44286946857983
30
0
41
1
10
12.4290960388739
20
1.4606648705747
30
0
41
1
10
12.2932458590071
20
1.47319486835357
30
0
0
SPLINE
5
C2
100
AcDbEntity
8
1
62
256
6
ByLayer
370
13
48
1
60
0
100
AcDbSpline
70
4
71
3
72
103
73
99
40
0
40
0
40
0
40
0
40
0.0017080495789038
40
0.007000518525508
40
0.0175854564187152
40
0.0281703943119205
40
0.0440478011517253
40
0.0493402700983313
40
0.0599252079915355
40
0.0705101458847457
40
0.0863875527245535
40
0.0916800216711553
40
0.10226495956436
40
0.112849897457568
40
0.128727304297377
40
0.134019773243979
40
0.144604711137184
40
0.155189649030388
40
0.171067055870197
40
0.176359524816803
40
0.186944462710001
40
0.197529400603213
40
0.213406807443022
40
0.218699276389626
40
0.229284214282837
40
0.239869152176032
40
0.255746559015845
40
0.261039027962449
40
0.271623965855658
40
0.282208903748862
40
0.298086310588672
40
0.303378779535273
40
0.313963717428481
40
0.324548655321683
40
0.340426062161486
40
0.345718531108097
40
0.356303469001302
40
0.366888406894511
40
0.382765813734319
40
0.38805828268092
40
0.398643220574123
40
0.409228158467335
40
0.425105565307141
40
0.430398034253744
40
0.440982972146948
40
0.451567910040155
40
0.467445316879965
40
0.472737785826567
40
0.483322723719773
40
0.493907661612979
40
0.509785068452783
40
0.515077537399391
40
0.525662475292597
40
0.536247413185806
40
0.552124820025612
40
0.557417288972215
40
0.568002226865419
40
0.57858716475863
40
0.594464571598438
40
0.599757040545038
40
0.610341978438243
40
0.620926916331453
40
0.636804323171257
40
0.642096792117862
40
0.652681730011068
40
0.663266667904276
40
0.679144074744083
40
0.684436543690685
40
0.69502148158389
40
0.705606419477098
40
0.721483826316903
40
0.726776295263509
40
0.737361233156712
40
0.747946171049923
40
0.763823577889726
40
0.769116046836333
40
0.779700984729539
40
0.790285922622744
40
0.806163329462551
40
0.811455798409156
40
0.822040736302362
40
0.832625674195567
40
0.84850308103537
40
0.853795549981979
40
0.864380487875182
40
0.87496542576839
40
0.8908428326082
40
0.896135301554803
40
0.90672023944801
40
0.917305177341216
40
0.933182584181022
40
0.938475053127627
40
0.949059991020835
40
0.959644928914039
40
0.975522335753845
40
0.98081480470045
40
0.991399742593656
40
1
40
1
40
1
40
1
41
1
10
34.6422355554746
20
-0.691497704657252
30
0
41
1
10
34.6390312863749
20
-0.691884583939185
30
0
41
1
10
34.6258984561023
20
-0.693465014182124
30
0
41
1
10
34.5929086804907
20
-0.697381346661217
30
0
41
1
10
34.5432681888734
20
-0.703079269740442
30
0
41
1
10
34.4737706233503
20
-0.710696772012341
30
0
41
1
10
34.4141985694734
20
-0.716850936590532
30
0
41
1
10
34.3546275074322
20
-0.722699110442278
30
0
41
1
10
34.3049870060101
20
-0.727367399193582
30
0
41
1
10
34.2354894218696
20
-0.733530470694092
30
0
41
1
10
34.1759173473607
20
-0.738428086999704
30
0
41
1
10
34.1163462617416
20
-0.74301135980312
30
0
41
1
10
34.0667057388868
20
-0.746618653614689
30
0
41
1
10
33.9972081253757
20
-0.751287878699202
30
0
41
1
10
33.9376360307237
20
-0.754898840909789
30
0
41
1
10
33.8780649341057
20
-0.758188854784294
30
0
41
1
10
33.8284244096644
20
-0.760712464646161
30
0
41
1
10
33.7589268054247
20
-0.763857755009695
30
0
41
1
10
33.6993547272141
20
-0.766157973196243
30
0
41
1
10
33.6397836493284
20
-0.768132077897008
30
0
41
1
10
33.5901431417715
20
-0.769554154256525
30
0
41
1
10
33.5206455600319
20
-0.771152311276097
30
0
41
1
10
33.4610734951648
20
-0.77212369343215
30
0
41
1
10
33.4015024204803
20
-0.77276530950752
30
0
41
1
10
33.3518619066882
20
-0.773073115947653
30
0
41
1
10
33.2823643068855
20
-0.773109005945116
30
0
41
1
10
33.2227922261405
20
-0.772742222259723
30
0
41
1
10
33.1632211466041
20
-0.772046097807817
30
0
41
1
10
33.1135806374554
20
-0.771238177501658
30
0
41
1
10
33.0440830549606
20
-0.76971419645983
30
0
41
1
10
32.9845109955409
20
-0.768014997727903
30
0
41
1
10
32.9249399362478
20
-0.765988865058347
30
0
41
1
10
32.875299442616
20
-0.764072832825065
30
0
41
1
10
32.8058018771579
20
-0.761001616516864
30
0
41
1
10
32.7462298241904
20
-0.75798276836403
30
0
41
1
10
32.6866587611806
20
-0.754641044145103
30
0
41
1
10
32.6370182570876
20
-0.751630109446154
30
0
41
1
10
32.5675206674151
20
-0.747032141081576
30
0
41
1
10
32.5079485882162
20
-0.742713133010596
30
0
41
1
10
32.448377500288
20
-0.738076958895846
30
0
41
1
10
32.3987369774677
20
-0.733989942851451
30
0
41
1
10
32.3292393655876
20
-0.727894142026969
30
0
41
1
10
32.2696672718637
20
-0.722302934261052
30
0
41
1
10
32.2100961731751
20
-0.716403678200777
30
0
41
1
10
32.1604556450263
20
-0.711269186529904
30
0
41
1
10
32.0909580326089
20
-0.703719348879986
30
0
41
1
10
32.0313859443941
20
-0.696896660882572
30
0
41
1
10
31.9718148544437
20
-0.689776975414105
30
0
41
1
10
31.9221743353664
20
-0.683631789481012
30
0
41
1
10
31.8526767412096
20
-0.67468141552655
30
0
41
1
10
31.7931046768702
20
-0.666675024376502
30
0
41
1
10
31.7335336202171
20
-0.658384353977596
30
0
41
1
10
31.6838931343395
20
-0.651270906487952
30
0
41
1
10
31.6143955874474
20
-0.640981385547121
30
0
41
1
10
31.5548235557179
20
-0.631845808022092
30
0
41
1
10
31.4952525147896
20
-0.622440337034618
30
0
41
1
10
31.4456120282287
20
-0.614406684320159
30
0
41
1
10
31.3761144608815
20
-0.602847540731915
30
0
41
1
10
31.316542398678
20
-0.592644821966928
30
0
41
1
10
31.2569713262211
20
-0.582189050988831
30
0
41
1
10
31.2073308151867
20
-0.573290744305893
30
0
41
1
10
31.1378332200197
20
-0.560542484823969
30
0
41
1
10
31.0782611435015
20
-0.5493440117028
30
0
41
1
10
31.0186900675314
20
-0.537911018940605
30
0
41
1
10
30.9690495616419
20
-0.528210130893285
30
0
41
1
10
30.8995519820484
20
-0.514361494614832
30
0
41
1
10
30.8399799198637
20
-0.50224504990382
30
0
41
1
10
30.7804088495395
20
-0.489914149212268
30
0
41
1
10
30.7307683410124
20
-0.479477924494233
30
0
41
1
10
30.6612707460712
20
-0.464624829018561
30
0
41
1
10
30.6016986603559
20
-0.451674269707638
30
0
41
1
10
30.5421275607025
20
-0.438530775338307
30
0
41
1
10
30.4924870251121
20
-0.427431407584919
30
0
41
1
10
30.4229893958747
20
-0.411676534988061
30
0
41
1
10
30.3634172931318
20
-0.397981273891645
30
0
41
1
10
30.3038461966824
20
-0.384115782108125
30
0
41
1
10
30.2542056785573
20
-0.372429673708894
30
0
41
1
10
30.1847080914311
20
-0.355881366955572
30
0
41
1
10
30.1251360330524
20
-0.341535566005888
30
0
41
1
10
30.0655649749192
20
-0.327043510914706
30
0
41
1
10
30.0159244809207
20
-0.314851183290699
30
0
41
1
10
29.9464269140664
20
-0.297623645479149
30
0
41
1
10
29.8868548614201
20
-0.28272651751152
30
0
41
1
10
29.8272838028343
20
-0.267708312856598
30
0
41
1
10
29.777643305226
20
-0.255094367801348
30
0
41
1
10
29.7081457282467
20
-0.237307390106935
30
0
41
1
10
29.6485736625487
20
-0.221962811976738
30
0
41
1
10
29.5890025886491
20
-0.206523435545165
30
0
41
1
10
29.539362077589
20
-0.19357620820648
30
0
41
1
10
29.4698644804727
20
-0.175354276353005
30
0
41
1
10
29.4102923955345
20
-0.159669151734192
30
0
41
1
10
29.3507213001827
20
-0.143915286118443
30
0
41
1
10
29.3010807698194
20
-0.130723588680297
30
0
41
1
10
29.2315831463807
20
-0.112190911696189
30
0
41
1
10
29.1720110430923
20
-0.096271771369743
30
0
41
1
10
29.1124399368099
20
-0.0803106530478317
30
0
41
1
10
29.0665224525542
20
-0.0679655060030768
30
0
41
1
10
29.03053266719
20
-0.0582746352572201
30
0
41
1
10
29.0143991114658
20
-0.0539298281508707
30
0
0
SPLINE
5
C3
100
AcDbEntity
8
1
62
256
6
ByLayer
370
13
48
1
60
0
100
AcDbSpline
70
4
71
3
72
102
73
98
40
0
40
0
40
0
40
0
40
0.003860131421864
40
0.0197604025124339
40
0.0250604928759562
40
0.035660673603002
40
0.0462608543300466
40
0.0621611254206153
40
0.0674612157841394
40
0.0780613965111852
40
0.0886615772382298
40
0.104561848328799
40
0.109861938692321
40
0.120462119419367
40
0.131062300146413
40
0.146962571236982
40
0.152262661600505
40
0.16286284232755
40
0.173463023054596
40
0.189363294145165
40
0.194663384508688
40
0.205263565235734
40
0.215863745962779
40
0.231764017053347
40
0.23706410741687
40
0.247664288143916
40
0.258264468870961
40
0.27416473996153
40
0.279464830325053
40
0.290065011052099
40
0.300665191779145
40
0.316565462869713
40
0.321865553233236
40
0.332465733960281
40
0.343065914687327
40
0.358966185777896
40
0.364266276141419
40
0.374866456868464
40
0.38546663759551
40
0.401366908686078
40
0.406666999049601
40
0.417267179776647
40
0.427867360503695
40
0.443767631594262
40
0.449067721957784
40
0.459667902684829
40
0.470268083411875
40
0.486168354502443
40
0.491468444865967
40
0.502068625593012
40
0.512668806320059
40
0.528569077410627
40
0.53386916777415
40
0.544469348501195
40
0.555069529228241
40
0.570969800318809
40
0.576269890682333
40
0.586870071409377
40
0.597470252136425
40
0.613370523226993
40
0.618670613590515
40
0.62927079431756
40
0.639870975044608
40
0.655771246135176
40
0.661071336498698
40
0.671671517225744
40
0.682271697952791
40
0.698171969043358
40
0.703472059406881
40
0.714072240133926
40
0.724672420860973
40
0.740572691951541
40
0.745872782315064
40
0.75647296304211
40
0.767073143769155
40
0.782973414859724
40
0.788273505223246
40
0.798873685950292
40
0.809473866677339
40
0.825374137767907
40
0.83067422813143
40
0.841274408858475
40
0.851874589585521
40
0.867774860676089
40
0.873074951039612
40
0.883675131766657
40
0.894275312493704
40
0.910175583584273
40
0.915475673947795
40
0.926075854674841
40
0.936676035401887
40
0.952576306492455
40
0.957876396855978
40
0.968476577583024
40
0.97907675831007
40
0.994977029400638
40
1
40
1
40
1
40
1
41
1
10
16.6342976167242
20
-0.69246892165404
30
0
41
1
10
16.6270666977602
20
-0.693335969126338
30
0
41
1
10
16.5900507071579
20
-0.697740893098313
30
0
41
1
10
16.5431047830227
20
-0.703111146598104
30
0
41
1
10
16.4835336974118
20
-0.709626658931001
30
0
41
1
10
16.4338931836335
20
-0.714856512926985
30
0
41
1
10
16.3643955936605
20
-0.721812669997604
30
0
41
1
10
16.3048235222869
20
-0.727394978776829
30
0
41
1
10
16.2452524415867
20
-0.732666688255193
30
0
41
1
10
16.1956119230674
20
-0.73685083506814
30
0
41
1
10
16.1261143171795
20
-0.742331272021289
30
0
41
1
10
16.0665422318234
20
-0.746640040852583
30
0
41
1
10
16.0069711481831
20
-0.750630881831142
30
0
41
1
10
15.9573306359782
20
-0.753741415840665
30
0
41
1
10
15.8878330498331
20
-0.757711599971941
30
0
41
1
10
15.8282609878471
20
-0.760720967437294
30
0
41
1
10
15.7686899262999
20
-0.763406899233587
30
0
41
1
10
15.7190494310112
20
-0.765424784775092
30
0
41
1
10
15.6495518636819
20
-0.767859817836722
30
0
41
1
10
15.5899798095563
20
-0.769550198747908
30
0
41
1
10
15.530408745704
20
-0.770913108661574
30
0
41
1
10
15.4807682411228
20
-0.771824299562951
30
0
41
1
10
15.4112706511435
20
-0.772706326297282
30
0
41
1
10
15.351698572028
20
-0.773064211584853
30
0
41
1
10
15.2921274843914
20
-0.773092099702524
30
0
41
1
10
15.2424869619341
20
-0.772887677352827
30
0
41
1
10
15.1729893506757
20
-0.772206857585928
30
0
41
1
10
15.1134172574845
20
-0.771227345921346
30
0
41
1
10
15.0538461591808
20
-0.769919249424873
30
0
41
1
10
15.0042056312322
20
-0.768601237238357
30
0
41
1
10
14.9347080188711
20
-0.766364698518004
30
0
41
1
10
14.8751359304656
20
-0.764057488625497
30
0
41
1
10
14.8155648401357
20
-0.761425068690158
30
0
41
1
10
14.7659243206315
20
-0.759004359829106
30
0
41
1
10
14.69642672556
20
-0.755229322870207
30
0
41
1
10
14.6368546599759
20
-0.751611099314687
30
0
41
1
10
14.5772836015714
20
-0.747672687170649
30
0
41
1
10
14.5276431138747
20
-0.744165753998573
30
0
41
1
10
14.4581455637812
20
-0.738877278871371
30
0
41
1
10
14.3985735286485
20
-0.733971476763088
30
0
41
1
10
14.3390024838559
20
-0.728752203463017
30
0
41
1
10
14.2893619936776
20
-0.724181227258157
30
0
41
1
10
14.2198644204907
20
-0.717412959430874
30
0
41
1
10
14.1602923525749
20
-0.711251569964048
30
0
41
1
10
14.1007212739753
20
-0.704786778944737
30
0
41
1
10
14.0510807575763
20
-0.699183637305765
30
0
41
1
10
13.9815831545956
20
-0.690983885290791
30
0
41
1
10
13.9220110712322
20
-0.683611438208061
30
0
41
1
10
13.8624399885173
20
-0.675947571175556
30
0
41
1
10
13.812799477104
20
-0.669352196826139
30
0
41
1
10
13.7433018901135
20
-0.659778864143476
30
0
41
1
10
13.683729822131
20
-0.651246908091792
30
0
41
1
10
13.624158746659
20
-0.642437194707298
30
0
41
1
10
13.5745182343457
20
-0.634895188412003
30
0
41
1
10
13.5050206351809
20
-0.624014102779057
30
0
41
1
10
13.4454485470793
20
-0.614380941808889
30
0
41
1
10
13.3858774461239
20
-0.60448532291872
30
0
41
1
10
13.3362369102399
20
-0.596047848445238
30
0
41
1
10
13.2667392820972
20
-0.583932801977198
30
0
41
1
10
13.2071671818148
20
-0.573264013221575
30
0
41
1
10
13.1475960889438
20
-0.562350379478261
30
0
41
1
10
13.0979555745393
20
-0.553075714127658
30
0
41
1
10
13.0284579938677
20
-0.539810885665503
30
0
41
1
10
12.9688859421333
20
-0.528180897787337
30
0
41
1
10
12.9093148912714
20
-0.516325346679082
30
0
41
1
10
12.8596744037093
20
-0.506278077846389
30
0
41
1
10
12.7901768465537
20
-0.491955708534334
30
0
41
1
10
12.7306048028871
20
-0.47944527167914
30
0
41
1
10
12.6710337537354
20
-0.466730041748121
30
0
41
1
10
12.6213932642562
20
-0.455979820825632
30
0
41
1
10
12.5518956990379
20
-0.440699143372143
30
0
41
1
10
12.4923236436982
20
-0.427394903113736
30
0
41
1
10
12.4327525802088
20
-0.413908061317528
30
0
41
1
10
12.3831120779678
20
-0.402529353241874
30
0
41
1
10
12.31361449348
20
-0.386396156217643
30
0
41
1
10
12.2540424194983
20
-0.372390078645992
30
0
41
1
10
12.1944713350352
20
-0.358224649331106
30
0
41
1
10
12.1448308136243
20
-0.346295792585835
30
0
41
1
10
12.075333202351
20
-0.32942099377442
30
0
41
1
10
12.0157611089992
20
-0.314809332533827
30
0
41
1
10
11.9561900121447
20
-0.30006278245915
30
0
41
1
10
11.9065494867033
20
-0.287665959782117
30
0
41
1
10
11.837051881447
20
-0.270166030807132
30
0
41
1
10
11.7774798043217
20
-0.255049886895279
30
0
41
1
10
11.7179087310149
20
-0.239824475984761
30
0
41
1
10
11.6682682297565
20
-0.227045797690863
30
0
41
1
10
11.598770660059
20
-0.209042585460963
30
0
41
1
10
11.5391986075933
20
-0.193527540249335
30
0
41
1
10
11.4796275453606
20
-0.177929902780818
30
0
41
1
10
11.4299870410732
20
-0.164859050093867
30
0
41
1
10
11.3604894515237
20
-0.146478815133719
30
0
41
1
10
11.3009173754727
20
-0.130673127936319
30
0
41
1
10
11.2413462962804
20
-0.114811103899029
30
0
41
1
10
11.1917057842603
20
-0.101537712138423
30
0
41
1
10
11.122208193358
20
-0.0829056011120031
30
0
41
1
10
11.0631552533494
20
-0.06705576349637
30
0
41
1
10
11.0239603192029
20
-0.0565165192477934
30
0
41
1
10
11.0145510449548
20
-0.053984264352124
30
0
0
SPLINE
5
C4
100
AcDbEntity
8
1
62
256
6
ByLayer
370
18
48
1
60
0
100
AcDbSpline
70
4
71
3
72
12
73
8
40
0
40
0
40
0
40
0
40
0.5
40
0.5
40
0.75
40
0.75
40
1
40
1
40
1
40
1
41
1
10
5.98031281764597
20
0.176017977128623
30
0
41
1
10
6.24901161358338
20
0.0240446537161745
30
0
41
1
10
6.52136648994039
20
-0.122021903206218
30
0
41
1
10
6.93416344304143
20
-0.334284881103827
30
0
41
1
10
7.07291272148063
20
-0.404072173962731
30
0
41
1
10
7.34919079743429
20
-0.540055392409641
30
0
41
1
10
7.48678540019216
20
-0.606295989623163
30
0
41
1
10
7.62382667780034
20
-0.670786208517001
30
0
0
SPLINE
5
C5
100
AcDbEntity
8
1
62
256
6
ByLayer
370
18
48
1
60
0
100
AcDbSpline
70
4
71
3
72
22
73
18
40
0
40
0
40
0
40
0
40
0.119218019168642
40
0.119218019168642
40
0.238436038337284
40
0.238436038337284
40
0.357654057505926
40
0.357654057505926
40
0.476872076674568
40
0.476872076674568
40
0.596090095843211
40
0.596090095843211
40
0.715308115011853
40
0.715308115011853
40
0.953744153349137
40
0.953744153349137
40
1
40
1
40
1
40
1
41
1
10
37.3199146759127
20
0.253688562880512
30
0
41
1
10
37.1595782687966
20
0.338766168252619
30
0
41
1
10
36.9994454233958
20
0.422369055288215
30
0
41
1
10
36.6786051890567
20
0.58515639548736
30
0
41
1
10
36.5174645832969
20
0.664657564106932
30
0
41
1
10
36.1962404434563
20
0.816365479746082
30
0
41
1
10
36.0366994617663
20
0.888239014917502
30
0
41
1
10
35.7185720984931
20
1.02100338482273
30
0
41
1
10
35.5598093045087
20
1.0833612639978
30
0
41
1
10
35.2421847482109
20
1.19803305531826
30
0
41
1
10
35.0833999669855
20
1.25025314184327
30
0
41
1
10
34.7645768655529
20
1.34118714816421
30
0
41
1
10
34.60462821651
20
1.38102271726348
30
0
41
1
10
34.1217197345543
20
1.48211236451036
30
0
41
1
10
33.8038391719837
20
1.52120548188674
30
0
41
1
10
33.424715891859
20
1.5337139096911
30
0
41
1
10
33.3631308991187
20
1.53474226252106
30
0
41
1
10
33.301529827627
20
1.53475168758905
30
0
0
SPLINE
5
C6
100
AcDbEntity
8
1
62
256
6
ByLayer
370
18
48
1
60
0
100
AcDbSpline
70
4
71
3
72
50
73
46
40
0
40
0
40
0
40
0
40
0.0215827278981208
40
0.0215827278981208
40
0.0645617043260254
40
0.0645617043260254
40
0.150519657181835
40
0.150519657181835
40
0.236477610037644
40
0.236477610037644
40
0.279456586465548
40
0.279456586465548
40
0.322435562893451
40
0.322435562893451
40
0.365414539321355
40
0.365414539321355
40
0.386904027535308
40
0.386904027535308
40
0.408393515749261
40
0.408393515749261
40
0.49435146860507
40
0.49435146860507
40
0.537330445032975
40
0.537330445032975
40
0.558819933246927
40
0.558819933246927
40
0.580309421460881
40
0.580309421460881
40
0.623288397888787
40
0.623288397888787
40
0.666267374316692
40
0.666267374316692
40
0.752225327172504
40
0.752225327172504
40
0.79520430360041
40
0.79520430360041
40
0.838183280028315
40
0.838183280028315
40
0.88116225645622
40
0.88116225645622
40
0.924141232884126
40
0.924141232884126
40
0.967120209312031
40
0.967120209312031
40
1
40
1
40
1
40
1
41
1
10
26.4965012385066
20
-1.09497651841031
30
0
41
1
10
26.4155155171238
20
-1.12488676661948
30
0
41
1
10
26.334479316324
20
-1.15359667023304
30
0
41
1
10
26.0920075153097
20
-1.23523899780017
30
0
41
1
10
25.9311580758469
20
-1.28346255796424
30
0
41
1
10
25.448425212356
20
-1.40723138983606
30
0
41
1
10
25.124731540517
20
-1.46740937929576
30
0
41
1
10
24.4856763238026
20
-1.52448041871332
30
0
41
1
10
24.1679694198273
20
-1.52775510306859
30
0
41
1
10
23.6889792955503
20
-1.48546598340292
30
0
41
1
10
23.5287830414383
20
-1.46470000862428
30
0
41
1
10
23.2068011226577
20
-1.41061437529817
30
0
41
1
10
23.0452149971084
20
-1.37688302043452
30
0
41
1
10
22.7235377244592
20
-1.29524931614213
30
0
41
1
10
22.5627649969196
20
-1.24835010661664
30
0
41
1
10
22.3211444956942
20
-1.16878634471149
30
0
41
1
10
22.2403650260372
20
-1.14073286026041
30
0
41
1
10
22.0791285428728
20
-1.08267821549526
30
0
41
1
10
21.9986662763281
20
-1.05271827115021
30
0
41
1
10
21.5975787383036
20
-0.896639424978844
30
0
41
1
10
21.2797971600536
20
-0.75272266041199
30
0
41
1
10
20.8016747848883
20
-0.519510311649555
30
0
41
1
10
20.6419615640255
20
-0.439430030343743
30
0
41
1
10
20.4015358874528
20
-0.316160977913313
30
0
41
1
10
20.3211886305477
20
-0.274614750274992
30
0
41
1
10
20.1600721549039
20
-0.190494141266896
30
0
41
1
10
20.0791504945045
20
-0.148009296568148
30
0
41
1
10
19.8379153734317
20
-0.0206129726884967
30
0
41
1
10
19.677752900999
20
0.0639517757600743
30
0
41
1
10
19.3582927524609
20
0.231644056021395
30
0
41
1
10
19.1989332076371
20
0.314549363575821
30
0
41
1
10
18.7210461825279
20
0.557557957440508
30
0
41
1
10
18.4018943379023
20
0.711319500271259
30
0
41
1
10
17.9176211335247
20
0.92210170764389
30
0
41
1
10
17.7562845652193
20
0.988287217337017
30
0
41
1
10
17.4344171367913
20
1.10866941512234
30
0
41
1
10
17.2734147925939
20
1.16404529091545
30
0
41
1
10
16.9507422735265
20
1.26457118099356
30
0
41
1
10
16.7892034512058
20
1.30939065957361
30
0
41
1
10
16.467287737665
20
1.38345142470115
30
0
41
1
10
16.3063541269976
20
1.4142840397443
30
0
41
1
10
15.9838990891446
20
1.46380825211705
30
0
41
1
10
15.8222613418356
20
1.48219416065254
30
0
41
1
10
15.5381352383753
20
1.49941617669529
30
0
41
1
10
15.4150543648067
20
1.50279727913156
30
0
41
1
10
15.2918662453405
20
1.50241619467181
30
0
0
SPLINE
5
C7
100
AcDbEntity
8
1
62
256
6
ByLayer
370
18
48
1
60
0
100
AcDbSpline
70
4
71
3
72
16
73
12
40
0
40
0
40
0
40
0
40
0.0409995270226778
40
0.0409995270226778
40
0.280749645267009
40
0.280749645267009
40
0.52049976351134
40
0.52049976351134
40
0.760249881755669
40
0.760249881755669
40
1
40
1
40
1
40
1
41
1
10
8.50288790885762
20
-1.07202184058897
30
0
41
1
10
8.47557250207763
20
-1.08186774906756
30
0
41
1
10
8.44824643845433
20
-1.09157461232465
30
0
41
1
10
8.26103492000169
20
-1.1570729050402
30
0
41
1
10
8.10085234562575
20
-1.20816591161869
30
0
41
1
10
7.77852694125113
20
-1.29804065513306
30
0
41
1
10
7.61660634966916
20
-1.33735832827392
30
0
41
1
10
7.29436344414978
20
-1.40281993179403
30
0
41
1
10
7.13362535472098
20
-1.42901955268818
30
0
41
1
10
6.81169993964767
20
-1.46642673478678
30
0
41
1
10
6.65063443514708
20
-1.47848506608918
30
0
41
1
10
6.4887492835135
20
-1.4839406236413
30
0
0
SPLINE
5
C8
100
AcDbEntity
8
1
62
256
6
ByLayer
370
18
48
1
60
0
100
AcDbSpline
70
4
71
3
72
10
73
6
40
0
40
0
40
0
40
0
40
0.5
40
0.5
40
1
40
1
40
1
40
1
41
1
10
37.3719097289355
20
-1.49385961071874
30
0
41
1
10
37.3716344870362
20
-1.46403719532918
30
0
41
1
10
37.3681243436032
20
-1.43825727673774
30
0
41
1
10
37.3570388359473
20
-1.3926474717322
30
0
41
1
10
37.3496261822767
20
-1.37331192037985
30
0
41
1
10
37.3408748413502
20
-1.35646012569839
30
0
0
SPLINE
5
C9
100
AcDbEntity
8
1
62
256
6
ByLayer
370
18
48
1
60
0
100
AcDbSpline
70
4
71
3
72
54
73
50
40
0
40
0
40
0
40
0
40
0.0438000354958735
40
0.0438000354958735
40
0.087600070991747
40
0.087600070991747
40
0.13140010648762
40
0.13140010648762
40
0.175200141983494
40
0.175200141983494
40
0.219000177479367
40
0.219000177479367
40
0.262800212975241
40
0.262800212975241
40
0.306600248471114
40
0.306600248471114
40
0.350400283966988
40
0.350400283966988
40
0.394200319462861
40
0.394200319462861
40
0.438000354958735
40
0.438000354958735
40
0.481800390454608
40
0.481800390454608
40
0.525600425950482
40
0.525600425950482
40
0.569400461446355
40
0.569400461446355
40
0.613200496942229
40
0.613200496942229
40
0.635100514690166
40
0.635100514690166
40
0.657000532438102
40
0.657000532438102
40
0.700800567933977
40
0.700800567933977
40
0.744600603429852
40
0.744600603429852
40
0.788400638925727
40
0.788400638925727
40
0.832200674421603
40
0.832200674421603
40
0.876000709917478
40
0.876000709917478
40
0.919800745413353
40
0.919800745413353
40
0.963600780909227
40
0.963600780909227
40
1
40
1
40
1
40
1
41
1
10
6.48874928351353
20
1.48394062364125
30
0
41
1
10
6.65067550062832
20
1.47848368217535
30
0
41
1
10
6.81189519801728
20
1.46641820153437
30
0
41
1
10
7.13437646903796
20
1.42891807745673
30
0
41
1
10
7.29552836851229
20
1.40262810325507
30
0
41
1
10
7.61886602367207
20
1.33685399425795
30
0
41
1
10
7.78049636284265
20
1.29754327993317
30
0
41
1
10
8.10306278889178
20
1.20749713071262
30
0
41
1
10
8.26416019286987
20
1.15607825188499
30
0
41
1
10
8.58722533966494
20
1.04284937470385
30
0
41
1
10
8.74900221328346
20
0.98102346814747
30
0
41
1
10
9.07156166679306
20
0.849018177051818
30
0
41
1
10
9.2325892759788
20
0.778128736799658
30
0
41
1
10
9.55537736559771
20
0.630042766722227
30
0
41
1
10
9.71712946289983
20
0.552680198584028
30
0
41
1
10
10.0396055690212
20
0.393573878438957
30
0
41
1
10
10.2005118757173
20
0.311520757422187
30
0
41
1
10
10.5229692449855
20
0.145445039643306
30
0
41
1
10
10.6846176922579
20
0.0609656424609852
30
0
41
1
10
11.0071067754924
20
-0.107289210040705
30
0
41
1
10
11.1679358304236
20
-0.191440961281614
30
0
41
1
10
11.4900788161516
20
-0.356949424261757
30
0
41
1
10
11.6516699709232
20
-0.438558909868192
30
0
41
1
10
11.9743436268901
20
-0.59650875326156
30
0
41
1
10
12.1352786049919
20
-0.673654507972032
30
0
41
1
10
12.4574126366235
20
-0.820423767535004
30
0
41
1
10
12.6189690886328
20
-0.889871609033264
30
0
41
1
10
12.9418056654483
20
-1.01964735081128
30
0
41
1
10
13.1028271005018
20
-1.08079096573039
30
0
41
1
10
13.3444985365431
20
-1.16388936122522
30
0
41
1
10
13.4250908349987
20
-1.19007194067606
30
0
41
1
10
13.5864128124329
20
-1.24006755596514
30
0
41
1
10
13.6672264092832
20
-1.26388056911739
30
0
41
1
10
13.9092736069262
20
-1.32968548997027
30
0
41
1
10
14.0702346871512
20
-1.36636609376814
30
0
41
1
10
14.3923101550229
20
-1.42784143241906
30
0
41
1
10
14.5535814917211
20
-1.4531186611421
30
0
41
1
10
14.8761652543454
20
-1.48892462239871
30
0
41
1
10
15.0370058445289
20
-1.498474399598
30
0
41
1
10
15.3587652252867
20
-1.50432283596788
30
0
41
1
10
15.5197728632611
20
-1.50115042651413
30
0
41
1
10
15.8422396555701
20
-1.4802813984185
30
0
41
1
10
16.0029926238711
20
-1.46135384924071
30
0
41
1
10
16.3244828160315
20
-1.41096279381176
30
0
41
1
10
16.4852587235256
20
-1.37982409249994
30
0
41
1
10
16.8075150550306
20
-1.30461037753642
30
0
41
1
10
16.9682466446177
20
-1.25948689015019
30
0
41
1
10
17.2623448184315
20
-1.1671499763344
30
0
41
1
10
17.3958400972899
20
-1.12174185246289
30
0
41
1
10
17.5295007084613
20
-1.07284613525437
30
0
0
SPLINE
5
CA
100
AcDbEntity
8
1
62
256
6
ByLayer
370
18
48
1
60
0
100
AcDbSpline
70
4
71
3
72
52
73
48
40
0
40
0
40
0
40
0
40
0.0041099034273059
40
0.0041099034273059
40
0.0469253020175989
40
0.0469253020175989
40
0.0897407006078922
40
0.0897407006078922
40
0.132556099198186
40
0.132556099198186
40
0.175371497788478
40
0.175371497788478
40
0.218186896378772
40
0.218186896378772
40
0.261002294969065
40
0.261002294969065
40
0.303817693559358
40
0.303817693559358
40
0.346633092149651
40
0.346633092149651
40
0.389448490739944
40
0.389448490739944
40
0.432263889330237
40
0.432263889330237
40
0.475079287920531
40
0.475079287920531
40
0.517894686510824
40
0.517894686510824
40
0.560710085101117
40
0.560710085101117
40
0.646340882281701
40
0.646340882281701
40
0.731971679462284
40
0.731971679462284
40
0.774787078052576
40
0.774787078052576
40
0.817602476642867
40
0.817602476642867
40
0.860417875233159
40
0.860417875233159
40
0.903233273823451
40
0.903233273823451
40
0.946048672413742
40
0.946048672413742
40
0.988864071004034
40
0.988864071004034
40
1
40
1
40
1
40
1
41
1
10
24.3064006329671
20
1.51890221620621
30
0
41
1
10
24.3217815117359
20
1.51886828042251
30
0
41
1
10
24.3371642906088
20
1.51876842241441
30
0
41
1
10
24.512826676787
20
1.51688595798706
30
0
41
1
10
24.6735889407883
20
1.50847973115958
30
0
41
1
10
24.9942687528208
20
1.47812636402551
30
0
41
1
10
25.1542131522277
20
1.45511157668042
30
0
41
1
10
25.4745915516212
20
1.39589940588215
30
0
41
1
10
25.6351990112947
20
1.35993530873415
30
0
41
1
10
25.9557884773183
20
1.27645608203994
30
0
41
1
10
26.1155981642295
20
1.22775257505711
30
0
41
1
10
26.4357267740413
20
1.1189812728347
30
0
41
1
10
26.5961705950442
20
1.05896203743077
30
0
41
1
10
26.9167618008897
20
0.931082416459589
30
0
41
1
10
27.0765605678064
20
0.86200896887911
30
0
41
1
10
27.3964319170105
20
0.717109230828498
30
0
41
1
10
27.5566480632011
20
0.640302050193895
30
0
41
1
10
27.8774049816225
20
0.481517564163227
30
0
41
1
10
28.0373344275318
20
0.399785647219062
30
0
41
1
10
28.3572379474125
20
0.233527019336236
30
0
41
1
10
28.5173840155458
20
0.148319877783479
30
0
41
1
10
28.8383016076985
20
-0.0224352751583012
30
0
41
1
10
28.9982822196103
20
-0.107925217084045
30
0
41
1
10
29.3183057981583
20
-0.277465474576019
30
0
41
1
10
29.4783478662504
20
-0.36154541460823
30
0
41
1
10
29.7993886263454
20
-0.525330152387653
30
0
41
1
10
29.9593770604011
20
-0.604988864985927
30
0
41
1
10
30.2794457395751
20
-0.758347923144669
30
0
41
1
10
30.4393624897768
20
-0.832141706961494
30
0
41
1
10
30.9210629584264
20
-1.03985921994783
30
0
41
1
10
31.2400645527651
20
-1.16161158332807
30
0
41
1
10
31.8819490253274
20
-1.35819421759044
30
0
41
1
10
32.2011594494457
20
-1.4306191952596
30
0
41
1
10
32.6821360990872
20
-1.50166340206567
30
0
41
1
10
32.8421989175823
20
-1.51809270162212
30
0
41
1
10
33.1619608356348
20
-1.53535033354743
30
0
41
1
10
33.3217346760403
20
-1.53698145401316
30
0
41
1
10
33.6421241382458
20
-1.52666755564067
30
0
41
1
10
33.8022454367182
20
-1.51434617517427
30
0
41
1
10
34.1218511849855
20
-1.47528512325911
30
0
41
1
10
34.2815041344582
20
-1.44860701984325
30
0
41
1
10
34.6017306568328
20
-1.38168543464423
30
0
41
1
10
34.7619553671523
20
-1.34187266404456
30
0
41
1
10
35.0815161055058
20
-1.25085176362316
30
0
41
1
10
35.2411357589242
20
-1.19841642205668
30
0
41
1
10
35.4428354133942
20
-1.12559106001444
30
0
41
1
10
35.4844841450571
20
-1.11020655152393
30
0
41
1
10
35.5261348468117
20
-1.09449545997688
30
0
0
SPLINE
5
CB
100
AcDbEntity
8
1
62
256
6
ByLayer
370
18
48
1
60
0
100
AcDbSpline
70
4
71
3
72
8
73
4
40
0
40
0
40
0
40
0
40
1
40
1
40
1
40
1
41
1
10
37.8995021117431
20
0.329695925763957
30
0
41
1
10
37.8782483626541
20
0.388493963841086
30
0
41
1
10
37.857035202353
20
0.447306554891526
30
0
41
1
10
37.8358626911907
20
0.506133720553919
30
0
0
SPLINE
5
CC
100
AcDbEntity
8
1
62
256
6
ByLayer
370
18
48
1
60
0
100
AcDbSpline
70
4
71
3
72
12
73
8
40
0
40
0
40
0
40
0
40
0.5
40
0.5
40
0.75
40
0.75
40
1
40
1
40
1
40
1
41
1
10
37.4132241936721
20
1.58167224442559
30
0
41
1
10
37.4656978904536
20
1.45520629411047
30
0
41
1
10
37.5190478425123
20
1.32507482571634
30
0
41
1
10
37.5987287624436
20
1.12323565365835
30
0
41
1
10
37.6252238656504
20
1.05483051400208
30
0
41
1
10
37.6777380800813
20
0.915506253219291
30
0
41
1
10
37.7037642307005
20
0.844576079901742
30
0
41
1
10
37.728978969261
20
0.773286485825992
30
0
0
SPLINE
5
CD
100
AcDbEntity
8
1
62
256
6
ByLayer
370
18
48
1
60
0
100
AcDbSpline
70
4
71
3
72
14
73
10
40
0
40
0
40
0
40
0
40
0.25
40
0.25
40
0.5
40
0.5
40
0.75
40
0.75
40
1
40
1
40
1
40
1
41
1
10
37.3199146759127
20
0.253688562880512
30
0
41
1
10
37.3006339085026
20
0.172368662909605
30
0
41
1
10
37.2845609579793
20
0.0903275251901334
30
0
41
1
10
37.2589046487792
20
-0.0752138542983118
30
0
41
1
10
37.249271697423
20
-0.159492938263156
30
0
41
1
10
37.2373505098207
20
-0.325772174523365
30
0
41
1
10
37.2350391951617
20
-0.407072668058703
30
0
41
1
10
37.2376089038905
20
-0.566048937676811
30
0
41
1
10
37.2425630967949
20
-0.644224795869718
30
0
41
1
10
37.251147778604
20
-0.718956528847173
30
0
0
SPLINE
5
CE
100
AcDbEntity
8
1
62
256
6
ByLayer
370
18
48
1
60
0
100
AcDbSpline
70
4
71
3
72
8
73
4
40
0
40
0
40
0
40
0
40
1
40
1
40
1
40
1
41
1
10
6.48874928351353
20
-1.4839406236413
30
0
41
1
10
6.45702266075696
20
-1.48501789717605
30
0
41
1
10
6.42531837328534
20
-1.48581668541064
30
0
41
1
10
6.39363677624817
20
-1.48633253792312
30
0
0
SPLINE
5
CF
100
AcDbEntity
8
1
62
256
6
ByLayer
370
18
48
1
60
0
100
AcDbSpline
70
4
71
3
72
8
73
4
40
0
40
0
40
0
40
0
40
1
40
1
40
1
40
1
41
1
10
6.39363677624823
20
1.48633253792306
30
0
41
1
10
6.42531841312484
20
1.48581668476191
30
0
41
1
10
6.45702270044274
20
1.48501789582846
30
0
41
1
10
6.48874928351358
20
1.48394062364125
30
0
0
SPLINE
5
D0
100
AcDbEntity
8
1
62
256
6
ByLayer
370
13
48
1
60
0
100
AcDbSpline
70
4
71
3
72
40
73
36
40
0
40
0
40
0
40
0
40
0.017109130124442
40
0.017109130124442
40
0.074712763589742
40
0.074712763589742
40
0.132316397055042
40
0.132316397055042
40
0.189920030520342
40
0.189920030520342
40
0.247523663985642
40
0.247523663985642
40
0.305127297450942
40
0.305127297450942
40
0.362730930916242
40
0.362730930916242
40
0.477938197846846
40
0.477938197846846
40
0.535541831312148
40
0.535541831312148
40
0.59314546477745
40
0.59314546477745
40
0.650749098242752
40
0.650749098242752
40
0.708352731708053
40
0.708352731708053
40
0.765956365173356
40
0.765956365173356
40
0.823559998638657
40
0.823559998638657
40
0.938767265569261
40
0.938767265569261
40
0.996370899034563
40
0.996370899034563
40
1
40
1
40
1
40
1
41
1
10
29.7682675554263
20
-1.52920749698453
30
0
41
1
10
29.7206616109572
20
-1.52914368306486
30
0
41
1
10
29.6730487256731
20
-1.52845199164128
30
0
41
1
10
29.4650456559968
20
-1.52269912703795
30
0
41
1
10
29.3045562914575
20
-1.51082830686192
30
0
41
1
10
28.9816320339222
20
-1.47288230333231
30
0
41
1
10
28.819218234269
20
-1.44687830211731
30
0
41
1
10
28.4969556467598
20
-1.38164450100794
30
0
41
1
10
28.336673485422
20
-1.34212690149934
30
0
41
1
10
28.0157853276728
20
-1.25131644470335
30
0
41
1
10
27.8554127030896
20
-1.20013531189142
30
0
41
1
10
27.5341706151966
20
-1.08667983908495
30
0
41
1
10
27.3732773365235
20
-1.02429233766873
30
0
41
1
10
27.0495289011751
20
-0.889742522017031
30
0
41
1
10
26.8877202019246
20
-0.817735224908802
30
0
41
1
10
26.4047301525571
20
-0.593155269975426
30
0
41
1
10
26.0850444109454
20
-0.430248703236629
30
0
41
1
10
25.6021601047331
20
-0.177408265385367
30
0
41
1
10
25.44033760444
20
-0.0917221087538849
30
0
41
1
10
25.1162386350041
20
0.0804111490316188
30
0
41
1
10
24.9551912884593
20
0.166207406418039
30
0
41
1
10
24.6336282861653
20
0.334378720985257
30
0
41
1
10
24.4731269366764
20
0.416899190207147
30
0
41
1
10
24.1521304267108
20
0.577754548608624
30
0
41
1
10
23.9916379218918
20
0.656056388701757
30
0
41
1
10
23.6691353901867
20
0.805510869018519
30
0
41
1
10
23.5065052450776
20
0.877081323081399
30
0
41
1
10
23.1831277174498
20
1.01101610329462
30
0
41
1
10
23.0223099421595
20
1.07322368447063
30
0
41
1
10
22.5407386742241
20
1.242813796029
30
0
41
1
10
22.2206990212293
20
1.33347248594339
30
0
41
1
10
21.7370336193113
20
1.43131991278202
30
0
41
1
10
21.5745318569464
20
1.45747964253644
30
0
41
1
10
21.4026052760319
20
1.47736046725197
30
0
41
1
10
21.3924185603984
20
1.4785099915494
30
0
41
1
10
21.3822346239134
20
1.47963079002255
30
0
0
SPLINE
5
D1
100
AcDbEntity
8
1
62
256
6
ByLayer
370
13
48
1
60
0
100
AcDbSpline
70
4
71
3
72
28
73
24
40
0
40
0
40
0
40
0
40
0.0078465885926739
40
0.0078465885926739
40
0.0980423532660676
40
0.0980423532660676
40
0.188238117939461
40
0.188238117939461
40
0.278433882612855
40
0.278433882612855
40
0.368629647286249
40
0.368629647286249
40
0.458825411959643
40
0.458825411959643
40
0.549021176633037
40
0.549021176633037
40
0.63921694130643
40
0.63921694130643
40
0.819608470653216
40
0.819608470653216
40
0.909804235326608
40
0.909804235326608
40
1
40
1
40
1
40
1
41
1
10
11.7723922299512
20
-1.49653899436433
30
0
41
1
10
11.758377672973
20
-1.49651690122812
30
0
41
1
10
11.7443659057116
20
-1.4964427886398
30
0
41
1
10
11.5693248992713
20
-1.49486875401738
30
0
41
1
10
11.4085611431509
20
-1.48631963076733
30
0
41
1
10
11.0862844313859
20
-1.45492697636215
30
0
41
1
10
10.924782404191
20
-1.4321242840455
30
0
41
1
10
10.600158831559
20
-1.37288476074872
30
0
41
1
10
10.4372207360882
20
-1.33658813952306
30
0
41
1
10
10.1138679354603
20
-1.25206238950724
30
0
41
1
10
9.95288209757265
20
-1.20352577153025
30
0
41
1
10
9.63076645088412
20
-1.09573304690693
30
0
41
1
10
9.46965503845456
20
-1.03667474757441
30
0
41
1
10
9.14680338818854
20
-0.908871959180289
30
0
41
1
10
8.98504210988577
20
-0.840009505808894
30
0
41
1
10
8.65949147821831
20
-0.694230688441394
30
0
41
1
10
8.49734644245052
20
-0.618062517401654
30
0
41
1
10
8.01268358992775
20
-0.382667677344841
30
0
41
1
10
7.69134918900926
20
-0.216376582745227
30
0
41
1
10
7.20620817187543
20
0.0358185444788148
30
0
41
1
10
7.04351546382861
20
0.120616503429204
30
0
41
1
10
6.71815839498927
20
0.287927436700926
30
0
41
1
10
6.55618354098377
20
0.370253092646379
30
0
41
1
10
6.39442255979867
20
0.450309996349205
30
0
0
SPLINE
5
D2
100
AcDbEntity
8
1
62
256
6
ByLayer
370
13
48
1
60
0
100
AcDbSpline
70
4
71
3
72
18
73
14
40
0
40
0
40
0
40
0
40
0.25
40
0.25
40
0.5
40
0.5
40
0.625
40
0.625
40
0.75
40
0.75
40
0.875
40
0.875
40
1
40
1
40
1
40
1
41
1
10
6.3944225597991
20
0.450309996348977
30
0
41
1
10
6.39418365301708
20
0.596939093303661
30
0
41
1
10
6.39400955013761
20
0.735430941134183
30
0
41
1
10
6.39377025320613
20
0.98627017053289
30
0
41
1
10
6.39370699605092
20
1.09498750720192
30
0
41
1
10
6.39365640974535
20
1.23324682857665
30
0
41
1
10
6.39364724806873
20
1.27467706571869
30
0
41
1
10
6.39363767567932
20
1.34639865010996
30
0
41
1
10
6.39363715256954
20
1.37704423835382
30
0
41
1
10
6.39363853960395
20
1.42775981900289
30
0
41
1
10
6.39364044428459
20
1.44777186627508
30
0
41
1
10
6.39364150131664
20
1.47571879086979
30
0
41
1
10
6.3936406728354
20
1.48391494058288
30
0
41
1
10
6.39363677624053
20
1.48633253792275
30
0
0
SPLINE
5
D3
100
AcDbEntity
8
1
62
256
6
ByLayer
370
18
48
1
60
0
100
AcDbSpline
70
4
71
3
72
8
73
4
40
0
40
0
40
0
40
0
40
1
40
1
40
1
40
1
41
1
10
37.728978969261
20
0.773286485825992
30
0
41
1
10
37.7620324114935
20
0.679834536129675
30
0
41
1
10
37.797603431497
20
0.591044438388849
30
0
41
1
10
37.8358626911811
20
0.50613372057515
30
0
0
SPLINE
5
D4
100
AcDbEntity
8
1
62
256
6
ByLayer
370
18
48
1
60
0
100
AcDbSpline
70
4
71
3
72
8
73
4
40
0
40
0
40
0
40
0
40
1
40
1
40
1
40
1
41
1
10
37.9996451217258
20
0.0625745975279699
30
0
41
1
10
37.9653749986967
20
0.150666334783381
30
0
41
1
10
37.9320326598128
20
0.239700866724775
30
0
41
1
10
37.8995021117431
20
0.329695925763929
30
0
0
SPLINE
5
D5
100
AcDbEntity
8
1
62
256
6
ByLayer
370
18
48
1
60
0
100
AcDbSpline
70
4
71
3
72
10
73
6
40
0
40
0
40
0
40
0
40
0.659801105137491
40
0.659801105137491
40
1
40
1
40
1
40
1
41
1
10
6.72392930697958
20
-0.765220108256813
30
0
41
1
10
6.75938562539312
20
-0.656864036732401
30
0
41
1
10
6.80790251756858
20
-0.552421100451056
30
0
41
1
10
6.89275291402538
20
-0.418305676856931
30
0
41
1
10
6.92357619622743
20
-0.376965226629693
30
0
41
1
10
6.95535573284303
20
-0.341053846564421
30
0
0
SPLINE
5
D6
100
AcDbEntity
8
1
62
256
6
ByLayer
370
18
48
1
60
0
100
AcDbSpline
70
4
71
3
72
12
73
8
40
0
40
0
40
0
40
0
40
0.5
40
0.5
40
0.75
40
0.75
40
1
40
1
40
1
40
1
41
1
10
37.4132241936721
20
-1.58167224442559
30
0
41
1
10
37.4657081828694
20
-1.45518148853688
30
0
41
1
10
37.5190626475387
20
-1.32503813137885
30
0
41
1
10
37.5987400832612
20
-1.12320657274833
30
0
41
1
10
37.625232312417
20
-1.05480828936231
30
0
41
1
10
37.677737373026
20
-0.915507943780455
30
0
41
1
10
37.7037640791505
20
-0.844576508379163
30
0
41
1
10
37.728978969261
20
-0.773286485825992
30
0
0
SPLINE
5
D7
100
AcDbEntity
8
1
62
256
6
ByLayer
370
13
48
1
60
0
100
AcDbSpline
70
4
71
3
72
8
73
4
40
0
40
0
40
0
40
0
40
1
40
1
40
1
40
1
41
1
10
6.3944225597991
20
0.450309996348977
30
0
41
1
10
6.28062900821018
20
0.489686797381495
30
0
41
1
10
6.16945562089677
20
0.531907587922234
30
0
41
1
10
6.06227630259429
20
0.580546803773899
30
0
0
SPLINE
5
D8
100
AcDbEntity
8
1
62
256
6
ByLayer
370
18
48
1
60
0
100
AcDbSpline
70
4
71
3
72
30
73
26
40
0
40
0
40
0
40
0
40
0.250000000000003
40
0.250000000000003
40
0.375000000000005
40
0.375000000000005
40
0.500000000000007
40
0.500000000000007
40
0.625000000000008
40
0.625000000000008
40
0.687500000000007
40
0.687500000000007
40
0.750000000000006
40
0.750000000000006
40
0.812500000000005
40
0.812500000000005
40
0.843750000000004
40
0.843750000000004
40
0.875000000000004
40
0.875000000000004
40
0.906250000000003
40
0.906250000000003
40
0.937500000000002
40
0.937500000000002
40
1
40
1
40
1
40
1
41
1
10
6.06180063392543
20
-1.53895840528071
30
0
41
1
10
5.80753559150372
20
-1.52783939535345
30
0
41
1
10
5.5569733893754
20
-1.49886149149196
30
0
41
1
10
5.18826634709654
20
-1.42021962403967
30
0
41
1
10
5.06656669303192
20
-1.38807072451297
30
0
41
1
10
4.82622969341156
20
-1.30837240547891
30
0
41
1
10
4.70675838471143
20
-1.26042221076139
30
0
41
1
10
4.47903953322324
20
-1.14573788569481
30
0
41
1
10
4.37016740604594
20
-1.0791534612076
30
0
41
1
10
4.21839762956904
20
-0.957642850974111
30
0
41
1
10
4.16959054413107
20
-0.913215869276854
30
0
41
1
10
4.07970654515017
20
-0.816977820180369
30
0
41
1
10
4.03832700849517
20
-0.765017651411114
30
0
41
1
10
3.96516474457456
20
-0.650708690582547
30
0
41
1
10
3.93438398391828
20
-0.58977241040219
30
0
41
1
10
3.89940066181714
20
-0.492463710552386
30
0
41
1
10
3.88958414919952
20
-0.458990876245139
30
0
41
1
10
3.87414738482664
20
-0.389684079202681
30
0
41
1
10
3.86856955909425
20
-0.353741638207566
30
0
41
1
10
3.86234697571211
20
-0.28195687976509
30
0
41
1
10
3.86161448048887
20
-0.245805592045031
30
0
41
1
10
3.86492615513421
20
-0.172982278592997
30
0
41
1
10
3.86903279560045
20
-0.136019552438853
30
0
41
1
10
3.8881444622281
20
-0.0268949548246269
30
0
41
1
10
3.90969634116468
20
0.0435455448029813
30
0
41
1
10
3.93849404691599
20
0.111869543762197
30
0
0
SPLINE
5
D9
100
AcDbEntity
8
1
62
256
6
ByLayer
370
18
48
1
60
0
100
AcDbSpline
70
4
71
3
72
8
73
4
40
0
40
0
40
0
40
0
40
1
40
1
40
1
40
1
41
1
10
37.7090140213202
20
-0.351369217555572
30
0
41
1
10
37.7125495956615
20
-0.352399909971808
30
0
41
1
10
37.7161492008103
20
-0.353224710839555
30
0
41
1
10
37.7198147900945
20
-0.353837339218529
30
0
0
SPLINE
5
DA
100
AcDbEntity
8
1
62
256
6
ByLayer
370
13
48
1
60
0
100
AcDbSpline
70
4
71
3
72
103
73
99
40
0
40
0
40
0
40
0
40
0.0031325693880518
40
0.0136543799333464
40
0.0241761904786504
40
0.0399589062965937
40
0.0452198115692425
40
0.0557416221145388
40
0.0662634326598381
40
0.0820461484777862
40
0.0873070537504338
40
0.0978288642957307
40
0.108350674841029
40
0.124133390658971
40
0.129394295931624
40
0.139916106476923
40
0.150437917022223
40
0.166220632840167
40
0.171481538112815
40
0.182003348658112
40
0.192525159203414
40
0.208307875021361
40
0.213568780294006
40
0.224090590839303
40
0.234612401384604
40
0.250395117202546
40
0.255656022475197
40
0.266177833020495
40
0.276699643565796
40
0.29248235938374
40
0.297743264656388
40
0.308265075201685
40
0.318786885746985
40
0.334569601564928
40
0.339830506837579
40
0.350352317382874
40
0.360874127928176
40
0.376656843746117
40
0.38191774901877
40
0.392439559564067
40
0.402961370109365
40
0.418744085927309
40
0.42400499119996
40
0.434526801745258
40
0.445048612290555
40
0.460831328108496
40
0.466092233381152
40
0.476614043926446
40
0.487135854471746
40
0.502918570289693
40
0.508179475562342
40
0.51870128610764
40
0.529223096652939
40
0.545005812470882
40
0.550266717743533
40
0.560788528288833
40
0.571310338834129
40
0.587093054652073
40
0.592353959924724
40
0.602875770470022
40
0.613397581015317
40
0.629180296833264
40
0.634441202105915
40
0.644963012651214
40
0.655484823196511
40
0.671267539014457
40
0.676528444287106
40
0.687050254832405
40
0.697572065377705
40
0.713354781195647
40
0.718615686468297
40
0.729137497013594
40
0.739659307558891
40
0.755442023376838
40
0.760702928649488
40
0.771224739194783
40
0.781746549740084
40
0.797529265558029
40
0.802790170830678
40
0.813311981375978
40
0.823833791921274
40
0.839616507739222
40
0.844877413011869
40
0.855399223557163
40
0.865921034102463
40
0.881703749920413
40
0.88696465519306
40
0.897486465738358
40
0.908008276283655
40
0.923790992101602
40
0.929051897374251
40
0.939573707919549
40
0.950095518464849
40
0.965878234282793
40
0.971139139555442
40
0.981660950100739
40
0.992182760646035
40
1
40
1
40
1
40
1
41
1.00000000000003
10
33.1214274437001
20
0.0530326935043474
30
0
41
1.00000000000003
10
33.1155157282754
20
0.0546267484577908
30
0
41
1.00000000000003
10
33.0897473617921
20
0.0615727144006239
30
0
41
1.00000000000003
10
33.044120738976
20
0.0738403560461029
30
0
41
1.00000000000003
10
32.9746209528386
20
0.0924870384507955
30
0
41
1.00000000000003
10
32.9150524250907
20
0.108449637030642
30
0
41
1.00000000000003
10
32.8554829003172
20
0.124366575950258
30
0
41
1.00000000000003
10
32.8058395714935
20
0.137573203987354
30
0
41
1.00000000000003
10
32.7363397858966
20
0.155990056550389
30
0
41
1.00000000000003
10
32.6767712526313
20
0.171722131178848
30
0
41
1.00000000000003
10
32.617201719104
20
0.187380561349608
30
0
41
1.00000000000003
10
32.5675583811921
20
0.200353625193111
30
0
41
1.00000000000003
10
32.4980585773073
20
0.218412026901824
30
0
41
1.00000000000003
10
32.4384900201427
20
0.233804203281459
30
0
41
1.00000000000003
10
32.3789204532978
20
0.249095636510098
30
0
41
1.00000000000003
10
32.3292770821748
20
0.26174548204468
30
0
41
1.00000000000003
10
32.2597772310203
20
0.279321043784498
30
0
41
1.00000000000003
10
32.2002086412492
20
0.294267716633632
30
0
41
1.00000000000003
10
32.1406390586855
20
0.309087550944601
30
0
41
1.00000000000003
10
32.0909956882521
20
0.321327839878781
30
0
41
1.00000000000003
10
32.0214958575625
20
0.338300668402173
30
0
41
1.00000000000003
10
31.961927298273
20
0.352699626284551
30
0
41
1.00000000000003
10
31.9023577472429
20
0.366945935866272
30
0
41
1.00000000000003
10
31.8527144012839
20
0.378692039320771
30
0
41
1.00000000000003
10
31.7832145984114
20
0.394944205216137
30
0
41
1.00000000000003
10
31.7236460534338
20
0.408695050126413
30
0
41
1.00000000000003
10
31.6640765059178
20
0.422268543654569
30
0
41
1.00000000000003
10
31.6144331548179
20
0.433438688848029
30
0
41
1.00000000000003
10
31.5449333363805
20
0.448857206882636
30
0
41
1.00000000000003
10
31.485364777078
20
0.46186449326099
30
0
41
1.00000000000003
10
31.4257952239231
20
0.474671051805828
30
0
41
1.00000000000003
10
31.3761518754636
20
0.485187839658735
30
0
41
1.00000000000003
10
31.3066520723744
20
0.499665953906614
30
0
41
1.00000000000003
10
31.247083536602
20
0.511839682689596
30
0
41
1.00000000000003
10
31.1875140127784
20
0.523790715032204
30
0
41
1.00000000000003
10
31.1378706913854
20
0.533581399724438
30
0
41
1.00000000000003
10
31.0683709225976
20
0.547019020338877
30
0
41
1.00000000000003
10
31.008802403857
20
0.558275143699615
30
0
41
1.00000000000003
10
30.9492328768314
20
0.569288289833605
30
0
41
1.00000000000003
10
30.899589537975
20
0.578285506828746
30
0
41
1.00000000000003
10
30.8300897270772
20
0.590590295296305
30
0
41
1.00000000000003
10
30.7705211639684
20
0.600851505217786
30
0
41
1.00000000000003
10
30.7109515986147
20
0.61085105427109
30
0
41
1.00000000000003
10
30.6613082356175
20
0.618992884822386
30
0
41
1.00000000000003
10
30.5918084044252
20
0.630080004652067
30
0
41
1.00000000000003
10
30.5322398355646
20
0.63927535471627
30
0
41
1.00000000000003
10
30.4726702706484
20
0.648191970026241
30
0
41
1.00000000000003
10
30.4230269112517
20
0.655421823899454
30
0
41
1.00000000000003
10
30.3535270901782
20
0.665213937659908
30
0
41
1.00000000000003
10
30.2939585343738
20
0.673278962003459
30
0
41
1.00000000000003
10
30.2343889847862
20
0.681049834241357
30
0
41
1.00000000000003
10
30.1847456388596
20
0.687316583161796
30
0
41
1.00000000000003
10
30.1152458379539
20
0.695744455178592
30
0
41
1.00000000000003
10
30.055677301415
20
0.702622565503084
30
0
41
1.00000000000003
10
29.9961077732966
20
0.70919403222647
30
0
41
1.00000000000003
10
29.94646444668
20
0.714455064412
30
0
41
1.00000000000003
10
29.8769646720958
20
0.721462230870322
30
0
41
1.00000000000003
10
29.8173961538994
20
0.727107817830422
30
0
41
1.00000000000003
10
29.7578266367035
20
0.732436151344991
30
0
41
1.00000000000003
10
29.7081833126295
20
0.736656249919441
30
0
41
1.00000000000003
10
29.6386835293816
20
0.74219537463697
30
0
41
1.00000000000003
10
29.5791149920146
20
0.746569794756573
30
0
41
1.00000000000003
10
29.5195454477064
20
0.750618075799599
30
0
41
1.00000000000003
10
29.4699020960161
20
0.753767699334139
30
0
41
1.00000000000003
10
29.4004022716387
20
0.757799409136061
30
0
41
1.00000000000003
10
29.3408337041982
20
0.760870877868035
30
0
41
1.00000000000003
10
29.2812641430929
20
0.763609069966639
30
0
41
1.00000000000003
10
29.2316207895565
20
0.765664416933339
30
0
41
1.00000000000003
10
29.1621209782621
20
0.768158061893052
30
0
41
1.00000000000003
10
29.1025524288799
20
0.769903732916623
30
0
41
1.00000000000003
10
29.042982879694
20
0.771312751219772
30
0
41
1.00000000000003
10
28.9933395300402
20
0.772260569537797
30
0
41
1.00000000000003
10
28.9238397154281
20
0.773201583069726
30
0
41
1.00000000000003
10
28.8642711562961
20
0.773612362626755
30
0
41
1.00000000000003
10
28.8047015949465
20
0.773685095783468
30
0
41
1.00000000000003
10
28.7550582331834
20
0.773520623531601
30
0
41
1.00000000000003
10
28.68555840176
20
0.772904250938103
30
0
41
1.00000000000003
10
28.6259898338667
20
0.771977980676245
30
0
41
1.00000000000003
10
28.5664202746399
20
0.770713941357774
30
0
41
1.00000000000003
10
28.5167769233652
20
0.769437910154329
30
0
41
1.00000000000003
10
28.4472771188053
20
0.767267039718439
30
0
41
1.00000000000003
10
28.3877085818705
20
0.765008057165124
30
0
41
1.00000000000003
10
28.3281390539115
20
0.762413173702077
30
0
41
1.00000000000003
10
28.2784957274967
20
0.760031591105081
30
0
41
1.00000000000003
10
28.2089959532958
20
0.756317322967425
30
0
41
1.00000000000003
10
28.1494274353839
20
0.752738908226013
30
0
41
1.00000000000003
10
28.0898579182551
20
0.748830768173667
30
0
41
1.00000000000003
10
28.040214593775
20
0.745361291052666
30
0
41
1.00000000000003
10
27.970714810964
20
0.740132819542032
30
0
41
1.00000000000003
10
27.9111462773962
20
0.735263713774265
30
0
41
1.00000000000003
10
27.8515767423261
20
0.73007293941783
30
0
41
1.00000000000003
10
27.8019334029591
20
0.725542059822522
30
0
41
1.00000000000003
10
27.7324335980385
20
0.71883809861621
30
0
41
1.00000000000003
10
27.6728650419454
20
0.712713140674147
30
0
41
1.00000000000003
10
27.6132954788293
20
0.70627595681254
30
0
41
1.00000000000003
10
27.5636521131661
20
0.700714753201716
30
0
41
1.00000000000003
10
27.5091849747191
20
0.694339787269975
30
0
41
1.00000000000003
10
27.4745760323549
20
0.690139769916023
30
0
41
1.00000000000003
10
27.4598236122485
20
0.688322046112781
30
0
0
SPLINE
5
DB
100
AcDbEntity
8
1
62
256
6
ByLayer
370
13
48
1
60
0
100
AcDbSpline
70
4
71
3
72
104
73
100
40
0
40
0
40
0
40
0
40
0.001912621705899
40
0.0176557659545577
40
0.022903480704111
40
0.0333989102032158
40
0.0438943397023242
40
0.0596374839509805
40
0.0648851987005332
40
0.075380628199638
40
0.0858760576987434
40
0.101619201947401
40
0.106866916696955
40
0.11736234619606
40
0.127857775695167
40
0.143600919943825
40
0.148848634693378
40
0.159344064192482
40
0.169839493691588
40
0.185582637940247
40
0.1908303526898
40
0.201325782188905
40
0.211821211688012
40
0.22756435593667
40
0.232812070686223
40
0.243307500185327
40
0.253802929684435
40
0.269546073933093
40
0.274793788682645
40
0.285289218181751
40
0.295784647680857
40
0.311527791929515
40
0.316775506679068
40
0.327270936178172
40
0.337766365677279
40
0.353509509925936
40
0.35875722467549
40
0.369252654174595
40
0.379748083673701
40
0.395491227922359
40
0.400738942671912
40
0.411234372171017
40
0.421729801670124
40
0.437472945918782
40
0.442720660668335
40
0.453216090167439
40
0.463711519666546
40
0.479454663915204
40
0.484702378664757
40
0.495197808163862
40
0.505693237662968
40
0.521436381911626
40
0.526684096661179
40
0.537179526160284
40
0.54767495565939
40
0.563418099908049
40
0.568665814657602
40
0.579161244156707
40
0.589656673655813
40
0.605399817904471
40
0.610647532654024
40
0.621142962153129
40
0.631638391652235
40
0.647381535900893
40
0.652629250650446
40
0.663124680149552
40
0.673620109648657
40
0.689363253897316
40
0.694610968646869
40
0.705106398145975
40
0.71560182764508
40
0.731344971893737
40
0.736592686643291
40
0.747088116142397
40
0.757583545641502
40
0.773326689890161
40
0.778574404639713
40
0.789069834138819
40
0.799565263637925
40
0.815308407886583
40
0.820556122636136
40
0.831051552135242
40
0.841546981634347
40
0.857290125883006
40
0.862537840632558
40
0.873033270131664
40
0.883528699630769
40
0.899271843879428
40
0.90451955862898
40
0.915014988128086
40
0.925510417627192
40
0.94125356187585
40
0.946501276625403
40
0.956996706124509
40
0.967492135623614
40
0.983235279872273
40
0.988482994621825
40
0.998978424120931
40
1
40
1
40
1
40
1
41
1.00000000000003
10
15.1243119052304
20
0.0522475953376882
30
0
41
1.00000000000003
10
15.1206933144177
20
0.0532219985899458
30
0
41
1.00000000000003
10
15.087289528589
20
0.0622166294360492
30
0
41
1.00000000000003
10
15.0439586682819
20
0.073883483128808
30
0
41
1.00000000000003
10
14.9843890895819
20
0.0898923080562754
30
0
41
1.00000000000003
10
14.9347457227659
20
0.103185834697595
30
0
41
1.00000000000003
10
14.8652458979167
20
0.121742162581423
30
0
41
1.00000000000003
10
14.805677344341
20
0.137612176582816
30
0
41
1.00000000000003
10
14.7461077994556
20
0.153423799656077
30
0
41
1.00000000000003
10
14.6964644588632
20
0.166534370677449
30
0
41
1.00000000000003
10
14.6269646638074
20
0.18480234803888
30
0
41
1.00000000000003
10
14.5673961256781
20
0.200391847123819
30
0
41
1.00000000000003
10
14.5078265849102
20
0.215895194013648
30
0
41
1.00000000000003
10
14.4581832393368
20
0.228730959484203
30
0
41
1.00000000000003
10
14.3886834283006
20
0.246583054361188
30
0
41
1.00000000000003
10
14.3291148747995
20
0.26178366752213
30
0
41
1.00000000000003
10
14.2695453267959
20
0.276871307418239
30
0
41
1.00000000000003
10
14.2199019821256
20
0.289343529806748
30
0
41
1.00000000000003
10
14.1504021832639
20
0.306656696431778
30
0
41
1.00000000000003
10
14.0908336498808
20
0.32136403155214
30
0
41
1.00000000000003
10
14.0312641273617
20
0.335932629175791
30
0
41
1.00000000000003
10
13.9816208062639
20
0.347956059909724
30
0
41
1.00000000000003
10
13.9121210363832
20
0.364612028849354
30
0
41
1.00000000000003
10
13.8525525151829
20
0.378725413514604
30
0
41
1.00000000000003
10
13.7929829845795
20
0.392674754184059
30
0
41
1.00000000000003
10
13.7433396420026
20
0.404166307489975
30
0
41
1.00000000000003
10
13.6738398246502
20
0.420049483017026
30
0
41
1.00000000000003
10
13.6142712548966
20
0.433470662283171
30
0
41
1.00000000000003
10
13.5547016822709
20
0.446703663728258
30
0
41
1.00000000000003
10
13.5050583128367
20
0.457583438754753
30
0
41
1.00000000000003
10
13.4355584719445
20
0.472583506396901
30
0
41
1.00000000000003
10
13.3759898941029
20
0.485219372154361
30
0
41
1.00000000000003
10
13.3164203197514
20
0.497644287060367
30
0
41
1.00000000000003
10
13.2667769522245
20
0.507836880813399
30
0
41
1.00000000000003
10
13.1972771193888
20
0.521849916865916
30
0
41
1.00000000000003
10
13.1377085532254
20
0.533612941250864
30
0
41
1.00000000000003
10
13.0781389932269
20
0.545143688512849
30
0
41
1.00000000000003
10
13.0284956384805
20
0.554578470552781
30
0
41
1.00000000000003
10
12.9589958249447
20
0.56750742303164
30
0
41
1.00000000000003
10
12.8994272774479
20
0.578316280883893
30
0
41
1.00000000000003
10
12.8398577384391
20
0.588873361989396
30
0
41
1.00000000000003
10
12.7902144028684
20
0.597485447028514
30
0
41
1.00000000000003
10
12.7207146161168
20
0.609241582490749
30
0
41
1.00000000000003
10
12.6611460879821
20
0.619022154838727
30
0
41
1.00000000000003
10
12.6015765613566
20
0.628533070485399
30
0
41
1.00000000000003
10
12.5519332298099
20
0.636263215798616
30
0
41
1.00000000000003
10
12.4824334370313
20
0.646765451942722
30
0
41
1.00000000000003
10
12.4228648926632
20
0.655450028862086
30
0
41
1.00000000000003
10
12.363295342486
20
0.663848703031002
30
0
41
1.00000000000003
10
12.3136519867549
20
0.670643048246981
30
0
41
1.00000000000003
10
12.2441521584175
20
0.679817897774009
30
0
41
1.00000000000003
10
12.1845835893894
20
0.687345351844649
30
0
41
1.00000000000003
10
12.1250140281345
20
0.694572348688105
30
0
41
1.00000000000003
10
12.0753706754293
20
0.700382595671108
30
0
41
1.00000000000003
10
12.005870866941
20
0.708164858602352
30
0
41
1.00000000000003
10
11.9463023214958
20
0.714482181183548
30
0
41
1.00000000000003
10
11.8867327771976
20
0.720487556321082
30
0
41
1.00000000000003
10
11.8370894322228
20
0.725274283160736
30
0
41
1.00000000000003
10
11.7675896250866
20
0.731612098028683
30
0
41
1.00000000000003
10
11.7080210730473
20
0.736677734195417
30
0
41
1.00000000000003
10
11.6484515189782
20
0.741421851288385
30
0
41
1.00000000000003
10
11.5988081633632
20
0.745153259568133
30
0
41
1.00000000000003
10
11.5293083405632
20
0.750004098464422
30
0
41
1.00000000000003
10
11.4697397798882
20
0.753783555209287
30
0
41
1.00000000000003
10
11.4101702275269
20
0.757233665633754
30
0
41
1.00000000000003
10
11.3605268816671
20
0.759883697033393
30
0
41
1.00000000000003
10
11.2910270839542
20
0.763213065545761
30
0
41
1.00000000000003
10
11.231458551985
20
0.765678728336018
30
0
41
1.00000000000003
10
11.1718890281286
20
0.767808927265525
30
0
41
1.00000000000003
10
11.1222457045832
20
0.769357188238223
30
0
41
1.00000000000003
10
11.052745933446
20
0.771139194836484
30
0
41
1.00000000000003
10
10.993177417198
20
0.772272337597433
30
0
41
1.00000000000003
10
10.9336079010555
20
0.773067750797514
30
0
41
1.00000000000003
10
10.8839645769253
20
0.773504561508707
30
0
41
1.00000000000003
10
10.8144647938238
20
0.773729734025272
30
0
41
1.00000000000003
10
10.7548962593695
20
0.7735257004932
30
0
41
1.00000000000003
10
10.6953267231426
20
0.77298366228158
30
0
41
1.00000000000003
10
10.6456833826549
20
0.772307953716966
30
0
41
1.00000000000003
10
10.5761835758747
20
0.770976681204024
30
0
41
1.00000000000003
10
10.5166150179292
20
0.769437687635451
30
0
41
1.00000000000003
10
10.4570454528206
20
0.767562035645033
30
0
41
1.00000000000003
10
10.407402085401
20
0.765778101776339
30
0
41
1.00000000000003
10
10.337902242638
20
0.76289821117698
30
0
41
1.00000000000003
10
10.2783336618735
20
0.760032805810743
30
0
41
1.00000000000003
10
10.2187640879233
20
0.756833684430353
30
0
41
1.00000000000003
10
10.169120723804
20
0.753951049644689
30
0
41
1.00000000000003
10
10.0996209009243
20
0.749538558592639
30
0
41
1.00000000000003
10
10.0400523481391
20
0.745364211891291
30
0
41
1.00000000000003
10
9.98048280453237
20
0.740863340475278
30
0
41
1.00000000000003
10
9.93083946542042
20
0.736903053910772
30
0
41
1.00000000000003
10
9.86133967299845
20
0.730991822580967
30
0
41
1.00000000000003
10
9.80177113768086
20
0.725541194222309
30
0
41
1.00000000000003
10
9.74220160009334
20
0.719773043566284
30
0
41
1.00000000000003
10
9.69255825739974
20
0.714764753176503
30
0
41
1.00000000000003
10
9.62305845019284
20
0.707397847938843
30
0
41
1.00000000000003
10
9.56348989906123
20
0.700709466466528
30
0
41
1.00000000000003
10
9.50392035190145
20
0.693713938906207
30
0
41
1.00000000000003
10
9.47220152444333
20
0.689866175529069
30
0
41
1.00000000000003
10
9.45041151768106
20
0.687163965616187
30
0
41
1.00000000000003
10
9.44847871237891
20
0.686923812770239
30
0
0
SPLINE
5
DC
100
AcDbEntity
8
1
62
256
6
ByLayer
370
18
48
1
60
0
100
AcDbSpline
70
4
71
3
72
18
73
14
40
0
40
0
40
0
40
0
40
0.290612341770908
40
0.290612341770908
40
0.435918512656364
40
0.435918512656364
40
0.581224683541821
40
0.581224683541821
40
0.726530854427277
40
0.726530854427277
40
0.871837025312733
40
0.871837025312733
40
1
40
1
40
1
40
1
41
1
10
7.62382667780031
20
-0.670786208517001
30
0
41
1
10
7.93583907170972
20
-0.823222376848037
30
0
41
1
10
8.24621588445024
20
-0.962152763576768
30
0
41
1
10
8.71404168898167
20
-1.14330775329381
30
0
41
1
10
8.86992100916245
20
-1.1989224514605
30
0
41
1
10
9.18104199752969
20
-1.29881516844932
30
0
41
1
10
9.33643058901771
20
-1.34328560329246
30
0
41
1
10
9.64802614024609
20
-1.42007834816775
30
0
41
1
10
9.80405106470229
20
-1.45245545245206
30
0
41
1
10
10.1152005726872
20
-1.50383939295062
30
0
41
1
10
10.2705091089378
20
-1.52301660675312
30
0
41
1
10
10.5634785339391
20
-1.54631902003337
30
0
41
1
10
10.7010924369702
20
-1.55196441233815
30
0
41
1
10
10.8384222680072
20
-1.55224718926334
30
0
0
SPLINE
5
DD
100
AcDbEntity
8
1
62
256
6
ByLayer
370
18
48
1
60
0
100
AcDbSpline
70
4
71
3
72
46
73
42
40
0
40
0
40
0
40
0
40
0.0341026607778591
40
0.0341026607778591
40
0.0751395978605315
40
0.0751395978605315
40
0.116176534943204
40
0.116176534943204
40
0.157213472025876
40
0.157213472025876
40
0.198250409108549
40
0.198250409108549
40
0.280324283273895
40
0.280324283273895
40
0.362398157439241
40
0.362398157439241
40
0.444472031604588
40
0.444472031604588
40
0.526545905769934
40
0.526545905769934
40
0.567582842852608
40
0.567582842852608
40
0.608619779935282
40
0.608619779935282
40
0.649656717017956
40
0.649656717017956
40
0.69069365410063
40
0.69069365410063
40
0.731730591183304
40
0.731730591183304
40
0.772767528265977
40
0.772767528265977
40
0.813804465348651
40
0.813804465348651
40
0.854841402431325
40
0.854841402431325
40
0.895878339513999
40
0.895878339513999
40
0.936915276596673
40
0.936915276596673
40
1
40
1
40
1
40
1
41
1
10
17.5024604928768
20
1.07113939570101
30
0
41
1
10
17.6316684238935
20
1.12270090998374
30
0
41
1
10
17.7611292525816
20
1.17105105202285
30
0
41
1
10
18.0454259171411
20
1.26929175712792
30
0
41
1
10
18.2005017898019
20
1.31745253226308
30
0
41
1
10
18.5109608281783
20
1.40207629355149
30
0
41
1
10
18.6667548940072
20
1.43850276315382
30
0
41
1
10
18.9774114533017
20
1.49823076068145
30
0
41
1
10
19.1324153013328
20
1.52157336362873
30
0
41
1
10
19.4427421782024
20
1.55477086773072
30
0
41
1
10
19.5983369700149
20
1.56463711997549
30
0
41
1
10
20.0645483645845
20
1.57336483920898
30
0
41
1
10
20.3741517721105
20
1.55138703196198
30
0
41
1
10
20.9961034668648
20
1.45376662006328
30
0
41
1
10
21.3051160184751
20
1.37853247119327
30
0
41
1
10
21.9273621539997
20
1.18158830624765
30
0
41
1
10
22.2363418177017
20
1.06083689706568
30
0
41
1
10
22.8579041890044
20
0.785292693565907
30
0
41
1
10
23.1673622036955
20
0.631455556877
30
0
41
1
10
23.633061040134
20
0.387394791003231
30
0
41
1
10
23.7885148804263
20
0.303778926653877
30
0
41
1
10
24.0984503098742
20
0.135088595168924
30
0
41
1
10
24.2532576788895
20
0.0498448651549666
30
0
41
1
10
24.5634398417379
20
-0.120824686179276
30
0
41
1
10
24.7189892521171
20
-0.206230733318364
30
0
41
1
10
25.0289201786113
20
-0.374092700812611
30
0
41
1
10
25.1837021605645
20
-0.456586880986095
30
0
41
1
10
25.4936416180593
20
-0.617386626400645
30
0
41
1
10
25.6491948801495
20
-0.695626341046989
30
0
41
1
10
25.9591625223464
20
-0.845094043252999
30
0
41
1
10
26.1139290540457
20
-0.91623183724397
30
0
41
1
10
26.4236676644697
20
-1.0503486526963
30
0
41
1
10
26.5791344130897
20
-1.11322191287187
30
0
41
1
10
26.8891751134312
20
-1.22862663401631
30
0
41
1
10
27.04393157737
20
-1.28098510910979
30
0
41
1
10
27.3535051445402
20
-1.37439220542794
30
0
41
1
10
27.508786495998
20
-1.41533183765932
30
0
41
1
10
27.8189458651814
20
-1.48452119874349
30
0
41
1
10
27.9736759832049
20
-1.51262736880867
30
0
41
1
10
28.3662900997219
20
-1.56704003896243
30
0
41
1
10
28.6048051197422
20
-1.58402831163917
30
0
41
1
10
28.8429554236562
20
-1.58462152057856
30
0
0
SPLINE
5
DE
100
AcDbEntity
8
1
62
256
6
ByLayer
370
18
48
1
60
0
100
AcDbSpline
70
4
71
3
72
14
73
10
40
0
40
0
40
0
40
0
40
0.0200905084049717
40
0.0200905084049717
40
0.510045254202477
40
0.510045254202477
40
0.755022627101239
40
0.755022627101239
40
1
40
1
40
1
40
1
41
1
10
35.5194488250708
20
1.09779080553153
30
0
41
1
10
35.532141100386
20
1.10294368705124
30
0
41
1
10
35.54483193709
20
1.10806465711744
30
0
41
1
10
35.8669710554909
20
1.23724928208202
30
0
41
1
10
36.1754071446698
20
1.34127375421184
30
0
41
1
10
36.6398514915215
20
1.46073868739367
30
0
41
1
10
36.7943789873838
20
1.49422294403203
30
0
41
1
10
37.1036055129767
20
1.54804432356184
30
0
41
1
10
37.2585989866958
20
1.56833945472752
30
0
41
1
10
37.4132241936721
20
1.58167224442559
30
0
0
SPLINE
5
DF
100
AcDbEntity
8
1
62
256
6
ByLayer
370
18
48
1
60
0
100
AcDbSpline
70
4
71
3
72
14
73
10
40
0
40
0
40
0
40
0
40
0.25
40
0.25
40
0.5
40
0.5
40
0.75
40
0.75
40
1
40
1
40
1
40
1
41
1
10
37.7198147900896
20
-0.353837339217733
30
0
41
1
10
37.7378927864636
20
-0.351004313405838
30
0
41
1
10
37.7580125194046
20
-0.338648652286622
30
0
41
1
10
37.8029803587879
20
-0.295099102916538
30
0
41
1
10
37.8268082399148
20
-0.264845438763814
30
0
41
1
10
37.8766984792005
20
-0.189252091035883
30
0
41
1
10
37.9020050633997
20
-0.145017691642522
30
0
41
1
10
37.9521538224041
20
-0.0466436214381645
30
0
41
1
10
37.9766107927095
20
0.0067913282443044
30
0
41
1
10
37.9996451217261
20
0.0625745975282257
30
0
0
SPLINE
5
E0
100
AcDbEntity
8
1
62
256
6
ByLayer
370
18
48
1
60
0
100
AcDbSpline
70
4
71
3
72
12
73
8
40
0
40
0
40
0
40
0
40
0.25
40
0.25
40
0.5
40
0.5
40
1
40
1
40
1
40
1
41
1
10
6.06227630259457
20
0.580546803777992
30
0
41
1
10
6.06228380994338
20
0.551303302380461
30
0
41
1
10
6.07603269425923
20
0.523924891928374
30
0
41
1
10
6.1102580753398
20
0.475174649432915
30
0
41
1
10
6.13160313650201
20
0.453222056966325
30
0
41
1
10
6.19961886452342
20
0.393297154216299
30
0
41
1
10
6.25165213737228
20
0.359708636568598
30
0
41
1
10
6.30622461604565
20
0.330945924631322
30
0
0
SPLINE
5
E1
100
AcDbEntity
8
1
62
256
6
ByLayer
370
18
48
1
60
0
100
AcDbSpline
70
4
71
3
72
8
73
4
40
0
40
0
40
0
40
0
40
1
40
1
40
1
40
1
41
1
10
37.8995021117431
20
-0.329695925764014
30
0
41
1
10
37.878248336898
20
-0.388494035094851
30
0
41
1
10
37.8570351766827
20
-0.44730662621572
30
0
41
1
10
37.8358626911907
20
-0.506133720553919
30
0
0
SPLINE
5
E2
100
AcDbEntity
8
1
62
256
6
ByLayer
370
18
48
1
60
0
100
AcDbSpline
70
4
71
4
72
10
73
5
40
0
40
0
40
0
40
0
40
0
40
1
40
1
40
1
40
1
40
1
41
1
10
6.7239293069797
20
-0.765220108256784
30
0
41
1
10
6.66513430111314
20
-0.944900237102928
30
0
41
1
10
6.60633929524661
20
-1.12458036594904
30
0
41
1
10
6.54754428938008
20
-1.30426049479516
30
0
41
1
10
6.48874928351353
20
-1.4839406236413
30
0
0
SPLINE
5
E3
100
AcDbEntity
8
1
62
256
6
ByLayer
370
18
48
1
60
0
100
AcDbSpline
70
4
71
3
72
8
73
4
40
0
40
0
40
0
40
0
40
1
40
1
40
1
40
1
41
1
10
6.39363677624047
20
-1.48633253792278
30
0
41
1
10
6.28121549642407
20
-1.48816302644252
30
0
41
1
10
6.17050350415801
20
-1.50472319250124
30
0
41
1
10
6.06180063392469
20
-1.53895840528807
30
0
0
SPLINE
5
E4
100
AcDbEntity
8
1
62
256
6
ByLayer
370
18
48
1
60
0
100
AcDbSpline
70
4
71
3
72
14
73
10
40
0
40
0
40
0
40
0
40
0.149729390348479
40
0.149729390348479
40
0.433152926898986
40
0.433152926898986
40
0.716576463449493
40
0.716576463449493
40
1
40
1
40
1
40
1
41
1
10
37.4184741605389
20
0.209310566793221
30
0
41
1
10
37.4321919607333
20
0.219851240025463
30
0
41
1
10
37.4464373613053
20
0.231241171039727
30
0
41
1
10
37.4891042428188
20
0.266241233404827
30
0
41
1
10
37.5183176718869
20
0.291269403508125
30
0
41
1
10
37.5808968938429
20
0.343691333154993
30
0
41
1
10
37.6145184523983
20
0.371333653200281
30
0
41
1
10
37.6857924376341
20
0.423105533425883
30
0
41
1
10
37.7242058888906
20
0.447784262158535
30
0
41
1
10
37.7659219698704
20
0.467002325840895
30
0
0
SPLINE
5
E5
100
AcDbEntity
8
1
62
256
6
ByLayer
370
18
48
1
60
0
100
AcDbSpline
70
4
71
3
72
8
73
4
40
0
40
0
40
0
40
0
40
1
40
1
40
1
40
1
41
1
10
37.728978969261
20
-0.773286485825992
30
0
41
1
10
37.7620324114976
20
-0.679834536117937
30
0
41
1
10
37.7976034315059
20
-0.591044438366509
30
0
41
1
10
37.8358626911956
20
-0.506133720543147
30
0
0
SPLINE
5
E6
100
AcDbEntity
8
1
62
256
6
ByLayer
370
18
48
1
60
0
100
AcDbSpline
70
4
71
3
72
14
73
10
40
0
40
0
40
0
40
0
40
0.25
40
0.25
40
0.5
40
0.5
40
0.75
40
0.75
40
1
40
1
40
1
40
1
41
1
10
37.7090140213202
20
-0.3513692175556
30
0
41
1
10
37.679597515761
20
-0.339650170784637
30
0
41
1
10
37.6531038385086
20
-0.31703824277858
30
0
41
1
10
37.6046741727966
20
-0.254828660093665
30
0
41
1
10
37.583701404636
20
-0.216363308897599
30
0
41
1
10
37.5471012329843
20
-0.12854002385032
30
0
41
1
10
37.5313760246508
20
-0.0785449824996931
30
0
41
1
10
37.505759878477
20
0.0275704769274512
30
0
41
1
10
37.4956809292477
20
0.0840319033665367
30
0
41
1
10
37.4881574019284
20
0.143680389697721
30
0
0
SPLINE
5
E7
100
AcDbEntity
8
1
62
256
6
ByLayer
370
18
48
1
60
0
100
AcDbSpline
70
4
71
3
72
18
73
14
40
0
40
0
40
0
40
0
40
0.200384144260572
40
0.200384144260572
40
0.466922762840382
40
0.466922762840382
40
0.600192072130286
40
0.600192072130286
40
0.733461381420191
40
0.733461381420191
40
0.866730690710095
40
0.866730690710095
40
1
40
1
40
1
40
1
41
1
10
6.06169223290524
20
1.54370543201569
30
0
41
1
10
6.06159322376865
20
1.54371283248452
30
0
41
1
10
6.06152683188145
20
1.52921722351732
30
0
41
1
10
6.06146911792337
20
1.46149054009172
30
0
41
1
10
6.06151108024045
20
1.39903414209996
30
0
41
1
10
6.06165375906932
20
1.26977524744367
30
0
41
1
10
6.06171344328567
20
1.22137682671399
30
0
41
1
10
6.0618428613584
20
1.11556174658688
30
0
41
1
10
6.06191284620408
20
1.0579647526512
30
0
41
1
10
6.06204839180231
20
0.933147290258347
30
0
41
1
10
6.06211325269584
20
0.866299998070161
30
0
41
1
10
6.06221724203073
20
0.72781461930856
30
0
41
1
10
6.06225702176789
20
0.65565171594082
30
0
41
1
10
6.06227630259457
20
0.580546803773871
30
0
0
SPLINE
5
E8
100
AcDbEntity
8
1
62
256
6
ByLayer
370
18
48
1
60
0
100
AcDbSpline
70
4
71
3
72
8
73
4
40
0
40
0
40
0
40
0
40
1
40
1
40
1
40
1
41
1
10
37.7659219698692
20
0.467002325845471
30
0
41
1
10
37.7900344222942
20
0.478110623541795
30
0
41
1
10
37.8138216250145
20
0.490887544075576
30
0
41
1
10
37.8358626911911
20
0.50613372055318
30
0
0
SPLINE
5
E9
100
AcDbEntity
8
1
62
256
6
ByLayer
370
18
48
1
60
0
100
AcDbSpline
70
4
71
3
72
8
73
4
40
0
40
0
40
0
40
0
40
1
40
1
40
1
40
1
41
1
10
37.4132241936721
20
-1.58167224442559
30
0
41
1
10
37.3991141391753
20
-1.56577742942642
30
0
41
1
10
37.3879508309629
20
-1.53926475729526
30
0
41
1
10
37.3795586671791
20
-1.50252275937223
30
0
0
SPLINE
5
EA
100
AcDbEntity
8
1
62
256
6
ByLayer
370
18
48
1
60
0
100
AcDbSpline
70
4
71
3
72
8
73
4
40
0
40
0
40
0
40
0
40
1
40
1
40
1
40
1
41
1
10
37.9996451217259
20
0.0625745975278278
30
0
41
1
10
38.0001182927545
20
0.0208581991759331
30
0
41
1
10
38.0001182927544
20
-0.0208581991759331
30
0
41
1
10
37.9996451217258
20
-0.0625745975278278
30
0
0
SPLINE
5
EB
100
AcDbEntity
8
1
62
256
6
ByLayer
370
18
48
1
60
0
100
AcDbSpline
70
4
71
3
72
8
73
4
40
0
40
0
40
0
40
0
40
1
40
1
40
1
40
1
41
1
10
6.29772096594138
20
1.49157403883635
30
0
41
1
10
6.32957014917662
20
1.4885772798182
30
0
41
1
10
6.36154421997117
20
1.48685508183911
30
0
41
1
10
6.39363677624607
20
1.48633253792312
30
0
0
SPLINE
5
EC
100
AcDbEntity
8
1
62
256
6
ByLayer
370
18
48
1
60
0
100
AcDbSpline
70
4
71
3
72
10
73
6
40
0
40
0
40
0
40
0
40
0.5
40
0.5
40
1
40
1
40
1
40
1
41
1
10
37.3408748413532
20
-1.35646012570425
30
0
41
1
10
37.3039551302785
20
-1.28536663317539
30
0
41
1
10
37.2772719972817
20
-1.19617593150969
30
0
41
1
10
37.2461553220762
20
-0.978782111683273
30
0
41
1
10
37.2426727126523
20
-0.853347519979337
30
0
41
1
10
37.2511477786046
20
-0.718956528847173
30
0
0
SPLINE
5
ED
100
AcDbEntity
8
1
62
256
6
ByLayer
370
18
48
1
60
0
100
AcDbSpline
70
4
71
3
72
8
73
4
40
0
40
0
40
0
40
0
40
1
40
1
40
1
40
1
41
1
10
37.9996451217258
20
-0.0625745975279131
30
0
41
1
10
37.9652938845684
20
-0.150874839563897
30
0
41
1
10
37.9319538111751
20
-0.239918999778837
30
0
41
1
10
37.8995021117431
20
-0.329695925764099
30
0
0
SPLINE
5
EE
100
AcDbEntity
8
1
62
256
6
ByLayer
370
18
48
1
60
0
100
AcDbSpline
70
4
71
3
72
26
73
22
40
0
40
0
40
0
40
0
40
0.03125
40
0.03125
40
0.0625
40
0.0625
40
0.125
40
0.125
40
0.1875
40
0.1875
40
0.25
40
0.25
40
0.375
40
0.375
40
0.5
40
0.5
40
0.75
40
0.75
40
0.875
40
0.875
40
1
40
1
40
1
40
1
41
1
10
3.93849404691605
20
0.111869543762623
30
0
41
1
10
3.94748344399289
20
0.133197338478851
30
0
41
1
10
3.95930854079
20
0.153594898893829
30
0
41
1
10
3.98637599227939
20
0.190876425819056
30
0
41
1
10
4.00173766456732
20
0.208083420443955
30
0
41
1
10
4.05217008492701
20
0.256312822199476
30
0
41
1
10
4.08980076446414
20
0.282559153329146
30
0
41
1
10
4.16967362640781
20
0.328243858765973
30
0
41
1
10
4.21201647649417
20
0.347509732463777
30
0
41
1
10
4.29767804755073
20
0.380259859478286
30
0
41
1
10
4.34136893751662
20
0.393911208388488
30
0
41
1
10
4.47440157917256
20
0.428752211512005
30
0
41
1
10
4.56619177686178
20
0.44391675916583
30
0
41
1
10
4.7486130950177
20
0.461835581980779
30
0
41
1
10
4.83986713185482
20
0.4646869086354
30
0
41
1
10
5.11374236400349
20
0.457321481842229
30
0
41
1
10
5.29808211266899
20
0.430709304444719
30
0
41
1
10
5.56187526937691
20
0.359530052646164
30
0
41
1
10
5.64814463488983
20
0.330538954741797
30
0
41
1
10
5.81731575099386
20
0.261471401794296
30
0
41
1
10
5.90068626694736
20
0.221053949468313
30
0
41
1
10
5.980312817646
20
0.176017977128623
30
0
0
SPLINE
5
EF
100
AcDbEntity
8
1
62
256
6
ByLayer
370
18
48
1
60
0
100
AcDbSpline
70
4
71
2
72
6
73
3
40
0
40
0
40
0
40
1
40
1
40
1
41
1
10
11.0259505285888
20
-0.057051140296295
30
0
41
1
10
10.791974607495
20
0.0045421192864126
30
0
41
1
10
10.5574990401217
20
0.12906007917212
30
0
0
SPLINE
5
F0
100
AcDbEntity
8
1
62
256
6
ByLayer
370
18
48
1
60
0
100
AcDbSpline
70
4
71
2
72
6
73
3
40
0
40
0
40
0
40
1
40
1
40
1
41
1
10
29.0255474536421
20
-0.0569319847040788
30
0
41
1
10
28.770937391839
20
0.0117734136594549
30
0
41
1
10
28.5169082904045
20
0.148566484891148
30
0
0
SPLINE
5
F1
100
AcDbEntity
8
1
62
256
6
ByLayer
370
18
48
1
60
0
100
AcDbSpline
70
4
71
2
72
6
73
3
40
0
40
0
40
0
40
1
40
1
40
1
41
1
10
24.1042437319589
20
0.0576547154356888
30
0
41
1
10
24.3751725340568
20
-0.0151531572921044
30
0
41
1
10
24.6502699272027
20
-0.168415451130301
30
0
0
SPLINE
5
F2
100
AcDbEntity
8
1
62
256
6
ByLayer
370
18
48
1
60
0
100
AcDbSpline
70
4
71
2
72
6
73
3
40
0
40
0
40
0
40
1
40
1
40
1
41
1
10
33.104110549222
20
0.0577001966780699
30
0
41
1
10
33.3784971044205
20
-0.016579300406562
30
0
41
1
10
33.6505026976923
20
-0.168516192755362
30
0
0
SPLINE
5
F3
100
AcDbEntity
8
1
62
256
6
ByLayer
370
18
48
1
60
0
100
AcDbSpline
70
4
71
2
72
6
73
3
40
0
40
0
40
0
40
1
40
1
40
1
41
1
10
15.1043182875754
20
0.0576312443764095
30
0
41
1
10
15.3790550302755
20
-0.0167814065017922
30
0
41
1
10
15.6502657830524
20
-0.168389246371419
30
0
0
SPLINE
5
F4
100
AcDbEntity
8
1
62
256
6
ByLayer
370
18
48
1
60
0
100
AcDbSpline
70
4
71
3
72
20
73
16
40
0
40
0
40
0
40
0
40
0.160223352270311
40
0.268283668335009
40
0.335130032812331
40
0.398842058677337
40
0.462686344351625
40
0.5261870376489
40
0.589213939130938
40
0.662042175032206
40
0.734050346085348
40
0.80489153230516
40
0.874214010210769
40
0.974165490569251
40
1
40
1
40
1
40
1
41
1
10
24.3251299317477
20
1.5189055048711
30
0
41
1
10
24.1568423897316
20
1.51874066738344
30
0
41
1
10
23.8750563485182
20
1.51845363327684
30
0
41
1
10
23.5230631372947
20
1.51657744354429
30
0
41
1
10
23.2724355260958
20
1.51695332151499
30
0
41
1
10
23.0682492536042
20
1.51718193283548
30
0
41
1
10
22.8675756440242
20
1.51691003393697
30
0
41
1
10
22.6676236076376
20
1.51608300790372
30
0
41
1
10
22.4582338421816
20
1.51584517619958
30
0
41
1
10
22.2399116292018
20
1.51471130221759
30
0
41
1
10
22.0133775355567
20
1.51469338481425
30
0
41
1
10
21.790527050168
20
1.51489711979636
30
0
41
1
10
21.5383247014201
20
1.51462854971007
30
0
41
1
10
21.3334025569911
20
1.51400481783284
30
0
41
1
10
21.2012899411591
20
1.51366524545918
30
0
41
1
10
21.1741560562509
20
1.51359766417951
30
0
0
SPLINE
5
F5
100
AcDbEntity
8
1
62
256
6
ByLayer
370
18
48
1
60
0
100
AcDbSpline
70
4
71
3
72
18
73
14
40
0
40
0
40
0
40
0
40
0.134187593509654
40
0.221321409126728
40
0.278138349122419
40
0.335434427859471
40
0.393782383455563
40
0.452870859868715
40
0.51264864166947
40
0.618611408069229
40
0.715235484946309
40
0.824645545835129
40
1
40
1
40
1
40
1
41
1
10
11.7438092245544
20
-1.49649880169142
30
0
41
1
10
11.9039721882239
20
-1.49690761223022
30
0
41
1
10
12.1681421358559
20
-1.49745143137844
30
0
41
1
10
12.5001422611223
20
-1.49842469827397
30
0
41
1
10
12.7403663913876
20
-1.49833198450358
30
0
41
1
10
12.9462287967597
20
-1.49828779225234
30
0
41
1
10
13.1548012493496
20
-1.49911762576264
30
0
41
1
10
13.3663367030924
20
-1.49958845343698
30
0
41
1
10
13.6347082828242
20
-1.50033368437275
30
0
41
1
10
13.9478862416431
20
-1.50097009798623
30
0
41
1
10
14.3203088657149
20
-1.49980883614018
30
0
41
1
10
14.7755550942958
20
-1.50309594227204
30
0
41
1
10
15.1154724151658
20
-1.50280451720886
30
0
41
1
10
15.3247903524423
20
-1.50238410330317
30
0
0
SPLINE
5
F6
100
AcDbEntity
8
1
62
256
6
ByLayer
370
18
48
1
60
0
100
AcDbSpline
70
4
71
3
72
17
73
13
40
0
40
0
40
0
40
0
40
0.147823728992414
40
0.253290501604895
40
0.344472783244469
40
0.442073114824004
40
0.540487831382383
40
0.638916306795318
40
0.73654346493445
40
0.828034783093845
40
0.940542399443837
40
1
40
1
40
1
40
1
41
1
10
15.3249776804502
20
1.50238434444415
30
0
41
1
10
15.1661722168367
20
1.5028719260068
30
0
41
1
10
14.8940629717408
20
1.50313390582917
30
0
41
1
10
14.5239565471182
20
1.50089161393336
30
0
41
1
10
14.2078648363572
20
1.50010034332146
30
0
41
1
10
13.8992866088226
20
1.50104786135915
30
0
41
1
10
13.5829387371948
20
1.50010867422665
30
0
41
1
10
13.2665574299995
20
1.49956361277978
30
0
41
1
10
12.9576185115253
20
1.49817379444102
30
0
41
1
10
12.6335486210605
20
1.49848511132007
30
0
41
1
10
12.350494511579
20
1.49801788451663
30
0
41
1
10
12.1657407580203
20
1.49763287540688
30
0
41
1
10
12.1018618724989
20
1.49748631678469
30
0
0
SPLINE
5
F7
100
AcDbEntity
8
1
62
256
6
ByLayer
370
18
48
1
60
0
100
AcDbSpline
70
4
71
1
72
4
73
2
40
0
40
0
40
1
40
1
41
1
10
6.48171344860759
20
-1.48411753543468
30
0
41
1
10
6.50914233482203
20
-1.48403852888634
30
0
0
SPLINE
5
F8
100
AcDbEntity
8
1
62
256
6
ByLayer
370
18
48
1
60
0
100
AcDbSpline
70
4
71
3
72
17
73
13
40
0
40
0
40
0
40
0
40
0.157958382319011
40
0.265890315323257
40
0.355842946003358
40
0.452162961086494
40
0.549300337559666
40
0.646430231115908
40
0.742770076077263
40
0.83299203981817
40
0.94550479424974
40
1
40
1
40
1
40
1
41
1
10
33.326626179776
20
1.53475306139654
30
0
41
1
10
33.1581705418167
20
1.53506975192818
30
0
41
1
10
32.8746051821429
20
1.53510693070581
30
0
41
1
10
32.4950200421513
20
1.53316097536148
30
0
41
1
10
32.1812941587668
20
1.53219643734727
30
0
41
1
10
31.878961974295
20
1.5327102994172
30
0
41
1
10
31.5690026037034
20
1.53218696290435
30
0
41
1
10
31.2590144591515
20
1.53148749349364
30
0
41
1
10
30.9564059254241
20
1.53066119993329
30
0
41
1
10
30.6373855701892
20
1.53061241985864
30
0
41
1
10
30.3630103711645
20
1.5302141580143
30
0
41
1
10
30.1848727421668
20
1.5299356390758
30
0
41
1
10
30.1267461349088
20
1.5298410251655
30
0
0
SPLINE
5
F9
100
AcDbEntity
8
1
62
256
6
ByLayer
370
18
48
1
60
0
100
AcDbSpline
70
4
71
3
72
20
73
16
40
0
40
0
40
0
40
0
40
0.142658477469107
40
0.230623891892443
40
0.291633359134195
40
0.353979465282042
40
0.417352602254707
40
0.481447395643785
40
0.536916176793055
40
0.59280193392774
40
0.648990051156858
40
0.705061579192971
40
0.763891448061609
40
0.858992352997498
40
1
40
1
40
1
40
1
41
1
10
20.7448083970468
20
-1.51263876250999
30
0
41
1
10
20.9150655196858
20
-1.51300296847555
30
0
41
1
10
21.1903090677133
20
-1.51356927525342
30
0
41
1
10
21.5383670686857
20
-1.51462864225996
30
0
41
1
10
21.7905837780442
20
-1.51489716006165
30
0
41
1
10
22.0134470990795
20
-1.5146932071419
30
0
41
1
10
22.2399942042387
20
-1.51471166769076
30
0
41
1
10
22.4583288248181
20
-1.51584542180018
30
0
41
1
10
22.6677303666227
20
-1.51608324195757
30
0
41
1
10
22.8676935646015
20
-1.51691051590825
30
0
41
1
10
23.0683781174343
20
-1.51718185734006
30
0
41
1
10
23.2725751101504
20
-1.51695311382991
30
0
41
1
10
23.5232149655053
20
-1.51657746346936
30
0
41
1
10
23.8752241010162
20
-1.51845507199729
30
0
41
1
10
24.1570225566813
20
-1.51874136986484
30
0
41
1
10
24.3253172692818
20
-1.51890542908512
30
0
0
SPLINE
5
FA
100
AcDbEntity
8
1
62
256
6
ByLayer
370
18
48
1
60
0
100
AcDbSpline
70
4
71
1
72
4
73
2
40
0
40
0
40
1
40
1
41
1
10
6.48348067030403
20
1.48410876440255
30
0
41
1
10
6.39361436355301
20
1.48436793467991
30
0
0
SPLINE
5
FB
100
AcDbEntity
8
1
62
256
6
ByLayer
370
18
48
1
60
0
100
AcDbSpline
70
4
71
3
72
18
73
14
40
0
40
0
40
0
40
0
40
0.134086063494469
40
0.221155958339739
40
0.277977661462971
40
0.335294159921194
40
0.393730163006561
40
0.452966102650583
40
0.51295913490718
40
0.619142510578863
40
0.715601389793513
40
0.824904379344058
40
1
40
1
40
1
40
1
41
1
10
29.7454031077393
20
-1.52914992472367
30
0
41
1
10
29.9054460733212
20
-1.52938382092282
30
0
41
1
10
30.1694210344349
20
-1.52972895770688
30
0
41
1
10
30.5012321599833
20
-1.53057515201618
30
0
41
1
10
30.7414143478973
20
-1.53055389513756
30
0
41
1
10
30.9474148200099
20
-1.53072193266863
30
0
41
1
10
31.1562972744296
20
-1.53121702686695
30
0
41
1
10
31.3683741279298
20
-1.53172398323702
30
0
41
1
10
31.6374471632861
20
-1.53234431142886
30
0
41
1
10
31.9509530815047
20
-1.53266331313637
30
0
41
1
10
32.3233205141944
20
-1.53213429321392
30
0
41
1
10
32.777939459837
20
-1.53511174715897
30
0
41
1
10
33.1174257574984
20
-1.53503566031841
30
0
41
1
10
33.3264383449921
20
-1.53475274200474
30
0
0
SPLINE
5
FC
100
AcDbEntity
8
1
62
256
6
ByLayer
370
18
48
1
60
0
100
AcDbSpline
70
4
71
2
72
6
73
3
40
0
40
0
40
0
40
1
40
1
40
1
41
1
10
20.0260874318652
20
-0.0570936997382887
30
0
41
1
10
19.7900873037146
20
0.0053501533351152
30
0
41
1
10
19.5559560444439
20
0.130134448236021
30
0
0
LINE
5
7B
100
AcDbEntity
8
SK1
62
256
6
ByLayer
370
18
48
1
60
0
100
AcDbLine
10
-34.989637
20
3
30
0
11
-34.989637
21
-3
31
0
39
0
210
0
220
0
230
1
0
LINE
5
7D
100
AcDbEntity
8
SK1
62
256
6
ByLayer
370
18
48
1
60
0
100
AcDbLine
10
0
20
-3
30
0
11
0
21
3
31
0
39
0
210
0
220
0
230
1
0
LINE
5
7E
100
AcDbEntity
8
SK1
62
256
6
ByLayer
370
18
48
1
60
0
100
AcDbLine
10
-36
20
1.25
30
0
11
-36
21
-1.25
31
0
39
0
210
0
220
0
230
1
0
LINE
5
7F
100
AcDbEntity
8
1
62
256
6
ByLayer
370
18
48
1
60
0
100
AcDbLine
10
37.251148
20
-0.718957
30
0
11
37.709014
21
-0.351369
31
0
39
0
210
0
220
0
230
1
0
LINE
5
80
100
AcDbEntity
8
1
62
256
6
ByLayer
370
13
48
1
60
0
100
AcDbLine
10
6.393639
20
-1.484402
30
0
11
6.393637
21
-1.486333
31
0
39
0
210
0
220
0
230
1
0
LINE
5
81
100
AcDbEntity
8
1
62
256
6
ByLayer
370
13
48
1
60
0
100
AcDbLine
10
0.841786
20
2.267886
30
0
11
0.841786
21
-2.267886
31
0
39
0
210
0
220
0
230
1
0
LINE
5
82
100
AcDbEntity
8
1
62
256
6
ByLayer
370
18
48
1
60
0
100
AcDbLine
10
0
20
-3
30
0
11
0
21
3
31
0
39
0
210
0
220
0
230
1
0
LINE
5
83
100
AcDbEntity
8
1
62
256
6
ByLayer
370
13
48
1
60
0
100
AcDbLine
10
1.685101
20
1.535773
30
0
11
1.685101
21
-1.535773
31
0
39
0
210
0
220
0
230
1
0
LINE
5
84
100
AcDbEntity
8
1
62
256
6
ByLayer
370
18
48
1
60
0
100
AcDbLine
10
6.061801
20
-1.538958
30
0
11
6.061692
21
-1.543705
31
0
39
0
210
0
220
0
230
1
0
LINE
5
85
100
AcDbEntity
8
80
62
256
6
ByLayer
370
18
48
1
60
0
100
AcDbLine
10
0
20
0
30
0
11
-5
21
0
31
0
39
0
210
0
220
0
230
1
0
LINE
5
86
100
AcDbEntity
8
4
62
256
6
ByLayer
370
18
48
0.05
60
0
100
AcDbLine
10
38
20
0
30
0
11
0
21
0
31
0
39
0
210
0
220
0
230
1
0
LINE
5
88
100
AcDbEntity
8
SK4
62
256
6
ByLayer
370
18
48
0.05
60
0
100
AcDbLine
10
43
20
0
30
0
11
-41
21
0
31
0
39
0
210
0
220
0
230
1
0
LINE
5
8A
100
AcDbEntity
8
SK1
62
256
6
ByLayer
370
18
48
1
60
0
100
AcDbLine
10
-36
20
-1.25
30
0
11
-34.989637
21
-3
31
0
39
0
210
0
220
0
230
1
0
LINE
5
8B
100
AcDbEntity
8
SK1
62
256
6
ByLayer
370
18
48
1
60
0
100
AcDbLine
10
-34.989637
20
3
30
0
11
-36
21
1.25
31
0
39
0
210
0
220
0
230
1
0
LINE
5
8C
100
AcDbEntity
8
SK1
62
256
6
ByLayer
370
18
48
1
60
0
100
AcDbLine
10
-34.989637
20
-3
30
0
11
0
21
-3
31
0
39
0
210
0
220
0
230
1
0
LINE
5
8D
100
AcDbEntity
8
SK1
62
256
6
ByLayer
370
18
48
1
60
0
100
AcDbLine
10
0
20
3
30
0
11
-34.989637
21
3
31
0
39
0
210
0
220
0
230
1
0
LINE
5
8E
100
AcDbEntity
8
1
62
256
6
ByLayer
370
18
48
1
60
0
100
AcDbLine
10
1.685101
20
-1.535773
30
0
11
6.061701
21
-1.543651
31
0
39
0
210
0
220
0
230
1
0
LINE
5
8F
100
AcDbEntity
8
1
62
256
6
ByLayer
370
18
48
1
60
0
100
AcDbLine
10
10.838278
20
-1.552249
30
0
11
11.422726
21
-1.553301
31
0
39
0
210
0
220
0
230
1
0
LINE
5
90
100
AcDbEntity
8
1
62
256
6
ByLayer
370
18
48
1
60
0
100
AcDbLine
10
19.841172
20
-1.568454
30
0
11
20.420755
21
-1.569497
31
0
39
0
210
0
220
0
230
1
0
LINE
5
91
100
AcDbEntity
8
1
62
256
6
ByLayer
370
18
48
1
60
0
100
AcDbLine
10
28.84428
20
-1.58466
30
0
11
29.420194
21
-1.585696
31
0
39
0
210
0
220
0
230
1
0
LINE
5
92
100
AcDbEntity
8
1
62
256
6
ByLayer
370
18
48
1
60
0
100
AcDbLine
10
29.420194
20
1.585696
30
0
11
28.84428
21
1.58466
31
0
39
0
210
0
220
0
230
1
0
LINE
5
93
100
AcDbEntity
8
1
62
256
6
ByLayer
370
18
48
1
60
0
100
AcDbLine
10
20.420755
20
1.569497
30
0
11
19.841172
21
1.568454
31
0
39
0
210
0
220
0
230
1
0
LINE
5
94
100
AcDbEntity
8
1
62
256
6
ByLayer
370
18
48
1
60
0
100
AcDbLine
10
11.422726
20
1.553301
30
0
11
10.838278
21
1.552249
31
0
39
0
210
0
220
0
230
1
0
LINE
5
95
100
AcDbEntity
8
1
62
256
6
ByLayer
370
18
48
1
60
0
100
AcDbLine
10
6.061701
20
1.543651
30
0
11
1.685101
21
1.535773
31
0
39
0
210
0
220
0
230
1
0
LINE
5
96
100
AcDbEntity
8
81
62
256
6
ByLayer
370
18
48
1
60
0
100
AcDbLine
10
38
20
0
30
0
11
43
21
0
31
0
39
0
210
0
220
0
230
1
0
LINE
5
97
100
AcDbEntity
8
SK2
62
256
6
ByLayer
370
13
48
1
60
0
100
AcDbLine
10
-44.625163
20
32.117107
30
0
11
-44.625163
21
-11.75
31
0
39
0
210
0
220
0
230
1
0
LINE
5
99
100
AcDbEntity
8
SK2
62
256
6
ByLayer
370
13
48
1
60
0
100
AcDbLine
10
-37.5875
20
3
30
0
11
-46.625163
21
3
31
0
39
0
210
0
220
0
230
1
0
LINE
5
9A
100
AcDbEntity
8
SK2
62
256
6
ByLayer
370
13
48
1
60
0
100
AcDbLine
10
-37.5875
20
-3
30
0
11
-46.625163
21
-3
31
0
39
0
210
0
220
0
230
1
0
LINE
5
9B
100
AcDbEntity
8
1
62
256
6
ByLayer
370
18
48
1
60
1
100
AcDbLine
10
-44.625163
20
3
30
0
11
-45.085946
21
6.499998
31
0
39
0
210
0
220
0
230
1
0
LINE
5
9C
100
AcDbEntity
8
1
62
256
6
ByLayer
370
18
48
1
60
1
100
AcDbLine
10
-45.085946
20
6.499998
30
0
11
-44.164379
21
6.500002
31
0
39
0
210
0
220
0
230
1
0
LINE
5
9D
100
AcDbEntity
8
1
62
256
6
ByLayer
370
18
48
1
60
1
100
AcDbLine
10
-44.164379
20
6.500002
30
0
11
-44.625163
21
3
31
0
39
0
210
0
220
0
230
1
0
LINE
5
9E
100
AcDbEntity
8
1
62
256
6
ByLayer
370
18
48
1
60
1
100
AcDbLine
10
-44.625163
20
-3
30
0
11
-44.164379
21
-6.499998
31
0
39
0
210
0
220
0
230
1
0
LINE
5
9F
100
AcDbEntity
8
1
62
256
6
ByLayer
370
18
48
1
60
1
100
AcDbLine
10
-44.164379
20
-6.499998
30
0
11
-45.085946
21
-6.500002
31
0
39
0
210
0
220
0
230
1
0
LINE
5
A0
100
AcDbEntity
8
1
62
256
6
ByLayer
370
18
48
1
60
1
100
AcDbLine
10
-45.085946
20
-6.500002
30
0
11
-44.625163
21
-3
31
0
39
0
210
0
220
0
230
1
0
LINE
5
A1
100
AcDbEntity
8
2
62
256
6
ByLayer
370
13
48
1
60
0
100
AcDbLine
10
50.083343
20
29.310193
30
0
11
50.083343
21
-10.35
31
0
39
0
210
0
220
0
230
1
0
LINE
5
A3
100
AcDbEntity
8
2
62
256
6
ByLayer
370
13
48
1
60
0
100
AcDbLine
10
38.9541
20
1.6
30
0
11
52.083343
21
1.6
31
0
39
0
210
0
220
0
230
1
0
LINE
5
A4
100
AcDbEntity
8
2
62
256
6
ByLayer
370
13
48
1
60
0
100
AcDbLine
10
38.9541
20
-1.6
30
0
11
52.083343
21
-1.6
31
0
39
0
210
0
220
0
230
1
0
LINE
5
A5
100
AcDbEntity
8
1
62
256
6
ByLayer
370
18
48
1
60
1
100
AcDbLine
10
50.083343
20
1.6
30
0
11
49.622559
21
5.099998
31
0
39
0
210
0
220
0
230
1
0
LINE
5
A6
100
AcDbEntity
8
1
62
256
6
ByLayer
370
18
48
1
60
1
100
AcDbLine
10
49.622559
20
5.099998
30
0
11
50.544126
21
5.100002
31
0
39
0
210
0
220
0
230
1
0
LINE
5
A7
100
AcDbEntity
8
1
62
256
6
ByLayer
370
18
48
1
60
1
100
AcDbLine
10
50.544126
20
5.100002
30
0
11
50.083343
21
1.6
31
0
39
0
210
0
220
0
230
1
0
LINE
5
A8
100
AcDbEntity
8
1
62
256
6
ByLayer
370
18
48
1
60
1
100
AcDbLine
10
50.083343
20
-1.6
30
0
11
50.544126
21
-5.099998
31
0
39
0
210
0
220
0
230
1
0
LINE
5
A9
100
AcDbEntity
8
1
62
256
6
ByLayer
370
18
48
1
60
1
100
AcDbLine
10
50.544126
20
-5.099998
30
0
11
49.622559
21
-5.100002
31
0
39
0
210
0
220
0
230
1
0
LINE
5
AA
100
AcDbEntity
8
1
62
256
6
ByLayer
370
18
48
1
60
1
100
AcDbLine
10
49.622559
20
-5.100002
30
0
11
50.083343
21
-1.6
31
0
39
0
210
0
220
0
230
1
0
LINE
5
103
100
AcDbEntity
8
1
62
256
6
ByLayer
370
18
48
1
60
1
100
AcDbLine
10
-44.625163
20
3
30
0
11
-45.085946
21
6.499998
31
0
39
0
210
0
220
0
230
1
0
LINE
5
104
100
AcDbEntity
8
1
62
256
6
ByLayer
370
18
48
1
60
1
100
AcDbLine
10
-45.085946
20
6.499998
30
0
11
-44.164379
21
6.500002
31
0
39
0
210
0
220
0
230
1
0
LINE
5
105
100
AcDbEntity
8
1
62
256
6
ByLayer
370
18
48
1
60
1
100
AcDbLine
10
-44.164379
20
6.500002
30
0
11
-44.625163
21
3
31
0
39
0
210
0
220
0
230
1
0
LINE
5
107
100
AcDbEntity
8
1
62
256
6
ByLayer
370
18
48
1
60
1
100
AcDbLine
10
-44.625163
20
-3
30
0
11
-44.164379
21
-6.499998
31
0
39
0
210
0
220
0
230
1
0
LINE
5
108
100
AcDbEntity
8
1
62
256
6
ByLayer
370
18
48
1
60
1
100
AcDbLine
10
-44.164379
20
-6.499998
30
0
11
-45.085946
21
-6.500002
31
0
39
0
210
0
220
0
230
1
0
LINE
5
109
100
AcDbEntity
8
1
62
256
6
ByLayer
370
18
48
1
60
1
100
AcDbLine
10
-45.085946
20
-6.500002
30
0
11
-44.625163
21
-3
31
0
39
0
210
0
220
0
230
1
0
LINE
5
10D
100
AcDbEntity
8
1
62
256
6
ByLayer
370
18
48
1
60
1
100
AcDbLine
10
50.083343
20
1.6
30
0
11
49.622559
21
5.099998
31
0
39
0
210
0
220
0
230
1
0
LINE
5
10E
100
AcDbEntity
8
1
62
256
6
ByLayer
370
18
48
1
60
1
100
AcDbLine
10
49.622559
20
5.099998
30
0
11
50.544126
21
5.100002
31
0
39
0
210
0
220
0
230
1
0
LINE
5
10F
100
AcDbEntity
8
1
62
256
6
ByLayer
370
18
48
1
60
1
100
AcDbLine
10
50.544126
20
5.100002
30
0
11
50.083343
21
1.6
31
0
39
0
210
0
220
0
230
1
0
LINE
5
111
100
AcDbEntity
8
1
62
256
6
ByLayer
370
18
48
1
60
1
100
AcDbLine
10
50.083343
20
-1.6
30
0
11
50.544126
21
-5.099998
31
0
39
0
210
0
220
0
230
1
0
LINE
5
112
100
AcDbEntity
8
1
62
256
6
ByLayer
370
18
48
1
60
1
100
AcDbLine
10
50.544126
20
-5.099998
30
0
11
49.622559
21
-5.100002
31
0
39
0
210
0
220
0
230
1
0
LINE
5
113
100
AcDbEntity
8
1
62
256
6
ByLayer
370
18
48
1
60
1
100
AcDbLine
10
49.622559
20
-5.100002
30
0
11
50.083343
21
-1.6
31
0
39
0
210
0
220
0
230
1
0
MTEXT
5
FD
100
AcDbEntity
8
SK6
62
256
6
ByLayer
370
13
48
1
60
0
100
AcDbMText
10
-27.109026
20
34.140328
30
0
210
0
220
0
230
1
1
\W0.7386;860.1-0320-029A1-PM P1BM
40
3.5
41
0
44
1.084337
50
0
71
7
72
5
7
iso_b_vert
0
MTEXT
5
101
100
AcDbEntity
8
SK2
62
256
6
ByLayer
370
18
48
1
60
0
100
AcDbMText
10
-46.189796
20
16.409024
30
0
210
0
220
0
230
1
1
%%c
40
3.5
41
0
44
1.084337
50
90
71
7
72
5
7
iso_b_vert
0
MTEXT
5
102
100
AcDbEntity
8
SK2
62
256
6
ByLayer
370
18
48
1
60
0
100
AcDbMText
10
-46.189796
20
21.63168
30
0
210
0
220
0
230
1
1
\W0.7317;6,000
40
3.5
41
0
44
1.084337
50
90
71
7
72
5
7
iso_b_vert
0
MTEXT
5
10B
100
AcDbEntity
8
2
62
256
6
ByLayer
370
18
48
1
60
0
100
AcDbMText
10
48.518709
20
13.60211
30
0
210
0
220
0
230
1
1
%%c
40
3.5
41
0
44
1.084337
50
90
71
7
72
5
7
iso_b_vert
0
MTEXT
5
10C
100
AcDbEntity
8
2
62
256
6
ByLayer
370
18
48
1
60
0
100
AcDbMText
10
48.518709
20
18.824766
30
0
210
0
220
0
230
1
1
\W0.7317;3,200
40
3.5
41
0
44
1.084337
50
90
71
7
72
5
7
iso_b_vert
0
HATCH
5
106
100
AcDbEntity
8
SK2
62
256
6
ByLayer
370
13
48
1
60
0
100
AcDbHatch
10
0
20
0
30
0
210
0
220
0
230
1
2
ANSI31
70
0
71
0
91
1
92
5
93
3
72
1
10
-44.6251625675374
20
3
11
-45.0859463090902
21
6.49999830744682
72
1
10
-45.0859463090902
20
6.49999830744682
11
-44.1643788259847
21
6.50000169255318
72
1
10
-44.1643788259847
20
6.50000169255318
11
-44.6251625675374
21
3
97
0
75
0
76
1
52
0
41
0.0062
77
0
78
1
53
45
43
0
44
0
45
-0.0139193969876572
46
0.0139193969876572
79
0
47
0
98
1
10
0
20
0
0
HATCH
5
10A
100
AcDbEntity
8
SK2
62
256
6
ByLayer
370
13
48
1
60
0
100
AcDbHatch
10
0
20
0
30
0
210
0
220
0
230
1
2
ANSI31
70
0
71
0
91
1
92
5
93
3
72
1
10
-44.6251625675374
20
-3
11
-44.1643788259847
21
-6.49999830744682
72
1
10
-44.1643788259847
20
-6.49999830744682
11
-45.0859463090902
21
-6.50000169255318
72
1
10
-45.0859463090902
20
-6.50000169255318
11
-44.6251625675374
21
-3
97
0
75
0
76
1
52
0
41
0.0062
77
0
78
1
53
45
43
0
44
0
45
-0.0139193969876572
46
0.0139193969876572
79
0
47
0
98
1
10
0
20
0
0
HATCH
5
110
100
AcDbEntity
8
2
62
256
6
ByLayer
370
13
48
1
60
0
100
AcDbHatch
10
0
20
0
30
0
210
0
220
0
230
1
2
ANSI31
70
0
71
0
91
1
92
5
93
3
72
1
10
50.083342615295
20
1.60000000000002
11
49.6225588737423
21
5.09999830744684
72
1
10
49.6225588737423
20
5.09999830744684
11
50.5441263568478
21
5.10000169255321
72
1
10
50.5441263568478
20
5.10000169255321
11
50.083342615295
21
1.60000000000002
97
0
75
0
76
1
52
0
41
0.0062
77
0
78
1
53
45
43
0
44
0
45
-0.0139193969876572
46
0.0139193969876572
79
0
47
0
98
1
10
0
20
0
0
HATCH
5
114
100
AcDbEntity
8
2
62
256
6
ByLayer
370
13
48
1
60
0
100
AcDbHatch
10
0
20
0
30
0
210
0
220
0
230
1
2
ANSI31
70
0
71
0
91
1
92
5
93
3
72
1
10
50.083342615295
20
-1.59999999999999
11
50.5441263568478
21
-5.09999830744681
72
1
10
50.5441263568478
20
-5.09999830744681
11
49.6225588737423
21
-5.10000169255318
72
1
10
49.6225588737423
20
-5.10000169255318
11
50.083342615295
21
-1.59999999999999
97
0
75
0
76
1
52
0
41
0.0062
77
0
78
1
53
45
43
0
44
0
45
-0.0139193969876572
46
0.0139193969876572
79
0
47
0
98
1
10
0
20
0
0
DIMENSION
5
116
100
AcDbEntity
8
2
62
256
6
ByLayer
370
13
48
1
60
0
100
AcDbDimension
2
_U0
10
37.3666
20
-11.813398
30
0
11
18.6833
21
-11.813398
31
0
70
32
71
1
72
1
41
1
210
0
220
0
230
1
3
Standard
100
AcDbAlignedDimension
13
0
23
0
33
0
14
37.3666
24
-1.6
34
0
50
0
100
AcDbRotatedDimension
1001
ACAD
1000
DSTYLE
1002
{
1070
   371
1070
    13
1070
   372
1070
    13
1070
   170
1070
     0
1070
   144
1040
1.0
1070
   277
1070
     2
1070
   278
1070
    44
1070
   146
1040
1.0
1070
   345
1005
16
1070
   347
1005
16
1070
   346
1005
16
1070
   344
1005
0
1070
   343
1005
0
1070
   172
1070
     1
1070
    76
1070
     0
1070
    75
1070
     0
1070
   282
1070
     0
1070
   281
1070
     0
1070
    71
1070
     0
1070
    74
1070
     0
1070
   279
1070
     0
1070
   173
1070
     1
1070
   340
1005
FE
1070
   271
1070
     2
1070
   272
1070
     2
1070
    77
1070
     1
1070
    73
1070
     1
1070
   171
1070
     3
1070
   274
1070
     4
1070
   177
1070
    35
1070
   176
1070
    35
1070
   178
1070
    35
1070
    48
1040
-0.1
1070
    41
1040
3.5
1070
   147
1040
1.75
1070
    42
1040
1.5875
1070
    44
1040
2.0
1070
   140
1040
3.5
1002
}
1001
ACAD_DSTYLE_DIM_LINETYPE
1070
   380
1005
16
1001
ACAD_DSTYLE_DIM_EXT1_LINETYPE
1070
   381
1005
16
1001
ACAD_DSTYLE_DIM_EXT2_LINETYPE
1070
   382
1005
16
0
DIMENSION
5
12F
100
AcDbEntity
8
SK2
62
256
6
ByLayer
370
13
48
1
60
0
100
AcDbDimension
2
_U1
10
38
20
-31.692985
30
0
11
1
21
-31.692985
31
0
70
32
71
1
72
1
41
1
210
0
220
0
230
1
3
Standard
100
AcDbAlignedDimension
13
-36
23
-3
33
0
14
38
24
0
34
0
50
0
100
AcDbRotatedDimension
1001
ACAD
1000
DSTYLE
1002
{
1070
   371
1070
    13
1070
   372
1070
    13
1070
   170
1070
     0
1070
   144
1040
1.0
1070
   277
1070
     2
1070
   278
1070
    44
1070
   146
1040
1.0
1070
   345
1005
16
1070
   347
1005
16
1070
   346
1005
16
1070
   344
1005
0
1070
   343
1005
0
1070
   172
1070
     1
1070
    76
1070
     0
1070
    75
1070
     0
1070
   282
1070
     0
1070
   281
1070
     0
1070
    71
1070
     0
1070
    74
1070
     0
1070
   279
1070
     0
1070
   173
1070
     1
1070
   340
1005
FE
1070
   271
1070
     2
1070
   272
1070
     2
1070
    77
1070
     1
1070
    73
1070
     1
1070
   171
1070
     3
1070
   274
1070
     4
1070
   177
1070
    35
1070
   176
1070
    35
1070
   178
1070
    35
1070
    48
1040
-0.1
1070
    41
1040
3.5
1070
   147
1040
1.75
1070
    42
1040
1.5875
1070
    44
1040
2.0
1070
   140
1040
3.5
1002
}
1001
ACAD_DSTYLE_DIM_LINETYPE
1070
   380
1005
16
1001
ACAD_DSTYLE_DIM_EXT1_LINETYPE
1070
   381
1005
16
1001
ACAD_DSTYLE_DIM_EXT2_LINETYPE
1070
   382
1005
16
0
DIMENSION
5
147
100
AcDbEntity
8
SK2
62
256
6
ByLayer
370
13
48
1
60
0
100
AcDbDimension
2
_U2
10
38
20
13.209119
30
0
11
24.885
21
13.209119
31
0
70
32
71
1
72
1
41
1
210
0
220
0
230
1
3
Standard
100
AcDbAlignedDimension
13
11.77
23
1.6
33
0
14
38
24
0
34
0
50
0
100
AcDbRotatedDimension
1001
ACAD
1000
DSTYLE
1002
{
1070
   371
1070
    13
1070
   372
1070
    13
1070
   170
1070
     0
1070
   144
1040
1.0
1070
   277
1070
     2
1070
   278
1070
    44
1070
   146
1040
1.0
1070
   345
1005
16
1070
   347
1005
16
1070
   346
1005
16
1070
   344
1005
0
1070
   343
1005
0
1070
   172
1070
     1
1070
    76
1070
     0
1070
    75
1070
     0
1070
   282
1070
     0
1070
   281
1070
     0
1070
    71
1070
     0
1070
    74
1070
     0
1070
   279
1070
     0
1070
   173
1070
     1
1070
   340
1005
FE
1070
   271
1070
     2
1070
   272
1070
     2
1070
    77
1070
     1
1070
    73
1070
     1
1070
   171
1070
     3
1070
   274
1070
     4
1070
   177
1070
    35
1070
   176
1070
    35
1070
   178
1070
    35
1070
    48
1040
-0.1
1070
    41
1040
3.5
1070
   147
1040
1.75
1070
    42
1040
1.5875
1070
    44
1040
2.0
1070
   140
1040
3.5
1002
}
1001
ACAD_DSTYLE_DIM_LINETYPE
1070
   380
1005
16
1001
ACAD_DSTYLE_DIM_EXT1_LINETYPE
1070
   381
1005
16
1001
ACAD_DSTYLE_DIM_EXT2_LINETYPE
1070
   382
1005
16
0
DIMENSION
5
15F
100
AcDbEntity
8
SK2
62
256
6
ByLayer
370
13
48
1
60
0
100
AcDbDimension
2
_U3
10
37.3666
20
-14.402503
30
0
11
55.583333
21
-14.402503
31
0
70
32
71
1
72
1
41
1
210
0
220
0
230
1
3
Standard
100
AcDbAlignedDimension
13
38
23
0
33
0
14
37.3666
24
-1.6
34
0
50
0
100
AcDbRotatedDimension
1001
ACAD
1000
DSTYLE
1002
{
1070
   371
1070
    13
1070
   372
1070
    13
1070
   170
1070
     0
1070
   144
1040
1.0
1070
   277
1070
     2
1070
   278
1070
    44
1070
   146
1040
1.0
1070
   345
1005
16
1070
   347
1005
16
1070
   346
1005
16
1070
   344
1005
0
1070
   343
1005
0
1070
   172
1070
     1
1070
    76
1070
     0
1070
    75
1070
     0
1070
   282
1070
     0
1070
   281
1070
     0
1070
    71
1070
     0
1070
    74
1070
     0
1070
   279
1070
     0
1070
   173
1070
     1
1070
   340
1005
FE
1070
   271
1070
     2
1070
   272
1070
     2
1070
    77
1070
     1
1070
    73
1070
     1
1070
   171
1070
     3
1070
   274
1070
     4
1070
   177
1070
    35
1070
   176
1070
    35
1070
   178
1070
    35
1070
    48
1040
-0.1
1070
    41
1040
3.5
1070
   147
1040
1.75
1070
    42
1040
1.5875
1070
    44
1040
2.0
1070
   140
1040
3.5
1002
}
1001
ACAD_DSTYLE_DIM_LINETYPE
1070
   380
1005
16
1001
ACAD_DSTYLE_DIM_EXT1_LINETYPE
1070
   381
1005
16
1001
ACAD_DSTYLE_DIM_EXT2_LINETYPE
1070
   382
1005
16
0
DIMENSION
5
179
100
AcDbEntity
8
SK2
62
256
6
ByLayer
370
13
48
1
60
0
100
AcDbDimension
2
_U4
10
37.3666
20
-21.343428
30
0
11
0.6833
21
-21.343428
31
0
70
32
71
1
72
1
41
1
210
0
220
0
230
1
3
Standard
100
AcDbAlignedDimension
13
-36
23
-3
33
0
14
37.3666
24
-1.6
34
0
50
0
100
AcDbRotatedDimension
1001
ACAD
1000
DSTYLE
1002
{
1070
   371
1070
    13
1070
   372
1070
    13
1070
   170
1070
     0
1070
   144
1040
1.0
1070
   277
1070
     2
1070
   278
1070
    44
1070
   146
1040
1.0
1070
   345
1005
16
1070
   347
1005
16
1070
   346
1005
16
1070
   344
1005
0
1070
   343
1005
0
1070
   172
1070
     1
1070
    76
1070
     0
1070
    75
1070
     0
1070
   282
1070
     0
1070
   281
1070
     0
1070
    71
1070
     0
1070
    74
1070
     0
1070
   279
1070
     0
1070
   173
1070
     1
1070
   340
1005
FE
1070
   271
1070
     2
1070
   272
1070
     2
1070
    77
1070
     1
1070
    73
1070
     1
1070
   171
1070
     3
1070
   274
1070
     4
1070
   177
1070
    35
1070
   176
1070
    35
1070
   178
1070
    35
1070
    48
1040
-0.1
1070
    41
1040
3.5
1070
   147
1040
1.75
1070
    42
1040
1.5875
1070
    44
1040
2.0
1070
   140
1040
3.5
1002
}
1001
ACAD_DSTYLE_DIM_LINETYPE
1070
   380
1005
16
1001
ACAD_DSTYLE_DIM_EXT1_LINETYPE
1070
   381
1005
16
1001
ACAD_DSTYLE_DIM_EXT2_LINETYPE
1070
   382
1005
16
0
ENDSEC
0
SECTION
2
OBJECTS
0
DICTIONARY
5
201
330
0
100
AcDbDictionary
280
0
281
1
3
ACAD_GROUP
350
202
3
ACAD_MLINESTYLE
350
203
0
DICTIONARY
5
202
330
0
100
AcDbDictionary
280
0
281
1
0
DICTIONARY
5
203
330
0
100
AcDbDictionary
280
0
281
1
3
Standard
350
18
0
MLINESTYLE
5
18
330
203
100
AcDbMlineStyle
2
Standard
70
0
3

62
256
51
90
52
90
71
2
49
-0.5
62
256
6
ByLayer
49
0.5
62
256
6
ByLayer
0
RASTERVARIABLES
5
1ef
330

100
AcDbRasterVariables
90
0
70
1
71
1
72
1
0
ENDSEC
0
EOF
