0
SECTION
2
HEADER
9
$ACADVER
1
AC1015
9
$DWGCODEPAGE
3
ANSI_1252
9
$HANDSEED
5
205
9
$ANGBASE
50
0
9
$ANGDIR
70
0
9
$ATTMODE
70
1
9
$AUNITS
70
0
9
$AUPREC
70
0
9
$CECOLOR
62
256
9
$CELTSCALE
40
1
9
$CELTYPE
6
ByLayer
9
$CELWEIGHT
370
18
9
$CLAYER
8
0
9
$CMLJUST
70
0
9
$CMLSCALE
40
1
9
$CMLSTYLE
2
Standard
9
$DIMSTYLE
2
Standard
9
$TEXTSIZE
40
0.2
9
$TEXTSTYLE
7
Standard
9
$LUNITS
70
2
9
$LUPREC
70
4
9
$EXTNAMES
290
1
9
$INSUNITS
70
4
9
$LTSCALE
40
1
9
$LWDISPLAY
290
1
9
$PDMODE
70
0
9
$PDSIZE
40
0
9
$PLINEGEN
70
0
0
ENDSEC
0
SECTION
2
CLASSES
0
CLASS
1
RASTERVARIABLES
2
AcDbRasterVariables
3
ISM
90
0
280
0
281
0
0
ENDSEC
0
SECTION
2
TABLES
0
TABLE
2
VPORT
5
1fb
100
AcDbSymbolTable
0
VPORT
5
1
100
AcDbSymbolTableRecord
100
AcDbViewportTableRecord
2
*Active
70
0
10
0
20
0
11
1
21
1
12
-1
22
1
13
0
23
0
14
0.5
24
0.5
15
10
25
10
16
0
26
0
36
1
17
0
27
0
37
0
0
ENDTAB
0
TABLE
2
LTYPE
5
1fc
100
AcDbSymbolTable
0
LTYPE
5
14
100
AcDbSymbolTableRecord
100
AcDbLinetypeTableRecord
70
0
2
ByBlock
3

72
65
73
0
40
0
0
LTYPE
5
15
100
AcDbSymbolTableRecord
100
AcDbLinetypeTableRecord
70
0
2
ByLayer
3

72
65
73
0
40
0
0
LTYPE
5
16
100
AcDbSymbolTableRecord
100
AcDbLinetypeTableRecord
70
0
2
Continuous
3
Solid line
72
65
73
0
40
0
0
LTYPE
5
6E
100
AcDbSymbolTableRecord
100
AcDbLinetypeTableRecord
70
0
2
CENTER
3
____ _ ____ _ ____ _ ____
72
65
73
4
40
47.5
49
22
74
0
49
-8.5
74
0
49
8.5
74
0
49
-8.5
74
0
0
LTYPE
5
6F
100
AcDbSymbolTableRecord
100
AcDbLinetypeTableRecord
70
0
2
DASHED
3
__ __ __ __ __ __ __ __ __
72
65
73
2
40
25.72
49
12.86
74
0
49
-12.86
74
0
0
ENDTAB
0
TABLE
2
LAYER
5
1fd
100
AcDbSymbolTable
0
LAYER
5
10
100
AcDbSymbolTableRecord
100
AcDbLayerTableRecord
2
0
70
0
62
7
6
Continuous
290
1
370
-3
390
0
0
LAYER
5
71
100
AcDbSymbolTableRecord
100
AcDbLayerTableRecord
2
80
70
0
62
-6
6
Continuous
290
1
370
-3
390
0
0
LAYER
5
73
100
AcDbSymbolTableRecord
100
AcDbLayerTableRecord
2
81
70
0
62
-3
6
Continuous
290
1
370
-3
390
0
0
LAYER
5
75
100
AcDbSymbolTableRecord
100
AcDbLayerTableRecord
2
1
70
0
62
4
6
Continuous
290
1
370
-3
390
0
0
LAYER
5
85
100
AcDbSymbolTableRecord
100
AcDbLayerTableRecord
2
4
70
0
62
-2
6
CENTER
290
1
370
-3
390
0
0
LAYER
5
9E
100
AcDbSymbolTableRecord
100
AcDbLayerTableRecord
2
2
70
0
62
7
6
Continuous
290
1
370
-3
390
0
0
LAYER
5
10F
100
AcDbSymbolTableRecord
100
AcDbLayerTableRecord
2
Defpoints
70
0
62
7
6
Continuous
290
0
370
-3
390
0
0
LAYER
5
1e7
100
AcDbSymbolTableRecord
100
AcDbLayerTableRecord
2
SK1
70
0
62
4
6
Continuous
290
1
370
-3
390
0
0
LAYER
5
1e8
100
AcDbSymbolTableRecord
100
AcDbLayerTableRecord
2
SK4
70
0
62
2
6
CENTER
290
1
370
-3
390
0
0
LAYER
5
1e9
100
AcDbSymbolTableRecord
100
AcDbLayerTableRecord
2
SK2
70
0
62
7
6
Continuous
290
1
370
-3
390
0
0
LAYER
5
1ea
100
AcDbSymbolTableRecord
100
AcDbLayerTableRecord
2
SK6
70
0
62
5
6
Continuous
290
1
370
-3
390
0
0
ENDTAB
0
TABLE
2
STYLE
5
1fe
100
AcDbSymbolTable
0
STYLE
5
11
100
AcDbSymbolTableRecord
100
AcDbTextStyleTableRecord
2
Standard
3
txt
70
0
71
0
40
0
41
1
42
0
50
0
0
STYLE
5
F4
100
AcDbSymbolTableRecord
100
AcDbTextStyleTableRecord
2
iso_b_vert
3
simplex.shx
70
0
71
0
40
0
41
1
42
0
50
0
0
STYLE
5
F5
100
AcDbSymbolTableRecord
100
AcDbTextStyleTableRecord
2
DWGDirectTextStyle
3
simplex
70
0
71
0
40
0
41
1
42
0
50
0
0
ENDTAB
0
TABLE
2
DIMSTYLE
5
1ff
100
AcDbSymbolTable
100
AcDbDimStyleTable
0
DIMSTYLE
105
27
100
AcDbSymbolTableRecord
100
AcDbDimStyleTableRecord
2
Standard
70
0
3
<>
41
0.18
42
0.0625
44
0.18
140
0.18
147
0.09
73
0
74
0
77
1
271
2
275
0
278
52
280
0
340
11
0
ENDTAB
0
TABLE
2
VIEW
5
200
100
AcDbSymbolTable
0
ENDTAB
0
TABLE
2
UCS
5
201
100
AcDbSymbolTable
0
ENDTAB
0
TABLE
2
APPID
5
202
100
AcDbSymbolTable
0
APPID
5
12
100
AcDbSymbolTableRecord
100
AcDbRegAppTableRecord
2
ACAD
70
0
0
APPID
5
10B
100
AcDbSymbolTableRecord
100
AcDbRegAppTableRecord
2
ACAD_DSTYLE_DIMBREAK
70
0
0
APPID
5
1A6
100
AcDbSymbolTableRecord
100
AcDbRegAppTableRecord
2
ACAD_DSTYLE_DIM_LINETYPE
70
0
0
APPID
5
1A7
100
AcDbSymbolTableRecord
100
AcDbRegAppTableRecord
2
ACAD_DSTYLE_DIM_EXT1_LINETYPE
70
0
0
APPID
5
1A8
100
AcDbSymbolTableRecord
100
AcDbRegAppTableRecord
2
ACAD_DSTYLE_DIM_EXT2_LINETYPE
70
0
0
APPID
5
1E3
100
AcDbSymbolTableRecord
100
AcDbRegAppTableRecord
2
ACAD_MLEADERVER
70
0
0
ENDTAB
0
TABLE
2
BLOCK_RECORD
5
203
100
AcDbSymbolTable
0
BLOCK_RECORD
5
1F
100
AcDbSymbolTableRecord
100
AcDbBlockTableRecord
2
*Model_Space
340
0
70
0
0
BLOCK_RECORD
5
1B
100
AcDbSymbolTableRecord
100
AcDbBlockTableRecord
2
*Paper_Space
340
0
70
0
0
BLOCK_RECORD
5
23
100
AcDbSymbolTableRecord
100
AcDbBlockTableRecord
2
*Paper_Space0
340
0
70
0
0
BLOCK_RECORD
5
110
100
AcDbSymbolTableRecord
100
AcDbBlockTableRecord
2
*D1
340
0
70
0
0
BLOCK_RECORD
5
11C
100
AcDbSymbolTableRecord
100
AcDbBlockTableRecord
2
_U0
340
0
70
0
0
BLOCK_RECORD
5
128
100
AcDbSymbolTableRecord
100
AcDbBlockTableRecord
2
*D3
340
0
70
0
0
BLOCK_RECORD
5
134
100
AcDbSymbolTableRecord
100
AcDbBlockTableRecord
2
_U1
340
0
70
0
0
BLOCK_RECORD
5
140
100
AcDbSymbolTableRecord
100
AcDbBlockTableRecord
2
*D5
340
0
70
0
0
BLOCK_RECORD
5
14D
100
AcDbSymbolTableRecord
100
AcDbBlockTableRecord
2
_U2
340
0
70
0
0
BLOCK_RECORD
5
159
100
AcDbSymbolTableRecord
100
AcDbBlockTableRecord
2
*D7
340
0
70
0
0
BLOCK_RECORD
5
167
100
AcDbSymbolTableRecord
100
AcDbBlockTableRecord
2
_U3
340
0
70
0
0
BLOCK_RECORD
5
173
100
AcDbSymbolTableRecord
100
AcDbBlockTableRecord
2
*D9
340
0
70
0
0
BLOCK_RECORD
5
17F
100
AcDbSymbolTableRecord
100
AcDbBlockTableRecord
2
_U4
340
0
70
0
0
ENDTAB
0
ENDSEC
0
SECTION
2
BLOCKS
0
BLOCK
5
20
100
AcDbEntity
8
0
100
AcDbBlockBegin
2
*Model_Space
70
0
10
0
20
0
30
0
3
*Model_Space
0
ENDBLK
5
21
100
AcDbEntity
8
0
100
AcDbBlockEnd
0
BLOCK
5
1C
100
AcDbEntity
8
0
100
AcDbBlockBegin
2
*Paper_Space
70
0
10
0
20
0
30
0
3
*Paper_Space
0
ENDBLK
5
1D
100
AcDbEntity
8
0
100
AcDbBlockEnd
0
BLOCK
5
24
100
AcDbEntity
8
0
100
AcDbBlockBegin
2
*Paper_Space0
70
0
10
0
20
0
30
0
3
*Paper_Space0
0
ENDBLK
5
25
100
AcDbEntity
8
0
100
AcDbBlockEnd
0
BLOCK
5
111
100
AcDbEntity
8
0
100
AcDbBlockBegin
2
*D1
70
1
10
0
20
0
30
0
3
*D1
0
LINE
5
113
100
AcDbEntity
8
0
62
256
6
ByLayer
370
-2
48
1
60
0
100
AcDbLine
10
0
20
-1.5875
30
0
11
0
21
-13.813398
31
0
39
0
210
0
220
0
230
1
0
LINE
5
114
100
AcDbEntity
8
0
62
256
6
ByLayer
370
-2
48
1
60
0
100
AcDbLine
10
29.3666
20
-3.1875
30
0
11
29.3666
21
-13.813398
31
0
39
0
210
0
220
0
230
1
0
LINE
5
115
100
AcDbEntity
8
0
62
256
6
ByLayer
370
-2
48
1
60
0
100
AcDbLine
10
3.5
20
-11.813398
30
0
11
25.8666
21
-11.813398
31
0
39
0
210
0
220
0
230
1
0
SOLID
5
116
100
AcDbEntity
8
0
62
256
6
ByLayer
370
-1
48
1
60
0
100
AcDbTrace
10
3.5
20
-11.230065
30
0
11
3.5
21
-12.396732
31
0
12
0
22
-11.813398
32
0
13
0
23
-11.813398
33
0
39
0
210
0
220
0
230
1
0
SOLID
5
117
100
AcDbEntity
8
0
62
256
6
ByLayer
370
-1
48
1
60
0
100
AcDbTrace
10
25.8666
20
-12.396732
30
0
11
25.8666
21
-11.230065
31
0
12
29.3666
22
-11.813398
32
0
13
29.3666
23
-11.813398
33
0
39
0
210
0
220
0
230
1
0
MTEXT
5
118
100
AcDbEntity
8
0
62
256
6
ByLayer
370
18
48
1
60
0
100
AcDbMText
10
14.6833
20
-4.813398
30
0
210
0
220
0
230
1
1
\A1;29.37
40
3.5
41
0
44
1
50
0
71
5
72
5
7
iso_b_vert
0
POINT
5
119
100
AcDbEntity
8
Defpoints
62
0
6
ByLayer
370
-1
48
1
60
0
100
AcDbPoint
10
0
20
0
30
0
39
0
210
0
220
0
230
1
50
360
0
POINT
5
11A
100
AcDbEntity
8
Defpoints
62
0
6
ByLayer
370
-1
48
1
60
0
100
AcDbPoint
10
29.3666
20
-1.6
30
0
39
0
210
0
220
0
230
1
50
360
0
POINT
5
11B
100
AcDbEntity
8
Defpoints
62
0
6
ByLayer
370
-1
48
1
60
0
100
AcDbPoint
10
29.3666
20
-11.813398
30
0
39
0
210
0
220
0
230
1
50
360
0
ENDBLK
5
112
100
AcDbEntity
8
0
100
AcDbBlockEnd
0
BLOCK
5
123
100
AcDbEntity
8
0
100
AcDbBlockBegin
2
_U0
70
0
10
0
20
0
30
0
3
_U0
0
MTEXT
5
11D
100
AcDbEntity
8
2
62
256
6
ByLayer
370
13
48
1
60
0
100
AcDbMText
10
9.546001
20
-10.780765
30
0
210
0
220
0
230
1
1
\W0.7317;29,37
40
3.5
41
0
44
1.084337
50
0
71
7
72
5
7
iso_b_vert
0
LINE
5
11E
100
AcDbEntity
8
2
62
256
6
ByLayer
370
13
48
1
60
0
100
AcDbLine
10
0
20
-1.5875
30
0
11
0
21
-13.813398
31
0
39
0
210
0
220
0
230
1
0
LINE
5
11F
100
AcDbEntity
8
2
62
256
6
ByLayer
370
13
48
1
60
0
100
AcDbLine
10
29.3666
20
-3.1875
30
0
11
29.3666
21
-13.813398
31
0
39
0
210
0
220
0
230
1
0
LINE
5
120
100
AcDbEntity
8
2
62
256
6
ByLayer
370
13
48
1
60
0
100
AcDbLine
10
0
20
-11.813398
30
0
11
29.3666
21
-11.813398
31
0
39
0
210
0
220
0
230
1
0
SOLID
5
121
100
AcDbEntity
8
2
62
256
6
ByLayer
370
18
48
1
60
0
100
AcDbTrace
10
0
20
-11.813398
30
0
11
3.499998
21
-11.352615
31
0
12
3.500002
22
-12.274182
32
0
13
3.500002
23
-12.274182
33
0
39
0
210
0
220
0
230
1
0
SOLID
5
122
100
AcDbEntity
8
2
62
256
6
ByLayer
370
18
48
1
60
0
100
AcDbTrace
10
29.3666
20
-11.813398
30
0
11
25.866602
21
-12.274182
31
0
12
25.866598
22
-11.352615
32
0
13
25.866598
23
-11.352615
33
0
39
0
210
0
220
0
230
1
0
ENDBLK
5
124
100
AcDbEntity
8
0
100
AcDbBlockEnd
0
BLOCK
5
129
100
AcDbEntity
8
0
100
AcDbBlockBegin
2
*D3
70
1
10
0
20
0
30
0
3
*D3
0
LINE
5
12B
100
AcDbEntity
8
0
62
256
6
ByLayer
370
-2
48
1
60
0
100
AcDbLine
10
-36
20
-4.5875
30
0
11
-36
21
-33.692985
31
0
39
0
210
0
220
0
230
1
0
LINE
5
12C
100
AcDbEntity
8
0
62
256
6
ByLayer
370
-2
48
1
60
0
100
AcDbLine
10
30
20
-1.5875
30
0
11
30
21
-33.692985
31
0
39
0
210
0
220
0
230
1
0
LINE
5
12D
100
AcDbEntity
8
0
62
256
6
ByLayer
370
-2
48
1
60
0
100
AcDbLine
10
-32.5
20
-31.692985
30
0
11
26.5
21
-31.692985
31
0
39
0
210
0
220
0
230
1
0
SOLID
5
12E
100
AcDbEntity
8
0
62
256
6
ByLayer
370
-1
48
1
60
0
100
AcDbTrace
10
-32.5
20
-31.109652
30
0
11
-32.5
21
-32.276319
31
0
12
-36
22
-31.692985
32
0
13
-36
23
-31.692985
33
0
39
0
210
0
220
0
230
1
0
SOLID
5
12F
100
AcDbEntity
8
0
62
256
6
ByLayer
370
-1
48
1
60
0
100
AcDbTrace
10
26.5
20
-32.276319
30
0
11
26.5
21
-31.109652
31
0
12
30
22
-31.692985
32
0
13
30
23
-31.692985
33
0
39
0
210
0
220
0
230
1
0
MTEXT
5
130
100
AcDbEntity
8
0
62
256
6
ByLayer
370
18
48
1
60
0
100
AcDbMText
10
-3
20
-24.692985
30
0
210
0
220
0
230
1
1
\A1;66.00
40
3.5
41
0
44
1
50
0
71
5
72
5
7
iso_b_vert
0
POINT
5
131
100
AcDbEntity
8
Defpoints
62
0
6
ByLayer
370
-1
48
1
60
0
100
AcDbPoint
10
-36
20
-3
30
0
39
0
210
0
220
0
230
1
50
360
0
POINT
5
132
100
AcDbEntity
8
Defpoints
62
0
6
ByLayer
370
-1
48
1
60
0
100
AcDbPoint
10
30
20
0
30
0
39
0
210
0
220
0
230
1
50
360
0
POINT
5
133
100
AcDbEntity
8
Defpoints
62
0
6
ByLayer
370
-1
48
1
60
0
100
AcDbPoint
10
30
20
-31.692985
30
0
39
0
210
0
220
0
230
1
50
360
0
ENDBLK
5
12A
100
AcDbEntity
8
0
100
AcDbBlockEnd
0
BLOCK
5
13B
100
AcDbEntity
8
0
100
AcDbBlockBegin
2
_U1
70
0
10
0
20
0
30
0
3
_U1
0
MTEXT
5
135
100
AcDbEntity
8
SK2
62
256
6
ByLayer
370
13
48
1
60
0
100
AcDbMText
10
-8.137299
20
-30.660352
30
0
210
0
220
0
230
1
1
\W0.7317;66,00
40
3.5
41
0
44
1.084337
50
0
71
7
72
5
7
iso_b_vert
0
LINE
5
136
100
AcDbEntity
8
SK2
62
256
6
ByLayer
370
13
48
1
60
0
100
AcDbLine
10
-36
20
-4.5875
30
0
11
-36
21
-33.692985
31
0
39
0
210
0
220
0
230
1
0
LINE
5
137
100
AcDbEntity
8
SK2
62
256
6
ByLayer
370
13
48
1
60
0
100
AcDbLine
10
30
20
-1.5875
30
0
11
30
21
-33.692985
31
0
39
0
210
0
220
0
230
1
0
LINE
5
138
100
AcDbEntity
8
SK2
62
256
6
ByLayer
370
13
48
1
60
0
100
AcDbLine
10
-36
20
-31.692985
30
0
11
30
21
-31.692985
31
0
39
0
210
0
220
0
230
1
0
SOLID
5
139
100
AcDbEntity
8
SK2
62
256
6
ByLayer
370
18
48
1
60
0
100
AcDbTrace
10
-36
20
-31.692985
30
0
11
-32.500002
21
-31.232202
31
0
12
-32.499998
22
-32.153769
32
0
13
-32.499998
23
-32.153769
33
0
39
0
210
0
220
0
230
1
0
SOLID
5
13A
100
AcDbEntity
8
SK2
62
256
6
ByLayer
370
18
48
1
60
0
100
AcDbTrace
10
30
20
-31.692985
30
0
11
26.500002
21
-32.153769
31
0
12
26.499998
22
-31.232202
32
0
13
26.499998
23
-31.232202
33
0
39
0
210
0
220
0
230
1
0
ENDBLK
5
13C
100
AcDbEntity
8
0
100
AcDbBlockEnd
0
BLOCK
5
141
100
AcDbEntity
8
0
100
AcDbBlockBegin
2
*D5
70
1
10
0
20
0
30
0
3
*D5
0
LINE
5
143
100
AcDbEntity
8
0
62
256
6
ByLayer
370
-2
48
1
60
0
100
AcDbLine
10
13.37
20
3.1875
30
0
11
13.37
21
15.209119
31
0
39
0
210
0
220
0
230
1
0
LINE
5
144
100
AcDbEntity
8
0
62
256
6
ByLayer
370
-2
48
1
60
0
100
AcDbLine
10
30
20
1.5875
30
0
11
30
21
15.209119
31
0
39
0
210
0
220
0
230
1
0
LINE
5
145
100
AcDbEntity
8
0
62
256
6
ByLayer
370
-2
48
1
60
0
100
AcDbLine
10
9.87
20
13.209119
30
0
11
6.37
21
13.209119
31
0
39
0
210
0
220
0
230
1
0
LINE
5
146
100
AcDbEntity
8
0
62
256
6
ByLayer
370
-2
48
1
60
0
100
AcDbLine
10
33.5
20
13.209119
30
0
11
37
21
13.209119
31
0
39
0
210
0
220
0
230
1
0
SOLID
5
147
100
AcDbEntity
8
0
62
256
6
ByLayer
370
-1
48
1
60
0
100
AcDbTrace
10
9.87
20
12.625786
30
0
11
9.87
21
13.792453
31
0
12
13.37
22
13.209119
32
0
13
13.37
23
13.209119
33
0
39
0
210
0
220
0
230
1
0
SOLID
5
148
100
AcDbEntity
8
0
62
256
6
ByLayer
370
-1
48
1
60
0
100
AcDbTrace
10
33.5
20
13.792453
30
0
11
33.5
21
12.625786
31
0
12
30
22
13.209119
32
0
13
30
23
13.209119
33
0
39
0
210
0
220
0
230
1
0
MTEXT
5
149
100
AcDbEntity
8
0
62
256
6
ByLayer
370
18
48
1
60
0
100
AcDbMText
10
21.685
20
20.209119
30
0
210
0
220
0
230
1
1
\A1;16.63
40
3.5
41
0
44
1
50
0
71
5
72
5
7
iso_b_vert
0
POINT
5
14A
100
AcDbEntity
8
Defpoints
62
0
6
ByLayer
370
-1
48
1
60
0
100
AcDbPoint
10
13.37
20
1.6
30
0
39
0
210
0
220
0
230
1
50
360
0
POINT
5
14B
100
AcDbEntity
8
Defpoints
62
0
6
ByLayer
370
-1
48
1
60
0
100
AcDbPoint
10
30
20
0
30
0
39
0
210
0
220
0
230
1
50
360
0
POINT
5
14C
100
AcDbEntity
8
Defpoints
62
0
6
ByLayer
370
-1
48
1
60
0
100
AcDbPoint
10
30
20
13.209119
30
0
39
0
210
0
220
0
230
1
50
360
0
ENDBLK
5
142
100
AcDbEntity
8
0
100
AcDbBlockEnd
0
BLOCK
5
154
100
AcDbEntity
8
0
100
AcDbBlockBegin
2
_U2
70
0
10
0
20
0
30
0
3
_U2
0
MTEXT
5
14E
100
AcDbEntity
8
SK2
62
256
6
ByLayer
370
13
48
1
60
0
100
AcDbMText
10
16.985135
20
14.241753
30
0
210
0
220
0
230
1
1
\W0.6713;16,63
40
3.5
41
0
44
1.084337
50
0
71
7
72
5
7
iso_b_vert
0
LINE
5
14F
100
AcDbEntity
8
SK2
62
256
6
ByLayer
370
13
48
1
60
0
100
AcDbLine
10
13.37
20
3.1875
30
0
11
13.37
21
15.209119
31
0
39
0
210
0
220
0
230
1
0
LINE
5
150
100
AcDbEntity
8
SK2
62
256
6
ByLayer
370
13
48
1
60
0
100
AcDbLine
10
30
20
1.5875
30
0
11
30
21
15.209119
31
0
39
0
210
0
220
0
230
1
0
LINE
5
151
100
AcDbEntity
8
SK2
62
256
6
ByLayer
370
13
48
1
60
0
100
AcDbLine
10
13.37
20
13.209119
30
0
11
30
21
13.209119
31
0
39
0
210
0
220
0
230
1
0
SOLID
5
152
100
AcDbEntity
8
SK2
62
256
6
ByLayer
370
18
48
1
60
0
100
AcDbTrace
10
13.37
20
13.209119
30
0
11
16.869998
21
13.669903
31
0
12
16.870002
22
12.748335
32
0
13
16.870002
23
12.748335
33
0
39
0
210
0
220
0
230
1
0
SOLID
5
153
100
AcDbEntity
8
SK2
62
256
6
ByLayer
370
18
48
1
60
0
100
AcDbTrace
10
30
20
13.209119
30
0
11
26.500002
21
12.748335
31
0
12
26.499998
22
13.669903
32
0
13
26.499998
23
13.669903
33
0
39
0
210
0
220
0
230
1
0
ENDBLK
5
155
100
AcDbEntity
8
0
100
AcDbBlockEnd
0
BLOCK
5
15A
100
AcDbEntity
8
0
100
AcDbBlockBegin
2
*D7
70
1
10
0
20
0
30
0
3
*D7
0
LINE
5
15C
100
AcDbEntity
8
0
62
256
6
ByLayer
370
-2
48
1
60
0
100
AcDbLine
10
30
20
-1.5875
30
0
11
30
21
-16.402503
31
0
39
0
210
0
220
0
230
1
0
LINE
5
15D
100
AcDbEntity
8
0
62
256
6
ByLayer
370
-2
48
1
60
0
100
AcDbLine
10
29.3666
20
-3.1875
30
0
11
29.3666
21
-16.402503
31
0
39
0
210
0
220
0
230
1
0
LINE
5
15E
100
AcDbEntity
8
0
62
256
6
ByLayer
370
-2
48
1
60
0
100
AcDbLine
10
30
20
-14.402503
30
0
11
58.166667
21
-14.402503
31
0
39
0
210
0
220
0
230
1
0
LINE
5
15F
100
AcDbEntity
8
0
62
256
6
ByLayer
370
-2
48
1
60
0
100
AcDbLine
10
33.5
20
-14.402503
30
0
11
37
21
-14.402503
31
0
39
0
210
0
220
0
230
1
0
LINE
5
160
100
AcDbEntity
8
0
62
256
6
ByLayer
370
-2
48
1
60
0
100
AcDbLine
10
25.8666
20
-14.402503
30
0
11
22.3666
21
-14.402503
31
0
39
0
210
0
220
0
230
1
0
SOLID
5
161
100
AcDbEntity
8
0
62
256
6
ByLayer
370
-1
48
1
60
0
100
AcDbTrace
10
33.5
20
-13.81917
30
0
11
33.5
21
-14.985837
31
0
12
30
22
-14.402503
32
0
13
30
23
-14.402503
33
0
39
0
210
0
220
0
230
1
0
SOLID
5
162
100
AcDbEntity
8
0
62
256
6
ByLayer
370
-1
48
1
60
0
100
AcDbTrace
10
25.8666
20
-14.985837
30
0
11
25.8666
21
-13.81917
31
0
12
29.3666
22
-14.402503
32
0
13
29.3666
23
-14.402503
33
0
39
0
210
0
220
0
230
1
0
MTEXT
5
163
100
AcDbEntity
8
0
62
256
6
ByLayer
370
18
48
1
60
0
100
AcDbMText
10
47.583333
20
-7.402503
30
0
210
0
220
0
230
1
1
\A1;0.63
40
3.5
41
0
44
1
50
0
71
5
72
5
7
iso_b_vert
0
POINT
5
164
100
AcDbEntity
8
Defpoints
62
0
6
ByLayer
370
-1
48
1
60
0
100
AcDbPoint
10
30
20
0
30
0
39
0
210
0
220
0
230
1
50
360
0
POINT
5
165
100
AcDbEntity
8
Defpoints
62
0
6
ByLayer
370
-1
48
1
60
0
100
AcDbPoint
10
29.3666
20
-1.6
30
0
39
0
210
0
220
0
230
1
50
360
0
POINT
5
166
100
AcDbEntity
8
Defpoints
62
0
6
ByLayer
370
-1
48
1
60
0
100
AcDbPoint
10
29.3666
20
-14.402503
30
0
39
0
210
0
220
0
230
1
50
360
0
ENDBLK
5
15B
100
AcDbEntity
8
0
100
AcDbBlockEnd
0
BLOCK
5
16E
100
AcDbEntity
8
0
100
AcDbBlockBegin
2
_U3
70
0
10
0
20
0
30
0
3
_U3
0
MTEXT
5
168
100
AcDbEntity
8
SK2
62
256
6
ByLayer
370
13
48
1
60
0
100
AcDbMText
10
36.15186
20
-13.36987
30
0
210
0
220
0
230
1
1
\W0.7150;0,63
40
3.5
41
0
44
1.084337
50
0
71
7
72
5
7
iso_b_vert
0
LINE
5
169
100
AcDbEntity
8
SK2
62
256
6
ByLayer
370
13
48
1
60
0
100
AcDbLine
10
30
20
-1.5875
30
0
11
30
21
-16.402503
31
0
39
0
210
0
220
0
230
1
0
LINE
5
16A
100
AcDbEntity
8
SK2
62
256
6
ByLayer
370
13
48
1
60
0
100
AcDbLine
10
29.3666
20
-3.1875
30
0
11
29.3666
21
-16.402503
31
0
39
0
210
0
220
0
230
1
0
LINE
5
16B
100
AcDbEntity
8
SK2
62
256
6
ByLayer
370
13
48
1
60
0
100
AcDbLine
10
20.6166
20
-14.402503
30
0
11
43.996491
21
-14.402503
31
0
39
0
210
0
220
0
230
1
0
SOLID
5
16C
100
AcDbEntity
8
SK2
62
256
6
ByLayer
370
18
48
1
60
0
100
AcDbTrace
10
30
20
-14.402503
30
0
11
33.499998
21
-13.941719
31
0
12
33.500002
22
-14.863287
32
0
13
33.500002
23
-14.863287
33
0
39
0
210
0
220
0
230
1
0
SOLID
5
16D
100
AcDbEntity
8
SK2
62
256
6
ByLayer
370
18
48
1
60
0
100
AcDbTrace
10
29.3666
20
-14.402503
30
0
11
25.866602
21
-14.863287
31
0
12
25.866598
22
-13.941719
32
0
13
25.866598
23
-13.941719
33
0
39
0
210
0
220
0
230
1
0
ENDBLK
5
16F
100
AcDbEntity
8
0
100
AcDbBlockEnd
0
BLOCK
5
174
100
AcDbEntity
8
0
100
AcDbBlockBegin
2
*D9
70
1
10
0
20
0
30
0
3
*D9
0
LINE
5
176
100
AcDbEntity
8
0
62
256
6
ByLayer
370
-2
48
1
60
0
100
AcDbLine
10
-36
20
-4.5875
30
0
11
-36
21
-23.343428
31
0
39
0
210
0
220
0
230
1
0
LINE
5
177
100
AcDbEntity
8
0
62
256
6
ByLayer
370
-2
48
1
60
0
100
AcDbLine
10
29.3666
20
-3.1875
30
0
11
29.3666
21
-23.343428
31
0
39
0
210
0
220
0
230
1
0
LINE
5
178
100
AcDbEntity
8
0
62
256
6
ByLayer
370
-2
48
1
60
0
100
AcDbLine
10
-32.5
20
-21.343428
30
0
11
25.8666
21
-21.343428
31
0
39
0
210
0
220
0
230
1
0
SOLID
5
179
100
AcDbEntity
8
0
62
256
6
ByLayer
370
-1
48
1
60
0
100
AcDbTrace
10
-32.5
20
-20.760095
30
0
11
-32.5
21
-21.926762
31
0
12
-36
22
-21.343428
32
0
13
-36
23
-21.343428
33
0
39
0
210
0
220
0
230
1
0
SOLID
5
17A
100
AcDbEntity
8
0
62
256
6
ByLayer
370
-1
48
1
60
0
100
AcDbTrace
10
25.8666
20
-21.926762
30
0
11
25.8666
21
-20.760095
31
0
12
29.3666
22
-21.343428
32
0
13
29.3666
23
-21.343428
33
0
39
0
210
0
220
0
230
1
0
MTEXT
5
17B
100
AcDbEntity
8
0
62
256
6
ByLayer
370
18
48
1
60
0
100
AcDbMText
10
-3.3167
20
-14.343428
30
0
210
0
220
0
230
1
1
\A1;65.37
40
3.5
41
0
44
1
50
0
71
5
72
5
7
iso_b_vert
0
POINT
5
17C
100
AcDbEntity
8
Defpoints
62
0
6
ByLayer
370
-1
48
1
60
0
100
AcDbPoint
10
-36
20
-3
30
0
39
0
210
0
220
0
230
1
50
360
0
POINT
5
17D
100
AcDbEntity
8
Defpoints
62
0
6
ByLayer
370
-1
48
1
60
0
100
AcDbPoint
10
29.3666
20
-1.6
30
0
39
0
210
0
220
0
230
1
50
360
0
POINT
5
17E
100
AcDbEntity
8
Defpoints
62
0
6
ByLayer
370
-1
48
1
60
0
100
AcDbPoint
10
29.3666
20
-21.343428
30
0
39
0
210
0
220
0
230
1
50
360
0
ENDBLK
5
175
100
AcDbEntity
8
0
100
AcDbBlockEnd
0
BLOCK
5
186
100
AcDbEntity
8
0
100
AcDbBlockBegin
2
_U4
70
0
10
0
20
0
30
0
3
_U4
0
MTEXT
5
180
100
AcDbEntity
8
SK2
62
256
6
ByLayer
370
13
48
1
60
0
100
AcDbMText
10
-8.453999
20
-20.310795
30
0
210
0
220
0
230
1
1
\W0.7317;65,37
40
3.5
41
0
44
1.084337
50
0
71
7
72
5
7
iso_b_vert
0
LINE
5
181
100
AcDbEntity
8
SK2
62
256
6
ByLayer
370
13
48
1
60
0
100
AcDbLine
10
-36
20
-4.5875
30
0
11
-36
21
-23.343428
31
0
39
0
210
0
220
0
230
1
0
LINE
5
182
100
AcDbEntity
8
SK2
62
256
6
ByLayer
370
13
48
1
60
0
100
AcDbLine
10
29.3666
20
-3.1875
30
0
11
29.3666
21
-23.343428
31
0
39
0
210
0
220
0
230
1
0
LINE
5
183
100
AcDbEntity
8
SK2
62
256
6
ByLayer
370
13
48
1
60
0
100
AcDbLine
10
-36
20
-21.343428
30
0
11
29.3666
21
-21.343428
31
0
39
0
210
0
220
0
230
1
0
SOLID
5
184
100
AcDbEntity
8
SK2
62
256
6
ByLayer
370
18
48
1
60
0
100
AcDbTrace
10
-36
20
-21.343428
30
0
11
-32.500002
21
-20.882645
31
0
12
-32.499998
22
-21.804212
32
0
13
-32.499998
23
-21.804212
33
0
39
0
210
0
220
0
230
1
0
SOLID
5
185
100
AcDbEntity
8
SK2
62
256
6
ByLayer
370
18
48
1
60
0
100
AcDbTrace
10
29.3666
20
-21.343428
30
0
11
25.866602
21
-21.804212
31
0
12
25.866598
22
-20.882645
32
0
13
25.866598
23
-20.882645
33
0
39
0
210
0
220
0
230
1
0
ENDBLK
5
187
100
AcDbEntity
8
0
100
AcDbBlockEnd
0
ENDSEC
0
SECTION
2
ENTITIES
0
ARC
5
A7
100
AcDbEntity
8
1
62
256
6
ByLayer
370
18
48
1
60
0
100
AcDbCircle
39
0
10
1.681492
20
-2.400168
30
0
40
0.849999999999997
210
0
220
0
230
1
100
AcDbArc
50
89.896868
51
171.53775
0
ARC
5
A8
100
AcDbEntity
8
1
62
256
6
ByLayer
370
18
48
1
60
0
100
AcDbCircle
39
0
10
1.681492
20
2.400168
30
0
40
0.849999999999997
210
0
220
0
230
1
100
AcDbArc
50
188.46225
51
270.103132
0
ARC
5
A9
100
AcDbEntity
8
1
62
256
6
ByLayer
370
18
48
1
60
0
100
AcDbCircle
39
0
10
0
20
-2.15
30
0
40
0.850000000000004
210
0
220
0
230
1
100
AcDbArc
50
270
51
351.53775
0
ARC
5
AA
100
AcDbEntity
8
1
62
256
6
ByLayer
370
18
48
1
60
0
100
AcDbCircle
39
0
10
0
20
2.15
30
0
40
0.850000000000004
210
0
220
0
230
1
100
AcDbArc
50
8.46225
51
90
0
ELLIPSE
5
AB
100
AcDbEntity
8
1
62
256
6
ByLayer
370
18
48
1
60
0
100
AcDbEllipse
10
30.06893
20
0.000849
30
0
11
0.570511487322119
21
1.58490975885554
31
0
210
0
220
0
230
1
40
0.40005
41
2.9178105725922
42
2.93314627306812
0
ELLIPSE
5
AC
100
AcDbEntity
8
1
62
256
6
ByLayer
370
13
48
1
60
0
100
AcDbEllipse
10
6.394386
20
1.097863
30
0
11
0.133721579660323
21
0.268548951092995
31
0
210
0
220
0
230
1
40
0.32508
41
-2.73437256272726
42
-2.1461347551425
0
ELLIPSE
5
AD
100
AcDbEntity
8
1
62
256
6
ByLayer
370
13
48
1
60
0
100
AcDbEllipse
10
74.194174
20
43.437707
30
0
11
-61.8499999999999
21
7.57419029839139E-15
31
0
210
0
220
0
230
1
40
0.99863
41
0.769401297650976
42
0.772507520681256
0
ELLIPSE
5
AE
100
AcDbEntity
8
1
62
256
6
ByLayer
370
13
48
1
60
0
100
AcDbEllipse
10
6.723929
20
-48.386761
30
0
11
-56.3914463605647
21
48.977701503514
31
0
210
0
220
0
230
1
40
0.530008
41
-1.13938700514501
42
-1.0941178204768
0
ELLIPSE
5
AF
100
AcDbEntity
8
1
62
256
6
ByLayer
370
18
48
1
60
0
100
AcDbEllipse
10
6.393255
20
2.50271
30
0
11
1
21
0
31
0
210
0
220
0
230
1
40
0.999997
41
-1.90190921923842
42
-1.56758861855505
0
ELLIPSE
5
B0
100
AcDbEntity
8
1
62
256
6
ByLayer
370
18
48
1
60
0
100
AcDbEllipse
10
6.393255
20
-2.50271
30
0
11
1
21
0
31
0
210
0
220
0
230
1
40
0.999997
41
1.57313318137155
42
1.90075791544952
0
POINT
5
70
100
AcDbEntity
8
80
62
256
6
ByLayer
370
18
48
1
60
0
100
AcDbPoint
10
0
20
0
30
0
39
0
210
0
220
0
230
1
50
360
0
POINT
5
72
100
AcDbEntity
8
81
62
256
6
ByLayer
370
18
48
1
60
0
100
AcDbPoint
10
30
20
0
30
0
39
0
210
0
220
0
230
1
50
360
0
POINT
5
74
100
AcDbEntity
8
1
62
256
6
ByLayer
370
18
48
1
60
1
100
AcDbPoint
10
29.3666
20
-1.6
30
0
39
0
210
0
220
0
230
1
50
360
0
POINT
5
76
100
AcDbEntity
8
1
62
256
6
ByLayer
370
18
48
1
60
1
100
AcDbPoint
10
-36
20
-3
30
0
39
0
210
0
220
0
230
1
50
360
0
POINT
5
77
100
AcDbEntity
8
1
62
256
6
ByLayer
370
18
48
1
60
1
100
AcDbPoint
10
13.37
20
1.6
30
0
39
0
210
0
220
0
230
1
50
360
0
POINT
5
78
100
AcDbEntity
8
1
62
256
6
ByLayer
370
18
48
1
60
1
100
AcDbPoint
10
29.3666
20
-1.6
30
0
39
0
210
0
220
0
230
1
50
360
0
POINT
5
79
100
AcDbEntity
8
1
62
256
6
ByLayer
370
18
48
1
60
1
100
AcDbPoint
10
-36
20
-3
30
0
39
0
210
0
220
0
230
1
50
360
0
POINT
5
7A
100
AcDbEntity
8
1
62
256
6
ByLayer
370
18
48
1
60
1
100
AcDbPoint
10
29.3666
20
-1.6
30
0
39
0
210
0
220
0
230
1
50
360
0
SPLINE
5
B1
100
AcDbEntity
8
1
62
256
6
ByLayer
370
18
48
1
60
0
100
AcDbSpline
70
4
71
3
72
14
73
10
40
0
40
0
40
0
40
0
40
0.209700444171981
40
0.209700444171981
40
0.473133629447987
40
0.473133629447987
40
0.736566814723994
40
0.736566814723994
40
1
40
1
40
1
40
1
41
1
10
29.398004720775
20
0.193782111420035
30
0
41
1
10
29.417841227815
20
0.208333157071905
30
0
41
1
10
29.4389046767013
20
0.224977711259385
30
0
41
1
10
29.4889986989053
20
0.266161925984392
30
0
41
1
10
29.518186461662
20
0.291223999783341
30
0
41
1
10
29.58071510192
20
0.343730092295459
30
0
41
1
10
29.6143057120207
20
0.371419679295713
30
0
41
1
10
29.6855242141365
20
0.423299520705541
30
0
41
1
10
29.7239208704912
20
0.448039950779446
30
0
41
1
10
29.7656291611375
20
0.467304239350057
30
0
0
SPLINE
5
B2
100
AcDbEntity
8
1
62
256
6
ByLayer
370
18
48
1
60
0
100
AcDbSpline
70
4
71
3
72
14
73
10
40
0
40
0
40
0
40
0
40
0.285691065400896
40
0.285691065400896
40
0.571382130801792
40
0.571382130801792
40
0.857073196202688
40
0.857073196202688
40
1
40
1
40
1
40
1
41
1
10
6.72392930697953
20
-0.75717810958335
30
0
41
1
10
6.75938562539307
20
-0.656072120563664
30
0
41
1
10
6.80790251756858
20
-0.550113675509209
30
0
41
1
10
6.91987128827563
20
-0.352921885030241
30
0
41
1
10
6.98321793554567
20
-0.261873865752932
30
0
41
1
10
7.11003041186098
20
-0.115865810322418
30
0
41
1
10
7.17337705913098
20
-0.0610429964658863
30
0
41
1
10
7.25736956314904
20
-0.0155520220693006
30
0
41
1
10
7.2835086836223
20
-0.0065291621475581
30
0
41
1
10
7.30707847684641
20
-0.0037360429797104
30
0
0
SPLINE
5
B3
100
AcDbEntity
8
1
62
256
6
ByLayer
370
18
48
1
60
0
100
AcDbSpline
70
4
71
3
72
28
73
24
40
0
40
0
40
0
40
0
40
0.0312500000000018
40
0.0312500000000018
40
0.0625000000000036
40
0.0625000000000036
40
0.125000000000007
40
0.125000000000007
40
0.18750000000001
40
0.18750000000001
40
0.250000000000014
40
0.250000000000014
40
0.375000000000011
40
0.375000000000011
40
0.500000000000009
40
0.500000000000009
40
0.625000000000007
40
0.625000000000007
40
0.750000000000005
40
0.750000000000005
40
0.875000000000002
40
0.875000000000002
40
1
40
1
40
1
40
1
41
1
10
3.91460892513129
20
0.641809471605853
30
0
41
1
10
3.923707610485
20
0.661235782152687
30
0
41
1
10
3.93562341863333
20
0.679673193266552
30
0
41
1
10
3.96282029255678
20
0.713149258425375
30
0
41
1
10
3.97821365990987
20
0.728474783459603
30
0
41
1
10
4.02864415401277
20
0.771177101943834
30
0
41
1
10
4.06639390099789
20
0.794227517115786
30
0
41
1
10
4.14619280113556
20
0.833928561042285
30
0
41
1
10
4.18855548628642
20
0.850546797029807
30
0
41
1
10
4.27424675947424
20
0.878652151202488
30
0
41
1
10
4.31792165923886
20
0.890278095347043
30
0
41
1
10
4.45083162176763
20
0.919854253295881
30
0
41
1
10
4.54255763441284
20
0.932615274086572
30
0
41
1
10
4.72512682204945
20
0.947788841552551
30
0
41
1
10
4.81638105164365
20
0.95025399500085
30
0
41
1
10
4.99883631089332
20
0.946399277177534
30
0
41
1
10
5.09003715245007
20
0.940044384073587
30
0
41
1
10
5.27238600486828
20
0.918128831450048
30
0
41
1
10
5.36235714183059
20
0.902662183233701
30
0
41
1
10
5.53826955864687
20
0.862481547893196
30
0
41
1
10
5.62447704205454
20
0.83772580595334
30
0
41
1
10
5.79335539431023
20
0.777792599922293
30
0
41
1
10
5.87659636162715
20
0.74228442602822
30
0
41
1
10
5.95636388835104
20
0.701731783464908
30
0
0
SPLINE
5
B4
100
AcDbEntity
8
1
62
256
6
ByLayer
370
18
48
1
60
0
100
AcDbSpline
70
4
71
3
72
8
73
4
40
0
40
0
40
0
40
0
40
1
40
1
40
1
40
1
41
1
10
29.8995021117425
20
-0.329695925764668
30
0
41
1
10
29.8781852925792
20
-0.388668445840977
30
0
41
1
10
29.8569093293504
20
-0.447655533748389
30
0
41
1
10
29.8356742826863
20
-0.506657211105477
30
0
0
SPLINE
5
B5
100
AcDbEntity
8
1
62
256
6
ByLayer
370
18
48
1
60
0
100
AcDbSpline
70
4
71
3
72
44
73
40
40
0
40
0
40
0
40
0
40
0.0138171040656
40
0.0138171040656
40
0.0739850252584177
40
0.0739850252584177
40
0.134152946451235
40
0.134152946451235
40
0.194320867644053
40
0.194320867644053
40
0.254488788836871
40
0.254488788836871
40
0.314656710029688
40
0.314656710029688
40
0.344740670626097
40
0.344740670626097
40
0.374824631222506
40
0.374824631222506
40
0.434992552415324
40
0.434992552415324
40
0.495160473608142
40
0.495160473608142
40
0.555328394800959
40
0.555328394800959
40
0.615496315993777
40
0.615496315993777
40
0.675664237186595
40
0.675664237186595
40
0.735832158379412
40
0.735832158379412
40
0.79600007957223
40
0.79600007957223
40
0.856168000765048
40
0.856168000765048
40
0.916335921957866
40
0.916335921957866
40
0.976503843150683
40
0.976503843150683
40
1
40
1
40
1
40
1
41
1
10
9.51983821249769
20
1.07804257930226
30
0
41
1
10
9.572113089987
20
1.09878614831473
30
0
41
1
10
9.62441195017234
20
1.11900264927027
30
0
41
1
10
9.90462518967371
20
1.22425657305186
30
0
41
1
10
10.1315076778906
20
1.29876517908718
30
0
41
1
10
10.5861643411712
20
1.42249393958537
30
0
41
1
10
10.8142516797007
20
1.47155951615096
30
0
41
1
10
11.2686318879608
20
1.54086023852477
30
0
41
1
10
11.4960711437591
20
1.56132901539579
30
0
41
1
10
11.9514101077403
20
1.5724613484168
30
0
41
1
10
12.1779013839411
20
1.56314680710528
30
0
41
1
10
12.6326967753174
20
1.51537347046727
30
0
41
1
10
12.860577573528
20
1.4768255751969
30
0
41
1
10
13.2009309090946
20
1.3986524259534
30
0
41
1
10
13.3145454456924
20
1.36938173400324
30
0
41
1
10
13.5418705570974
20
1.30421463761851
30
0
41
1
10
13.6558246625964
20
1.26833225573796
30
0
41
1
10
13.9968812135461
20
1.15234147137082
30
0
41
1
10
14.2234523531908
20
1.06353155721925
30
0
41
1
10
14.678164416103
20
0.867029991730846
30
0
41
1
10
14.9056809371284
20
0.759491649637994
30
0
41
1
10
15.3594276098073
20
0.532337482025866
30
0
41
1
10
15.5871090482621
20
0.412208413669958
30
0
41
1
10
16.0413203101322
20
0.166891820551115
30
0
41
1
10
16.2677741301951
20
0.041676570620524
30
0
41
1
10
16.7225406015209
20
-0.208111865174487
30
0
41
1
10
16.9496107507346
20
-0.33219943518128
30
0
41
1
10
17.4031676855001
20
-0.571886050077183
30
0
41
1
10
17.6309036210271
20
-0.687827316518906
30
0
41
1
10
18.0846826448824
20
-0.904201151169246
30
0
41
1
10
18.3110881788539
20
-1.00476952183294
30
0
41
1
10
18.7657953112979
20
-1.18629877614586
30
0
41
1
10
18.9925107600299
20
-1.26615985363043
30
0
41
1
10
19.4458726863481
20
-1.40150654379806
30
0
41
1
10
19.6735490630012
20
-1.45669514061373
30
0
41
1
10
20.1268594146706
20
-1.53860754966425
30
0
41
1
10
20.3534628825464
20
-1.56544975619065
30
0
41
1
10
20.6694589752782
20
-1.58211829717217
30
0
41
1
10
20.7580435725839
20
-1.5845228238515
30
0
41
1
10
20.8465631629637
20
-1.58466063763879
30
0
0
SPLINE
5
B6
100
AcDbEntity
8
1
62
256
6
ByLayer
370
18
48
1
60
0
100
AcDbSpline
70
4
71
3
72
12
73
8
40
0
40
0
40
0
40
0
40
0.282604656885467
40
0.282604656885467
40
0.641302328442733
40
0.641302328442733
40
1
40
1
40
1
40
1
41
1
10
27.5239188199375
20
1.0995904565016
30
0
41
1
10
27.7024611320252
20
1.17186888103336
30
0
41
1
10
27.8805961976789
20
1.23781003221131
30
0
41
1
10
28.2848869656763
20
1.37032138350944
30
0
41
1
10
28.5122260021454
20
1.43236945233346
30
0
41
1
10
28.963458338423
20
1.52823633742315
30
0
41
1
10
29.188110490259
20
1.5622466698955
30
0
41
1
10
29.4132241718793
20
1.58167221987628
30
0
0
SPLINE
5
B7
100
AcDbEntity
8
1
62
256
6
ByLayer
370
18
48
1
60
0
100
AcDbSpline
70
4
71
3
72
14
73
10
40
0
40
0
40
0
40
0
40
0.25
40
0.25
40
0.5
40
0.5
40
0.75
40
0.75
40
1
40
1
40
1
40
1
41
1
10
29.7198147900882
20
-0.35383733921779
30
0
41
1
10
29.7378927864621
20
-0.351004313406293
30
0
41
1
10
29.7580125194037
20
-0.338648652286821
30
0
41
1
10
29.8029803587872
20
-0.295099102916907
30
0
41
1
10
29.8268082399139
20
-0.264845438764212
30
0
41
1
10
29.8766984791998
20
-0.189252091036224
30
0
41
1
10
29.902005063399
20
-0.145017691642863
30
0
41
1
10
29.9521538224035
20
-0.0466436214382782
30
0
41
1
10
29.976610792709
20
0.0067913282442191
30
0
41
1
10
29.9996451217256
20
0.062574597528311
30
0
0
SPLINE
5
B8
100
AcDbEntity
8
1
62
256
6
ByLayer
370
18
48
1
60
0
100
AcDbSpline
70
4
71
3
72
12
73
8
40
0
40
0
40
0
40
0
40
0.25
40
0.25
40
0.5
40
0.5
40
1
40
1
40
1
40
1
41
1
10
6.06331109298873
20
1.042666084931
30
0
41
1
10
6.06323882415444
20
1.01923105531151
30
0
41
1
10
6.07688789636131
20
0.996917452273976
30
0
41
1
10
6.11091080629473
20
0.956740087943103
30
0
41
1
10
6.13215734893569
20
0.938404318785132
30
0
41
1
10
6.19989085547616
20
0.887937989198122
30
0
41
1
10
6.25175126477782
20
0.85904948638418
30
0
41
1
10
6.30617538490071
20
0.834058090236681
30
0
0
SPLINE
5
B9
100
AcDbEntity
8
1
62
256
6
ByLayer
370
18
48
1
60
0
100
AcDbSpline
70
4
71
3
72
8
73
4
40
0
40
0
40
0
40
0
40
1
40
1
40
1
40
1
41
1
10
29.729184061803
20
-0.772901205893248
30
0
41
1
10
29.7621258877234
20
-0.67978463929316
30
0
41
1
10
29.7975655494036
20
-0.591293369879992
30
0
41
1
10
29.8356742826863
20
-0.506657211105505
30
0
0
SPLINE
5
BA
100
AcDbEntity
8
1
62
256
6
ByLayer
370
18
48
1
60
0
100
AcDbSpline
70
4
71
3
72
32
73
28
40
0
40
0
40
0
40
0
40
0.250000000000008
40
0.250000000000008
40
0.37500000000001
40
0.37500000000001
40
0.43750000000001
40
0.43750000000001
40
0.500000000000011
40
0.500000000000011
40
0.625000000000008
40
0.625000000000008
40
0.687500000000007
40
0.687500000000007
40
0.750000000000005
40
0.750000000000005
40
0.812500000000004
40
0.812500000000004
40
0.875000000000002
40
0.875000000000002
40
0.906250000000002
40
0.906250000000002
40
0.937500000000001
40
0.937500000000001
40
0.968750000000001
40
0.968750000000001
40
1
40
1
40
1
40
1
41
1
10
6.0658445114276
20
-1.42043829101274
30
0
41
1
10
5.80864278784128
20
-1.3631958346264
30
0
41
1
10
5.55467350997043
20
-1.28826702777346
30
0
41
1
10
5.18000497061712
20
-1.14071322342119
30
0
41
1
10
5.05617465413255
20
-1.08559651673195
30
0
41
1
10
4.87246543294535
20
-0.991291908801117
30
0
41
1
10
4.81136325384384
20
-0.957770875709258
30
0
41
1
10
4.69145847584525
20
-0.886948106591404
30
0
41
1
10
4.63257383686729
20
-0.849623622060591
30
0
41
1
10
4.45964091741104
20
-0.730956655998256
30
0
41
1
10
4.34913957970122
20
-0.643240571234116
30
0
41
1
10
4.19466798837198
20
-0.491213652822012
30
0
41
1
10
4.14532053471399
20
-0.437198663840348
30
0
41
1
10
4.05425049621755
20
-0.322900220821822
30
0
41
1
10
4.01196437872798
20
-0.26191503857109
30
0
41
1
10
3.93824519791818
20
-0.132870433359585
30
0
41
1
10
3.90729907772737
20
-0.0658100188249477
30
0
41
1
10
3.86019646396363
20
0.074661426264953
30
0
41
1
10
3.84414169262317
20
0.149225787751362
30
0
41
1
10
3.83519587839362
20
0.259423471637859
30
0
41
1
10
3.83461449633805
20
0.296092685698113
30
0
41
1
10
3.83838273443675
20
0.369300192942205
30
0
41
1
10
3.84277854184
20
0.405766338334473
30
0
41
1
10
3.85604533973765
20
0.476259538514711
30
0
41
1
10
3.86492223027511
20
0.510595090087975
30
0
41
1
10
3.88680478094545
20
0.577589335894857
30
0
41
1
10
3.89991412702881
20
0.610435080661745
30
0
41
1
10
3.91460892513146
20
0.641809471605768
30
0
0
SPLINE
5
BB
100
AcDbEntity
8
1
62
256
6
ByLayer
370
18
48
1
60
0
100
AcDbSpline
70
4
71
3
72
12
73
8
40
0
40
0
40
0
40
0
40
0.500000000000008
40
0.500000000000008
40
0.750000000000004
40
0.750000000000004
40
1
40
1
40
1
40
1
41
1
10
29.4132241718793
20
-1.58167221987628
30
0
41
1
10
29.4657397164277
20
-1.45514995046645
30
0
41
1
10
29.5191289444404
20
-1.32495587186386
30
0
41
1
10
29.598853105642
20
-1.12299968682495
30
0
41
1
10
29.6253648202908
20
-1.05456897559972
30
0
41
1
10
29.6779142934798
20
-0.915208505093773
30
0
41
1
10
29.703950687395
20
-0.844228314302171
30
0
41
1
10
29.729184061803
20
-0.772901205893248
30
0
0
SPLINE
5
BC
100
AcDbEntity
8
1
62
256
6
ByLayer
370
18
48
1
60
0
100
AcDbSpline
70
4
71
3
72
10
73
6
40
0
40
0
40
0
40
0
40
0.5
40
0.5
40
1
40
1
40
1
40
1
41
1
10
29.3719375669391
20
-1.49389213170713
30
0
41
1
10
29.37166280133
20
-1.46407049101197
30
0
41
1
10
29.3681507911396
20
-1.43829441711691
30
0
41
1
10
29.3570593854707
20
-1.39269823879431
30
0
41
1
10
29.3496429569966
20
-1.37337196513235
30
0
41
1
10
29.3408876122793
20
-1.35653054018016
30
0
0
SPLINE
5
BD
100
AcDbEntity
8
1
62
256
6
ByLayer
370
18
48
1
60
0
100
AcDbSpline
70
4
71
3
72
16
73
12
40
0
40
0
40
0
40
0
40
0.235461337536724
40
0.235461337536724
40
0.470922675073448
40
0.470922675073448
40
0.706384012610173
40
0.706384012610173
40
0.941845350146897
40
0.941845350146897
40
1
40
1
40
1
40
1
41
1
10
6.4836695906362
20
-1.44229425613807
30
0
41
1
10
6.72281006686421
20
-1.47746117014938
30
0
41
1
10
6.96053151473271
20
-1.49873956884849
30
0
41
1
10
7.43710062186199
20
-1.50784467947344
30
0
41
1
10
7.67620582133839
20
-1.49723246163344
30
0
41
1
10
8.15249020453206
20
-1.44415360778697
30
0
41
1
10
8.39081945625168
20
-1.40302264337851
30
0
41
1
10
8.86810854020172
20
-1.29099734441397
30
0
41
1
10
9.10576197694036
20
-1.22160784288974
30
0
41
1
10
9.4028976775368
20
-1.11939214578729
30
0
41
1
10
9.46185973625768
20
-1.09840243903071
30
0
41
1
10
9.52082793121662
20
-1.0767275395884
30
0
0
SPLINE
5
BE
100
AcDbEntity
8
1
62
256
6
ByLayer
370
18
48
1
60
0
100
AcDbSpline
70
4
71
3
72
58
73
54
40
0
40
0
40
0
40
0
40
0.0172506979586063
40
0.0172506979586063
40
0.0490219759613241
40
0.0490219759613241
40
0.080793253964042
40
0.080793253964042
40
0.11256453196676
40
0.11256453196676
40
0.144335809969478
40
0.144335809969478
40
0.176107087972196
40
0.176107087972196
40
0.207878365974914
40
0.207878365974914
40
0.239649643977631
40
0.239649643977631
40
0.27142092198035
40
0.27142092198035
40
0.303192199983068
40
0.303192199983068
40
0.334963477985786
40
0.334963477985786
40
0.366734755988504
40
0.366734755988504
40
0.398506033991221
40
0.398506033991221
40
0.430277311993939
40
0.430277311993939
40
0.462048589996657
40
0.462048589996657
40
0.493819867999375
40
0.493819867999375
40
0.525591146002093
40
0.525591146002093
40
0.589133702007529
40
0.589133702007529
40
0.652676258012965
40
0.652676258012965
40
0.716218814018401
40
0.716218814018401
40
0.747990092021118
40
0.747990092021118
40
0.779761370023835
40
0.779761370023835
40
0.843303926029271
40
0.843303926029271
40
0.906846482034706
40
0.906846482034706
40
0.970389038040142
40
0.970389038040142
40
1
40
1
40
1
40
1
41
1
10
16.295305176121
20
1.52005620817829
30
0
41
1
10
16.3598895412275
20
1.52035045607923
30
0
41
1
10
16.4245135145212
20
1.51949503626781
30
0
41
1
10
16.6083969158892
20
1.51327307784567
30
0
41
1
10
16.7275561152852
20
1.50473317074201
30
0
41
1
10
16.9654577157876
20
1.4810808961148
30
0
41
1
10
17.0842557778059
20
1.46593344748735
30
0
41
1
10
17.3220345094535
20
1.42702446337333
30
0
41
1
10
17.4412519447281
20
1.40333985061451
30
0
41
1
10
17.6795773174901
20
1.34945616167693
30
0
41
1
10
17.7985491358288
20
1.31953587344589
30
0
41
1
10
18.0363459690059
20
1.25216827585183
30
0
41
1
10
18.1552744900367
20
1.21482829597159
30
0
41
1
10
18.3931472287883
20
1.1345659951879
30
0
41
1
10
18.5123770320704
20
1.09142211360125
30
0
41
1
10
18.7504246968596
20
0.999499236348356
30
0
41
1
10
18.8692616719222
20
0.950686224859453
30
0
41
1
10
19.1069960770018
20
0.848885746777711
30
0
41
1
10
19.2256490853595
20
0.795506502854181
30
0
41
1
10
19.4636497214995
20
0.684979323668301
30
0
41
1
10
19.5829054151716
20
0.627516960812301
30
0
41
1
10
19.8207333970964
20
0.509923688059246
30
0
41
1
10
19.9395105829334
20
0.449963652963191
30
0
41
1
10
20.1770417868156
20
0.327567967895845
30
0
41
1
10
20.2958744292866
20
0.265265078789042
30
0
41
1
10
20.5340842306075
20
0.139447149155188
30
0
41
1
10
20.6531680456498
20
0.0759249400780106
30
0
41
1
10
20.8908815164263
20
-0.0508627773529042
30
0
41
1
10
21.0096254071899
20
-0.114224239574781
30
0
41
1
10
21.2472820030107
20
-0.240187784749367
30
0
41
1
10
21.3662890148187
20
-0.302847465566686
30
0
41
1
10
21.6044269500323
20
-0.426629878345722
30
0
41
1
10
21.7231856980897
20
-0.487297225475686
30
0
41
1
10
21.9606887571313
20
-0.605576879361138
30
0
41
1
10
22.0793452515027
20
-0.66351175809848
30
0
41
1
10
22.4356264046558
20
-0.832498778057044
30
0
41
1
10
22.6739230094664
20
-0.936571914559806
30
0
41
1
10
23.148683811791
20
-1.12619941746362
30
0
41
1
10
23.3868087795004
20
-1.20858481057044
30
0
41
1
10
23.8621315926382
20
-1.3503019042123
30
0
41
1
10
24.0991822772177
20
-1.40591995959375
30
0
41
1
10
24.4561695079639
20
-1.47065251627248
30
0
41
1
10
24.5749777540772
20
-1.4883351756684
30
0
41
1
10
24.8122932185574
20
-1.51467433968742
30
0
41
1
10
24.930867927039
20
-1.52374574584428
30
0
41
1
10
25.2867683015487
20
-1.53945141397017
30
0
41
1
10
25.5249181797669
20
-1.53471710594076
30
0
41
1
10
25.9993215900894
20
-1.49612802274123
30
0
41
1
10
26.2367265344856
20
-1.45986652145118
30
0
41
1
10
26.7119038882533
20
-1.35820405591028
30
0
41
1
10
26.9486509841269
20
-1.29253713827356
30
0
41
1
10
27.296748763016
20
-1.17870248992364
30
0
41
1
10
27.4076439478912
20
-1.13967019970704
30
0
41
1
10
27.5182603999211
20
-1.09809462492407
30
0
0
SPLINE
5
BF
100
AcDbEntity
8
1
62
256
6
ByLayer
370
18
48
1
60
0
100
AcDbSpline
70
4
71
3
72
38
73
34
40
0
40
0
40
0
40
0
40
0.039627935191863
40
0.039627935191863
40
0.0767667445184063
40
0.0767667445184063
40
0.11390555384495
40
0.11390555384495
40
0.188183172498036
40
0.188183172498036
40
0.262460791151122
40
0.262460791151122
40
0.411016028457294
40
0.411016028457294
40
0.448154837783836
40
0.448154837783836
40
0.485293647110378
40
0.485293647110378
40
0.559571265763463
40
0.559571265763463
40
0.633848884416548
40
0.633848884416548
40
0.670987693743089
40
0.670987693743089
40
0.708126503069631
40
0.708126503069631
40
0.856681740375797
40
0.856681740375797
40
0.893820549702338
40
0.893820549702338
40
0.93095935902888
40
0.93095935902888
40
1
40
1
40
1
40
1
41
1
10
12.4234267230686
20
1.56950870203116
30
0
41
1
10
12.5516362034625
20
1.56970324122869
30
0
41
1
10
12.6801978328786
20
1.56518098604485
30
0
41
1
10
12.9303657988569
20
1.54712154521127
30
0
41
1
10
13.0518812849982
20
1.53414554621935
30
0
41
1
10
13.2931990375373
20
1.50030816460185
30
0
41
1
10
13.4134010928769
20
1.47942484239709
30
0
41
1
10
13.7730682724026
20
1.40526910292533
30
0
41
1
10
14.0121171922007
20
1.34090681165986
30
0
41
1
10
14.4911772645029
20
1.18457322661627
30
0
41
1
10
14.7318979264362
20
1.09291467141969
30
0
41
1
10
15.4595232925928
20
0.782913346018745
30
0
41
1
10
15.9348732725709
20
0.537544299147356
30
0
41
1
10
16.5344708216089
20
0.213083806429694
30
0
41
1
10
16.6546155314868
20
0.147222416851122
30
0
41
1
10
16.8959295303487
20
0.0145896130908909
30
0
41
1
10
17.0174796487796
20
-0.0523820327208
30
0
41
1
10
17.3798269153386
20
-0.251431776372414
30
0
41
1
10
17.6192768038905
20
-0.381824191071274
30
0
41
1
10
18.0975523017769
20
-0.631708418868953
30
0
41
1
10
18.3363629204065
20
-0.751235921368021
30
0
41
1
10
18.6965097312032
20
-0.918199350080101
30
0
41
1
10
18.8168934672124
20
-0.971776009380136
30
0
41
1
10
19.058866163585
20
-1.07387989953759
30
0
41
1
10
19.1800317615951
20
-1.12224103471482
30
0
41
1
10
19.7818124627981
20
-1.34728267110287
30
0
41
1
10
20.256095594623
20
-1.47544286654232
30
0
41
1
10
20.8576276604567
20
-1.55530673930016
30
0
41
1
10
20.9786557101466
20
-1.56730657868192
30
0
41
1
10
21.2204594696651
20
-1.58280389081185
30
0
41
1
10
21.3408482446251
20
-1.58629717222445
30
0
41
1
10
21.6838986495151
20
-1.58438712834868
30
0
41
1
10
21.9056663015019
20
-1.56871123977268
30
0
41
1
10
22.1276602231292
20
-1.53915278555766
30
0
0
SPLINE
5
C0
100
AcDbEntity
8
1
62
256
6
ByLayer
370
18
48
1
60
0
100
AcDbSpline
70
4
71
3
72
8
73
4
40
0
40
0
40
0
40
0
40
1
40
1
40
1
40
1
41
1
10
6.06584451142766
20
-1.42043829101286
30
0
41
1
10
6.17341620906464
20
-1.40664716851774
30
0
41
1
10
6.28267160400708
20
-1.41028428266566
30
0
41
1
10
6.39335364451944
20
-1.42832031237572
30
0
0
SPLINE
5
C1
100
AcDbEntity
8
1
62
256
6
ByLayer
370
18
48
1
60
0
100
AcDbSpline
70
4
71
4
72
10
73
5
40
0
40
0
40
0
40
0
40
0
40
1
40
1
40
1
40
1
40
1
41
1
10
6.72392930697967
20
-0.757178109583407
30
0
41
1
10
6.66386437789379
20
-0.928457146222087
30
0
41
1
10
6.60379944880791
20
-1.09973618286077
30
0
41
1
10
6.54373451972205
20
-1.27101521949945
30
0
41
1
10
6.48366959063617
20
-1.4422942561381
30
0
0
SPLINE
5
C2
100
AcDbEntity
8
1
62
256
6
ByLayer
370
13
48
1
60
0
100
AcDbSpline
70
4
71
3
72
40
73
36
40
0
40
0
40
0
40
0
40
0.11608110794932
40
0.11608110794932
40
0.158096226694311
40
0.158096226694311
40
0.200111345439301
40
0.200111345439301
40
0.28414158292928
40
0.28414158292928
40
0.32615670167427
40
0.32615670167427
40
0.368171820419259
40
0.368171820419259
40
0.452202057909236
40
0.452202057909236
40
0.494217176654225
40
0.494217176654225
40
0.536232295399213
40
0.536232295399213
40
0.62026253288919
40
0.62026253288919
40
0.662277651634179
40
0.662277651634179
40
0.704292770379167
40
0.704292770379167
40
0.788323007869144
40
0.788323007869144
40
0.872353245359121
40
0.872353245359121
40
0.91436836410411
40
0.91436836410411
40
0.9563834828491
40
0.9563834828491
40
1
40
1
40
1
40
1
41
1
10
21.7432637720405
20
-1.52957512115944
30
0
41
1
10
21.4144909028775
20
-1.52761163186574
30
0
41
1
10
21.0867378858176
20
-1.49560977357183
30
0
41
1
10
20.6360466970276
20
-1.41157077295597
30
0
41
1
10
20.5155255792021
20
-1.38535791867599
30
0
41
1
10
20.2760150708341
20
-1.32622827750089
30
0
41
1
10
20.1566616180364
20
-1.29322860396607
30
0
41
1
10
19.799214217105
20
-1.18441400407534
30
0
41
1
10
19.5616084354763
20
-1.09926487637261
30
0
41
1
10
19.2040198119815
20
-0.955353533960448
30
0
41
1
10
19.08460346727
20
-0.904682563978611
30
0
41
1
10
18.8449679106079
20
-0.798562012240211
30
0
41
1
10
18.7245660827526
20
-0.742939766515804
30
0
41
1
10
18.3643583949419
20
-0.571471725532092
30
0
41
1
10
18.1249395121318
20
-0.450457072400695
30
0
41
1
10
17.7645335787628
20
-0.263011538056048
30
0
41
1
10
17.6440597320643
20
-0.199676838377457
30
0
41
1
10
17.4044957570296
20
-0.0728371300995434
30
0
41
1
10
17.2851542988165
20
-0.0091612730648478
30
0
41
1
10
16.9274945224785
20
0.180756722390413
30
0
41
1
10
16.6896931339445
20
0.306242749851407
30
0
41
1
10
16.3316772144391
20
0.488437040187193
30
0
41
1
10
16.2120321993265
20
0.547999710186332
30
0
41
1
10
15.9719785188902
20
0.664535135614756
30
0
41
1
10
15.8514615790651
20
0.721597905715868
30
0
41
1
10
15.4919137061796
20
0.885165425563628
30
0
41
1
10
15.2537067523187
20
0.985246252748709
30
0
41
1
10
14.7771999893385
20
1.16290902774827
30
0
41
1
10
14.5387321875523
20
1.24041126508126
30
0
41
1
10
14.1788247585792
20
1.33703339022972
30
0
41
1
10
14.0580421823795
20
1.36564915558873
30
0
41
1
10
13.8180328868469
20
1.41556984006817
30
0
41
1
10
13.6984846178893
20
1.4368978233816
30
0
41
1
10
13.4552910426925
20
1.4724918465412
30
0
41
1
10
13.3315298383513
20
1.48641147296828
30
0
41
1
10
13.2077496988361
20
1.49612878117472
30
0
0
SPLINE
5
C3
100
AcDbEntity
8
1
62
256
6
ByLayer
370
13
48
1
60
0
100
AcDbSpline
70
4
71
3
72
33
73
29
40
0
40
0
40
0
40
0
40
0.0003885550697943
40
0.0413238724347508
40
0.0822591897997445
40
0.14366216584718
40
0.164129824529665
40
0.205065141894626
40
0.246000459259588
40
0.30740343530704
40
0.327871093989535
40
0.368806411354499
40
0.409741728719465
40
0.471144704766909
40
0.491612363449404
40
0.532547680814392
40
0.57348299817935
40
0.634885974226792
40
0.655353632909273
40
0.696288950274237
40
0.737224267639213
40
0.79862724368667
40
0.819094902369144
40
0.860030219734118
40
0.90096553709909
40
0.962368513146522
40
0.982836171829013
40
1
40
1
40
1
40
1
41
1.00000000000003
10
29.7291840606242
20
0.77290120588359
30
0
41
1.00000000000003
10
29.7290203000282
20
0.772899856985765
30
0
41
1.00000000000003
10
29.7116039181299
20
0.772755964881616
30
0
41
1.00000000000003
10
29.676934084882
20
0.77237771963687
30
0
41
1.00000000000003
10
29.6165491145567
20
0.77142719147904
30
0
41
1.00000000000003
10
29.5647925905976
20
0.770311627326924
30
0
41
1.00000000000003
10
29.5130353213198
20
0.768941588406511
30
0
41
1.00000000000003
10
29.4699027399563
20
0.767632557758508
30
0
41
1.00000000000003
10
29.4095177948771
20
0.765510715856754
30
0
41
1.00000000000003
10
29.3577613079532
20
0.763392448520767
30
0
41
1.00000000000003
10
29.3060040832658
20
0.761022070942152
30
0
41
1.00000000000003
10
29.2628715363754
20
0.75888241823734
30
0
41
1.00000000000003
10
29.2024866255308
20
0.755601226551084
30
0
41
1.00000000000003
10
29.1507301512751
20
0.752491517741254
30
0
41
1.00000000000003
10
29.0989729229017
20
0.749132929403351
30
0
41
1.00000000000003
10
29.0558403613351
20
0.746173334691781
30
0
41
1.00000000000003
10
28.9954554133872
20
0.741748708728898
30
0
41
1.00000000000003
10
28.9436988959571
20
0.737662192868675
30
0
41
1.00000000000003
10
28.891941622208
20
0.733330887968413
30
0
41
1.00000000000003
10
28.8488090291607
20
0.729564828129134
30
0
41
1.00000000000003
10
28.7884240561407
20
0.724017177440408
30
0
41
1.00000000000003
10
28.7366675374415
20
0.718973591900244
30
0
41
1.00000000000003
10
28.6849102794904
20
0.713691907103289
30
0
41
1.00000000000003
10
28.6417777108505
20
0.709139798343479
30
0
41
1.00000000000003
10
28.5813927876168
20
0.702500372618324
30
0
41
1.00000000000003
10
28.5296363221341
20
0.696528674118021
30
0
41
1.00000000000003
10
28.4878977358716
20
0.691527098311646
30
0
41
1.00000000000003
10
28.4720374075717
20
0.689594060585627
30
0
41
1.00000000000003
10
28.4648034321885
20
0.688705761872634
30
0
0
SPLINE
5
C4
100
AcDbEntity
8
1
62
256
6
ByLayer
370
13
48
1
60
0
100
AcDbSpline
70
4
71
3
72
108
73
104
40
0
40
0
40
0
40
0
40
0.0039287212197563
40
0.0085053319811904
40
0.0176585535040592
40
0.0268117750269266
40
0.0405416073112312
40
0.0451182180726649
40
0.0542714395955332
40
0.0634246611184011
40
0.0771544934027035
40
0.081731104164139
40
0.0908843256870082
40
0.100037547209876
40
0.113767379494179
40
0.118343990255613
40
0.127497211778481
40
0.13665043330135
40
0.150380265585653
40
0.154956876347087
40
0.164110097869956
40
0.173263319392824
40
0.186993151677127
40
0.191569762438561
40
0.20072298396143
40
0.209876205484299
40
0.223606037768601
40
0.228182648530036
40
0.237335870052904
40
0.246489091575773
40
0.260218923860076
40
0.26479553462151
40
0.273948756144379
40
0.283101977667247
40
0.29683180995155
40
0.301408420712984
40
0.310561642235853
40
0.319714863758721
40
0.333444696043024
40
0.338021306804459
40
0.347174528327327
40
0.356327749850195
40
0.370057582134498
40
0.374634192895933
40
0.383787414418801
40
0.39294063594167
40
0.406670468225972
40
0.411247078987407
40
0.420400300510274
40
0.429553522033143
40
0.443283354317445
40
0.447859965078881
40
0.457013186601749
40
0.466166408124618
40
0.479896240408922
40
0.484472851170355
40
0.493626072693222
40
0.502779294216091
40
0.515364973810036
40
0.521085737261829
40
0.526806500713623
40
0.539392180307567
40
0.557698623353303
40
0.589734898683344
40
0.594311509444777
40
0.603464730967647
40
0.612617952490515
40
0.626347784774817
40
0.630924395536252
40
0.64007761705912
40
0.649230838581989
40
0.661816518175933
40
0.667537281627726
40
0.673258045079519
40
0.685843724673463
40
0.7041501677192
40
0.73618644304924
40
0.740763053810674
40
0.749916275333543
40
0.759069496856412
40
0.772799329140714
40
0.777375939902148
40
0.786529161425017
40
0.795682382947886
40
0.80826806254183
40
0.813988825993623
40
0.819709589445416
40
0.83229526903936
40
0.850601712085097
40
0.882637987415137
40
0.887214598176571
40
0.89636781969944
40
0.905521041222308
40
0.919250873506611
40
0.923827484268045
40
0.932980705790914
40
0.942133927313782
40
0.954719606907727
40
0.96044037035952
40
0.966161133811313
40
0.978746813405257
40
0.997053256450993
40
1
40
1
40
1
40
1
41
1.00000000000003
10
16.1127237345588
20
0.0550861012383718
30
0
41
1.00000000000003
10
16.1053187483247
20
0.0570813699820843
30
0
41
1.00000000000003
10
16.0892876074849
20
0.0614001815107751
30
0
41
1.00000000000003
10
16.0560039400103
20
0.0703616099517014
30
0
41
1.00000000000003
10
16.0128713665656
20
0.0819425319513105
30
0
41
1.00000000000003
10
15.9524864310333
20
0.0981220322993833
30
0
41
1.00000000000003
10
15.9007299517907
20
0.111972088804006
30
0
41
1.00000000000003
10
15.8489727354169
20
0.125786601126062
30
0
41
1.00000000000003
10
15.8058401951215
20
0.137254911263564
30
0
41
1.00000000000003
10
15.7454552941481
20
0.153256192225764
30
0
41
1.00000000000003
10
15.693698831521
20
0.1669322466204
30
0
41
1.00000000000003
10
15.6419416196798
20
0.180554981245388
30
0
41
1.00000000000003
10
15.5988090799373
20
0.191851925981717
30
0
41
1.00000000000003
10
15.5384241800775
20
0.207592978240222
30
0
41
1.00000000000003
10
15.4866677197071
20
0.221024569616383
30
0
41
1.00000000000003
10
15.4349105128174
20
0.234384646608355
30
0
41
1.00000000000003
10
15.3917779820421
20
0.245450930849863
30
0
41
1.00000000000003
10
15.331393105072
20
0.260848462200719
30
0
41
1.00000000000003
10
15.279636673329
20
0.273964113651735
30
0
41
1.00000000000003
10
15.2278795007659
20
0.286990488294569
30
0
41
1.00000000000003
10
15.1847469969765
20
0.297767378817801
30
0
41
1.00000000000003
10
15.1243621469705
20
0.312739875985007
30
0
41
1.00000000000003
10
15.0726057245179
20
0.325470364752239
30
0
41
1.00000000000003
10
15.0208485470103
20
0.338094436819507
30
0
41
1.00000000000003
10
14.9777160261531
20
0.348525269013198
30
0
41
1.00000000000003
10
14.9173311273983
20
0.362994162830279
30
0
41
1.00000000000003
10
14.8655746400135
20
0.375272841395247
30
0
41
1.00000000000003
10
14.8138173822036
20
0.387428631867396
30
0
41
1.00000000000003
10
14.7706847901739
20
0.39745895161393
30
0
41
1.00000000000003
10
14.7102997954718
20
0.411348812177936
30
0
41
1.00000000000003
10
14.658543236397
20
0.423111775304976
30
0
41
1.00000000000003
10
14.6067859237965
20
0.434736095713405
30
0
41
1.00000000000003
10
14.5636533012773
20
0.444313812514694
30
0
41
1.00000000000003
10
14.5032682905813
20
0.457552587922053
30
0
41
1.00000000000003
10
14.4515117411333
20
0.468738892253455
30
0
41
1.00000000000003
10
14.3997544515745
20
0.479771563847251
30
0
41
1.00000000000003
10
14.3566218495889
20
0.488847126438443
30
0
41
1.00000000000003
10
14.2962368612181
20
0.501366376496477
30
0
41
1.00000000000003
10
14.2444803219012
20
0.511918233089132
30
0
41
1.00000000000003
10
14.192723031697
20
0.522302278596454
30
0
41
1.00000000000003
10
14.1495904213839
20
0.530828822069664
30
0
41
1.00000000000003
10
14.0892054120264
20
0.542563895710186
30
0
41
1.00000000000003
10
14.037448850639
20
0.552426801926726
30
0
41
1.00000000000003
10
13.985691541612
20
0.562108569293952
30
0
41
1.00000000000003
10
13.9425589241301
20
0.570042025334101
30
0
41
1.00000000000003
10
13.8821739242315
20
0.580932235314901
30
0
41
1.00000000000003
10
13.830417389281
20
0.590055139694083
30
0
41
1.00000000000003
10
13.7786601190114
20
0.598984470887853
30
0
41
1.00000000000003
10
13.7355275426805
20
0.606283712520575
30
0
41
1.00000000000003
10
13.6751426130872
20
0.616272536052814
30
0
41
1.00000000000003
10
13.6233861459009
20
0.624607992560309
30
0
41
1.00000000000003
10
13.5716289428045
20
0.632738345190357
30
0
41
1.00000000000003
10
13.5284964163985
20
0.639365258658055
30
0
41
1.00000000000003
10
13.4681115433771
20
0.648400404672865
30
0
41
1.00000000000003
10
13.4163551136302
20
0.655904623462712
30
0
41
1.00000000000003
10
13.364597943818
20
0.663193148329194
30
0
41
1.00000000000003
10
13.321465427095
20
0.669112724187025
30
0
41
1.00000000000003
10
13.2632373613179
20
0.676862593940862
30
0
41
1.00000000000003
10
13.211480548679
20
0.683506457977025
30
0
41
1.00000000000003
10
13.166193293143
20
0.689130462259307
30
0
41
1.00000000000003
10
13.1209033066
20
0.694601377689431
30
0
41
1.00000000000003
10
13.0518889003545
20
0.702618813781534
30
0
41
1.00000000000003
10
12.9332684277897
20
0.71547907219594
30
0
41
1.00000000000003
10
12.8297595276902
20
0.72558061139771
30
0
41
1.00000000000003
10
12.7435039545643
20
0.733232725788446
30
0
41
1.00000000000003
10
12.7003715476067
20
0.736856647863937
30
0
41
1.00000000000003
10
12.6399867166155
20
0.741650559515256
30
0
41
1.00000000000003
10
12.5882302563251
20
0.745476942058593
30
0
41
1.00000000000003
10
12.536473037169
20
0.749056769716282
30
0
41
1.00000000000003
10
12.4933404865681
20
0.751870640422118
30
0
41
1.00000000000003
10
12.4351123992054
20
0.755396705760722
30
0
41
1.00000000000003
10
12.3833555905367
20
0.758251387480561
30
0
41
1.00000000000003
10
12.3380683548583
20
0.760535542330024
30
0
41
1.00000000000003
10
12.2927783975518
20
0.762658037658417
30
0
41
1.00000000000003
10
12.2237640549362
20
0.765545984283568
30
0
41
1.00000000000003
10
12.1051437327296
20
0.769516771757088
30
0
41
1.00000000000003
10
12.0016349921141
20
0.77172856788423
30
0
41
1.00000000000003
10
11.9153795372563
20
0.772752768535559
30
0
41
1.00000000000003
10
11.8722471845488
20
0.773067020994039
30
0
41
1.00000000000003
10
11.8118624171291
20
0.773216069178152
30
0
41
1.00000000000003
10
11.7601059964488
20
0.773045175669102
30
0
41
1.00000000000003
10
11.7083488027377
20
0.772620249461488
30
0
41
1.00000000000003
10
11.6652162649263
20
0.772097682479289
30
0
41
1.00000000000003
10
11.6069881795845
20
0.771114930261921
30
0
41
1.00000000000003
10
11.5552313554936
20
0.769954737442907
30
0
41
1.00000000000003
10
11.5099440928476
20
0.768722968308259
30
0
41
1.00000000000003
10
11.4646540980368
20
0.767336790588024
30
0
41
1.00000000000003
10
11.3956396701112
20
0.764885083682378
30
0
41
1.00000000000003
10
11.2770191341937
20
0.759699249887325
30
0
41
1.00000000000003
10
11.1735101398988
20
0.753901210989318
30
0
41
1.00000000000003
10
11.087254463023
20
0.74826281167862
30
0
41
1.00000000000003
10
11.0441219975074
20
0.745265768919131
30
0
41
1.00000000000003
10
10.9837370728707
20
0.740789713690424
30
0
41
1.00000000000003
10
10.9319805233992
20
0.736660152387436
30
0
41
1.00000000000003
10
10.8802232115264
20
0.732286641145783
30
0
41
1.00000000000003
10
10.8370905858725
20
0.728486009620304
30
0
41
1.00000000000003
10
10.7788624064041
20
0.723091137845734
30
0
41
1.00000000000003
10
10.7271055267725
20
0.718019594059122
30
0
41
1.00000000000003
10
10.6818182390658
20
0.713375050638554
30
0
41
1.00000000000003
10
10.636528233563
20
0.708592548490323
30
0
41
1.00000000000003
10
10.5675138191723
20
0.700992331884841
30
0
41
1.00000000000003
10
10.5037273347286
20
0.693489107958961
30
0
41
1.00000000000003
10
10.4636672991381
20
0.68857951505661
30
0
41
1.00000000000003
10
10.4581130375774
20
0.687895014190766
30
0
0
SPLINE
5
C5
100
AcDbEntity
8
1
62
256
6
ByLayer
370
18
48
1
60
0
100
AcDbSpline
70
4
71
3
72
8
73
4
40
0
40
0
40
0
40
0
40
1
40
1
40
1
40
1
41
1
10
29.9996451217254
20
-0.0625745975279699
30
0
41
1
10
29.9652938845678
20
-0.150874839564125
30
0
41
1
10
29.9319538111745
20
-0.239918999779206
30
0
41
1
10
29.8995021117424
20
-0.329695925764696
30
0
0
SPLINE
5
C6
100
AcDbEntity
8
1
62
256
6
ByLayer
370
18
48
1
60
0
100
AcDbSpline
70
4
71
3
72
12
73
8
40
0
40
0
40
0
40
0
40
0.25
40
0.25
40
0.5
40
0.5
40
1
40
1
40
1
40
1
41
1
10
5.95636388835001
20
0.7017317834636
30
0
41
1
10
6.09309812328402
20
0.632218100600539
30
0
41
1
10
6.23103291605889
20
0.561979581877267
30
0
41
1
10
6.50896601031505
20
0.420131536238131
30
0
41
1
10
6.64921746166206
20
0.348392577518467
30
0
41
1
10
7.07120981047853
20
0.131959095656299
30
0
41
1
10
7.35081063392187
20
-0.0122205244680913
30
0
41
1
10
7.62867378270016
20
-0.156436276430213
30
0
0
SPLINE
5
C7
100
AcDbEntity
8
1
62
256
6
ByLayer
370
18
48
1
60
0
100
AcDbSpline
70
4
71
1
72
4
73
2
40
0
40
0
40
1
40
1
41
1
10
29.3795586671803
20
-1.50252275938362
30
0
41
1
10
29.7198147900964
20
-0.353837339217279
30
0
0
SPLINE
5
C8
100
AcDbEntity
8
1
62
256
6
ByLayer
370
13
48
1
60
0
100
AcDbSpline
70
4
71
3
72
113
73
109
40
0
40
0
40
0
40
0
40
0.008853169147457
40
0.0226640673646619
40
0.0272677001037307
40
0.0364749655818663
40
0.0456822310600036
40
0.0594931292772106
40
0.0640967620162777
40
0.0733040274944141
40
0.0825112929725514
40
0.0963221911897567
40
0.100925823928825
40
0.110133089406963
40
0.119340354885102
40
0.133151253102305
40
0.137754885841372
40
0.146962151319509
40
0.156169416797646
40
0.169980315014851
40
0.17458394775392
40
0.183791213232055
40
0.192998478710193
40
0.206809376927399
40
0.211413009666467
40
0.220620275144603
40
0.229827540622742
40
0.243638438839944
40
0.248242071579014
40
0.257449337057151
40
0.266656602535288
40
0.280467500752494
40
0.285071133491561
40
0.294278398969698
40
0.303485664447834
40
0.31729656266504
40
0.321900195404109
40
0.331107460882246
40
0.340314726360383
40
0.354125624577588
40
0.358729257316656
40
0.367936522794792
40
0.377143788272928
40
0.390954686490135
40
0.395558319229203
40
0.40476558470734
40
0.413972850185477
40
0.427783748402682
40
0.43238738114175
40
0.441594646619888
40
0.450801912098024
40
0.464612810315229
40
0.469216443054298
40
0.478423708532435
40
0.487630974010571
40
0.501441872227777
40
0.506045504966845
40
0.515252770444982
40
0.524460035923118
40
0.538270934140324
40
0.542874566879392
40
0.55208183235753
40
0.561289097835666
40
0.575099996052871
40
0.579703628791939
40
0.588910894270076
40
0.598118159748213
40
0.611929057965418
40
0.616532690704487
40
0.625739956182623
40
0.63494722166076
40
0.648758119877966
40
0.653361752617034
40
0.66256901809517
40
0.671776283573307
40
0.685587181790513
40
0.690190814529581
40
0.699398080007718
40
0.708605345485855
40
0.72241624370306
40
0.727019876442129
40
0.736227141920265
40
0.745434407398402
40
0.759245305615607
40
0.763848938354675
40
0.773056203832812
40
0.782263469310949
40
0.796074367528154
40
0.800678000267223
40
0.809885265745358
40
0.819092531223497
40
0.832903429440702
40
0.83750706217977
40
0.846714327657906
40
0.855921593136043
40
0.868581583168481
40
0.874336124092317
40
0.880090665016154
40
0.892750655048589
40
0.911165186004863
40
0.943390615178342
40
0.947994247917412
40
0.95720151339555
40
0.966408778873684
40
0.980219677090893
40
0.984823309829959
40
0.994030575308096
40
1
40
1
40
1
40
1
41
1.00000000000003
10
25.120256283575
20
0.0530828777264658
30
0
41
1.00000000000003
10
25.1036669159564
20
0.0575469480781959
30
0
41
1.00000000000003
10
25.0611984098712
20
0.0689675007972689
30
0
41
1.00000000000003
10
25.0101053812659
20
0.0827013306934223
30
0
41
1.00000000000003
10
24.9583480763168
20
0.0965875139094378
30
0
41
1.00000000000003
10
24.9152154548887
20
0.108121783478108
30
0
41
1.00000000000003
10
24.8548304476125
20
0.124226162863717
30
0
41
1.00000000000003
10
24.8030739033542
20
0.13800171922065
30
0
41
1.00000000000003
10
24.7513166222705
20
0.151733274782653
30
0
41
1.00000000000003
10
24.7081840343181
20
0.163126948448673
30
0
41
1.00000000000003
10
24.6477990841932
20
0.17901398527527
30
0
41
1.00000000000003
10
24.5960425978139
20
0.19258176348074
30
0
41
1.00000000000003
10
24.5442853777243
20
0.206087320431259
30
0
41
1.00000000000003
10
24.5011528370929
20
0.21728082950579
30
0
41
1.00000000000003
10
24.4407679376711
20
0.232867026491554
30
0
41
1.00000000000003
10
24.3890114742285
20
0.246155489722234
30
0
41
1.00000000000003
10
24.3372542552426
20
0.259363941813908
30
0
41
1.00000000000003
10
24.2941217004285
20
0.270298473056406
30
0
41
1.00000000000003
10
24.2337367593383
20
0.28550214975896
30
0
41
1.00000000000003
10
24.1819802440108
20
0.298441878109903
30
0
41
1.00000000000003
10
24.1302229682286
20
0.311284386162489
30
0
41
1.00000000000003
10
24.0870903704049
20
0.32190304804782
30
0
41
1.00000000000003
10
24.0267053863246
20
0.336645271454547
30
0
41
1.00000000000003
10
23.9749488552739
20
0.349169261906401
30
0
41
1.00000000000003
10
23.9231915848931
20
0.361579460005618
30
0
41
1.00000000000003
10
23.880059005351
20
0.371827466513895
30
0
41
1.00000000000003
10
23.8196740652908
20
0.386032212268151
30
0
41
1.00000000000003
10
23.7679175843061
20
0.398075777355376
30
0
41
1.00000000000003
10
23.7161603654865
20
0.40998931609157
30
0
41
1.00000000000003
10
23.6730278222234
20
0.419813340426389
30
0
41
1.00000000000003
10
23.6126429123074
20
0.433406445378112
30
0
41
1.00000000000003
10
23.5608864336369
20
0.444906551636038
30
0
41
1.00000000000003
10
23.5091291954238
20
0.456261090344711
30
0
41
1.00000000000003
10
23.4659966238308
20
0.465609756127279
30
0
41
1.00000000000003
10
23.4056116612729
20
0.478520178297245
30
0
41
1.00000000000003
10
23.353855131474
20
0.48941676582514
30
0
41
1.00000000000003
10
23.3020978466668
20
0.500153031842259
30
0
41
1.00000000000003
10
23.2589652460645
20
0.508977551745246
30
0
41
1.00000000000003
10
23.1985802662201
20
0.521137931335501
30
0
41
1.00000000000003
10
23.1468237456776
20
0.531374152265284
30
0
41
1.00000000000003
10
23.095066489518
20
0.541436123521789
30
0
41
1.00000000000003
10
23.0519339211705
20
0.54969044728166
30
0
41
1.00000000000003
10
22.9915489917739
20
0.561037285946651
30
0
41
1.00000000000003
10
22.9397925137646
20
0.570559602949527
30
0
41
1.00000000000003
10
22.8880352916092
20
0.579894532512622
30
0
41
1.00000000000003
10
22.8449027410684
20
0.587535300323861
30
0
41
1.00000000000003
10
22.7845178144553
20
0.598008839334436
30
0
41
1.00000000000003
10
22.7327613168352
20
0.606766951341324
30
0
41
1.00000000000003
10
22.6810040585508
20
0.615325422301434
30
0
41
1.00000000000003
10
22.637871471782
20
0.622312115939318
30
0
41
1.00000000000003
10
22.5774864945896
20
0.631856675990671
30
0
41
1.00000000000003
10
22.5257299611595
20
0.639803869027285
30
0
41
1.00000000000003
10
22.4739726822915
20
0.647540097514375
30
0
41
1.00000000000003
10
22.4308400936427
20
0.653835252681697
30
0
41
1.00000000000003
10
22.3704551428347
20
0.66239947426329
30
0
41
1.00000000000003
10
22.3186986588751
20
0.669492772683449
30
0
41
1.00000000000003
10
22.2669414469306
20
0.676364723028493
30
0
41
1.00000000000003
10
22.223808920061
20
0.681934001185149
30
0
41
1.00000000000003
10
22.1634240544055
20
0.689471355649723
30
0
41
1.00000000000003
10
22.1116676336163
20
0.695672891201874
30
0
41
1.00000000000003
10
22.0599104665406
20
0.701644979488755
30
0
41
1.00000000000003
10
22.0167779600695
20
0.706460367446262
30
0
41
1.00000000000003
10
21.9563930923387
20
0.712934073017131
30
0
41
1.00000000000003
10
21.9046366423142
20
0.718214352804388
30
0
41
1.00000000000003
10
21.8528794294045
20
0.723258258248655
30
0
41
1.00000000000003
10
21.8097468805902
20
0.727296857959323
30
0
41
1.00000000000003
10
21.7493619569894
20
0.73267598533912
30
0
41
1.00000000000003
10
21.697605468318
20
0.737009607044405
30
0
41
1.00000000000003
10
21.6458482316193
20
0.74110091996605
30
0
41
1.00000000000003
10
21.6027156753318
20
0.744343100487902
30
0
41
1.00000000000003
10
21.5423307607039
20
0.748601307825402
30
0
41
1.00000000000003
10
21.4905742948365
20
0.751966803924836
30
0
41
1.00000000000003
10
21.4388170868743
20
0.755085028579322
30
0
41
1.00000000000003
10
21.3956845526605
20
0.757514397332761
30
0
41
1.00000000000003
10
21.3352996611298
20
0.760629960740834
30
0
41
1.00000000000003
10
21.2835432074517
20
0.763010048853465
30
0
41
1.00000000000003
10
21.2317860069804
20
0.765139210538058
30
0
41
1.00000000000003
10
21.1886534633739
20
0.766743380387231
30
0
41
1.00000000000003
10
21.1282685008306
20
0.76870039472775
30
0
41
1.00000000000003
10
21.076511909713
20
0.770082752245747
30
0
41
1.00000000000003
10
21.024754488011
20
0.771211496788288
30
0
41
1.00000000000003
10
20.9816217319829
20
0.771981622082569
30
0
41
1.00000000000003
10
20.9212365150401
20
0.772768771325138
30
0
41
1.00000000000003
10
20.869479817828
20
0.773144871842737
30
0
41
1.00000000000003
10
20.8177224646287
20
0.773265828877873
30
0
41
1.00000000000003
10
20.7745898830552
20
0.773196604947889
30
0
41
1.00000000000003
10
20.714205027961
20
0.772807723183041
30
0
41
1.00000000000003
10
20.6624486703054
20
0.772173354525511
30
0
41
1.00000000000003
10
20.6106915645425
20
0.77128299390481
30
0
41
1.00000000000003
10
20.5675590874898
20
0.770371900157704
30
0
41
1.00000000000003
10
20.5071742251873
20
0.768804901512857
30
0
41
1.00000000000003
10
20.4554177604046
20
0.767160616801197
30
0
41
1.00000000000003
10
20.4036605387421
20
0.765262490559342
30
0
41
1.00000000000003
10
20.3605279823086
20
0.763514620623374
30
0
41
1.00000000000003
10
20.3022998790174
20
0.760879058142455
30
0
41
1.00000000000003
10
20.250543048307
20
0.75825012786658
30
0
41
1.00000000000003
10
20.2052557880533
20
0.755734422222878
30
0
41
1.00000000000003
10
20.1599658018718
20
0.753068823246286
30
0
41
1.00000000000003
10
20.0909514031616
20
0.74867387496102
30
0
41
1.00000000000003
10
19.9723309575739
20
0.740167493478061
30
0
41
1.00000000000003
10
19.8688220864177
20
0.731480638820989
30
0
41
1.00000000000003
10
19.7825665254397
20
0.723451899608171
30
0
41
1.00000000000003
10
19.7394341190915
20
0.719270085247934
30
0
41
1.00000000000003
10
19.6790492757015
20
0.713144359291938
30
0
41
1.00000000000003
10
19.6272927913752
20
0.707608801331197
30
0
41
1.00000000000003
10
19.5755355374533
20
0.701838743533053
30
0
41
1.00000000000003
10
19.538470182938
20
0.697579881775802
30
0
41
1.00000000000003
10
19.5100316896918
20
0.69421078149464
30
0
41
1.00000000000003
10
19.4988460958073
20
0.692869996415944
30
0
0
SPLINE
5
C9
100
AcDbEntity
8
1
62
256
6
ByLayer
370
13
48
1
60
0
100
AcDbSpline
70
4
71
3
72
8
73
4
40
0
40
0
40
0
40
0
40
1
40
1
40
1
40
1
41
1
10
6.06331109298824
20
1.04266608492765
30
0
41
1
10
6.17032487343863
20
0.989692871016302
30
0
41
1
10
6.28130358017458
20
0.948210041895919
30
0
41
1
10
6.39487093762239
20
0.915268928478298
30
0
0
SPLINE
5
CA
100
AcDbEntity
8
1
62
256
6
ByLayer
370
18
48
1
60
0
100
AcDbSpline
70
4
71
3
72
8
73
4
40
0
40
0
40
0
40
0
40
1
40
1
40
1
40
1
41
1
10
29.9996451217253
20
0.0625745975280267
30
0
41
1
10
29.9653749986961
20
0.150666334783637
30
0
41
1
10
29.9320326598122
20
0.239700866725229
30
0
41
1
10
29.8995021117425
20
0.329695925764582
30
0
0
SPLINE
5
CB
100
AcDbEntity
8
1
62
256
6
ByLayer
370
18
48
1
60
0
100
AcDbSpline
70
4
71
3
72
8
73
4
40
0
40
0
40
0
40
0
40
1
40
1
40
1
40
1
41
1
10
29.729184061803
20
0.772901205893248
30
0
41
1
10
29.7621258877246
20
0.679784639289721
30
0
41
1
10
29.7975655494062
20
0.591293369873512
30
0
41
1
10
29.8356742826905
20
0.506657211096154
30
0
0
SPLINE
5
CC
100
AcDbEntity
8
1
62
256
6
ByLayer
370
18
48
1
60
0
100
AcDbSpline
70
4
71
3
72
8
73
4
40
0
40
0
40
0
40
0
40
1
40
1
40
1
40
1
41
1
10
29.4132241718793
20
-1.58167221987628
30
0
41
1
10
29.3991141277195
20
-1.56577740236406
30
0
41
1
10
29.3879508266419
20
-1.53926473837831
30
0
41
1
10
29.3795586671787
20
-1.50252275937081
30
0
0
SPLINE
5
CD
100
AcDbEntity
8
1
62
256
6
ByLayer
370
18
48
1
60
0
100
AcDbSpline
70
4
71
3
72
8
73
4
40
0
40
0
40
0
40
0
40
1
40
1
40
1
40
1
41
1
10
29.7090140213201
20
-0.351369217555543
30
0
41
1
10
29.7125495956611
20
-0.352399909971695
30
0
41
1
10
29.7161492008097
20
-0.353224710839385
30
0
41
1
10
29.7198147900937
20
-0.353837339218387
30
0
0
SPLINE
5
CE
100
AcDbEntity
8
1
62
256
6
ByLayer
370
18
48
1
60
0
100
AcDbSpline
70
4
71
3
72
12
73
8
40
0
40
0
40
0
40
0
40
0.371746743224931
40
0.371746743224931
40
0.743493486449862
40
0.743493486449862
40
1
40
1
40
1
40
1
41
1
10
6.06584451142766
20
-1.42043829101252
30
0
41
1
10
6.06577702309374
20
-1.45422395271868
30
0
41
1
10
6.06570280020139
20
-1.48176358099724
30
0
41
1
10
6.06554683806243
20
-1.52465570143616
30
0
41
1
10
6.06546470123394
20
-1.54004750889212
30
0
41
1
10
6.06532219993176
20
-1.55509560935346
30
0
41
1
10
6.0652639193039
20
-1.55816531538278
30
0
41
1
10
6.06520484288842
20
-1.55815607181984
30
0
0
SPLINE
5
CF
100
AcDbEntity
8
1
62
256
6
ByLayer
370
18
48
1
60
0
100
AcDbSpline
70
4
71
3
72
8
73
4
40
0
40
0
40
0
40
0
40
1
40
1
40
1
40
1
41
1
10
29.3197594475694
20
0.253730015238233
30
0
41
1
10
29.3754868936876
20
0.215282649072833
30
0
41
1
10
29.431614362188
20
0.178478049749771
30
0
41
1
10
29.4881823630088
20
0.143482578917457
30
0
0
SPLINE
5
D0
100
AcDbEntity
8
1
62
256
6
ByLayer
370
18
48
1
60
0
100
AcDbSpline
70
4
71
3
72
14
73
10
40
0
40
0
40
0
40
0
40
0.246756713663414
40
0.246756713663414
40
0.623378356831707
40
0.623378356831707
40
0.811689178415854
40
0.811689178415854
40
1
40
1
40
1
40
1
41
1
10
6.06520493860688
20
1.55815608410248
30
0
41
1
10
6.06509274960285
20
1.55814484579574
30
0
41
1
10
6.06497769195386
20
1.54702941028111
30
0
41
1
10
6.06466772789855
20
1.49081424143873
30
0
41
1
10
6.06447106222743
20
1.43245405304171
30
0
41
1
10
6.06410099971939
20
1.30924056761154
30
0
41
1
10
6.06396559108882
20
1.26242468653439
30
0
41
1
10
6.06366509930876
20
1.15977970072421
30
0
41
1
10
6.06349919951748
20
1.10366447022406
30
0
41
1
10
6.06331109298731
20
1.0426660849275
30
0
0
SPLINE
5
D1
100
AcDbEntity
8
1
62
256
6
ByLayer
370
18
48
1
60
0
100
AcDbSpline
70
4
71
3
72
14
73
10
40
0
40
0
40
0
40
0
40
0.25
40
0.25
40
0.5
40
0.5
40
0.75
40
0.75
40
1
40
1
40
1
40
1
41
1
10
29.7090140213201
20
-0.351369217555572
30
0
41
1
10
29.679605645683
20
-0.339653409610321
30
0
41
1
10
29.6531185197528
20
-0.317050603600876
30
0
41
1
10
29.6046996465539
20
-0.254867874374725
30
0
41
1
10
29.5837296515961
20
-0.216417703897491
30
0
41
1
10
29.5471336826789
20
-0.12863125023685
30
0
41
1
10
29.5314089368633
20
-0.0786565629448148
30
0
41
1
10
29.5057906941337
20
0.0274181247705769
30
0
41
1
10
29.4957095388616
20
0.0838577214174734
30
0
41
1
10
29.4881823630088
20
0.143482578917457
30
0
0
SPLINE
5
D2
100
AcDbEntity
8
1
62
256
6
ByLayer
370
18
48
1
60
0
100
AcDbSpline
70
4
71
3
72
22
73
18
40
0
40
0
40
0
40
0
40
0.176772516694573
40
0.176772516694573
40
0.265158775041864
40
0.265158775041864
40
0.353545033389154
40
0.353545033389154
40
0.441931291736445
40
0.441931291736445
40
0.530317550083735
40
0.530317550083735
40
0.707090066778324
40
0.707090066778324
40
0.883862583472913
40
0.883862583472913
40
1
40
1
40
1
40
1
41
1
10
29.3197594475694
20
0.253730015238233
30
0
41
1
10
29.0828763403474
20
0.379451067017101
30
0
41
1
10
28.846603667779
20
0.501938314366186
30
0
41
1
10
28.4907549782266
20
0.677190017556882
30
0
41
1
10
28.3717449902428
20
0.734276342881117
30
0
41
1
10
28.1343688121045
20
0.843788084316685
30
0
41
1
10
28.0159218963686
20
0.896328410031089
30
0
41
1
10
27.7789140947556
20
0.996512482699359
30
0
41
1
10
27.6603545072656
20
1.04424817361678
30
0
41
1
10
27.4228776186191
20
1.1343058140738
30
0
41
1
10
27.3039133827487
20
1.1763725992443
30
0
41
1
10
26.947991583999
20
1.29272648304263
30
0
41
1
10
26.7112484546088
20
1.35837890642034
30
0
41
1
10
26.2357261307114
20
1.460045810563
30
0
41
1
10
25.9987305289452
20
1.49620348417673
30
0
41
1
10
25.6056412687537
20
1.5281328512209
30
0
41
1
10
25.4493836291952
20
1.53450701981271
30
0
41
1
10
25.2932512486615
20
1.5344138878952
30
0
0
SPLINE
5
D3
100
AcDbEntity
8
1
62
256
6
ByLayer
370
18
48
1
60
0
100
AcDbSpline
70
4
71
3
72
64
73
60
40
0
40
0
40
0
40
0
40
0.0219006759798087
40
0.0219006759798087
40
0.0536447295578161
40
0.0536447295578161
40
0.0853887831358235
40
0.0853887831358235
40
0.117132836713831
40
0.117132836713831
40
0.148876890291838
40
0.148876890291838
40
0.180620943869846
40
0.180620943869846
40
0.212364997447853
40
0.212364997447853
40
0.24410905102586
40
0.24410905102586
40
0.275853104603868
40
0.275853104603868
40
0.307597158181875
40
0.307597158181875
40
0.339341211759883
40
0.339341211759883
40
0.37108526533789
40
0.37108526533789
40
0.402829318915897
40
0.402829318915897
40
0.434573372493904
40
0.434573372493904
40
0.466317426071912
40
0.466317426071912
40
0.498061479649919
40
0.498061479649919
40
0.529805533227927
40
0.529805533227927
40
0.561549586805934
40
0.561549586805934
40
0.593293640383942
40
0.593293640383942
40
0.625037693961949
40
0.625037693961949
40
0.656781747539956
40
0.656781747539956
40
0.688525801117964
40
0.688525801117964
40
0.720269854695971
40
0.720269854695971
40
0.752013908273979
40
0.752013908273979
40
0.783757961851986
40
0.783757961851986
40
0.815502015429993
40
0.815502015429993
40
0.878990122586008
40
0.878990122586008
40
0.942478229742022
40
0.942478229742022
40
1
40
1
40
1
40
1
41
1
10
18.5202244053824
20
-1.08754988249166
30
0
41
1
10
18.4380552406342
20
-1.11803557738514
30
0
41
1
10
18.355859394366
20
-1.14715240037364
30
0
41
1
10
18.15487048133
20
-1.21495754620813
30
0
41
1
10
18.0359475815788
20
-1.25228919898913
30
0
41
1
10
17.7981692436963
20
-1.31963540967831
30
0
41
1
10
17.6792107783475
20
-1.34954522309172
30
0
41
1
10
17.4409182046132
20
-1.40340909919465
30
0
41
1
10
17.3216759322285
20
-1.42709128848674
30
0
41
1
10
17.0839041387809
20
-1.46598281441754
30
0
41
1
10
16.9651171825265
20
-1.48112081056212
30
0
41
1
10
16.7272514361802
20
-1.50475738711668
30
0
41
1
10
16.6081498860536
20
-1.51328821615732
30
0
41
1
10
16.3697520657807
20
-1.5213411732567
30
0
41
1
10
16.2508516239172
20
-1.52084110899989
30
0
41
1
10
16.0130842505708
20
-1.51309789899702
30
0
41
1
10
15.8941975005675
20
-1.50588255176561
30
0
41
1
10
15.6562435024378
20
-1.48264053489066
30
0
41
1
10
15.5369321397954
20
-1.46654456471037
30
0
41
1
10
15.2985903150268
20
-1.4279418596879
30
0
41
1
10
15.1796305351379
20
-1.4054598012882
30
0
41
1
10
14.9417510669237
20
-1.35230174099792
30
0
41
1
10
14.822804387101
20
-1.32162191466986
30
0
41
1
10
14.5845377792672
20
-1.2544434622105
30
0
41
1
10
14.4650718421296
20
-1.21817660617569
30
0
41
1
10
14.2269211334672
20
-1.13895291986393
30
0
41
1
10
14.1081288614813
20
-1.09512346710386
30
0
41
1
10
13.8702238456593
20
-1.00381357604513
30
0
41
1
10
13.7512406688906
20
-0.955931610036714
30
0
41
1
10
13.5128533158546
20
-0.855098380245153
30
0
41
1
10
13.3936282792714
20
-0.801539057499184
30
0
41
1
10
13.1557050884584
20
-0.691481991396245
30
0
41
1
10
13.0367959478379
20
-0.634941276806501
30
0
41
1
10
12.7988319979959
20
-0.518839137754412
30
0
41
1
10
12.6798100440974
20
-0.458817144048027
30
0
41
1
10
12.4411318478935
20
-0.336906951726121
30
0
41
1
10
12.3219850422334
20
-0.275273950462093
30
0
41
1
10
12.0840203074463
20
-0.150675549070485
30
0
41
1
10
11.9650498923194
20
-0.0879371934682354
30
0
41
1
10
11.7268679469272
20
0.0378018914301776
30
0
41
1
10
11.6075084794383
20
0.100878654720361
30
0
41
1
10
11.3689268709844
20
0.225908863477457
30
0
41
1
10
11.2500511679577
20
0.288115390933257
30
0
41
1
10
11.0119742511098
20
0.409842414883201
30
0
41
1
10
10.892956925682
20
0.469904049032493
30
0
41
1
10
10.6546857513405
20
0.587652930358018
30
0
41
1
10
10.5352491917337
20
0.645280878373995
30
0
41
1
10
10.2970044158966
20
0.756199539992309
30
0
41
1
10
10.1779045033663
20
0.809779988533592
30
0
41
1
10
9.93983581950823
20
0.912586509666284
30
0
41
1
10
9.82078036102908
20
0.961572640505892
30
0
41
1
10
9.58234647776172
20
1.05478033040501
30
0
41
1
10
9.46279739914922
20
1.09879240544589
30
0
41
1
10
9.10542623034075
20
1.22171137540153
30
0
41
1
10
8.86770302534813
20
1.29111614095422
30
0
41
1
10
8.39007435295187
20
1.40317385333756
30
0
41
1
10
8.15217707142719
20
1.44420120897283
30
0
41
1
10
7.69830035986737
20
1.49475864060193
30
0
41
1
10
7.48173760509712
20
1.50571520600627
30
0
41
1
10
7.26579902690421
20
1.50417163253374
30
0
0
SPLINE
5
D4
100
AcDbEntity
8
1
62
256
6
ByLayer
370
18
48
1
60
0
100
AcDbSpline
70
4
71
4
72
10
73
5
40
0
40
0
40
0
40
0
40
0
40
1
40
1
40
1
40
1
40
1
41
1
10
7.62867378269999
20
-0.156436276430128
30
0
41
1
10
7.62278356837518
20
-0.153203578453542
30
0
41
1
10
7.61689335405038
20
-0.149970880476957
30
0
41
1
10
7.61100313972557
20
-0.146738182500371
30
0
41
1
10
7.60511292540076
20
-0.143505484523786
30
0
0
SPLINE
5
D5
100
AcDbEntity
8
1
62
256
6
ByLayer
370
18
48
1
60
0
100
AcDbSpline
70
4
71
3
72
8
73
4
40
0
40
0
40
0
40
0
40
1
40
1
40
1
40
1
41
1
10
29.7656291611402
20
0.467304239336897
30
0
41
1
10
29.789802220405
20
0.478469328628165
30
0
41
1
10
29.8136528309892
20
0.491332923893424
30
0
41
1
10
29.8356742826876
20
0.506657211102834
30
0
0
SPLINE
5
D6
100
AcDbEntity
8
1
62
256
6
ByLayer
370
13
48
1
60
0
100
AcDbSpline
70
4
71
3
72
14
73
10
40
0
40
0
40
0
40
0
40
0.364764273289726
40
0.364764273289726
40
0.729528546579452
40
0.729528546579452
40
0.911910683224315
40
0.911910683224315
40
1
40
1
40
1
40
1
41
1
10
6.39487093762239
20
0.91526892847827
30
0
41
1
10
6.39463033522733
20
1.03880908080291
30
0
41
1
10
6.39445356725867
20
1.14497980126026
30
0
41
1
10
6.39416775479401
20
1.32267537395379
30
0
41
1
10
6.3940649338895
20
1.3899584674094
30
0
41
1
10
6.39392115292043
20
1.45857933613607
30
0
41
1
10
6.39387539648624
20
1.47573870988464
30
0
41
1
10
6.39380737785163
20
1.49224531671774
30
0
41
1
10
6.39378511742672
20
1.49625935217674
30
0
41
1
10
6.39376245544548
20
1.49890275079679
30
0
0
SPLINE
5
D7
100
AcDbEntity
8
1
62
256
6
ByLayer
370
18
48
1
60
0
100
AcDbSpline
70
4
71
3
72
20
73
16
40
0
40
0
40
0
40
0
40
0.161970163725306
40
0.161970163725306
40
0.323940327450612
40
0.323940327450612
40
0.485910491175918
40
0.485910491175918
40
0.647880654901224
40
0.647880654901224
40
0.80985081862653
40
0.80985081862653
40
0.971820982351836
40
0.971820982351836
40
1
40
1
40
1
40
1
41
1
10
7.62867378270016
20
-0.156436276430185
30
0
41
1
10
7.85664820234669
20
-0.280360928348159
30
0
41
1
10
8.083812189225
20
-0.401755371616304
30
0
41
1
10
8.53854468684892
20
-0.635933456332566
30
0
41
1
10
8.76676357887087
20
-0.748534870514078
30
0
41
1
10
9.2214158085813
20
-0.956772088045966
30
0
41
1
10
9.44865472398556
20
-1.05297770317736
30
0
41
1
10
9.90436890077922
20
-1.22416717319265
30
0
41
1
10
10.1312259762868
20
-1.29867683849838
30
0
41
1
10
10.5858302708395
20
-1.42241469022682
30
0
41
1
10
10.8138928049767
20
-1.47148857371286
30
0
41
1
10
11.268221515082
20
-1.54081383017944
30
0
41
1
10
11.4956327245915
20
-1.56129829109386
30
0
41
1
10
11.7628830692383
20
-1.56785561075222
30
0
41
1
10
11.8024523510623
20
-1.56837707204934
30
0
41
1
10
11.8419969153238
20
-1.56844985560446
30
0
0
SPLINE
5
D8
100
AcDbEntity
8
1
62
256
6
ByLayer
370
18
48
1
60
0
100
AcDbSpline
70
4
71
3
72
44
73
40
40
0
40
0
40
0
40
0
40
0.0013730670509656
40
0.0013730670509656
40
0.0637872503602799
40
0.0637872503602799
40
0.126201433669594
40
0.126201433669594
40
0.188615616978909
40
0.188615616978909
40
0.251029800288223
40
0.251029800288223
40
0.313443983597537
40
0.313443983597537
40
0.375858166906851
40
0.375858166906851
40
0.438272350216166
40
0.438272350216166
40
0.50068653352548
40
0.50068653352548
40
0.563100716834795
40
0.563100716834795
40
0.625514900144109
40
0.625514900144109
40
0.656721991798766
40
0.656721991798766
40
0.687929083453424
40
0.687929083453424
40
0.75034326676274
40
0.75034326676274
40
0.812757450072055
40
0.812757450072055
40
0.875171633381371
40
0.875171633381371
40
0.906378725036029
40
0.906378725036029
40
0.937585816690687
40
0.937585816690687
40
1
40
1
40
1
40
1
41
1
10
18.5222086229097
20
1.08903604944339
30
0
41
1
10
18.5272086625035
20
1.09104286675856
30
0
41
1
10
18.532209142231
20
1.09304496849831
30
0
41
1
10
18.7645327521795
20
1.18583453431984
30
0
41
1
10
18.9912273689656
20
1.26573561848843
30
0
41
1
10
19.4445464720654
20
1.40115147155478
30
0
41
1
10
19.6721924509871
20
1.45639235566117
30
0
41
1
10
20.1254532501965
20
1.53841075526955
30
0
41
1
10
20.3520233396006
20
1.56530962526074
30
0
41
1
10
20.8064824416983
20
1.58940995984858
30
0
41
1
10
21.0326643665684
20
1.58653358141933
30
0
41
1
10
21.4861042427455
20
1.55126345323765
30
0
41
1
10
21.7134941303852
20
1.51870764068815
30
0
41
1
10
22.1663895942201
20
1.42593212801509
30
0
41
1
10
22.393235100252
20
1.36561870008526
30
0
41
1
10
22.8470208399109
20
1.2202847664027
30
0
41
1
10
23.0730510166569
20
1.13567209601047
30
0
41
1
10
23.5264565889268
20
0.946370161976972
30
0
41
1
10
23.7535323521308
20
0.841542844048547
30
0
41
1
10
24.2062474446973
20
0.618766731087902
30
0
41
1
10
24.4332636662671
20
0.500125961662746
30
0
41
1
10
24.8864594763786
20
0.255683994802837
30
0
41
1
10
25.112396648762
20
0.130296931986948
30
0
41
1
10
25.4524602612967
20
-0.0586782984571812
30
0
41
1
10
25.5659305200523
20
-0.122048261748603
30
0
41
1
10
25.7925227088963
20
-0.247009940301325
30
0
41
1
10
25.9056167123967
20
-0.309077038653612
30
0
41
1
10
26.2450244206469
20
-0.492733449896207
30
0
41
1
10
26.4721010421984
20
-0.612262876911899
30
0
41
1
10
26.9247850133801
20
-0.837241496095061
30
0
41
1
10
27.1504709028214
20
-0.942898649415497
30
0
41
1
10
27.6042745787152
20
-1.13491930586403
30
0
41
1
10
27.8302867128283
20
-1.22122436306893
30
0
41
1
10
28.1691515243749
20
-1.33243488754147
30
0
41
1
10
28.282304633841
20
-1.36636224359913
30
0
41
1
10
28.5088024556546
20
-1.42808842679011
30
0
41
1
10
28.6222903568301
20
-1.45570411319298
30
0
41
1
10
28.9615875425428
20
-1.52793557403595
30
0
41
1
10
29.1870474054424
20
-1.56215493399085
30
0
41
1
10
29.4132241718792
20
-1.58167221987628
30
0
0
SPLINE
5
D9
100
AcDbEntity
8
1
62
256
6
ByLayer
370
13
48
1
60
0
100
AcDbSpline
70
4
71
3
72
112
73
108
40
0
40
0
40
0
40
0
40
0.0147980076760983
40
0.0194276576348323
40
0.0286869575523004
40
0.0379462574697675
40
0.0518352073459674
40
0.0564648573047018
40
0.0657241572221677
40
0.0749834571396353
40
0.088872407015836
40
0.0935020569745709
40
0.102761356892041
40
0.112020656809505
40
0.125909606685705
40
0.13053925664444
40
0.139798556561907
40
0.149057856479374
40
0.162946806355575
40
0.16757645631431
40
0.176835756231777
40
0.186095056149244
40
0.199984006025446
40
0.204613655984179
40
0.213872955901645
40
0.223132255819113
40
0.237021205695313
40
0.241650855654049
40
0.250910155571517
40
0.260169455488982
40
0.274058405365184
40
0.278688055323918
40
0.287947355241385
40
0.297206655158852
40
0.311095605035054
40
0.315725254993787
40
0.324984554911254
40
0.334243854828721
40
0.348132804704924
40
0.352762454663656
40
0.362021754581124
40
0.371281054498591
40
0.385170004374792
40
0.389799654333526
40
0.399058954250993
40
0.408318254168459
40
0.422207204044662
40
0.426836854003395
40
0.436096153920863
40
0.445355453838329
40
0.45924440371453
40
0.463874053673264
40
0.473133353590732
40
0.482392653508198
40
0.4962816033844
40
0.500911253343134
40
0.510170553260601
40
0.519429853178068
40
0.53331880305427
40
0.537948453013003
40
0.54720775293047
40
0.556467052847938
40
0.570356002724139
40
0.574985652682872
40
0.58424495260034
40
0.593504252517807
40
0.607393202394008
40
0.612022852352741
40
0.621282152270209
40
0.630541452187677
40
0.644430402063877
40
0.649060052022611
40
0.658319351940078
40
0.667578651857546
40
0.681467601733746
40
0.68609725169248
40
0.695356551609948
40
0.704615851527415
40
0.718504801403616
40
0.72313445136235
40
0.732393751279817
40
0.741653051197284
40
0.755542001073485
40
0.760171651032219
40
0.769430950949687
40
0.778690250867155
40
0.792579200743355
40
0.797208850702088
40
0.806468150619555
40
0.815727450537023
40
0.829616400413223
40
0.834246050371958
40
0.843505350289424
40
0.852764650206892
40
0.866653600083095
40
0.871283250041827
40
0.880542549959293
40
0.889801849876761
40
0.902533387263279
40
0.908320449711696
40
0.914107512160115
40
0.926839049546632
40
0.945357649381566
40
0.977765199092702
40
0.982394849051435
40
0.991654148968903
40
1
40
1
40
1
40
1
41
1
10
17.5981606029519
20
-0.696806608809027
30
0
41
1
10
17.5705864139195
20
-0.700035681402369
30
0
41
1
10
17.5343846367693
20
-0.704152450976665
30
0
41
1
10
17.4809283699259
20
-0.709990462551843
30
0
41
1
10
17.4377977666237
20
-0.714541395536088
30
0
41
1
10
17.3774144275316
20
-0.720639054071682
30
0
41
1
10
17.3256553572895
20
-0.725581443216754
30
0
41
1
10
17.2738970824028
20
-0.730292214446166
30
0
41
1
10
17.2307667260784
20
-0.734062241130744
30
0
41
1
10
17.1703835717523
20
-0.739058760339987
30
0
41
1
10
17.118624555852
20
-0.743050864760704
30
0
41
1
10
17.0668662839488
20
-0.746805016691297
30
0
41
1
10
17.0237359168913
20
-0.74977262558582
30
0
41
1
10
16.9633527347809
20
-0.75363886672082
30
0
41
1
10
16.9115936788336
20
-0.75665659962101
30
0
41
1
10
16.8598353526051
20
-0.759430829046835
30
0
41
1
10
16.816704934188
20
-0.761577159766688
30
0
41
1
10
16.7563216775577
20
-0.764287689423753
30
0
41
1
10
16.7045625604439
20
-0.766310216909659
30
0
41
1
10
16.652804182187
20
-0.768084488315594
30
0
41
1
10
16.6096737298424
20
-0.769393411124554
30
0
41
1
10
16.5492904461449
20
-0.770927549002892
30
0
41
1
10
16.4975313279848
20
-0.771940092552256
30
0
41
1
10
16.4457729677829
20
-0.772703208105924
30
0
41
1
10
16.402642536015
20
-0.773167948880854
30
0
41
1
10
16.3422592789184
20
-0.773519991200146
30
0
41
1
10
16.2905001761199
20
-0.773520662361904
30
0
41
1
10
16.2387418181177
20
-0.77327202119227
30
0
41
1
10
16.1956113778837
20
-0.772892726196545
30
0
41
1
10
16.1352280923178
20
-0.772063974907752
30
0
41
1
10
16.0834689507662
20
-0.771054962808591
30
0
41
1
10
16.0317105459316
20
-0.76979765288425
30
0
41
1
10
15.9885800687237
20
-0.768577544128192
30
0
41
1
10
15.9281967452361
20
-0.766573607874903
30
0
41
1
10
15.8764375887463
20
-0.764560797074751
30
0
41
1
10
15.8246791875137
20
-0.762301622787874
30
0
41
1
10
15.7815487247284
20
-0.760247033313419
30
0
41
1
10
15.7211654366128
20
-0.757078154138611
30
0
41
1
10
15.6694063215484
20
-0.754071982105586
30
0
41
1
10
15.617647964746
20
-0.75082311786062
30
0
41
1
10
15.5745175345012
20
-0.747945445065398
30
0
41
1
10
15.5141342764883
20
-0.743629510282631
30
0
41
1
10
15.462375169484
20
-0.739646982081211
30
0
41
1
10
15.4106168040659
20
-0.735426498535645
30
0
41
1
10
15.3674863574296
20
-0.731741499603345
30
0
41
1
10
15.3071030643829
20
-0.726301720327797
30
0
41
1
10
15.2553439176988
20
-0.721363839989067
30
0
41
1
10
15.2035855086726
20
-0.716193692903886
30
0
41
1
10
15.160455028881
20
-0.711720361825599
30
0
41
1
10
15.1000717012722
20
-0.705184474376239
30
0
41
1
10
15.0483125379738
20
-0.699316121255237
30
0
41
1
10
14.9965541244192
20
-0.693222153078722
30
0
41
1
10
14.9534236440766
20
-0.687982727632402
30
0
41
1
10
14.8930403153522
20
-0.680383308511495
30
0
41
1
10
14.8412811497937
20
-0.67361415547785
30
0
41
1
10
14.7895227312856
20
-0.666627914682465
30
0
41
1
10
14.746392241974
20
-0.660650049469865
30
0
41
1
10
14.6860088903546
20
-0.652027871848702
30
0
41
1
10
14.6342496961607
20
-0.644394603710339
30
0
41
1
10
14.5824912433145
20
-0.636553844218724
30
0
41
1
10
14.5393607270083
20
-0.629869699049777
30
0
41
1
10
14.4789773484165
20
-0.620270906360872
30
0
41
1
10
14.4272181449281
20
-0.611814136436493
30
0
41
1
10
14.3754596970235
20
-0.603160403762416
30
0
41
1
10
14.3323291977847
20
-0.595805290914427
30
0
41
1
10
14.2719458679473
20
-0.585280417906176
30
0
41
1
10
14.2201867294019
20
-0.576044502268473
30
0
41
1
10
14.1684283618151
20
-0.566623074998233
30
0
41
1
10
14.1252979337615
20
-0.558635409582024
30
0
41
1
10
14.064914699886
20
-0.547239307013825
30
0
41
1
10
14.013155633041
20
-0.537272265671874
30
0
41
1
10
13.9613973202548
20
-0.527132053875533
30
0
41
1
10
13.9182669226976
20
-0.518553262630377
30
0
41
1
10
13.8578837048204
20
-0.506344965699867
30
0
41
1
10
13.8061246283465
20
-0.495698361370415
30
0
41
1
10
13.7543662925098
20
-0.48489177442633
30
0
41
1
10
13.7112358744116
20
-0.475766173684662
30
0
41
1
10
13.6508526342021
20
-0.46280872323743
30
0
41
1
10
13.5990935475928
20
-0.451537519047832
30
0
41
1
10
13.5473352123982
20
-0.440120354638594
30
0
41
1
10
13.5042048026249
20
-0.430495068746381
30
0
41
1
10
13.4438215833994
20
-0.416855394494149
30
0
41
1
10
13.3920625188602
20
-0.405017842196116
30
0
41
1
10
13.3403042024905
20
-0.393049149935933
30
0
41
1
10
13.2971737998864
20
-0.382973989617142
30
0
41
1
10
13.2367905711986
20
-0.368722730689484
30
0
41
1
10
13.1850314802175
20
-0.356380198916469
30
0
41
1
10
13.1332731250862
20
-0.343922084392887
30
0
41
1
10
13.090142681328
20
-0.333449369583775
30
0
41
1
10
13.0297593823293
20
-0.318660617071686
30
0
41
1
10
12.9780002235765
20
-0.305877372972105
30
0
41
1
10
12.9262418012606
20
-0.292994796323512
30
0
41
1
10
12.8831113075676
20
-0.28217919681606
30
0
41
1
10
12.8227279519859
20
-0.266930281954501
30
0
41
1
10
12.7709687557865
20
-0.253773322456141
30
0
41
1
10
12.7192103001804
20
-0.240533938459208
30
0
41
1
10
12.6760797968102
20
-0.229432348858637
30
0
41
1
10
12.6178527848538
20
-0.214365090882694
30
0
41
1
10
12.5660939717631
20
-0.200905566218182
30
0
41
1
10
12.5208050547637
20
-0.189078814296067
30
0
41
1
10
12.475518870685
20
-0.177188592561748
30
0
41
1
10
12.40651244631
20
-0.158974738441486
30
0
41
1
10
12.287909617721
20
-0.127432437606473
30
0
41
1
10
12.1843872631544
20
-0.0998225623152109
30
0
41
1
10
12.0981167895488
20
-0.0767520305071514
30
0
41
1
10
12.0566881456856
20
-0.0656063506083626
30
0
41
1
10
12.0238853459928
20
-0.0567697030010663
30
0
41
1
10
12.008334739728
20
-0.0525803874737107
30
0
0
SPLINE
5
DA
100
AcDbEntity
8
1
62
256
6
ByLayer
370
18
48
1
60
0
100
AcDbSpline
70
4
71
3
72
9
73
5
40
0
40
0
40
0
40
0
40
0.111882523130249
40
1
40
1
40
1
40
1
41
1
10
12.0083347393121
20
-0.0525803873616439
30
0
41
1
10
12.0066327339965
20
-0.0521218690778937
30
0
41
1
10
11.9914202804035
20
-0.048023631744627
30
0
41
1
10
11.9762076228324
20
-0.0439254168141758
30
0
41
1
10
11.9626969593999
20
-0.0402851334222021
30
0
0
SPLINE
5
DB
100
AcDbEntity
8
1
62
256
6
ByLayer
370
18
48
1
60
0
100
AcDbSpline
70
4
71
3
72
8
73
4
40
0
40
0
40
0
40
0
40
1
40
1
40
1
40
1
41
1
10
29.8995021117425
20
0.329695925764611
30
0
41
1
10
29.8781853184884
20
0.388668374163785
30
0
41
1
10
29.856909355173
20
0.447655462000114
30
0
41
1
10
29.8356742826863
20
0.506657211105477
30
0
0
SPLINE
5
DC
100
AcDbEntity
8
1
62
256
6
ByLayer
370
18
48
1
60
0
100
AcDbSpline
70
4
71
3
72
10
73
6
40
0
40
0
40
0
40
0
40
0.5
40
0.5
40
1
40
1
40
1
40
1
41
1
10
29.3408876122816
20
-1.35653054018448
30
0
41
1
10
29.3039387589877
20
-1.28545722897309
30
0
41
1
10
29.2772212835358
20
-1.19630017430418
30
0
41
1
10
29.2460374297761
20
-0.978936025216768
30
0
41
1
10
29.2425239145336
20
-0.853506046218143
30
0
41
1
10
29.2509853204175
20
-0.719086954640886
30
0
0
SPLINE
5
DD
100
AcDbEntity
8
1
62
256
6
ByLayer
370
18
48
1
60
0
100
AcDbSpline
70
4
71
3
72
8
73
4
40
0
40
0
40
0
40
0
40
1
40
1
40
1
40
1
41
1
10
6.39335364452205
20
-1.42832031237614
30
0
41
1
10
6.42344025424717
20
-1.4332230317726
30
0
41
1
10
6.45354568386495
20
-1.43787939329081
30
0
41
1
10
6.48366959063631
20
-1.4422942561381
30
0
0
SPLINE
5
DE
100
AcDbEntity
8
1
62
256
6
ByLayer
370
18
48
1
60
0
100
AcDbSpline
70
4
71
3
72
12
73
8
40
0
40
0
40
0
40
0
40
0.500000000000008
40
0.500000000000008
40
0.750000000000004
40
0.750000000000004
40
1
40
1
40
1
40
1
41
1
10
29.4132241718793
20
1.58167221987628
30
0
41
1
10
29.4657294415683
20
1.45517470501369
30
0
41
1
10
29.5191142015199
20
1.32499241495637
30
0
41
1
10
29.5988419756527
20
1.12302828276469
30
0
41
1
10
29.6253565908338
20
1.05459062470862
30
0
41
1
10
29.6779152692727
20
0.91520609257708
30
0
41
1
10
29.7039509291029
20
0.844227631067298
30
0
41
1
10
29.729184061803
20
0.772901205893248
30
0
0
SPLINE
5
DF
100
AcDbEntity
8
1
62
256
6
ByLayer
370
18
48
1
60
0
100
AcDbSpline
70
4
71
3
72
14
73
10
40
0
40
0
40
0
40
0
40
0.25
40
0.25
40
0.5
40
0.5
40
0.75
40
0.75
40
1
40
1
40
1
40
1
41
1
10
29.3197594475694
20
0.253730015238204
30
0
41
1
10
29.3004512907673
20
0.17240496775733
30
0
41
1
10
29.2843598393152
20
0.0903521831258729
30
0
41
1
10
29.2586797754185
20
-0.0752245676759458
30
0
41
1
10
29.2490414544523
20
-0.159534613182757
30
0
41
1
10
29.2371244144441
20
-0.325833919301118
30
0
41
1
10
29.2348197505792
20
-0.407148147988863
30
0
41
1
10
29.2374118253139
20
-0.566159158730414
30
0
41
1
10
29.2423828497891
20
-0.644356745678635
30
0
41
1
10
29.250985320417
20
-0.719086954640858
30
0
0
SPLINE
5
E0
100
AcDbEntity
8
1
62
256
6
ByLayer
370
13
48
1
60
0
100
AcDbSpline
70
4
71
3
72
12
73
8
40
0
40
0
40
0
40
0
40
0.0648330382426968
40
0.0648330382426968
40
0.532416519121349
40
0.532416519121349
40
1
40
1
40
1
40
1
41
1
10
6.3937083183009
20
-1.50258747776962
30
0
41
1
10
6.39370158020685
20
-1.50272834875298
30
0
41
1
10
6.39369479004051
20
-1.50275570269008
30
0
41
1
10
6.39363854365601
20
-1.50204643706064
30
0
41
1
10
6.39358580643608
20
-1.49535612662027
30
0
41
1
10
6.39347466752798
20
-1.47043060666121
30
0
41
1
10
6.39341588303083
20
-1.45223909048644
30
0
41
1
10
6.39335364451483
20
-1.4283203123787
30
0
0
SPLINE
5
E1
100
AcDbEntity
8
1
62
256
6
ByLayer
370
13
48
1
60
0
100
AcDbSpline
70
4
71
3
72
30
73
26
40
0
40
0
40
0
40
0
40
0.10145510882219
40
0.10145510882219
40
0.20291021764438
40
0.20291021764438
40
0.405820435288765
40
0.405820435288765
40
0.456547989699862
40
0.456547989699862
40
0.50727554411096
40
0.50727554411096
40
0.608730652933152
40
0.608730652933152
40
0.710185761755345
40
0.710185761755345
40
0.760913316166441
40
0.760913316166441
40
0.811640870577537
40
0.811640870577537
40
0.913095979399727
40
0.913095979399727
40
0.963823533810822
40
0.963823533810822
40
1
40
1
40
1
40
1
41
1
10
29.3408876122816
20
-1.35653054018448
30
0
41
1
10
29.101348555886
20
-1.29458893347271
30
0
41
1
10
28.8631326207933
20
-1.21900829656377
30
0
41
1
10
28.3867895341313
20
-1.04433569656911
30
0
41
1
10
28.1485373469246
20
-0.945199928605263
30
0
41
1
10
27.4284442573328
20
-0.619449232073464
30
0
41
1
10
26.9568214996362
20
-0.371236849798805
30
0
41
1
10
26.3613907013628
20
-0.0522995369955197
30
0
41
1
10
26.242003013983
20
0.0119047578045297
30
0
41
1
10
26.0022990052324
20
0.14056905912895
30
0
41
1
10
25.8823967959829
20
0.204804340995082
30
0
41
1
10
25.5243969926417
20
0.393848147652136
30
0
41
1
10
25.2869952452501
20
0.515984413251971
30
0
41
1
10
24.8120274572626
20
0.747778688665193
30
0
41
1
10
24.574560114444
20
0.857506705777865
30
0
41
1
10
24.2152037972365
20
1.00721607838145
30
0
41
1
10
24.094855080447
20
1.05482585516944
30
0
41
1
10
23.8557077923124
20
1.14388799849047
30
0
41
1
10
23.7365802432587
20
1.18543808088364
30
0
41
1
10
23.3795161172023
20
1.29988302846746
30
0
41
1
10
23.1422450377121
20
1.36373322304166
30
0
41
1
10
22.7848519224082
20
1.43685969747895
30
0
41
1
10
22.6654282303122
20
1.45764446483446
30
0
41
1
10
22.4602315260456
20
1.48690059954461
30
0
41
1
10
22.374531054523
20
1.49713986627094
30
0
41
1
10
22.2890029686305
20
1.50529461874478
30
0
0
SPLINE
5
E2
100
AcDbEntity
8
1
62
256
6
ByLayer
370
13
48
1
60
0
100
AcDbSpline
70
4
71
3
72
30
73
26
40
0
40
0
40
0
40
0
40
0.0409047205779072
40
0.0409047205779072
40
0.097322089955677
40
0.097322089955677
40
0.322991567466756
40
0.322991567466756
40
0.379408936844526
40
0.379408936844526
40
0.435826306222296
40
0.435826306222296
40
0.548661044977836
40
0.548661044977836
40
0.605078414355605
40
0.605078414355605
40
0.661495783733375
40
0.661495783733375
40
0.774330522488917
40
0.774330522488917
40
0.88716526124446
40
0.88716526124446
40
0.94358263062223
40
0.94358263062223
40
1
40
1
40
1
40
1
41
1
10
12.764982342741
20
-1.51295159641523
30
0
41
1
10
12.6783016709472
20
-1.51270617152332
30
0
41
1
10
12.5914449950553
20
-1.51036144289998
30
0
41
1
10
12.3842971115129
20
-1.49988248058628
30
0
41
1
10
12.2635826482188
20
-1.48981073061131
30
0
41
1
10
11.6634863856142
20
-1.41994847869987
30
0
41
1
10
11.1893758404013
20
-1.30279391951174
30
0
41
1
10
10.5894351899722
20
-1.09330093739229
30
0
41
1
10
10.4686841423779
20
-1.04814148424148
30
0
41
1
10
10.2282091292113
20
-0.953197373043906
30
0
41
1
10
10.1084491500516
20
-0.903224552992469
30
0
41
1
10
9.74985837250972
20
-0.746839120725497
30
0
41
1
10
9.51150458813444
20
-0.63442717422484
30
0
41
1
10
9.15314785761089
20
-0.456881881083575
30
0
41
1
10
9.03347143864778
20
-0.396341853655684
30
0
41
1
10
8.79333619617995
20
-0.273230188555516
30
0
41
1
10
8.67257445234955
20
-0.210393266359461
30
0
41
1
10
8.3117351281976
20
-0.0213252291596291
30
0
41
1
10
8.07277485301702
20
0.104920326712744
30
0
41
1
10
7.59541235903731
20
0.352870072183947
30
0
41
1
10
7.35676203002737
20
0.474060768460873
30
0
41
1
10
6.99675615988582
20
0.647746644563426
30
0
41
1
10
6.87609260050732
20
0.704321185038765
30
0
41
1
10
6.63503516384128
20
0.8131403063596
30
0
41
1
10
6.51488037865309
20
0.865455021895997
30
0
41
1
10
6.39487093762241
20
0.915268928478298
30
0
0
SPLINE
5
E3
100
AcDbEntity
8
1
62
256
6
ByLayer
370
18
48
1
60
0
100
AcDbSpline
70
4
71
3
72
8
73
4
40
0
40
0
40
0
40
0
40
1
40
1
40
1
40
1
41
1
10
29.9996451217254
20
0.0625745975278846
30
0
41
1
10
30.0001182927539
20
0.0208581991759615
30
0
41
1
10
30.0001182927539
20
-0.02085819917599
30
0
41
1
10
29.9996451217254
20
-0.0625745975279131
30
0
0
SPLINE
5
E4
100
AcDbEntity
8
1
62
256
6
ByLayer
370
18
48
1
60
0
100
AcDbSpline
70
4
71
3
72
28
73
24
40
0
40
0
40
0
40
0
40
0.0531686011433177
40
0.0531686011433177
40
0.106337202286635
40
0.106337202286635
40
0.212674404573273
40
0.212674404573273
40
0.319011606859911
40
0.319011606859911
40
0.425348809146549
40
0.425348809146549
40
0.638023213719824
40
0.638023213719824
40
0.691191814863143
40
0.691191814863143
40
0.744360416006462
40
0.744360416006462
40
0.850697618293097
40
0.850697618293097
40
0.957034820579733
40
0.957034820579733
40
1
40
1
40
1
40
1
41
1
10
6.30617538490068
20
0.834058090236681
30
0
41
1
10
6.42774746575671
20
0.778232547696206
30
0
41
1
10
6.54914945471398
20
0.720198716475949
30
0
41
1
10
6.79213241903364
20
0.600568752790991
30
0
41
1
10
6.91387679221458
20
0.538924451321122
30
0
41
1
10
7.2768372792732
20
0.350987721846451
30
0
41
1
10
7.51686127548743
20
0.221556897625874
30
0
41
1
10
7.99627270749644
20
-0.0394817313462568
30
0
41
1
10
8.23584301722386
20
-0.170746874531801
30
0
41
1
10
8.71772970307291
20
-0.429121225415542
30
0
41
1
10
8.96158632565746
20
-0.556495282620659
30
0
41
1
10
9.68478424132852
20
-0.913435627735765
30
0
41
1
10
10.1605108585223
20
-1.11957902586258
30
0
41
1
10
10.7642319539871
20
-1.31260416961391
30
0
41
1
10
10.8858554936501
20
-1.34805943969627
30
0
41
1
10
11.1280207334417
20
-1.41121195521916
30
0
41
1
10
11.2485430930998
20
-1.43897911537167
30
0
41
1
10
11.609080880665
20
-1.51055144499773
30
0
41
1
10
11.8482606278645
20
-1.54252644995191
30
0
41
1
10
12.3272223407212
20
-1.57394085473979
30
0
41
1
10
12.5672460927984
20
-1.57333320083532
30
0
41
1
10
12.9071023021757
20
-1.54880160170421
30
0
41
1
10
13.0052220785925
20
-1.53897391802343
30
0
41
1
10
13.1029509037596
20
-1.5265344708794
30
0
0
SPLINE
5
E5
100
AcDbEntity
8
1
62
256
6
ByLayer
370
18
48
1
60
0
100
AcDbSpline
70
4
71
3
72
34
73
30
40
0
40
0
40
0
40
0
40
0.0047050260197926
40
0.0047050260197926
40
0.0951863872907226
40
0.0951863872907226
40
0.185667748561653
40
0.185667748561653
40
0.230908429197118
40
0.230908429197118
40
0.276149109832583
40
0.276149109832583
40
0.457111832374441
40
0.457111832374441
40
0.638074554916299
40
0.638074554916299
40
0.683315235551762
40
0.683315235551762
40
0.728555916187224
40
0.728555916187224
40
0.81903727745815
40
0.81903727745815
40
0.909518638729075
40
0.909518638729075
40
0.954759319364537
40
0.954759319364537
40
0.977379659682269
40
0.977379659682269
40
1
40
1
40
1
40
1
41
1
10
21.423303639847
20
1.58570225515405
30
0
41
1
10
21.4357913004585
20
1.58572310306431
30
0
41
1
10
21.4482745202515
20
1.58569883633055
30
0
41
1
10
21.7007326666296
20
1.58429733589682
30
0
41
1
10
21.9392154047239
20
1.56625849876457
30
0
41
1
10
22.4169712221824
20
1.49814086450854
30
0
41
1
10
22.6560474917097
20
1.447959899723
30
0
41
1
10
23.0179050678006
20
1.34981326733231
30
0
41
1
10
23.1391845651521
20
1.31312892187856
30
0
41
1
10
23.3800077436839
20
1.23349206421713
30
0
41
1
10
23.4999639153825
20
1.19048685892898
30
0
41
1
10
24.0984230454747
20
0.960973253924124
30
0
41
1
10
24.5727566972112
20
0.730643498835747
30
0
41
1
10
25.540611238317
20
0.21744089185583
30
0
41
1
10
26.0148602047689
20
-0.0547432477114
30
0
41
1
10
26.6125218970143
20
-0.381375911094153
30
0
41
1
10
26.7323047800428
20
-0.446041609613701
30
0
41
1
10
26.9728553084514
20
-0.573167615511863
30
0
41
1
10
27.0940263929833
20
-0.635831449587556
30
0
41
1
10
27.4555308687616
20
-0.817397487994725
30
0
41
1
10
27.6944100348237
20
-0.930007038627082
30
0
41
1
10
28.1714371381474
20
-1.13358238575674
30
0
41
1
10
28.4094268034095
20
-1.2247383961203
30
0
41
1
10
28.7686698231989
20
-1.34148934347698
30
0
41
1
10
28.8887875467983
20
-1.37709318776555
30
0
41
1
10
29.0697932063946
20
-1.42515300081629
30
0
41
1
10
29.1302876557173
20
-1.44028636926589
30
0
41
1
10
29.2510831209911
20
-1.46859156089732
30
0
41
1
10
29.3112438170877
20
-1.48190915557777
30
0
41
1
10
29.3719375669397
20
-1.49389213170679
30
0
0
SPLINE
5
E6
100
AcDbEntity
8
1
62
256
6
ByLayer
370
13
48
1
60
0
100
AcDbSpline
70
4
71
3
72
108
73
104
40
0
40
0
40
0
40
0
40
0.0017771722081413
40
0.0075245301664982
40
0.0132718881248547
40
0.0259160756332407
40
0.0443076210999817
40
0.0764928256667781
40
0.0810907120334657
40
0.0902864847668369
40
0.0994822575002055
40
0.113275916600262
40
0.117873802966949
40
0.127069575700321
40
0.136265348433692
40
0.148909535942077
40
0.154656893900433
40
0.160404251858788
40
0.173048439367177
40
0.191439984833915
40
0.223625189400714
40
0.228223075767401
40
0.23741884850077
40
0.246614621234143
40
0.260408280334199
40
0.265006166700884
40
0.274201939434257
40
0.283397712167626
40
0.29604189967601
40
0.301789257634368
40
0.307536615592725
40
0.320180803101109
40
0.338572348567851
40
0.370757553134651
40
0.375355439501335
40
0.384551212234706
40
0.393746984968077
40
0.407540644068133
40
0.412138530434819
40
0.421334303168189
40
0.430530075901561
40
0.444323735001619
40
0.448921621368303
40
0.458117394101673
40
0.467313166835045
40
0.481106825935101
40
0.485704712301787
40
0.494900485035159
40
0.504096257768531
40
0.517889916868586
40
0.522487803235271
40
0.531683575968641
40
0.540879348702012
40
0.554673007802068
40
0.559270894168754
40
0.568466666902123
40
0.577662439635496
40
0.591456098735552
40
0.596053985102238
40
0.605249757835608
40
0.614445530568981
40
0.628239189669034
40
0.632837076035721
40
0.642032848769093
40
0.651228621502463
40
0.665022280602521
40
0.669620166969205
40
0.678815939702576
40
0.688011712435946
40
0.701805371536004
40
0.706403257902689
40
0.715599030636061
40
0.724794803369431
40
0.738588462469488
40
0.743186348836173
40
0.752382121569543
40
0.761577894302914
40
0.775371553402971
40
0.779969439769656
40
0.789165212503027
40
0.798360985236398
40
0.812154644336455
40
0.81675253070314
40
0.825948303436512
40
0.835144076169882
40
0.848937735269939
40
0.853535621636624
40
0.862731394369995
40
0.871927167103366
40
0.885720826203423
40
0.890318712570108
40
0.899514485303479
40
0.908710258036849
40
0.922503917136906
40
0.927101803503591
40
0.936297576236963
40
0.945493348970333
40
0.95928700807039
40
0.963884894437075
40
0.973080667170446
40
0.982276439903817
40
0.996070099003873
40
1
40
1
40
1
40
1
41
1
10
26.6412820202272
20
-0.691834671431337
30
0
41
1
10
26.6379477266379
20
-0.692237452454208
30
0
41
1
10
26.623830355648
20
-0.693937002495005
30
0
41
1
10
26.5989299157499
20
-0.696891214407231
30
0
41
1
10
26.5536437365747
20
-0.702132905367392
30
0
41
1
10
26.4846373135499
20
-0.709805435140538
30
0
41
1
10
26.3660344746983
20
-0.72207568875487
30
0
41
1
10
26.2625121055317
20
-0.731547101247799
30
0
41
1
10
26.1762416292971
20
-0.738665871767523
30
0
41
1
10
26.1331110180574
20
-0.742052231505625
30
0
41
1
10
26.0727276305616
20
-0.746507366248295
30
0
41
1
10
26.0209684814276
20
-0.750031846132458
30
0
41
1
10
25.9692100981847
20
-0.753315272591408
30
0
41
1
10
25.9260796504531
20
-0.755888153364623
30
0
41
1
10
25.8678526921948
20
-0.75908207562
30
0
41
1
10
25.816093906344
20
-0.761635244696834
30
0
41
1
10
25.7708049981431
20
-0.763658022353411
30
0
41
1
10
25.7255188157763
20
-0.765528534178088
30
0
41
1
10
25.656512383767
20
-0.768030584362833
30
0
41
1
10
25.5379095216565
20
-0.771328521023122
30
0
41
1
10
25.434387130198
20
-0.772923325783779
30
0
41
1
10
25.3481166437935
20
-0.773446208647101
30
0
41
1
10
25.3049860300034
20
-0.773511673492692
30
0
41
1
10
25.2446026431486
20
-0.773305861551762
30
0
41
1
10
25.192843497504
20
-0.772830037019929
30
0
41
1
10
25.141085118514
20
-0.772105607347982
30
0
41
1
10
25.0979546726899
20
-0.771329794024211
30
0
41
1
10
25.0397277124277
20
-0.769998664179781
30
0
41
1
10
24.9879689203492
20
-0.768529619555466
30
0
41
1
10
24.942680003506
20
-0.767032849502982
30
0
41
1
10
24.8973938110776
20
-0.765375815945731
30
0
41
1
10
24.8283873622085
20
-0.76249849962673
30
0
41
1
10
24.709784470325
20
-0.756549609501661
30
0
41
1
10
24.606262059783
20
-0.750136449209492
30
0
41
1
10
24.519991569826
20
-0.744021729011763
30
0
41
1
10
24.4768609599629
20
-0.740761860593722
30
0
41
1
10
24.4164775952116
20
-0.735913843887744
30
0
41
1
10
24.3647184881583
20
-0.731478892256206
30
0
41
1
10
24.312960167719
20
-0.726808599377705
30
0
41
1
10
24.2698297690737
20
-0.722750138700491
30
0
41
1
10
24.2094465477812
20
-0.716790965957216
30
0
41
1
10
24.157687466122
20
-0.711412047935994
30
0
41
1
10
24.1059291218155
20
-0.705803891636748
30
0
41
1
10
24.0627986896862
20
-0.700967239861114
30
0
41
1
10
24.0024154112282
20
-0.693926892907257
30
0
41
1
10
23.9506562716751
20
-0.687631284287193
30
0
41
1
10
23.8988978663589
20
-0.681114214483017
30
0
41
1
10
23.8557673868979
20
-0.675524714233262
30
0
41
1
10
23.7953840577292
20
-0.667440525340083
30
0
41
1
10
23.7436248952385
20
-0.660261822897354
30
0
41
1
10
23.6918664888205
20
-0.652870486009903
30
0
41
1
10
23.648736023545
20
-0.646557706316855
30
0
41
1
10
23.5883527360505
20
-0.637472194600434
30
0
41
1
10
23.5365936254531
20
-0.629447920249191
30
0
41
1
10
23.4848352758433
20
-0.621220792139866
30
0
41
1
10
23.4417048535862
20
-0.614217500914634
30
0
41
1
10
23.3813216090881
20
-0.604177657916949
30
0
41
1
10
23.3295625142136
20
-0.59534914357755
30
0
41
1
10
23.2778041591983
20
-0.586328476648305
30
0
41
1
10
23.2346737186546
20
-0.578670572740577
30
0
41
1
10
23.174290430127
20
-0.567727865218387
30
0
41
1
10
23.1225312851759
20
-0.558140503002249
30
0
41
1
10
23.0707728785865
20
-0.548372946178176
30
0
41
1
10
23.0276424017551
20
-0.540100233515972
30
0
41
1
10
22.9672590830787
20
-0.528311804617431
30
0
41
1
10
22.9154999358159
20
-0.518015823614917
30
0
41
1
10
22.8637415486264
20
-0.507552540487325
30
0
41
1
10
22.8206111001309
20
-0.498708312000332
30
0
41
1
10
22.7602278341045
20
-0.486135787587244
30
0
41
1
10
22.7084687379782
20
-0.475184958697781
30
0
41
1
10
22.6567103973931
20
-0.464080570417849
30
0
41
1
10
22.613579977914
20
-0.454710983613893
30
0
41
1
10
22.5531967291782
20
-0.441419961857747
30
0
41
1
10
22.5014376237926
20
-0.429871410031581
30
0
41
1
10
22.4496792545515
20
-0.418183839963717
30
0
41
1
10
22.4065488028099
20
-0.408337774873303
30
0
41
1
10
22.3461655036172
20
-0.394397647410074
30
0
41
1
10
22.2944063556916
20
-0.382311762910348
30
0
41
1
10
22.2426479524403
20
-0.370102251664804
30
0
41
1
10
22.1995174828894
20
-0.359831384472187
30
0
41
1
10
22.1391341809155
20
-0.345315458679323
30
0
41
1
10
22.0873750526088
20
-0.332755938107198
30
0
41
1
10
22.0356166854987
20
-0.320088928428845
30
0
41
1
10
21.9924862521858
20
-0.309447518833508
30
0
41
1
10
21.9321030008027
20
-0.294432578407736
30
0
41
1
10
21.8803439083142
20
-0.281465973325936
30
0
41
1
10
21.8285855617961
20
-0.268408689393425
30
0
41
1
10
21.7854551303685
20
-0.257453277653582
30
0
41
1
10
21.7250718526023
20
-0.242019237099783
30
0
41
1
10
21.6733127106376
20
-0.228714717940278
30
0
41
1
10
21.6215542971837
20
-0.215336948648314
30
0
41
1
10
21.5784238039651
20
-0.204126177906204
30
0
41
1
10
21.5180404410303
20
-0.188355402161335
30
0
41
1
10
21.4662812358824
20
-0.174783247347165
30
0
41
1
10
21.4145227775478
20
-0.161154535250631
30
0
41
1
10
21.371392263923
20
-0.149745869852552
30
0
41
1
10
21.3110089030594
20
-0.133718129018291
30
0
41
1
10
21.2592497271496
20
-0.119946324459249
30
0
41
1
10
21.2074913146579
20
-0.106134989288137
30
0
41
1
10
21.1643608433841
20
-0.0945857702252795
30
0
41
1
10
21.1039775383985
20
-0.0783818923468687
30
0
41
1
10
21.0534716707129
20
-0.0648167891704361
30
0
41
1
10
21.0202193122276
20
-0.0558719297747814
30
0
41
1
10
21.0128462285515
20
-0.0538873037222061
30
0
0
SPLINE
5
E7
100
AcDbEntity
8
1
62
256
6
ByLayer
370
13
48
1
60
0
100
AcDbSpline
70
4
71
3
72
44
73
40
40
0
40
0
40
0
40
0
40
0.0091312000290435
40
0.0227047452341262
40
0.0498518356442888
40
0.0769989260544515
40
0.117719561669697
40
0.131293106874778
40
0.158440197284942
40
0.185587287695104
40
0.226307923310349
40
0.239881468515432
40
0.267028558925594
40
0.294175649335757
40
0.334896284951002
40
0.348469830156084
40
0.375616920566246
40
0.40276401097641
40
0.443484646591654
40
0.457058191796737
40
0.4842052822069
40
0.511352372617062
40
0.552073008232308
40
0.565646553437389
40
0.592793643847552
40
0.619940734257716
40
0.66066136987296
40
0.674234915078042
40
0.701382005488205
40
0.728529095898368
40
0.769249731513613
40
0.782823276718695
40
0.809970367128857
40
0.837117457539021
40
0.877838093154265
40
0.891411638359347
40
0.904985183564429
40
0.945705819179673
40
1
40
1
40
1
40
1
41
1
10
8.63050046286375
20
-0.693137374822129
30
0
41
1
10
8.6246972726955
20
-0.693832819031712
30
0
41
1
10
8.61026764074501
20
-0.695551641627077
30
0
41
1
10
8.57858531136043
20
-0.699268640546279
30
0
41
1
10
8.53545488182237
20
-0.704180941202338
30
0
41
1
10
8.47507162736522
20
-0.710786407786912
30
0
41
1
10
8.42331252416267
20
-0.716165089434384
30
0
41
1
10
8.3715541609601
20
-0.721313237514494
30
0
41
1
10
8.32842371342878
20
-0.725448986501988
30
0
41
1
10
8.26804041461682
20
-0.730958826621048
30
0
41
1
10
8.21628126041591
20
-0.735391830219129
30
0
41
1
10
8.16452284430309
20
-0.739588603503051
30
0
41
1
10
8.12139235940865
20
-0.742926828928034
30
0
41
1
10
8.06100902937919
20
-0.747314234767657
30
0
41
1
10
8.00924987246651
20
-0.75078067348835
30
0
41
1
10
7.95749147587259
20
-0.754006174369039
30
0
41
1
10
7.91436101978005
20
-0.756530823683079
30
0
41
1
10
7.85397774367098
20
-0.759774268404925
30
0
41
1
10
7.80221863954881
20
-0.762256660006187
30
0
41
1
10
7.75046029155215
20
-0.764494233287536
30
0
41
1
10
7.707329866349
20
-0.766192013922222
30
0
41
1
10
7.64694661063464
20
-0.768273905704007
30
0
41
1
10
7.59518750049205
20
-0.769758182907026
30
0
41
1
10
7.5434291276494
20
-0.770994599700828
30
0
41
1
10
7.50029867342235
20
-0.771855085403899
30
0
41
1
10
7.43991537143609
20
-0.772762297435492
30
0
41
1
10
7.38815622185842
20
-0.773239169136417
30
0
41
1
10
7.33639781751279
20
-0.77346730933462
30
0
41
1
10
7.29326734743236
20
-0.773486119013967
30
0
41
1
10
7.23288404546696
20
-0.773214887987137
30
0
41
1
10
7.1811249179554
20
-0.772683118464272
30
0
41
1
10
7.12936655225104
20
-0.771902833692337
30
0
41
1
10
7.08623612058639
20
-0.77108048893345
30
0
41
1
10
7.02585287198733
20
-0.769632645895229
30
0
41
1
10
6.97409378181897
20
-0.768094898753532
30
0
41
1
10
6.93096101856952
20
-0.766614689411227
30
0
41
1
10
6.88783148451242
20
-0.765000143949351
30
0
41
1
10
6.81882454433474
20
-0.762066171194846
30
0
41
1
10
6.75843667033982
20
-0.759054978395284
30
0
41
1
10
6.7239293069797
20
-0.757178109583407
30
0
0
SPLINE
5
E8
100
AcDbEntity
8
1
62
256
6
ByLayer
370
18
48
1
60
0
100
AcDbSpline
70
4
71
2
72
6
73
3
40
0
40
0
40
0
40
1
40
1
40
1
41
1
10
21.0263628627256
20
-0.0575243107454071
30
0
41
1
10
20.7710362275464
20
0.0115274668823417
30
0
41
1
10
20.5177313554713
20
0.147976850159552
30
0
0
SPLINE
5
E9
100
AcDbEntity
8
1
62
256
6
ByLayer
370
18
48
1
60
0
100
AcDbSpline
70
4
71
2
72
6
73
3
40
0
40
0
40
0
40
1
40
1
40
1
41
1
10
12.0270219273192
20
-0.057614449850206
30
0
41
1
10
11.7716112839078
20
0.0113192948546725
30
0
41
1
10
11.5181974642645
20
0.147817045952422
30
0
0
SPLINE
5
EA
100
AcDbEntity
8
1
62
256
6
ByLayer
370
18
48
1
60
0
100
AcDbSpline
70
4
71
2
72
6
73
3
40
0
40
0
40
0
40
1
40
1
40
1
41
1
10
16.1049298500726
20
0.0571860192946474
30
0
41
1
10
16.3850509971039
20
-0.0192839342449247
30
0
41
1
10
16.6509610239721
20
-0.168803197128653
30
0
0
SPLINE
5
EB
100
AcDbEntity
8
1
62
256
6
ByLayer
370
18
48
1
60
0
100
AcDbSpline
70
4
71
3
72
14
73
10
40
0
40
0
40
0
40
0
40
0.178149387394256
40
0.31153056214485
40
0.416256473197657
40
0.494544303727516
40
0.596644464127086
40
0.765128325637666
40
1
40
1
40
1
40
1
41
1
10
21.7445042478419
20
-1.52973524796675
30
0
41
1
10
21.9569689668828
20
-1.53021350672626
30
0
41
1
10
22.3285055926396
20
-1.53104774950481
30
0
41
1
10
22.8249418087624
20
-1.53131973957858
30
0
41
1
10
23.2022728609462
20
-1.53266046450952
30
0
41
1
10
23.5423030633751
20
-1.53225656729316
30
0
41
1
10
23.9583564254762
20
-1.53355788926723
30
0
41
1
10
24.5611791371582
20
-1.53531664369319
30
0
41
1
10
25.0422257322865
20
-1.53497578292442
30
0
41
1
10
25.3223383800397
20
-1.53434506215612
30
0
0
SPLINE
5
EC
100
AcDbEntity
8
1
62
256
6
ByLayer
370
18
48
1
60
0
100
AcDbSpline
70
4
71
3
72
15
73
11
40
0
40
0
40
0
40
0
40
0.197941965876229
40
0.345801816115202
40
0.443434808779236
40
0.52227805640784
40
0.601071157095704
40
0.694306130890787
40
0.827209339742293
40
1
40
1
40
1
40
1
41
1
10
12.7420533349421
20
-1.51289948678689
30
0
41
1
10
12.9781203420102
20
-1.51349692407626
30
0
41
1
10
13.3906031779796
20
-1.51472370235166
30
0
41
1
10
13.9200458399276
20
-1.5142078272259
30
0
41
1
10
14.3069815920304
20
-1.51707833616652
30
0
41
1
10
14.6115178665462
20
-1.51607798214269
30
0
41
1
10
14.9109032985615
20
-1.51766877175601
30
0
41
1
10
15.2748714324903
20
-1.51806917362185
30
0
41
1
10
15.7510431470902
20
-1.51939515041926
30
0
41
1
10
16.1158987325914
20
-1.51991678963148
30
0
41
1
10
16.322124416717
20
-1.52018198227242
30
0
0
SPLINE
5
ED
100
AcDbEntity
8
1
62
256
6
ByLayer
370
18
48
1
60
0
100
AcDbSpline
70
4
71
3
72
15
73
11
40
0
40
0
40
0
40
0
40
0.263141221112932
40
0.451902261874172
40
0.53594068464156
40
0.595531427192903
40
0.653994693413278
40
0.77132001957574
40
0.920748126622517
40
1
40
1
40
1
40
1
41
1
10
25.3224067300477
20
1.53434509777802
30
0
41
1
10
25.0422808246974
20
1.53497590277746
30
0
41
1
10
24.561211021593
20
1.53541508732181
30
0
41
1
10
23.9906786801774
20
1.53346672867039
30
0
41
1
10
23.636837003542
20
1.53280453519471
30
0
41
1
10
23.4217165201753
20
1.53226830367217
30
0
41
1
10
23.1711407602776
20
1.53263762516511
30
0
41
1
10
22.8249429859342
20
1.53128109676541
30
0
41
1
10
22.4566031475655
20
1.53112023258632
30
0
41
1
10
22.2131631023522
20
1.53071832146691
30
0
41
1
10
22.128795968666
20
1.53055814656227
30
0
0
SPLINE
5
EE
100
AcDbEntity
8
1
62
256
6
ByLayer
370
18
48
1
60
0
100
AcDbSpline
70
4
71
2
72
6
73
3
40
0
40
0
40
0
40
1
40
1
40
1
41
1
10
6.39366873043269
20
-1.50261525238633
30
0
41
1
10
6.84071727920303
20
-1.50261909579157
30
0
41
1
10
7.28775499444703
20
-1.50416977697697
30
0
0
SPLINE
5
EF
100
AcDbEntity
8
1
62
256
6
ByLayer
370
18
48
1
60
0
100
AcDbSpline
70
4
71
2
72
6
73
3
40
0
40
0
40
0
40
1
40
1
40
1
41
1
10
7.64854571532322
20
-0.165803969517356
30
0
41
1
10
7.72639195736699
20
-0.206281105370806
30
0
41
1
10
7.80344367407264
20
-0.250019221414476
30
0
0
SPLINE
5
F0
100
AcDbEntity
8
1
62
256
6
ByLayer
370
18
48
1
60
0
100
AcDbSpline
70
4
71
2
72
6
73
3
40
0
40
0
40
0
40
1
40
1
40
1
41
1
10
25.1050221664061
20
0.0571815098189745
30
0
41
1
10
25.3782804621327
20
-0.0167845354046676
30
0
41
1
10
25.6504804188811
20
-0.168678159497489
30
0
0
SPLINE
5
F1
100
AcDbEntity
8
1
62
256
6
ByLayer
370
18
48
1
60
0
100
AcDbSpline
70
4
71
3
72
14
73
10
40
0
40
0
40
0
40
0
40
0.246037226172358
40
0.413174651043715
40
0.530578018506948
40
0.618148538540254
40
0.726588713812045
40
0.890815321200159
40
1
40
1
40
1
40
1
41
1
10
16.3220557430978
20
1.52018169167405
30
0
41
1
10
16.0576662149647
20
1.51947199938147
30
0
41
1
10
15.6136716506378
20
1.51818271106541
30
0
41
1
10
15.0434651002594
20
1.51848190066079
30
0
41
1
10
14.6436200533505
20
1.51600516310896
30
0
41
1
10
14.3069816561643
20
1.51706873127159
30
0
41
1
10
13.9200454131292
20
1.51421225771307
30
0
41
1
10
13.5095672823107
20
1.51460723438973
30
0
41
1
10
13.2158564294825
20
1.51406806973881
30
0
41
1
10
13.0985865453871
20
1.51379946879709
30
0
0
SPLINE
5
F2
100
AcDbEntity
8
1
62
256
6
ByLayer
370
18
48
1
60
0
100
AcDbSpline
70
4
71
2
72
6
73
3
40
0
40
0
40
0
40
1
40
1
40
1
41
1
10
7.28784573098145
20
1.50416997434493
30
0
41
1
10
6.84076265926996
20
1.50261933515793
30
0
41
1
10
6.39366870546422
20
1.50261523544816
30
0
0
LINE
5
7B
100
AcDbEntity
8
SK1
62
256
6
ByLayer
370
18
48
1
60
0
100
AcDbLine
10
-36
20
1.25
30
0
11
-36
21
-1.25
31
0
39
0
210
0
220
0
230
1
0
LINE
5
7D
100
AcDbEntity
8
SK1
62
256
6
ByLayer
370
18
48
1
60
0
100
AcDbLine
10
-34.989637
20
3
30
0
11
-34.989637
21
-3
31
0
39
0
210
0
220
0
230
1
0
LINE
5
7E
100
AcDbEntity
8
SK1
62
256
6
ByLayer
370
18
48
1
60
0
100
AcDbLine
10
0
20
-3
30
0
11
0
21
3
31
0
39
0
210
0
220
0
230
1
0
LINE
5
7F
100
AcDbEntity
8
1
62
256
6
ByLayer
370
18
48
1
60
0
100
AcDbLine
10
29.250985
20
-0.719087
30
0
11
29.709014
21
-0.351369
31
0
39
0
210
0
220
0
230
1
0
LINE
5
80
100
AcDbEntity
8
1
62
256
6
ByLayer
370
18
48
1
60
0
100
AcDbLine
10
0
20
-3
30
0
11
0
21
3
31
0
39
0
210
0
220
0
230
1
0
LINE
5
81
100
AcDbEntity
8
1
62
256
6
ByLayer
370
13
48
1
60
0
100
AcDbLine
10
0.840746
20
2.275084
30
0
11
0.840746
21
-2.275084
31
0
39
0
210
0
220
0
230
1
0
LINE
5
82
100
AcDbEntity
8
1
62
256
6
ByLayer
370
13
48
1
60
0
100
AcDbLine
10
1.683022
20
1.55017
30
0
11
1.683022
21
-1.55017
31
0
39
0
210
0
220
0
230
1
0
LINE
5
83
100
AcDbEntity
8
80
62
256
6
ByLayer
370
18
48
1
60
0
100
AcDbLine
10
0
20
0
30
0
11
-5
21
0
31
0
39
0
210
0
220
0
230
1
0
LINE
5
84
100
AcDbEntity
8
4
62
256
6
ByLayer
370
18
48
0.05
60
0
100
AcDbLine
10
30
20
0
30
0
11
0
21
0
31
0
39
0
210
0
220
0
230
1
0
LINE
5
86
100
AcDbEntity
8
SK4
62
256
6
ByLayer
370
18
48
0.05
60
0
100
AcDbLine
10
35
20
0
30
0
11
-41
21
0
31
0
39
0
210
0
220
0
230
1
0
LINE
5
88
100
AcDbEntity
8
SK1
62
256
6
ByLayer
370
18
48
1
60
0
100
AcDbLine
10
-36
20
-1.25
30
0
11
-34.989637
21
-3
31
0
39
0
210
0
220
0
230
1
0
LINE
5
89
100
AcDbEntity
8
SK1
62
256
6
ByLayer
370
18
48
1
60
0
100
AcDbLine
10
-34.989637
20
3
30
0
11
-36
21
1.25
31
0
39
0
210
0
220
0
230
1
0
LINE
5
8A
100
AcDbEntity
8
SK1
62
256
6
ByLayer
370
18
48
1
60
0
100
AcDbLine
10
-34.989637
20
-3
30
0
11
0
21
-3
31
0
39
0
210
0
220
0
230
1
0
LINE
5
8B
100
AcDbEntity
8
SK1
62
256
6
ByLayer
370
18
48
1
60
0
100
AcDbLine
10
0
20
3
30
0
11
-34.989637
21
3
31
0
39
0
210
0
220
0
230
1
0
LINE
5
8C
100
AcDbEntity
8
1
62
256
6
ByLayer
370
18
48
1
60
0
100
AcDbLine
10
1.683022
20
-1.55017
30
0
11
6.065162
21
-1.558057
31
0
39
0
210
0
220
0
230
1
0
LINE
5
8D
100
AcDbEntity
8
1
62
256
6
ByLayer
370
18
48
1
60
0
100
AcDbLine
10
11.841159
20
-1.568454
30
0
11
12.421683
21
-1.569499
31
0
39
0
210
0
220
0
230
1
0
LINE
5
8E
100
AcDbEntity
8
1
62
256
6
ByLayer
370
18
48
1
60
0
100
AcDbLine
10
20.84431
20
-1.58466
30
0
11
21.421737
21
-1.585699
31
0
39
0
210
0
220
0
230
1
0
LINE
5
8F
100
AcDbEntity
8
1
62
256
6
ByLayer
370
18
48
1
60
0
100
AcDbLine
10
21.421737
20
1.585699
30
0
11
20.84431
21
1.58466
31
0
39
0
210
0
220
0
230
1
0
LINE
5
90
100
AcDbEntity
8
1
62
256
6
ByLayer
370
18
48
1
60
0
100
AcDbLine
10
12.421683
20
1.569499
30
0
11
11.841159
21
1.568454
31
0
39
0
210
0
220
0
230
1
0
LINE
5
91
100
AcDbEntity
8
1
62
256
6
ByLayer
370
18
48
1
60
0
100
AcDbLine
10
6.065162
20
1.558057
30
0
11
1.683022
21
1.55017
31
0
39
0
210
0
220
0
230
1
0
LINE
5
92
100
AcDbEntity
8
81
62
256
6
ByLayer
370
18
48
1
60
0
100
AcDbLine
10
30
20
0
30
0
11
35
21
0
31
0
39
0
210
0
220
0
230
1
0
LINE
5
93
100
AcDbEntity
8
SK2
62
256
6
ByLayer
370
13
48
1
60
0
100
AcDbLine
10
-44.625163
20
32.117107
30
0
11
-44.625163
21
-11.75
31
0
39
0
210
0
220
0
230
1
0
LINE
5
95
100
AcDbEntity
8
SK2
62
256
6
ByLayer
370
13
48
1
60
0
100
AcDbLine
10
-37.5875
20
3
30
0
11
-46.625163
21
3
31
0
39
0
210
0
220
0
230
1
0
LINE
5
96
100
AcDbEntity
8
SK2
62
256
6
ByLayer
370
13
48
1
60
0
100
AcDbLine
10
-37.5875
20
-3
30
0
11
-46.625163
21
-3
31
0
39
0
210
0
220
0
230
1
0
LINE
5
97
100
AcDbEntity
8
1
62
256
6
ByLayer
370
18
48
1
60
1
100
AcDbLine
10
-44.625163
20
3
30
0
11
-45.085946
21
6.499998
31
0
39
0
210
0
220
0
230
1
0
LINE
5
98
100
AcDbEntity
8
1
62
256
6
ByLayer
370
18
48
1
60
1
100
AcDbLine
10
-45.085946
20
6.499998
30
0
11
-44.164379
21
6.500002
31
0
39
0
210
0
220
0
230
1
0
LINE
5
99
100
AcDbEntity
8
1
62
256
6
ByLayer
370
18
48
1
60
1
100
AcDbLine
10
-44.164379
20
6.500002
30
0
11
-44.625163
21
3
31
0
39
0
210
0
220
0
230
1
0
LINE
5
9A
100
AcDbEntity
8
1
62
256
6
ByLayer
370
18
48
1
60
1
100
AcDbLine
10
-44.625163
20
-3
30
0
11
-44.164379
21
-6.499998
31
0
39
0
210
0
220
0
230
1
0
LINE
5
9B
100
AcDbEntity
8
1
62
256
6
ByLayer
370
18
48
1
60
1
100
AcDbLine
10
-44.164379
20
-6.499998
30
0
11
-45.085946
21
-6.500002
31
0
39
0
210
0
220
0
230
1
0
LINE
5
9C
100
AcDbEntity
8
1
62
256
6
ByLayer
370
18
48
1
60
1
100
AcDbLine
10
-45.085946
20
-6.500002
30
0
11
-44.625163
21
-3
31
0
39
0
210
0
220
0
230
1
0
LINE
5
9D
100
AcDbEntity
8
2
62
256
6
ByLayer
370
13
48
1
60
0
100
AcDbLine
10
42.083343
20
29.310193
30
0
11
42.083343
21
-10.35
31
0
39
0
210
0
220
0
230
1
0
LINE
5
9F
100
AcDbEntity
8
2
62
256
6
ByLayer
370
13
48
1
60
0
100
AcDbLine
10
30.9541
20
1.6
30
0
11
44.083343
21
1.6
31
0
39
0
210
0
220
0
230
1
0
LINE
5
A0
100
AcDbEntity
8
2
62
256
6
ByLayer
370
13
48
1
60
0
100
AcDbLine
10
30.9541
20
-1.6
30
0
11
44.083343
21
-1.6
31
0
39
0
210
0
220
0
230
1
0
LINE
5
A1
100
AcDbEntity
8
1
62
256
6
ByLayer
370
18
48
1
60
1
100
AcDbLine
10
42.083343
20
1.6
30
0
11
41.622559
21
5.099998
31
0
39
0
210
0
220
0
230
1
0
LINE
5
A2
100
AcDbEntity
8
1
62
256
6
ByLayer
370
18
48
1
60
1
100
AcDbLine
10
41.622559
20
5.099998
30
0
11
42.544126
21
5.100002
31
0
39
0
210
0
220
0
230
1
0
LINE
5
A3
100
AcDbEntity
8
1
62
256
6
ByLayer
370
18
48
1
60
1
100
AcDbLine
10
42.544126
20
5.100002
30
0
11
42.083343
21
1.6
31
0
39
0
210
0
220
0
230
1
0
LINE
5
A4
100
AcDbEntity
8
1
62
256
6
ByLayer
370
18
48
1
60
1
100
AcDbLine
10
42.083343
20
-1.6
30
0
11
42.544126
21
-5.099998
31
0
39
0
210
0
220
0
230
1
0
LINE
5
A5
100
AcDbEntity
8
1
62
256
6
ByLayer
370
18
48
1
60
1
100
AcDbLine
10
42.544126
20
-5.099998
30
0
11
41.622559
21
-5.100002
31
0
39
0
210
0
220
0
230
1
0
LINE
5
A6
100
AcDbEntity
8
1
62
256
6
ByLayer
370
18
48
1
60
1
100
AcDbLine
10
41.622559
20
-5.100002
30
0
11
42.083343
21
-1.6
31
0
39
0
210
0
220
0
230
1
0
LINE
5
F9
100
AcDbEntity
8
1
62
256
6
ByLayer
370
18
48
1
60
1
100
AcDbLine
10
-44.625163
20
3
30
0
11
-45.085946
21
6.499998
31
0
39
0
210
0
220
0
230
1
0
LINE
5
FA
100
AcDbEntity
8
1
62
256
6
ByLayer
370
18
48
1
60
1
100
AcDbLine
10
-45.085946
20
6.499998
30
0
11
-44.164379
21
6.500002
31
0
39
0
210
0
220
0
230
1
0
LINE
5
FB
100
AcDbEntity
8
1
62
256
6
ByLayer
370
18
48
1
60
1
100
AcDbLine
10
-44.164379
20
6.500002
30
0
11
-44.625163
21
3
31
0
39
0
210
0
220
0
230
1
0
LINE
5
FD
100
AcDbEntity
8
1
62
256
6
ByLayer
370
18
48
1
60
1
100
AcDbLine
10
-44.625163
20
-3
30
0
11
-44.164379
21
-6.499998
31
0
39
0
210
0
220
0
230
1
0
LINE
5
FE
100
AcDbEntity
8
1
62
256
6
ByLayer
370
18
48
1
60
1
100
AcDbLine
10
-44.164379
20
-6.499998
30
0
11
-45.085946
21
-6.500002
31
0
39
0
210
0
220
0
230
1
0
LINE
5
FF
100
AcDbEntity
8
1
62
256
6
ByLayer
370
18
48
1
60
1
100
AcDbLine
10
-45.085946
20
-6.500002
30
0
11
-44.625163
21
-3
31
0
39
0
210
0
220
0
230
1
0
LINE
5
103
100
AcDbEntity
8
1
62
256
6
ByLayer
370
18
48
1
60
1
100
AcDbLine
10
42.083343
20
1.6
30
0
11
41.622559
21
5.099998
31
0
39
0
210
0
220
0
230
1
0
LINE
5
104
100
AcDbEntity
8
1
62
256
6
ByLayer
370
18
48
1
60
1
100
AcDbLine
10
41.622559
20
5.099998
30
0
11
42.544126
21
5.100002
31
0
39
0
210
0
220
0
230
1
0
LINE
5
105
100
AcDbEntity
8
1
62
256
6
ByLayer
370
18
48
1
60
1
100
AcDbLine
10
42.544126
20
5.100002
30
0
11
42.083343
21
1.6
31
0
39
0
210
0
220
0
230
1
0
LINE
5
107
100
AcDbEntity
8
1
62
256
6
ByLayer
370
18
48
1
60
1
100
AcDbLine
10
42.083343
20
-1.6
30
0
11
42.544126
21
-5.099998
31
0
39
0
210
0
220
0
230
1
0
LINE
5
108
100
AcDbEntity
8
1
62
256
6
ByLayer
370
18
48
1
60
1
100
AcDbLine
10
42.544126
20
-5.099998
30
0
11
41.622559
21
-5.100002
31
0
39
0
210
0
220
0
230
1
0
LINE
5
109
100
AcDbEntity
8
1
62
256
6
ByLayer
370
18
48
1
60
1
100
AcDbLine
10
41.622559
20
-5.100002
30
0
11
42.083343
21
-1.6
31
0
39
0
210
0
220
0
230
1
0
MTEXT
5
F3
100
AcDbEntity
8
SK6
62
256
6
ByLayer
370
13
48
1
60
0
100
AcDbMText
10
-31.109026
20
34.140328
30
0
210
0
220
0
230
1
1
\W0.7386;860.1-0320-021A0-PM P1BM
40
3.5
41
0
44
1.084337
50
0
71
7
72
5
7
iso_b_vert
0
MTEXT
5
F7
100
AcDbEntity
8
SK2
62
256
6
ByLayer
370
18
48
1
60
0
100
AcDbMText
10
-46.189796
20
16.409024
30
0
210
0
220
0
230
1
1
%%c
40
3.5
41
0
44
1.084337
50
90
71
7
72
5
7
iso_b_vert
0
MTEXT
5
F8
100
AcDbEntity
8
SK2
62
256
6
ByLayer
370
18
48
1
60
0
100
AcDbMText
10
-46.189796
20
21.63168
30
0
210
0
220
0
230
1
1
\W0.7317;6,000
40
3.5
41
0
44
1.084337
50
90
71
7
72
5
7
iso_b_vert
0
MTEXT
5
101
100
AcDbEntity
8
2
62
256
6
ByLayer
370
18
48
1
60
0
100
AcDbMText
10
40.518709
20
13.60211
30
0
210
0
220
0
230
1
1
%%c
40
3.5
41
0
44
1.084337
50
90
71
7
72
5
7
iso_b_vert
0
MTEXT
5
102
100
AcDbEntity
8
2
62
256
6
ByLayer
370
18
48
1
60
0
100
AcDbMText
10
40.518709
20
18.824766
30
0
210
0
220
0
230
1
1
\W0.7317;3,200
40
3.5
41
0
44
1.084337
50
90
71
7
72
5
7
iso_b_vert
0
HATCH
5
FC
100
AcDbEntity
8
SK2
62
256
6
ByLayer
370
13
48
1
60
0
100
AcDbHatch
10
0
20
0
30
0
210
0
220
0
230
1
2
ANSI31
70
0
71
0
91
1
92
5
93
3
72
1
10
-44.6251625675374
20
3
11
-45.0859463090902
21
6.49999830744682
72
1
10
-45.0859463090902
20
6.49999830744682
11
-44.1643788259847
21
6.50000169255318
72
1
10
-44.1643788259847
20
6.50000169255318
11
-44.6251625675374
21
3
97
0
75
0
76
1
52
0
41
0.0062
77
0
78
1
53
45
43
0
44
0
45
-0.0139193969876572
46
0.0139193969876572
79
0
47
0
98
1
10
0
20
0
0
HATCH
5
100
100
AcDbEntity
8
SK2
62
256
6
ByLayer
370
13
48
1
60
0
100
AcDbHatch
10
0
20
0
30
0
210
0
220
0
230
1
2
ANSI31
70
0
71
0
91
1
92
5
93
3
72
1
10
-44.6251625675374
20
-3
11
-44.1643788259847
21
-6.49999830744682
72
1
10
-44.1643788259847
20
-6.49999830744682
11
-45.0859463090902
21
-6.50000169255318
72
1
10
-45.0859463090902
20
-6.50000169255318
11
-44.6251625675374
21
-3
97
0
75
0
76
1
52
0
41
0.0062
77
0
78
1
53
45
43
0
44
0
45
-0.0139193969876572
46
0.0139193969876572
79
0
47
0
98
1
10
0
20
0
0
HATCH
5
106
100
AcDbEntity
8
2
62
256
6
ByLayer
370
13
48
1
60
0
100
AcDbHatch
10
0
20
0
30
0
210
0
220
0
230
1
2
ANSI31
70
0
71
0
91
1
92
5
93
3
72
1
10
42.083342615295
20
1.60000000000002
11
41.6225588737423
21
5.09999830744684
72
1
10
41.6225588737423
20
5.09999830744684
11
42.5441263568478
21
5.10000169255321
72
1
10
42.5441263568478
20
5.10000169255321
11
42.083342615295
21
1.60000000000002
97
0
75
0
76
1
52
0
41
0.0062
77
0
78
1
53
45
43
0
44
0
45
-0.0139193969876572
46
0.0139193969876572
79
0
47
0
98
1
10
0
20
0
0
HATCH
5
10A
100
AcDbEntity
8
2
62
256
6
ByLayer
370
13
48
1
60
0
100
AcDbHatch
10
0
20
0
30
0
210
0
220
0
230
1
2
ANSI31
70
0
71
0
91
1
92
5
93
3
72
1
10
42.083342615295
20
-1.59999999999999
11
42.5441263568478
21
-5.09999830744681
72
1
10
42.5441263568478
20
-5.09999830744681
11
41.6225588737423
21
-5.10000169255318
72
1
10
41.6225588737423
20
-5.10000169255318
11
42.083342615295
21
-1.59999999999999
97
0
75
0
76
1
52
0
41
0.0062
77
0
78
1
53
45
43
0
44
0
45
-0.0139193969876572
46
0.0139193969876572
79
0
47
0
98
1
10
0
20
0
0
DIMENSION
5
10C
100
AcDbEntity
8
2
62
256
6
ByLayer
370
13
48
1
60
0
100
AcDbDimension
2
_U0
10
29.3666
20
-11.813398
30
0
11
14.6833
21
-11.813398
31
0
70
32
71
1
72
1
41
1
210
0
220
0
230
1
3
Standard
100
AcDbAlignedDimension
13
0
23
0
33
0
14
29.3666
24
-1.6
34
0
50
0
100
AcDbRotatedDimension
1001
ACAD
1000
DSTYLE
1002
{
1070
   371
1070
    13
1070
   372
1070
    13
1070
   170
1070
     0
1070
   144
1040
1.0
1070
   277
1070
     2
1070
   278
1070
    44
1070
   146
1040
1.0
1070
   345
1005
16
1070
   347
1005
16
1070
   346
1005
16
1070
   344
1005
0
1070
   343
1005
0
1070
   172
1070
     1
1070
    76
1070
     0
1070
    75
1070
     0
1070
   282
1070
     0
1070
   281
1070
     0
1070
    71
1070
     0
1070
    74
1070
     0
1070
   279
1070
     0
1070
   173
1070
     1
1070
   340
1005
F4
1070
   271
1070
     2
1070
   272
1070
     2
1070
    77
1070
     1
1070
    73
1070
     1
1070
   171
1070
     3
1070
   274
1070
     4
1070
   177
1070
    35
1070
   176
1070
    35
1070
   178
1070
    35
1070
    48
1040
-0.1
1070
    41
1040
3.5
1070
   147
1040
1.75
1070
    42
1040
1.5875
1070
    44
1040
2.0
1070
   140
1040
3.5
1002
}
1001
ACAD_DSTYLE_DIM_LINETYPE
1070
   380
1005
16
1001
ACAD_DSTYLE_DIM_EXT1_LINETYPE
1070
   381
1005
16
1001
ACAD_DSTYLE_DIM_EXT2_LINETYPE
1070
   382
1005
16
0
DIMENSION
5
125
100
AcDbEntity
8
SK2
62
256
6
ByLayer
370
13
48
1
60
0
100
AcDbDimension
2
_U1
10
30
20
-31.692985
30
0
11
-3
21
-31.692985
31
0
70
32
71
1
72
1
41
1
210
0
220
0
230
1
3
Standard
100
AcDbAlignedDimension
13
-36
23
-3
33
0
14
30
24
0
34
0
50
0
100
AcDbRotatedDimension
1001
ACAD
1000
DSTYLE
1002
{
1070
   371
1070
    13
1070
   372
1070
    13
1070
   170
1070
     0
1070
   144
1040
1.0
1070
   277
1070
     2
1070
   278
1070
    44
1070
   146
1040
1.0
1070
   345
1005
16
1070
   347
1005
16
1070
   346
1005
16
1070
   344
1005
0
1070
   343
1005
0
1070
   172
1070
     1
1070
    76
1070
     0
1070
    75
1070
     0
1070
   282
1070
     0
1070
   281
1070
     0
1070
    71
1070
     0
1070
    74
1070
     0
1070
   279
1070
     0
1070
   173
1070
     1
1070
   340
1005
F4
1070
   271
1070
     2
1070
   272
1070
     2
1070
    77
1070
     1
1070
    73
1070
     1
1070
   171
1070
     3
1070
   274
1070
     4
1070
   177
1070
    35
1070
   176
1070
    35
1070
   178
1070
    35
1070
    48
1040
-0.1
1070
    41
1040
3.5
1070
   147
1040
1.75
1070
    42
1040
1.5875
1070
    44
1040
2.0
1070
   140
1040
3.5
1002
}
1001
ACAD_DSTYLE_DIM_LINETYPE
1070
   380
1005
16
1001
ACAD_DSTYLE_DIM_EXT1_LINETYPE
1070
   381
1005
16
1001
ACAD_DSTYLE_DIM_EXT2_LINETYPE
1070
   382
1005
16
0
DIMENSION
5
13D
100
AcDbEntity
8
SK2
62
256
6
ByLayer
370
13
48
1
60
0
100
AcDbDimension
2
_U2
10
30
20
13.209119
30
0
11
21.685
21
13.209119
31
0
70
32
71
1
72
1
41
1
210
0
220
0
230
1
3
Standard
100
AcDbAlignedDimension
13
13.37
23
1.6
33
0
14
30
24
0
34
0
50
0
100
AcDbRotatedDimension
1001
ACAD
1000
DSTYLE
1002
{
1070
   371
1070
    13
1070
   372
1070
    13
1070
   170
1070
     0
1070
   144
1040
1.0
1070
   277
1070
     2
1070
   278
1070
    44
1070
   146
1040
1.0
1070
   345
1005
16
1070
   347
1005
16
1070
   346
1005
16
1070
   344
1005
0
1070
   343
1005
0
1070
   172
1070
     1
1070
    76
1070
     0
1070
    75
1070
     0
1070
   282
1070
     0
1070
   281
1070
     0
1070
    71
1070
     0
1070
    74
1070
     0
1070
   279
1070
     0
1070
   173
1070
     1
1070
   340
1005
F4
1070
   271
1070
     2
1070
   272
1070
     2
1070
    77
1070
     1
1070
    73
1070
     1
1070
   171
1070
     3
1070
   274
1070
     4
1070
   177
1070
    35
1070
   176
1070
    35
1070
   178
1070
    35
1070
    48
1040
-0.1
1070
    41
1040
3.5
1070
   147
1040
1.75
1070
    42
1040
1.5875
1070
    44
1040
2.0
1070
   140
1040
3.5
1002
}
1001
ACAD_DSTYLE_DIM_LINETYPE
1070
   380
1005
16
1001
ACAD_DSTYLE_DIM_EXT1_LINETYPE
1070
   381
1005
16
1001
ACAD_DSTYLE_DIM_EXT2_LINETYPE
1070
   382
1005
16
0
DIMENSION
5
156
100
AcDbEntity
8
SK2
62
256
6
ByLayer
370
13
48
1
60
0
100
AcDbDimension
2
_U3
10
29.3666
20
-14.402503
30
0
11
47.583333
21
-14.402503
31
0
70
32
71
1
72
1
41
1
210
0
220
0
230
1
3
Standard
100
AcDbAlignedDimension
13
30
23
0
33
0
14
29.3666
24
-1.6
34
0
50
0
100
AcDbRotatedDimension
1001
ACAD
1000
DSTYLE
1002
{
1070
   371
1070
    13
1070
   372
1070
    13
1070
   170
1070
     0
1070
   144
1040
1.0
1070
   277
1070
     2
1070
   278
1070
    44
1070
   146
1040
1.0
1070
   345
1005
16
1070
   347
1005
16
1070
   346
1005
16
1070
   344
1005
0
1070
   343
1005
0
1070
   172
1070
     1
1070
    76
1070
     0
1070
    75
1070
     0
1070
   282
1070
     0
1070
   281
1070
     0
1070
    71
1070
     0
1070
    74
1070
     0
1070
   279
1070
     0
1070
   173
1070
     1
1070
   340
1005
F4
1070
   271
1070
     2
1070
   272
1070
     2
1070
    77
1070
     1
1070
    73
1070
     1
1070
   171
1070
     3
1070
   274
1070
     4
1070
   177
1070
    35
1070
   176
1070
    35
1070
   178
1070
    35
1070
    48
1040
-0.1
1070
    41
1040
3.5
1070
   147
1040
1.75
1070
    42
1040
1.5875
1070
    44
1040
2.0
1070
   140
1040
3.5
1002
}
1001
ACAD_DSTYLE_DIM_LINETYPE
1070
   380
1005
16
1001
ACAD_DSTYLE_DIM_EXT1_LINETYPE
1070
   381
1005
16
1001
ACAD_DSTYLE_DIM_EXT2_LINETYPE
1070
   382
1005
16
0
DIMENSION
5
170
100
AcDbEntity
8
SK2
62
256
6
ByLayer
370
13
48
1
60
0
100
AcDbDimension
2
_U4
10
29.3666
20
-21.343428
30
0
11
-3.3167
21
-21.343428
31
0
70
32
71
1
72
1
41
1
210
0
220
0
230
1
3
Standard
100
AcDbAlignedDimension
13
-36
23
-3
33
0
14
29.3666
24
-1.6
34
0
50
0
100
AcDbRotatedDimension
1001
ACAD
1000
DSTYLE
1002
{
1070
   371
1070
    13
1070
   372
1070
    13
1070
   170
1070
     0
1070
   144
1040
1.0
1070
   277
1070
     2
1070
   278
1070
    44
1070
   146
1040
1.0
1070
   345
1005
16
1070
   347
1005
16
1070
   346
1005
16
1070
   344
1005
0
1070
   343
1005
0
1070
   172
1070
     1
1070
    76
1070
     0
1070
    75
1070
     0
1070
   282
1070
     0
1070
   281
1070
     0
1070
    71
1070
     0
1070
    74
1070
     0
1070
   279
1070
     0
1070
   173
1070
     1
1070
   340
1005
F4
1070
   271
1070
     2
1070
   272
1070
     2
1070
    77
1070
     1
1070
    73
1070
     1
1070
   171
1070
     3
1070
   274
1070
     4
1070
   177
1070
    35
1070
   176
1070
    35
1070
   178
1070
    35
1070
    48
1040
-0.1
1070
    41
1040
3.5
1070
   147
1040
1.75
1070
    42
1040
1.5875
1070
    44
1040
2.0
1070
   140
1040
3.5
1002
}
1001
ACAD_DSTYLE_DIM_LINETYPE
1070
   380
1005
16
1001
ACAD_DSTYLE_DIM_EXT1_LINETYPE
1070
   381
1005
16
1001
ACAD_DSTYLE_DIM_EXT2_LINETYPE
1070
   382
1005
16
0
ENDSEC
0
SECTION
2
OBJECTS
0
DICTIONARY
5
1f8
330
0
100
AcDbDictionary
280
0
281
1
3
ACAD_GROUP
350
1f9
3
ACAD_MLINESTYLE
350
1fa
0
DICTIONARY
5
1f9
330
0
100
AcDbDictionary
280
0
281
1
0
DICTIONARY
5
1fa
330
0
100
AcDbDictionary
280
0
281
1
3
Standard
350
18
0
MLINESTYLE
5
18
330
1fa
100
AcDbMlineStyle
2
Standard
70
0
3

62
256
51
90
52
90
71
2
49
-0.5
62
256
6
ByLayer
49
0.5
62
256
6
ByLayer
0
RASTERVARIABLES
5
1e6
330

100
AcDbRasterVariables
90
0
70
1
71
1
72
1
0
ENDSEC
0
EOF
